0
SECTION
2
HEADER
9
$ACADVER
1
AC1015
9
$DWGCODEPAGE
3
ANSI_1252
9
$HANDSEED
5
247
9
$ANGBASE
50
0
9
$ANGDIR
70
0
9
$ATTMODE
70
1
9
$AUNITS
70
0
9
$AUPREC
70
0
9
$CECOLOR
62
256
9
$CELTSCALE
40
1
9
$CELTYPE
6
ByLayer
9
$CELWEIGHT
370
18
9
$CLAYER
8
0
9
$CMLJUST
70
0
9
$CMLSCALE
40
1
9
$CMLSTYLE
2
Standard
9
$DIMSTYLE
2
Standard
9
$TEXTSIZE
40
0.2
9
$TEXTSTYLE
7
Standard
9
$LUNITS
70
2
9
$LUPREC
70
4
9
$EXTNAMES
290
1
9
$INSUNITS
70
4
9
$LTSCALE
40
1
9
$LWDISPLAY
290
1
9
$PDMODE
70
0
9
$PDSIZE
40
0
9
$PLINEGEN
70
0
0
ENDSEC
0
SECTION
2
CLASSES
0
CLASS
1
RASTERVARIABLES
2
AcDbRasterVariables
3
ISM
90
0
280
0
281
0
0
ENDSEC
0
SECTION
2
TABLES
0
TABLE
2
VPORT
5
23d
100
AcDbSymbolTable
0
VPORT
5
1
100
AcDbSymbolTableRecord
100
AcDbViewportTableRecord
2
*Active
70
0
10
0
20
0
11
1
21
1
12
-1
22
1
13
0
23
0
14
0.5
24
0.5
15
10
25
10
16
0
26
0
36
1
17
0
27
0
37
0
0
ENDTAB
0
TABLE
2
LTYPE
5
23e
100
AcDbSymbolTable
0
LTYPE
5
14
100
AcDbSymbolTableRecord
100
AcDbLinetypeTableRecord
70
0
2
ByBlock
3

72
65
73
0
40
0
0
LTYPE
5
15
100
AcDbSymbolTableRecord
100
AcDbLinetypeTableRecord
70
0
2
ByLayer
3

72
65
73
0
40
0
0
LTYPE
5
16
100
AcDbSymbolTableRecord
100
AcDbLinetypeTableRecord
70
0
2
CONTINUOUS
3
Solid line
72
65
73
0
40
0
0
LTYPE
5
6A
100
AcDbSymbolTableRecord
100
AcDbLinetypeTableRecord
70
0
2
CENTER
3
____ _ ____ _ ____ _ ____
72
65
73
4
40
47.5
49
22
74
0
49
-8.5
74
0
49
8.5
74
0
49
-8.5
74
0
0
LTYPE
5
6B
100
AcDbSymbolTableRecord
100
AcDbLinetypeTableRecord
70
0
2
DASHED
3
__ __ __ __ __ __ __ __ __
72
65
73
2
40
25.72
49
12.86
74
0
49
-12.86
74
0
0
ENDTAB
0
TABLE
2
LAYER
5
23f
100
AcDbSymbolTable
0
LAYER
5
10
100
AcDbSymbolTableRecord
100
AcDbLayerTableRecord
2
0
70
0
62
7
6
CONTINUOUS
290
1
370
-3
390
0
0
LAYER
5
6D
100
AcDbSymbolTableRecord
100
AcDbLayerTableRecord
2
2
70
0
62
7
6
CONTINUOUS
290
1
370
-3
390
0
0
LAYER
5
6F
100
AcDbSymbolTableRecord
100
AcDbLayerTableRecord
2
80
70
0
62
-6
6
CONTINUOUS
290
1
370
-3
390
0
0
LAYER
5
71
100
AcDbSymbolTableRecord
100
AcDbLayerTableRecord
2
81
70
0
62
-3
6
CONTINUOUS
290
1
370
-3
390
0
0
LAYER
5
73
100
AcDbSymbolTableRecord
100
AcDbLayerTableRecord
2
1
70
0
62
4
6
CONTINUOUS
290
1
370
-3
390
0
0
LAYER
5
22a
100
AcDbSymbolTableRecord
100
AcDbLayerTableRecord
2
SK1
70
0
62
4
6
CONTINUOUS
290
1
370
-3
390
0
0
LAYER
5
22b
100
AcDbSymbolTableRecord
100
AcDbLayerTableRecord
2
SK6
70
0
62
5
6
CONTINUOUS
290
1
370
-3
390
0
0
LAYER
5
22c
100
AcDbSymbolTableRecord
100
AcDbLayerTableRecord
2
SK2
70
0
62
7
6
CONTINUOUS
290
1
370
-3
390
0
0
ENDTAB
0
TABLE
2
STYLE
5
240
100
AcDbSymbolTable
0
STYLE
5
11
100
AcDbSymbolTableRecord
100
AcDbTextStyleTableRecord
2
Standard
3
txt
70
0
71
0
40
0
41
1
42
0
50
0
0
STYLE
5
180
100
AcDbSymbolTableRecord
100
AcDbTextStyleTableRecord
2
iso_b_vert
3
simplex.shx
70
0
71
0
40
0
41
1
42
0
50
0
0
STYLE
5
181
100
AcDbSymbolTableRecord
100
AcDbTextStyleTableRecord
2
DWGDirectTextStyle
3
simplex
70
0
71
0
40
0
41
1
42
0
50
0
0
ENDTAB
0
TABLE
2
DIMSTYLE
5
241
100
AcDbSymbolTable
100
AcDbDimStyleTable
0
DIMSTYLE
105
27
100
AcDbSymbolTableRecord
100
AcDbDimStyleTableRecord
2
Standard
70
0
3
<>
41
0.18
42
0.0625
44
0.18
140
0.18
147
0.09
73
0
74
0
77
1
271
2
275
0
278
52
280
0
340
11
0
ENDTAB
0
TABLE
2
VIEW
5
242
100
AcDbSymbolTable
0
ENDTAB
0
TABLE
2
UCS
5
243
100
AcDbSymbolTable
0
ENDTAB
0
TABLE
2
APPID
5
244
100
AcDbSymbolTable
0
APPID
5
12
100
AcDbSymbolTableRecord
100
AcDbRegAppTableRecord
2
ACAD
70
0
0
ENDTAB
0
TABLE
2
BLOCK_RECORD
5
245
100
AcDbSymbolTable
0
BLOCK_RECORD
5
1F
100
AcDbSymbolTableRecord
100
AcDbBlockTableRecord
2
*Model_Space
340
0
70
0
0
BLOCK_RECORD
5
1B
100
AcDbSymbolTableRecord
100
AcDbBlockTableRecord
2
*Paper_Space
340
0
70
0
0
BLOCK_RECORD
5
23
100
AcDbSymbolTableRecord
100
AcDbBlockTableRecord
2
*Paper_Space0
340
0
70
0
0
BLOCK_RECORD
5
183
100
AcDbSymbolTableRecord
100
AcDbBlockTableRecord
2
DimnDraft3D11
340
0
70
0
0
BLOCK_RECORD
5
192
100
AcDbSymbolTableRecord
100
AcDbBlockTableRecord
2
DimnDraft3D2
340
0
70
0
0
BLOCK_RECORD
5
1A0
100
AcDbSymbolTableRecord
100
AcDbBlockTableRecord
2
_CLOSED
340
0
70
0
0
BLOCK_RECORD
5
1A7
100
AcDbSymbolTableRecord
100
AcDbBlockTableRecord
2
DimnDraft3D3
340
0
70
0
0
BLOCK_RECORD
5
1B5
100
AcDbSymbolTableRecord
100
AcDbBlockTableRecord
2
DimnDraft3D4
340
0
70
0
0
BLOCK_RECORD
5
1C3
100
AcDbSymbolTableRecord
100
AcDbBlockTableRecord
2
DimnDraft3D5
340
0
70
0
0
ENDTAB
0
ENDSEC
0
SECTION
2
BLOCKS
0
BLOCK
5
20
100
AcDbEntity
8
0
100
AcDbBlockBegin
2
*Model_Space
70
0
10
0
20
0
30
0
3
*Model_Space
0
ENDBLK
5
21
100
AcDbEntity
8
0
100
AcDbBlockEnd
0
BLOCK
5
1C
100
AcDbEntity
8
0
100
AcDbBlockBegin
2
*Paper_Space
70
0
10
0
20
0
30
0
3
*Paper_Space
0
ENDBLK
5
1D
100
AcDbEntity
8
0
100
AcDbBlockEnd
0
BLOCK
5
24
100
AcDbEntity
8
0
100
AcDbBlockBegin
2
*Paper_Space0
70
0
10
0
20
0
30
0
3
*Paper_Space0
0
ENDBLK
5
25
100
AcDbEntity
8
0
100
AcDbBlockEnd
0
BLOCK
5
184
100
AcDbEntity
8
0
100
AcDbBlockBegin
2
DimnDraft3D11
70
0
10
0
20
0
30
0
3
DimnDraft3D11
0
LINE
5
186
100
AcDbEntity
8
SK2
62
256
6
ByLayer
370
25
48
1
60
0
100
AcDbLine
10
32.22954
20
-21.9125
30
0
11
32.22954
21
-60.1625
31
0
39
0
210
0
220
0
230
1
0
LINE
5
188
100
AcDbEntity
8
SK2
62
256
6
ByLayer
370
25
48
1
60
0
100
AcDbLine
10
-139.12046
20
-14.4375
30
0
11
-139.12046
21
-60.1625
31
0
39
0
210
0
220
0
230
1
0
LINE
5
189
100
AcDbEntity
8
SK2
62
256
6
ByLayer
370
25
48
1
60
0
100
AcDbLine
10
32.22954
20
-58.1625
30
0
11
-139.12046
21
-58.1625
31
0
39
0
210
0
220
0
230
1
0
LINE
5
18A
100
AcDbEntity
8
SK2
62
256
6
ByLayer
370
25
48
1
60
0
100
AcDbLine
10
32.22954
20
-58.1625
30
0
11
29.054541
21
-58.580497
31
0
39
0
210
0
220
0
230
1
0
LINE
5
18B
100
AcDbEntity
8
SK2
62
256
6
ByLayer
370
25
48
1
60
0
100
AcDbLine
10
32.22954
20
-58.1625
30
0
11
29.054538
21
-57.744503
31
0
39
0
210
0
220
0
230
1
0
LINE
5
18C
100
AcDbEntity
8
SK2
62
256
6
ByLayer
370
25
48
1
60
0
100
AcDbLine
10
29.054541
20
-58.580497
30
0
11
29.054538
21
-57.744503
31
0
39
0
210
0
220
0
230
1
0
LINE
5
18D
100
AcDbEntity
8
SK2
62
256
6
ByLayer
370
25
48
1
60
0
100
AcDbLine
10
-139.12046
20
-58.1625
30
0
11
-135.945462
21
-57.744503
31
0
39
0
210
0
220
0
230
1
0
LINE
5
18E
100
AcDbEntity
8
SK2
62
256
6
ByLayer
370
25
48
1
60
0
100
AcDbLine
10
-139.12046
20
-58.1625
30
0
11
-135.945459
21
-58.580497
31
0
39
0
210
0
220
0
230
1
0
LINE
5
18F
100
AcDbEntity
8
SK2
62
256
6
ByLayer
370
25
48
1
60
0
100
AcDbLine
10
-135.945462
20
-57.744503
30
0
11
-135.945459
21
-58.580497
31
0
39
0
210
0
220
0
230
1
0
MTEXT
5
190
100
AcDbEntity
8
SK2
62
256
6
ByLayer
370
18
48
1
60
0
100
AcDbMText
10
-58.721118
20
-57.0375
30
0
210
0
220
0
230
1
1
\W0.6864;170.0
40
4.5
41
0
44
1.084337
50
0
71
7
72
5
7
iso_b_vert
0
ENDBLK
5
185
100
AcDbEntity
8
0
100
AcDbBlockEnd
0
BLOCK
5
19D
100
AcDbEntity
8
0
100
AcDbBlockBegin
2
DimnDraft3D2
70
0
10
0
20
0
30
0
3
DimnDraft3D2
0
MTEXT
5
193
100
AcDbEntity
8
2
62
256
6
ByLayer
370
18
48
1
60
0
100
AcDbMText
10
15.323607
20
-31.586616
30
0
210
0
220
0
230
1
1
\W0.7399;95%%d
40
4.5
41
0
44
1.084337
50
312.65427684
71
7
72
5
7
iso_b_vert
0
LINE
5
194
100
AcDbEntity
8
2
62
256
6
ByLayer
370
13
48
1
60
0
100
AcDbLine
10
32.22954
20
-21.9125
30
0
11
32.22954
21
-43.402991
31
0
39
0
210
0
220
0
230
1
0
LINE
5
195
100
AcDbEntity
8
2
62
256
6
ByLayer
370
13
48
1
60
0
100
AcDbLine
10
28.38092
20
-19.664471
30
0
11
8.885331
21
-18.064572
31
0
39
0
210
0
220
0
230
1
0
ARC
5
196
100
AcDbEntity
8
2
62
256
6
ByLayer
370
13
48
1
60
0
100
AcDbCircle
39
0
10
32.22954
20
-19.980307
30
0
40
21.4226837817216
210
0
220
0
230
1
100
AcDbArc
50
175.308554
51
270
0
LINE
5
197
100
AcDbEntity
8
2
62
256
6
ByLayer
370
13
48
1
60
0
100
AcDbLine
10
32.22954
20
-41.402991
30
0
11
29.041257
21
-41.703304
31
0
39
0
210
0
220
0
230
1
0
LINE
5
198
100
AcDbEntity
8
2
62
256
6
ByLayer
370
13
48
1
60
0
100
AcDbLine
10
32.22954
20
-41.402991
30
0
11
29.072165
21
-40.867882
31
0
39
0
210
0
220
0
230
1
0
LINE
5
199
100
AcDbEntity
8
2
62
256
6
ByLayer
370
13
48
1
60
0
100
AcDbLine
10
29.041257
20
-41.703304
30
0
11
29.072165
21
-40.867882
31
0
39
0
210
0
220
0
230
1
0
LINE
5
19A
100
AcDbEntity
8
2
62
256
6
ByLayer
370
13
48
1
60
0
100
AcDbLine
10
10.87863
20
-18.228152
30
0
11
11.153706
21
-21.418711
31
0
39
0
210
0
220
0
230
1
0
LINE
5
19B
100
AcDbEntity
8
2
62
256
6
ByLayer
370
13
48
1
60
0
100
AcDbLine
10
10.87863
20
-18.228152
30
0
11
10.318555
21
-21.381193
31
0
39
0
210
0
220
0
230
1
0
LINE
5
19C
100
AcDbEntity
8
2
62
256
6
ByLayer
370
13
48
1
60
0
100
AcDbLine
10
11.153706
20
-21.418711
30
0
11
10.318555
21
-21.381193
31
0
39
0
210
0
220
0
230
1
0
ENDBLK
5
19E
100
AcDbEntity
8
0
100
AcDbBlockEnd
0
BLOCK
5
1A1
100
AcDbEntity
8
0
100
AcDbBlockBegin
2
_CLOSED
70
0
10
0
20
0
30
0
3
_CLOSED
0
LINE
5
1A3
100
AcDbEntity
8
0
62
256
6
ByLayer
370
-2
48
1
60
0
100
AcDbLine
10
-1
20
0.166667
30
0
11
0
21
0
31
0
39
0
210
0
220
0
230
1
0
LINE
5
1A4
100
AcDbEntity
8
0
62
256
6
ByLayer
370
-2
48
1
60
0
100
AcDbLine
10
0
20
0
30
0
11
-1
21
-0.166667
31
0
39
0
210
0
220
0
230
1
0
LINE
5
1A5
100
AcDbEntity
8
0
62
256
6
ByLayer
370
-2
48
1
60
0
100
AcDbLine
10
-1
20
0.166667
30
0
11
-1
21
-0.166667
31
0
39
0
210
0
220
0
230
1
0
LINE
5
1A6
100
AcDbEntity
8
0
62
256
6
ByLayer
370
-2
48
1
60
0
100
AcDbLine
10
0
20
0
30
0
11
-1
21
0
31
0
39
0
210
0
220
0
230
1
0
ENDBLK
5
1A2
100
AcDbEntity
8
0
100
AcDbBlockEnd
0
BLOCK
5
1B2
100
AcDbEntity
8
0
100
AcDbBlockBegin
2
DimnDraft3D3
70
0
10
0
20
0
30
0
3
DimnDraft3D3
0
MTEXT
5
1A8
100
AcDbEntity
8
2
62
256
6
ByLayer
370
18
48
1
60
0
100
AcDbMText
10
11.958191
20
-47.0375
30
0
210
0
220
0
230
1
1
\W0.7346;32.2
40
4.5
41
0
44
1.084337
50
0
71
7
72
5
7
iso_b_vert
0
LINE
5
1A9
100
AcDbEntity
8
2
62
256
6
ByLayer
370
13
48
1
60
0
100
AcDbLine
10
0
20
-14.4375
30
0
11
0
21
-50.1625
31
0
39
0
210
0
220
0
230
1
0
LINE
5
1AA
100
AcDbEntity
8
2
62
256
6
ByLayer
370
13
48
1
60
0
100
AcDbLine
10
32.22954
20
-21.9125
30
0
11
32.22954
21
-50.1625
31
0
39
0
210
0
220
0
230
1
0
LINE
5
1AB
100
AcDbEntity
8
2
62
256
6
ByLayer
370
13
48
1
60
0
100
AcDbLine
10
0
20
-48.1625
30
0
11
32.22954
21
-48.1625
31
0
39
0
210
0
220
0
230
1
0
LINE
5
1AC
100
AcDbEntity
8
2
62
256
6
ByLayer
370
13
48
1
60
0
100
AcDbLine
10
0
20
-48.1625
30
0
11
3.174998
21
-47.744503
31
0
39
0
210
0
220
0
230
1
0
LINE
5
1AD
100
AcDbEntity
8
2
62
256
6
ByLayer
370
13
48
1
60
0
100
AcDbLine
10
0
20
-48.1625
30
0
11
3.175002
21
-48.580497
31
0
39
0
210
0
220
0
230
1
0
LINE
5
1AE
100
AcDbEntity
8
2
62
256
6
ByLayer
370
13
48
1
60
0
100
AcDbLine
10
3.174998
20
-47.744503
30
0
11
3.175002
21
-48.580497
31
0
39
0
210
0
220
0
230
1
0
LINE
5
1AF
100
AcDbEntity
8
2
62
256
6
ByLayer
370
13
48
1
60
0
100
AcDbLine
10
32.22954
20
-48.1625
30
0
11
29.054541
21
-48.580497
31
0
39
0
210
0
220
0
230
1
0
LINE
5
1B0
100
AcDbEntity
8
2
62
256
6
ByLayer
370
13
48
1
60
0
100
AcDbLine
10
32.22954
20
-48.1625
30
0
11
29.054538
21
-47.744503
31
0
39
0
210
0
220
0
230
1
0
LINE
5
1B1
100
AcDbEntity
8
2
62
256
6
ByLayer
370
13
48
1
60
0
100
AcDbLine
10
29.054541
20
-48.580497
30
0
11
29.054538
21
-47.744503
31
0
39
0
210
0
220
0
230
1
0
ENDBLK
5
1B3
100
AcDbEntity
8
0
100
AcDbBlockEnd
0
BLOCK
5
1C0
100
AcDbEntity
8
0
100
AcDbBlockBegin
2
DimnDraft3D4
70
0
10
0
20
0
30
0
3
DimnDraft3D4
0
MTEXT
5
1B6
100
AcDbEntity
8
2
62
256
6
ByLayer
370
18
48
1
60
0
100
AcDbMText
10
53.35454
20
-7.894079
30
0
210
0
220
0
230
1
1
\W0.7346;32.0
40
4.5
41
0
44
1.084337
50
90
71
7
72
5
7
iso_b_vert
0
LINE
5
1B7
100
AcDbEntity
8
2
62
256
6
ByLayer
370
13
48
1
60
0
100
AcDbLine
10
2
20
12.4375
30
0
11
56.47954
21
12.4375
31
0
39
0
210
0
220
0
230
1
0
LINE
5
1B8
100
AcDbEntity
8
2
62
256
6
ByLayer
370
13
48
1
60
0
100
AcDbLine
10
34.22954
20
-19.9125
30
0
11
56.47954
21
-19.9125
31
0
39
0
210
0
220
0
230
1
0
LINE
5
1B9
100
AcDbEntity
8
2
62
256
6
ByLayer
370
13
48
1
60
0
100
AcDbLine
10
54.47954
20
12.4375
30
0
11
54.47954
21
-19.9125
31
0
39
0
210
0
220
0
230
1
0
LINE
5
1BA
100
AcDbEntity
8
2
62
256
6
ByLayer
370
13
48
1
60
0
100
AcDbLine
10
54.47954
20
12.4375
30
0
11
54.897536
21
9.262502
31
0
39
0
210
0
220
0
230
1
0
LINE
5
1BB
100
AcDbEntity
8
2
62
256
6
ByLayer
370
13
48
1
60
0
100
AcDbLine
10
54.47954
20
12.4375
30
0
11
54.061543
21
9.262498
31
0
39
0
210
0
220
0
230
1
0
LINE
5
1BC
100
AcDbEntity
8
2
62
256
6
ByLayer
370
13
48
1
60
0
100
AcDbLine
10
54.897536
20
9.262502
30
0
11
54.061543
21
9.262498
31
0
39
0
210
0
220
0
230
1
0
LINE
5
1BD
100
AcDbEntity
8
2
62
256
6
ByLayer
370
13
48
1
60
0
100
AcDbLine
10
54.47954
20
-19.9125
30
0
11
54.061543
21
-16.737502
31
0
39
0
210
0
220
0
230
1
0
LINE
5
1BE
100
AcDbEntity
8
2
62
256
6
ByLayer
370
13
48
1
60
0
100
AcDbLine
10
54.47954
20
-19.9125
30
0
11
54.897536
21
-16.737498
31
0
39
0
210
0
220
0
230
1
0
LINE
5
1BF
100
AcDbEntity
8
2
62
256
6
ByLayer
370
13
48
1
60
0
100
AcDbLine
10
54.061543
20
-16.737502
30
0
11
54.897536
21
-16.737498
31
0
39
0
210
0
220
0
230
1
0
ENDBLK
5
1C1
100
AcDbEntity
8
0
100
AcDbBlockEnd
0
BLOCK
5
1CE
100
AcDbEntity
8
0
100
AcDbBlockBegin
2
DimnDraft3D5
70
0
10
0
20
0
30
0
3
DimnDraft3D5
0
MTEXT
5
1C4
100
AcDbEntity
8
SK2
62
256
6
ByLayer
370
18
48
1
60
0
100
AcDbMText
10
-147.99546
20
-4.156579
30
0
210
0
220
0
230
1
1
\W0.7346;25.0
40
4.5
41
0
44
1.084337
50
90
71
7
72
5
7
iso_b_vert
0
LINE
5
1C5
100
AcDbEntity
8
SK2
62
256
6
ByLayer
370
13
48
1
60
0
100
AcDbLine
10
-141.12046
20
12.4375
30
0
11
-148.87046
21
12.4375
31
0
39
0
210
0
220
0
230
1
0
LINE
5
1C6
100
AcDbEntity
8
SK2
62
256
6
ByLayer
370
13
48
1
60
0
100
AcDbLine
10
-141.12046
20
-12.4375
30
0
11
-148.87046
21
-12.4375
31
0
39
0
210
0
220
0
230
1
0
LINE
5
1C7
100
AcDbEntity
8
SK2
62
256
6
ByLayer
370
13
48
1
60
0
100
AcDbLine
10
-146.87046
20
12.4375
30
0
11
-146.87046
21
-12.4375
31
0
39
0
210
0
220
0
230
1
0
LINE
5
1C8
100
AcDbEntity
8
SK2
62
256
6
ByLayer
370
13
48
1
60
0
100
AcDbLine
10
-146.87046
20
12.4375
30
0
11
-146.452464
21
9.262502
31
0
39
0
210
0
220
0
230
1
0
LINE
5
1C9
100
AcDbEntity
8
SK2
62
256
6
ByLayer
370
13
48
1
60
0
100
AcDbLine
10
-146.87046
20
12.4375
30
0
11
-147.288457
21
9.262498
31
0
39
0
210
0
220
0
230
1
0
LINE
5
1CA
100
AcDbEntity
8
SK2
62
256
6
ByLayer
370
13
48
1
60
0
100
AcDbLine
10
-146.452464
20
9.262502
30
0
11
-147.288457
21
9.262498
31
0
39
0
210
0
220
0
230
1
0
LINE
5
1CB
100
AcDbEntity
8
SK2
62
256
6
ByLayer
370
13
48
1
60
0
100
AcDbLine
10
-146.87046
20
-12.4375
30
0
11
-147.288457
21
-9.262502
31
0
39
0
210
0
220
0
230
1
0
LINE
5
1CC
100
AcDbEntity
8
SK2
62
256
6
ByLayer
370
13
48
1
60
0
100
AcDbLine
10
-146.87046
20
-12.4375
30
0
11
-146.452464
21
-9.262498
31
0
39
0
210
0
220
0
230
1
0
LINE
5
1CD
100
AcDbEntity
8
SK2
62
256
6
ByLayer
370
13
48
1
60
0
100
AcDbLine
10
-147.288457
20
-9.262502
30
0
11
-146.452464
21
-9.262498
31
0
39
0
210
0
220
0
230
1
0
ENDBLK
5
1CF
100
AcDbEntity
8
0
100
AcDbBlockEnd
0
ENDSEC
0
SECTION
2
ENTITIES
0
ELLIPSE
5
FC
100
AcDbEntity
8
1
62
256
6
ByLayer
370
18
48
1
60
0
100
AcDbEllipse
10
6.453505
20
-6.893792
30
0
11
2.08176526554851
21
2.16015123988015
31
0
210
0
220
0
230
1
40
0.986455
41
0.0607188507314582
42
0.156280282981022
0
ELLIPSE
5
FD
100
AcDbEntity
8
1
62
256
6
ByLayer
370
18
48
1
60
0
100
AcDbEllipse
10
14.932068
20
-5.978181
30
0
11
2.87977528400878
21
2.98820921516754
31
0
210
0
220
0
230
1
40
0.986455
41
-2.98531237060878
42
-0.0304972296822744
0
ELLIPSE
5
FE
100
AcDbEntity
8
1
62
256
6
ByLayer
370
18
48
1
60
0
100
AcDbEllipse
10
25.394289
20
-13.077249
30
0
11
-3.88908729653492
21
-3.8890872965171
31
0
210
0
220
0
230
1
40
0.989133
41
-2.53072741539178
42
-2.32966141936181
0
ELLIPSE
5
FF
100
AcDbEntity
8
1
62
256
6
ByLayer
370
18
48
1
60
0
100
AcDbEllipse
10
25.674985
20
-13.357945
30
0
11
3.37752183088368
21
3.37752183086821
31
0
210
0
220
0
230
1
40
0.989133
41
0.704393121263898
42
0.734417524769676
0
ELLIPSE
5
100
100
AcDbEntity
8
1
62
256
6
ByLayer
370
18
48
1
60
0
100
AcDbEllipse
10
25.674985
20
-13.357945
30
0
11
3.37752183088368
21
3.37752183086821
31
0
210
0
220
0
230
1
40
0.989133
41
2.75816014343865
42
2.78626538272476
0
ELLIPSE
5
101
100
AcDbEntity
8
1
62
256
6
ByLayer
370
18
48
1
60
0
100
AcDbEllipse
10
14.284935
20
-5.461145
30
0
11
0.813172798366392
21
0.813172798362668
31
0
210
0
220
0
230
1
40
0.989133
41
-3.08671874739813
42
-0.118404155601881
0
ELLIPSE
5
102
100
AcDbEntity
8
1
62
256
6
ByLayer
370
18
48
1
60
0
100
AcDbEllipse
10
25.394289
20
-13.077249
30
0
11
-3.88908729653492
21
-3.8890872965171
31
0
210
0
220
0
230
1
40
0.989133
41
-0.445168066196534
42
-0.261799387799152
0
ELLIPSE
5
103
100
AcDbEntity
8
1
62
256
6
ByLayer
370
18
48
1
60
0
100
AcDbEllipse
10
14.373302
20
-5.549513
30
0
11
0.813172798366392
21
0.813172798362668
31
0
210
0
220
0
230
1
40
0.989133
41
1.50864578969161
42
2.10741347849625
0
ELLIPSE
5
104
100
AcDbEntity
8
1
62
256
6
ByLayer
370
18
48
1
60
0
100
AcDbEllipse
10
14.373302
20
-5.549513
30
0
11
0.813172798366392
21
0.813172798362668
31
0
210
0
220
0
230
1
40
0.989133
41
2.72944968966501
42
-0.0517435354044302
0
ELLIPSE
5
105
100
AcDbEntity
8
1
62
256
6
ByLayer
370
18
48
1
60
0
100
AcDbEllipse
10
14.373302
20
-5.549513
30
0
11
0.813172798366392
21
0.813172798362668
31
0
210
0
220
0
230
1
40
0.989133
41
0.118491029831414
42
0.790860751325607
0
ELLIPSE
5
106
100
AcDbEntity
8
1
62
256
6
ByLayer
370
18
48
1
60
0
100
AcDbEllipse
10
14.488881
20
-4.305487
30
0
11
-0.268700576851503
21
-0.268700576850273
31
0
210
0
220
0
230
1
40
0.989133
41
2.42225340979498
42
2.68594738862231
0
ELLIPSE
5
107
100
AcDbEntity
8
1
62
256
6
ByLayer
370
18
48
1
60
0
100
AcDbEllipse
10
13.239184
20
-6.083197
30
0
11
-0.268700576851503
21
-0.268700576850273
31
0
210
0
220
0
230
1
40
0.989133
41
0.455613680093726
42
1.0684050941936
0
ELLIPSE
5
108
100
AcDbEntity
8
1
62
256
6
ByLayer
370
18
48
1
60
0
100
AcDbEllipse
10
15.28805
20
-4.248273
30
0
11
0.300520382004971
21
0.300520382003595
31
0
210
0
220
0
230
1
40
0.989133
41
2.42225340979505
42
-3.14158919864637
0
ELLIPSE
5
109
100
AcDbEntity
8
1
62
256
6
ByLayer
370
18
48
1
60
0
100
AcDbEllipse
10
13.458554
20
-6.850753
30
0
11
0.300520382004971
21
0.300520382003595
31
0
210
0
220
0
230
1
40
0.989133
41
3.51676188576229E-06
42
1.06840509419362
0
ELLIPSE
5
10A
100
AcDbEntity
8
1
62
256
6
ByLayer
370
18
48
1
60
0
100
AcDbEllipse
10
15.50742
20
-5.015829
30
0
11
-0.268700576851503
21
-0.268700576850273
31
0
210
0
220
0
230
1
40
0.989133
41
1.37505585859849
42
2.68595059009185
0
ELLIPSE
5
10B
100
AcDbEntity
8
1
62
256
6
ByLayer
370
18
48
1
60
0
100
AcDbEllipse
10
14.257723
20
-6.793538
30
0
11
-0.268700576851503
21
-0.268700576850273
31
0
210
0
220
0
230
1
40
0.989133
41
0.455656467956165
42
2.11560264539017
0
ELLIPSE
5
10C
100
AcDbEntity
8
1
62
256
6
ByLayer
370
18
48
1
60
0
100
AcDbEllipse
10
15.948994
20
-5.678822
30
0
11
0.300520382004971
21
0.300520382003595
31
0
210
0
220
0
230
1
40
0.989133
41
1.37505585859841
42
3.14157045834446
0
ELLIPSE
5
10D
100
AcDbEntity
8
1
62
256
6
ByLayer
370
18
48
1
60
0
100
AcDbEllipse
10
15.391841
20
-6.259854
30
0
11
-0.268700576851503
21
-0.268700576850273
31
0
210
0
220
0
230
1
40
0.989133
41
0.32785830740178
42
3.11070847430896
0
ELLIPSE
5
10E
100
AcDbEntity
8
1
62
256
6
ByLayer
370
18
48
1
60
0
100
AcDbEllipse
10
14.264142
20
-5.440353
30
0
11
2.82842712475267
21
2.82842712473971
31
0
210
0
220
0
230
1
40
0.989133
41
0.790861385157308
42
3.14158710851734
0
ELLIPSE
5
10F
100
AcDbEntity
8
1
62
256
6
ByLayer
370
18
48
1
60
0
100
AcDbEllipse
10
14.264142
20
-5.440353
30
0
11
2.82842712475267
21
2.82842712473971
31
0
210
0
220
0
230
1
40
0.989133
41
9.25359672440898E-05
42
0.790861385157306
0
ELLIPSE
5
110
100
AcDbEntity
8
1
62
256
6
ByLayer
370
18
48
1
60
0
100
AcDbEllipse
10
14.607216
20
-5.783427
30
0
11
0.830850467896096
21
0.830850467892291
31
0
210
0
220
0
230
1
40
0.989133
41
0.111289073500745
42
0.23777677689812
0
ELLIPSE
5
111
100
AcDbEntity
8
1
62
256
6
ByLayer
370
18
48
1
60
0
100
AcDbEllipse
10
13.031524
20
-5.654118
30
0
11
0.300520382004971
21
0.300520382003595
31
0
210
0
220
0
230
1
40
0.989133
41
-1.7665367949914
42
-1.0483003445456
0
ELLIPSE
5
112
100
AcDbEntity
8
1
62
256
6
ByLayer
370
18
48
1
60
0
100
AcDbEllipse
10
16.182908
20
-5.912735
30
0
11
0.300520382004971
21
0.300520382003595
31
0
210
0
220
0
230
1
40
0.989133
41
2.44456374614103
42
-3.12038511059273
0
ELLIPSE
5
113
100
AcDbEntity
8
1
62
256
6
ByLayer
370
18
48
1
60
0
100
AcDbEllipse
10
14.491637
20
-7.027452
30
0
11
-0.268700576851503
21
-0.268700576850273
31
0
210
0
220
0
230
1
40
0.989133
41
-0.719339243794718
42
2.11560264539014
0
ELLIPSE
5
114
100
AcDbEntity
8
1
62
256
6
ByLayer
370
18
48
1
60
0
100
AcDbEllipse
10
14.607216
20
-5.783427
30
0
11
0.830850467896096
21
0.830850467892291
31
0
210
0
220
0
230
1
40
0.989133
41
-0.935908477695869
42
-0.8094207742985
0
ELLIPSE
5
115
100
AcDbEntity
8
1
62
256
6
ByLayer
370
18
48
1
60
0
100
AcDbEllipse
10
15.521964
20
-4.482187
30
0
11
0.300520382004971
21
0.300520382003595
31
0
210
0
220
0
230
1
40
0.989133
41
2.422253409795
42
3.14048986024076
0
ELLIPSE
5
116
100
AcDbEntity
8
1
62
256
6
ByLayer
370
18
48
1
60
0
100
AcDbEllipse
10
13.692468
20
-7.084667
30
0
11
0.300520382004971
21
0.300520382003595
31
0
210
0
220
0
230
1
40
0.989133
41
0.35016864374797
42
1.06840509419375
0
ELLIPSE
5
117
100
AcDbEntity
8
1
62
256
6
ByLayer
370
18
48
1
60
0
100
AcDbEllipse
10
15.034246
20
-6.980062
30
0
11
0.300520382004971
21
0.300520382003595
31
0
210
0
220
0
230
1
40
0.989133
41
0.327858307401848
42
2.11560264539024
0
ELLIPSE
5
118
100
AcDbEntity
8
1
62
256
6
ByLayer
370
18
48
1
60
0
100
AcDbEllipse
10
14.722795
20
-4.539401
30
0
11
-0.268700576851503
21
-0.268700576850273
31
0
210
0
220
0
230
1
40
0.989133
41
2.422253409795
42
-1.02599000819961
0
ELLIPSE
5
119
100
AcDbEntity
8
1
62
256
6
ByLayer
370
18
48
1
60
0
100
AcDbEllipse
10
14.607216
20
-5.783427
30
0
11
0.830850467896096
21
0.830850467892291
31
0
210
0
220
0
230
1
40
0.989133
41
-3.03030358008904
42
-2.90381587669168
0
ELLIPSE
5
11A
100
AcDbEntity
8
1
62
256
6
ByLayer
370
18
48
1
60
0
100
AcDbEllipse
10
13.946272
20
-4.352878
30
0
11
0.300520382004971
21
0.300520382003595
31
0
210
0
220
0
230
1
40
0.989133
41
-1.74422645864531
42
-1.02599000819959
0
ELLIPSE
5
11B
100
AcDbEntity
8
1
62
256
6
ByLayer
370
18
48
1
60
0
100
AcDbEllipse
10
15.521964
20
-4.482187
30
0
11
0.300520382004971
21
0.300520382003595
31
0
210
0
220
0
230
1
40
0.989133
41
-2.79142400984194
42
-2.07318755939621
0
ELLIPSE
5
11C
100
AcDbEntity
8
1
62
256
6
ByLayer
370
18
48
1
60
0
100
AcDbEllipse
10
14.607216
20
-5.783427
30
0
11
0.830850467896096
21
0.830850467892291
31
0
210
0
220
0
230
1
40
0.989133
41
-1.98310602889246
42
-1.85661832549508
0
ELLIPSE
5
11D
100
AcDbEntity
8
1
62
256
6
ByLayer
370
18
48
1
60
0
100
AcDbEllipse
10
16.182908
20
-5.912735
30
0
11
0.300520382004971
21
0.300520382003595
31
0
210
0
220
0
230
1
40
0.989133
41
1.37505585859843
42
2.09329230904421
0
ELLIPSE
5
11E
100
AcDbEntity
8
1
62
256
6
ByLayer
370
18
48
1
60
0
100
AcDbEllipse
10
15.741334
20
-5.249742
30
0
11
-0.268700576851503
21
-0.268700576850273
31
0
210
0
220
0
230
1
40
0.989133
41
1.3750558585984
42
-2.07318755939608
0
ELLIPSE
5
11F
100
AcDbEntity
8
1
62
256
6
ByLayer
370
18
48
1
60
0
100
AcDbEllipse
10
13.692468
20
-7.084667
30
0
11
0.300520382004971
21
0.300520382003595
31
0
210
0
220
0
230
1
40
0.989133
41
-0.719339243794702
42
-0.0011027933489675
0
ELLIPSE
5
120
100
AcDbEntity
8
1
62
256
6
ByLayer
370
18
48
1
60
0
100
AcDbEllipse
10
13.588677
20
-5.073085
30
0
11
-0.268700576851503
21
-0.268700576850273
31
0
210
0
220
0
230
1
40
0.989133
41
-2.81373434618793
42
0.0212075429970039
0
ELLIPSE
5
121
100
AcDbEntity
8
1
62
256
6
ByLayer
370
18
48
1
60
0
100
AcDbEllipse
10
15.625755
20
-6.493768
30
0
11
-0.268700576851503
21
-0.268700576850273
31
0
210
0
220
0
230
1
40
0.989133
41
0.327858307401814
42
-3.12038511059279
0
ELLIPSE
5
122
100
AcDbEntity
8
1
62
256
6
ByLayer
370
18
48
1
60
0
100
AcDbEllipse
10
14.607216
20
-5.783427
30
0
11
0.830850467896096
21
0.830850467892291
31
0
210
0
220
0
230
1
40
0.989133
41
1.1584866246973
42
1.28497432809474
0
ELLIPSE
5
123
100
AcDbEntity
8
1
62
256
6
ByLayer
370
18
48
1
60
0
100
AcDbEllipse
10
14.607216
20
-5.783427
30
0
11
-1.62634559673278
21
-1.62634559672533
31
0
210
0
220
0
230
1
40
0.989133
41
0
42
6.28318530717959
0
ELLIPSE
5
124
100
AcDbEntity
8
1
62
256
6
ByLayer
370
18
48
1
60
0
100
AcDbEllipse
10
14.517103
20
-5.693314
30
0
11
-2.82842712475267
21
-2.82842712473971
31
0
210
0
220
0
230
1
40
0.989133
41
0
42
6.28318530717959
0
ELLIPSE
5
125
100
AcDbEntity
8
1
62
256
6
ByLayer
370
18
48
1
60
0
100
AcDbEllipse
10
15.26816
20
-7.213975
30
0
11
0.300520382004971
21
0.300520382003595
31
0
210
0
220
0
230
1
40
0.989133
41
1.39736619494446
42
2.11560264539022
0
ELLIPSE
5
126
100
AcDbEntity
8
1
62
256
6
ByLayer
370
18
48
1
60
0
100
AcDbEllipse
10
15.26816
20
-7.213975
30
0
11
0.300520382004971
21
0.300520382003595
31
0
210
0
220
0
230
1
40
0.989133
41
0.327858307401932
42
1.0460947578477
0
ELLIPSE
5
127
100
AcDbEntity
8
1
62
256
6
ByLayer
370
18
48
1
60
0
100
AcDbEllipse
10
13.946272
20
-4.352878
30
0
11
0.300520382004971
21
0.300520382003595
31
0
210
0
220
0
230
1
40
0.989133
41
-2.81373434618798
42
-2.09549789574217
0
ELLIPSE
5
128
100
AcDbEntity
8
1
62
256
6
ByLayer
370
18
48
1
60
0
100
AcDbEllipse
10
14.607216
20
-5.783427
30
0
11
0.830850467896096
21
0.830850467892291
31
0
210
0
220
0
230
1
40
0.989133
41
2.20568417589392
42
2.33217187929133
0
ELLIPSE
5
129
100
AcDbEntity
8
1
62
256
6
ByLayer
370
18
48
1
60
0
100
AcDbEllipse
10
13.473098
20
-6.317111
30
0
11
-0.268700576851503
21
-0.268700576850273
31
0
210
0
220
0
230
1
40
0.989133
41
-1.76653679499138
42
1.06840509419352
0
ELLIPSE
5
12A
100
AcDbEntity
8
1
62
256
6
ByLayer
370
18
48
1
60
0
100
AcDbEllipse
10
13.031524
20
-5.654118
30
0
11
0.300520382004971
21
0.300520382003595
31
0
210
0
220
0
230
1
40
0.989133
41
-0.697028907448702
42
0.021207542997068
0
ELLIPSE
5
12B
100
AcDbEntity
8
1
62
256
6
ByLayer
370
18
48
1
60
0
100
AcDbEllipse
10
26.234709
20
-13.770324
30
0
11
-2.53778696600816
21
-2.53778696599653
31
0
210
0
220
0
230
1
40
0.989133
41
0.610865238198019
42
0.704629737755983
0
ELLIPSE
5
12C
100
AcDbEntity
8
1
62
256
6
ByLayer
370
18
48
1
60
0
100
AcDbEllipse
10
25.881239
20
-13.416854
30
0
11
-3.18198051534675
21
-3.18198051533218
31
0
210
0
220
0
230
1
40
0.989133
41
0.610865238198004
42
1.13446401379631
0
ELLIPSE
5
12D
100
AcDbEntity
8
1
62
256
6
ByLayer
370
18
48
1
60
0
100
AcDbEllipse
10
25.747758
20
-13.430718
30
0
11
2.37173880783045
21
2.37173880781959
31
0
210
0
220
0
230
1
40
0.989133
41
-2.59181393921158
42
-0.20071286397934
0
ELLIPSE
5
12E
100
AcDbEntity
8
1
62
256
6
ByLayer
370
18
48
1
60
0
100
AcDbEllipse
10
25.881239
20
-13.416854
30
0
11
-3.18198051534675
21
-3.18198051533218
31
0
210
0
220
0
230
1
40
0.989133
41
1.13446401379631
42
2.35619449019234
0
ELLIPSE
5
12F
100
AcDbEntity
8
1
62
256
6
ByLayer
370
18
48
1
60
0
100
AcDbEllipse
10
26.234709
20
-13.770324
30
0
11
2.30693672462581
21
2.30693672461524
31
0
210
0
220
0
230
1
40
0.989133
41
-2.00712863979348
42
-0.785398163397452
0
ELLIPSE
5
130
100
AcDbEntity
8
1
62
256
6
ByLayer
370
18
48
1
60
0
100
AcDbEllipse
10
27.26089
20
-15.936929
30
0
11
-1.15902115055711
21
-1.55495811739685
31
0
210
0
220
0
230
1
40
0.75312
41
-0.162904209626038
42
0.858053350819362
0
ELLIPSE
5
131
100
AcDbEntity
8
1
62
256
6
ByLayer
370
18
48
1
60
0
100
AcDbEllipse
10
28.519308
20
-14.146814
30
0
11
-1.49847459157716
21
-1.63003079786878
31
0
210
0
220
0
230
1
40
0.652432
41
2.51919203123699
42
-2.74303571549668
0
ELLIPSE
5
132
100
AcDbEntity
8
1
62
256
6
ByLayer
370
18
48
1
60
0
100
AcDbEllipse
10
25.352424
20
-8.652024
30
0
11
-1.49844337075786
21
9.0676778389697
31
0
210
0
220
0
230
1
40
0.721982
41
2.27742317160833
42
2.34099383236073
0
ELLIPSE
5
133
100
AcDbEntity
8
1
62
256
6
ByLayer
370
18
48
1
60
0
100
AcDbEllipse
10
26.234709
20
-13.770324
30
0
11
-2.53778696600816
21
-2.53778696599653
31
0
210
0
220
0
230
1
40
0.989133
41
2.78602876623268
42
2.87979326579064
0
ELLIPSE
5
134
100
AcDbEntity
8
1
62
256
6
ByLayer
370
18
48
1
60
0
100
AcDbEllipse
10
21.463453
20
-14.184133
30
0
11
-8.77928499540128
21
-0.377181221795573
31
0
210
0
220
0
230
1
40
0.731858
41
-2.21990586193723
42
-2.15633520332858
0
ELLIPSE
5
135
100
AcDbEntity
8
1
62
256
6
ByLayer
370
18
48
1
60
0
100
AcDbEllipse
10
25.881239
20
-13.416854
30
0
11
-3.18198051534675
21
-3.18198051533218
31
0
210
0
220
0
230
1
40
0.989133
41
2.35619449019234
42
2.87979326579064
0
ELLIPSE
5
136
100
AcDbEntity
8
1
62
256
6
ByLayer
370
18
48
1
60
0
100
AcDbEllipse
10
20.520894
20
-12.348159
30
0
11
-0.666082781578928
21
-2.70513170628859
31
0
210
0
220
0
230
1
40
0.533007
41
-1.00959045141723
42
-0.667259966412664
0
ELLIPSE
5
137
100
AcDbEntity
8
1
62
256
6
ByLayer
370
18
48
1
60
0
100
AcDbEllipse
10
13.761204
20
9.486205
30
0
11
-0.681939391534556
21
0.42099657453383
31
0
210
0
220
0
230
1
40
0.03414
41
-2.99828249386517
42
-1.42748616705435
0
ELLIPSE
5
138
100
AcDbEntity
8
1
62
256
6
ByLayer
370
18
48
1
60
0
100
AcDbEllipse
10
1.555472
20
-7.8766
30
0
11
-0.618768166580118
21
-1.85497269604894
31
0
210
0
220
0
230
1
40
0.304658
41
-0.921774199096443
42
0.64902212769827
0
ELLIPSE
5
139
100
AcDbEntity
8
1
62
256
6
ByLayer
370
18
48
1
60
0
100
AcDbEllipse
10
31.440091
20
-19.123051
30
0
11
-0.561266007568108
21
-0.561266007565537
31
0
210
0
220
0
230
1
40
0.989133
41
0.698131700798011
42
2.44346095279231
0
ELLIPSE
5
13A
100
AcDbEntity
8
1
62
256
6
ByLayer
370
18
48
1
60
0
100
AcDbEllipse
10
30.523054
20
-7.948484
30
0
11
-0.561266007568108
21
-0.561266007565537
31
0
210
0
220
0
230
1
40
0.989133
41
2.44346095279224
42
-2.44346095279194
0
ELLIPSE
5
13B
100
AcDbEntity
8
1
62
256
6
ByLayer
370
18
48
1
60
0
100
AcDbEllipse
10
20.265523
20
-18.206014
30
0
11
-0.561266007568108
21
-0.561266007565537
31
0
210
0
220
0
230
1
40
0.989133
41
-0.698131700797448
42
0.698131700797985
0
ELLIPSE
5
13C
100
AcDbEntity
8
1
62
256
6
ByLayer
370
18
48
1
60
0
100
AcDbEllipse
10
6.384552
20
-4.825994
30
0
11
-2.64176164562775
21
-1.42549993604638
31
0
210
0
220
0
230
1
40
0.99535
41
-1.10568333549424
42
-0.0531524310335952
0
ELLIPSE
5
13D
100
AcDbEntity
8
1
62
256
6
ByLayer
370
18
48
1
60
0
100
AcDbEllipse
10
27.889556
20
-11.936908
30
0
11
-0.3489510133305
21
-6.90792766090861
31
0
210
0
220
0
230
1
40
0.548566
41
-2.33710562651339
42
-2.257803188959
0
ELLIPSE
5
13E
100
AcDbEntity
8
1
62
256
6
ByLayer
370
18
48
1
60
0
100
AcDbEllipse
10
14.166883
20
-0.524387
30
0
11
-1.25335491139042
21
4.16877773865627
31
0
210
0
220
0
230
1
40
0.506194
41
-0.568782557405279
42
-0.247439304459411
0
ELLIPSE
5
13F
100
AcDbEntity
8
1
62
256
6
ByLayer
370
18
48
1
60
0
100
AcDbEllipse
10
11.190806
20
2.010962
30
0
11
-2.64176164548488
21
-1.42549993630615
31
0
210
0
220
0
230
1
40
0.99535
41
-2.1582142400546
42
-1.10568333559378
0
ELLIPSE
5
140
100
AcDbEntity
8
1
62
256
6
ByLayer
370
18
48
1
60
0
100
AcDbEllipse
10
26.2231
20
-9.374321
30
0
11
-0.571116453363193
21
0.918981791379459
31
0
210
0
220
0
230
1
40
0.218147
41
-1.33296183502013
42
-0.809363059445336
0
ELLIPSE
5
141
100
AcDbEntity
8
1
62
256
6
ByLayer
370
18
48
1
60
0
100
AcDbEllipse
10
12.256734
20
1.486605
30
0
11
1.91006367272338
21
0.593006548144676
31
0
210
0
220
0
230
1
40
0.819617
41
0.698457705508427
42
2.14767242923501
0
ELLIPSE
5
142
100
AcDbEntity
8
1
62
256
6
ByLayer
370
18
48
1
60
0
100
AcDbEllipse
10
14.653604
20
0.320923
30
0
11
-3.99150171214796
21
3.01589667456351
31
0
210
0
220
0
230
1
40
0.245743
41
0.40410666962867
42
0.509500343018641
0
ELLIPSE
5
143
100
AcDbEntity
8
1
62
256
6
ByLayer
370
18
48
1
60
0
100
AcDbEllipse
10
13.302366
20
-1.601229
30
0
11
4.09042179648944
21
-2.87549118009499
31
0
210
0
220
0
230
1
40
0.02553
41
-2.49237968308234
42
-1.99918174916222
0
ELLIPSE
5
144
100
AcDbEntity
8
1
62
256
6
ByLayer
370
18
48
1
60
0
100
AcDbEllipse
10
9.256533
20
6.830651
30
0
11
-5.72659051508523
21
4.02568765213298
31
0
210
0
220
0
230
1
40
0.02553
41
-2.33301874980667
42
-2.31764416683196
0
ELLIPSE
5
145
100
AcDbEntity
8
1
62
256
6
ByLayer
370
18
48
1
60
0
100
AcDbEllipse
10
10.801504
20
-5.158736
30
0
11
-5.80586464928875
21
0.424544944966385
31
0
210
0
220
0
230
1
40
0.082923
41
0.451423564823666
42
1.32317444541976
0
ELLIPSE
5
146
100
AcDbEntity
8
1
62
256
6
ByLayer
370
18
48
1
60
0
100
AcDbEllipse
10
10.31283
20
-5.853881
30
0
11
4.09042179648944
21
-2.87549118009499
31
0
210
0
220
0
230
1
40
0.02553
41
-2.49237968308225
42
-1.99918174916226
0
ELLIPSE
5
147
100
AcDbEntity
8
1
62
256
6
ByLayer
370
18
48
1
60
0
100
AcDbEllipse
10
9.360629
20
-7.361343
30
0
11
-4.16623762028513
21
0.202630903990618
31
0
210
0
220
0
230
1
40
0.47969
41
0.33134558030504
42
0.652688833254557
0
ELLIPSE
5
148
100
AcDbEntity
8
1
62
256
6
ByLayer
370
18
48
1
60
0
100
AcDbEllipse
10
7.956161
20
-9.381688
30
0
11
-2.55875127369256
21
1.57552183327309
31
0
210
0
220
0
230
1
40
0.340829
41
-0.521808140778816
42
0.0155058165517813
0
ELLIPSE
5
149
100
AcDbEntity
8
1
62
256
6
ByLayer
370
18
48
1
60
0
100
AcDbEllipse
10
8.961592
20
-7.776033
30
0
11
-4.1868011544859
21
2.73820474544553
31
0
210
0
220
0
230
1
40
0.194744
41
-0.507592153225205
42
-0.402198478023996
0
ELLIPSE
5
14A
100
AcDbEntity
8
1
62
256
6
ByLayer
370
18
48
1
60
0
100
AcDbEllipse
10
12.813692
20
-2.296374
30
0
11
-0.395141068300288
21
-5.81029123395261
31
0
210
0
220
0
230
1
40
0.095437
41
1.77847556442803
42
2.70279164398028
0
ELLIPSE
5
14B
100
AcDbEntity
8
1
62
256
6
ByLayer
370
18
48
1
60
0
100
AcDbEllipse
10
22.074515
20
-15.275735
30
0
11
-1.05474550227291
21
0.233843842381162
31
0
210
0
220
0
230
1
40
0.175059
41
0.829086299703811
42
1.35268507529202
0
ELLIPSE
5
14C
100
AcDbEntity
8
1
62
256
6
ByLayer
370
18
48
1
60
0
100
AcDbEllipse
10
15.803856
20
1.781756
30
0
11
-2.34383595217543
21
1.88074787339212
31
0
210
0
220
0
230
1
40
0.391667
41
-0.0113589198724087
42
0.525955037464272
0
ELLIPSE
5
14D
100
AcDbEntity
8
1
62
256
6
ByLayer
370
18
48
1
60
0
100
AcDbEllipse
10
25.05005
20
-15.976139
30
0
11
-6.11759637018835
21
-1.37642658555683
31
0
210
0
220
0
230
1
40
0.534007
41
-0.699482724129958
42
-0.620180282669489
0
ELLIPSE
5
14E
100
AcDbEntity
8
1
62
256
6
ByLayer
370
18
48
1
60
0
100
AcDbEllipse
10
12.813692
20
-2.296374
30
0
11
-2.37825173381397
21
5.30791195086868
31
0
210
0
220
0
230
1
40
0.045332
41
-1.34583741411421
42
-0.474086533528799
0
ELLIPSE
5
14F
100
AcDbEntity
8
1
62
256
6
ByLayer
370
18
48
1
60
0
100
AcDbEllipse
10
10.801504
20
-5.158736
30
0
11
-5.32741126427242
21
-2.36504468963221
31
0
210
0
220
0
230
1
40
0.117814
41
0.401049328632628
42
1.32536540819006
0
ELLIPSE
5
150
100
AcDbEntity
8
1
62
256
6
ByLayer
370
18
48
1
60
0
100
AcDbEllipse
10
7.01102
20
-5.975488
30
0
11
0.0336313803299914
21
1.99971721257209
31
0
210
0
220
0
230
1
40
0.83641
41
1.06772668549725
42
2.51694140922384
0
POINT
5
6C
100
AcDbEntity
8
2
62
256
6
ByLayer
370
18
48
1
60
0
100
AcDbPoint
10
32.22954
20
44.7875
30
0
39
0
210
0
220
0
230
1
50
360
0
POINT
5
6E
100
AcDbEntity
8
80
62
256
6
ByLayer
370
18
48
1
60
0
100
AcDbPoint
10
0
20
0
30
0
39
0
210
0
220
0
230
1
50
360
0
POINT
5
70
100
AcDbEntity
8
81
62
256
6
ByLayer
370
18
48
1
60
0
100
AcDbPoint
10
32.22954
20
-19.9125
30
0
39
0
210
0
220
0
230
1
50
360
0
SPLINE
5
151
100
AcDbEntity
8
1
62
256
6
ByLayer
370
18
48
1
60
0
100
AcDbSpline
70
4
71
3
72
8
73
4
40
0
40
0
40
0
40
0
40
1
40
1
40
1
40
1
41
1
10
3.67114061585795
20
-6.10978350776918
30
0
41
1
10
3.93912236453144
20
-6.60071439920276
30
0
41
1
10
4.29902617505587
20
-6.99048276614505
30
0
41
1
10
4.6592566847367
20
-7.29726208641594
30
0
0
SPLINE
5
152
100
AcDbEntity
8
1
62
256
6
ByLayer
370
18
48
1
60
0
100
AcDbSpline
70
4
71
3
72
12
73
8
40
0
40
0
40
0
40
0
40
0.392678099449808
40
0.392678099449808
40
0.791279335966009
40
0.791279335966009
40
1
40
1
40
1
40
1
41
1
10
15.3416554102946
20
-4.86644485886384
30
0
41
1
10
15.3242445437933
20
-4.85799950635385
30
0
41
1
10
15.3064396057015
20
-4.84811937299853
30
0
41
1
10
15.2726978846384
20
-4.82636592752823
30
0
41
1
10
15.2563969836754
20
-4.81418519009014
30
0
41
1
10
15.23467422107
20
-4.79547296378968
30
0
41
1
10
15.2276248151558
20
-4.78890360820185
30
0
41
1
10
15.2211156226886
20
-4.78237894152488
30
0
0
SPLINE
5
153
100
AcDbEntity
8
1
62
256
6
ByLayer
370
18
48
1
60
0
100
AcDbSpline
70
4
71
3
72
14
73
10
40
0
40
0
40
0
40
0
40
0.164525200331074
40
0.164525200331074
40
0.540804984924964
40
0.540804984924964
40
0.917041398719724
40
0.917041398719724
40
1
40
1
40
1
40
1
41
1
10
14.1872086712263
20
-4.69753171011283
30
0
41
1
10
14.1805166002259
20
-4.70168175506342
30
0
41
1
10
14.1735908788989
20
-4.70580916569634
30
0
41
1
10
14.1503310070722
20
-4.71907751578766
30
0
41
1
10
14.1329037787825
20
-4.7280615349724
30
0
41
1
10
14.0982324042273
20
-4.74396523802091
30
0
41
1
10
14.0806014194308
20
-4.75106718817676
30
0
41
1
10
14.0602730402898
20
-4.75824246126999
30
0
41
1
10
14.0566111762178
20
-4.75949348427838
30
0
41
1
10
14.0529905607729
20
-4.76069100495647
30
0
0
SPLINE
5
154
100
AcDbEntity
8
1
62
256
6
ByLayer
370
18
48
1
60
0
100
AcDbSpline
70
4
71
3
72
14
73
10
40
0
40
0
40
0
40
0
40
0.0829586012803319
40
0.0829586012803319
40
0.459195015075176
40
0.459195015075176
40
0.835474799669053
40
0.835474799669053
40
1
40
1
40
1
40
1
41
1
10
13.4527691283963
20
-5.61451342204776
30
0
41
1
10
13.4529256281255
20
-5.61824364885405
30
0
41
1
10
13.453042621203
20
-5.62203524871379
30
0
41
1
10
13.453453239434
20
-5.64319323705689
30
0
41
1
10
13.4528980332656
20
-5.66196136865707
30
0
41
1
10
13.4497923977581
20
-5.69979593002611
30
0
41
1
10
13.4472022550046
20
-5.71928686892525
30
0
41
1
10
13.4424192912932
20
-5.74590979950082
30
0
41
1
10
13.4408117889566
20
-5.75392100515361
30
0
41
1
10
13.4390908055512
20
-5.76173863423196
30
0
0
SPLINE
5
155
100
AcDbEntity
8
1
62
256
6
ByLayer
370
18
48
1
60
0
100
AcDbSpline
70
4
71
3
72
12
73
8
40
0
40
0
40
0
40
0
40
0.392678099452431
40
0.392678099452431
40
0.79127933596881
40
0.79127933596881
40
1
40
1
40
1
40
1
41
1
10
13.8727763246362
20
-6.70040828273633
30
0
41
1
10
13.8886124855191
20
-6.70727892962788
30
0
41
1
10
13.905328016636
20
-6.7160696560083
30
0
41
1
10
13.9383064225726
20
-6.73705978635204
30
0
41
1
10
13.9549572202792
20
-6.74959042053374
30
0
41
1
10
13.9782053040969
20
-6.76982796804649
30
0
41
1
10
13.9859614386611
20
-6.77710405228453
30
0
41
1
10
13.9933161122422
20
-6.78447420007529
30
0
0
SPLINE
5
156
100
AcDbEntity
8
1
62
256
6
ByLayer
370
18
48
1
60
0
100
AcDbSpline
70
4
71
3
72
14
73
10
40
0
40
0
40
0
40
0
40
0.082958601280258
40
0.082958601280258
40
0.459195015075163
40
0.459195015075163
40
0.835474799669127
40
0.835474799669127
40
1
40
1
40
1
40
1
41
1
10
15.7616626065341
20
-5.95233971955199
30
0
41
1
10
15.7611706668543
20
-5.94827405279509
30
0
41
1
10
15.760740230245
20
-5.94416900940354
30
0
41
1
10
15.758740273894
20
-5.92142168294049
30
0
41
1
10
15.758493482332
20
-5.90185155360996
30
0
41
1
10
15.7613232544482
20
-5.86374112884963
30
0
41
1
10
15.7644400389973
20
-5.844776831746
30
0
41
1
10
15.7707715102958
20
-5.81970240875759
30
0
41
1
10
15.7729567102718
20
-5.81226890074424
30
0
41
1
10
15.775340929379
20
-5.80511450736768
30
0
0
SPLINE
5
157
100
AcDbEntity
8
1
62
256
6
ByLayer
370
18
48
1
60
0
100
AcDbSpline
70
4
71
3
72
14
73
10
40
0
40
0
40
0
40
0
40
0.164525200330934
40
0.164525200330934
40
0.540804984924937
40
0.540804984924937
40
0.917041398719807
40
0.917041398719807
40
1
40
1
40
1
40
1
41
1
10
15.0272230637039
20
-6.86932143148675
30
0
41
1
10
15.0332518990026
20
-6.86450815083441
30
0
41
1
10
15.0395999226902
20
-6.85980304256205
30
0
41
1
10
15.0613112869297
20
-6.84498618488362
30
0
41
1
10
15.0782118734239
20
-6.83547552390331
30
0
41
1
10
15.1131591113703
20
-6.81984768424613
30
0
41
1
10
15.1315920938972
20
-6.81354773182062
30
0
41
1
10
15.1535098111581
20
-6.80796179684734
30
0
41
1
10
15.157485118762
20
-6.80702421737081
30
0
41
1
10
15.1614411741575
20
-6.80616213664331
30
0
0
SPLINE
5
158
100
AcDbEntity
8
1
62
256
6
ByLayer
370
18
48
1
60
0
100
AcDbSpline
70
4
71
3
72
12
73
8
40
0
40
0
40
0
40
0
40
0.5
40
0.5
40
0.75
40
0.75
40
1
40
1
40
1
40
1
41
1
10
13.4685385896008
20
3.67281019421125
30
0
41
1
10
13.0807494922601
20
3.73970886991629
30
0
41
1
10
12.6969886755217
20
3.69511445287506
30
0
41
1
10
11.9513784924673
20
3.43649522894748
30
0
41
1
10
11.6827671118002
20
3.31323993531296
30
0
41
1
10
11.1447946768906
20
3.00223503995565
30
0
41
1
10
10.8770064774564
20
2.80410600473124
30
0
41
1
10
10.6921882649515
20
2.70821976245526
30
0
0
SPLINE
5
159
100
AcDbEntity
8
1
62
256
6
ByLayer
370
18
48
1
60
0
100
AcDbSpline
70
4
71
3
72
18
73
14
40
0
40
0
40
0
40
0
40
0.150186459400626
40
0.150186459400626
40
0.339592137529975
40
0.339592137529975
40
0.523539642595937
40
0.523539642595937
40
0.716564624108251
40
0.716564624108251
40
0.93551821890138
40
0.93551821890138
40
1
40
1
40
1
40
1
41
1
10
25.1810638401326
20
-7.40772308249987
30
0
41
1
10
25.1783012034582
20
-7.4131172353394
30
0
41
1
10
25.1771882020824
20
-7.42098313645729
30
0
41
1
10
25.1787860360965
20
-7.44376587480241
30
0
41
1
10
25.1826359150652
20
-7.46035844257275
30
0
41
1
10
25.1953918134888
20
-7.49790502637356
30
0
41
1
10
25.2042951795177
20
-7.51917625808747
30
0
41
1
10
25.2261300153104
20
-7.56482395973347
30
0
41
1
10
25.2394786000004
20
-7.58983230110681
30
0
41
1
10
25.2702435460214
20
-7.64300224205942
30
0
41
1
10
25.2883115333236
20
-7.67175965676597
30
0
41
1
10
25.3123284468035
20
-7.70753767898842
30
0
41
1
10
25.3178745496842
20
-7.71564104853954
30
0
41
1
10
25.3234572136678
20
-7.72364755026604
30
0
0
SPLINE
5
15A
100
AcDbEntity
8
1
62
256
6
ByLayer
370
18
48
1
60
0
100
AcDbSpline
70
4
71
3
72
8
73
4
40
0
40
0
40
0
40
0
40
1
40
1
40
1
40
1
41
1
10
9.8059008553584
20
-6.44300709755606
30
0
41
1
10
10.0293653006671
20
-7.29973687759949
30
0
41
1
10
10.5489138939067
20
-8.04560214948458
30
0
41
1
10
11.3089147734914
20
-8.57563602783785
30
0
0
SPLINE
5
15B
100
AcDbEntity
8
1
62
256
6
ByLayer
370
18
48
1
60
0
100
AcDbSpline
70
4
71
2
72
6
73
3
40
0
40
0
40
0
40
1
40
1
40
1
41
1.02830968163241
10
12.3219118866634
20
-11.9862232984305
30
0
41
1.02830968163241
10
12.0043733320436
20
-12.1860853171367
30
0
41
1.02830968163241
10
11.6868347774238
20
-12.385947335843
30
0
0
SPLINE
5
15C
100
AcDbEntity
8
1
62
256
6
ByLayer
370
18
48
1
60
0
100
AcDbSpline
70
4
71
3
72
18
73
14
40
0
40
0
40
0
40
0
40
0.0367931396620395
40
0.0367931396620395
40
0.291979817817008
40
0.291979817817008
40
0.505668143229401
40
0.505668143229401
40
0.72101633846607
40
0.72101633846607
40
0.911566759950579
40
0.911566759950579
40
1
40
1
40
1
40
1
41
1
10
20.2347322671612
20
-14.9624217748639
30
0
41
1
10
20.229326248296
20
-14.961001254951
30
0
41
1
10
20.2238989361169
20
-14.9595981234338
30
0
41
1
10
20.1810497300774
20
-14.9487049013981
30
0
41
1
10
20.1423042797864
20
-14.9399850879205
30
0
41
1
10
20.0742808898205
20
-14.9271062632904
30
0
41
1
10
20.0437416201203
20
-14.9223096724126
30
0
41
1
10
19.9889989661006
20
-14.9160660974273
30
0
41
1
10
19.9640587506381
20
-14.9145743357263
30
0
41
1
10
19.9272501137834
20
-14.9154306255804
30
0
41
1
10
19.9137210600611
20
-14.9173705422579
30
0
41
1
10
19.9009559797734
20
-14.9221692575521
30
0
41
1
10
19.8978721130954
20
-14.924000904363
30
0
41
1
10
19.8957937418803
20
-14.9260852182856
30
0
0
SPLINE
5
15D
100
AcDbEntity
8
1
62
256
6
ByLayer
370
18
48
1
60
0
100
AcDbSpline
70
4
71
3
72
8
73
4
40
0
40
0
40
0
40
0
40
1
40
1
40
1
40
1
41
1
10
13.4377665159274
20
-1.13525348445143
30
0
41
1
10
13.473039939078
20
-1.13310171007851
30
0
41
1
10
13.5082100730708
20
-1.13022260407934
30
0
41
1
10
13.5432229604666
20
-1.12662014249986
30
0
0
SPLINE
5
15E
100
AcDbEntity
8
1
62
256
6
ByLayer
370
18
48
1
60
0
100
AcDbSpline
70
4
71
3
72
8
73
4
40
0
40
0
40
0
40
0
40
1
40
1
40
1
40
1
41
1
10
5.44014363066964
20
-4.4004315750463
30
0
41
1
10
5.38839777360596
20
-4.57182820173063
30
0
41
1
10
5.3471428825813
20
-4.75189890851587
30
0
41
1
10
5.31762302278634
20
-4.93716582084434
30
0
0
SPLINE
5
15F
100
AcDbEntity
8
1
62
256
6
ByLayer
370
18
48
1
60
0
100
AcDbSpline
70
4
71
3
72
11
73
7
40
0
40
0
40
0
40
0
40
0.379837525225136
40
0.569756287837704
40
0.759675050450272
40
1
40
1
40
1
40
1
41
1.02830968163241
10
19.7233100597292
20
-1.4576427828035
30
0
41
1.02565532568264
10
21.3385411507823
20
-3.45516539776529
30
0
41
1.02058995167321
10
23.1867613727952
20
-6.23621856543103
30
0
41
1.0133636309892
10
25.7054618455152
20
-11.200910318766
30
0
41
1.01212905948733
10
27.2596999544436
20
-12.3475023401261
30
0
41
1.0095816818588
10
28.286037403084
20
-13.8144864732685
30
0
41
1.00899450091458
10
28.7853684243084
20
-14.3787797307651
30
0
0
SPLINE
5
160
100
AcDbEntity
8
1
62
256
6
ByLayer
370
18
48
1
60
0
100
AcDbSpline
70
4
71
3
72
13
73
9
40
0
40
0
40
0
40
0
40
0.250649945521669
40
0.250649945521669
40
0.250649945521669
40
0.653057935862515
40
0.653057935862515
40
1
40
1
40
1
40
1
41
1
10
19.5129857876428
20
-7.18057367236932
30
0
41
1
10
19.454696702376
20
-7.46591215231925
30
0
41
1
10
19.3657121271826
20
-7.74731748408425
30
0
41
1
10
19.2492055431774
20
-8.01558674200407
30
0
41
1
10
19.0637766860196
20
-8.44255713454757
30
0
41
1
10
18.8032940636427
20
-8.84545818821195
30
0
41
1
10
18.2178762530218
20
-9.49003775056713
30
0
41
1
10
17.9005412944408
20
-9.75306256770205
30
0
41
1
10
17.556826477749
20
-9.96323450401576
30
0
0
SPLINE
5
161
100
AcDbEntity
8
1
62
256
6
ByLayer
370
18
48
1
60
0
100
AcDbSpline
70
4
71
3
72
16
73
12
40
0
40
0
40
0
40
0
40
0.125
40
0.125
40
0.25
40
0.25
40
0.5
40
0.5
40
0.75
40
0.75
40
1
40
1
40
1
40
1
41
1
10
20.3530050177239
20
-0.924750281961423
30
0
41
1
10
20.469013749235
20
-1.33884525424278
30
0
41
1
10
20.6416603268554
20
-1.81248844364737
30
0
41
1
10
21.1451338734303
20
-2.89281834153778
30
0
41
1
10
21.4643126324485
20
-3.47545018105737
30
0
41
1
10
22.5163157283398
20
-5.21994334904446
30
0
41
1
10
23.3137338295792
20
-6.34167490267123
30
0
41
1
10
24.8695742968546
20
-8.39129959508398
30
0
41
1
10
25.6483827974625
20
-9.37945522232769
30
0
41
1
10
27.206102234744
20
-11.3515391778261
30
0
41
1
10
27.9666161071149
20
-12.2243405035089
30
0
41
1
10
28.7065326149013
20
-13.0250433029334
30
0
0
SPLINE
5
162
100
AcDbEntity
8
1
62
256
6
ByLayer
370
18
48
1
60
0
100
AcDbSpline
70
4
71
3
72
8
73
4
40
0
40
0
40
0
40
0
40
1
40
1
40
1
40
1
41
1
10
9.34436129335938
20
-5.52143483248079
30
0
41
1
10
9.11146025273433
20
-5.21586514933034
30
0
41
1
10
8.83359313796285
20
-4.96097902463043
30
0
41
1
10
8.54687892219692
20
-4.75438820401902
30
0
0
SPLINE
5
163
100
AcDbEntity
8
1
62
256
6
ByLayer
370
18
48
1
60
0
100
AcDbSpline
70
4
71
3
72
11
73
7
40
0
40
0
40
0
40
0
40
0.267973217480476
40
0.487581252236333
40
0.70718928699219
40
1
40
1
40
1
40
1
41
1.02490899992583
10
19.5129857429776
20
-7.18057363975838
30
0
41
1.02299818101095
10
20.5845401488156
20
-7.96293770758779
30
0
41
1.01918124210004
10
22.4319784325553
20
-9.35006742104826
30
0
41
1.0133636309892
10
25.3226582582348
20
-11.807024668261
30
0
41
1.01210337903089
10
26.9071459910261
20
-13.009221997661
30
0
41
1.00942740489664
10
28.1903736411679
20
-14.1493441543178
30
0
41
1.00890738029382
10
28.7296835448584
20
-14.6825888301412
30
0
0
SPLINE
5
164
100
AcDbEntity
8
1
62
256
6
ByLayer
370
18
48
1
60
0
100
AcDbSpline
70
4
71
3
72
12
73
8
40
0
40
0
40
0
40
0
40
0.402184145094034
40
0.402184145094034
40
0.696777465474667
40
0.696777465474667
40
1
40
1
40
1
40
1
41
1
10
28.7199722974862
20
-14.6729947207122
30
0
41
1
10
28.7322941540118
20
-14.6358800645766
30
0
41
1
10
28.7434799741482
20
-14.5970062526585
30
0
41
1
10
28.7601551065932
20
-14.5285559523298
30
0
41
1
10
28.7664229162967
20
-14.499053078926
30
0
41
1
10
28.7772734852189
20
-14.4392460161947
30
0
41
1
10
28.7818431821658
20
-14.4087040708085
30
0
41
1
10
28.7853684303413
20
-14.3787797375828
30
0
0
SPLINE
5
165
100
AcDbEntity
8
1
62
256
6
ByLayer
370
18
48
1
60
0
100
AcDbSpline
70
4
71
3
72
8
73
4
40
0
40
0
40
0
40
0
40
1
40
1
40
1
40
1
41
1
10
26.361917040213
20
-16.360287979561
30
0
41
1
10
26.6280499633974
20
-16.2965114297507
30
0
41
1
10
26.8958693057737
20
-16.2310195001735
30
0
41
1
10
27.1642180347851
20
-16.1633769517958
30
0
0
SPLINE
5
166
100
AcDbEntity
8
1
62
256
6
ByLayer
370
18
48
1
60
0
100
AcDbSpline
70
4
71
3
72
8
73
4
40
0
40
0
40
0
40
0
40
1
40
1
40
1
40
1
41
1
10
20.3530050177239
20
-0.924750281961423
30
0
41
1
10
20.2157094537271
20
-0.830140719330075
30
0
41
1
10
20.0787684084909
20
-0.735820793755664
30
0
41
1
10
19.9425535773349
20
-0.642085153755204
30
0
0
SPLINE
5
167
100
AcDbEntity
8
1
62
256
6
ByLayer
370
18
48
1
60
0
100
AcDbSpline
70
4
71
3
72
8
73
4
40
0
40
0
40
0
40
0
40
1
40
1
40
1
40
1
41
1
10
10.2463977509522
20
2.43652440282659
30
0
41
1
10
10.3841324842716
20
2.53466626135344
30
0
41
1
10
10.5336458565055
20
2.62596577037917
30
0
41
1
10
10.6921882649519
20
2.70821976245716
30
0
0
SPLINE
5
168
100
AcDbEntity
8
1
62
256
6
ByLayer
370
18
48
1
60
0
100
AcDbSpline
70
4
71
3
72
8
73
4
40
0
40
0
40
0
40
0
40
1
40
1
40
1
40
1
41
1
10
28.7065326149013
20
-13.0250433029334
30
0
41
1
10
28.7354005968323
20
-13.29877906892
30
0
41
1
10
28.7635084855143
20
-13.5742796493702
30
0
41
1
10
28.7902183492706
20
-13.8503713778226
30
0
0
SPLINE
5
169
100
AcDbEntity
8
1
62
256
6
ByLayer
370
18
48
1
60
0
100
AcDbSpline
70
4
71
3
72
16
73
12
40
0
40
0
40
0
40
0
40
0.25
40
0.25
40
0.5
40
0.5
40
0.75
40
0.75
40
0.875
40
0.875
40
1
40
1
40
1
40
1
41
1
10
26.361917040213
20
-16.360287979561
30
0
41
1
10
25.3338925475159
20
-15.9670642197634
30
0
41
1
10
24.243473706935
20
-15.5782290605051
30
0
41
1
10
21.821275710269
20
-14.8175351837134
30
0
41
1
10
20.6083437844195
20
-14.4376468012244
30
0
41
1
10
18.1153946870609
20
-13.6968771258665
30
0
41
1
10
16.7696334157263
20
-13.3347156280505
30
0
41
1
10
14.8089924382695
20
-12.9303353114627
30
0
41
1
10
14.156810230844
20
-12.8184803911637
30
0
41
1
10
13.008308960896
20
-12.6832783575075
30
0
41
1
10
12.5101373831083
20
-12.6602204195362
30
0
41
1
10
12.0972862178153
20
-12.6686124640508
30
0
0
SPLINE
5
16A
100
AcDbEntity
8
1
62
256
6
ByLayer
370
18
48
1
60
0
100
AcDbSpline
70
4
71
3
72
8
73
4
40
0
40
0
40
0
40
0
40
1
40
1
40
1
40
1
41
1
10
28.7853684303413
20
-14.3787797375828
30
0
41
1
10
28.8048190442337
20
-14.2073263062027
30
0
41
1
10
28.8073525403162
20
-14.0274822932727
30
0
41
1
10
28.7902183492706
20
-13.8503713778226
30
0
0
SPLINE
5
16B
100
AcDbEntity
8
1
62
256
6
ByLayer
370
18
48
1
60
0
100
AcDbSpline
70
4
71
3
72
8
73
4
40
0
40
0
40
0
40
0
40
1
40
1
40
1
40
1
41
1
10
12.3219118866634
20
-11.9862232984305
30
0
41
1
10
12.6942512744084
20
-11.7518690740509
30
0
41
1
10
13.3111040665435
20
-11.1251772997342
30
0
41
1
10
14.0122739565887
20
-10.2688994598328
30
0
0
SPLINE
5
16C
100
AcDbEntity
8
1
62
256
6
ByLayer
370
18
48
1
60
0
100
AcDbSpline
70
4
71
3
72
8
73
4
40
0
40
0
40
0
40
0
40
1
40
1
40
1
40
1
41
1
10
27.1642180347851
20
-16.1633769517958
30
0
41
1
10
27.336361870175
20
-16.1199847294582
30
0
41
1
10
27.5038131835099
20
-16.0580232469213
30
0
41
1
10
27.6571532638945
20
-15.9836797768906
30
0
0
SPLINE
5
16D
100
AcDbEntity
8
1
62
256
6
ByLayer
370
18
48
1
60
0
100
AcDbSpline
70
4
71
3
72
8
73
4
40
0
40
0
40
0
40
0
40
1
40
1
40
1
40
1
41
1
10
11.4738748548
20
4.98970252930127
30
0
41
1
10
12.176180702666
20
4.86700460813074
30
0
41
1
10
12.768276624371
20
4.53856849939604
30
0
41
1
10
13.2221932915717
20
4.20317309616169
30
0
0
SPLINE
5
16E
100
AcDbEntity
8
1
62
256
6
ByLayer
370
18
48
1
60
0
100
AcDbSpline
70
4
71
3
72
8
73
4
40
0
40
0
40
0
40
0
40
1
40
1
40
1
40
1
41
1
10
17.7477345152091
20
-2.95037726567733
30
0
41
1
10
18.0685738020475
20
-3.17413449556898
30
0
41
1
10
18.3516800376011
20
-3.43954873790023
30
0
41
1
10
18.6003235176372
20
-3.74234216524533
30
0
0
SPLINE
5
16F
100
AcDbEntity
8
1
62
256
6
ByLayer
370
18
48
1
60
0
100
AcDbSpline
70
4
71
3
72
10
73
6
40
0
40
0
40
0
40
0
40
0.560712447053348
40
0.560712447053348
40
1
40
1
40
1
40
1
41
1
10
9.34436129335938
20
-5.52143483248082
30
0
41
1
10
9.44896459940321
20
-5.65867594998943
30
0
41
1
10
9.54587232368368
20
-5.809706437047
30
0
41
1
10
9.68690864347394
20
-6.08850422514126
30
0
41
1
10
9.73897620342103
20
-6.2165764153568
30
0
41
1
10
9.77736611534095
20
-6.34221836268932
30
0
0
SPLINE
5
170
100
AcDbEntity
8
1
62
256
6
ByLayer
370
18
48
1
60
0
100
AcDbSpline
70
4
71
3
72
8
73
4
40
0
40
0
40
0
40
0
40
1
40
1
40
1
40
1
41
1
10
16.0806742469777
20
-1.78774911200716
30
0
41
1
10
15.3356724662689
20
-1.26817578805929
30
0
41
1
10
14.4239930317734
20
-1.03599807222119
30
0
41
1
10
13.5432229604666
20
-1.12662014249986
30
0
0
SPLINE
5
171
100
AcDbEntity
8
1
62
256
6
ByLayer
370
18
48
1
60
0
100
AcDbSpline
70
4
71
3
72
8
73
4
40
0
40
0
40
0
40
0
40
1
40
1
40
1
40
1
41
1
10
12.9759750417228
20
-9.73826418150801
30
0
41
1
10
13.2968143286665
20
-9.96202141147305
30
0
41
1
10
13.6431222984621
20
-10.13753040475
30
0
41
1
10
14.0122739617197
20
-10.2688994500208
30
0
0
SPLINE
5
172
100
AcDbEntity
8
1
62
256
6
ByLayer
370
18
48
1
60
0
100
AcDbSpline
70
4
71
3
72
8
73
4
40
0
40
0
40
0
40
0
40
1
40
1
40
1
40
1
41
1
10
18.6003235265435
20
-3.74234215549518
30
0
41
1
10
19.184965625299
20
-2.76953652551839
30
0
41
1
10
19.5947697677262
20
-1.93579610258229
30
0
41
1
10
19.7233100597292
20
-1.4576427828035
30
0
0
SPLINE
5
173
100
AcDbEntity
8
1
62
256
6
ByLayer
370
18
48
1
60
0
100
AcDbSpline
70
4
71
3
72
18
73
14
40
0
40
0
40
0
40
0
40
0.0739908643221362
40
0.0739908643221362
40
0.163840977644155
40
0.163840977644155
40
0.285126848313323
40
0.285126848313323
40
0.44367096244091
40
0.44367096244091
40
0.655194408808954
40
0.655194408808954
40
1
40
1
40
1
40
1
41
1
10
5.31762302278798
20
-4.93716582084338
30
0
41
1
10
5.30762423557843
20
-4.9999183015864
30
0
41
1
10
5.29065351443313
20
-5.07480525939548
30
0
41
1
10
5.24807304854249
20
-5.25104292188811
30
0
41
1
10
5.22104215601877
20
-5.35733454842398
30
0
41
1
10
5.16289474276329
20
-5.6082700946985
30
0
41
1
10
5.13263681382688
20
-5.75799516589638
30
0
41
1
10
5.08159821529017
20
-6.09117204277135
30
0
41
1
10
5.065345372639
20
-6.27692180034316
30
0
41
1
10
5.05719006286694
20
-6.6752280273713
30
0
41
1
10
5.07411086028566
20
-6.88273377009719
30
0
41
1
10
5.15805046241229
20
-7.35974671725876
30
0
41
1
10
5.24691238516681
20
-7.59932930457373
30
0
41
1
10
5.38939092088145
20
-7.81987736816018
30
0
0
SPLINE
5
174
100
AcDbEntity
8
1
62
256
6
ByLayer
370
18
48
1
60
0
100
AcDbSpline
70
4
71
1
72
4
73
2
40
0
40
0
40
1
40
1
41
1
10
19.7233100597292
20
-1.4576427828035
30
0
41
1
10
19.9425535773349
20
-0.642085153755232
30
0
0
SPLINE
5
175
100
AcDbEntity
8
1
62
256
6
ByLayer
370
18
48
1
60
0
100
AcDbSpline
70
4
71
3
72
8
73
4
40
0
40
0
40
0
40
0
40
1
40
1
40
1
40
1
41
1
10
12.0972862178153
20
-12.6686124640508
30
0
41
1
10
11.9599906538176
20
-12.5740029014189
30
0
41
1
10
11.8230496085806
20
-12.479682975844
30
0
41
1
10
11.6868347774237
20
-12.385947335843
30
0
0
SPLINE
5
176
100
AcDbEntity
8
1
62
256
6
ByLayer
370
18
48
1
60
0
100
AcDbSpline
70
4
71
3
72
8
73
4
40
0
40
0
40
0
40
0
40
1
40
1
40
1
40
1
41
1
10
12.5177412181141
20
-1.00726260944867
30
0
41
1
10
12.1535281475465
20
-0.888485914270575
30
0
41
1
10
11.823129193641
20
-0.708326980977517
30
0
41
1
10
11.536414977875
20
-0.501736160366079
30
0
0
SPLINE
5
177
100
AcDbEntity
8
1
62
256
6
ByLayer
370
18
48
1
60
0
100
AcDbSpline
70
4
71
3
72
11
73
7
40
0
40
0
40
0
40
0
40
0.267973217054011
40
0.487581251937808
40
0.707189286821605
40
1
40
1
40
1
40
1
41
1.02490899991337
10
17.5568264387662
20
-9.96323447833589
30
0
41
1.02299818100183
10
18.6651269093838
20
-10.6933268087163
30
0
41
1.01918124209525
10
20.6172745742845
20
-11.9315061272064
30
0
41
1.0133636309892
10
23.9651154530779
20
-13.738146112249
30
0
41
1.01210337903089
10
25.6726220040259
20
-14.7653476500974
30
0
41
1.00942740489664
10
27.219182011134
20
-15.5308762694398
30
0
41
1.00890738029382
10
27.9248084529451
20
-15.8275336111246
30
0
0
SPLINE
5
178
100
AcDbEntity
8
1
62
256
6
ByLayer
370
18
48
1
60
0
100
AcDbSpline
70
4
71
3
72
12
73
8
40
0
40
0
40
0
40
0
40
0.323114842069758
40
0.323114842069758
40
0.710369726849213
40
0.710369726849213
40
1
40
1
40
1
40
1
41
1
10
18.6003235193963
20
-3.74234216738759
30
0
41
1
10
18.8492930646507
20
-4.04744932343129
30
0
41
1
10
19.0592928105902
20
-4.39111898775013
30
0
41
1
10
19.4094580782153
20
-5.18363232120672
30
0
41
1
10
19.5333023931999
20
-5.65201728124799
30
0
41
1
10
19.6017330896331
20
-6.4746817175085
30
0
41
1
10
19.5832914534946
20
-6.83617481474573
30
0
41
1
10
19.5129857876428
20
-7.18057367236932
30
0
0
SPLINE
5
179
100
AcDbEntity
8
1
62
256
6
ByLayer
370
18
48
1
60
0
100
AcDbSpline
70
4
71
3
72
8
73
4
40
0
40
0
40
0
40
0
40
1
40
1
40
1
40
1
41
1
10
9.80590085535846
20
-6.44300709755609
30
0
41
1
10
9.79711078790086
20
-6.40930727318766
30
0
41
1
10
9.78759445608807
20
-6.37569352804329
30
0
41
1
10
9.77736611534101
20
-6.34221836268935
30
0
0
SPLINE
5
17A
100
AcDbEntity
8
1
62
256
6
ByLayer
370
18
48
1
60
0
100
AcDbSpline
70
4
71
3
72
12
73
8
40
0
40
0
40
0
40
0
40
0.412488217320871
40
0.412488217320871
40
0.702829232095179
40
0.702829232095179
40
1
40
1
40
1
40
1
41
1
10
27.6571532638945
20
-15.9836797768906
30
0
41
1
10
27.6934397713318
20
-15.9658510777531
30
0
41
1
10
27.7303267707829
20
-15.9455829731451
30
0
41
1
10
27.7913010457518
20
-15.9084869535247
30
0
41
1
10
27.8162013966842
20
-15.8922651273563
30
0
41
1
10
27.8650426336057
20
-15.8582962961167
30
0
41
1
10
27.8890927132664
20
-15.840421138466
30
0
41
1
10
27.9121105278645
20
-15.8221880877048
30
0
0
SPLINE
5
17B
100
AcDbEntity
8
1
62
256
6
ByLayer
370
18
48
1
60
0
100
AcDbSpline
70
4
71
1
72
4
73
2
40
0
40
0
40
1
40
1
41
1
10
28.7296835448584
20
-14.6825888301412
30
0
41
1
10
27.9248084529451
20
-15.8275336111246
30
0
0
SPLINE
5
17C
100
AcDbEntity
8
1
62
256
6
ByLayer
370
18
48
1
60
0
100
AcDbSpline
70
4
71
3
72
11
73
7
40
0
40
0
40
0
40
0
40
0.379837525225134
40
0.569756287837701
40
0.759675050450269
40
1
40
1
40
1
40
1
41
1.02830968163241
10
12.3219118866634
20
-11.9862232984305
30
0
41
1.02565532568264
10
14.7455753113122
20
-12.833740912066
30
0
41
1.02058995167321
10
17.9828778407959
20
-13.6388073033006
30
0
41
1.0133636309892
10
23.5312996452032
20
-14.2936829604716
30
0
41
1.01212905948733
10
25.1791487738826
20
-15.3071121475236
30
0
41
1.0095816818588
10
26.9372798728888
20
-15.7331107548789
30
0
41
1.00899450091457
10
27.6571532551971
20
-15.9836797738633
30
0
0
SPLINE
5
17D
100
AcDbEntity
8
1
62
256
6
ByLayer
370
18
48
1
60
0
100
AcDbSpline
70
4
71
3
72
10
73
6
40
0
40
0
40
0
40
0
40
0.560712447053363
40
0.560712447053363
40
1
40
1
40
1
40
1
41
1
10
12.5177412181141
20
-1.00726260944867
30
0
41
1
10
12.6813209564592
20
-1.060609021999
30
0
41
1
10
12.8558430497073
20
-1.10123210849019
30
0
41
1
10
13.166518942625
20
-1.1387155040135
30
0
41
1
10
13.3053751885995
20
-1.14332971408541
30
0
41
1
10
13.4377665159274
20
-1.13525348445143
30
0
0
SPLINE
5
17E
100
AcDbEntity
8
1
62
256
6
ByLayer
370
18
48
1
60
0
100
AcDbSpline
70
4
71
3
72
13
73
9
40
0
40
0
40
0
40
0
40
0.287855605153645
40
0.287855605153645
40
0.605649284587149
40
0.605649284587149
40
0.605649284587149
40
1
40
1
40
1
40
1
41
1
10
17.556826477749
20
-9.96323450401576
30
0
41
1
10
17.2574429971568
20
-10.1462392423989
30
0
41
1
10
16.9256164985273
20
-10.2856743260149
30
0
41
1
10
16.2111441922944
20
-10.478496961144
30
0
41
1
10
15.8184774343792
20
-10.5246507857696
30
0
41
1
10
15.430302408011
20
-10.5192592327026
30
0
41
1
10
14.9508833103274
20
-10.5126003460383
30
0
41
1
10
14.4645997734577
20
-10.4267092766239
30
0
41
1
10
14.0122739639681
20
-10.2688994508209
30
0
0
INSERT
5
191
100
AcDbEntity
8
SK2
62
256
6
ByLayer
370
25
48
1
60
0
100
AcDbBlockReference
2
DimnDraft3D11
10
0
20
0
30
0
41
1
42
1
43
1
50
0
210
0
220
0
230
1
0
LINE
5
72
100
AcDbEntity
8
1
62
256
6
ByLayer
370
18
48
1
60
0
100
AcDbLine
10
4.673866
20
-7.309678
30
0
11
5.771432
21
-8.244705
31
0
39
0
210
0
220
0
230
1
0
LINE
5
74
100
AcDbEntity
8
1
62
256
6
ByLayer
370
18
48
1
60
0
100
AcDbLine
10
14.98753
20
-4.548793
30
0
11
15.221427
21
-4.782691
31
0
39
0
210
0
220
0
230
1
0
LINE
5
75
100
AcDbEntity
8
1
62
256
6
ByLayer
370
18
48
1
60
0
100
AcDbLine
10
13.992973
20
-6.78413
30
0
11
13.759075
21
-6.550233
31
0
39
0
210
0
220
0
230
1
0
LINE
5
76
100
AcDbEntity
8
1
62
256
6
ByLayer
370
18
48
1
60
0
100
AcDbLine
10
11.435715
20
-8.26878
30
0
11
11.688676
21
-8.521741
31
0
39
0
210
0
220
0
230
1
0
LINE
5
77
100
AcDbEntity
8
1
62
256
6
ByLayer
370
18
48
1
60
0
100
AcDbLine
10
17.34553
20
-2.864886
30
0
11
17.09257
21
-2.611926
31
0
39
0
210
0
220
0
230
1
0
LINE
5
78
100
AcDbEntity
8
1
62
256
6
ByLayer
370
18
48
1
60
0
100
AcDbLine
10
31.08432
20
-7.387218
30
0
11
30.540309
21
-6.843207
31
0
39
0
210
0
220
0
230
1
0
LINE
5
79
100
AcDbEntity
8
1
62
256
6
ByLayer
370
18
48
1
60
0
100
AcDbLine
10
8.806495
20
-4.957492
30
0
11
8.402537
21
-4.613356
31
0
39
0
210
0
220
0
230
1
0
LINE
5
7A
100
AcDbEntity
8
1
62
256
6
ByLayer
370
18
48
1
60
0
100
AcDbLine
10
13.332044
20
-5.353598
30
0
11
13.311898
21
-5.333452
31
0
39
0
210
0
220
0
230
1
0
LINE
5
7B
100
AcDbEntity
8
1
62
256
6
ByLayer
370
18
48
1
60
0
100
AcDbLine
10
15.648474
20
-5.979342
30
0
11
15.882387
21
-6.213256
31
0
39
0
210
0
220
0
230
1
0
LINE
5
7C
100
AcDbEntity
8
1
62
256
6
ByLayer
370
18
48
1
60
0
100
AcDbLine
10
19.160247
20
-18.223269
30
0
11
19.704257
21
-18.76728
31
0
39
0
210
0
220
0
230
1
0
LINE
5
7D
100
AcDbEntity
8
80
62
256
6
ByLayer
370
18
48
1
60
0
100
AcDbLine
10
0
20
0
30
0
11
-5
21
0
31
0
39
0
210
0
220
0
230
1
0
LINE
5
7E
100
AcDbEntity
8
81
62
256
6
ByLayer
370
18
48
1
60
0
100
AcDbLine
10
32.22954
20
-19.9125
30
0
11
42.22954
21
-19.9125
31
0
39
0
210
0
220
0
230
1
0
LINE
5
7F
100
AcDbEntity
8
1
62
256
6
ByLayer
370
18
48
1
60
0
100
AcDbLine
10
19.216599
20
-15.085109
30
0
11
19.478714
21
-18.279114
31
0
39
0
210
0
220
0
230
1
0
LINE
5
80
100
AcDbEntity
8
1
62
256
6
ByLayer
370
18
48
1
60
0
100
AcDbLine
10
30.596154
20
-7.161675
30
0
11
25.199187
21
-6.718774
31
0
39
0
210
0
220
0
230
1
0
LINE
5
81
100
AcDbEntity
8
1
62
256
6
ByLayer
370
18
48
1
60
0
100
AcDbLine
10
30.524651
20
-7.090171
30
0
11
30.596154
21
-7.161675
31
0
39
0
210
0
220
0
230
1
0
LINE
5
82
100
AcDbEntity
8
1
62
256
6
ByLayer
370
18
48
1
60
0
100
AcDbLine
10
19.399935
20
-18.200335
30
0
11
19.478714
21
-18.279114
31
0
39
0
210
0
220
0
230
1
0
LINE
5
83
100
AcDbEntity
8
1
62
256
6
ByLayer
370
18
48
1
60
0
100
AcDbLine
10
27.658784
20
-11.009302
30
0
11
26.283375
21
-9.03673
31
0
39
0
210
0
220
0
230
1
0
LINE
5
84
100
AcDbEntity
8
1
62
256
6
ByLayer
370
18
48
1
60
0
100
AcDbLine
10
28.706533
20
-13.025043
30
0
11
28.551384
21
-12.356813
31
0
39
0
210
0
220
0
230
1
0
LINE
5
85
100
AcDbEntity
8
1
62
256
6
ByLayer
370
18
48
1
60
0
100
AcDbLine
10
26.361917
20
-16.360288
30
0
11
25.709617
21
-16.399262
31
0
39
0
210
0
220
0
230
1
0
LINE
5
86
100
AcDbEntity
8
1
62
256
6
ByLayer
370
18
48
1
60
0
100
AcDbLine
10
21.806316
20
-15.405402
30
0
11
24.137745
21
-16.018023
31
0
39
0
210
0
220
0
230
1
0
LINE
5
87
100
AcDbEntity
8
1
62
256
6
ByLayer
370
18
48
1
60
0
100
AcDbLine
10
19.055602
20
-15.04284
30
0
11
19.317663
21
-18.236181
31
0
39
0
210
0
220
0
230
1
0
LINE
5
88
100
AcDbEntity
8
1
62
256
6
ByLayer
370
18
48
1
60
0
100
AcDbLine
10
17.309637
20
7.190088
30
0
11
14.529623
21
3.235483
31
0
39
0
210
0
220
0
230
1
0
LINE
5
89
100
AcDbEntity
8
1
62
256
6
ByLayer
370
18
48
1
60
0
100
AcDbLine
10
6.22561
20
-8.577079
30
0
11
4.133239
21
-11.553502
31
0
39
0
210
0
220
0
230
1
0
LINE
5
8A
100
AcDbEntity
8
1
62
256
6
ByLayer
370
18
48
1
60
0
100
AcDbLine
10
25.079849
20
-6.547293
30
0
11
30.554869
21
-7.020703
31
0
39
0
210
0
220
0
230
1
0
LINE
5
8B
100
AcDbEntity
8
1
62
256
6
ByLayer
370
18
48
1
60
0
100
AcDbLine
10
14.458997
20
9.052057
30
0
11
11.58527
21
4.964143
31
0
39
0
210
0
220
0
230
1
0
LINE
5
8C
100
AcDbEntity
8
1
62
256
6
ByLayer
370
18
48
1
60
0
100
AcDbLine
10
3.731404
20
-6.208077
30
0
11
1.610138
21
-9.225605
31
0
39
0
210
0
220
0
230
1
0
LINE
5
8D
100
AcDbEntity
8
1
62
256
6
ByLayer
370
18
48
1
60
0
100
AcDbLine
10
19.428294
20
-18.188002
30
0
11
19.172719
21
-15.073696
31
0
39
0
210
0
220
0
230
1
0
LINE
5
8E
100
AcDbEntity
8
1
62
256
6
ByLayer
370
18
48
1
60
0
100
AcDbLine
10
13.678034
20
9.569374
30
0
11
10.388339
21
4.889742
31
0
39
0
210
0
220
0
230
1
0
LINE
5
8F
100
AcDbEntity
8
1
62
256
6
ByLayer
370
18
48
1
60
0
100
AcDbLine
10
3.394248
20
-5.05944
30
0
11
0.731257
21
-8.847577
31
0
39
0
210
0
220
0
230
1
0
LINE
5
90
100
AcDbEntity
8
1
62
256
6
ByLayer
370
18
48
1
60
0
100
AcDbLine
10
30.554869
20
-7.020703
30
0
11
30.512325
21
-7.118535
31
0
39
0
210
0
220
0
230
1
0
LINE
5
91
100
AcDbEntity
8
1
62
256
6
ByLayer
370
18
48
1
60
0
100
AcDbLine
10
25.165151
20
-6.6696
30
0
11
25.946138
21
-6.73713
31
0
39
0
210
0
220
0
230
1
0
LINE
5
92
100
AcDbEntity
8
1
62
256
6
ByLayer
370
18
48
1
60
0
100
AcDbLine
10
14.438205
20
9.072849
30
0
11
11.554813
21
4.971188
31
0
39
0
210
0
220
0
230
1
0
LINE
5
93
100
AcDbEntity
8
1
62
256
6
ByLayer
370
18
48
1
60
0
100
AcDbLine
10
3.714789
20
-6.181342
30
0
11
1.404084
21
-9.468349
31
0
39
0
210
0
220
0
230
1
0
LINE
5
94
100
AcDbEntity
8
1
62
256
6
ByLayer
370
18
48
1
60
0
100
AcDbLine
10
28.539594
20
-11.574303
30
0
11
28.146047
21
-11.719451
31
0
39
0
210
0
220
0
230
1
0
LINE
5
95
100
AcDbEntity
8
1
62
256
6
ByLayer
370
18
48
1
60
0
100
AcDbLine
10
27.658792
20
-11.009314
30
0
11
26.085254
21
-8.620839
31
0
39
0
210
0
220
0
230
1
0
LINE
5
96
100
AcDbEntity
8
1
62
256
6
ByLayer
370
18
48
1
60
0
100
AcDbLine
10
24.137759
20
-16.018027
30
0
11
21.346187
21
-15.362221
31
0
39
0
210
0
220
0
230
1
0
LINE
5
97
100
AcDbEntity
8
1
62
256
6
ByLayer
370
18
48
1
60
0
100
AcDbLine
10
24.951282
20
-16.678721
30
0
11
24.973592
21
-16.232309
31
0
39
0
210
0
220
0
230
1
0
LINE
5
98
100
AcDbEntity
8
1
62
256
6
ByLayer
370
18
48
1
60
0
100
AcDbLine
10
14.373302
20
-4.405813
30
0
11
14.370686
21
-4.405844
31
0
39
0
210
0
220
0
230
1
0
LINE
5
99
100
AcDbEntity
8
1
62
256
6
ByLayer
370
18
48
1
60
0
100
AcDbLine
10
13.314398
20
-5.336086
30
0
11
13.325673
21
-5.347362
31
0
39
0
210
0
220
0
230
1
0
LINE
5
9A
100
AcDbEntity
8
1
62
256
6
ByLayer
370
18
48
1
60
0
100
AcDbLine
10
20.250292
20
-12.287897
30
0
11
20.625267
21
-12.3827
31
0
39
0
210
0
220
0
230
1
0
LINE
5
9B
100
AcDbEntity
8
1
62
256
6
ByLayer
370
18
48
1
60
0
100
AcDbLine
10
13.342738
20
-6.445522
30
0
11
13.576652
21
-6.679435
31
0
39
0
210
0
220
0
230
1
0
LINE
5
9C
100
AcDbEntity
8
1
62
256
6
ByLayer
370
18
48
1
60
0
100
AcDbLine
10
15.223038
20
-6.599828
30
0
11
15.456952
21
-6.833742
31
0
39
0
210
0
220
0
230
1
0
LINE
5
9D
100
AcDbEntity
8
1
62
256
6
ByLayer
370
18
48
1
60
0
100
AcDbLine
10
14.866129
20
-4.278479
30
0
11
15.100042
21
-4.512393
31
0
39
0
210
0
220
0
230
1
0
LINE
5
9E
100
AcDbEntity
8
1
62
256
6
ByLayer
370
18
48
1
60
0
100
AcDbLine
10
14.624281
20
-6.881587
30
0
11
14.858194
21
-7.1155
31
0
39
0
210
0
220
0
230
1
0
LINE
5
9F
100
AcDbEntity
8
1
62
256
6
ByLayer
370
18
48
1
60
0
100
AcDbLine
10
15.715865
20
-5.328794
30
0
11
15.949779
21
-5.562708
31
0
39
0
210
0
220
0
230
1
0
LINE
5
A0
100
AcDbEntity
8
1
62
256
6
ByLayer
370
18
48
1
60
0
100
AcDbLine
10
23.080592
20
-16.858803
30
0
11
22.367279
21
-17.364705
31
0
39
0
210
0
220
0
230
1
0
LINE
5
A1
100
AcDbEntity
8
1
62
256
6
ByLayer
370
18
48
1
60
0
100
AcDbLine
10
25.079989
20
-17.828655
30
0
11
22.367279
21
-17.364705
31
0
39
0
210
0
220
0
230
1
0
LINE
5
A2
100
AcDbEntity
8
1
62
256
6
ByLayer
370
18
48
1
60
0
100
AcDbLine
10
23.080592
20
-16.858803
30
0
11
21.992457
21
-16.099925
31
0
39
0
210
0
220
0
230
1
0
LINE
5
A3
100
AcDbEntity
8
1
62
256
6
ByLayer
370
18
48
1
60
0
100
AcDbLine
10
22.367279
20
-17.364705
30
0
11
20.951313
21
-16.377193
31
0
39
0
210
0
220
0
230
1
0
LINE
5
A4
100
AcDbEntity
8
1
62
256
6
ByLayer
370
18
48
1
60
0
100
AcDbLine
10
26.987876
20
-7.790107
30
0
11
26.981502
21
-9.002947
31
0
39
0
210
0
220
0
230
1
0
LINE
5
A5
100
AcDbEntity
8
1
62
256
6
ByLayer
370
18
48
1
60
0
100
AcDbLine
10
26.550429
20
-8.837686
30
0
11
26.373595
21
-7.685047
31
0
39
0
210
0
220
0
230
1
0
LINE
5
A6
100
AcDbEntity
8
1
62
256
6
ByLayer
370
18
48
1
60
0
100
AcDbLine
10
29.479483
20
-13.752597
30
0
11
30.356788
21
-13.392403
31
0
39
0
210
0
220
0
230
1
0
LINE
5
A7
100
AcDbEntity
8
1
62
256
6
ByLayer
370
18
48
1
60
0
100
AcDbLine
10
28.069637
20
-9.761826
30
0
11
28.403842
21
-8.777619
31
0
39
0
210
0
220
0
230
1
0
LINE
5
A8
100
AcDbEntity
8
1
62
256
6
ByLayer
370
18
48
1
60
0
100
AcDbLine
10
21.915343
20
-15.965508
30
0
11
21.696709
21
-15.742162
31
0
39
0
210
0
220
0
230
1
0
LINE
5
A9
100
AcDbEntity
8
1
62
256
6
ByLayer
370
18
48
1
60
0
100
AcDbLine
10
25.927284
20
-17.329733
30
0
11
27.327829
21
-16.813351
31
0
39
0
210
0
220
0
230
1
0
LINE
5
AA
100
AcDbEntity
8
1
62
256
6
ByLayer
370
18
48
1
60
0
100
AcDbLine
10
29.335713
20
-11.9687
30
0
11
29.769404
21
-11.157904
31
0
39
0
210
0
220
0
230
1
0
LINE
5
AB
100
AcDbEntity
8
1
62
256
6
ByLayer
370
18
48
1
60
0
100
AcDbLine
10
21.992457
20
-16.099925
30
0
11
20.951313
21
-16.377193
31
0
39
0
210
0
220
0
230
1
0
LINE
5
AC
100
AcDbEntity
8
1
62
256
6
ByLayer
370
18
48
1
60
0
100
AcDbLine
10
27.327829
20
-16.813351
30
0
11
27.388991
21
-17.614132
31
0
39
0
210
0
220
0
230
1
0
LINE
5
AD
100
AcDbEntity
8
1
62
256
6
ByLayer
370
18
48
1
60
0
100
AcDbLine
10
21.915343
20
-15.965508
30
0
11
24.951282
21
-16.678721
31
0
39
0
210
0
220
0
230
1
0
LINE
5
AE
100
AcDbEntity
8
1
62
256
6
ByLayer
370
18
48
1
60
0
100
AcDbLine
10
21.992457
20
-16.099925
30
0
11
21.915343
21
-15.965508
31
0
39
0
210
0
220
0
230
1
0
LINE
5
AF
100
AcDbEntity
8
1
62
256
6
ByLayer
370
18
48
1
60
0
100
AcDbLine
10
28.403842
20
-8.777619
30
0
11
26.987876
21
-7.790107
31
0
39
0
210
0
220
0
230
1
0
LINE
5
B0
100
AcDbEntity
8
1
62
256
6
ByLayer
370
18
48
1
60
0
100
AcDbLine
10
29.48761
20
-12.265126
30
0
11
29.479483
21
-13.752597
31
0
39
0
210
0
220
0
230
1
0
LINE
5
B1
100
AcDbEntity
8
1
62
256
6
ByLayer
370
18
48
1
60
0
100
AcDbLine
10
21.696709
20
-15.742162
30
0
11
20.642087
21
-15.838187
31
0
39
0
210
0
220
0
230
1
0
LINE
5
B2
100
AcDbEntity
8
1
62
256
6
ByLayer
370
18
48
1
60
0
100
AcDbLine
10
26.550429
20
-8.837686
30
0
11
26.828312
21
-8.976748
31
0
39
0
210
0
220
0
230
1
0
LINE
5
B3
100
AcDbEntity
8
1
62
256
6
ByLayer
370
18
48
1
60
0
100
AcDbLine
10
25.595672
20
-17.288954
30
0
11
25.079989
21
-17.828655
31
0
39
0
210
0
220
0
230
1
0
LINE
5
B4
100
AcDbEntity
8
1
62
256
6
ByLayer
370
18
48
1
60
0
100
AcDbLine
10
26.981502
20
-9.002947
30
0
11
26.828312
21
-8.976748
31
0
39
0
210
0
220
0
230
1
0
LINE
5
B5
100
AcDbEntity
8
1
62
256
6
ByLayer
370
18
48
1
60
0
100
AcDbLine
10
26.828312
20
-8.976748
30
0
11
28.539594
21
-11.574303
31
0
39
0
210
0
220
0
230
1
0
LINE
5
B6
100
AcDbEntity
8
1
62
256
6
ByLayer
370
18
48
1
60
0
100
AcDbLine
10
29.769404
20
-11.157904
30
0
11
28.403842
21
-8.777619
31
0
39
0
210
0
220
0
230
1
0
LINE
5
B7
100
AcDbEntity
8
1
62
256
6
ByLayer
370
18
48
1
60
0
100
AcDbLine
10
26.373595
20
-7.685047
30
0
11
26.987876
21
-7.790107
31
0
39
0
210
0
220
0
230
1
0
LINE
5
B8
100
AcDbEntity
8
1
62
256
6
ByLayer
370
18
48
1
60
0
100
AcDbLine
10
25.595672
20
-17.288954
30
0
11
23.080592
21
-16.858803
31
0
39
0
210
0
220
0
230
1
0
LINE
5
B9
100
AcDbEntity
8
1
62
256
6
ByLayer
370
18
48
1
60
0
100
AcDbLine
10
20.642087
20
-15.838187
30
0
11
20.951313
21
-16.377193
31
0
39
0
210
0
220
0
230
1
0
LINE
5
BA
100
AcDbEntity
8
1
62
256
6
ByLayer
370
18
48
1
60
0
100
AcDbLine
10
29.335713
20
-11.9687
30
0
11
28.069637
21
-9.761826
31
0
39
0
210
0
220
0
230
1
0
LINE
5
BB
100
AcDbEntity
8
1
62
256
6
ByLayer
370
18
48
1
60
0
100
AcDbLine
10
28.069637
20
-9.761826
30
0
11
26.981502
21
-9.002947
31
0
39
0
210
0
220
0
230
1
0
LINE
5
BC
100
AcDbEntity
8
1
62
256
6
ByLayer
370
18
48
1
60
0
100
AcDbLine
10
3.697503
20
-16.135003
30
0
11
0
21
-12.4375
31
0
39
0
210
0
220
0
230
1
0
LINE
5
BD
100
AcDbEntity
8
1
62
256
6
ByLayer
370
18
48
1
60
0
100
AcDbLine
10
4.133239
20
-11.553502
30
0
11
3.697503
21
-16.135003
31
0
39
0
210
0
220
0
230
1
0
LINE
5
BE
100
AcDbEntity
8
1
62
256
6
ByLayer
370
18
48
1
60
0
100
AcDbLine
10
0
20
12.4375
30
0
11
2.756775
21
12.449529
31
0
39
0
210
0
220
0
230
1
0
LINE
5
BF
100
AcDbEntity
8
1
62
256
6
ByLayer
370
18
48
1
60
0
100
AcDbLine
10
8.965532
20
12.44668
30
0
11
13.678034
21
9.569374
31
0
39
0
210
0
220
0
230
1
0
LINE
5
C0
100
AcDbEntity
8
1
62
256
6
ByLayer
370
18
48
1
60
0
100
AcDbLine
10
26.40859
20
3.043216
30
0
11
30.025824
21
-0.574017
31
0
39
0
210
0
220
0
230
1
0
LINE
5
C1
100
AcDbEntity
8
1
62
256
6
ByLayer
370
18
48
1
60
0
100
AcDbLine
10
0
20
-12.4375
30
0
11
0
21
12.4375
31
0
39
0
210
0
220
0
230
1
0
LINE
5
C2
100
AcDbEntity
8
1
62
256
6
ByLayer
370
18
48
1
60
0
100
AcDbLine
10
1.404084
20
-9.468349
30
0
11
1.610138
21
-9.225605
31
0
39
0
210
0
220
0
230
1
0
LINE
5
C3
100
AcDbEntity
8
1
62
256
6
ByLayer
370
18
48
1
60
0
100
AcDbLine
10
8.965532
20
12.44668
30
0
11
2.756775
21
12.449529
31
0
39
0
210
0
220
0
230
1
0
LINE
5
C4
100
AcDbEntity
8
1
62
256
6
ByLayer
370
18
48
1
60
0
100
AcDbLine
10
19.317663
20
-18.236181
30
0
11
19.428294
21
-18.188002
31
0
39
0
210
0
220
0
230
1
0
LINE
5
C5
100
AcDbEntity
8
1
62
256
6
ByLayer
370
18
48
1
60
0
100
AcDbLine
10
30.025824
20
-0.574017
30
0
11
17.309637
21
7.190088
31
0
39
0
210
0
220
0
230
1
0
LINE
5
C6
100
AcDbEntity
8
1
62
256
6
ByLayer
370
18
48
1
60
0
100
AcDbLine
10
3.697503
20
-16.135003
30
0
11
4.590066
21
-17.027566
31
0
39
0
210
0
220
0
230
1
0
LINE
5
C7
100
AcDbEntity
8
1
62
256
6
ByLayer
370
18
48
1
60
0
100
AcDbLine
10
2.756775
20
12.449529
30
0
11
0.731257
21
-8.847577
31
0
39
0
210
0
220
0
230
1
0
LINE
5
C8
100
AcDbEntity
8
1
62
256
6
ByLayer
370
18
48
1
60
0
100
AcDbLine
10
14.438205
20
9.072849
30
0
11
14.458997
21
9.052057
31
0
39
0
210
0
220
0
230
1
0
LINE
5
C9
100
AcDbEntity
8
1
62
256
6
ByLayer
370
18
48
1
60
0
100
AcDbLine
10
11.417226
20
12.298527
30
0
11
26.40859
21
3.043216
31
0
39
0
210
0
220
0
230
1
0
LINE
5
CA
100
AcDbEntity
8
1
62
256
6
ByLayer
370
18
48
1
60
0
100
AcDbLine
10
8.965532
20
12.44668
30
0
11
11.417226
21
12.298527
31
0
39
0
210
0
220
0
230
1
0
LINE
5
CB
100
AcDbEntity
8
1
62
256
6
ByLayer
370
18
48
1
60
0
100
AcDbLine
10
14.458997
20
9.052057
30
0
11
17.309637
21
7.190088
31
0
39
0
210
0
220
0
230
1
0
LINE
5
CC
100
AcDbEntity
8
1
62
256
6
ByLayer
370
18
48
1
60
0
100
AcDbLine
10
1.610138
20
-9.225605
30
0
11
4.133239
21
-11.553502
31
0
39
0
210
0
220
0
230
1
0
LINE
5
CD
100
AcDbEntity
8
1
62
256
6
ByLayer
370
18
48
1
60
0
100
AcDbLine
10
30.025824
20
-0.574017
30
0
11
30.554869
21
-7.020703
31
0
39
0
210
0
220
0
230
1
0
LINE
5
CE
100
AcDbEntity
8
1
62
256
6
ByLayer
370
18
48
1
60
0
100
AcDbLine
10
19.317663
20
-18.236181
30
0
11
4.590066
21
-17.027566
31
0
39
0
210
0
220
0
230
1
0
LINE
5
CF
100
AcDbEntity
8
1
62
256
6
ByLayer
370
18
48
1
60
0
100
AcDbLine
10
32.2269
20
-19.049951
30
0
11
31.309863
21
-7.875383
31
0
39
0
210
0
220
0
230
1
0
LINE
5
D0
100
AcDbEntity
8
1
62
256
6
ByLayer
370
18
48
1
60
0
100
AcDbLine
10
20.192423
20
-18.992823
30
0
11
31.36699
21
-19.90986
31
0
39
0
210
0
220
0
230
1
0
LINE
5
D1
100
AcDbEntity
8
1
62
256
6
ByLayer
370
18
48
1
60
0
100
AcDbLine
10
17.747735
20
-2.950377
30
0
11
16.080674
21
-1.787749
31
0
39
0
210
0
220
0
230
1
0
LINE
5
D2
100
AcDbEntity
8
1
62
256
6
ByLayer
370
18
48
1
60
0
100
AcDbLine
10
8.546879
20
-4.754388
30
0
11
8.178237
21
-4.440339
31
0
39
0
210
0
220
0
230
1
0
LINE
5
D3
100
AcDbEntity
8
1
62
256
6
ByLayer
370
18
48
1
60
0
100
AcDbLine
10
11.308915
20
-8.575636
30
0
11
12.975975
21
-9.738264
31
0
39
0
210
0
220
0
230
1
0
LINE
5
D4
100
AcDbEntity
8
1
62
256
6
ByLayer
370
18
48
1
60
0
100
AcDbLine
10
25.974165
20
-8.650079
30
0
11
25.956482
21
-8.631513
31
0
39
0
210
0
220
0
230
1
0
LINE
5
D5
100
AcDbEntity
8
1
62
256
6
ByLayer
370
18
48
1
60
0
100
AcDbLine
10
25.956482
20
-8.631513
30
0
11
25.323457
21
-7.723648
31
0
39
0
210
0
220
0
230
1
0
LINE
5
D6
100
AcDbEntity
8
1
62
256
6
ByLayer
370
18
48
1
60
0
100
AcDbLine
10
5.440144
20
-4.400432
30
0
11
10.246398
21
2.436524
31
0
39
0
210
0
220
0
230
1
0
LINE
5
D7
100
AcDbEntity
8
1
62
256
6
ByLayer
370
18
48
1
60
0
100
AcDbLine
10
8.919148
20
1.566609
30
0
11
8.683668
21
1.552129
31
0
39
0
210
0
220
0
230
1
0
LINE
5
D8
100
AcDbEntity
8
1
62
256
6
ByLayer
370
18
48
1
60
0
100
AcDbLine
10
12.975975
20
-9.738264
30
0
11
12.546188
21
-9.372124
31
0
39
0
210
0
220
0
230
1
0
LINE
5
D9
100
AcDbEntity
8
1
62
256
6
ByLayer
370
18
48
1
60
0
100
AcDbLine
10
5.809114
20
-2.536959
30
0
11
8.683668
21
1.552129
31
0
39
0
210
0
220
0
230
1
0
LINE
5
DA
100
AcDbEntity
8
1
62
256
6
ByLayer
370
18
48
1
60
0
100
AcDbLine
10
13.285258
20
4.156539
30
0
11
14.842252
21
3.004309
31
0
39
0
210
0
220
0
230
1
0
LINE
5
DB
100
AcDbEntity
8
1
62
256
6
ByLayer
370
18
48
1
60
0
100
AcDbLine
10
6.005588
20
-7.581142
30
0
11
12.321912
21
-11.986223
31
0
39
0
210
0
220
0
230
1
0
LINE
5
DC
100
AcDbEntity
8
1
62
256
6
ByLayer
370
18
48
1
60
0
100
AcDbLine
10
11.308915
20
-8.575636
30
0
11
10.886412
21
-8.215702
31
0
39
0
210
0
220
0
230
1
0
LINE
5
DD
100
AcDbEntity
8
1
62
256
6
ByLayer
370
18
48
1
60
0
100
AcDbLine
10
21.30776
20
-15.244377
30
0
11
21.331799
21
-15.253901
31
0
39
0
210
0
220
0
230
1
0
LINE
5
DE
100
AcDbEntity
8
1
62
256
6
ByLayer
370
18
48
1
60
0
100
AcDbLine
10
13.222193
20
4.203173
30
0
11
14.247433
21
3.329762
31
0
39
0
210
0
220
0
230
1
0
LINE
5
DF
100
AcDbEntity
8
1
62
256
6
ByLayer
370
18
48
1
60
0
100
AcDbLine
10
8.239061
20
1.930894
30
0
11
8.683668
21
1.552129
31
0
39
0
210
0
220
0
230
1
0
LINE
5
E0
100
AcDbEntity
8
1
62
256
6
ByLayer
370
18
48
1
60
0
100
AcDbLine
10
20.353005
20
-0.92475
30
0
11
21.806213
21
-1.852442
31
0
39
0
210
0
220
0
230
1
0
LINE
5
E1
100
AcDbEntity
8
1
62
256
6
ByLayer
370
18
48
1
60
0
100
AcDbLine
10
5.872121
20
-2.767825
30
0
11
8.919148
21
1.566609
31
0
39
0
210
0
220
0
230
1
0
LINE
5
E2
100
AcDbEntity
8
1
62
256
6
ByLayer
370
18
48
1
60
0
100
AcDbLine
10
8.413913
20
1.997024
30
0
11
8.239061
21
1.930894
31
0
39
0
210
0
220
0
230
1
0
LINE
5
E3
100
AcDbEntity
8
1
62
256
6
ByLayer
370
18
48
1
60
0
100
AcDbLine
10
5.364507
20
-2.158194
30
0
11
5.809114
21
-2.536959
31
0
39
0
210
0
220
0
230
1
0
LINE
5
E4
100
AcDbEntity
8
1
62
256
6
ByLayer
370
18
48
1
60
0
100
AcDbLine
10
8.178237
20
-4.440339
30
0
11
7.010182
21
-3.626515
31
0
39
0
210
0
220
0
230
1
0
LINE
5
E5
100
AcDbEntity
8
1
62
256
6
ByLayer
370
18
48
1
60
0
100
AcDbLine
10
19.942554
20
-0.642085
30
0
11
14.247433
21
3.329762
31
0
39
0
210
0
220
0
230
1
0
LINE
5
E6
100
AcDbEntity
8
1
62
256
6
ByLayer
370
18
48
1
60
0
100
AcDbLine
10
25.401342
20
-7.008476
30
0
11
21.806213
21
-1.852442
31
0
39
0
210
0
220
0
230
1
0
LINE
5
E7
100
AcDbEntity
8
1
62
256
6
ByLayer
370
18
48
1
60
0
100
AcDbLine
10
13.550494
20
-13.596305
30
0
11
19.64453
21
-15.197612
31
0
39
0
210
0
220
0
230
1
0
LINE
5
E8
100
AcDbEntity
8
1
62
256
6
ByLayer
370
18
48
1
60
0
100
AcDbLine
10
5.366886
20
-2.33741
30
0
11
5.872121
21
-2.767825
31
0
39
0
210
0
220
0
230
1
0
LINE
5
E9
100
AcDbEntity
8
1
62
256
6
ByLayer
370
18
48
1
60
0
100
AcDbLine
10
10.886412
20
-8.215702
30
0
11
12.546188
21
-9.372124
31
0
39
0
210
0
220
0
230
1
0
LINE
5
EA
100
AcDbEntity
8
1
62
256
6
ByLayer
370
18
48
1
60
0
100
AcDbLine
10
5.991714
20
-8.414101
30
0
11
11.686835
21
-12.385947
31
0
39
0
210
0
220
0
230
1
0
LINE
5
EB
100
AcDbEntity
8
1
62
256
6
ByLayer
370
18
48
1
60
0
100
AcDbLine
10
13.406986
20
2.947438
30
0
11
19.72331
21
-1.457643
31
0
39
0
210
0
220
0
230
1
0
LINE
5
EC
100
AcDbEntity
8
1
62
256
6
ByLayer
370
18
48
1
60
0
100
AcDbLine
10
12.097286
20
-12.668612
30
0
11
13.550494
21
-13.596305
31
0
39
0
210
0
220
0
230
1
0
LINE
5
ED
100
AcDbEntity
8
1
62
256
6
ByLayer
370
18
48
1
60
0
100
AcDbLine
10
8.413913
20
1.997024
30
0
11
8.919148
21
1.566609
31
0
39
0
210
0
220
0
230
1
0
LINE
5
EE
100
AcDbEntity
8
1
62
256
6
ByLayer
370
18
48
1
60
0
100
AcDbLine
10
5.364507
20
-2.158194
30
0
11
8.239061
21
1.930894
31
0
39
0
210
0
220
0
230
1
0
LINE
5
EF
100
AcDbEntity
8
1
62
256
6
ByLayer
370
18
48
1
60
0
100
AcDbLine
10
9.999718
20
0.626137
30
0
11
7.010182
21
-3.626515
31
0
39
0
210
0
220
0
230
1
0
LINE
5
F0
100
AcDbEntity
8
1
62
256
6
ByLayer
370
18
48
1
60
0
100
AcDbLine
10
3.931514
20
-3.115215
30
0
11
5.440144
21
-4.400432
31
0
39
0
210
0
220
0
230
1
0
LINE
5
F1
100
AcDbEntity
8
1
62
256
6
ByLayer
370
18
48
1
60
0
100
AcDbLine
10
5.366886
20
-2.33741
30
0
11
5.364507
21
-2.158194
31
0
39
0
210
0
220
0
230
1
0
LINE
5
F2
100
AcDbEntity
8
1
62
256
6
ByLayer
370
18
48
1
60
0
100
AcDbLine
10
20.234732
20
-14.962422
30
0
11
21.30776
21
-15.244377
31
0
39
0
210
0
220
0
230
1
0
LINE
5
F3
100
AcDbEntity
8
1
62
256
6
ByLayer
370
18
48
1
60
0
100
AcDbLine
10
8.737768
20
3.721741
30
0
11
10.246398
21
2.436524
31
0
39
0
210
0
220
0
230
1
0
LINE
5
F4
100
AcDbEntity
8
1
62
256
6
ByLayer
370
18
48
1
60
0
100
AcDbLine
10
21.806213
20
-1.852442
30
0
11
14.842252
21
3.004309
31
0
39
0
210
0
220
0
230
1
0
LINE
5
F5
100
AcDbEntity
8
1
62
256
6
ByLayer
370
18
48
1
60
0
100
AcDbLine
10
5.872121
20
-2.767825
30
0
11
5.809114
21
-2.536959
31
0
39
0
210
0
220
0
230
1
0
LINE
5
F6
100
AcDbEntity
8
1
62
256
6
ByLayer
370
18
48
1
60
0
100
AcDbLine
10
8.737768
20
3.721741
30
0
11
3.931514
21
-3.115215
31
0
39
0
210
0
220
0
230
1
0
LINE
5
F7
100
AcDbEntity
8
SK1
62
256
6
ByLayer
370
18
48
1
60
0
100
AcDbLine
10
0
20
-12.4375
30
0
11
0
21
12.4375
31
0
39
0
210
0
220
0
230
1
0
LINE
5
F9
100
AcDbEntity
8
SK1
62
256
6
ByLayer
370
18
48
1
60
0
100
AcDbLine
10
-139.12046
20
12.4375
30
0
11
0
21
12.4375
31
0
39
0
210
0
220
0
230
1
0
LINE
5
FA
100
AcDbEntity
8
SK1
62
256
6
ByLayer
370
18
48
1
60
0
100
AcDbLine
10
-139.12046
20
-12.4375
30
0
11
-139.12046
21
12.4375
31
0
39
0
210
0
220
0
230
1
0
LINE
5
FB
100
AcDbEntity
8
SK1
62
256
6
ByLayer
370
18
48
1
60
0
100
AcDbLine
10
0
20
-12.4375
30
0
11
-139.12046
21
-12.4375
31
0
39
0
210
0
220
0
230
1
0
MTEXT
5
17F
100
AcDbEntity
8
SK6
62
256
6
ByLayer
370
18
48
1
60
0
100
AcDbMText
10
-67.57046
20
21.568514
30
0
210
0
220
0
230
1
1
\W0.7403;DCLNL 3225P 12-2
40
3.5
41
0
44
1.084337
50
0
71
7
72
5
7
iso_b_vert
0
DIMENSION
5
19F
100
AcDbEntity
8
2
62
256
6
ByLayer
370
13
48
1
60
0
100
AcDbDimension
2
DimnDraft3D2
10
30.37422
20
-19.828051
30
0
11
19.783658
21
-31.44666
31
0
70
34
71
5
72
1
41
1
210
0
220
0
230
1
3
Standard
100
AcDb2LineAngularDimension
13
32.22954
23
-19.9125
33
0
14
32.22954
24
-18.325
34
0
15
31.370869
25
-19.909841
35
0
16
16.474108
26
-34.495739
36
0
40
0
0
DIMENSION
5
1B4
100
AcDbEntity
8
2
62
256
6
ByLayer
370
13
48
1
60
0
100
AcDbDimension
2
DimnDraft3D3
10
32.22954
20
-48.1625
30
0
11
10.833191
21
-48.1625
31
0
70
32
71
5
72
1
41
1
210
0
220
0
230
1
3
Standard
100
AcDbAlignedDimension
13
0
23
-14.4375
33
0
14
32.22954
24
-21.9125
34
0
50
0
100
AcDbRotatedDimension
1001
ACAD
1000
DSTYLE
1002
{
1070
   279
1070
     0
1070
   172
1070
     1
1070
   173
1070
     1
1070
   340
1005
180
1070
    77
1070
     1
1070
    73
1070
     0
1070
   171
1070
     3
1070
   274
1070
     4
1070
   177
1070
     2
1070
   176
1070
     2
1070
   178
1070
     7
1070
    78
1070
     8
1070
    41
1041
3.175
1070
   147
1041
2.25
1070
    42
1041
2.0
1070
    44
1041
2.0
1070
   140
1041
4.5
1070
   343
1005
1A0
1070
   344
1005
1A0
1002
}
0
DIMENSION
5
1C2
100
AcDbEntity
8
2
62
256
6
ByLayer
370
13
48
1
60
0
100
AcDbDimension
2
DimnDraft3D4
10
54.47954
20
-19.9125
30
0
11
54.47954
21
-9.019079
31
0
70
32
71
5
72
1
41
1
210
0
220
0
230
1
3
Standard
100
AcDbAlignedDimension
13
2
23
12.4375
33
0
14
34.22954
24
-19.9125
34
0
50
90
100
AcDbRotatedDimension
1001
ACAD
1000
DSTYLE
1002
{
1070
    74
1070
     0
1070
   279
1070
     0
1070
   172
1070
     1
1070
   173
1070
     1
1070
   340
1005
180
1070
    77
1070
     1
1070
    73
1070
     0
1070
   171
1070
     3
1070
   274
1070
     4
1070
   177
1070
     2
1070
   176
1070
     2
1070
   178
1070
     7
1070
    78
1070
     8
1070
    41
1041
3.175
1070
   147
1041
2.25
1070
    42
1041
2.0
1070
    44
1041
2.0
1070
   140
1041
4.5
1070
   343
1005
1A0
1070
   344
1005
1A0
1002
}
0
DIMENSION
5
1D0
100
AcDbEntity
8
SK2
62
256
6
ByLayer
370
13
48
1
60
0
100
AcDbDimension
2
DimnDraft3D5
10
-146.87046
20
-12.4375
30
0
11
-146.87046
21
-5.281579
31
0
70
32
71
5
72
1
41
1
210
0
220
0
230
1
3
Standard
100
AcDbAlignedDimension
13
-141.12046
23
12.4375
33
0
14
-141.12046
24
-12.4375
34
0
50
90
100
AcDbRotatedDimension
1001
ACAD
1000
DSTYLE
1002
{
1070
    74
1070
     0
1070
   279
1070
     0
1070
   172
1070
     1
1070
   173
1070
     1
1070
   340
1005
180
1070
    77
1070
     1
1070
    73
1070
     0
1070
   171
1070
     3
1070
   274
1070
     4
1070
   177
1070
     2
1070
   176
1070
     2
1070
   178
1070
     7
1070
    78
1070
     8
1070
    41
1041
3.175
1070
   147
1041
2.25
1070
    42
1041
2.0
1070
    44
1041
2.0
1070
   140
1041
4.5
1070
   343
1005
1A0
1070
   344
1005
1A0
1002
}
0
ENDSEC
0
SECTION
2
OBJECTS
0
DICTIONARY
5
23a
330
0
100
AcDbDictionary
280
0
281
1
3
ACAD_GROUP
350
23b
3
ACAD_MLINESTYLE
350
23c
0
DICTIONARY
5
23b
330
0
100
AcDbDictionary
280
0
281
1
0
DICTIONARY
5
23c
330
0
100
AcDbDictionary
280
0
281
1
3
Standard
350
18
0
MLINESTYLE
5
18
330
23c
100
AcDbMlineStyle
2
Standard
70
0
3

62
256
51
90
52
90
71
2
49
-0.5
62
256
6
ByLayer
49
0.5
62
256
6
ByLayer
0
RASTERVARIABLES
5
229
330

100
AcDbRasterVariables
90
0
70
1
71
1
72
1
0
ENDSEC
0
EOF
