0
SECTION
2
HEADER
9
$ACADVER
1
AC1015
9
$DWGCODEPAGE
3
ANSI_1252
9
$HANDSEED
5
1ff
9
$ANGBASE
50
0
9
$ANGDIR
70
0
9
$ATTMODE
70
1
9
$AUNITS
70
0
9
$AUPREC
70
0
9
$CECOLOR
62
256
9
$CELTSCALE
40
1
9
$CELTYPE
6
ByLayer
9
$CELWEIGHT
370
18
9
$CLAYER
8
0
9
$CMLJUST
70
0
9
$CMLSCALE
40
1
9
$CMLSTYLE
2
Standard
9
$DIMSTYLE
2
Standard
9
$TEXTSIZE
40
0.2
9
$TEXTSTYLE
7
Standard
9
$LUNITS
70
2
9
$LUPREC
70
4
9
$EXTNAMES
290
1
9
$INSUNITS
70
4
9
$LTSCALE
40
1
9
$LWDISPLAY
290
1
9
$PDMODE
70
0
9
$PDSIZE
40
0
9
$PLINEGEN
70
0
0
ENDSEC
0
SECTION
2
CLASSES
0
CLASS
1
RASTERVARIABLES
2
AcDbRasterVariables
3
ISM
90
0
280
0
281
0
0
ENDSEC
0
SECTION
2
TABLES
0
TABLE
2
VPORT
5
1f5
100
AcDbSymbolTable
0
VPORT
5
1
100
AcDbSymbolTableRecord
100
AcDbViewportTableRecord
2
*Active
70
0
10
0
20
0
11
1
21
1
12
-1
22
1
13
0
23
0
14
0.5
24
0.5
15
10
25
10
16
0
26
0
36
1
17
0
27
0
37
0
0
ENDTAB
0
TABLE
2
LTYPE
5
1f6
100
AcDbSymbolTable
0
LTYPE
5
14
100
AcDbSymbolTableRecord
100
AcDbLinetypeTableRecord
70
0
2
ByBlock
3

72
65
73
0
40
0
0
LTYPE
5
15
100
AcDbSymbolTableRecord
100
AcDbLinetypeTableRecord
70
0
2
ByLayer
3

72
65
73
0
40
0
0
LTYPE
5
16
100
AcDbSymbolTableRecord
100
AcDbLinetypeTableRecord
70
0
2
CONTINUOUS
3
Solid line
72
65
73
0
40
0
0
LTYPE
5
6A
100
AcDbSymbolTableRecord
100
AcDbLinetypeTableRecord
70
0
2
CENTER
3
____ _ ____ _ ____ _ ____
72
65
73
4
40
47.5
49
22
74
0
49
-8.5
74
0
49
8.5
74
0
49
-8.5
74
0
0
LTYPE
5
6B
100
AcDbSymbolTableRecord
100
AcDbLinetypeTableRecord
70
0
2
DASHED
3
__ __ __ __ __ __ __ __ __
72
65
73
2
40
25.72
49
12.86
74
0
49
-12.86
74
0
0
ENDTAB
0
TABLE
2
LAYER
5
1f7
100
AcDbSymbolTable
0
LAYER
5
10
100
AcDbSymbolTableRecord
100
AcDbLayerTableRecord
2
0
70
0
62
7
6
CONTINUOUS
290
1
370
-3
390
0
0
LAYER
5
6D
100
AcDbSymbolTableRecord
100
AcDbLayerTableRecord
2
2
70
0
62
7
6
CONTINUOUS
290
1
370
-3
390
0
0
LAYER
5
6F
100
AcDbSymbolTableRecord
100
AcDbLayerTableRecord
2
80
70
0
62
-6
6
CONTINUOUS
290
1
370
-3
390
0
0
LAYER
5
71
100
AcDbSymbolTableRecord
100
AcDbLayerTableRecord
2
81
70
0
62
-3
6
CONTINUOUS
290
1
370
-3
390
0
0
LAYER
5
73
100
AcDbSymbolTableRecord
100
AcDbLayerTableRecord
2
1
70
0
62
4
6
CONTINUOUS
290
1
370
-3
390
0
0
LAYER
5
1e2
100
AcDbSymbolTableRecord
100
AcDbLayerTableRecord
2
SK1
70
0
62
4
6
CONTINUOUS
290
1
370
-3
390
0
0
LAYER
5
1e3
100
AcDbSymbolTableRecord
100
AcDbLayerTableRecord
2
SK6
70
0
62
5
6
CONTINUOUS
290
1
370
-3
390
0
0
LAYER
5
1e4
100
AcDbSymbolTableRecord
100
AcDbLayerTableRecord
2
SK2
70
0
62
7
6
CONTINUOUS
290
1
370
-3
390
0
0
ENDTAB
0
TABLE
2
STYLE
5
1f8
100
AcDbSymbolTable
0
STYLE
5
11
100
AcDbSymbolTableRecord
100
AcDbTextStyleTableRecord
2
Standard
3
txt
70
0
71
0
40
0
41
1
42
0
50
0
0
STYLE
5
138
100
AcDbSymbolTableRecord
100
AcDbTextStyleTableRecord
2
iso_b_vert
3
simplex.shx
70
0
71
0
40
0
41
1
42
0
50
0
0
STYLE
5
139
100
AcDbSymbolTableRecord
100
AcDbTextStyleTableRecord
2
DWGDirectTextStyle
3
simplex
70
0
71
0
40
0
41
1
42
0
50
0
0
ENDTAB
0
TABLE
2
DIMSTYLE
5
1f9
100
AcDbSymbolTable
100
AcDbDimStyleTable
0
DIMSTYLE
105
27
100
AcDbSymbolTableRecord
100
AcDbDimStyleTableRecord
2
Standard
70
0
3
<>
41
0.18
42
0.0625
44
0.18
140
0.18
147
0.09
73
0
74
0
77
1
271
2
275
0
278
52
280
0
340
11
0
ENDTAB
0
TABLE
2
VIEW
5
1fa
100
AcDbSymbolTable
0
ENDTAB
0
TABLE
2
UCS
5
1fb
100
AcDbSymbolTable
0
ENDTAB
0
TABLE
2
APPID
5
1fc
100
AcDbSymbolTable
0
APPID
5
12
100
AcDbSymbolTableRecord
100
AcDbRegAppTableRecord
2
ACAD
70
0
0
ENDTAB
0
TABLE
2
BLOCK_RECORD
5
1fd
100
AcDbSymbolTable
0
BLOCK_RECORD
5
1F
100
AcDbSymbolTableRecord
100
AcDbBlockTableRecord
2
*Model_Space
340
0
70
0
0
BLOCK_RECORD
5
1B
100
AcDbSymbolTableRecord
100
AcDbBlockTableRecord
2
*Paper_Space
340
0
70
0
0
BLOCK_RECORD
5
23
100
AcDbSymbolTableRecord
100
AcDbBlockTableRecord
2
*Paper_Space0
340
0
70
0
0
BLOCK_RECORD
5
13B
100
AcDbSymbolTableRecord
100
AcDbBlockTableRecord
2
DimnDraft3D11
340
0
70
0
0
BLOCK_RECORD
5
14A
100
AcDbSymbolTableRecord
100
AcDbBlockTableRecord
2
DimnDraft3D2
340
0
70
0
0
BLOCK_RECORD
5
158
100
AcDbSymbolTableRecord
100
AcDbBlockTableRecord
2
_CLOSED
340
0
70
0
0
BLOCK_RECORD
5
15F
100
AcDbSymbolTableRecord
100
AcDbBlockTableRecord
2
DimnDraft3D3
340
0
70
0
0
BLOCK_RECORD
5
16D
100
AcDbSymbolTableRecord
100
AcDbBlockTableRecord
2
DimnDraft3D4
340
0
70
0
0
BLOCK_RECORD
5
17B
100
AcDbSymbolTableRecord
100
AcDbBlockTableRecord
2
DimnDraft3D5
340
0
70
0
0
ENDTAB
0
ENDSEC
0
SECTION
2
BLOCKS
0
BLOCK
5
20
100
AcDbEntity
8
0
100
AcDbBlockBegin
2
*Model_Space
70
0
10
0
20
0
30
0
3
*Model_Space
0
ENDBLK
5
21
100
AcDbEntity
8
0
100
AcDbBlockEnd
0
BLOCK
5
1C
100
AcDbEntity
8
0
100
AcDbBlockBegin
2
*Paper_Space
70
0
10
0
20
0
30
0
3
*Paper_Space
0
ENDBLK
5
1D
100
AcDbEntity
8
0
100
AcDbBlockEnd
0
BLOCK
5
24
100
AcDbEntity
8
0
100
AcDbBlockBegin
2
*Paper_Space0
70
0
10
0
20
0
30
0
3
*Paper_Space0
0
ENDBLK
5
25
100
AcDbEntity
8
0
100
AcDbBlockEnd
0
BLOCK
5
13C
100
AcDbEntity
8
0
100
AcDbBlockBegin
2
DimnDraft3D11
70
0
10
0
20
0
30
0
3
DimnDraft3D11
0
LINE
5
13E
100
AcDbEntity
8
SK2
62
256
6
ByLayer
370
25
48
1
60
0
100
AcDbLine
10
32.20454
20
-21.9125
30
0
11
32.20454
21
-60.1625
31
0
39
0
210
0
220
0
230
1
0
LINE
5
140
100
AcDbEntity
8
SK2
62
256
6
ByLayer
370
25
48
1
60
0
100
AcDbLine
10
-119.14546
20
-14.4375
30
0
11
-119.14546
21
-60.1625
31
0
39
0
210
0
220
0
230
1
0
LINE
5
141
100
AcDbEntity
8
SK2
62
256
6
ByLayer
370
25
48
1
60
0
100
AcDbLine
10
32.20454
20
-58.1625
30
0
11
-119.14546
21
-58.1625
31
0
39
0
210
0
220
0
230
1
0
LINE
5
142
100
AcDbEntity
8
SK2
62
256
6
ByLayer
370
25
48
1
60
0
100
AcDbLine
10
32.20454
20
-58.1625
30
0
11
29.029541
21
-58.580497
31
0
39
0
210
0
220
0
230
1
0
LINE
5
143
100
AcDbEntity
8
SK2
62
256
6
ByLayer
370
25
48
1
60
0
100
AcDbLine
10
32.20454
20
-58.1625
30
0
11
29.029538
21
-57.744503
31
0
39
0
210
0
220
0
230
1
0
LINE
5
144
100
AcDbEntity
8
SK2
62
256
6
ByLayer
370
25
48
1
60
0
100
AcDbLine
10
29.029541
20
-58.580497
30
0
11
29.029538
21
-57.744503
31
0
39
0
210
0
220
0
230
1
0
LINE
5
145
100
AcDbEntity
8
SK2
62
256
6
ByLayer
370
25
48
1
60
0
100
AcDbLine
10
-119.14546
20
-58.1625
30
0
11
-115.970462
21
-57.744503
31
0
39
0
210
0
220
0
230
1
0
LINE
5
146
100
AcDbEntity
8
SK2
62
256
6
ByLayer
370
25
48
1
60
0
100
AcDbLine
10
-119.14546
20
-58.1625
30
0
11
-115.970459
21
-58.580497
31
0
39
0
210
0
220
0
230
1
0
LINE
5
147
100
AcDbEntity
8
SK2
62
256
6
ByLayer
370
25
48
1
60
0
100
AcDbLine
10
-115.970462
20
-57.744503
30
0
11
-115.970459
21
-58.580497
31
0
39
0
210
0
220
0
230
1
0
MTEXT
5
148
100
AcDbEntity
8
SK2
62
256
6
ByLayer
370
18
48
1
60
0
100
AcDbMText
10
-48.746118
20
-57.0375
30
0
210
0
220
0
230
1
1
\W0.6864;150.0
40
4.5
41
0
44
1.084337
50
0
71
7
72
5
7
iso_b_vert
0
ENDBLK
5
13D
100
AcDbEntity
8
0
100
AcDbBlockEnd
0
BLOCK
5
155
100
AcDbEntity
8
0
100
AcDbBlockBegin
2
DimnDraft3D2
70
0
10
0
20
0
30
0
3
DimnDraft3D2
0
MTEXT
5
14B
100
AcDbEntity
8
2
62
256
6
ByLayer
370
18
48
1
60
0
100
AcDbMText
10
15.298607
20
-31.586616
30
0
210
0
220
0
230
1
1
\W0.7399;95%%d
40
4.5
41
0
44
1.084337
50
312.65427684
71
7
72
5
7
iso_b_vert
0
LINE
5
14C
100
AcDbEntity
8
2
62
256
6
ByLayer
370
13
48
1
60
0
100
AcDbLine
10
32.20454
20
-21.9125
30
0
11
32.20454
21
-43.402991
31
0
39
0
210
0
220
0
230
1
0
LINE
5
14D
100
AcDbEntity
8
2
62
256
6
ByLayer
370
13
48
1
60
0
100
AcDbLine
10
28.35592
20
-19.664471
30
0
11
8.860331
21
-18.064572
31
0
39
0
210
0
220
0
230
1
0
ARC
5
14E
100
AcDbEntity
8
2
62
256
6
ByLayer
370
13
48
1
60
0
100
AcDbCircle
39
0
10
32.20454
20
-19.980307
30
0
40
21.4226837817216
210
0
220
0
230
1
100
AcDbArc
50
175.308554
51
270
0
LINE
5
14F
100
AcDbEntity
8
2
62
256
6
ByLayer
370
13
48
1
60
0
100
AcDbLine
10
32.20454
20
-41.402991
30
0
11
29.016257
21
-41.703304
31
0
39
0
210
0
220
0
230
1
0
LINE
5
150
100
AcDbEntity
8
2
62
256
6
ByLayer
370
13
48
1
60
0
100
AcDbLine
10
32.20454
20
-41.402991
30
0
11
29.047165
21
-40.867882
31
0
39
0
210
0
220
0
230
1
0
LINE
5
151
100
AcDbEntity
8
2
62
256
6
ByLayer
370
13
48
1
60
0
100
AcDbLine
10
29.016257
20
-41.703304
30
0
11
29.047165
21
-40.867882
31
0
39
0
210
0
220
0
230
1
0
LINE
5
152
100
AcDbEntity
8
2
62
256
6
ByLayer
370
13
48
1
60
0
100
AcDbLine
10
10.85363
20
-18.228152
30
0
11
11.128706
21
-21.418711
31
0
39
0
210
0
220
0
230
1
0
LINE
5
153
100
AcDbEntity
8
2
62
256
6
ByLayer
370
13
48
1
60
0
100
AcDbLine
10
10.85363
20
-18.228152
30
0
11
10.293555
21
-21.381193
31
0
39
0
210
0
220
0
230
1
0
LINE
5
154
100
AcDbEntity
8
2
62
256
6
ByLayer
370
13
48
1
60
0
100
AcDbLine
10
11.128706
20
-21.418711
30
0
11
10.293555
21
-21.381193
31
0
39
0
210
0
220
0
230
1
0
ENDBLK
5
156
100
AcDbEntity
8
0
100
AcDbBlockEnd
0
BLOCK
5
159
100
AcDbEntity
8
0
100
AcDbBlockBegin
2
_CLOSED
70
0
10
0
20
0
30
0
3
_CLOSED
0
LINE
5
15B
100
AcDbEntity
8
0
62
256
6
ByLayer
370
-2
48
1
60
0
100
AcDbLine
10
-1
20
0.166667
30
0
11
0
21
0
31
0
39
0
210
0
220
0
230
1
0
LINE
5
15C
100
AcDbEntity
8
0
62
256
6
ByLayer
370
-2
48
1
60
0
100
AcDbLine
10
0
20
0
30
0
11
-1
21
-0.166667
31
0
39
0
210
0
220
0
230
1
0
LINE
5
15D
100
AcDbEntity
8
0
62
256
6
ByLayer
370
-2
48
1
60
0
100
AcDbLine
10
-1
20
0.166667
30
0
11
-1
21
-0.166667
31
0
39
0
210
0
220
0
230
1
0
LINE
5
15E
100
AcDbEntity
8
0
62
256
6
ByLayer
370
-2
48
1
60
0
100
AcDbLine
10
0
20
0
30
0
11
-1
21
0
31
0
39
0
210
0
220
0
230
1
0
ENDBLK
5
15A
100
AcDbEntity
8
0
100
AcDbBlockEnd
0
BLOCK
5
16A
100
AcDbEntity
8
0
100
AcDbBlockBegin
2
DimnDraft3D3
70
0
10
0
20
0
30
0
3
DimnDraft3D3
0
MTEXT
5
160
100
AcDbEntity
8
2
62
256
6
ByLayer
370
18
48
1
60
0
100
AcDbMText
10
11.945691
20
-47.0375
30
0
210
0
220
0
230
1
1
\W0.7346;32.2
40
4.5
41
0
44
1.084337
50
0
71
7
72
5
7
iso_b_vert
0
LINE
5
161
100
AcDbEntity
8
2
62
256
6
ByLayer
370
13
48
1
60
0
100
AcDbLine
10
0
20
-14.4375
30
0
11
0
21
-50.1625
31
0
39
0
210
0
220
0
230
1
0
LINE
5
162
100
AcDbEntity
8
2
62
256
6
ByLayer
370
13
48
1
60
0
100
AcDbLine
10
32.20454
20
-21.9125
30
0
11
32.20454
21
-50.1625
31
0
39
0
210
0
220
0
230
1
0
LINE
5
163
100
AcDbEntity
8
2
62
256
6
ByLayer
370
13
48
1
60
0
100
AcDbLine
10
0
20
-48.1625
30
0
11
32.20454
21
-48.1625
31
0
39
0
210
0
220
0
230
1
0
LINE
5
164
100
AcDbEntity
8
2
62
256
6
ByLayer
370
13
48
1
60
0
100
AcDbLine
10
0
20
-48.1625
30
0
11
3.174998
21
-47.744503
31
0
39
0
210
0
220
0
230
1
0
LINE
5
165
100
AcDbEntity
8
2
62
256
6
ByLayer
370
13
48
1
60
0
100
AcDbLine
10
0
20
-48.1625
30
0
11
3.175002
21
-48.580497
31
0
39
0
210
0
220
0
230
1
0
LINE
5
166
100
AcDbEntity
8
2
62
256
6
ByLayer
370
13
48
1
60
0
100
AcDbLine
10
3.174998
20
-47.744503
30
0
11
3.175002
21
-48.580497
31
0
39
0
210
0
220
0
230
1
0
LINE
5
167
100
AcDbEntity
8
2
62
256
6
ByLayer
370
13
48
1
60
0
100
AcDbLine
10
32.20454
20
-48.1625
30
0
11
29.029541
21
-48.580497
31
0
39
0
210
0
220
0
230
1
0
LINE
5
168
100
AcDbEntity
8
2
62
256
6
ByLayer
370
13
48
1
60
0
100
AcDbLine
10
32.20454
20
-48.1625
30
0
11
29.029538
21
-47.744503
31
0
39
0
210
0
220
0
230
1
0
LINE
5
169
100
AcDbEntity
8
2
62
256
6
ByLayer
370
13
48
1
60
0
100
AcDbLine
10
29.029541
20
-48.580497
30
0
11
29.029538
21
-47.744503
31
0
39
0
210
0
220
0
230
1
0
ENDBLK
5
16B
100
AcDbEntity
8
0
100
AcDbBlockEnd
0
BLOCK
5
178
100
AcDbEntity
8
0
100
AcDbBlockBegin
2
DimnDraft3D4
70
0
10
0
20
0
30
0
3
DimnDraft3D4
0
MTEXT
5
16E
100
AcDbEntity
8
2
62
256
6
ByLayer
370
18
48
1
60
0
100
AcDbMText
10
53.32954
20
-7.894079
30
0
210
0
220
0
230
1
1
\W0.7346;32.0
40
4.5
41
0
44
1.084337
50
90
71
7
72
5
7
iso_b_vert
0
LINE
5
16F
100
AcDbEntity
8
2
62
256
6
ByLayer
370
13
48
1
60
0
100
AcDbLine
10
2
20
12.4375
30
0
11
56.45454
21
12.4375
31
0
39
0
210
0
220
0
230
1
0
LINE
5
170
100
AcDbEntity
8
2
62
256
6
ByLayer
370
13
48
1
60
0
100
AcDbLine
10
34.20454
20
-19.9125
30
0
11
56.45454
21
-19.9125
31
0
39
0
210
0
220
0
230
1
0
LINE
5
171
100
AcDbEntity
8
2
62
256
6
ByLayer
370
13
48
1
60
0
100
AcDbLine
10
54.45454
20
12.4375
30
0
11
54.45454
21
-19.9125
31
0
39
0
210
0
220
0
230
1
0
LINE
5
172
100
AcDbEntity
8
2
62
256
6
ByLayer
370
13
48
1
60
0
100
AcDbLine
10
54.45454
20
12.4375
30
0
11
54.872536
21
9.262502
31
0
39
0
210
0
220
0
230
1
0
LINE
5
173
100
AcDbEntity
8
2
62
256
6
ByLayer
370
13
48
1
60
0
100
AcDbLine
10
54.45454
20
12.4375
30
0
11
54.036543
21
9.262498
31
0
39
0
210
0
220
0
230
1
0
LINE
5
174
100
AcDbEntity
8
2
62
256
6
ByLayer
370
13
48
1
60
0
100
AcDbLine
10
54.872536
20
9.262502
30
0
11
54.036543
21
9.262498
31
0
39
0
210
0
220
0
230
1
0
LINE
5
175
100
AcDbEntity
8
2
62
256
6
ByLayer
370
13
48
1
60
0
100
AcDbLine
10
54.45454
20
-19.9125
30
0
11
54.036543
21
-16.737502
31
0
39
0
210
0
220
0
230
1
0
LINE
5
176
100
AcDbEntity
8
2
62
256
6
ByLayer
370
13
48
1
60
0
100
AcDbLine
10
54.45454
20
-19.9125
30
0
11
54.872536
21
-16.737498
31
0
39
0
210
0
220
0
230
1
0
LINE
5
177
100
AcDbEntity
8
2
62
256
6
ByLayer
370
13
48
1
60
0
100
AcDbLine
10
54.036543
20
-16.737502
30
0
11
54.872536
21
-16.737498
31
0
39
0
210
0
220
0
230
1
0
ENDBLK
5
179
100
AcDbEntity
8
0
100
AcDbBlockEnd
0
BLOCK
5
186
100
AcDbEntity
8
0
100
AcDbBlockBegin
2
DimnDraft3D5
70
0
10
0
20
0
30
0
3
DimnDraft3D5
0
MTEXT
5
17C
100
AcDbEntity
8
SK2
62
256
6
ByLayer
370
18
48
1
60
0
100
AcDbMText
10
-128.02046
20
-4.156579
30
0
210
0
220
0
230
1
1
\W0.7346;25.0
40
4.5
41
0
44
1.084337
50
90
71
7
72
5
7
iso_b_vert
0
LINE
5
17D
100
AcDbEntity
8
SK2
62
256
6
ByLayer
370
13
48
1
60
0
100
AcDbLine
10
-121.14546
20
12.4375
30
0
11
-128.89546
21
12.4375
31
0
39
0
210
0
220
0
230
1
0
LINE
5
17E
100
AcDbEntity
8
SK2
62
256
6
ByLayer
370
13
48
1
60
0
100
AcDbLine
10
-121.14546
20
-12.4375
30
0
11
-128.89546
21
-12.4375
31
0
39
0
210
0
220
0
230
1
0
LINE
5
17F
100
AcDbEntity
8
SK2
62
256
6
ByLayer
370
13
48
1
60
0
100
AcDbLine
10
-126.89546
20
12.4375
30
0
11
-126.89546
21
-12.4375
31
0
39
0
210
0
220
0
230
1
0
LINE
5
180
100
AcDbEntity
8
SK2
62
256
6
ByLayer
370
13
48
1
60
0
100
AcDbLine
10
-126.89546
20
12.4375
30
0
11
-126.477464
21
9.262502
31
0
39
0
210
0
220
0
230
1
0
LINE
5
181
100
AcDbEntity
8
SK2
62
256
6
ByLayer
370
13
48
1
60
0
100
AcDbLine
10
-126.89546
20
12.4375
30
0
11
-127.313457
21
9.262498
31
0
39
0
210
0
220
0
230
1
0
LINE
5
182
100
AcDbEntity
8
SK2
62
256
6
ByLayer
370
13
48
1
60
0
100
AcDbLine
10
-126.477464
20
9.262502
30
0
11
-127.313457
21
9.262498
31
0
39
0
210
0
220
0
230
1
0
LINE
5
183
100
AcDbEntity
8
SK2
62
256
6
ByLayer
370
13
48
1
60
0
100
AcDbLine
10
-126.89546
20
-12.4375
30
0
11
-127.313457
21
-9.262502
31
0
39
0
210
0
220
0
230
1
0
LINE
5
184
100
AcDbEntity
8
SK2
62
256
6
ByLayer
370
13
48
1
60
0
100
AcDbLine
10
-126.89546
20
-12.4375
30
0
11
-126.477464
21
-9.262498
31
0
39
0
210
0
220
0
230
1
0
LINE
5
185
100
AcDbEntity
8
SK2
62
256
6
ByLayer
370
13
48
1
60
0
100
AcDbLine
10
-127.313457
20
-9.262502
30
0
11
-126.477464
21
-9.262498
31
0
39
0
210
0
220
0
230
1
0
ENDBLK
5
187
100
AcDbEntity
8
0
100
AcDbBlockEnd
0
ENDSEC
0
SECTION
2
ENTITIES
0
ELLIPSE
5
CD
100
AcDbEntity
8
1
62
256
6
ByLayer
370
18
48
1
60
0
100
AcDbEllipse
10
1.530472
20
-7.8766
30
0
11
-0.618768166579525
21
-1.85497269604703
31
0
210
0
220
0
230
1
40
0.304658
41
-0.921774199096912
42
0.649022127698596
0
ELLIPSE
5
CE
100
AcDbEntity
8
1
62
256
6
ByLayer
370
18
48
1
60
0
100
AcDbEllipse
10
13.736204
20
9.486205
30
0
11
-0.681939391542344
21
0.420996574538361
31
0
210
0
220
0
230
1
40
0.03414
41
-2.99828249386483
42
-1.42748616706715
0
ELLIPSE
5
CF
100
AcDbEntity
8
1
62
256
6
ByLayer
370
18
48
1
60
0
100
AcDbEllipse
10
15.828775
20
-5.675756
30
0
11
0.300520382004985
21
0.30052038200358
31
0
210
0
220
0
230
1
40
0.989133
41
1.3750558585985
42
-3.12038511059269
0
ELLIPSE
5
D0
100
AcDbEntity
8
1
62
256
6
ByLayer
370
18
48
1
60
0
100
AcDbEllipse
10
15.220862
20
-4.846424
30
0
11
-0.268700576851509
21
-0.268700576850267
31
0
210
0
220
0
230
1
40
0.989133
41
1.37505585859849
42
2.82331226018587
0
ELLIPSE
5
D1
100
AcDbEntity
8
1
62
256
6
ByLayer
370
18
48
1
60
0
100
AcDbEllipse
10
13.592139
20
-4.115898
30
0
11
0.300520382004985
21
0.30052038200358
31
0
210
0
220
0
230
1
40
0.989133
41
-2.81373434618792
42
-1.02599000819954
0
ELLIPSE
5
D2
100
AcDbEntity
8
1
62
256
6
ByLayer
370
18
48
1
60
0
100
AcDbEllipse
10
15.271622
20
-6.256788
30
0
11
-0.268700576851509
21
-0.268700576850267
31
0
210
0
220
0
230
1
40
0.989133
41
0.32785830740178
42
-3.12038511059275
0
ELLIPSE
5
D3
100
AcDbEntity
8
1
62
256
6
ByLayer
370
18
48
1
60
0
100
AcDbEllipse
10
14.034763
20
-5.328127
30
0
11
0.813172798366431
21
0.813172798362629
31
0
210
0
220
0
230
1
40
0.989133
41
-3.10929842613465
42
-0.0826684831739142
0
ELLIPSE
5
D4
100
AcDbEntity
8
1
62
256
6
ByLayer
370
18
48
1
60
0
100
AcDbEllipse
10
14.253083
20
-5.546447
30
0
11
-1.62634559673282
21
-1.6263455967253
31
0
210
0
220
0
230
1
40
0.989133
41
0
42
6.28318530717959
0
ELLIPSE
5
D5
100
AcDbEntity
8
1
62
256
6
ByLayer
370
18
48
1
60
0
100
AcDbEllipse
10
14.003575
20
-5.296939
30
0
11
2.8284271247528
21
2.82842712473958
31
0
210
0
220
0
230
1
40
0.989133
41
0.790861385157302
42
3.14158710851734
0
ELLIPSE
5
D6
100
AcDbEntity
8
1
62
256
6
ByLayer
370
18
48
1
60
0
100
AcDbEllipse
10
14.003575
20
-5.296939
30
0
11
2.8284271247528
21
2.82842712473958
31
0
210
0
220
0
230
1
40
0.989133
41
9.25359672400491E-05
42
0.790861385157303
0
ELLIPSE
5
D7
100
AcDbEntity
8
1
62
256
6
ByLayer
370
18
48
1
60
0
100
AcDbEllipse
10
15.105283
20
-6.09045
30
0
11
-0.268700576851509
21
-0.268700576850267
31
0
210
0
220
0
230
1
40
0.989133
41
0.327858307401874
42
3.11070847430906
0
ELLIPSE
5
D8
100
AcDbEntity
8
1
62
256
6
ByLayer
370
18
48
1
60
0
100
AcDbEllipse
10
15.387201
20
-5.012763
30
0
11
-0.268700576851509
21
-0.268700576850267
31
0
210
0
220
0
230
1
40
0.989133
41
1.37505585859845
42
-2.07318755939623
0
ELLIPSE
5
D9
100
AcDbEntity
8
1
62
256
6
ByLayer
370
18
48
1
60
0
100
AcDbEllipse
10
13.171996
20
-6.681348
30
0
11
0.300520382004985
21
0.30052038200358
31
0
210
0
220
0
230
1
40
0.989133
41
3.51676188153671E-06
42
1.06840509419362
0
ELLIPSE
5
DA
100
AcDbEntity
8
1
62
256
6
ByLayer
370
18
48
1
60
0
100
AcDbEllipse
10
12.952626
20
-5.913793
30
0
11
-0.268700576851509
21
-0.268700576850267
31
0
210
0
220
0
230
1
40
0.989133
41
0.318251980072573
42
1.06840509419352
0
ELLIPSE
5
DB
100
AcDbEntity
8
1
62
256
6
ByLayer
370
18
48
1
60
0
100
AcDbEllipse
10
14.086744
20
-5.380108
30
0
11
0.813172798366431
21
0.813172798362629
31
0
210
0
220
0
230
1
40
0.989133
41
0.790861625576221
42
0.871688112982219
0
ELLIPSE
5
DC
100
AcDbEntity
8
1
62
256
6
ByLayer
370
18
48
1
60
0
100
AcDbEllipse
10
14.086744
20
-5.380108
30
0
11
0.813172798366431
21
0.813172798362629
31
0
210
0
220
0
230
1
40
0.989133
41
1.45435576396992
42
2.1174283745752
0
ELLIPSE
5
DD
100
AcDbEntity
8
1
62
256
6
ByLayer
370
18
48
1
60
0
100
AcDbEllipse
10
14.086744
20
-5.380108
30
0
11
0.813172798366431
21
0.813172798362629
31
0
210
0
220
0
230
1
40
0.989133
41
2.63657603519378
42
-0.0349562380655788
0
ELLIPSE
5
DE
100
AcDbEntity
8
1
62
256
6
ByLayer
370
18
48
1
60
0
100
AcDbEllipse
10
14.086744
20
-5.380108
30
0
11
0.813172798366431
21
0.813172798362629
31
0
210
0
220
0
230
1
40
0.989133
41
0.118491029831414
42
0.790860751325607
0
ELLIPSE
5
DF
100
AcDbEntity
8
1
62
256
6
ByLayer
370
18
48
1
60
0
100
AcDbEllipse
10
12.677391
20
-5.417138
30
0
11
0.300520382004985
21
0.30052038200358
31
0
210
0
220
0
230
1
40
0.989133
41
-1.76653679499132
42
0.021207542997068
0
ELLIPSE
5
E0
100
AcDbEntity
8
1
62
256
6
ByLayer
370
18
48
1
60
0
100
AcDbEllipse
10
13.118965
20
-6.080131
30
0
11
-0.268700576851509
21
-0.268700576850267
31
0
210
0
220
0
230
1
40
0.989133
41
-1.76653679499148
42
1.06840509419372
0
ELLIPSE
5
E1
100
AcDbEntity
8
1
62
256
6
ByLayer
370
18
48
1
60
0
100
AcDbEllipse
10
14.747688
20
-6.810657
30
0
11
0.300520382004985
21
0.30052038200358
31
0
210
0
220
0
230
1
40
0.989133
41
0.327858307401825
42
2.11560264539025
0
ELLIPSE
5
E2
100
AcDbEntity
8
1
62
256
6
ByLayer
370
18
48
1
60
0
100
AcDbEllipse
10
14.368662
20
-4.302421
30
0
11
-0.268700576851509
21
-0.268700576850267
31
0
210
0
220
0
230
1
40
0.989133
41
2.422253409795
42
-1.02599000819956
0
ELLIPSE
5
E3
100
AcDbEntity
8
1
62
256
6
ByLayer
370
18
48
1
60
0
100
AcDbEllipse
10
13.234544
20
-4.836106
30
0
11
-0.268700576851509
21
-0.268700576850267
31
0
210
0
220
0
230
1
40
0.989133
41
-2.81373434618797
42
0.0212075429970039
0
ELLIPSE
5
E4
100
AcDbEntity
8
1
62
256
6
ByLayer
370
18
48
1
60
0
100
AcDbEllipse
10
15.662436
20
-5.509417
30
0
11
0.300520382004985
21
0.30052038200358
31
0
210
0
220
0
230
1
40
0.989133
41
1.37505585859843
42
3.14157045834449
0
ELLIPSE
5
E5
100
AcDbEntity
8
1
62
256
6
ByLayer
370
18
48
1
60
0
100
AcDbEllipse
10
14.176771
20
-5.470135
30
0
11
-2.82842712475273
21
-2.82842712473966
31
0
210
0
220
0
230
1
40
0.989133
41
0
42
6.28318530717959
0
ELLIPSE
5
E6
100
AcDbEntity
8
1
62
256
6
ByLayer
370
18
48
1
60
0
100
AcDbEllipse
10
14.202323
20
-4.136083
30
0
11
-0.268700576851509
21
-0.268700576850267
31
0
210
0
220
0
230
1
40
0.989133
41
2.42225340979501
42
2.82335423483985
0
ELLIPSE
5
E7
100
AcDbEntity
8
1
62
256
6
ByLayer
370
18
48
1
60
0
100
AcDbEllipse
10
14.137504
20
-6.790472
30
0
11
-0.268700576851509
21
-0.268700576850267
31
0
210
0
220
0
230
1
40
0.989133
41
-0.719339243794823
42
2.11560264539025
0
ELLIPSE
5
E8
100
AcDbEntity
8
1
62
256
6
ByLayer
370
18
48
1
60
0
100
AcDbEllipse
10
14.914027
20
-6.976996
30
0
11
0.300520382004985
21
0.30052038200358
31
0
210
0
220
0
230
1
40
0.989133
41
0.32785830740188
42
2.1156026453903
0
ELLIPSE
5
E9
100
AcDbEntity
8
1
62
256
6
ByLayer
370
18
48
1
60
0
100
AcDbEllipse
10
15.167831
20
-4.245207
30
0
11
0.300520382004985
21
0.30052038200358
31
0
210
0
220
0
230
1
40
0.989133
41
2.42225340979509
42
-2.07318755939608
0
ELLIPSE
5
EA
100
AcDbEntity
8
1
62
256
6
ByLayer
370
18
48
1
60
0
100
AcDbEllipse
10
13.338335
20
-6.847687
30
0
11
0.300520382004985
21
0.30052038200358
31
0
210
0
220
0
230
1
40
0.989133
41
-0.719339243794754
42
1.06840509419358
0
ELLIPSE
5
EB
100
AcDbEntity
8
1
62
256
6
ByLayer
370
18
48
1
60
0
100
AcDbEllipse
10
13.971165
20
-6.624134
30
0
11
-0.268700576851509
21
-0.268700576850267
31
0
210
0
220
0
230
1
40
0.989133
41
0.318294813050742
42
2.11560264539025
0
ELLIPSE
5
EC
100
AcDbEntity
8
1
62
256
6
ByLayer
370
18
48
1
60
0
100
AcDbEllipse
10
15.001492
20
-4.078868
30
0
11
0.300520382004985
21
0.30052038200358
31
0
210
0
220
0
230
1
40
0.989133
41
2.42225340979498
42
-3.14158919864644
0
ELLIPSE
5
ED
100
AcDbEntity
8
1
62
256
6
ByLayer
370
18
48
1
60
0
100
AcDbEllipse
10
14.260391
20
0.464668
30
0
11
-4.3810009433137
21
3.33108813341788
31
0
210
0
220
0
230
1
40
0.262905
41
0.564127566418916
42
0.617119888796562
0
ELLIPSE
5
EE
100
AcDbEntity
8
1
62
256
6
ByLayer
370
18
48
1
60
0
100
AcDbEllipse
10
6.331611
20
-4.830883
30
0
11
-2.64176164546309
21
-1.42549993634041
31
0
210
0
220
0
230
1
40
0.99535
41
-1.10568333560704
42
-0.0539942725425952
0
ELLIPSE
5
EF
100
AcDbEntity
8
1
62
256
6
ByLayer
370
18
48
1
60
0
100
AcDbEllipse
10
25.767013
20
-13.44796
30
0
11
-0.70199400363449
21
-2.17713231394329
31
0
210
0
220
0
230
1
40
0.799417
41
1.3565863073177
42
2.21179764079165
0
ELLIPSE
5
F0
100
AcDbEntity
8
1
62
256
6
ByLayer
370
18
48
1
60
0
100
AcDbEllipse
10
9.224794
20
6.859726
30
0
11
5.72659051508523
21
-4.02568765213298
31
0
210
0
220
0
230
1
40
0.02553
41
0.80857390378315
42
0.823354940523108
0
ELLIPSE
5
F1
100
AcDbEntity
8
1
62
256
6
ByLayer
370
18
48
1
60
0
100
AcDbEllipse
10
10.008561
20
-5.583618
30
0
11
4.49946397613839
21
-3.16304029810448
31
0
210
0
220
0
230
1
40
0.02553
41
-2.41393807250867
42
-1.97217033322269
0
ELLIPSE
5
F2
100
AcDbEntity
8
1
62
256
6
ByLayer
370
18
48
1
60
0
100
AcDbEllipse
10
14.584014
20
-5.696545
30
0
11
-2.87977528400876
21
-2.98820921516755
31
0
210
0
220
0
230
1
40
0.986455
41
0.156280282981026
42
3.08915345241595
0
ELLIPSE
5
F3
100
AcDbEntity
8
1
62
256
6
ByLayer
370
18
48
1
60
0
100
AcDbEllipse
10
12.998097
20
-1.330966
30
0
11
4.49946397613839
21
-3.16304029810448
31
0
210
0
220
0
230
1
40
0.02553
41
-2.41393807250865
42
-1.97217033322263
0
ELLIPSE
5
F4
100
AcDbEntity
8
1
62
256
6
ByLayer
370
18
48
1
60
0
100
AcDbEllipse
10
12.859466
20
-4.494995
30
0
11
-1.80419656347537
21
-1.8721310745628
31
0
210
0
220
0
230
1
40
0.986455
41
-1.5214284923881
42
-1.31064727455769
0
ELLIPSE
5
F5
100
AcDbEntity
8
1
62
256
6
ByLayer
370
18
48
1
60
0
100
AcDbEllipse
10
8.701256
20
-6.849607
30
0
11
-4.14474739192272
21
0.189995050013776
31
0
210
0
220
0
230
1
40
0.485394
41
0.295792313727159
42
0.65540804707945
0
ELLIPSE
5
F6
100
AcDbEntity
8
1
62
256
6
ByLayer
370
18
48
1
60
0
100
AcDbEllipse
10
7.744056
20
-8.982862
30
0
11
-2.98777498565804
21
1.83435464435964
31
0
210
0
220
0
230
1
40
0.346844
41
-0.628857654661751
42
0.0943604517375925
0
ELLIPSE
5
F7
100
AcDbEntity
8
1
62
256
6
ByLayer
370
18
48
1
60
0
100
AcDbEllipse
10
13.530506
20
0.020062
30
0
11
-1.23592287958356
21
4.14806483904487
31
0
210
0
220
0
230
1
40
0.51148
41
-0.571189237020989
42
-0.211573503657735
0
ELLIPSE
5
F8
100
AcDbEntity
8
1
62
256
6
ByLayer
370
18
48
1
60
0
100
AcDbEllipse
10
8.746265
20
-7.37925
30
0
11
-4.61457340562866
21
2.99901058429749
31
0
210
0
220
0
230
1
40
0.211917
41
-0.615012617754466
42
-0.562020312828893
0
ELLIPSE
5
F9
100
AcDbEntity
8
1
62
256
6
ByLayer
370
18
48
1
60
0
100
AcDbEllipse
10
6.105451
20
-6.612156
30
0
11
2.08176526554851
21
2.16015123988015
31
0
210
0
220
0
230
1
40
0.986455
41
0.0607188507314618
42
0.156280282981029
0
ELLIPSE
5
FA
100
AcDbEntity
8
1
62
256
6
ByLayer
370
18
48
1
60
0
100
AcDbEllipse
10
25.767013
20
-13.44796
30
0
11
-1.96901555077825
21
-1.0572185342075
31
0
210
0
220
0
230
1
40
0.792316
41
1.12445504087278
42
1.97966637434744
0
ELLIPSE
5
FB
100
AcDbEntity
8
1
62
256
6
ByLayer
370
18
48
1
60
0
100
AcDbEllipse
10
11.160861
20
2.038786
30
0
11
-2.64176164546969
21
-1.42549993633535
31
0
210
0
220
0
230
1
40
0.99535
41
-2.15737239866821
42
-1.10568333560488
0
ELLIPSE
5
FC
100
AcDbEntity
8
1
62
256
6
ByLayer
370
18
48
1
60
0
100
AcDbEllipse
10
11.541054
20
1.594106
30
0
11
1.84475298056335
21
0.772584261231507
31
0
210
0
220
0
230
1
40
0.769512
41
0.624391847984243
42
2.03706734224384
0
ELLIPSE
5
FD
100
AcDbEntity
8
1
62
256
6
ByLayer
370
18
48
1
60
0
100
AcDbEllipse
10
15.409522
20
1.921359
30
0
11
-2.73155517434129
21
2.19821380473195
31
0
210
0
220
0
230
1
40
0.397671
41
-0.0900851663823636
42
0.63313294001755
0
ELLIPSE
5
FE
100
AcDbEntity
8
1
62
256
6
ByLayer
370
18
48
1
60
0
100
AcDbEllipse
10
6.704298
20
-5.286238
30
0
11
0.210927185793126
21
1.98884632948184
31
0
210
0
220
0
230
1
40
0.785865
41
1.17445271745099
42
2.58712821171059
0
ELLIPSE
5
FF
100
AcDbEntity
8
1
62
256
6
ByLayer
370
18
48
1
60
0
100
AcDbEllipse
10
19.745897
20
-17.710926
30
0
11
0.561442784263431
21
0.561442784260807
31
0
210
0
220
0
230
1
40
0.989133
41
3.05733658062988
42
3.141592590363
0
ELLIPSE
5
100
100
AcDbEntity
8
1
62
256
6
ByLayer
370
18
48
1
60
0
100
AcDbEllipse
10
20.240754
20
-18.205783
30
0
11
-0.561442784263416
21
-0.561442784260822
31
0
210
0
220
0
230
1
40
0.989133
41
-0.698131700797725
42
0.698131700797738
0
ELLIPSE
5
101
100
AcDbEntity
8
1
62
256
6
ByLayer
370
18
48
1
60
0
100
AcDbEllipse
10
30.497823
20
-7.948714
30
0
11
-0.561442784263416
21
-0.561442784260822
31
0
210
0
220
0
230
1
40
0.989133
41
2.44346095279204
42
-2.44346095279204
0
ELLIPSE
5
102
100
AcDbEntity
8
1
62
256
6
ByLayer
370
18
48
1
60
0
100
AcDbEllipse
10
30.002966
20
-7.453857
30
0
11
0.561442784263431
21
0.561442784260807
31
0
210
0
220
0
230
1
40
0.989133
41
0
42
0.0842559465162124
0
ELLIPSE
5
103
100
AcDbEntity
8
1
62
256
6
ByLayer
370
18
48
1
60
0
100
AcDbEllipse
10
25.369289
20
-13.077249
30
0
11
1.82433549546556
21
1.82433549545703
31
0
210
0
220
0
230
1
40
0.989133
41
-2.72622083734395
42
-0.0600886318006888
0
ELLIPSE
5
104
100
AcDbEntity
8
1
62
256
6
ByLayer
370
18
48
1
60
0
100
AcDbEllipse
10
31.414819
20
-19.122779
30
0
11
-0.561442784263416
21
-0.561442784260822
31
0
210
0
220
0
230
1
40
0.989133
41
0.698131700797715
42
2.44346095279206
0
POINT
5
6C
100
AcDbEntity
8
2
62
256
6
ByLayer
370
18
48
1
60
0
100
AcDbPoint
10
32.20454
20
44.7875
30
0
39
0
210
0
220
0
230
1
50
360
0
POINT
5
6E
100
AcDbEntity
8
80
62
256
6
ByLayer
370
18
48
1
60
0
100
AcDbPoint
10
0
20
0
30
0
39
0
210
0
220
0
230
1
50
360
0
POINT
5
70
100
AcDbEntity
8
81
62
256
6
ByLayer
370
18
48
1
60
0
100
AcDbPoint
10
32.20454
20
-19.9125
30
0
39
0
210
0
220
0
230
1
50
360
0
SPLINE
5
105
100
AcDbEntity
8
1
62
256
6
ByLayer
370
18
48
1
60
0
100
AcDbSpline
70
4
71
2
72
6
73
3
40
0
40
0
40
0
40
1
40
1
40
1
41
1
10
11.1230826738778
20
-2.53728732182702
30
0
41
1
10
11.2890294365442
20
-2.38777158645152
30
0
41
1
10
11.4680871349038
20
-2.26712321897566
30
0
0
SPLINE
5
106
100
AcDbEntity
8
1
62
256
6
ByLayer
370
18
48
1
60
0
100
AcDbSpline
70
4
71
3
72
11
73
7
40
0
40
0
40
0
40
0
40
0.423407924939448
40
0.740963868644034
40
0.899741840496327
40
1
40
1
40
1
40
1
41
1.02805999725224
10
18.8851368358172
20
-1.26963856242008
30
0
41
1.02767136955277
10
19.5241011932336
20
-1.84979283262763
30
0
41
1.02349884684923
10
21.2857110639844
20
-4.60801432008687
30
0
41
1.01876555595691
10
23.2457443888621
20
-8.32412419636036
30
0
41
1.01635405201137
10
23.9906284974629
20
-9.71298236161334
30
0
41
1.01722454828226
10
24.3642970631711
20
-10.0233181613698
30
0
41
1.01774327987904
10
24.5246005754079
20
-10.1446325994338
30
0
0
SPLINE
5
107
100
AcDbEntity
8
1
62
256
6
ByLayer
370
18
48
1
60
0
100
AcDbSpline
70
4
71
3
72
8
73
4
40
0
40
0
40
0
40
0
40
1
40
1
40
1
40
1
41
1
10
12.9303857231069
20
-0.819421095807257
30
0
41
1
10
12.9397476620671
20
0.749994140926077
30
0
41
1
10
12.8770865140378
20
2.20953384222253
30
0
41
1
10
12.690182279671
20
3.05079826577219
30
0
0
SPLINE
5
108
100
AcDbEntity
8
1
62
256
6
ByLayer
370
18
48
1
60
0
100
AcDbSpline
70
4
71
3
72
8
73
4
40
0
40
0
40
0
40
0
40
1
40
1
40
1
40
1
41
1
10
17.9832662006275
20
-3.17344357081168
30
0
41
1
10
17.7879141982777
20
-2.96732542671452
30
0
41
1
10
17.5693489098004
20
-2.7770125647213
30
0
41
1
10
17.3345782569197
20
-2.61328064938741
30
0
0
SPLINE
5
109
100
AcDbEntity
8
1
62
256
6
ByLayer
370
18
48
1
60
0
100
AcDbSpline
70
4
71
3
72
8
73
4
40
0
40
0
40
0
40
0
40
1
40
1
40
1
40
1
41
1
10
17.9832662188281
20
-3.17344355555431
30
0
41
1
10
18.4489913464398
20
-2.36607237605321
30
0
41
1
10
18.7708038340321
20
-1.68674187210954
30
0
41
1
10
18.8851368358172
20
-1.26963856242008
30
0
0
SPLINE
5
10A
100
AcDbEntity
8
1
62
256
6
ByLayer
370
18
48
1
60
0
100
AcDbSpline
70
4
71
3
72
12
73
8
40
0
40
0
40
0
40
0
40
0.108854002841677
40
0.502629245107336
40
0.699516866240165
40
0.896404487372994
40
1
40
1
40
1
40
1
41
1.0244126255267
10
17.6084127550584
20
-9.35166278841699
30
0
41
1.02394775696077
10
17.9020061969647
20
-9.52133172779378
30
0
41
1.02173322391444
10
19.2951829646298
20
-10.3180728688571
30
0
41
1.01876555595691
10
21.2763176445664
20
-11.396812299872
30
0
41
1.01610930227499
10
22.6178882251905
20
-12.0926292358598
30
0
41
1.01814069306376
10
23.1851968842734
20
-12.4896364268238
30
0
41
1.0200519600697
10
23.7014512719237
20
-12.8260129800287
30
0
41
1.02076673234771
10
23.8915019480948
20
-12.9469151660888
30
0
0
SPLINE
5
10B
100
AcDbEntity
8
1
62
256
6
ByLayer
370
18
48
1
60
0
100
AcDbSpline
70
4
71
3
72
10
73
6
40
0
40
0
40
0
40
0
40
0.967465556419471
40
0.967465556419471
40
1
40
1
40
1
40
1
41
1
10
23.89150194811
20
-12.9469151660984
30
0
41
1
10
24.3016690829096
20
-12.9658459687651
30
0
41
1
10
24.7053408643753
20
-12.9932556541278
30
0
41
1
10
25.1101666664491
20
-13.0342919779018
30
0
41
1
10
25.1233350695317
20
-13.0356427217504
30
0
41
1
10
25.1364891919864
20
-13.0370082142723
30
0
0
SPLINE
5
10C
100
AcDbEntity
8
1
62
256
6
ByLayer
370
18
48
1
60
0
100
AcDbSpline
70
4
71
3
72
12
73
8
40
0
40
0
40
0
40
0
40
0.466938972358619
40
0.466938972358619
40
0.928803236876549
40
0.928803236876549
40
1
40
1
40
1
40
1
41
1
10
9.34856902653002
20
-5.91459968243203
30
0
41
1
10
9.29243745666463
20
-5.75289241262536
30
0
41
1
10
9.21156152421162
20
-5.58628322367395
30
0
41
1
10
9.02090270999656
20
-5.27888781299273
30
0
41
1
10
8.90928877928962
20
-5.13340587566063
30
0
41
1
10
8.77336004459693
20
-4.98188456096201
30
0
41
1
10
8.75486039881844
20
-4.96175892148855
30
0
41
1
10
8.73620869007175
20
-4.94193357326668
30
0
0
SPLINE
5
10D
100
AcDbEntity
8
1
62
256
6
ByLayer
370
18
48
1
60
0
100
AcDbSpline
70
4
71
3
72
8
73
4
40
0
40
0
40
0
40
0
40
1
40
1
40
1
40
1
41
1
10
8.73620869007175
20
-4.94193357326668
30
0
41
1
10
8.56091243807884
20
-4.75560698598485
30
0
41
1
10
8.37260760565073
20
-4.59477473874509
30
0
41
1
10
8.17635896110619
20
-4.45361386803714
30
0
0
SPLINE
5
10E
100
AcDbEntity
8
1
62
256
6
ByLayer
370
18
48
1
60
0
100
AcDbSpline
70
4
71
3
72
8
73
4
40
0
40
0
40
0
40
0
40
1
40
1
40
1
40
1
41
1
10
10.0484840148636
20
2.60744264151043
30
0
41
1
10
10.0620064124536
20
2.62667841946225
30
0
41
1
10
10.0758340527179
20
2.64545254507087
30
0
41
1
10
10.0899531180166
20
2.66378678335514
30
0
0
SPLINE
5
10F
100
AcDbEntity
8
1
62
256
6
ByLayer
370
18
48
1
60
0
100
AcDbSpline
70
4
71
3
72
8
73
4
40
0
40
0
40
0
40
0
40
1
40
1
40
1
40
1
41
1
10
9.41024555952851
20
-6.1208197230597
30
0
41
1
10
9.62203825442913
20
-6.96204989579189
30
0
41
1
10
10.1384800222073
20
-7.7104041587904
30
0
41
1
10
10.895758515202
20
-8.238539411548
30
0
0
SPLINE
5
110
100
AcDbEntity
8
1
62
256
6
ByLayer
370
18
48
1
60
0
100
AcDbSpline
70
4
71
3
72
10
73
6
40
0
40
0
40
0
40
0
40
0.5
40
0.5
40
1
40
1
40
1
40
1
41
1
10
24.4970759944999
20
-5.87090537960071
30
0
41
1
10
23.7979715673873
20
-4.75661103690578
30
0
41
1
10
23.0148787154232
20
-3.70403461697595
30
0
41
1
10
21.2485162381792
20
-1.74597936415324
30
0
41
1
10
20.3026281506774
20
-0.814822301215429
30
0
41
1
10
19.2208219320632
20
-0.0450108305178674
30
0
0
SPLINE
5
111
100
AcDbEntity
8
1
62
256
6
ByLayer
370
18
48
1
60
0
100
AcDbSpline
70
4
71
3
72
8
73
4
40
0
40
0
40
0
40
0
40
1
40
1
40
1
40
1
41
1
10
5.21923346338349
20
-4.26222604439053
30
0
41
1
10
5.20571106579354
20
-4.28146182234235
30
0
41
1
10
5.19270191325438
20
-4.30086336668231
30
0
41
1
10
5.18018206305715
20
-4.32042331542726
30
0
0
SPLINE
5
112
100
AcDbEntity
8
1
62
256
6
ByLayer
370
18
48
1
60
0
100
AcDbSpline
70
4
71
3
72
11
73
7
40
0
40
0
40
0
40
0
40
0.561302936805713
40
0.561302936805713
40
0.561302936805713
40
1
40
1
40
1
40
1
41
1
10
4.61459133985511
20
-7.30915743164454
30
0
41
1
10
4.41157894397372
20
-7.13688223458345
30
0
41
1
10
4.20883303257443
20
-6.93853061651305
30
0
41
1
10
4.02186687008833
20
-6.71031542946304
30
0
41
1
10
3.8745506988725
20
-6.53049793135287
30
0
41
1
10
3.73578134114598
20
-6.33016250197579
30
0
41
1
10
3.61712532582391
20
-6.11239734052529
30
0
0
SPLINE
5
113
100
AcDbEntity
8
1
62
256
6
ByLayer
370
18
48
1
60
0
100
AcDbSpline
70
4
71
3
72
8
73
4
40
0
40
0
40
0
40
0
40
1
40
1
40
1
40
1
41
1
10
20.3747073208196
20
-15.4543108998332
30
0
41
1
10
20.4692098815028
20
-15.4995533035487
30
0
41
1
10
20.5649969180899
20
-15.5425947575622
30
0
41
1
10
20.661864323944
20
-15.5835823240257
30
0
0
SPLINE
5
114
100
AcDbEntity
8
1
62
256
6
ByLayer
370
18
48
1
60
0
100
AcDbSpline
70
4
71
3
72
10
73
6
40
0
40
0
40
0
40
0
40
0.655488757716276
40
0.655488757716276
40
1
40
1
40
1
40
1
41
1
10
13.1929068015525
20
4.23043612785705
30
0
41
1
10
12.8947471188934
20
4.45075690901683
30
0
41
1
10
12.5390381916934
20
4.66682661921621
30
0
41
1
10
11.9155941186755
20
4.90798586528109
30
0
41
1
10
11.6835543420754
20
4.97564296930994
30
0
41
1
10
11.4414164164387
20
5.01775358487996
30
0
0
SPLINE
5
115
100
AcDbEntity
8
1
62
256
6
ByLayer
370
18
48
1
60
0
100
AcDbSpline
70
4
71
3
72
15
73
11
40
0
40
0
40
0
40
0
40
0.227604479949748
40
0.227604479949748
40
0.479423709218441
40
0.479423709218441
40
0.785574270382839
40
0.785574270382839
40
0.785574270382839
40
1
40
1
40
1
40
1
41
1
10
18.9955614696433
20
-7.37842683024849
30
0
41
1
10
19.1059275018831
20
-7.05534435130346
30
0
41
1
10
19.1692837308768
20
-6.71009339075505
30
0
41
1
10
19.2045009154058
20
-5.9877314330451
30
0
41
1
10
19.1672539359927
20
-5.60272106971056
30
0
41
1
10
18.9793782231049
20
-4.78448815490285
30
0
41
1
10
18.8038093030921
20
-4.3468160126821
30
0
41
1
10
18.5689836318064
20
-3.9506498390127
30
0
41
1
10
18.4035003048575
20
-3.67146870824237
30
0
41
1
10
18.20627167857
20
-3.40893940335056
30
0
41
1
10
17.9832662064707
20
-3.17344357697695
30
0
0
SPLINE
5
116
100
AcDbEntity
8
1
62
256
6
ByLayer
370
18
48
1
60
0
100
AcDbSpline
70
4
71
3
72
8
73
4
40
0
40
0
40
0
40
0
40
1
40
1
40
1
40
1
41
1
10
27.449918995899
20
-12.142968541228
30
0
41
1
10
27.4798362130877
20
-12.2163215046571
30
0
41
1
10
27.5070794738923
20
-12.2941082980331
30
0
41
1
10
27.5310208006078
20
-12.3750408467741
30
0
0
SPLINE
5
117
100
AcDbEntity
8
1
62
256
6
ByLayer
370
18
48
1
60
0
100
AcDbSpline
70
4
71
3
72
8
73
4
40
0
40
0
40
0
40
0
40
1
40
1
40
1
40
1
41
1
10
11.8074669274913
20
-0.573030714530177
30
0
41
1
10
11.5747508626423
20
-0.468384521778063
30
0
41
1
10
11.3621436613289
20
-0.342122695092144
30
0
41
1
10
11.1658950167843
20
-0.200961824384223
30
0
0
SPLINE
5
118
100
AcDbEntity
8
1
62
256
6
ByLayer
370
18
48
1
60
0
100
AcDbSpline
70
4
71
3
72
8
73
4
40
0
40
0
40
0
40
0
40
1
40
1
40
1
40
1
41
1
10
24.4970759945001
20
-5.87090537960094
30
0
41
1
10
24.9292114902947
20
-6.55968107543004
30
0
41
1
10
25.416631556954
20
-7.16598559967599
30
0
41
1
10
25.8947126853008
20
-7.60203494228148
30
0
0
SPLINE
5
119
100
AcDbEntity
8
1
62
256
6
ByLayer
370
18
48
1
60
0
100
AcDbSpline
70
4
71
3
72
8
73
4
40
0
40
0
40
0
40
0
40
1
40
1
40
1
40
1
41
1
10
25.4457890968522
20
-15.3413087563458
30
0
41
1
10
25.3605578510295
20
-15.347561876181
30
0
41
1
10
25.2769949948894
20
-15.3498904042928
30
0
41
1
10
25.1965529625371
20
-15.3484096158298
30
0
0
SPLINE
5
11A
100
AcDbEntity
8
1
62
256
6
ByLayer
370
18
48
1
60
0
100
AcDbSpline
70
4
71
3
72
8
73
4
40
0
40
0
40
0
40
0
40
1
40
1
40
1
40
1
41
1
10
13.3115089519415
20
-9.81907607252947
30
0
41
1
10
13.0460581275992
20
-9.70295006578988
30
0
41
1
10
12.7961995863467
20
-9.56393018224168
30
0
41
1
10
12.5628187834334
20
-9.40116756521817
30
0
0
SPLINE
5
11B
100
AcDbEntity
8
1
62
256
6
ByLayer
370
18
48
1
60
0
100
AcDbSpline
70
4
71
3
72
15
73
11
40
0
40
0
40
0
40
0
40
0.322163720426458
40
0.322163720426458
40
0.644833452600231
40
0.644833452600231
40
0.912233455904555
40
0.912233455904555
40
0.912233455904555
40
1
40
1
40
1
40
1
41
1
10
13.3115089659122
20
-9.81907607864119
30
0
41
1
10
13.7554471322669
20
-10.0126749236039
30
0
41
1
10
14.2391683563441
20
-10.1318025609104
30
0
41
1
10
15.2047287020153
20
-10.2125328678215
30
0
41
1
10
15.7001651189287
20
-10.1753807862833
30
0
41
1
10
16.5587161162877
20
-9.95791699112471
30
0
41
1
10
16.9400470715716
20
-9.79947348633468
30
0
41
1
10
17.2811186910948
20
-9.58461292814962
30
0
41
1
10
17.3944649165833
20
-9.51320964542953
30
0
41
1
10
17.5040373268043
20
-9.43531944394329
30
0
41
1
10
17.6084128842529
20
-9.35166286307907
30
0
0
SPLINE
5
11C
100
AcDbEntity
8
1
62
256
6
ByLayer
370
18
48
1
60
0
100
AcDbSpline
70
4
71
3
72
10
73
6
40
0
40
0
40
0
40
0
40
0.5
40
0.5
40
1
40
1
40
1
40
1
41
1
10
12.7676864143814
20
4.20838269088028
30
0
41
1
10
12.3340147407786
20
4.25540028106931
30
0
41
1
10
11.9786946659208
20
4.14698062906146
30
0
41
1
10
11.0848382152079
20
3.67290672075006
30
0
41
1
10
10.5307819093217
20
3.23622270112884
30
0
41
1
10
10.0899531180166
20
2.66378678335516
30
0
0
SPLINE
5
11D
100
AcDbEntity
8
1
62
256
6
ByLayer
370
18
48
1
60
0
100
AcDbSpline
70
4
71
3
72
12
73
8
40
0
40
0
40
0
40
0
40
0.471343086678529
40
0.471343086678529
40
0.892619726108231
40
0.892619726108231
40
1
40
1
40
1
40
1
41
1
10
11.8074669274913
20
-0.573030714530177
30
0
41
1
10
11.9694927852376
20
-0.645889411034631
30
0
41
1
10
12.144179699299
20
-0.708119308398608
30
0
41
1
10
12.4822143671611
20
-0.789831402564261
30
0
41
1
10
12.6484119074091
20
-0.813660216277924
30
0
41
1
10
12.8490824016666
20
-0.820266797539858
30
0
41
1
10
12.8900072575531
20
-0.820434622569536
30
0
41
1
10
12.9303857231069
20
-0.819421095807257
30
0
0
SPLINE
5
11E
100
AcDbEntity
8
1
62
256
6
ByLayer
370
18
48
1
60
0
100
AcDbSpline
70
4
71
3
72
8
73
4
40
0
40
0
40
0
40
0
40
1
40
1
40
1
40
1
41
1
10
9.41024555952856
20
-6.12081972305978
30
0
41
1
10
9.39293007108535
20
-6.05204345416695
30
0
41
1
10
9.37240645353677
20
-5.98327200443748
30
0
41
1
10
9.34856902653002
20
-5.91459968243203
30
0
0
SPLINE
5
11F
100
AcDbEntity
8
1
62
256
6
ByLayer
370
18
48
1
60
0
100
AcDbSpline
70
4
71
1
72
4
73
2
40
0
40
0
40
1
40
1
41
1
10
18.8851368358172
20
-1.26963856242008
30
0
41
1
10
19.2208219320632
20
-0.0450108305178674
30
0
0
SPLINE
5
120
100
AcDbEntity
8
1
62
256
6
ByLayer
370
18
48
1
60
0
100
AcDbSpline
70
4
71
3
72
8
73
4
40
0
40
0
40
0
40
0
40
1
40
1
40
1
40
1
41
1
10
11.8970441499646
20
-11.2102869065947
30
0
41
1
10
12.2214592179749
20
-11.0032656584311
30
0
41
1
10
12.726179554785
20
-10.506842990478
30
0
41
1
10
13.3115089659122
20
-9.81907607864116
30
0
0
SPLINE
5
121
100
AcDbEntity
8
1
62
256
6
ByLayer
370
18
48
1
60
0
100
AcDbSpline
70
4
71
3
72
20
73
16
40
0
40
0
40
0
40
0
40
0.332873226652386
40
0.332873226652386
40
0.501657261698204
40
0.501657261698204
40
0.631212321676506
40
0.631212321676506
40
0.722542323637664
40
0.722542323637664
40
0.814765347404179
40
0.814765347404179
40
0.896421359038785
40
0.896421359038785
40
1
40
1
40
1
40
1
41
1
10
24.6068489090375
20
-11.9293252596199
30
0
41
1
10
24.5229436388736
20
-11.7402711505886
30
0
41
1
10
24.4440899863895
20
-11.5395096850372
30
0
41
1
10
24.3496674561235
20
-11.2120919858795
30
0
41
1
10
24.3218813923384
20
-11.0962062946413
30
0
41
1
10
24.2889625893677
20
-10.8842830356868
30
0
41
1
10
24.2799492212206
20
-10.7881176617148
30
0
41
1
10
24.2807160922844
20
-10.6271765209083
30
0
41
1
10
24.285917028422
20
-10.5601727519807
30
0
41
1
10
24.3081689547711
20
-10.4364335863241
30
0
41
1
10
24.3257856629967
20
-10.3782616193421
30
0
41
1
10
24.3680816359937
20
-10.2872787586609
30
0
41
1
10
24.3921213215879
20
-10.2511626780622
30
0
41
1
10
24.45088103299
20
-10.1864243503699
30
0
41
1
10
24.4873737654212
20
-10.1612593344947
30
0
41
1
10
24.5246005754074
20
-10.1446325994334
30
0
0
SPLINE
5
122
100
AcDbEntity
8
1
62
256
6
ByLayer
370
18
48
1
60
0
100
AcDbSpline
70
4
71
2
72
6
73
3
40
0
40
0
40
0
40
1
40
1
40
1
41
1
10
22.6689300624136
20
-15.6580997107999
30
0
41
1
10
21.6712811847789
20
-15.6704966903281
30
0
41
1
10
20.6619346499442
20
-15.5834042687445
30
0
0
SPLINE
5
123
100
AcDbEntity
8
1
62
256
6
ByLayer
370
18
48
1
60
0
100
AcDbSpline
70
4
71
3
72
8
73
4
40
0
40
0
40
0
40
0
40
1
40
1
40
1
40
1
41
1
10
22.6690216009334
20
-15.6580805649093
30
0
41
1
10
23.0765471566731
20
-15.6223235431911
30
0
41
1
10
23.4859979817224
20
-15.5844240199646
30
0
41
1
10
23.8952392891822
20
-15.5445528256882
30
0
0
SPLINE
5
124
100
AcDbEntity
8
1
62
256
6
ByLayer
370
18
48
1
60
0
100
AcDbSpline
70
4
71
3
72
8
73
4
40
0
40
0
40
0
40
0
40
1
40
1
40
1
40
1
41
1
10
5.70208959381841
20
-6.88985007840242
30
0
41
1
10
6.51566098467288
20
-6.83814376029582
30
0
41
1
10
7.88635832630519
20
-6.43993651438382
30
0
41
1
10
9.34856902652621
20
-5.91459968242418
30
0
0
SPLINE
5
125
100
AcDbEntity
8
1
62
256
6
ByLayer
370
18
48
1
60
0
100
AcDbSpline
70
4
71
3
72
8
73
4
40
0
40
0
40
0
40
0
40
1
40
1
40
1
40
1
41
1
10
26.8775535527502
20
-9.67139177124855
30
0
41
1
10
26.9808250117987
20
-10.0684399680268
30
0
41
1
10
27.0832297605067
20
-10.4673172889063
30
0
41
1
10
27.1842155093758
20
-10.8659434422078
30
0
0
SPLINE
5
126
100
AcDbEntity
8
1
62
256
6
ByLayer
370
18
48
1
60
0
100
AcDbSpline
70
4
71
2
72
6
73
3
40
0
40
0
40
0
40
1
40
1
40
1
41
1
10
26.1205968940891
20
-7.81838984453265
30
0
41
1
10
26.5481931092463
20
-8.73363642759489
30
0
41
1
10
26.8775362146101
20
-9.6712715972065
30
0
0
SPLINE
5
127
100
AcDbEntity
8
1
62
256
6
ByLayer
370
18
48
1
60
0
100
AcDbSpline
70
4
71
3
72
8
73
4
40
0
40
0
40
0
40
0
40
1
40
1
40
1
40
1
41
1
10
26.1207404927941
20
-7.81826340392496
30
0
41
1
10
26.0469941407155
20
-7.74438585227077
30
0
41
1
10
25.9716739953443
20
-7.67222999216048
30
0
41
1
10
25.8947126853008
20
-7.60203494228145
30
0
0
SPLINE
5
128
100
AcDbEntity
8
1
62
256
6
ByLayer
370
18
48
1
60
0
100
AcDbSpline
70
4
71
3
72
8
73
4
40
0
40
0
40
0
40
0
40
1
40
1
40
1
40
1
41
1
10
10.1806806522143
20
2.51480678366926
30
0
41
1
10
10.6318931014069
20
1.80441806057306
30
0
41
1
10
11.2149488753272
20
0.662743836556757
30
0
41
1
10
11.8074669274913
20
-0.573030714530177
30
0
0
SPLINE
5
129
100
AcDbEntity
8
1
62
256
6
ByLayer
370
18
48
1
60
0
100
AcDbSpline
70
4
71
3
72
8
73
4
40
0
40
0
40
0
40
0
40
1
40
1
40
1
40
1
41
1
10
15.6675179886882
20
-1.45065249571729
30
0
41
1
10
14.9125507369533
20
-0.924129130789908
30
0
41
1
10
14.0171984429999
20
-0.705626602010824
30
0
41
1
10
13.1475676646367
20
-0.804432768003494
30
0
0
SPLINE
5
12A
100
AcDbEntity
8
1
62
256
6
ByLayer
370
18
48
1
60
0
100
AcDbSpline
70
4
71
3
72
20
73
16
40
0
40
0
40
0
40
0
40
0.110576036200126
40
0.110576036200126
40
0.197179369122811
40
0.197179369122811
40
0.284291117387375
40
0.284291117387375
40
0.365904217918083
40
0.365904217918083
40
0.49727023339208
40
0.49727023339208
40
0.733496364826718
40
0.733496364826718
40
1
40
1
40
1
40
1
41
1
10
22.1851820546299
20
-13.4724844025286
30
0
41
1
10
22.1863923786119
20
-13.4320292637273
30
0
41
1
10
22.1970626410422
20
-13.3889823920036
30
0
41
1
10
22.2403966900262
20
-13.3114469414816
30
0
41
1
10
22.2684889776077
20
-13.2764133573192
30
0
41
1
10
22.342272394495
20
-13.2098969969753
30
0
41
1
10
22.3890911303905
20
-13.1776311812847
30
0
41
1
10
22.4899693495975
20
-13.1226097035019
30
0
41
1
10
22.5443897871405
20
-13.0987039056391
30
0
41
1
10
22.6896093880499
20
-13.0455368765812
30
0
41
1
10
22.7847741336506
20
-13.0206681150586
30
0
41
1
10
23.0448612311187
20
-12.9685501370315
30
0
41
1
10
23.2109272240313
20
-12.9529138881483
30
0
41
1
10
23.5492532853817
20
-12.9369613068802
30
0
41
1
10
23.7231197427382
20
-12.9391118808595
30
0
41
1
10
23.89150194811
20
-12.9469151660984
30
0
0
SPLINE
5
12B
100
AcDbEntity
8
1
62
256
6
ByLayer
370
18
48
1
60
0
100
AcDbSpline
70
4
71
3
72
10
73
6
40
0
40
0
40
0
40
0
40
0.5
40
0.5
40
1
40
1
40
1
40
1
41
1
10
10.9445518628277
20
-11.8181074476031
30
0
41
1
10
12.0441040601729
20
-12.5695561872706
30
0
41
1
10
13.2321049923435
20
-13.1285279963307
30
0
41
1
10
15.6710132502939
20
-14.1095784233674
30
0
41
1
10
16.94906256789
20
-14.4892606172335
30
0
41
1
10
18.2455672554871
20
-14.763753941966
30
0
0
SPLINE
5
12C
100
AcDbEntity
8
1
62
256
6
ByLayer
370
18
48
1
60
0
100
AcDbSpline
70
4
71
2
72
6
73
3
40
0
40
0
40
0
40
1
40
1
40
1
41
1.02805999725224
10
11.8970441499647
20
-11.2102869065947
30
0
41
1.02805999725224
10
11.4207980063962
20
-11.5141971770989
30
0
41
1.02805999725224
10
10.9445518628277
20
-11.8181074476032
30
0
0
SPLINE
5
12D
100
AcDbEntity
8
1
62
256
6
ByLayer
370
18
48
1
60
0
100
AcDbSpline
70
4
71
3
72
11
73
7
40
0
40
0
40
0
40
0
40
0.423407924946023
40
0.74096386865554
40
0.899741840510299
40
1
40
1
40
1
40
1
41
1.02805999725224
10
11.8970441499647
20
-11.2102869065947
30
0
41
1.02767136955277
10
12.6602343653622
20
-11.6137283561054
30
0
41
1.02349884684923
10
15.8436910522349
20
-12.3493551479542
30
0
41
1.01876555595691
10
20.0160784593763
20
-12.9183639577942
30
0
41
1.01635405201144
10
21.5867907283397
20
-13.1324713428073
30
0
41
1.01722454828215
10
22.0131649097453
20
-13.3678327518136
30
0
41
1.0177432798788
10
22.1851820545586
20
-13.4724844024852
30
0
0
SPLINE
5
12E
100
AcDbEntity
8
1
62
256
6
ByLayer
370
18
48
1
60
0
100
AcDbSpline
70
4
71
3
72
10
73
6
40
0
40
0
40
0
40
0
40
0.264715639145579
40
0.264715639145579
40
1
40
1
40
1
40
1
41
1
10
25.1364891919702
20
-13.0370082142706
30
0
41
1
10
25.0876524696853
20
-12.9432277691706
30
0
41
1
10
25.0394435628106
20
-12.8481774906506
30
0
41
1
10
24.8594815988405
20
-12.4851500371603
30
0
41
1
10
24.7313822583458
20
-12.2100776746765
30
0
41
1
10
24.6068489090375
20
-11.9293252596199
30
0
0
SPLINE
5
12F
100
AcDbEntity
8
1
62
256
6
ByLayer
370
18
48
1
60
0
100
AcDbSpline
70
4
71
3
72
10
73
6
40
0
40
0
40
0
40
0
40
0.5
40
0.5
40
1
40
1
40
1
40
1
41
1
10
5.18018206305715
20
-4.32042331542726
30
0
41
1
10
4.78834754180735
20
-4.93259223369668
30
0
41
1
10
4.57833136503268
20
-5.57895582446054
30
0
41
1
10
4.46400627105459
20
-6.54565274432676
30
0
41
1
10
4.50243122446972
20
-6.88803481494392
30
0
41
1
10
4.70962611970538
20
-7.25430782089532
30
0
0
SPLINE
5
130
100
AcDbEntity
8
1
62
256
6
ByLayer
370
18
48
1
60
0
100
AcDbSpline
70
4
71
3
72
12
73
8
40
0
40
0
40
0
40
0
40
0.286978363858291
40
0.286978363858291
40
0.569998995185617
40
0.569998995185617
40
1
40
1
40
1
40
1
41
1
10
17.6084128842521
20
-9.35166286307887
30
0
41
1
10
17.7908512873064
20
-9.2054235542677
30
0
41
1
10
17.9621351323057
20
-9.0435045577218
30
0
41
1
10
18.2731668018572
20
-8.69769862900432
30
0
41
1
10
18.4143854583659
20
-8.51295875087905
30
0
41
1
10
18.7287129617475
20
-8.02565048346793
30
0
41
1
10
18.8832271288107
20
-7.70721782233963
30
0
41
1
10
18.9955614696433
20
-7.37842683024849
30
0
0
SPLINE
5
131
100
AcDbEntity
8
1
62
256
6
ByLayer
370
18
48
1
60
0
100
AcDbSpline
70
4
71
3
72
8
73
4
40
0
40
0
40
0
40
0
40
1
40
1
40
1
40
1
41
1
10
12.9303857231069
20
-0.819421095807257
30
0
41
1
10
13.0033202004777
20
-0.817590391155647
30
0
41
1
10
13.0758838310234
20
-0.812577379417007
30
0
41
1
10
13.1475676646367
20
-0.804432768003494
30
0
0
SPLINE
5
132
100
AcDbEntity
8
1
62
256
6
ByLayer
370
18
48
1
60
0
100
AcDbSpline
70
4
71
3
72
12
73
8
40
0
40
0
40
0
40
0
40
0.108853988607131
40
0.502629237162306
40
0.699516861439894
40
0.896404485717482
40
1
40
1
40
1
40
1
41
1.02441262532206
10
18.9955614696434
20
-7.37842683024855
30
0
41
1.02394775682001
10
19.2574228955292
20
-7.59323487298492
30
0
41
1.02173322384668
10
20.4931835400786
20
-8.61390231018321
30
0
41
1.01876555595691
10
22.2082359657587
20
-10.0711469527043
30
0
41
1.01610930227499
10
23.3424341805161
20
-11.0619536459851
30
0
41
1.01814069306376
10
23.9205125389197
20
-11.4436408063603
30
0
41
1.02005196006971
10
24.4240936845309
20
-11.7980452032412
30
0
41
1.02076673234773
10
24.6068489090289
20
-11.9293252596138
30
0
0
SPLINE
5
133
100
AcDbEntity
8
1
62
256
6
ByLayer
370
18
48
1
60
0
100
AcDbSpline
70
4
71
3
72
11
73
7
40
0
40
0
40
0
40
0
40
0.564783939443773
40
0.564783939443773
40
0.564783939443773
40
1
40
1
40
1
40
1
41
1
10
20.3747073208196
20
-15.4543108998332
30
0
41
1
10
20.0483766166055
20
-15.298082482761
30
0
41
1
10
19.6666248796989
20
-15.1379283132166
30
0
41
1
10
19.2535047780117
20
-15.0148089383662
30
0
41
1
10
18.9325328972804
20
-14.9191518712354
30
0
41
1
10
18.5909326374479
20
-14.8368739953285
30
0
41
1
10
18.2455672554875
20
-14.763753941966
30
0
0
SPLINE
5
134
100
AcDbEntity
8
1
62
256
6
ByLayer
370
18
48
1
60
0
100
AcDbSpline
70
4
71
3
72
10
73
6
40
0
40
0
40
0
40
0
40
0.5
40
0.5
40
1
40
1
40
1
40
1
41
1
10
24.5246005754074
20
-10.1446325994334
30
0
41
1
10
24.9699685495234
20
-9.94567205235913
30
0
41
1
10
25.4201707293471
20
-9.81128477320664
30
0
41
1
10
26.349739865994
20
-9.93208092679743
30
0
41
1
10
26.8295657359529
20
-10.2183319845309
30
0
41
1
10
27.1842155093758
20
-10.8659434422078
30
0
0
SPLINE
5
135
100
AcDbEntity
8
1
62
256
6
ByLayer
370
18
48
1
60
0
100
AcDbSpline
70
4
71
3
72
8
73
4
40
0
40
0
40
0
40
0
40
1
40
1
40
1
40
1
41
1
10
8.73620869007175
20
-4.94193357326668
30
0
41
1
10
7.38089112648703
20
-4.78935613552432
30
0
41
1
10
6.13964914512354
20
-4.59853984340262
30
0
41
1
10
5.34392496717209
20
-4.36553804762229
30
0
0
SPLINE
5
136
100
AcDbEntity
8
1
62
256
6
ByLayer
370
18
48
1
60
0
100
AcDbSpline
70
4
71
3
72
10
73
6
40
0
40
0
40
0
40
0
40
0.5
40
0.5
40
1
40
1
40
1
40
1
41
1
10
23.8952392891586
20
-15.5445528256853
30
0
41
1
10
23.1625927166738
20
-15.4543101510476
30
0
41
1
10
22.6984813214384
20
-15.1333129039177
30
0
41
1
10
22.2238695404016
20
-14.3722236519281
30
0
41
1
10
22.1715433828546
20
-13.9269799975641
30
0
41
1
10
22.1851820546288
20
-13.4724844025279
30
0
0
INSERT
5
149
100
AcDbEntity
8
SK2
62
256
6
ByLayer
370
25
48
1
60
0
100
AcDbBlockReference
2
DimnDraft3D11
10
0
20
0
30
0
41
1
42
1
43
1
50
0
210
0
220
0
230
1
0
LINE
5
72
100
AcDbEntity
8
1
62
256
6
ByLayer
370
18
48
1
60
0
100
AcDbLine
10
19.184454
20
-18.272369
30
0
11
19.679311
21
-18.767226
31
0
39
0
210
0
220
0
230
1
0
LINE
5
74
100
AcDbEntity
8
1
62
256
6
ByLayer
370
18
48
1
60
0
100
AcDbLine
10
31.059266
20
-7.387272
30
0
11
30.564408
21
-6.892414
31
0
39
0
210
0
220
0
230
1
0
LINE
5
75
100
AcDbEntity
8
1
62
256
6
ByLayer
370
18
48
1
60
0
100
AcDbLine
10
4.616221
20
-7.31056
30
0
11
5.138689
21
-7.755655
31
0
39
0
210
0
220
0
230
1
0
LINE
5
76
100
AcDbEntity
8
1
62
256
6
ByLayer
370
18
48
1
60
0
100
AcDbLine
10
13.638855
20
-6.547167
30
0
11
13.472517
21
-6.380828
31
0
39
0
210
0
220
0
230
1
0
LINE
5
77
100
AcDbEntity
8
1
62
256
6
ByLayer
370
18
48
1
60
0
100
AcDbLine
10
11.175148
20
-8.125366
30
0
11
11.348344
21
-8.298562
31
0
39
0
210
0
220
0
230
1
0
LINE
5
78
100
AcDbEntity
8
1
62
256
6
ByLayer
370
18
48
1
60
0
100
AcDbLine
10
12.977911
20
-5.116618
30
0
11
12.957769
21
-5.096475
31
0
39
0
210
0
220
0
230
1
0
LINE
5
79
100
AcDbEntity
8
1
62
256
6
ByLayer
370
18
48
1
60
0
100
AcDbLine
10
8.433707
20
-4.654786
30
0
11
8.054483
21
-4.331721
31
0
39
0
210
0
220
0
230
1
0
LINE
5
7A
100
AcDbEntity
8
1
62
256
6
ByLayer
370
18
48
1
60
0
100
AcDbLine
10
14.700972
20
-4.379389
30
0
11
14.86731
21
-4.545727
31
0
39
0
210
0
220
0
230
1
0
LINE
5
7B
100
AcDbEntity
8
1
62
256
6
ByLayer
370
18
48
1
60
0
100
AcDbLine
10
15.361916
20
-5.809937
30
0
11
15.528254
21
-5.976276
31
0
39
0
210
0
220
0
230
1
0
LINE
5
7C
100
AcDbEntity
8
1
62
256
6
ByLayer
370
18
48
1
60
0
100
AcDbLine
10
17.005198
20
-2.641708
30
0
11
16.832002
21
-2.468512
31
0
39
0
210
0
220
0
230
1
0
LINE
5
7D
100
AcDbEntity
8
80
62
256
6
ByLayer
370
18
48
1
60
0
100
AcDbLine
10
0
20
0
30
0
11
-5
21
0
31
0
39
0
210
0
220
0
230
1
0
LINE
5
7E
100
AcDbEntity
8
81
62
256
6
ByLayer
370
18
48
1
60
0
100
AcDbLine
10
32.20454
20
-19.9125
30
0
11
42.20454
21
-19.9125
31
0
39
0
210
0
220
0
230
1
0
LINE
5
7F
100
AcDbEntity
8
SK1
62
256
6
ByLayer
370
18
48
1
60
0
100
AcDbLine
10
0
20
-12.4375
30
0
11
0
21
12.4375
31
0
39
0
210
0
220
0
230
1
0
LINE
5
81
100
AcDbEntity
8
SK1
62
256
6
ByLayer
370
18
48
1
60
0
100
AcDbLine
10
-119.14546
20
-12.4375
30
0
11
-119.14546
21
12.4375
31
0
39
0
210
0
220
0
230
1
0
LINE
5
82
100
AcDbEntity
8
SK1
62
256
6
ByLayer
370
18
48
1
60
0
100
AcDbLine
10
-119.14546
20
12.4375
30
0
11
0
21
12.4375
31
0
39
0
210
0
220
0
230
1
0
LINE
5
83
100
AcDbEntity
8
SK1
62
256
6
ByLayer
370
18
48
1
60
0
100
AcDbLine
10
0
20
-12.4375
30
0
11
-119.14546
21
-12.4375
31
0
39
0
210
0
220
0
230
1
0
LINE
5
84
100
AcDbEntity
8
1
62
256
6
ByLayer
370
18
48
1
60
0
100
AcDbLine
10
19.403294
20
-18.188002
30
0
11
19.14058
21
-14.986704
31
0
39
0
210
0
220
0
230
1
0
LINE
5
85
100
AcDbEntity
8
1
62
256
6
ByLayer
370
18
48
1
60
0
100
AcDbLine
10
13.653034
20
9.569374
30
0
11
10.388626
21
4.925713
31
0
39
0
210
0
220
0
230
1
0
LINE
5
86
100
AcDbEntity
8
1
62
256
6
ByLayer
370
18
48
1
60
0
100
AcDbLine
10
3.343759
20
-5.095698
30
0
11
0.706257
21
-8.847577
31
0
39
0
210
0
220
0
230
1
0
LINE
5
87
100
AcDbEntity
8
1
62
256
6
ByLayer
370
18
48
1
60
0
100
AcDbLine
10
27.119317
20
2.307489
30
0
11
30.000824
21
-0.574017
31
0
39
0
210
0
220
0
230
1
0
LINE
5
88
100
AcDbEntity
8
1
62
256
6
ByLayer
370
18
48
1
60
0
100
AcDbLine
10
3.674674
20
-16.112174
30
0
11
4.592301
21
-17.029801
31
0
39
0
210
0
220
0
230
1
0
LINE
5
89
100
AcDbEntity
8
1
62
256
6
ByLayer
370
18
48
1
60
0
100
AcDbLine
10
30.000824
20
-0.574017
30
0
11
30.529869
21
-7.020703
31
0
39
0
210
0
220
0
230
1
0
LINE
5
8A
100
AcDbEntity
8
1
62
256
6
ByLayer
370
18
48
1
60
0
100
AcDbLine
10
17.284637
20
7.190088
30
0
11
14.515741
21
3.251298
31
0
39
0
210
0
220
0
230
1
0
LINE
5
8B
100
AcDbEntity
8
1
62
256
6
ByLayer
370
18
48
1
60
0
100
AcDbLine
10
6.231492
20
-8.533148
30
0
11
4.108239
21
-11.553502
31
0
39
0
210
0
220
0
230
1
0
LINE
5
8C
100
AcDbEntity
8
1
62
256
6
ByLayer
370
18
48
1
60
0
100
AcDbLine
10
14.433997
20
9.052057
30
0
11
11.572115
21
4.980993
31
0
39
0
210
0
220
0
230
1
0
LINE
5
8D
100
AcDbEntity
8
1
62
256
6
ByLayer
370
18
48
1
60
0
100
AcDbLine
10
3.693957
20
-6.225784
30
0
11
1.585138
21
-9.225605
31
0
39
0
210
0
220
0
230
1
0
LINE
5
8E
100
AcDbEntity
8
1
62
256
6
ByLayer
370
18
48
1
60
0
100
AcDbLine
10
8.940711
20
12.446571
30
0
11
10.886957
21
12.328962
31
0
39
0
210
0
220
0
230
1
0
LINE
5
8F
100
AcDbEntity
8
1
62
256
6
ByLayer
370
18
48
1
60
0
100
AcDbLine
10
14.433997
20
9.052057
30
0
11
17.284637
21
7.190088
31
0
39
0
210
0
220
0
230
1
0
LINE
5
90
100
AcDbEntity
8
1
62
256
6
ByLayer
370
18
48
1
60
0
100
AcDbLine
10
10.886957
20
12.328962
30
0
11
27.119317
21
2.307489
31
0
39
0
210
0
220
0
230
1
0
LINE
5
91
100
AcDbEntity
8
1
62
256
6
ByLayer
370
18
48
1
60
0
100
AcDbLine
10
19.292663
20
-18.236181
30
0
11
19.403294
21
-18.188002
31
0
39
0
210
0
220
0
230
1
0
LINE
5
92
100
AcDbEntity
8
1
62
256
6
ByLayer
370
18
48
1
60
0
100
AcDbLine
10
3.674674
20
-16.112174
30
0
11
0
21
-12.4375
31
0
39
0
210
0
220
0
230
1
0
LINE
5
93
100
AcDbEntity
8
1
62
256
6
ByLayer
370
18
48
1
60
0
100
AcDbLine
10
14.413205
20
9.072849
30
0
11
14.433997
21
9.052057
31
0
39
0
210
0
220
0
230
1
0
LINE
5
94
100
AcDbEntity
8
1
62
256
6
ByLayer
370
18
48
1
60
0
100
AcDbLine
10
25.044195
20
-6.661303
30
0
11
25.921138
21
-6.73713
31
0
39
0
210
0
220
0
230
1
0
LINE
5
95
100
AcDbEntity
8
1
62
256
6
ByLayer
370
18
48
1
60
0
100
AcDbLine
10
24.948293
20
-6.538079
30
0
11
30.529869
21
-7.020703
31
0
39
0
210
0
220
0
230
1
0
LINE
5
96
100
AcDbEntity
8
1
62
256
6
ByLayer
370
18
48
1
60
0
100
AcDbLine
10
2.731764
20
12.44942
30
0
11
0.706257
21
-8.847577
31
0
39
0
210
0
220
0
230
1
0
LINE
5
97
100
AcDbEntity
8
1
62
256
6
ByLayer
370
18
48
1
60
0
100
AcDbLine
10
30.529869
20
-7.020703
30
0
11
30.487325
21
-7.118535
31
0
39
0
210
0
220
0
230
1
0
LINE
5
98
100
AcDbEntity
8
1
62
256
6
ByLayer
370
18
48
1
60
0
100
AcDbLine
10
1.585138
20
-9.225605
30
0
11
4.108239
21
-11.553502
31
0
39
0
210
0
220
0
230
1
0
LINE
5
99
100
AcDbEntity
8
1
62
256
6
ByLayer
370
18
48
1
60
0
100
AcDbLine
10
1.379084
20
-9.468349
30
0
11
1.585138
21
-9.225605
31
0
39
0
210
0
220
0
230
1
0
LINE
5
9A
100
AcDbEntity
8
1
62
256
6
ByLayer
370
18
48
1
60
0
100
AcDbLine
10
0
20
12.4375
30
0
11
2.731764
21
12.44942
31
0
39
0
210
0
220
0
230
1
0
LINE
5
9B
100
AcDbEntity
8
1
62
256
6
ByLayer
370
18
48
1
60
0
100
AcDbLine
10
14.413205
20
9.072849
30
0
11
11.54244
21
4.98915
31
0
39
0
210
0
220
0
230
1
0
LINE
5
9C
100
AcDbEntity
8
1
62
256
6
ByLayer
370
18
48
1
60
0
100
AcDbLine
10
3.676552
20
-6.200173
30
0
11
1.379084
21
-9.468349
31
0
39
0
210
0
220
0
230
1
0
LINE
5
9D
100
AcDbEntity
8
1
62
256
6
ByLayer
370
18
48
1
60
0
100
AcDbLine
10
0
20
-12.4375
30
0
11
0
21
12.4375
31
0
39
0
210
0
220
0
230
1
0
LINE
5
9E
100
AcDbEntity
8
1
62
256
6
ByLayer
370
18
48
1
60
0
100
AcDbLine
10
8.940711
20
12.446571
30
0
11
2.731764
21
12.44942
31
0
39
0
210
0
220
0
230
1
0
LINE
5
9F
100
AcDbEntity
8
1
62
256
6
ByLayer
370
18
48
1
60
0
100
AcDbLine
10
30.000824
20
-0.574017
30
0
11
17.284637
21
7.190088
31
0
39
0
210
0
220
0
230
1
0
LINE
5
A0
100
AcDbEntity
8
1
62
256
6
ByLayer
370
18
48
1
60
0
100
AcDbLine
10
4.108239
20
-11.553502
30
0
11
3.674674
21
-16.112174
31
0
39
0
210
0
220
0
230
1
0
LINE
5
A1
100
AcDbEntity
8
1
62
256
6
ByLayer
370
18
48
1
60
0
100
AcDbLine
10
19.292663
20
-18.236181
30
0
11
4.592301
21
-17.029801
31
0
39
0
210
0
220
0
230
1
0
LINE
5
A2
100
AcDbEntity
8
1
62
256
6
ByLayer
370
18
48
1
60
0
100
AcDbLine
10
8.940711
20
12.446571
30
0
11
13.653034
21
9.569374
31
0
39
0
210
0
220
0
230
1
0
LINE
5
A3
100
AcDbEntity
8
1
62
256
6
ByLayer
370
18
48
1
60
0
100
AcDbLine
10
19.02359
20
-14.957389
30
0
11
19.292663
21
-18.236181
31
0
39
0
210
0
220
0
230
1
0
LINE
5
A4
100
AcDbEntity
8
1
62
256
6
ByLayer
370
18
48
1
60
0
100
AcDbLine
10
13.05618
20
-6.276117
30
0
11
13.222519
21
-6.442456
31
0
39
0
210
0
220
0
230
1
0
LINE
5
A5
100
AcDbEntity
8
1
62
256
6
ByLayer
370
18
48
1
60
0
100
AcDbLine
10
12.960266
20
-5.099107
30
0
11
12.97154
21
-5.110382
31
0
39
0
210
0
220
0
230
1
0
LINE
5
A6
100
AcDbEntity
8
1
62
256
6
ByLayer
370
18
48
1
60
0
100
AcDbLine
10
14.579571
20
-4.109075
30
0
11
14.745909
21
-4.275413
31
0
39
0
210
0
220
0
230
1
0
LINE
5
A7
100
AcDbEntity
8
1
62
256
6
ByLayer
370
18
48
1
60
0
100
AcDbLine
10
14.936481
20
-6.430423
30
0
11
15.102819
21
-6.596762
31
0
39
0
210
0
220
0
230
1
0
LINE
5
A8
100
AcDbEntity
8
1
62
256
6
ByLayer
370
18
48
1
60
0
100
AcDbLine
10
15.429307
20
-5.15939
30
0
11
15.595646
21
-5.325728
31
0
39
0
210
0
220
0
230
1
0
LINE
5
A9
100
AcDbEntity
8
1
62
256
6
ByLayer
370
18
48
1
60
0
100
AcDbLine
10
14.337723
20
-6.712182
30
0
11
14.504061
21
-6.878521
31
0
39
0
210
0
220
0
230
1
0
LINE
5
AA
100
AcDbEntity
8
1
62
256
6
ByLayer
370
18
48
1
60
0
100
AcDbLine
10
5.219233
20
-4.262226
30
0
11
10.048484
21
2.607443
31
0
39
0
210
0
220
0
230
1
0
LINE
5
AB
100
AcDbEntity
8
1
62
256
6
ByLayer
370
18
48
1
60
0
100
AcDbLine
10
27.423096
20
-11.905412
30
0
11
27.184216
21
-10.865943
31
0
39
0
210
0
220
0
230
1
0
LINE
5
AC
100
AcDbEntity
8
1
62
256
6
ByLayer
370
18
48
1
60
0
100
AcDbLine
10
5.219233
20
-4.262226
30
0
11
3.878572
21
-3.120104
31
0
39
0
210
0
220
0
230
1
0
LINE
5
AD
100
AcDbEntity
8
1
62
256
6
ByLayer
370
18
48
1
60
0
100
AcDbLine
10
13.63781
20
3.851418
30
0
11
13.192907
21
4.230436
31
0
39
0
210
0
220
0
230
1
0
LINE
5
AE
100
AcDbEntity
8
1
62
256
6
ByLayer
370
18
48
1
60
0
100
AcDbLine
10
10.944552
20
-11.818107
30
0
11
6.533021
21
-8.741452
31
0
39
0
210
0
220
0
230
1
0
LINE
5
AF
100
AcDbEntity
8
1
62
256
6
ByLayer
370
18
48
1
60
0
100
AcDbLine
10
10.538358
20
-7.934067
30
0
11
12.198134
21
-9.090489
31
0
39
0
210
0
220
0
230
1
0
LINE
5
B0
100
AcDbEntity
8
1
62
256
6
ByLayer
370
18
48
1
60
0
100
AcDbLine
10
27.423096
20
-11.905412
30
0
11
27.449919
21
-12.142969
31
0
39
0
210
0
220
0
230
1
0
LINE
5
B1
100
AcDbEntity
8
1
62
256
6
ByLayer
370
18
48
1
60
0
100
AcDbLine
10
6.527642
20
-8.740116
30
0
11
5.359095
21
-7.925156
31
0
39
0
210
0
220
0
230
1
0
LINE
5
B2
100
AcDbEntity
8
1
62
256
6
ByLayer
370
18
48
1
60
0
100
AcDbLine
10
8.707823
20
3.749565
30
0
11
3.878572
21
-3.120104
31
0
39
0
210
0
220
0
230
1
0
LINE
5
B3
100
AcDbEntity
8
1
62
256
6
ByLayer
370
18
48
1
60
0
100
AcDbLine
10
10.895759
20
-8.238539
30
0
11
12.562819
21
-9.401168
31
0
39
0
210
0
220
0
230
1
0
LINE
5
B4
100
AcDbEntity
8
1
62
256
6
ByLayer
370
18
48
1
60
0
100
AcDbLine
10
6.527642
20
-8.740116
30
0
11
6.533021
21
-8.741452
31
0
39
0
210
0
220
0
230
1
0
LINE
5
B5
100
AcDbEntity
8
1
62
256
6
ByLayer
370
18
48
1
60
0
100
AcDbLine
10
27.58176
20
-12.595828
30
0
11
27.531021
21
-12.375041
31
0
39
0
210
0
220
0
230
1
0
LINE
5
B6
100
AcDbEntity
8
1
62
256
6
ByLayer
370
18
48
1
60
0
100
AcDbLine
10
14.806358
20
3.036459
30
0
11
13.25352
21
4.185614
31
0
39
0
210
0
220
0
230
1
0
LINE
5
B7
100
AcDbEntity
8
1
62
256
6
ByLayer
370
18
48
1
60
0
100
AcDbLine
10
14.806358
20
3.036459
30
0
11
14.809291
21
3.031645
31
0
39
0
210
0
220
0
230
1
0
LINE
5
B8
100
AcDbEntity
8
1
62
256
6
ByLayer
370
18
48
1
60
0
100
AcDbLine
10
12.562819
20
-9.401168
30
0
11
12.198134
21
-9.090489
31
0
39
0
210
0
220
0
230
1
0
LINE
5
B9
100
AcDbEntity
8
1
62
256
6
ByLayer
370
18
48
1
60
0
100
AcDbLine
10
24.96326
20
-15.404558
30
0
11
23.895239
21
-15.544553
31
0
39
0
210
0
220
0
230
1
0
LINE
5
BA
100
AcDbEntity
8
1
62
256
6
ByLayer
370
18
48
1
60
0
100
AcDbLine
10
17.334578
20
-2.613281
30
0
11
15.667518
21
-1.450652
31
0
39
0
210
0
220
0
230
1
0
LINE
5
BB
100
AcDbEntity
8
1
62
256
6
ByLayer
370
18
48
1
60
0
100
AcDbLine
10
6.594937
20
-3.298065
30
0
11
9.584473
21
0.954587
31
0
39
0
210
0
220
0
230
1
0
LINE
5
BC
100
AcDbEntity
8
1
62
256
6
ByLayer
370
18
48
1
60
0
100
AcDbLine
10
13.63781
20
3.851418
30
0
11
14.806358
21
3.036459
31
0
39
0
210
0
220
0
230
1
0
LINE
5
BD
100
AcDbEntity
8
1
62
256
6
ByLayer
370
18
48
1
60
0
100
AcDbLine
10
12.690182
20
3.050798
30
0
11
18.885137
21
-1.269639
31
0
39
0
210
0
220
0
230
1
0
LINE
5
BE
100
AcDbEntity
8
1
62
256
6
ByLayer
370
18
48
1
60
0
100
AcDbLine
10
25.196553
20
-15.34841
30
0
11
24.96326
21
-15.404558
31
0
39
0
210
0
220
0
230
1
0
LINE
5
BF
100
AcDbEntity
8
1
62
256
6
ByLayer
370
18
48
1
60
0
100
AcDbLine
10
19.220822
20
-0.045011
30
0
11
14.809291
21
3.031645
31
0
39
0
210
0
220
0
230
1
0
LINE
5
C0
100
AcDbEntity
8
1
62
256
6
ByLayer
370
18
48
1
60
0
100
AcDbLine
10
7.830183
20
-4.158703
30
0
11
6.594937
21
-3.298065
31
0
39
0
210
0
220
0
230
1
0
LINE
5
C1
100
AcDbEntity
8
1
62
256
6
ByLayer
370
18
48
1
60
0
100
AcDbLine
10
8.176359
20
-4.453614
30
0
11
7.830183
21
-4.158703
31
0
39
0
210
0
220
0
230
1
0
LINE
5
C2
100
AcDbEntity
8
1
62
256
6
ByLayer
370
18
48
1
60
0
100
AcDbLine
10
10.895759
20
-8.238539
30
0
11
10.538358
21
-7.934067
31
0
39
0
210
0
220
0
230
1
0
LINE
5
C3
100
AcDbEntity
8
1
62
256
6
ByLayer
370
18
48
1
60
0
100
AcDbLine
10
5.70209
20
-6.88985
30
0
11
11.897044
21
-11.210287
31
0
39
0
210
0
220
0
230
1
0
LINE
5
C4
100
AcDbEntity
8
1
62
256
6
ByLayer
370
18
48
1
60
0
100
AcDbLine
10
25.136489
20
-13.037008
30
0
11
27.318445
21
-14.459125
31
0
39
0
210
0
220
0
230
1
0
LINE
5
C5
100
AcDbEntity
8
1
62
256
6
ByLayer
370
18
48
1
60
0
100
AcDbLine
10
25.672641
20
-15.311573
30
0
11
25.445789
21
-15.341309
31
0
39
0
210
0
220
0
230
1
0
LINE
5
C6
100
AcDbEntity
8
1
62
256
6
ByLayer
370
18
48
1
60
0
100
AcDbLine
10
10.048484
20
2.607443
30
0
11
8.707823
21
3.749565
31
0
39
0
210
0
220
0
230
1
0
LINE
5
C7
100
AcDbEntity
8
1
62
256
6
ByLayer
370
18
48
1
60
0
100
AcDbLine
10
30.499594
20
-7.090305
30
0
11
30.570946
21
-7.161658
31
0
39
0
210
0
220
0
230
1
0
LINE
5
C8
100
AcDbEntity
8
1
62
256
6
ByLayer
370
18
48
1
60
0
100
AcDbLine
10
31.28488
20
-7.875591
30
0
11
32.201876
21
-19.049656
31
0
39
0
210
0
220
0
230
1
0
LINE
5
C9
100
AcDbEntity
8
1
62
256
6
ByLayer
370
18
48
1
60
0
100
AcDbLine
10
19.453697
20
-18.278907
30
0
11
19.375077
21
-18.200286
31
0
39
0
210
0
220
0
230
1
0
LINE
5
CA
100
AcDbEntity
8
1
62
256
6
ByLayer
370
18
48
1
60
0
100
AcDbLine
10
25.082909
20
-6.711284
30
0
11
30.570946
21
-7.161658
31
0
39
0
210
0
220
0
230
1
0
LINE
5
CB
100
AcDbEntity
8
1
62
256
6
ByLayer
370
18
48
1
60
0
100
AcDbLine
10
31.341695
20
-19.909836
30
0
11
20.167631
21
-18.99284
31
0
39
0
210
0
220
0
230
1
0
LINE
5
CC
100
AcDbEntity
8
1
62
256
6
ByLayer
370
18
48
1
60
0
100
AcDbLine
10
19.453697
20
-18.278907
30
0
11
19.184416
21
-14.997573
31
0
39
0
210
0
220
0
230
1
0
MTEXT
5
137
100
AcDbEntity
8
SK6
62
256
6
ByLayer
370
18
48
1
60
0
100
AcDbMText
10
-57.59546
20
21.56846
30
0
210
0
220
0
230
1
1
\W0.7508;DCLNL 2525M 12
40
3.5
41
0
44
1.084337
50
0
71
7
72
5
7
iso_b_vert
0
DIMENSION
5
157
100
AcDbEntity
8
2
62
256
6
ByLayer
370
13
48
1
60
0
100
AcDbDimension
2
DimnDraft3D2
10
30.34922
20
-19.828051
30
0
11
19.758658
21
-31.44666
31
0
70
34
71
5
72
1
41
1
210
0
220
0
230
1
3
Standard
100
AcDb2LineAngularDimension
13
32.20454
23
-19.9125
33
0
14
32.20454
24
-18.325
34
0
15
31.345869
25
-19.909841
35
0
16
16.449108
26
-34.495739
36
0
40
0
0
DIMENSION
5
16C
100
AcDbEntity
8
2
62
256
6
ByLayer
370
13
48
1
60
0
100
AcDbDimension
2
DimnDraft3D3
10
32.20454
20
-48.1625
30
0
11
10.820691
21
-48.1625
31
0
70
32
71
5
72
1
41
1
210
0
220
0
230
1
3
Standard
100
AcDbAlignedDimension
13
0
23
-14.4375
33
0
14
32.20454
24
-21.9125
34
0
50
0
100
AcDbRotatedDimension
1001
ACAD
1000
DSTYLE
1002
{
1070
   279
1070
     0
1070
   172
1070
     1
1070
   173
1070
     1
1070
   340
1005
138
1070
    77
1070
     1
1070
    73
1070
     0
1070
   171
1070
     3
1070
   274
1070
     4
1070
   177
1070
     2
1070
   176
1070
     2
1070
   178
1070
     7
1070
    78
1070
     8
1070
    41
1041
3.175
1070
   147
1041
2.25
1070
    42
1041
2.0
1070
    44
1041
2.0
1070
   140
1041
4.5
1070
   343
1005
158
1070
   344
1005
158
1002
}
0
DIMENSION
5
17A
100
AcDbEntity
8
2
62
256
6
ByLayer
370
13
48
1
60
0
100
AcDbDimension
2
DimnDraft3D4
10
54.45454
20
-19.9125
30
0
11
54.45454
21
-9.019079
31
0
70
32
71
5
72
1
41
1
210
0
220
0
230
1
3
Standard
100
AcDbAlignedDimension
13
2
23
12.4375
33
0
14
34.20454
24
-19.9125
34
0
50
90
100
AcDbRotatedDimension
1001
ACAD
1000
DSTYLE
1002
{
1070
    74
1070
     0
1070
   279
1070
     0
1070
   172
1070
     1
1070
   173
1070
     1
1070
   340
1005
138
1070
    77
1070
     1
1070
    73
1070
     0
1070
   171
1070
     3
1070
   274
1070
     4
1070
   177
1070
     2
1070
   176
1070
     2
1070
   178
1070
     7
1070
    78
1070
     8
1070
    41
1041
3.175
1070
   147
1041
2.25
1070
    42
1041
2.0
1070
    44
1041
2.0
1070
   140
1041
4.5
1070
   343
1005
158
1070
   344
1005
158
1002
}
0
DIMENSION
5
188
100
AcDbEntity
8
SK2
62
256
6
ByLayer
370
13
48
1
60
0
100
AcDbDimension
2
DimnDraft3D5
10
-126.89546
20
-12.4375
30
0
11
-126.89546
21
-5.281579
31
0
70
32
71
5
72
1
41
1
210
0
220
0
230
1
3
Standard
100
AcDbAlignedDimension
13
-121.14546
23
12.4375
33
0
14
-121.14546
24
-12.4375
34
0
50
90
100
AcDbRotatedDimension
1001
ACAD
1000
DSTYLE
1002
{
1070
    74
1070
     0
1070
   279
1070
     0
1070
   172
1070
     1
1070
   173
1070
     1
1070
   340
1005
138
1070
    77
1070
     1
1070
    73
1070
     0
1070
   171
1070
     3
1070
   274
1070
     4
1070
   177
1070
     2
1070
   176
1070
     2
1070
   178
1070
     7
1070
    78
1070
     8
1070
    41
1041
3.175
1070
   147
1041
2.25
1070
    42
1041
2.0
1070
    44
1041
2.0
1070
   140
1041
4.5
1070
   343
1005
158
1070
   344
1005
158
1002
}
0
ENDSEC
0
SECTION
2
OBJECTS
0
DICTIONARY
5
1f2
330
0
100
AcDbDictionary
280
0
281
1
3
ACAD_GROUP
350
1f3
3
ACAD_MLINESTYLE
350
1f4
0
DICTIONARY
5
1f3
330
0
100
AcDbDictionary
280
0
281
1
0
DICTIONARY
5
1f4
330
0
100
AcDbDictionary
280
0
281
1
3
Standard
350
18
0
MLINESTYLE
5
18
330
1f4
100
AcDbMlineStyle
2
Standard
70
0
3

62
256
51
90
52
90
71
2
49
-0.5
62
256
6
ByLayer
49
0.5
62
256
6
ByLayer
0
RASTERVARIABLES
5
1e1
330

100
AcDbRasterVariables
90
0
70
1
71
1
72
1
0
ENDSEC
0
EOF
