0
SECTION
2
HEADER
9
$ACADVER
1
AC1015
9
$DWGCODEPAGE
3
ANSI_1252
9
$HANDSEED
5
1ff
9
$ANGBASE
50
0
9
$ANGDIR
70
0
9
$ATTMODE
70
1
9
$AUNITS
70
0
9
$AUPREC
70
0
9
$CECOLOR
62
256
9
$CELTSCALE
40
1
9
$CELTYPE
6
ByLayer
9
$CELWEIGHT
370
18
9
$CLAYER
8
0
9
$CMLJUST
70
0
9
$CMLSCALE
40
1
9
$CMLSTYLE
2
Standard
9
$DIMSTYLE
2
Standard
9
$TEXTSIZE
40
0.2
9
$TEXTSTYLE
7
Standard
9
$LUNITS
70
2
9
$LUPREC
70
4
9
$EXTNAMES
290
1
9
$INSUNITS
70
4
9
$LTSCALE
40
1
9
$LWDISPLAY
290
1
9
$PDMODE
70
0
9
$PDSIZE
40
0
9
$PLINEGEN
70
0
0
ENDSEC
0
SECTION
2
CLASSES
0
CLASS
1
RASTERVARIABLES
2
AcDbRasterVariables
3
ISM
90
0
280
0
281
0
0
ENDSEC
0
SECTION
2
TABLES
0
TABLE
2
VPORT
5
1f5
100
AcDbSymbolTable
0
VPORT
5
1
100
AcDbSymbolTableRecord
100
AcDbViewportTableRecord
2
*Active
70
0
10
0
20
0
11
1
21
1
12
-1
22
1
13
0
23
0
14
0.5
24
0.5
15
10
25
10
16
0
26
0
36
1
17
0
27
0
37
0
0
ENDTAB
0
TABLE
2
LTYPE
5
1f6
100
AcDbSymbolTable
0
LTYPE
5
14
100
AcDbSymbolTableRecord
100
AcDbLinetypeTableRecord
70
0
2
ByBlock
3

72
65
73
0
40
0
0
LTYPE
5
15
100
AcDbSymbolTableRecord
100
AcDbLinetypeTableRecord
70
0
2
ByLayer
3

72
65
73
0
40
0
0
LTYPE
5
16
100
AcDbSymbolTableRecord
100
AcDbLinetypeTableRecord
70
0
2
CONTINUOUS
3
Solid line
72
65
73
0
40
0
0
LTYPE
5
6A
100
AcDbSymbolTableRecord
100
AcDbLinetypeTableRecord
70
0
2
CENTER
3
____ _ ____ _ ____ _ ____
72
65
73
4
40
47.5
49
22
74
0
49
-8.5
74
0
49
8.5
74
0
49
-8.5
74
0
0
LTYPE
5
6B
100
AcDbSymbolTableRecord
100
AcDbLinetypeTableRecord
70
0
2
DASHED
3
__ __ __ __ __ __ __ __ __
72
65
73
2
40
25.72
49
12.86
74
0
49
-12.86
74
0
0
ENDTAB
0
TABLE
2
LAYER
5
1f7
100
AcDbSymbolTable
0
LAYER
5
10
100
AcDbSymbolTableRecord
100
AcDbLayerTableRecord
2
0
70
0
62
7
6
CONTINUOUS
290
1
370
-3
390
0
0
LAYER
5
6D
100
AcDbSymbolTableRecord
100
AcDbLayerTableRecord
2
2
70
0
62
7
6
CONTINUOUS
290
1
370
-3
390
0
0
LAYER
5
6F
100
AcDbSymbolTableRecord
100
AcDbLayerTableRecord
2
80
70
0
62
-6
6
CONTINUOUS
290
1
370
-3
390
0
0
LAYER
5
71
100
AcDbSymbolTableRecord
100
AcDbLayerTableRecord
2
81
70
0
62
-3
6
CONTINUOUS
290
1
370
-3
390
0
0
LAYER
5
73
100
AcDbSymbolTableRecord
100
AcDbLayerTableRecord
2
1
70
0
62
4
6
CONTINUOUS
290
1
370
-3
390
0
0
LAYER
5
1e2
100
AcDbSymbolTableRecord
100
AcDbLayerTableRecord
2
SK1
70
0
62
4
6
CONTINUOUS
290
1
370
-3
390
0
0
LAYER
5
1e3
100
AcDbSymbolTableRecord
100
AcDbLayerTableRecord
2
SK6
70
0
62
5
6
CONTINUOUS
290
1
370
-3
390
0
0
LAYER
5
1e4
100
AcDbSymbolTableRecord
100
AcDbLayerTableRecord
2
SK2
70
0
62
7
6
CONTINUOUS
290
1
370
-3
390
0
0
ENDTAB
0
TABLE
2
STYLE
5
1f8
100
AcDbSymbolTable
0
STYLE
5
11
100
AcDbSymbolTableRecord
100
AcDbTextStyleTableRecord
2
Standard
3
txt
70
0
71
0
40
0
41
1
42
0
50
0
0
STYLE
5
138
100
AcDbSymbolTableRecord
100
AcDbTextStyleTableRecord
2
iso_b_vert
3
simplex.shx
70
0
71
0
40
0
41
1
42
0
50
0
0
STYLE
5
139
100
AcDbSymbolTableRecord
100
AcDbTextStyleTableRecord
2
DWGDirectTextStyle
3
simplex
70
0
71
0
40
0
41
1
42
0
50
0
0
ENDTAB
0
TABLE
2
DIMSTYLE
5
1f9
100
AcDbSymbolTable
100
AcDbDimStyleTable
0
DIMSTYLE
105
27
100
AcDbSymbolTableRecord
100
AcDbDimStyleTableRecord
2
Standard
70
0
3
<>
41
0.18
42
0.0625
44
0.18
140
0.18
147
0.09
73
0
74
0
77
1
271
2
275
0
278
52
280
0
340
11
0
ENDTAB
0
TABLE
2
VIEW
5
1fa
100
AcDbSymbolTable
0
ENDTAB
0
TABLE
2
UCS
5
1fb
100
AcDbSymbolTable
0
ENDTAB
0
TABLE
2
APPID
5
1fc
100
AcDbSymbolTable
0
APPID
5
12
100
AcDbSymbolTableRecord
100
AcDbRegAppTableRecord
2
ACAD
70
0
0
ENDTAB
0
TABLE
2
BLOCK_RECORD
5
1fd
100
AcDbSymbolTable
0
BLOCK_RECORD
5
1F
100
AcDbSymbolTableRecord
100
AcDbBlockTableRecord
2
*Model_Space
340
0
70
0
0
BLOCK_RECORD
5
1B
100
AcDbSymbolTableRecord
100
AcDbBlockTableRecord
2
*Paper_Space
340
0
70
0
0
BLOCK_RECORD
5
23
100
AcDbSymbolTableRecord
100
AcDbBlockTableRecord
2
*Paper_Space0
340
0
70
0
0
BLOCK_RECORD
5
13B
100
AcDbSymbolTableRecord
100
AcDbBlockTableRecord
2
DimnDraft3D11
340
0
70
0
0
BLOCK_RECORD
5
14A
100
AcDbSymbolTableRecord
100
AcDbBlockTableRecord
2
DimnDraft3D2
340
0
70
0
0
BLOCK_RECORD
5
158
100
AcDbSymbolTableRecord
100
AcDbBlockTableRecord
2
_CLOSED
340
0
70
0
0
BLOCK_RECORD
5
15F
100
AcDbSymbolTableRecord
100
AcDbBlockTableRecord
2
DimnDraft3D3
340
0
70
0
0
BLOCK_RECORD
5
16D
100
AcDbSymbolTableRecord
100
AcDbBlockTableRecord
2
DimnDraft3D4
340
0
70
0
0
BLOCK_RECORD
5
17B
100
AcDbSymbolTableRecord
100
AcDbBlockTableRecord
2
DimnDraft3D5
340
0
70
0
0
ENDTAB
0
ENDSEC
0
SECTION
2
BLOCKS
0
BLOCK
5
20
100
AcDbEntity
8
0
100
AcDbBlockBegin
2
*Model_Space
70
0
10
0
20
0
30
0
3
*Model_Space
0
ENDBLK
5
21
100
AcDbEntity
8
0
100
AcDbBlockEnd
0
BLOCK
5
1C
100
AcDbEntity
8
0
100
AcDbBlockBegin
2
*Paper_Space
70
0
10
0
20
0
30
0
3
*Paper_Space
0
ENDBLK
5
1D
100
AcDbEntity
8
0
100
AcDbBlockEnd
0
BLOCK
5
24
100
AcDbEntity
8
0
100
AcDbBlockBegin
2
*Paper_Space0
70
0
10
0
20
0
30
0
3
*Paper_Space0
0
ENDBLK
5
25
100
AcDbEntity
8
0
100
AcDbBlockEnd
0
BLOCK
5
13C
100
AcDbEntity
8
0
100
AcDbBlockBegin
2
DimnDraft3D11
70
0
10
0
20
0
30
0
3
DimnDraft3D11
0
LINE
5
13E
100
AcDbEntity
8
SK2
62
256
6
ByLayer
370
25
48
1
60
0
100
AcDbLine
10
32.20454
20
-17.4125
30
0
11
32.20454
21
-55.6625
31
0
39
0
210
0
220
0
230
1
0
LINE
5
140
100
AcDbEntity
8
SK2
62
256
6
ByLayer
370
25
48
1
60
0
100
AcDbLine
10
-94.14546
20
-11.9375
30
0
11
-94.14546
21
-55.6625
31
0
39
0
210
0
220
0
230
1
0
LINE
5
141
100
AcDbEntity
8
SK2
62
256
6
ByLayer
370
25
48
1
60
0
100
AcDbLine
10
32.20454
20
-53.6625
30
0
11
-94.14546
21
-53.6625
31
0
39
0
210
0
220
0
230
1
0
LINE
5
142
100
AcDbEntity
8
SK2
62
256
6
ByLayer
370
25
48
1
60
0
100
AcDbLine
10
32.20454
20
-53.6625
30
0
11
29.029541
21
-54.080497
31
0
39
0
210
0
220
0
230
1
0
LINE
5
143
100
AcDbEntity
8
SK2
62
256
6
ByLayer
370
25
48
1
60
0
100
AcDbLine
10
32.20454
20
-53.6625
30
0
11
29.029538
21
-53.244503
31
0
39
0
210
0
220
0
230
1
0
LINE
5
144
100
AcDbEntity
8
SK2
62
256
6
ByLayer
370
25
48
1
60
0
100
AcDbLine
10
29.029541
20
-54.080497
30
0
11
29.029538
21
-53.244503
31
0
39
0
210
0
220
0
230
1
0
LINE
5
145
100
AcDbEntity
8
SK2
62
256
6
ByLayer
370
25
48
1
60
0
100
AcDbLine
10
-94.14546
20
-53.6625
30
0
11
-90.970462
21
-53.244503
31
0
39
0
210
0
220
0
230
1
0
LINE
5
146
100
AcDbEntity
8
SK2
62
256
6
ByLayer
370
25
48
1
60
0
100
AcDbLine
10
-94.14546
20
-53.6625
30
0
11
-90.970459
21
-54.080497
31
0
39
0
210
0
220
0
230
1
0
LINE
5
147
100
AcDbEntity
8
SK2
62
256
6
ByLayer
370
25
48
1
60
0
100
AcDbLine
10
-90.970462
20
-53.244503
30
0
11
-90.970459
21
-54.080497
31
0
39
0
210
0
220
0
230
1
0
MTEXT
5
148
100
AcDbEntity
8
SK2
62
256
6
ByLayer
370
18
48
1
60
0
100
AcDbMText
10
-36.246118
20
-52.5375
30
0
210
0
220
0
230
1
1
\W0.6864;125.0
40
4.5
41
0
44
1.084337
50
0
71
7
72
5
7
iso_b_vert
0
ENDBLK
5
13D
100
AcDbEntity
8
0
100
AcDbBlockEnd
0
BLOCK
5
155
100
AcDbEntity
8
0
100
AcDbBlockBegin
2
DimnDraft3D2
70
0
10
0
20
0
30
0
3
DimnDraft3D2
0
MTEXT
5
14B
100
AcDbEntity
8
2
62
256
6
ByLayer
370
18
48
1
60
0
100
AcDbMText
10
15.298607
20
-27.086616
30
0
210
0
220
0
230
1
1
\W0.7399;95%%d
40
4.5
41
0
44
1.084337
50
312.65427684
71
7
72
5
7
iso_b_vert
0
LINE
5
14C
100
AcDbEntity
8
2
62
256
6
ByLayer
370
13
48
1
60
0
100
AcDbLine
10
32.20454
20
-17.4125
30
0
11
32.20454
21
-38.902991
31
0
39
0
210
0
220
0
230
1
0
LINE
5
14D
100
AcDbEntity
8
2
62
256
6
ByLayer
370
13
48
1
60
0
100
AcDbLine
10
28.35592
20
-15.164471
30
0
11
8.860331
21
-13.564572
31
0
39
0
210
0
220
0
230
1
0
ARC
5
14E
100
AcDbEntity
8
2
62
256
6
ByLayer
370
13
48
1
60
0
100
AcDbCircle
39
0
10
32.20454
20
-15.480307
30
0
40
21.4226837817216
210
0
220
0
230
1
100
AcDbArc
50
175.308554
51
270
0
LINE
5
14F
100
AcDbEntity
8
2
62
256
6
ByLayer
370
13
48
1
60
0
100
AcDbLine
10
32.20454
20
-36.902991
30
0
11
29.016257
21
-37.203304
31
0
39
0
210
0
220
0
230
1
0
LINE
5
150
100
AcDbEntity
8
2
62
256
6
ByLayer
370
13
48
1
60
0
100
AcDbLine
10
32.20454
20
-36.902991
30
0
11
29.047165
21
-36.367882
31
0
39
0
210
0
220
0
230
1
0
LINE
5
151
100
AcDbEntity
8
2
62
256
6
ByLayer
370
13
48
1
60
0
100
AcDbLine
10
29.016257
20
-37.203304
30
0
11
29.047165
21
-36.367882
31
0
39
0
210
0
220
0
230
1
0
LINE
5
152
100
AcDbEntity
8
2
62
256
6
ByLayer
370
13
48
1
60
0
100
AcDbLine
10
10.85363
20
-13.728152
30
0
11
11.128706
21
-16.918711
31
0
39
0
210
0
220
0
230
1
0
LINE
5
153
100
AcDbEntity
8
2
62
256
6
ByLayer
370
13
48
1
60
0
100
AcDbLine
10
10.85363
20
-13.728152
30
0
11
10.293555
21
-16.881193
31
0
39
0
210
0
220
0
230
1
0
LINE
5
154
100
AcDbEntity
8
2
62
256
6
ByLayer
370
13
48
1
60
0
100
AcDbLine
10
11.128706
20
-16.918711
30
0
11
10.293555
21
-16.881193
31
0
39
0
210
0
220
0
230
1
0
ENDBLK
5
156
100
AcDbEntity
8
0
100
AcDbBlockEnd
0
BLOCK
5
159
100
AcDbEntity
8
0
100
AcDbBlockBegin
2
_CLOSED
70
0
10
0
20
0
30
0
3
_CLOSED
0
LINE
5
15B
100
AcDbEntity
8
0
62
256
6
ByLayer
370
-2
48
1
60
0
100
AcDbLine
10
-1
20
0.166667
30
0
11
0
21
0
31
0
39
0
210
0
220
0
230
1
0
LINE
5
15C
100
AcDbEntity
8
0
62
256
6
ByLayer
370
-2
48
1
60
0
100
AcDbLine
10
0
20
0
30
0
11
-1
21
-0.166667
31
0
39
0
210
0
220
0
230
1
0
LINE
5
15D
100
AcDbEntity
8
0
62
256
6
ByLayer
370
-2
48
1
60
0
100
AcDbLine
10
-1
20
0.166667
30
0
11
-1
21
-0.166667
31
0
39
0
210
0
220
0
230
1
0
LINE
5
15E
100
AcDbEntity
8
0
62
256
6
ByLayer
370
-2
48
1
60
0
100
AcDbLine
10
0
20
0
30
0
11
-1
21
0
31
0
39
0
210
0
220
0
230
1
0
ENDBLK
5
15A
100
AcDbEntity
8
0
100
AcDbBlockEnd
0
BLOCK
5
16A
100
AcDbEntity
8
0
100
AcDbBlockBegin
2
DimnDraft3D3
70
0
10
0
20
0
30
0
3
DimnDraft3D3
0
MTEXT
5
160
100
AcDbEntity
8
2
62
256
6
ByLayer
370
18
48
1
60
0
100
AcDbMText
10
11.945691
20
-42.5375
30
0
210
0
220
0
230
1
1
\W0.7346;32.2
40
4.5
41
0
44
1.084337
50
0
71
7
72
5
7
iso_b_vert
0
LINE
5
161
100
AcDbEntity
8
2
62
256
6
ByLayer
370
13
48
1
60
0
100
AcDbLine
10
0
20
-11.9375
30
0
11
0
21
-45.6625
31
0
39
0
210
0
220
0
230
1
0
LINE
5
162
100
AcDbEntity
8
2
62
256
6
ByLayer
370
13
48
1
60
0
100
AcDbLine
10
32.20454
20
-17.4125
30
0
11
32.20454
21
-45.6625
31
0
39
0
210
0
220
0
230
1
0
LINE
5
163
100
AcDbEntity
8
2
62
256
6
ByLayer
370
13
48
1
60
0
100
AcDbLine
10
0
20
-43.6625
30
0
11
32.20454
21
-43.6625
31
0
39
0
210
0
220
0
230
1
0
LINE
5
164
100
AcDbEntity
8
2
62
256
6
ByLayer
370
13
48
1
60
0
100
AcDbLine
10
0
20
-43.6625
30
0
11
3.174998
21
-43.244503
31
0
39
0
210
0
220
0
230
1
0
LINE
5
165
100
AcDbEntity
8
2
62
256
6
ByLayer
370
13
48
1
60
0
100
AcDbLine
10
0
20
-43.6625
30
0
11
3.175002
21
-44.080497
31
0
39
0
210
0
220
0
230
1
0
LINE
5
166
100
AcDbEntity
8
2
62
256
6
ByLayer
370
13
48
1
60
0
100
AcDbLine
10
3.174998
20
-43.244503
30
0
11
3.175002
21
-44.080497
31
0
39
0
210
0
220
0
230
1
0
LINE
5
167
100
AcDbEntity
8
2
62
256
6
ByLayer
370
13
48
1
60
0
100
AcDbLine
10
32.20454
20
-43.6625
30
0
11
29.029541
21
-44.080497
31
0
39
0
210
0
220
0
230
1
0
LINE
5
168
100
AcDbEntity
8
2
62
256
6
ByLayer
370
13
48
1
60
0
100
AcDbLine
10
32.20454
20
-43.6625
30
0
11
29.029538
21
-43.244503
31
0
39
0
210
0
220
0
230
1
0
LINE
5
169
100
AcDbEntity
8
2
62
256
6
ByLayer
370
13
48
1
60
0
100
AcDbLine
10
29.029541
20
-44.080497
30
0
11
29.029538
21
-43.244503
31
0
39
0
210
0
220
0
230
1
0
ENDBLK
5
16B
100
AcDbEntity
8
0
100
AcDbBlockEnd
0
BLOCK
5
178
100
AcDbEntity
8
0
100
AcDbBlockBegin
2
DimnDraft3D4
70
0
10
0
20
0
30
0
3
DimnDraft3D4
0
MTEXT
5
16E
100
AcDbEntity
8
2
62
256
6
ByLayer
370
18
48
1
60
0
100
AcDbMText
10
53.32954
20
-6.894079
30
0
210
0
220
0
230
1
1
\W0.7346;25.0
40
4.5
41
0
44
1.084337
50
90
71
7
72
5
7
iso_b_vert
0
LINE
5
16F
100
AcDbEntity
8
2
62
256
6
ByLayer
370
13
48
1
60
0
100
AcDbLine
10
2
20
9.9375
30
0
11
56.45454
21
9.9375
31
0
39
0
210
0
220
0
230
1
0
LINE
5
170
100
AcDbEntity
8
2
62
256
6
ByLayer
370
13
48
1
60
0
100
AcDbLine
10
34.20454
20
-15.4125
30
0
11
56.45454
21
-15.4125
31
0
39
0
210
0
220
0
230
1
0
LINE
5
171
100
AcDbEntity
8
2
62
256
6
ByLayer
370
13
48
1
60
0
100
AcDbLine
10
54.45454
20
9.9375
30
0
11
54.45454
21
-15.4125
31
0
39
0
210
0
220
0
230
1
0
LINE
5
172
100
AcDbEntity
8
2
62
256
6
ByLayer
370
13
48
1
60
0
100
AcDbLine
10
54.45454
20
9.9375
30
0
11
54.872536
21
6.762502
31
0
39
0
210
0
220
0
230
1
0
LINE
5
173
100
AcDbEntity
8
2
62
256
6
ByLayer
370
13
48
1
60
0
100
AcDbLine
10
54.45454
20
9.9375
30
0
11
54.036543
21
6.762498
31
0
39
0
210
0
220
0
230
1
0
LINE
5
174
100
AcDbEntity
8
2
62
256
6
ByLayer
370
13
48
1
60
0
100
AcDbLine
10
54.872536
20
6.762502
30
0
11
54.036543
21
6.762498
31
0
39
0
210
0
220
0
230
1
0
LINE
5
175
100
AcDbEntity
8
2
62
256
6
ByLayer
370
13
48
1
60
0
100
AcDbLine
10
54.45454
20
-15.4125
30
0
11
54.036543
21
-12.237502
31
0
39
0
210
0
220
0
230
1
0
LINE
5
176
100
AcDbEntity
8
2
62
256
6
ByLayer
370
13
48
1
60
0
100
AcDbLine
10
54.45454
20
-15.4125
30
0
11
54.872536
21
-12.237498
31
0
39
0
210
0
220
0
230
1
0
LINE
5
177
100
AcDbEntity
8
2
62
256
6
ByLayer
370
13
48
1
60
0
100
AcDbLine
10
54.036543
20
-12.237502
30
0
11
54.872536
21
-12.237498
31
0
39
0
210
0
220
0
230
1
0
ENDBLK
5
179
100
AcDbEntity
8
0
100
AcDbBlockEnd
0
BLOCK
5
186
100
AcDbEntity
8
0
100
AcDbBlockBegin
2
DimnDraft3D5
70
0
10
0
20
0
30
0
3
DimnDraft3D5
0
MTEXT
5
17C
100
AcDbEntity
8
SK2
62
256
6
ByLayer
370
18
48
1
60
0
100
AcDbMText
10
-103.02046
20
-4.156579
30
0
210
0
220
0
230
1
1
\W0.7346;20.0
40
4.5
41
0
44
1.084337
50
90
71
7
72
5
7
iso_b_vert
0
LINE
5
17D
100
AcDbEntity
8
SK2
62
256
6
ByLayer
370
13
48
1
60
0
100
AcDbLine
10
-96.14546
20
9.9375
30
0
11
-103.89546
21
9.9375
31
0
39
0
210
0
220
0
230
1
0
LINE
5
17E
100
AcDbEntity
8
SK2
62
256
6
ByLayer
370
13
48
1
60
0
100
AcDbLine
10
-96.14546
20
-9.9375
30
0
11
-103.89546
21
-9.9375
31
0
39
0
210
0
220
0
230
1
0
LINE
5
17F
100
AcDbEntity
8
SK2
62
256
6
ByLayer
370
13
48
1
60
0
100
AcDbLine
10
-101.89546
20
21.1875
30
0
11
-101.89546
21
-21.1875
31
0
39
0
210
0
220
0
230
1
0
LINE
5
180
100
AcDbEntity
8
SK2
62
256
6
ByLayer
370
13
48
1
60
0
100
AcDbLine
10
-101.89546
20
9.9375
30
0
11
-102.313457
21
13.112498
31
0
39
0
210
0
220
0
230
1
0
LINE
5
181
100
AcDbEntity
8
SK2
62
256
6
ByLayer
370
13
48
1
60
0
100
AcDbLine
10
-101.89546
20
9.9375
30
0
11
-101.477464
21
13.112502
31
0
39
0
210
0
220
0
230
1
0
LINE
5
182
100
AcDbEntity
8
SK2
62
256
6
ByLayer
370
13
48
1
60
0
100
AcDbLine
10
-102.313457
20
13.112498
30
0
11
-101.477464
21
13.112502
31
0
39
0
210
0
220
0
230
1
0
LINE
5
183
100
AcDbEntity
8
SK2
62
256
6
ByLayer
370
13
48
1
60
0
100
AcDbLine
10
-101.89546
20
-9.9375
30
0
11
-101.477464
21
-13.112498
31
0
39
0
210
0
220
0
230
1
0
LINE
5
184
100
AcDbEntity
8
SK2
62
256
6
ByLayer
370
13
48
1
60
0
100
AcDbLine
10
-101.89546
20
-9.9375
30
0
11
-102.313457
21
-13.112502
31
0
39
0
210
0
220
0
230
1
0
LINE
5
185
100
AcDbEntity
8
SK2
62
256
6
ByLayer
370
13
48
1
60
0
100
AcDbLine
10
-101.477464
20
-13.112498
30
0
11
-102.313457
21
-13.112502
31
0
39
0
210
0
220
0
230
1
0
ENDBLK
5
187
100
AcDbEntity
8
0
100
AcDbBlockEnd
0
ENDSEC
0
SECTION
2
ENTITIES
0
ELLIPSE
5
CD
100
AcDbEntity
8
1
62
256
6
ByLayer
370
18
48
1
60
0
100
AcDbEllipse
10
6.105451
20
-2.112156
30
0
11
2.0817652655485
21
2.16015123988015
31
0
210
0
220
0
230
1
40
0.986455
41
0.06071885073146
42
0.156280282981022
0
ELLIPSE
5
CE
100
AcDbEntity
8
1
62
256
6
ByLayer
370
18
48
1
60
0
100
AcDbEllipse
10
12.859466
20
0.005005
30
0
11
-1.80419656347537
21
-1.8721310745628
31
0
210
0
220
0
230
1
40
0.986455
41
-1.5214284923881
42
-1.31064727455768
0
ELLIPSE
5
CF
100
AcDbEntity
8
1
62
256
6
ByLayer
370
18
48
1
60
0
100
AcDbEllipse
10
14.584014
20
-1.196545
30
0
11
-2.87977528400877
21
-2.98820921516754
31
0
210
0
220
0
230
1
40
0.986455
41
0.156280282981023
42
3.08915345241595
0
ELLIPSE
5
D0
100
AcDbEntity
8
1
62
256
6
ByLayer
370
18
48
1
60
0
100
AcDbEllipse
10
14.202323
20
0.363917
30
0
11
-0.268700576851505
21
-0.268700576850271
31
0
210
0
220
0
230
1
40
0.989133
41
2.422253409795
42
2.82335423483984
0
ELLIPSE
5
D1
100
AcDbEntity
8
1
62
256
6
ByLayer
370
18
48
1
60
0
100
AcDbEllipse
10
12.952626
20
-1.413793
30
0
11
-0.268700576851505
21
-0.268700576850271
31
0
210
0
220
0
230
1
40
0.989133
41
0.318251980072659
42
1.0684050941936
0
ELLIPSE
5
D2
100
AcDbEntity
8
1
62
256
6
ByLayer
370
18
48
1
60
0
100
AcDbEllipse
10
15.001492
20
0.421132
30
0
11
0.300520382004968
21
0.300520382003597
31
0
210
0
220
0
230
1
40
0.989133
41
2.42225340979502
42
-3.14158919864639
0
ELLIPSE
5
D3
100
AcDbEntity
8
1
62
256
6
ByLayer
370
18
48
1
60
0
100
AcDbEllipse
10
13.171996
20
-2.181348
30
0
11
0.300520382004968
21
0.300520382003597
31
0
210
0
220
0
230
1
40
0.989133
41
3.51676185090123E-06
42
1.06840509419359
0
ELLIPSE
5
D4
100
AcDbEntity
8
1
62
256
6
ByLayer
370
18
48
1
60
0
100
AcDbEllipse
10
15.220862
20
-0.346424
30
0
11
-0.268700576851505
21
-0.268700576850271
31
0
210
0
220
0
230
1
40
0.989133
41
1.37505585859841
42
2.82331226018578
0
ELLIPSE
5
D5
100
AcDbEntity
8
1
62
256
6
ByLayer
370
18
48
1
60
0
100
AcDbEllipse
10
13.971165
20
-2.124134
30
0
11
-0.268700576851505
21
-0.268700576850271
31
0
210
0
220
0
230
1
40
0.989133
41
0.318294813050735
42
2.11560264539024
0
ELLIPSE
5
D6
100
AcDbEntity
8
1
62
256
6
ByLayer
370
18
48
1
60
0
100
AcDbEllipse
10
15.662436
20
-1.009417
30
0
11
0.300520382004968
21
0.300520382003597
31
0
210
0
220
0
230
1
40
0.989133
41
1.37505585859843
42
3.14157045834449
0
ELLIPSE
5
D7
100
AcDbEntity
8
1
62
256
6
ByLayer
370
18
48
1
60
0
100
AcDbEllipse
10
14.003575
20
-0.796939
30
0
11
2.82842712475264
21
2.82842712473974
31
0
210
0
220
0
230
1
40
0.989133
41
0.790861385157302
42
3.14158710851734
0
ELLIPSE
5
D8
100
AcDbEntity
8
1
62
256
6
ByLayer
370
18
48
1
60
0
100
AcDbEllipse
10
14.003575
20
-0.796939
30
0
11
2.82842712475264
21
2.82842712473974
31
0
210
0
220
0
230
1
40
0.989133
41
9.253596723859E-05
42
0.790861385157302
0
ELLIPSE
5
D9
100
AcDbEntity
8
1
62
256
6
ByLayer
370
18
48
1
60
0
100
AcDbEllipse
10
15.105283
20
-1.59045
30
0
11
-0.268700576851505
21
-0.268700576850271
31
0
210
0
220
0
230
1
40
0.989133
41
0.327858307401814
42
3.110708474309
0
ELLIPSE
5
DA
100
AcDbEntity
8
1
62
256
6
ByLayer
370
18
48
1
60
0
100
AcDbEllipse
10
14.086744
20
-0.880108
30
0
11
0.813172798366384
21
0.813172798362675
31
0
210
0
220
0
230
1
40
0.989133
41
0.790861625576225
42
0.871688112982223
0
ELLIPSE
5
DB
100
AcDbEntity
8
1
62
256
6
ByLayer
370
18
48
1
60
0
100
AcDbEllipse
10
14.086744
20
-0.880108
30
0
11
0.813172798366384
21
0.813172798362675
31
0
210
0
220
0
230
1
40
0.989133
41
1.45435576396992
42
2.11742837457521
0
ELLIPSE
5
DC
100
AcDbEntity
8
1
62
256
6
ByLayer
370
18
48
1
60
0
100
AcDbEllipse
10
14.086744
20
-0.880108
30
0
11
0.813172798366384
21
0.813172798362675
31
0
210
0
220
0
230
1
40
0.989133
41
2.63657603519379
42
-0.0349562380655723
0
ELLIPSE
5
DD
100
AcDbEntity
8
1
62
256
6
ByLayer
370
18
48
1
60
0
100
AcDbEllipse
10
14.086744
20
-0.880108
30
0
11
0.813172798366384
21
0.813172798362675
31
0
210
0
220
0
230
1
40
0.989133
41
0.118491029831418
42
0.790860751325611
0
ELLIPSE
5
DE
100
AcDbEntity
8
1
62
256
6
ByLayer
370
18
48
1
60
0
100
AcDbEllipse
10
14.034763
20
-0.828127
30
0
11
0.813172798366384
21
0.813172798362675
31
0
210
0
220
0
230
1
40
0.989133
41
-3.10929842613464
42
-0.0826684831739087
0
ELLIPSE
5
DF
100
AcDbEntity
8
1
62
256
6
ByLayer
370
18
48
1
60
0
100
AcDbEllipse
10
25.369289
20
-8.577249
30
0
11
1.82433549546545
21
1.82433549545713
31
0
210
0
220
0
230
1
40
0.989133
41
-2.72622083734395
42
-0.0600886318006889
0
ELLIPSE
5
E0
100
AcDbEntity
8
1
62
256
6
ByLayer
370
18
48
1
60
0
100
AcDbEllipse
10
30.002966
20
-2.953857
30
0
11
0.561442784263399
21
0.561442784260839
31
0
210
0
220
0
230
1
40
0.989133
41
0
42
0.0842559465161923
0
ELLIPSE
5
E1
100
AcDbEntity
8
1
62
256
6
ByLayer
370
18
48
1
60
0
100
AcDbEllipse
10
19.745897
20
-13.210926
30
0
11
0.561442784263399
21
0.561442784260839
31
0
210
0
220
0
230
1
40
0.989133
41
3.05733658062984
42
3.14159259036296
0
ELLIPSE
5
E2
100
AcDbEntity
8
1
62
256
6
ByLayer
370
18
48
1
60
0
100
AcDbEllipse
10
30.497823
20
-3.448714
30
0
11
-0.561442784263408
21
-0.56144278426083
31
0
210
0
220
0
230
1
40
0.989133
41
2.44346095279204
42
-2.44346095279207
0
ELLIPSE
5
E3
100
AcDbEntity
8
1
62
256
6
ByLayer
370
18
48
1
60
0
100
AcDbEllipse
10
31.414819
20
-14.622779
30
0
11
-0.561442784263408
21
-0.56144278426083
31
0
210
0
220
0
230
1
40
0.989133
41
0.698131700797748
42
2.44346095279206
0
ELLIPSE
5
E4
100
AcDbEntity
8
1
62
256
6
ByLayer
370
18
48
1
60
0
100
AcDbEllipse
10
20.240754
20
-13.705783
30
0
11
-0.561442784263408
21
-0.56144278426083
31
0
210
0
220
0
230
1
40
0.989133
41
-0.698131700797738
42
0.698131700797752
0
ELLIPSE
5
E5
100
AcDbEntity
8
1
62
256
6
ByLayer
370
18
48
1
60
0
100
AcDbEllipse
10
13.530506
20
4.520062
30
0
11
-1.23592287958983
21
4.14806483913453
31
0
210
0
220
0
230
1
40
0.51148
41
-0.57118923701273
42
-0.211573503653318
0
ELLIPSE
5
E6
100
AcDbEntity
8
1
62
256
6
ByLayer
370
18
48
1
60
0
100
AcDbEllipse
10
8.746265
20
-2.879251
30
0
11
-4.61457382206203
21
2.99901093282279
31
0
210
0
220
0
230
1
40
0.211917
41
-0.615012586968295
42
-0.562020285111366
0
ELLIPSE
5
E7
100
AcDbEntity
8
1
62
256
6
ByLayer
370
18
48
1
60
0
100
AcDbEllipse
10
14.260394
20
4.964667
30
0
11
-4.38100392071114
21
3.33108974734351
31
0
210
0
220
0
230
1
40
0.262905
41
0.564127384700356
42
0.617119688009847
0
ELLIPSE
5
E8
100
AcDbEntity
8
1
62
256
6
ByLayer
370
18
48
1
60
0
100
AcDbEllipse
10
11.541054
20
6.094106
30
0
11
1.84475298056335
21
0.772584261231507
31
0
210
0
220
0
230
1
40
0.769512
41
0.624391847984232
42
2.03706734224384
0
ELLIPSE
5
E9
100
AcDbEntity
8
1
62
256
6
ByLayer
370
18
48
1
60
0
100
AcDbEllipse
10
10.008561
20
-1.083618
30
0
11
4.49946397613839
21
-3.16304029810448
31
0
210
0
220
0
230
1
40
0.02553
41
-2.41393807250874
42
-1.97217033322269
0
ELLIPSE
5
EA
100
AcDbEntity
8
1
62
256
6
ByLayer
370
18
48
1
60
0
100
AcDbEllipse
10
6.704298
20
-0.786238
30
0
11
0.210927185793126
21
1.98884632948184
31
0
210
0
220
0
230
1
40
0.785865
41
1.17445271745099
42
2.5871282117106
0
ELLIPSE
5
EB
100
AcDbEntity
8
1
62
256
6
ByLayer
370
18
48
1
60
0
100
AcDbEllipse
10
9.224794
20
11.359726
30
0
11
5.72659051508523
21
-4.02568765213298
31
0
210
0
220
0
230
1
40
0.02553
41
0.808573903783149
42
0.823354940523153
0
ELLIPSE
5
EC
100
AcDbEntity
8
1
62
256
6
ByLayer
370
18
48
1
60
0
100
AcDbEllipse
10
6.331611
20
-0.330883
30
0
11
-2.64176164561576
21
-1.42549993606843
31
0
210
0
220
0
230
1
40
0.99535
41
-1.10568333550256
42
-0.0539942724391826
0
ELLIPSE
5
ED
100
AcDbEntity
8
1
62
256
6
ByLayer
370
18
48
1
60
0
100
AcDbEllipse
10
7.744056
20
-4.482862
30
0
11
-2.98777498564679
21
1.83435464435083
31
0
210
0
220
0
230
1
40
0.346844
41
-0.628857654663233
42
0.0943604517376683
0
ELLIPSE
5
EE
100
AcDbEntity
8
1
62
256
6
ByLayer
370
18
48
1
60
0
100
AcDbEllipse
10
12.998097
20
3.169034
30
0
11
4.49946397613839
21
-3.16304029810448
31
0
210
0
220
0
230
1
40
0.02553
41
-2.41393807250874
42
-1.9721703332227
0
ELLIPSE
5
EF
100
AcDbEntity
8
1
62
256
6
ByLayer
370
18
48
1
60
0
100
AcDbEllipse
10
11.160861
20
6.538786
30
0
11
-2.64176164548646
21
-1.42549993629819
31
0
210
0
220
0
230
1
40
0.99535
41
-2.15737239865524
42
-1.10568333559078
0
ELLIPSE
5
F0
100
AcDbEntity
8
1
62
256
6
ByLayer
370
18
48
1
60
0
100
AcDbEllipse
10
15.409522
20
6.421359
30
0
11
-2.73155517433298
21
2.19821380472624
31
0
210
0
220
0
230
1
40
0.397671
41
-0.090085166382388
42
0.633132940018566
0
ELLIPSE
5
F1
100
AcDbEntity
8
1
62
256
6
ByLayer
370
18
48
1
60
0
100
AcDbEllipse
10
25.767013
20
-8.94796
30
0
11
-0.701994003636962
21
-2.17713231394443
31
0
210
0
220
0
230
1
40
0.799417
41
1.35658630731897
42
2.21179764079225
0
ELLIPSE
5
F2
100
AcDbEntity
8
1
62
256
6
ByLayer
370
18
48
1
60
0
100
AcDbEllipse
10
25.767013
20
-8.94796
30
0
11
-1.96901555077286
21
-1.05721853420148
31
0
210
0
220
0
230
1
40
0.792316
41
1.12445504087271
42
1.97966637435046
0
ELLIPSE
5
F3
100
AcDbEntity
8
1
62
256
6
ByLayer
370
18
48
1
60
0
100
AcDbEllipse
10
8.701256
20
-2.349607
30
0
11
-4.14474739212893
21
0.189995049961006
31
0
210
0
220
0
230
1
40
0.485394
41
0.295792313713777
42
0.655408047056072
0
ELLIPSE
5
F4
100
AcDbEntity
8
1
62
256
6
ByLayer
370
18
48
1
60
0
100
AcDbEllipse
10
14.747688
20
-2.310657
30
0
11
0.300520382004968
21
0.300520382003597
31
0
210
0
220
0
230
1
40
0.989133
41
0.327858307401835
42
2.11560264539016
0
ELLIPSE
5
F5
100
AcDbEntity
8
1
62
256
6
ByLayer
370
18
48
1
60
0
100
AcDbEllipse
10
14.914027
20
-2.476996
30
0
11
0.300520382004968
21
0.300520382003597
31
0
210
0
220
0
230
1
40
0.989133
41
0.327858307401879
42
2.1156026453902
0
ELLIPSE
5
F6
100
AcDbEntity
8
1
62
256
6
ByLayer
370
18
48
1
60
0
100
AcDbEllipse
10
13.338335
20
-2.347687
30
0
11
0.300520382004968
21
0.300520382003597
31
0
210
0
220
0
230
1
40
0.989133
41
-0.719339243794748
42
1.06840509419358
0
ELLIPSE
5
F7
100
AcDbEntity
8
1
62
256
6
ByLayer
370
18
48
1
60
0
100
AcDbEllipse
10
14.253083
20
-1.046447
30
0
11
-1.62634559673279
21
-1.62634559672533
31
0
210
0
220
0
230
1
40
0.989133
41
0
42
6.28318530717959
0
ELLIPSE
5
F8
100
AcDbEntity
8
1
62
256
6
ByLayer
370
18
48
1
60
0
100
AcDbEllipse
10
13.592139
20
0.384102
30
0
11
0.300520382004968
21
0.300520382003597
31
0
210
0
220
0
230
1
40
0.989133
41
-2.813734346188
42
-1.0259900081996
0
ELLIPSE
5
F9
100
AcDbEntity
8
1
62
256
6
ByLayer
370
18
48
1
60
0
100
AcDbEllipse
10
15.828775
20
-1.175756
30
0
11
0.300520382004968
21
0.300520382003597
31
0
210
0
220
0
230
1
40
0.989133
41
1.37505585859843
42
-3.12038511059273
0
ELLIPSE
5
FA
100
AcDbEntity
8
1
62
256
6
ByLayer
370
18
48
1
60
0
100
AcDbEllipse
10
15.271622
20
-1.756788
30
0
11
-0.268700576851505
21
-0.268700576850271
31
0
210
0
220
0
230
1
40
0.989133
41
0.327858307401779
42
-3.12038511059275
0
ELLIPSE
5
FB
100
AcDbEntity
8
1
62
256
6
ByLayer
370
18
48
1
60
0
100
AcDbEllipse
10
14.176771
20
-0.970135
30
0
11
-2.82842712475268
21
-2.8284271247397
31
0
210
0
220
0
230
1
40
0.989133
41
0
42
6.28318530717959
0
ELLIPSE
5
FC
100
AcDbEntity
8
1
62
256
6
ByLayer
370
18
48
1
60
0
100
AcDbEllipse
10
14.137504
20
-2.290472
30
0
11
-0.268700576851505
21
-0.268700576850271
31
0
210
0
220
0
230
1
40
0.989133
41
-0.719339243794795
42
2.11560264539024
0
ELLIPSE
5
FD
100
AcDbEntity
8
1
62
256
6
ByLayer
370
18
48
1
60
0
100
AcDbEllipse
10
15.387201
20
-0.512763
30
0
11
-0.268700576851505
21
-0.268700576850271
31
0
210
0
220
0
230
1
40
0.989133
41
1.37505585859845
42
-2.07318755939611
0
ELLIPSE
5
FE
100
AcDbEntity
8
1
62
256
6
ByLayer
370
18
48
1
60
0
100
AcDbEllipse
10
14.368662
20
0.197579
30
0
11
-0.268700576851505
21
-0.268700576850271
31
0
210
0
220
0
230
1
40
0.989133
41
2.42225340979498
42
-1.02599000819952
0
ELLIPSE
5
FF
100
AcDbEntity
8
1
62
256
6
ByLayer
370
18
48
1
60
0
100
AcDbEllipse
10
13.118965
20
-1.580131
30
0
11
-0.268700576851505
21
-0.268700576850271
31
0
210
0
220
0
230
1
40
0.989133
41
-1.76653679499133
42
1.06840509419355
0
ELLIPSE
5
100
100
AcDbEntity
8
1
62
256
6
ByLayer
370
18
48
1
60
0
100
AcDbEllipse
10
13.234544
20
-0.336106
30
0
11
-0.268700576851505
21
-0.268700576850271
31
0
210
0
220
0
230
1
40
0.989133
41
-2.81373434618798
42
0.0212075429970031
0
ELLIPSE
5
101
100
AcDbEntity
8
1
62
256
6
ByLayer
370
18
48
1
60
0
100
AcDbEllipse
10
15.167831
20
0.254793
30
0
11
0.300520382004968
21
0.300520382003597
31
0
210
0
220
0
230
1
40
0.989133
41
2.42225340979504
42
-2.07318755939624
0
ELLIPSE
5
102
100
AcDbEntity
8
1
62
256
6
ByLayer
370
18
48
1
60
0
100
AcDbEllipse
10
12.677391
20
-0.917138
30
0
11
0.300520382004968
21
0.300520382003597
31
0
210
0
220
0
230
1
40
0.989133
41
-1.76653679499134
42
0.021207542997068
0
ELLIPSE
5
103
100
AcDbEntity
8
1
62
256
6
ByLayer
370
18
48
1
60
0
100
AcDbEllipse
10
1.530472
20
-3.3766
30
0
11
-0.618768166579774
21
-1.85497269604776
31
0
210
0
220
0
230
1
40
0.304658
41
-0.921774199096744
42
0.64902212769848
0
ELLIPSE
5
104
100
AcDbEntity
8
1
62
256
6
ByLayer
370
18
48
1
60
0
100
AcDbEllipse
10
10.896009
20
9.945993
30
0
11
-0.977941403852904
21
-7.1445466712121E-05
31
0
210
0
220
0
230
1
40
0.003571
41
1.42293688074543
42
2.99373320754002
0
POINT
5
6C
100
AcDbEntity
8
2
62
256
6
ByLayer
370
18
48
1
60
0
100
AcDbPoint
10
32.20454
20
35.2875
30
0
39
0
210
0
220
0
230
1
50
360
0
POINT
5
6E
100
AcDbEntity
8
80
62
256
6
ByLayer
370
18
48
1
60
0
100
AcDbPoint
10
0
20
0
30
0
39
0
210
0
220
0
230
1
50
360
0
POINT
5
70
100
AcDbEntity
8
81
62
256
6
ByLayer
370
18
48
1
60
0
100
AcDbPoint
10
32.20454
20
-15.4125
30
0
39
0
210
0
220
0
230
1
50
360
0
SPLINE
5
105
100
AcDbEntity
8
1
62
256
6
ByLayer
370
18
48
1
60
0
100
AcDbSpline
70
4
71
2
72
6
73
3
40
0
40
0
40
0
40
1
40
1
40
1
41
1
10
11.1230826738789
20
1.96271267817298
30
0
41
1
10
11.2890294365453
20
2.11222841354848
30
0
41
1
10
11.4680871349049
20
2.23287678102434
30
0
0
SPLINE
5
106
100
AcDbEntity
8
1
62
256
6
ByLayer
370
18
48
1
60
0
100
AcDbSpline
70
4
71
3
72
11
73
7
40
0
40
0
40
0
40
0
40
0.561302936805725
40
0.561302936805725
40
0.561302936805725
40
1
40
1
40
1
40
1
41
1
10
4.61459133985619
20
-2.80915743164454
30
0
41
1
10
4.41157894397483
20
-2.63688223458345
30
0
41
1
10
4.20883303257551
20
-2.43853061651305
30
0
41
1
10
4.02186687008938
20
-2.21031542946301
30
0
41
1
10
3.87455069887358
20
-2.03049793135287
30
0
41
1
10
3.73578134114706
20
-1.83016250197576
30
0
41
1
10
3.61712532582499
20
-1.61239734052529
30
0
0
SPLINE
5
107
100
AcDbEntity
8
1
62
256
6
ByLayer
370
18
48
1
60
0
100
AcDbSpline
70
4
71
3
72
12
73
8
40
0
40
0
40
0
40
0
40
0.466938972358623
40
0.466938972358623
40
0.928803236876556
40
0.928803236876556
40
1
40
1
40
1
40
1
41
1
10
9.34856902653104
20
-1.41459968243203
30
0
41
1
10
9.29243745666565
20
-1.25289241262536
30
0
41
1
10
9.2115615242127
20
-1.08628322367395
30
0
41
1
10
9.02090270999764
20
-0.778887812992735
30
0
41
1
10
8.90928877929065
20
-0.633405875660628
30
0
41
1
10
8.77336004459801
20
-0.481884560962015
30
0
41
1
10
8.75486039881952
20
-0.461758921488553
30
0
41
1
10
8.73620869007277
20
-0.441933573266681
30
0
0
SPLINE
5
108
100
AcDbEntity
8
1
62
256
6
ByLayer
370
18
48
1
60
0
100
AcDbSpline
70
4
71
2
72
6
73
3
40
0
40
0
40
0
40
1
40
1
40
1
41
1
10
22.6689300624146
20
-11.1580997107999
30
0
41
1
10
21.67128118478
20
-11.1704966903281
30
0
41
1
10
20.6619346499452
20
-11.0834042687445
30
0
0
SPLINE
5
109
100
AcDbEntity
8
1
62
256
6
ByLayer
370
18
48
1
60
0
100
AcDbSpline
70
4
71
3
72
8
73
4
40
0
40
0
40
0
40
0
40
1
40
1
40
1
40
1
41
1
10
13.3115089519425
20
-5.31907607252947
30
0
41
1
10
13.0460581276003
20
-5.20295006578988
30
0
41
1
10
12.7961995863477
20
-5.06393018224165
30
0
41
1
10
12.5628187834344
20
-4.90116756521817
30
0
0
SPLINE
5
10A
100
AcDbEntity
8
1
62
256
6
ByLayer
370
18
48
1
60
0
100
AcDbSpline
70
4
71
3
72
12
73
8
40
0
40
0
40
0
40
0
40
0.108853988607131
40
0.502629237162305
40
0.699516861439892
40
0.896404485717479
40
1
40
1
40
1
40
1
41
1.02441262532206
10
18.9955614696444
20
-2.87842683024853
30
0
41
1.02394775682001
10
19.2574228955303
20
-3.09323487298495
30
0
41
1.02173322384668
10
20.4931835400796
20
-4.11390231018322
30
0
41
1.01876555595691
10
22.2082359657598
20
-5.57114695270429
30
0
41
1.01610930227499
10
23.3424341805172
20
-6.56195364598505
30
0
41
1.01814069306376
10
23.9205125389207
20
-6.94364080636029
30
0
41
1.02005196006971
10
24.4240936845321
20
-7.29804520324121
30
0
41
1.02076673234773
10
24.60684890903
20
-7.42932525961379
30
0
0
SPLINE
5
10B
100
AcDbEntity
8
1
62
256
6
ByLayer
370
18
48
1
60
0
100
AcDbSpline
70
4
71
3
72
8
73
4
40
0
40
0
40
0
40
0
40
1
40
1
40
1
40
1
41
1
10
26.8775535527512
20
-5.17139177124852
30
0
41
1
10
26.9808250117999
20
-5.56843996802678
30
0
41
1
10
27.0832297605078
20
-5.96731728890632
30
0
41
1
10
27.1842155093769
20
-6.36594344220782
30
0
0
SPLINE
5
10C
100
AcDbEntity
8
1
62
256
6
ByLayer
370
18
48
1
60
0
100
AcDbSpline
70
4
71
3
72
8
73
4
40
0
40
0
40
0
40
0
40
1
40
1
40
1
40
1
41
1
10
11.8970441499657
20
-6.71028690659466
30
0
41
1
10
12.221459217976
20
-6.50326565843105
30
0
41
1
10
12.726179554786
20
-6.00684299047796
30
0
41
1
10
13.3115089659132
20
-5.31907607864116
30
0
0
SPLINE
5
10D
100
AcDbEntity
8
1
62
256
6
ByLayer
370
18
48
1
60
0
100
AcDbSpline
70
4
71
2
72
6
73
3
40
0
40
0
40
0
40
1
40
1
40
1
41
1
10
26.1205968940902
20
-3.31838984453265
30
0
41
1
10
26.5481931092473
20
-4.23363642759489
30
0
41
1
10
26.8775362146113
20
-5.17127159720647
30
0
0
SPLINE
5
10E
100
AcDbEntity
8
1
62
256
6
ByLayer
370
18
48
1
60
0
100
AcDbSpline
70
4
71
3
72
10
73
6
40
0
40
0
40
0
40
0
40
0.5
40
0.5
40
1
40
1
40
1
40
1
41
1
10
10.9445518628287
20
-7.31810744760313
30
0
41
1
10
12.044104060174
20
-8.06955618727059
30
0
41
1
10
13.2321049923445
20
-8.62852799633077
30
0
41
1
10
15.6710132502949
20
-9.60957842336734
30
0
41
1
10
16.9490625678911
20
-9.98926061723355
30
0
41
1
10
18.2455672554881
20
-10.263753941966
30
0
0
SPLINE
5
10F
100
AcDbEntity
8
1
62
256
6
ByLayer
370
18
48
1
60
0
100
AcDbSpline
70
4
71
3
72
8
73
4
40
0
40
0
40
0
40
0
40
1
40
1
40
1
40
1
41
1
10
26.1207404927952
20
-3.31826340392496
30
0
41
1
10
26.0469941407165
20
-3.24438585227077
30
0
41
1
10
25.9716739953454
20
-3.17222999216051
30
0
41
1
10
25.8947126853019
20
-3.10203494228148
30
0
0
SPLINE
5
110
100
AcDbEntity
8
1
62
256
6
ByLayer
370
18
48
1
60
0
100
AcDbSpline
70
4
71
3
72
10
73
6
40
0
40
0
40
0
40
0
40
0.655488757716277
40
0.655488757716277
40
1
40
1
40
1
40
1
41
1
10
13.1929068015535
20
8.73043612785708
30
0
41
1
10
12.8947471188945
20
8.95075690901683
30
0
41
1
10
12.5390381916945
20
9.16682661921621
30
0
41
1
10
11.9155941186765
20
9.40798586528109
30
0
41
1
10
11.6835543420764
20
9.47564296930997
30
0
41
1
10
11.4414164164398
20
9.51775358487996
30
0
0
SPLINE
5
111
100
AcDbEntity
8
1
62
256
6
ByLayer
370
18
48
1
60
0
100
AcDbSpline
70
4
71
3
72
10
73
6
40
0
40
0
40
0
40
0
40
0.5
40
0.5
40
1
40
1
40
1
40
1
41
1
10
23.8952392891596
20
-11.0445528256853
30
0
41
1
10
23.1625927166749
20
-10.9543101510476
30
0
41
1
10
22.6984813214395
20
-10.6333129039177
30
0
41
1
10
22.2238695404026
20
-9.8722236519281
30
0
41
1
10
22.1715433828556
20
-9.4269799975641
30
0
41
1
10
22.1851820546299
20
-8.97248440252787
30
0
0
SPLINE
5
112
100
AcDbEntity
8
1
62
256
6
ByLayer
370
18
48
1
60
0
100
AcDbSpline
70
4
71
3
72
8
73
4
40
0
40
0
40
0
40
0
40
1
40
1
40
1
40
1
41
1
10
25.4457890968533
20
-10.8413087563458
30
0
41
1
10
25.3605578510306
20
-10.847561876181
30
0
41
1
10
25.2769949948905
20
-10.8498904042928
30
0
41
1
10
25.1965529625381
20
-10.8484096158298
30
0
0
SPLINE
5
113
100
AcDbEntity
8
1
62
256
6
ByLayer
370
18
48
1
60
0
100
AcDbSpline
70
4
71
3
72
20
73
16
40
0
40
0
40
0
40
0
40
0.110576036200127
40
0.110576036200127
40
0.197179369122804
40
0.197179369122804
40
0.284291117387366
40
0.284291117387366
40
0.365904217918084
40
0.365904217918084
40
0.497270233392087
40
0.497270233392087
40
0.73349636482673
40
0.73349636482673
40
1
40
1
40
1
40
1
41
1
10
22.185182054631
20
-8.97248440252855
30
0
41
1
10
22.186392378613
20
-8.93202926372726
30
0
41
1
10
22.1970626410433
20
-8.88898239200358
30
0
41
1
10
22.2403966900272
20
-8.81144694148159
30
0
41
1
10
22.2684889776087
20
-8.7764133573192
30
0
41
1
10
22.3422723944961
20
-8.70989699697532
30
0
41
1
10
22.3890911303915
20
-8.67763118128468
30
0
41
1
10
22.4899693495985
20
-8.62260970350187
30
0
41
1
10
22.5443897871415
20
-8.59870390563913
30
0
41
1
10
22.689609388051
20
-8.5455368765812
30
0
41
1
10
22.7847741336516
20
-8.52066811505864
30
0
41
1
10
23.0448612311197
20
-8.46855013703146
30
0
41
1
10
23.2109272240324
20
-8.45291388814826
30
0
41
1
10
23.5492532853828
20
-8.43696130688025
30
0
41
1
10
23.7231197427393
20
-8.43911188085951
30
0
41
1
10
23.8915019481111
20
-8.44691516609845
30
0
0
SPLINE
5
114
100
AcDbEntity
8
1
62
256
6
ByLayer
370
18
48
1
60
0
100
AcDbSpline
70
4
71
3
72
12
73
8
40
0
40
0
40
0
40
0
40
0.286978363858296
40
0.286978363858296
40
0.569998995185618
40
0.569998995185618
40
1
40
1
40
1
40
1
41
1
10
17.6084128842531
20
-4.85166286307887
30
0
41
1
10
17.7908512873075
20
-4.7054235542677
30
0
41
1
10
17.9621351323067
20
-4.5435045577218
30
0
41
1
10
18.2731668018583
20
-4.19769862900432
30
0
41
1
10
18.414385458367
20
-4.01295875087905
30
0
41
1
10
18.7287129617486
20
-3.52565048346793
30
0
41
1
10
18.8832271288118
20
-3.20721782233963
30
0
41
1
10
18.9955614696444
20
-2.87842683024849
30
0
0
SPLINE
5
115
100
AcDbEntity
8
1
62
256
6
ByLayer
370
18
48
1
60
0
100
AcDbSpline
70
4
71
3
72
12
73
8
40
0
40
0
40
0
40
0
40
0.108854002841678
40
0.502629245107338
40
0.699516866240167
40
0.896404487372997
40
1
40
1
40
1
40
1
41
1.0244126255267
10
17.6084127550594
20
-4.85166278841698
30
0
41
1.02394775696077
10
17.9020061969657
20
-5.02133172779376
30
0
41
1.02173322391444
10
19.2951829646309
20
-5.8180728688571
30
0
41
1.01876555595691
10
21.2763176445674
20
-6.89681229987205
30
0
41
1.01610930227499
10
22.6178882251915
20
-7.59262923585979
30
0
41
1.01814069306376
10
23.1851968842744
20
-7.9896364268238
30
0
41
1.0200519600697
10
23.7014512719248
20
-8.32601298002867
30
0
41
1.02076673234771
10
23.8915019480959
20
-8.4469151660888
30
0
0
SPLINE
5
116
100
AcDbEntity
8
1
62
256
6
ByLayer
370
18
48
1
60
0
100
AcDbSpline
70
4
71
3
72
8
73
4
40
0
40
0
40
0
40
0
40
1
40
1
40
1
40
1
41
1
10
15.6675179886893
20
3.04934750428271
30
0
41
1
10
14.9125507369544
20
3.57587086921009
30
0
41
1
10
14.0171984430009
20
3.79437339798918
30
0
41
1
10
13.1475676646377
20
3.69556723199651
30
0
0
SPLINE
5
117
100
AcDbEntity
8
1
62
256
6
ByLayer
370
18
48
1
60
0
100
AcDbSpline
70
4
71
3
72
10
73
6
40
0
40
0
40
0
40
0
40
0.967465556419478
40
0.967465556419478
40
1
40
1
40
1
40
1
41
1
10
23.8915019481111
20
-8.44691516609845
30
0
41
1
10
24.3016690829106
20
-8.46584596876511
30
0
41
1
10
24.7053408643764
20
-8.49325565412778
30
0
41
1
10
25.1101666664501
20
-8.53429197790177
30
0
41
1
10
25.1233350695327
20
-8.53564272175038
30
0
41
1
10
25.1364891919874
20
-8.5370082142723
30
0
0
SPLINE
5
118
100
AcDbEntity
8
1
62
256
6
ByLayer
370
18
48
1
60
0
100
AcDbSpline
70
4
71
3
72
11
73
7
40
0
40
0
40
0
40
0
40
0.423407924939447
40
0.740963868644032
40
0.899741840496325
40
1
40
1
40
1
40
1
41
1.02805999725224
10
18.8851368358183
20
3.23036143757991
30
0
41
1.02767136955277
10
19.5241011932346
20
2.65020716737233
30
0
41
1.02349884684923
10
21.2857110639855
20
-0.108014320086866
30
0
41
1.01876555595691
10
23.2457443888632
20
-3.8241241963604
30
0
41
1.01635405201137
10
23.9906284974639
20
-5.21298236161335
30
0
41
1.01722454828226
10
24.3642970631721
20
-5.52331816136984
30
0
41
1.01774327987904
10
24.524600575409
20
-5.64463259943381
30
0
0
SPLINE
5
119
100
AcDbEntity
8
1
62
256
6
ByLayer
370
18
48
1
60
0
100
AcDbSpline
70
4
71
3
72
10
73
6
40
0
40
0
40
0
40
0
40
0.264715639145586
40
0.264715639145586
40
1
40
1
40
1
40
1
41
1
10
25.1364891919714
20
-8.53700821427063
30
0
41
1
10
25.0876524696864
20
-8.44322776917056
30
0
41
1
10
25.0394435628116
20
-8.34817749065058
30
0
41
1
10
24.8594815988415
20
-7.98515003716028
30
0
41
1
10
24.7313822583468
20
-7.71007767467648
30
0
41
1
10
24.6068489090386
20
-7.42932525961993
30
0
0
SPLINE
5
11A
100
AcDbEntity
8
1
62
256
6
ByLayer
370
18
48
1
60
0
100
AcDbSpline
70
4
71
3
72
8
73
4
40
0
40
0
40
0
40
0
40
1
40
1
40
1
40
1
41
1
10
8.73620869007277
20
-0.441933573266681
30
0
41
1
10
8.56091243807992
20
-0.255606985984827
30
0
41
1
10
8.37260760565181
20
-0.0947747387450875
30
0
41
1
10
8.17635896110721
20
0.046386131962862
30
0
0
SPLINE
5
11B
100
AcDbEntity
8
1
62
256
6
ByLayer
370
18
48
1
60
0
100
AcDbSpline
70
4
71
3
72
8
73
4
40
0
40
0
40
0
40
0
40
1
40
1
40
1
40
1
41
1
10
10.1806806522154
20
7.01480678366926
30
0
41
1
10
10.631893101408
20
6.30441806057306
30
0
41
1
10
11.2149488753283
20
5.16274383655676
30
0
41
1
10
11.8074669274923
20
3.92696928546982
30
0
0
SPLINE
5
11C
100
AcDbEntity
8
1
62
256
6
ByLayer
370
18
48
1
60
0
100
AcDbSpline
70
4
71
3
72
8
73
4
40
0
40
0
40
0
40
0
40
1
40
1
40
1
40
1
41
1
10
8.73620869007277
20
-0.441933573266653
30
0
41
1
10
7.38089112648811
20
-0.289356135524315
30
0
41
1
10
6.13964914512462
20
-0.0985398434026195
30
0
41
1
10
5.34392496717317
20
0.134461952377706
30
0
0
SPLINE
5
11D
100
AcDbEntity
8
1
62
256
6
ByLayer
370
18
48
1
60
0
100
AcDbSpline
70
4
71
3
72
10
73
6
40
0
40
0
40
0
40
0
40
0.5
40
0.5
40
1
40
1
40
1
40
1
41
1
10
24.497075994501
20
-1.37090537960069
30
0
41
1
10
23.7979715673885
20
-0.256611036905781
30
0
41
1
10
23.0148787154242
20
0.795965383024054
30
0
41
1
10
21.2485162381802
20
2.75402063584676
30
0
41
1
10
20.3026281506784
20
3.68517769878457
30
0
41
1
10
19.2208219320644
20
4.45498916948213
30
0
0
SPLINE
5
11E
100
AcDbEntity
8
1
62
256
6
ByLayer
370
18
48
1
60
0
100
AcDbSpline
70
4
71
3
72
8
73
4
40
0
40
0
40
0
40
0
40
1
40
1
40
1
40
1
41
1
10
12.930385723108
20
3.68057890419274
30
0
41
1
10
13.0033202004788
20
3.68240960884438
30
0
41
1
10
13.0758838310244
20
3.68742262058302
30
0
41
1
10
13.1475676646377
20
3.69556723199651
30
0
0
SPLINE
5
11F
100
AcDbEntity
8
1
62
256
6
ByLayer
370
18
48
1
60
0
100
AcDbSpline
70
4
71
2
72
6
73
3
40
0
40
0
40
0
40
1
40
1
40
1
41
1.02805999725224
10
11.8970441499657
20
-6.71028690659467
30
0
41
1.02805999725224
10
11.4207980063972
20
-7.01419717709892
30
0
41
1.02805999725224
10
10.9445518628287
20
-7.31810744760311
30
0
0
SPLINE
5
120
100
AcDbEntity
8
1
62
256
6
ByLayer
370
18
48
1
60
0
100
AcDbSpline
70
4
71
3
72
10
73
6
40
0
40
0
40
0
40
0
40
0.5
40
0.5
40
1
40
1
40
1
40
1
41
1
10
5.18018206305823
20
0.179576684572737
30
0
41
1
10
4.78834754180838
20
-0.432592233696681
30
0
41
1
10
4.57833136503371
20
-1.07895582446054
30
0
41
1
10
4.46400627105567
20
-2.04565274432676
30
0
41
1
10
4.5024312244708
20
-2.38803481494392
30
0
41
1
10
4.70962611970646
20
-2.75430782089532
30
0
0
SPLINE
5
121
100
AcDbEntity
8
1
62
256
6
ByLayer
370
18
48
1
60
0
100
AcDbSpline
70
4
71
3
72
8
73
4
40
0
40
0
40
0
40
0
40
1
40
1
40
1
40
1
41
1
10
10.0484840148646
20
7.10744264151043
30
0
41
1
10
10.0620064124546
20
7.12667841946225
30
0
41
1
10
10.075834052719
20
7.14545254507087
30
0
41
1
10
10.0899531180177
20
7.16378678335516
30
0
0
SPLINE
5
122
100
AcDbEntity
8
1
62
256
6
ByLayer
370
18
48
1
60
0
100
AcDbSpline
70
4
71
3
72
8
73
4
40
0
40
0
40
0
40
0
40
1
40
1
40
1
40
1
41
1
10
11.8074669274923
20
3.92696928546982
30
0
41
1
10
11.5747508626433
20
4.03161547822194
30
0
41
1
10
11.3621436613299
20
4.15787730490786
30
0
41
1
10
11.1658950167853
20
4.29903817561581
30
0
0
SPLINE
5
123
100
AcDbEntity
8
1
62
256
6
ByLayer
370
18
48
1
60
0
100
AcDbSpline
70
4
71
3
72
11
73
7
40
0
40
0
40
0
40
0
40
0.423407924946023
40
0.740963868655541
40
0.8997418405103
40
1
40
1
40
1
40
1
41
1.02805999725224
10
11.8970441499657
20
-6.71028690659467
30
0
41
1.02767136955277
10
12.6602343653632
20
-7.11372835610549
30
0
41
1.02349884684923
10
15.843691052236
20
-7.84935514795418
30
0
41
1.01876555595691
10
20.0160784593773
20
-8.41836395779417
30
0
41
1.01635405201144
10
21.5867907283408
20
-8.63247134280727
30
0
41
1.01722454828215
10
22.0131649097464
20
-8.86783275181368
30
0
41
1.0177432798788
10
22.1851820545596
20
-8.9724844024852
30
0
0
SPLINE
5
124
100
AcDbEntity
8
1
62
256
6
ByLayer
370
18
48
1
60
0
100
AcDbSpline
70
4
71
3
72
8
73
4
40
0
40
0
40
0
40
0
40
1
40
1
40
1
40
1
41
1
10
17.9832662006286
20
1.32655642918831
30
0
41
1
10
17.7879141982787
20
1.53267457328548
30
0
41
1
10
17.5693489098014
20
1.7229874352787
30
0
41
1
10
17.3345782569207
20
1.88671935061259
30
0
0
SPLINE
5
125
100
AcDbEntity
8
1
62
256
6
ByLayer
370
18
48
1
60
0
100
AcDbSpline
70
4
71
3
72
8
73
4
40
0
40
0
40
0
40
0
40
1
40
1
40
1
40
1
41
1
10
24.4970759945011
20
-1.37090537960094
30
0
41
1
10
24.9292114902958
20
-2.05968107543004
30
0
41
1
10
25.4166315569551
20
-2.66598559967602
30
0
41
1
10
25.8947126853019
20
-3.10203494228148
30
0
0
SPLINE
5
126
100
AcDbEntity
8
1
62
256
6
ByLayer
370
18
48
1
60
0
100
AcDbSpline
70
4
71
3
72
11
73
7
40
0
40
0
40
0
40
0
40
0.564783939443773
40
0.564783939443773
40
0.564783939443773
40
1
40
1
40
1
40
1
41
1
10
20.3747073208207
20
-10.9543108998332
30
0
41
1
10
20.0483766166066
20
-10.798082482761
30
0
41
1
10
19.6666248796999
20
-10.6379283132166
30
0
41
1
10
19.2535047780128
20
-10.5148089383662
30
0
41
1
10
18.9325328972815
20
-10.4191518712354
30
0
41
1
10
18.5909326374489
20
-10.3368739953285
30
0
41
1
10
18.2455672554885
20
-10.263753941966
30
0
0
SPLINE
5
127
100
AcDbEntity
8
1
62
256
6
ByLayer
370
18
48
1
60
0
100
AcDbSpline
70
4
71
3
72
8
73
4
40
0
40
0
40
0
40
0
40
1
40
1
40
1
40
1
41
1
10
9.41024555952959
20
-1.6208197230597
30
0
41
1
10
9.62203825443015
20
-2.46204989579189
30
0
41
1
10
10.1384800222083
20
-3.21040415879037
30
0
41
1
10
10.8957585152031
20
-3.738539411548
30
0
0
SPLINE
5
128
100
AcDbEntity
8
1
62
256
6
ByLayer
370
18
48
1
60
0
100
AcDbSpline
70
4
71
3
72
8
73
4
40
0
40
0
40
0
40
0
40
1
40
1
40
1
40
1
41
1
10
9.41024555952959
20
-1.62081972305978
30
0
41
1
10
9.39293007108643
20
-1.55204345416695
30
0
41
1
10
9.37240645353779
20
-1.48327200443748
30
0
41
1
10
9.34856902653104
20
-1.41459968243203
30
0
0
SPLINE
5
129
100
AcDbEntity
8
1
62
256
6
ByLayer
370
18
48
1
60
0
100
AcDbSpline
70
4
71
3
72
10
73
6
40
0
40
0
40
0
40
0
40
0.5
40
0.5
40
1
40
1
40
1
40
1
41
1
10
12.7676864143825
20
8.70838269088028
30
0
41
1
10
12.3340147407797
20
8.75540028106931
30
0
41
1
10
11.9786946659219
20
8.64698062906146
30
0
41
1
10
11.084838215209
20
8.17290672075006
30
0
41
1
10
10.5307819093228
20
7.73622270112884
30
0
41
1
10
10.0899531180177
20
7.16378678335516
30
0
0
SPLINE
5
12A
100
AcDbEntity
8
1
62
256
6
ByLayer
370
18
48
1
60
0
100
AcDbSpline
70
4
71
3
72
8
73
4
40
0
40
0
40
0
40
0
40
1
40
1
40
1
40
1
41
1
10
20.3747073208207
20
-10.9543108998332
30
0
41
1
10
20.4692098815039
20
-10.9995533035487
30
0
41
1
10
20.564996918091
20
-11.0425947575622
30
0
41
1
10
20.6618643239451
20
-11.0835823240257
30
0
0
SPLINE
5
12B
100
AcDbEntity
8
1
62
256
6
ByLayer
370
18
48
1
60
0
100
AcDbSpline
70
4
71
3
72
8
73
4
40
0
40
0
40
0
40
0
40
1
40
1
40
1
40
1
41
1
10
12.930385723108
20
3.68057890419274
30
0
41
1
10
12.9397476620682
20
5.24999414092608
30
0
41
1
10
12.8770865140389
20
6.70953384222253
30
0
41
1
10
12.6901822796721
20
7.55079826577219
30
0
0
SPLINE
5
12C
100
AcDbEntity
8
1
62
256
6
ByLayer
370
18
48
1
60
0
100
AcDbSpline
70
4
71
3
72
10
73
6
40
0
40
0
40
0
40
0
40
0.5
40
0.5
40
1
40
1
40
1
40
1
41
1
10
24.5246005754085
20
-5.64463259943341
30
0
41
1
10
24.9699685495244
20
-5.4456720523591
30
0
41
1
10
25.4201707293482
20
-5.31128477320692
30
0
41
1
10
26.3497398659952
20
-5.43208092679717
30
0
41
1
10
26.829565735954
20
-5.71833198453098
30
0
41
1
10
27.1842155093769
20
-6.36594344220779
30
0
0
SPLINE
5
12D
100
AcDbEntity
8
1
62
256
6
ByLayer
370
18
48
1
60
0
100
AcDbSpline
70
4
71
3
72
15
73
11
40
0
40
0
40
0
40
0
40
0.227604479949748
40
0.227604479949748
40
0.479423709218441
40
0.479423709218441
40
0.785574270382837
40
0.785574270382837
40
0.785574270382837
40
1
40
1
40
1
40
1
41
1
10
18.9955614696444
20
-2.87842683024849
30
0
41
1
10
19.1059275018842
20
-2.55534435130346
30
0
41
1
10
19.1692837308779
20
-2.21009339075505
30
0
41
1
10
19.2045009154069
20
-1.4877314330451
30
0
41
1
10
19.1672539359938
20
-1.10272106971055
30
0
41
1
10
18.979378223106
20
-0.284488154902874
30
0
41
1
10
18.8038093030931
20
0.153183987317902
30
0
41
1
10
18.5689836318075
20
0.549350160987302
30
0
41
1
10
18.4035003048587
20
0.828531291757628
30
0
41
1
10
18.2062716785711
20
1.09106059664944
30
0
41
1
10
17.9832662064717
20
1.32655642302305
30
0
0
SPLINE
5
12E
100
AcDbEntity
8
1
62
256
6
ByLayer
370
18
48
1
60
0
100
AcDbSpline
70
4
71
3
72
8
73
4
40
0
40
0
40
0
40
0
40
1
40
1
40
1
40
1
41
1
10
22.6690216009345
20
-11.1580805649093
30
0
41
1
10
23.0765471566742
20
-11.1223235431911
30
0
41
1
10
23.4859979817235
20
-11.0844240199646
30
0
41
1
10
23.8952392891833
20
-11.0445528256882
30
0
0
SPLINE
5
12F
100
AcDbEntity
8
1
62
256
6
ByLayer
370
18
48
1
60
0
100
AcDbSpline
70
4
71
3
72
8
73
4
40
0
40
0
40
0
40
0
40
1
40
1
40
1
40
1
41
1
10
27.4499189959
20
-7.64296854122804
30
0
41
1
10
27.4798362130888
20
-7.71632150465706
30
0
41
1
10
27.5070794738933
20
-7.79410829803308
30
0
41
1
10
27.5310208006088
20
-7.87504084677408
30
0
0
SPLINE
5
130
100
AcDbEntity
8
1
62
256
6
ByLayer
370
18
48
1
60
0
100
AcDbSpline
70
4
71
3
72
15
73
11
40
0
40
0
40
0
40
0
40
0.322163720426458
40
0.322163720426458
40
0.644833452600231
40
0.644833452600231
40
0.912233455904557
40
0.912233455904557
40
0.912233455904557
40
1
40
1
40
1
40
1
41
1
10
13.3115089659132
20
-5.31907607864116
30
0
41
1
10
13.7554471322679
20
-5.5126749236039
30
0
41
1
10
14.2391683563451
20
-5.63180256091039
30
0
41
1
10
15.2047287020163
20
-5.71253286782155
30
0
41
1
10
15.7001651189298
20
-5.67538078628323
30
0
41
1
10
16.5587161162887
20
-5.45791699112471
30
0
41
1
10
16.9400470715726
20
-5.29947348633468
30
0
41
1
10
17.2811186910959
20
-5.08461292814962
30
0
41
1
10
17.3944649165843
20
-5.01320964542953
30
0
41
1
10
17.5040373268053
20
-4.93531944394328
30
0
41
1
10
17.6084128842539
20
-4.85166286307907
30
0
0
SPLINE
5
131
100
AcDbEntity
8
1
62
256
6
ByLayer
370
18
48
1
60
0
100
AcDbSpline
70
4
71
3
72
20
73
16
40
0
40
0
40
0
40
0
40
0.332873226652389
40
0.332873226652389
40
0.501657261698206
40
0.501657261698206
40
0.631212321676509
40
0.631212321676509
40
0.722542323637663
40
0.722542323637663
40
0.814765347404182
40
0.814765347404182
40
0.896421359038795
40
0.896421359038795
40
1
40
1
40
1
40
1
41
1
10
24.6068489090386
20
-7.42932525961993
30
0
41
1
10
24.5229436388746
20
-7.24027115058857
30
0
41
1
10
24.4440899863906
20
-7.03950968503716
30
0
41
1
10
24.3496674561246
20
-6.71209198587945
30
0
41
1
10
24.3218813923394
20
-6.59620629464124
30
0
41
1
10
24.2889625893687
20
-6.38428303568676
30
0
41
1
10
24.2799492212217
20
-6.28811766171481
30
0
41
1
10
24.2807160922854
20
-6.12717652090822
30
0
41
1
10
24.2859170284231
20
-6.06017275198073
30
0
41
1
10
24.3081689547722
20
-5.93643358632409
30
0
41
1
10
24.3257856629978
20
-5.87826161934208
30
0
41
1
10
24.3680816359947
20
-5.78727875866085
30
0
41
1
10
24.3921213215889
20
-5.75116267806217
30
0
41
1
10
24.450881032991
20
-5.68642435036986
30
0
41
1
10
24.4873737654223
20
-5.66125933449473
30
0
41
1
10
24.5246005754085
20
-5.64463259943341
30
0
0
SPLINE
5
132
100
AcDbEntity
8
1
62
256
6
ByLayer
370
18
48
1
60
0
100
AcDbSpline
70
4
71
3
72
8
73
4
40
0
40
0
40
0
40
0
40
1
40
1
40
1
40
1
41
1
10
17.9832662188292
20
1.32655644444569
30
0
41
1
10
18.4489913464409
20
2.13392762394682
30
0
41
1
10
18.7708038340332
20
2.81325812789046
30
0
41
1
10
18.8851368358183
20
3.23036143757992
30
0
0
SPLINE
5
133
100
AcDbEntity
8
1
62
256
6
ByLayer
370
18
48
1
60
0
100
AcDbSpline
70
4
71
3
72
8
73
4
40
0
40
0
40
0
40
0
40
1
40
1
40
1
40
1
41
1
10
5.70208959381944
20
-2.38985007840242
30
0
41
1
10
6.5156609846739
20
-2.33814376029582
30
0
41
1
10
7.88635832630621
20
-1.93993651438382
30
0
41
1
10
9.34856902652723
20
-1.41459968242418
30
0
0
SPLINE
5
134
100
AcDbEntity
8
1
62
256
6
ByLayer
370
18
48
1
60
0
100
AcDbSpline
70
4
71
3
72
12
73
8
40
0
40
0
40
0
40
0
40
0.471343086678517
40
0.471343086678517
40
0.892619726108222
40
0.892619726108222
40
1
40
1
40
1
40
1
41
1
10
11.8074669274923
20
3.92696928546982
30
0
41
1
10
11.9694927852386
20
3.8541105889654
30
0
41
1
10
12.1441796993
20
3.79188069160139
30
0
41
1
10
12.4822143671622
20
3.71016859743574
30
0
41
1
10
12.6484119074102
20
3.68633978372208
30
0
41
1
10
12.8490824016677
20
3.67973320246014
30
0
41
1
10
12.8900072575541
20
3.67956537743046
30
0
41
1
10
12.930385723108
20
3.68057890419274
30
0
0
SPLINE
5
135
100
AcDbEntity
8
1
62
256
6
ByLayer
370
18
48
1
60
0
100
AcDbSpline
70
4
71
1
72
4
73
2
40
0
40
0
40
1
40
1
41
1
10
18.8851368358183
20
3.23036143757992
30
0
41
1
10
19.2208219320644
20
4.45498916948213
30
0
0
SPLINE
5
136
100
AcDbEntity
8
1
62
256
6
ByLayer
370
18
48
1
60
0
100
AcDbSpline
70
4
71
3
72
8
73
4
40
0
40
0
40
0
40
0
40
1
40
1
40
1
40
1
41
1
10
5.21923346338451
20
0.23777395560947
30
0
41
1
10
5.20571106579462
20
0.218538177657649
30
0
41
1
10
5.19270191325546
20
0.199136633317693
30
0
41
1
10
5.18018206305817
20
0.179576684572737
30
0
0
INSERT
5
149
100
AcDbEntity
8
SK2
62
256
6
ByLayer
370
25
48
1
60
0
100
AcDbBlockReference
2
DimnDraft3D11
10
0
20
0
30
0
41
1
42
1
43
1
50
0
210
0
220
0
230
1
0
LINE
5
72
100
AcDbEntity
8
1
62
256
6
ByLayer
370
18
48
1
60
0
100
AcDbLine
10
4.616221
20
-2.81056
30
0
11
5.138689
21
-3.255655
31
0
39
0
210
0
220
0
230
1
0
LINE
5
74
100
AcDbEntity
8
1
62
256
6
ByLayer
370
18
48
1
60
0
100
AcDbLine
10
13.638855
20
-2.047167
30
0
11
13.472517
21
-1.880828
31
0
39
0
210
0
220
0
230
1
0
LINE
5
75
100
AcDbEntity
8
1
62
256
6
ByLayer
370
18
48
1
60
0
100
AcDbLine
10
15.361916
20
-1.309937
30
0
11
15.528254
21
-1.476276
31
0
39
0
210
0
220
0
230
1
0
LINE
5
76
100
AcDbEntity
8
1
62
256
6
ByLayer
370
18
48
1
60
0
100
AcDbLine
10
11.175148
20
-3.625366
30
0
11
11.348344
21
-3.798562
31
0
39
0
210
0
220
0
230
1
0
LINE
5
77
100
AcDbEntity
8
1
62
256
6
ByLayer
370
18
48
1
60
0
100
AcDbLine
10
17.005198
20
1.858292
30
0
11
16.832002
21
2.031488
31
0
39
0
210
0
220
0
230
1
0
LINE
5
78
100
AcDbEntity
8
1
62
256
6
ByLayer
370
18
48
1
60
0
100
AcDbLine
10
12.977911
20
-0.616618
30
0
11
12.957769
21
-0.596475
31
0
39
0
210
0
220
0
230
1
0
LINE
5
79
100
AcDbEntity
8
1
62
256
6
ByLayer
370
18
48
1
60
0
100
AcDbLine
10
14.700972
20
0.120611
30
0
11
14.86731
21
-0.045727
31
0
39
0
210
0
220
0
230
1
0
LINE
5
7A
100
AcDbEntity
8
1
62
256
6
ByLayer
370
18
48
1
60
0
100
AcDbLine
10
19.184454
20
-13.772369
30
0
11
19.679311
21
-14.267226
31
0
39
0
210
0
220
0
230
1
0
LINE
5
7B
100
AcDbEntity
8
1
62
256
6
ByLayer
370
18
48
1
60
0
100
AcDbLine
10
31.059266
20
-2.887272
30
0
11
30.564408
21
-2.392414
31
0
39
0
210
0
220
0
230
1
0
LINE
5
7C
100
AcDbEntity
8
1
62
256
6
ByLayer
370
18
48
1
60
0
100
AcDbLine
10
8.433707
20
-0.154786
30
0
11
8.054483
21
0.168279
31
0
39
0
210
0
220
0
230
1
0
LINE
5
7D
100
AcDbEntity
8
80
62
256
6
ByLayer
370
18
48
1
60
0
100
AcDbLine
10
0
20
0
30
0
11
-5
21
0
31
0
39
0
210
0
220
0
230
1
0
LINE
5
7E
100
AcDbEntity
8
81
62
256
6
ByLayer
370
18
48
1
60
0
100
AcDbLine
10
32.20454
20
-15.4125
30
0
11
42.20454
21
-15.4125
31
0
39
0
210
0
220
0
230
1
0
LINE
5
7F
100
AcDbEntity
8
1
62
256
6
ByLayer
370
18
48
1
60
0
100
AcDbLine
10
19.02359
20
-10.457389
30
0
11
19.292663
21
-13.736181
31
0
39
0
210
0
220
0
230
1
0
LINE
5
80
100
AcDbEntity
8
1
62
256
6
ByLayer
370
18
48
1
60
0
100
AcDbLine
10
16.066831
20
9.957743
30
0
11
14.515764
21
7.751331
31
0
39
0
210
0
220
0
230
1
0
LINE
5
81
100
AcDbEntity
8
1
62
256
6
ByLayer
370
18
48
1
60
0
100
AcDbLine
10
6.231449
20
-4.033209
30
0
11
4.108239
21
-7.053502
31
0
39
0
210
0
220
0
230
1
0
LINE
5
82
100
AcDbEntity
8
1
62
256
6
ByLayer
370
18
48
1
60
0
100
AcDbLine
10
24.948293
20
-2.038079
30
0
11
30.529869
21
-2.520703
31
0
39
0
210
0
220
0
230
1
0
LINE
5
83
100
AcDbEntity
8
1
62
256
6
ByLayer
370
18
48
1
60
0
100
AcDbLine
10
11.899298
20
9.946415
30
0
11
11.572145
21
9.481037
31
0
39
0
210
0
220
0
230
1
0
LINE
5
84
100
AcDbEntity
8
1
62
256
6
ByLayer
370
18
48
1
60
0
100
AcDbLine
10
3.694061
20
-1.725635
30
0
11
1.585138
21
-4.725605
31
0
39
0
210
0
220
0
230
1
0
LINE
5
85
100
AcDbEntity
8
1
62
256
6
ByLayer
370
18
48
1
60
0
100
AcDbLine
10
19.403294
20
-13.688002
30
0
11
19.14058
21
-10.486704
31
0
39
0
210
0
220
0
230
1
0
LINE
5
86
100
AcDbEntity
8
1
62
256
6
ByLayer
370
18
48
1
60
0
100
AcDbLine
10
30.529869
20
-2.520703
30
0
11
30.487325
21
-2.618535
31
0
39
0
210
0
220
0
230
1
0
LINE
5
87
100
AcDbEntity
8
1
62
256
6
ByLayer
370
18
48
1
60
0
100
AcDbLine
10
25.044195
20
-2.161303
30
0
11
25.921138
21
-2.23713
31
0
39
0
210
0
220
0
230
1
0
LINE
5
88
100
AcDbEntity
8
1
62
256
6
ByLayer
370
18
48
1
60
0
100
AcDbLine
10
10.751938
20
9.942528
30
0
11
10.388724
21
9.425852
31
0
39
0
210
0
220
0
230
1
0
LINE
5
89
100
AcDbEntity
8
1
62
256
6
ByLayer
370
18
48
1
60
0
100
AcDbLine
10
3.343719
20
-0.595754
30
0
11
0.706257
21
-4.347577
31
0
39
0
210
0
220
0
230
1
0
LINE
5
8A
100
AcDbEntity
8
1
62
256
6
ByLayer
370
18
48
1
60
0
100
AcDbLine
10
11.86328
20
9.945549
30
0
11
11.542529
21
9.489277
31
0
39
0
210
0
220
0
230
1
0
LINE
5
8B
100
AcDbEntity
8
1
62
256
6
ByLayer
370
18
48
1
60
0
100
AcDbLine
10
3.676597
20
-1.700108
30
0
11
1.379084
21
-4.968349
31
0
39
0
210
0
220
0
230
1
0
LINE
5
8C
100
AcDbEntity
8
1
62
256
6
ByLayer
370
18
48
1
60
0
100
AcDbLine
10
12.960266
20
-0.599107
30
0
11
12.97154
21
-0.610382
31
0
39
0
210
0
220
0
230
1
0
LINE
5
8D
100
AcDbEntity
8
1
62
256
6
ByLayer
370
18
48
1
60
0
100
AcDbLine
10
25.082909
20
-2.211284
30
0
11
30.570946
21
-2.661658
31
0
39
0
210
0
220
0
230
1
0
LINE
5
8E
100
AcDbEntity
8
1
62
256
6
ByLayer
370
18
48
1
60
0
100
AcDbLine
10
19.453697
20
-13.778907
30
0
11
19.184416
21
-10.497573
31
0
39
0
210
0
220
0
230
1
0
LINE
5
8F
100
AcDbEntity
8
1
62
256
6
ByLayer
370
18
48
1
60
0
100
AcDbLine
10
30.499594
20
-2.590305
30
0
11
30.570946
21
-2.661658
31
0
39
0
210
0
220
0
230
1
0
LINE
5
90
100
AcDbEntity
8
1
62
256
6
ByLayer
370
18
48
1
60
0
100
AcDbLine
10
19.453697
20
-13.778907
30
0
11
19.375077
21
-13.700286
31
0
39
0
210
0
220
0
230
1
0
LINE
5
91
100
AcDbEntity
8
1
62
256
6
ByLayer
370
18
48
1
60
0
100
AcDbLine
10
31.28488
20
-3.375591
30
0
11
32.201876
21
-14.549656
31
0
39
0
210
0
220
0
230
1
0
LINE
5
92
100
AcDbEntity
8
1
62
256
6
ByLayer
370
18
48
1
60
0
100
AcDbLine
10
31.341695
20
-15.409836
30
0
11
20.167631
21
-14.49284
31
0
39
0
210
0
220
0
230
1
0
LINE
5
93
100
AcDbEntity
8
1
62
256
6
ByLayer
370
18
48
1
60
0
100
AcDbLine
10
17.334578
20
1.886719
30
0
11
15.667518
21
3.049348
31
0
39
0
210
0
220
0
230
1
0
LINE
5
94
100
AcDbEntity
8
1
62
256
6
ByLayer
370
18
48
1
60
0
100
AcDbLine
10
12.690182
20
7.550798
30
0
11
18.885137
21
3.230361
31
0
39
0
210
0
220
0
230
1
0
LINE
5
95
100
AcDbEntity
8
1
62
256
6
ByLayer
370
18
48
1
60
0
100
AcDbLine
10
25.136489
20
-8.537008
30
0
11
27.318445
21
-9.959125
31
0
39
0
210
0
220
0
230
1
0
LINE
5
96
100
AcDbEntity
8
1
62
256
6
ByLayer
370
18
48
1
60
0
100
AcDbLine
10
25.672641
20
-10.811573
30
0
11
25.445789
21
-10.841309
31
0
39
0
210
0
220
0
230
1
0
LINE
5
97
100
AcDbEntity
8
1
62
256
6
ByLayer
370
18
48
1
60
0
100
AcDbLine
10
7.830183
20
0.341297
30
0
11
6.594937
21
1.201935
31
0
39
0
210
0
220
0
230
1
0
LINE
5
98
100
AcDbEntity
8
1
62
256
6
ByLayer
370
18
48
1
60
0
100
AcDbLine
10
10.895759
20
-3.738539
30
0
11
12.562819
21
-4.901168
31
0
39
0
210
0
220
0
230
1
0
LINE
5
99
100
AcDbEntity
8
1
62
256
6
ByLayer
370
18
48
1
60
0
100
AcDbLine
10
5.219233
20
0.237774
30
0
11
3.878572
21
1.379896
31
0
39
0
210
0
220
0
230
1
0
LINE
5
9A
100
AcDbEntity
8
1
62
256
6
ByLayer
370
18
48
1
60
0
100
AcDbLine
10
8.176359
20
0.046386
30
0
11
7.830183
21
0.341297
31
0
39
0
210
0
220
0
230
1
0
LINE
5
9B
100
AcDbEntity
8
1
62
256
6
ByLayer
370
18
48
1
60
0
100
AcDbLine
10
5.219233
20
0.237774
30
0
11
10.048484
21
7.107443
31
0
39
0
210
0
220
0
230
1
0
LINE
5
9C
100
AcDbEntity
8
1
62
256
6
ByLayer
370
18
48
1
60
0
100
AcDbLine
10
8.707823
20
8.249565
30
0
11
3.878572
21
1.379896
31
0
39
0
210
0
220
0
230
1
0
LINE
5
9D
100
AcDbEntity
8
1
62
256
6
ByLayer
370
18
48
1
60
0
100
AcDbLine
10
6.594937
20
1.201935
30
0
11
9.584473
21
5.454587
31
0
39
0
210
0
220
0
230
1
0
LINE
5
9E
100
AcDbEntity
8
1
62
256
6
ByLayer
370
18
48
1
60
0
100
AcDbLine
10
10.895759
20
-3.738539
30
0
11
10.538358
21
-3.434067
31
0
39
0
210
0
220
0
230
1
0
LINE
5
9F
100
AcDbEntity
8
1
62
256
6
ByLayer
370
18
48
1
60
0
100
AcDbLine
10
10.048484
20
7.107443
30
0
11
8.707823
21
8.249565
31
0
39
0
210
0
220
0
230
1
0
LINE
5
A0
100
AcDbEntity
8
1
62
256
6
ByLayer
370
18
48
1
60
0
100
AcDbLine
10
13.63781
20
8.351418
30
0
11
13.192907
21
8.730436
31
0
39
0
210
0
220
0
230
1
0
LINE
5
A1
100
AcDbEntity
8
1
62
256
6
ByLayer
370
18
48
1
60
0
100
AcDbLine
10
10.538358
20
-3.434067
30
0
11
12.198134
21
-4.590489
31
0
39
0
210
0
220
0
230
1
0
LINE
5
A2
100
AcDbEntity
8
1
62
256
6
ByLayer
370
18
48
1
60
0
100
AcDbLine
10
14.806358
20
7.536459
30
0
11
14.809291
21
7.531645
31
0
39
0
210
0
220
0
230
1
0
LINE
5
A3
100
AcDbEntity
8
1
62
256
6
ByLayer
370
18
48
1
60
0
100
AcDbLine
10
25.196553
20
-10.84841
30
0
11
24.96326
21
-10.904558
31
0
39
0
210
0
220
0
230
1
0
LINE
5
A4
100
AcDbEntity
8
1
62
256
6
ByLayer
370
18
48
1
60
0
100
AcDbLine
10
19.220822
20
4.454989
30
0
11
14.809291
21
7.531645
31
0
39
0
210
0
220
0
230
1
0
LINE
5
A5
100
AcDbEntity
8
1
62
256
6
ByLayer
370
18
48
1
60
0
100
AcDbLine
10
24.96326
20
-10.904558
30
0
11
23.895239
21
-11.044553
31
0
39
0
210
0
220
0
230
1
0
LINE
5
A6
100
AcDbEntity
8
1
62
256
6
ByLayer
370
18
48
1
60
0
100
AcDbLine
10
27.423096
20
-7.405412
30
0
11
27.449919
21
-7.642969
31
0
39
0
210
0
220
0
230
1
0
LINE
5
A7
100
AcDbEntity
8
1
62
256
6
ByLayer
370
18
48
1
60
0
100
AcDbLine
10
6.527642
20
-4.240116
30
0
11
6.533021
21
-4.241452
31
0
39
0
210
0
220
0
230
1
0
LINE
5
A8
100
AcDbEntity
8
1
62
256
6
ByLayer
370
18
48
1
60
0
100
AcDbLine
10
13.63781
20
8.351418
30
0
11
14.806358
21
7.536459
31
0
39
0
210
0
220
0
230
1
0
LINE
5
A9
100
AcDbEntity
8
1
62
256
6
ByLayer
370
18
48
1
60
0
100
AcDbLine
10
5.70209
20
-2.38985
30
0
11
11.897044
21
-6.710287
31
0
39
0
210
0
220
0
230
1
0
LINE
5
AA
100
AcDbEntity
8
1
62
256
6
ByLayer
370
18
48
1
60
0
100
AcDbLine
10
27.58176
20
-8.095828
30
0
11
27.531021
21
-7.875041
31
0
39
0
210
0
220
0
230
1
0
LINE
5
AB
100
AcDbEntity
8
1
62
256
6
ByLayer
370
18
48
1
60
0
100
AcDbLine
10
27.423096
20
-7.405412
30
0
11
27.184216
21
-6.365943
31
0
39
0
210
0
220
0
230
1
0
LINE
5
AC
100
AcDbEntity
8
1
62
256
6
ByLayer
370
18
48
1
60
0
100
AcDbLine
10
6.527642
20
-4.240116
30
0
11
5.359095
21
-3.425156
31
0
39
0
210
0
220
0
230
1
0
LINE
5
AD
100
AcDbEntity
8
1
62
256
6
ByLayer
370
18
48
1
60
0
100
AcDbLine
10
10.944552
20
-7.318107
30
0
11
6.533021
21
-4.241452
31
0
39
0
210
0
220
0
230
1
0
LINE
5
AE
100
AcDbEntity
8
1
62
256
6
ByLayer
370
18
48
1
60
0
100
AcDbLine
10
12.562819
20
-4.901168
30
0
11
12.198134
21
-4.590489
31
0
39
0
210
0
220
0
230
1
0
LINE
5
AF
100
AcDbEntity
8
1
62
256
6
ByLayer
370
18
48
1
60
0
100
AcDbLine
10
14.806358
20
7.536459
30
0
11
13.25352
21
8.685614
31
0
39
0
210
0
220
0
230
1
0
LINE
5
B0
100
AcDbEntity
8
1
62
256
6
ByLayer
370
18
48
1
60
0
100
AcDbLine
10
14.936481
20
-1.930423
30
0
11
15.102819
21
-2.096762
31
0
39
0
210
0
220
0
230
1
0
LINE
5
B1
100
AcDbEntity
8
1
62
256
6
ByLayer
370
18
48
1
60
0
100
AcDbLine
10
13.05618
20
-1.776117
30
0
11
13.222519
21
-1.942456
31
0
39
0
210
0
220
0
230
1
0
LINE
5
B2
100
AcDbEntity
8
1
62
256
6
ByLayer
370
18
48
1
60
0
100
AcDbLine
10
15.429307
20
-0.65939
30
0
11
15.595646
21
-0.825728
31
0
39
0
210
0
220
0
230
1
0
LINE
5
B3
100
AcDbEntity
8
1
62
256
6
ByLayer
370
18
48
1
60
0
100
AcDbLine
10
14.337723
20
-2.212182
30
0
11
14.504061
21
-2.378521
31
0
39
0
210
0
220
0
230
1
0
LINE
5
B4
100
AcDbEntity
8
1
62
256
6
ByLayer
370
18
48
1
60
0
100
AcDbLine
10
14.579571
20
0.390925
30
0
11
14.745909
21
0.224587
31
0
39
0
210
0
220
0
230
1
0
LINE
5
B5
100
AcDbEntity
8
1
62
256
6
ByLayer
370
18
48
1
60
0
100
AcDbLine
10
2.065734
20
9.946514
30
0
11
0.706257
21
-4.347577
31
0
39
0
210
0
220
0
230
1
0
LINE
5
B6
100
AcDbEntity
8
1
62
256
6
ByLayer
370
18
48
1
60
0
100
AcDbLine
10
27.644836
20
6.28197
30
0
11
30.000824
21
3.925983
31
0
39
0
210
0
220
0
230
1
0
LINE
5
B7
100
AcDbEntity
8
1
62
256
6
ByLayer
370
18
48
1
60
0
100
AcDbLine
10
4.108239
20
-7.053502
30
0
11
3.595183
21
-12.447973
31
0
39
0
210
0
220
0
230
1
0
LINE
5
B8
100
AcDbEntity
8
1
62
256
6
ByLayer
370
18
48
1
60
0
100
AcDbLine
10
11.899298
20
9.946415
30
0
11
11.86328
21
9.945549
31
0
39
0
210
0
220
0
230
1
0
LINE
5
B9
100
AcDbEntity
8
1
62
256
6
ByLayer
370
18
48
1
60
0
100
AcDbLine
10
20.124951
20
9.955881
30
0
11
16.066831
21
9.957743
31
0
39
0
210
0
220
0
230
1
0
LINE
5
BA
100
AcDbEntity
8
1
62
256
6
ByLayer
370
18
48
1
60
0
100
AcDbLine
10
1.585138
20
-4.725605
30
0
11
4.108239
21
-7.053502
31
0
39
0
210
0
220
0
230
1
0
LINE
5
BB
100
AcDbEntity
8
1
62
256
6
ByLayer
370
18
48
1
60
0
100
AcDbLine
10
10.751938
20
9.942528
30
0
11
2.065734
21
9.946514
31
0
39
0
210
0
220
0
230
1
0
LINE
5
BC
100
AcDbEntity
8
1
62
256
6
ByLayer
370
18
48
1
60
0
100
AcDbLine
10
30.000824
20
3.925983
30
0
11
30.529869
21
-2.520703
31
0
39
0
210
0
220
0
230
1
0
LINE
5
BD
100
AcDbEntity
8
1
62
256
6
ByLayer
370
18
48
1
60
0
100
AcDbLine
10
1.379084
20
-4.968349
30
0
11
1.585138
21
-4.725605
31
0
39
0
210
0
220
0
230
1
0
LINE
5
BE
100
AcDbEntity
8
1
62
256
6
ByLayer
370
18
48
1
60
0
100
AcDbLine
10
3.595183
20
-12.447973
30
0
11
2.258928
21
-12.196428
31
0
39
0
210
0
220
0
230
1
0
LINE
5
BF
100
AcDbEntity
8
1
62
256
6
ByLayer
370
18
48
1
60
0
100
AcDbLine
10
0
20
-9.9375
30
0
11
0
21
9.9375
31
0
39
0
210
0
220
0
230
1
0
LINE
5
C0
100
AcDbEntity
8
1
62
256
6
ByLayer
370
18
48
1
60
0
100
AcDbLine
10
20.124951
20
9.955881
30
0
11
21.864231
21
9.850778
31
0
39
0
210
0
220
0
230
1
0
LINE
5
C1
100
AcDbEntity
8
1
62
256
6
ByLayer
370
18
48
1
60
0
100
AcDbLine
10
0
20
9.9375
30
0
11
2.065734
21
9.946514
31
0
39
0
210
0
220
0
230
1
0
LINE
5
C2
100
AcDbEntity
8
1
62
256
6
ByLayer
370
18
48
1
60
0
100
AcDbLine
10
21.864231
20
9.850778
30
0
11
27.644836
21
6.28197
31
0
39
0
210
0
220
0
230
1
0
LINE
5
C3
100
AcDbEntity
8
1
62
256
6
ByLayer
370
18
48
1
60
0
100
AcDbLine
10
30.000824
20
3.925983
30
0
11
20.124951
21
9.955881
31
0
39
0
210
0
220
0
230
1
0
LINE
5
C4
100
AcDbEntity
8
1
62
256
6
ByLayer
370
18
48
1
60
0
100
AcDbLine
10
2.258928
20
-12.196428
30
0
11
0
21
-9.9375
31
0
39
0
210
0
220
0
230
1
0
LINE
5
C5
100
AcDbEntity
8
1
62
256
6
ByLayer
370
18
48
1
60
0
100
AcDbLine
10
19.292663
20
-13.736181
30
0
11
19.403294
21
-13.688002
31
0
39
0
210
0
220
0
230
1
0
LINE
5
C6
100
AcDbEntity
8
1
62
256
6
ByLayer
370
18
48
1
60
0
100
AcDbLine
10
16.066831
20
9.957743
30
0
11
11.899298
21
9.946415
31
0
39
0
210
0
220
0
230
1
0
LINE
5
C7
100
AcDbEntity
8
1
62
256
6
ByLayer
370
18
48
1
60
0
100
AcDbLine
10
19.292663
20
-13.736181
30
0
11
3.595183
21
-12.447973
31
0
39
0
210
0
220
0
230
1
0
LINE
5
C8
100
AcDbEntity
8
SK1
62
256
6
ByLayer
370
18
48
1
60
0
100
AcDbLine
10
-94.14546
20
-9.9375
30
0
11
-94.14546
21
9.9375
31
0
39
0
210
0
220
0
230
1
0
LINE
5
CA
100
AcDbEntity
8
SK1
62
256
6
ByLayer
370
18
48
1
60
0
100
AcDbLine
10
0
20
-9.9375
30
0
11
0
21
9.9375
31
0
39
0
210
0
220
0
230
1
0
LINE
5
CB
100
AcDbEntity
8
SK1
62
256
6
ByLayer
370
18
48
1
60
0
100
AcDbLine
10
0
20
-9.9375
30
0
11
-94.14546
21
-9.9375
31
0
39
0
210
0
220
0
230
1
0
LINE
5
CC
100
AcDbEntity
8
SK1
62
256
6
ByLayer
370
18
48
1
60
0
100
AcDbLine
10
-94.14546
20
9.9375
30
0
11
0
21
9.9375
31
0
39
0
210
0
220
0
230
1
0
MTEXT
5
137
100
AcDbEntity
8
SK6
62
256
6
ByLayer
370
18
48
1
60
0
100
AcDbMText
10
-45.09546
20
19.072621
30
0
210
0
220
0
230
1
1
\W0.7507;DCLNL 2020K 12
40
3.5
41
0
44
1.084337
50
0
71
7
72
5
7
iso_b_vert
0
DIMENSION
5
157
100
AcDbEntity
8
2
62
256
6
ByLayer
370
13
48
1
60
0
100
AcDbDimension
2
DimnDraft3D2
10
30.34922
20
-15.328051
30
0
11
19.758658
21
-26.94666
31
0
70
34
71
5
72
1
41
1
210
0
220
0
230
1
3
Standard
100
AcDb2LineAngularDimension
13
32.20454
23
-15.4125
33
0
14
32.20454
24
-13.825
34
0
15
31.345869
25
-15.409841
35
0
16
16.449108
26
-29.995739
36
0
40
0
0
DIMENSION
5
16C
100
AcDbEntity
8
2
62
256
6
ByLayer
370
13
48
1
60
0
100
AcDbDimension
2
DimnDraft3D3
10
32.20454
20
-43.6625
30
0
11
10.820691
21
-43.6625
31
0
70
32
71
5
72
1
41
1
210
0
220
0
230
1
3
Standard
100
AcDbAlignedDimension
13
0
23
-11.9375
33
0
14
32.20454
24
-17.4125
34
0
50
0
100
AcDbRotatedDimension
1001
ACAD
1000
DSTYLE
1002
{
1070
   279
1070
     0
1070
   172
1070
     1
1070
   173
1070
     1
1070
   340
1005
138
1070
    77
1070
     1
1070
    73
1070
     0
1070
   171
1070
     3
1070
   274
1070
     4
1070
   177
1070
     2
1070
   176
1070
     2
1070
   178
1070
     7
1070
    78
1070
     8
1070
    41
1041
3.175
1070
   147
1041
2.25
1070
    42
1041
2.0
1070
    44
1041
2.0
1070
   140
1041
4.5
1070
   343
1005
158
1070
   344
1005
158
1002
}
0
DIMENSION
5
17A
100
AcDbEntity
8
2
62
256
6
ByLayer
370
13
48
1
60
0
100
AcDbDimension
2
DimnDraft3D4
10
54.45454
20
-15.4125
30
0
11
54.45454
21
-8.019079
31
0
70
32
71
5
72
1
41
1
210
0
220
0
230
1
3
Standard
100
AcDbAlignedDimension
13
2
23
9.9375
33
0
14
34.20454
24
-15.4125
34
0
50
90
100
AcDbRotatedDimension
1001
ACAD
1000
DSTYLE
1002
{
1070
    74
1070
     0
1070
   279
1070
     0
1070
   172
1070
     1
1070
   173
1070
     1
1070
   340
1005
138
1070
    77
1070
     1
1070
    73
1070
     0
1070
   171
1070
     3
1070
   274
1070
     4
1070
   177
1070
     2
1070
   176
1070
     2
1070
   178
1070
     7
1070
    78
1070
     8
1070
    41
1041
3.175
1070
   147
1041
2.25
1070
    42
1041
2.0
1070
    44
1041
2.0
1070
   140
1041
4.5
1070
   343
1005
158
1070
   344
1005
158
1002
}
0
DIMENSION
5
188
100
AcDbEntity
8
SK2
62
256
6
ByLayer
370
13
48
1
60
0
100
AcDbDimension
2
DimnDraft3D5
10
-101.89546
20
-9.9375
30
0
11
-101.89546
21
-5.281579
31
0
70
32
71
5
72
1
41
1
210
0
220
0
230
1
3
Standard
100
AcDbAlignedDimension
13
-96.14546
23
9.9375
33
0
14
-96.14546
24
-9.9375
34
0
50
90
100
AcDbRotatedDimension
1001
ACAD
1000
DSTYLE
1002
{
1070
    74
1070
     0
1070
   279
1070
     0
1070
   172
1070
     1
1070
   173
1070
     1
1070
   340
1005
138
1070
    77
1070
     1
1070
    73
1070
     0
1070
   171
1070
     3
1070
   274
1070
     4
1070
   177
1070
     2
1070
   176
1070
     2
1070
   178
1070
     7
1070
    78
1070
     8
1070
    41
1041
3.175
1070
   147
1041
2.25
1070
    42
1041
2.0
1070
    44
1041
2.0
1070
   140
1041
4.5
1070
   343
1005
158
1070
   344
1005
158
1002
}
0
ENDSEC
0
SECTION
2
OBJECTS
0
DICTIONARY
5
1f2
330
0
100
AcDbDictionary
280
0
281
1
3
ACAD_GROUP
350
1f3
3
ACAD_MLINESTYLE
350
1f4
0
DICTIONARY
5
1f3
330
0
100
AcDbDictionary
280
0
281
1
0
DICTIONARY
5
1f4
330
0
100
AcDbDictionary
280
0
281
1
3
Standard
350
18
0
MLINESTYLE
5
18
330
1f4
100
AcDbMlineStyle
2
Standard
70
0
3

62
256
51
90
52
90
71
2
49
-0.5
62
256
6
ByLayer
49
0.5
62
256
6
ByLayer
0
RASTERVARIABLES
5
1e1
330

100
AcDbRasterVariables
90
0
70
1
71
1
72
1
0
ENDSEC
0
EOF
