0
SECTION
2
HEADER
9
$ACADVER
1
AC1015
9
$DWGCODEPAGE
3
ANSI_1252
9
$HANDSEED
5
22b
9
$ANGBASE
50
0
9
$ANGDIR
70
0
9
$ATTMODE
70
1
9
$AUNITS
70
0
9
$AUPREC
70
0
9
$CECOLOR
62
256
9
$CELTSCALE
40
1
9
$CELTYPE
6
ByLayer
9
$CELWEIGHT
370
18
9
$CLAYER
8
0
9
$CMLJUST
70
0
9
$CMLSCALE
40
1
9
$CMLSTYLE
2
Standard
9
$DIMSTYLE
2
Standard
9
$TEXTSIZE
40
0.2
9
$TEXTSTYLE
7
Standard
9
$LUNITS
70
2
9
$LUPREC
70
4
9
$EXTNAMES
290
1
9
$INSUNITS
70
4
9
$LTSCALE
40
1
9
$LWDISPLAY
290
1
9
$PDMODE
70
0
9
$PDSIZE
40
0
9
$PLINEGEN
70
0
0
ENDSEC
0
SECTION
2
CLASSES
0
CLASS
1
RASTERVARIABLES
2
AcDbRasterVariables
3
ISM
90
0
280
0
281
0
0
ENDSEC
0
SECTION
2
TABLES
0
TABLE
2
VPORT
5
221
100
AcDbSymbolTable
0
VPORT
5
1
100
AcDbSymbolTableRecord
100
AcDbViewportTableRecord
2
*Active
70
0
10
0
20
0
11
1
21
1
12
-1
22
1
13
0
23
0
14
0.5
24
0.5
15
10
25
10
16
0
26
0
36
1
17
0
27
0
37
0
0
ENDTAB
0
TABLE
2
LTYPE
5
222
100
AcDbSymbolTable
0
LTYPE
5
14
100
AcDbSymbolTableRecord
100
AcDbLinetypeTableRecord
70
0
2
ByBlock
3

72
65
73
0
40
0
0
LTYPE
5
15
100
AcDbSymbolTableRecord
100
AcDbLinetypeTableRecord
70
0
2
ByLayer
3

72
65
73
0
40
0
0
LTYPE
5
16
100
AcDbSymbolTableRecord
100
AcDbLinetypeTableRecord
70
0
2
CONTINUOUS
3
Solid line
72
65
73
0
40
0
0
LTYPE
5
6A
100
AcDbSymbolTableRecord
100
AcDbLinetypeTableRecord
70
0
2
CENTER
3
____ _ ____ _ ____ _ ____
72
65
73
4
40
47.5
49
22
74
0
49
-8.5
74
0
49
8.5
74
0
49
-8.5
74
0
0
LTYPE
5
6B
100
AcDbSymbolTableRecord
100
AcDbLinetypeTableRecord
70
0
2
DASHED
3
__ __ __ __ __ __ __ __ __
72
65
73
2
40
25.72
49
12.86
74
0
49
-12.86
74
0
0
ENDTAB
0
TABLE
2
LAYER
5
223
100
AcDbSymbolTable
0
LAYER
5
10
100
AcDbSymbolTableRecord
100
AcDbLayerTableRecord
2
0
70
0
62
7
6
CONTINUOUS
290
1
370
-3
390
0
0
LAYER
5
6D
100
AcDbSymbolTableRecord
100
AcDbLayerTableRecord
2
2
70
0
62
7
6
CONTINUOUS
290
1
370
-3
390
0
0
LAYER
5
6F
100
AcDbSymbolTableRecord
100
AcDbLayerTableRecord
2
80
70
0
62
-6
6
CONTINUOUS
290
1
370
-3
390
0
0
LAYER
5
71
100
AcDbSymbolTableRecord
100
AcDbLayerTableRecord
2
81
70
0
62
-3
6
CONTINUOUS
290
1
370
-3
390
0
0
LAYER
5
73
100
AcDbSymbolTableRecord
100
AcDbLayerTableRecord
2
1
70
0
62
4
6
CONTINUOUS
290
1
370
-3
390
0
0
LAYER
5
20e
100
AcDbSymbolTableRecord
100
AcDbLayerTableRecord
2
SK1
70
0
62
4
6
CONTINUOUS
290
1
370
-3
390
0
0
LAYER
5
20f
100
AcDbSymbolTableRecord
100
AcDbLayerTableRecord
2
SK6
70
0
62
5
6
CONTINUOUS
290
1
370
-3
390
0
0
LAYER
5
210
100
AcDbSymbolTableRecord
100
AcDbLayerTableRecord
2
SK2
70
0
62
7
6
CONTINUOUS
290
1
370
-3
390
0
0
ENDTAB
0
TABLE
2
STYLE
5
224
100
AcDbSymbolTable
0
STYLE
5
11
100
AcDbSymbolTableRecord
100
AcDbTextStyleTableRecord
2
Standard
3
txt
70
0
71
0
40
0
41
1
42
0
50
0
0
STYLE
5
164
100
AcDbSymbolTableRecord
100
AcDbTextStyleTableRecord
2
iso_b_vert
3
simplex.shx
70
0
71
0
40
0
41
1
42
0
50
0
0
STYLE
5
165
100
AcDbSymbolTableRecord
100
AcDbTextStyleTableRecord
2
DWGDirectTextStyle
3
simplex
70
0
71
0
40
0
41
1
42
0
50
0
0
ENDTAB
0
TABLE
2
DIMSTYLE
5
225
100
AcDbSymbolTable
100
AcDbDimStyleTable
0
DIMSTYLE
105
27
100
AcDbSymbolTableRecord
100
AcDbDimStyleTableRecord
2
Standard
70
0
3
<>
41
0.18
42
0.0625
44
0.18
140
0.18
147
0.09
73
0
74
0
77
1
271
2
275
0
278
52
280
0
340
11
0
ENDTAB
0
TABLE
2
VIEW
5
226
100
AcDbSymbolTable
0
ENDTAB
0
TABLE
2
UCS
5
227
100
AcDbSymbolTable
0
ENDTAB
0
TABLE
2
APPID
5
228
100
AcDbSymbolTable
0
APPID
5
12
100
AcDbSymbolTableRecord
100
AcDbRegAppTableRecord
2
ACAD
70
0
0
ENDTAB
0
TABLE
2
BLOCK_RECORD
5
229
100
AcDbSymbolTable
0
BLOCK_RECORD
5
1F
100
AcDbSymbolTableRecord
100
AcDbBlockTableRecord
2
*Model_Space
340
0
70
0
0
BLOCK_RECORD
5
1B
100
AcDbSymbolTableRecord
100
AcDbBlockTableRecord
2
*Paper_Space
340
0
70
0
0
BLOCK_RECORD
5
23
100
AcDbSymbolTableRecord
100
AcDbBlockTableRecord
2
*Paper_Space0
340
0
70
0
0
BLOCK_RECORD
5
167
100
AcDbSymbolTableRecord
100
AcDbBlockTableRecord
2
DimnDraft3D11
340
0
70
0
0
BLOCK_RECORD
5
176
100
AcDbSymbolTableRecord
100
AcDbBlockTableRecord
2
DimnDraft3D2
340
0
70
0
0
BLOCK_RECORD
5
184
100
AcDbSymbolTableRecord
100
AcDbBlockTableRecord
2
_CLOSED
340
0
70
0
0
BLOCK_RECORD
5
18B
100
AcDbSymbolTableRecord
100
AcDbBlockTableRecord
2
DimnDraft3D3
340
0
70
0
0
BLOCK_RECORD
5
199
100
AcDbSymbolTableRecord
100
AcDbBlockTableRecord
2
DimnDraft3D4
340
0
70
0
0
BLOCK_RECORD
5
1A7
100
AcDbSymbolTableRecord
100
AcDbBlockTableRecord
2
DimnDraft3D5
340
0
70
0
0
ENDTAB
0
ENDSEC
0
SECTION
2
BLOCKS
0
BLOCK
5
20
100
AcDbEntity
8
0
100
AcDbBlockBegin
2
*Model_Space
70
0
10
0
20
0
30
0
3
*Model_Space
0
ENDBLK
5
21
100
AcDbEntity
8
0
100
AcDbBlockEnd
0
BLOCK
5
1C
100
AcDbEntity
8
0
100
AcDbBlockBegin
2
*Paper_Space
70
0
10
0
20
0
30
0
3
*Paper_Space
0
ENDBLK
5
1D
100
AcDbEntity
8
0
100
AcDbBlockEnd
0
BLOCK
5
24
100
AcDbEntity
8
0
100
AcDbBlockBegin
2
*Paper_Space0
70
0
10
0
20
0
30
0
3
*Paper_Space0
0
ENDBLK
5
25
100
AcDbEntity
8
0
100
AcDbBlockEnd
0
BLOCK
5
168
100
AcDbEntity
8
0
100
AcDbBlockBegin
2
DimnDraft3D11
70
0
10
0
20
0
30
0
3
DimnDraft3D11
0
LINE
5
16A
100
AcDbEntity
8
SK2
62
256
6
ByLayer
370
25
48
1
60
0
100
AcDbLine
10
24.797
20
-17.4125
30
0
11
24.797
21
-55.6625
31
0
39
0
210
0
220
0
230
1
0
LINE
5
16C
100
AcDbEntity
8
SK2
62
256
6
ByLayer
370
25
48
1
60
0
100
AcDbLine
10
-101.553
20
-11.9375
30
0
11
-101.553
21
-55.6625
31
0
39
0
210
0
220
0
230
1
0
LINE
5
16D
100
AcDbEntity
8
SK2
62
256
6
ByLayer
370
25
48
1
60
0
100
AcDbLine
10
24.797
20
-53.6625
30
0
11
-101.553
21
-53.6625
31
0
39
0
210
0
220
0
230
1
0
LINE
5
16E
100
AcDbEntity
8
SK2
62
256
6
ByLayer
370
25
48
1
60
0
100
AcDbLine
10
24.797
20
-53.6625
30
0
11
21.622002
21
-54.080497
31
0
39
0
210
0
220
0
230
1
0
LINE
5
16F
100
AcDbEntity
8
SK2
62
256
6
ByLayer
370
25
48
1
60
0
100
AcDbLine
10
24.797
20
-53.6625
30
0
11
21.621999
21
-53.244503
31
0
39
0
210
0
220
0
230
1
0
LINE
5
170
100
AcDbEntity
8
SK2
62
256
6
ByLayer
370
25
48
1
60
0
100
AcDbLine
10
21.622002
20
-54.080497
30
0
11
21.621999
21
-53.244503
31
0
39
0
210
0
220
0
230
1
0
LINE
5
171
100
AcDbEntity
8
SK2
62
256
6
ByLayer
370
25
48
1
60
0
100
AcDbLine
10
-101.553
20
-53.6625
30
0
11
-98.378001
21
-53.244503
31
0
39
0
210
0
220
0
230
1
0
LINE
5
172
100
AcDbEntity
8
SK2
62
256
6
ByLayer
370
25
48
1
60
0
100
AcDbLine
10
-101.553
20
-53.6625
30
0
11
-98.377998
21
-54.080497
31
0
39
0
210
0
220
0
230
1
0
LINE
5
173
100
AcDbEntity
8
SK2
62
256
6
ByLayer
370
25
48
1
60
0
100
AcDbLine
10
-98.378001
20
-53.244503
30
0
11
-98.377998
21
-54.080497
31
0
39
0
210
0
220
0
230
1
0
MTEXT
5
174
100
AcDbEntity
8
SK2
62
256
6
ByLayer
370
18
48
1
60
0
100
AcDbMText
10
-43.653658
20
-52.5375
30
0
210
0
220
0
230
1
1
\W0.6864;125.0
40
4.5
41
0
44
1.084337
50
0
71
7
72
5
7
iso_b_vert
0
ENDBLK
5
169
100
AcDbEntity
8
0
100
AcDbBlockEnd
0
BLOCK
5
181
100
AcDbEntity
8
0
100
AcDbBlockBegin
2
DimnDraft3D2
70
0
10
0
20
0
30
0
3
DimnDraft3D2
0
MTEXT
5
177
100
AcDbEntity
8
2
62
256
6
ByLayer
370
18
48
1
60
0
100
AcDbMText
10
7.891067
20
-27.086616
30
0
210
0
220
0
230
1
1
\W0.7399;95%%d
40
4.5
41
0
44
1.084337
50
312.65427684
71
7
72
5
7
iso_b_vert
0
LINE
5
178
100
AcDbEntity
8
2
62
256
6
ByLayer
370
13
48
1
60
0
100
AcDbLine
10
24.797
20
-17.4125
30
0
11
24.797
21
-38.902991
31
0
39
0
210
0
220
0
230
1
0
LINE
5
179
100
AcDbEntity
8
2
62
256
6
ByLayer
370
13
48
1
60
0
100
AcDbLine
10
20.948381
20
-15.164471
30
0
11
1.452791
21
-13.564572
31
0
39
0
210
0
220
0
230
1
0
ARC
5
17A
100
AcDbEntity
8
2
62
256
6
ByLayer
370
13
48
1
60
0
100
AcDbCircle
39
0
10
24.797
20
-15.480307
30
0
40
21.4226837817216
210
0
220
0
230
1
100
AcDbArc
50
175.308554
51
270
0
LINE
5
17B
100
AcDbEntity
8
2
62
256
6
ByLayer
370
13
48
1
60
0
100
AcDbLine
10
24.797
20
-36.902991
30
0
11
21.608717
21
-37.203304
31
0
39
0
210
0
220
0
230
1
0
LINE
5
17C
100
AcDbEntity
8
2
62
256
6
ByLayer
370
13
48
1
60
0
100
AcDbLine
10
24.797
20
-36.902991
30
0
11
21.639625
21
-36.367882
31
0
39
0
210
0
220
0
230
1
0
LINE
5
17D
100
AcDbEntity
8
2
62
256
6
ByLayer
370
13
48
1
60
0
100
AcDbLine
10
21.608717
20
-37.203304
30
0
11
21.639625
21
-36.367882
31
0
39
0
210
0
220
0
230
1
0
LINE
5
17E
100
AcDbEntity
8
2
62
256
6
ByLayer
370
13
48
1
60
0
100
AcDbLine
10
3.446091
20
-13.728152
30
0
11
3.721166
21
-16.918711
31
0
39
0
210
0
220
0
230
1
0
LINE
5
17F
100
AcDbEntity
8
2
62
256
6
ByLayer
370
13
48
1
60
0
100
AcDbLine
10
3.446091
20
-13.728152
30
0
11
2.886015
21
-16.881193
31
0
39
0
210
0
220
0
230
1
0
LINE
5
180
100
AcDbEntity
8
2
62
256
6
ByLayer
370
13
48
1
60
0
100
AcDbLine
10
3.721166
20
-16.918711
30
0
11
2.886015
21
-16.881193
31
0
39
0
210
0
220
0
230
1
0
ENDBLK
5
182
100
AcDbEntity
8
0
100
AcDbBlockEnd
0
BLOCK
5
185
100
AcDbEntity
8
0
100
AcDbBlockBegin
2
_CLOSED
70
0
10
0
20
0
30
0
3
_CLOSED
0
LINE
5
187
100
AcDbEntity
8
0
62
256
6
ByLayer
370
-2
48
1
60
0
100
AcDbLine
10
-1
20
0.166667
30
0
11
0
21
0
31
0
39
0
210
0
220
0
230
1
0
LINE
5
188
100
AcDbEntity
8
0
62
256
6
ByLayer
370
-2
48
1
60
0
100
AcDbLine
10
0
20
0
30
0
11
-1
21
-0.166667
31
0
39
0
210
0
220
0
230
1
0
LINE
5
189
100
AcDbEntity
8
0
62
256
6
ByLayer
370
-2
48
1
60
0
100
AcDbLine
10
-1
20
0.166667
30
0
11
-1
21
-0.166667
31
0
39
0
210
0
220
0
230
1
0
LINE
5
18A
100
AcDbEntity
8
0
62
256
6
ByLayer
370
-2
48
1
60
0
100
AcDbLine
10
0
20
0
30
0
11
-1
21
0
31
0
39
0
210
0
220
0
230
1
0
ENDBLK
5
186
100
AcDbEntity
8
0
100
AcDbBlockEnd
0
BLOCK
5
196
100
AcDbEntity
8
0
100
AcDbBlockBegin
2
DimnDraft3D3
70
0
10
0
20
0
30
0
3
DimnDraft3D3
0
MTEXT
5
18C
100
AcDbEntity
8
2
62
256
6
ByLayer
370
18
48
1
60
0
100
AcDbMText
10
8.005079
20
-42.5375
30
0
210
0
220
0
230
1
1
\W0.7640;24.8
40
4.5
41
0
44
1.084337
50
0
71
7
72
5
7
iso_b_vert
0
LINE
5
18D
100
AcDbEntity
8
2
62
256
6
ByLayer
370
13
48
1
60
0
100
AcDbLine
10
0
20
-11.9375
30
0
11
0
21
-45.6625
31
0
39
0
210
0
220
0
230
1
0
LINE
5
18E
100
AcDbEntity
8
2
62
256
6
ByLayer
370
13
48
1
60
0
100
AcDbLine
10
24.797
20
-17.4125
30
0
11
24.797
21
-45.6625
31
0
39
0
210
0
220
0
230
1
0
LINE
5
18F
100
AcDbEntity
8
2
62
256
6
ByLayer
370
13
48
1
60
0
100
AcDbLine
10
0
20
-43.6625
30
0
11
24.797
21
-43.6625
31
0
39
0
210
0
220
0
230
1
0
LINE
5
190
100
AcDbEntity
8
2
62
256
6
ByLayer
370
13
48
1
60
0
100
AcDbLine
10
0
20
-43.6625
30
0
11
3.174998
21
-43.244503
31
0
39
0
210
0
220
0
230
1
0
LINE
5
191
100
AcDbEntity
8
2
62
256
6
ByLayer
370
13
48
1
60
0
100
AcDbLine
10
0
20
-43.6625
30
0
11
3.175002
21
-44.080497
31
0
39
0
210
0
220
0
230
1
0
LINE
5
192
100
AcDbEntity
8
2
62
256
6
ByLayer
370
13
48
1
60
0
100
AcDbLine
10
3.174998
20
-43.244503
30
0
11
3.175002
21
-44.080497
31
0
39
0
210
0
220
0
230
1
0
LINE
5
193
100
AcDbEntity
8
2
62
256
6
ByLayer
370
13
48
1
60
0
100
AcDbLine
10
24.797
20
-43.6625
30
0
11
21.622002
21
-44.080497
31
0
39
0
210
0
220
0
230
1
0
LINE
5
194
100
AcDbEntity
8
2
62
256
6
ByLayer
370
13
48
1
60
0
100
AcDbLine
10
24.797
20
-43.6625
30
0
11
21.621999
21
-43.244503
31
0
39
0
210
0
220
0
230
1
0
LINE
5
195
100
AcDbEntity
8
2
62
256
6
ByLayer
370
13
48
1
60
0
100
AcDbLine
10
21.622002
20
-44.080497
30
0
11
21.621999
21
-43.244503
31
0
39
0
210
0
220
0
230
1
0
ENDBLK
5
197
100
AcDbEntity
8
0
100
AcDbBlockEnd
0
BLOCK
5
1A4
100
AcDbEntity
8
0
100
AcDbBlockBegin
2
DimnDraft3D4
70
0
10
0
20
0
30
0
3
DimnDraft3D4
0
MTEXT
5
19A
100
AcDbEntity
8
2
62
256
6
ByLayer
370
18
48
1
60
0
100
AcDbMText
10
45.922
20
-6.894079
30
0
210
0
220
0
230
1
1
\W0.7346;25.0
40
4.5
41
0
44
1.084337
50
90
71
7
72
5
7
iso_b_vert
0
LINE
5
19B
100
AcDbEntity
8
2
62
256
6
ByLayer
370
13
48
1
60
0
100
AcDbLine
10
2
20
9.9375
30
0
11
49.047
21
9.9375
31
0
39
0
210
0
220
0
230
1
0
LINE
5
19C
100
AcDbEntity
8
2
62
256
6
ByLayer
370
13
48
1
60
0
100
AcDbLine
10
26.797
20
-15.4125
30
0
11
49.047
21
-15.4125
31
0
39
0
210
0
220
0
230
1
0
LINE
5
19D
100
AcDbEntity
8
2
62
256
6
ByLayer
370
13
48
1
60
0
100
AcDbLine
10
47.047
20
9.9375
30
0
11
47.047
21
-15.4125
31
0
39
0
210
0
220
0
230
1
0
LINE
5
19E
100
AcDbEntity
8
2
62
256
6
ByLayer
370
13
48
1
60
0
100
AcDbLine
10
47.047
20
9.9375
30
0
11
47.464997
21
6.762502
31
0
39
0
210
0
220
0
230
1
0
LINE
5
19F
100
AcDbEntity
8
2
62
256
6
ByLayer
370
13
48
1
60
0
100
AcDbLine
10
47.047
20
9.9375
30
0
11
46.629003
21
6.762498
31
0
39
0
210
0
220
0
230
1
0
LINE
5
1A0
100
AcDbEntity
8
2
62
256
6
ByLayer
370
13
48
1
60
0
100
AcDbLine
10
47.464997
20
6.762502
30
0
11
46.629003
21
6.762498
31
0
39
0
210
0
220
0
230
1
0
LINE
5
1A1
100
AcDbEntity
8
2
62
256
6
ByLayer
370
13
48
1
60
0
100
AcDbLine
10
47.047
20
-15.4125
30
0
11
46.629003
21
-12.237502
31
0
39
0
210
0
220
0
230
1
0
LINE
5
1A2
100
AcDbEntity
8
2
62
256
6
ByLayer
370
13
48
1
60
0
100
AcDbLine
10
47.047
20
-15.4125
30
0
11
47.464997
21
-12.237498
31
0
39
0
210
0
220
0
230
1
0
LINE
5
1A3
100
AcDbEntity
8
2
62
256
6
ByLayer
370
13
48
1
60
0
100
AcDbLine
10
46.629003
20
-12.237502
30
0
11
47.464997
21
-12.237498
31
0
39
0
210
0
220
0
230
1
0
ENDBLK
5
1A5
100
AcDbEntity
8
0
100
AcDbBlockEnd
0
BLOCK
5
1B2
100
AcDbEntity
8
0
100
AcDbBlockBegin
2
DimnDraft3D5
70
0
10
0
20
0
30
0
3
DimnDraft3D5
0
MTEXT
5
1A8
100
AcDbEntity
8
SK2
62
256
6
ByLayer
370
18
48
1
60
0
100
AcDbMText
10
-110.428
20
-4.156579
30
0
210
0
220
0
230
1
1
\W0.7346;20.0
40
4.5
41
0
44
1.084337
50
90
71
7
72
5
7
iso_b_vert
0
LINE
5
1A9
100
AcDbEntity
8
SK2
62
256
6
ByLayer
370
13
48
1
60
0
100
AcDbLine
10
-103.553
20
9.9375
30
0
11
-111.303
21
9.9375
31
0
39
0
210
0
220
0
230
1
0
LINE
5
1AA
100
AcDbEntity
8
SK2
62
256
6
ByLayer
370
13
48
1
60
0
100
AcDbLine
10
-103.553
20
-9.9375
30
0
11
-111.303
21
-9.9375
31
0
39
0
210
0
220
0
230
1
0
LINE
5
1AB
100
AcDbEntity
8
SK2
62
256
6
ByLayer
370
13
48
1
60
0
100
AcDbLine
10
-109.303
20
21.1875
30
0
11
-109.303
21
-21.1875
31
0
39
0
210
0
220
0
230
1
0
LINE
5
1AC
100
AcDbEntity
8
SK2
62
256
6
ByLayer
370
13
48
1
60
0
100
AcDbLine
10
-109.303
20
9.9375
30
0
11
-109.720997
21
13.112498
31
0
39
0
210
0
220
0
230
1
0
LINE
5
1AD
100
AcDbEntity
8
SK2
62
256
6
ByLayer
370
13
48
1
60
0
100
AcDbLine
10
-109.303
20
9.9375
30
0
11
-108.885003
21
13.112502
31
0
39
0
210
0
220
0
230
1
0
LINE
5
1AE
100
AcDbEntity
8
SK2
62
256
6
ByLayer
370
13
48
1
60
0
100
AcDbLine
10
-109.720997
20
13.112498
30
0
11
-108.885003
21
13.112502
31
0
39
0
210
0
220
0
230
1
0
LINE
5
1AF
100
AcDbEntity
8
SK2
62
256
6
ByLayer
370
13
48
1
60
0
100
AcDbLine
10
-109.303
20
-9.9375
30
0
11
-108.885003
21
-13.112498
31
0
39
0
210
0
220
0
230
1
0
LINE
5
1B0
100
AcDbEntity
8
SK2
62
256
6
ByLayer
370
13
48
1
60
0
100
AcDbLine
10
-109.303
20
-9.9375
30
0
11
-109.720997
21
-13.112502
31
0
39
0
210
0
220
0
230
1
0
LINE
5
1B1
100
AcDbEntity
8
SK2
62
256
6
ByLayer
370
13
48
1
60
0
100
AcDbLine
10
-108.885003
20
-13.112498
30
0
11
-109.720997
21
-13.112502
31
0
39
0
210
0
220
0
230
1
0
ENDBLK
5
1B3
100
AcDbEntity
8
0
100
AcDbBlockEnd
0
ENDSEC
0
SECTION
2
ENTITIES
0
ELLIPSE
5
D2
100
AcDbEntity
8
1
62
256
6
ByLayer
370
18
48
1
60
0
100
AcDbEllipse
10
19.689121
20
-10.304621
30
0
11
1.34703841816345
21
1.34703841815729
31
0
210
0
220
0
230
1
40
0.989133
41
-2.86769082054828
42
0
0
ELLIPSE
5
D3
100
AcDbEntity
8
1
62
256
6
ByLayer
370
18
48
1
60
0
100
AcDbEllipse
10
19.689121
20
-10.304621
30
0
11
1.34703841816345
21
1.34703841815729
31
0
210
0
220
0
230
1
40
0.989133
41
0
42
0.0781413955214285
0
ELLIPSE
5
D4
100
AcDbEntity
8
1
62
256
6
ByLayer
370
18
48
1
60
0
100
AcDbEllipse
10
19.358523
20
-9.974023
30
0
11
-1.34703841816346
21
-1.34703841815729
31
0
210
0
220
0
230
1
40
0.989133
41
2.94818270642972
42
-0.769008880426868
0
ELLIPSE
5
D5
100
AcDbEntity
8
1
62
256
6
ByLayer
370
18
48
1
60
0
100
AcDbEllipse
10
19.358523
20
-9.974023
30
0
11
-1.34703841816346
21
-1.34703841815729
31
0
210
0
220
0
230
1
40
0.989133
41
2.54645126421667
42
2.94818217594462
0
ELLIPSE
5
D6
100
AcDbEntity
8
1
62
256
6
ByLayer
370
18
48
1
60
0
100
AcDbEllipse
10
15.69535
20
-13.637196
30
0
11
0.561442784263403
21
0.561442784260835
31
0
210
0
220
0
230
1
40
0.989133
41
2.81473559615062
42
3.14159259036297
0
ELLIPSE
5
D7
100
AcDbEntity
8
1
62
256
6
ByLayer
370
18
48
1
60
0
100
AcDbEllipse
10
23.021696
20
-6.31085
30
0
11
0.561442784263403
21
0.561442784260835
31
0
210
0
220
0
230
1
40
0.989133
41
0
42
0.326856931129292
0
ELLIPSE
5
D8
100
AcDbEntity
8
1
62
256
6
ByLayer
370
18
48
1
60
0
100
AcDbEllipse
10
4.03518
20
-5.843329
30
0
11
2.0817652655485
21
2.16015123988016
31
0
210
0
220
0
230
1
40
0.986455
41
0.0605722051465669
42
0.156280282981032
0
ELLIPSE
5
D9
100
AcDbEntity
8
1
62
256
6
ByLayer
370
18
48
1
60
0
100
AcDbEllipse
10
11.23266
20
-5.131709
30
0
11
-0.205060966544569
21
-0.205060966543629
31
0
210
0
220
0
230
1
40
0.989133
41
0.309701003274959
42
2.66168475219909
0
ELLIPSE
5
DA
100
AcDbEntity
8
1
62
256
6
ByLayer
370
18
48
1
60
0
100
AcDbEllipse
10
16.743484
20
-4.009467
30
0
11
1.29002132421482
21
1.29002132420892
31
0
210
0
220
0
230
1
40
0.989133
41
-0.698131700797721
42
0.660533517598182
0
ELLIPSE
5
DB
100
AcDbEntity
8
1
62
256
6
ByLayer
370
18
48
1
60
0
100
AcDbEllipse
10
16.083328
20
-3.349311
30
0
11
1.34226869441038
21
1.34226869440424
31
0
210
0
220
0
230
1
40
0.989133
41
-0.698131700797738
42
-0.331399743463169
0
ELLIPSE
5
DC
100
AcDbEntity
8
1
62
256
6
ByLayer
370
18
48
1
60
0
100
AcDbEllipse
10
16.067734
20
-3.333717
30
0
11
1.23620267723215
21
1.2362026772265
31
0
210
0
220
0
230
1
40
0.989133
41
-0.698131700797734
42
-0.197096541498701
0
ELLIPSE
5
DD
100
AcDbEntity
8
1
62
256
6
ByLayer
370
18
48
1
60
0
100
AcDbEllipse
10
9.883182
20
-4.190567
30
0
11
-0.205060966544569
21
-0.205060966543629
31
0
210
0
220
0
230
1
40
0.989133
41
0.353229769708006
42
0.567289649805844
0
ELLIPSE
5
DE
100
AcDbEntity
8
1
62
256
6
ByLayer
370
18
48
1
60
0
100
AcDbEllipse
10
10.94436
20
-3.079419
30
0
11
0.222738636074272
21
0.222738636073253
31
0
210
0
220
0
230
1
40
0.989133
41
3.08223018041554
42
-3.14159012966995
0
ELLIPSE
5
DF
100
AcDbEntity
8
1
62
256
6
ByLayer
370
18
48
1
60
0
100
AcDbEllipse
10
10.797491
20
-4.232199
30
0
11
0.636396103069348
21
0.636396103066437
31
0
210
0
220
0
230
1
40
0.989133
41
-3.10203363993164
42
-0.0288691914425473
0
ELLIPSE
5
E0
100
AcDbEntity
8
1
62
256
6
ByLayer
370
18
48
1
60
0
100
AcDbEllipse
10
10.833878
20
-4.268586
30
0
11
0.636396103069348
21
0.636396103066437
31
0
210
0
220
0
230
1
40
0.989133
41
0.835105230840965
42
1.4474163434609
0
ELLIPSE
5
E1
100
AcDbEntity
8
1
62
256
6
ByLayer
370
18
48
1
60
0
100
AcDbEllipse
10
10.833878
20
-4.268586
30
0
11
0.636396103069348
21
0.636396103066437
31
0
210
0
220
0
230
1
40
0.989133
41
-0.255573825305308
42
0.293954814394664
0
ELLIPSE
5
E2
100
AcDbEntity
8
1
62
256
6
ByLayer
370
18
48
1
60
0
100
AcDbEllipse
10
10.833878
20
-4.268586
30
0
11
0.636396103069348
21
0.636396103066437
31
0
210
0
220
0
230
1
40
0.989133
41
-3.14158949611601
42
-2.53695297788562
0
ELLIPSE
5
E3
100
AcDbEntity
8
1
62
256
6
ByLayer
370
18
48
1
60
0
100
AcDbEllipse
10
10.833878
20
-4.268586
30
0
11
0.636396103069348
21
0.636396103066437
31
0
210
0
220
0
230
1
40
0.989133
41
2.10215415115854
42
2.69903477809737
0
ELLIPSE
5
E4
100
AcDbEntity
8
1
62
256
6
ByLayer
370
18
48
1
60
0
100
AcDbEllipse
10
9.749772
20
-4.778736
30
0
11
0.222738636074272
21
0.222738636073253
31
0
210
0
220
0
230
1
40
0.989133
41
1.68772960935199E-06
42
0.567289649805898
0
ELLIPSE
5
E5
100
AcDbEntity
8
1
62
256
6
ByLayer
370
18
48
1
60
0
100
AcDbEllipse
10
11.385792
20
-3.483481
30
0
11
-0.205060966544569
21
-0.205060966543629
31
0
210
0
220
0
230
1
40
0.989133
41
1.87617130298629
42
2.78833570377246
0
ELLIPSE
5
E6
100
AcDbEntity
8
1
62
256
6
ByLayer
370
18
48
1
60
0
100
AcDbEllipse
10
10.755907
20
-4.190615
30
0
11
2.26274169980213
21
2.26274169979178
31
0
210
0
220
0
230
1
40
0.989133
41
0.790861447994069
42
3.14158704533069
0
ELLIPSE
5
E7
100
AcDbEntity
8
1
62
256
6
ByLayer
370
18
48
1
60
0
100
AcDbEllipse
10
10.755907
20
-4.190615
30
0
11
2.26274169980213
21
2.26274169979178
31
0
210
0
220
0
230
1
40
0.989133
41
9.24095939361406E-05
42
0.790861133810254
0
ELLIPSE
5
E8
100
AcDbEntity
8
1
62
256
6
ByLayer
370
18
48
1
60
0
100
AcDbEllipse
10
10.281964
20
-5.053691
30
0
11
-0.205060966544569
21
-0.205060966543629
31
0
210
0
220
0
230
1
40
0.989133
41
0.35326669266618
42
1.61448720100246
0
ELLIPSE
5
E9
100
AcDbEntity
8
1
62
256
6
ByLayer
370
18
48
1
60
0
100
AcDbEllipse
10
11.917984
20
-3.758436
30
0
11
0.222738636074272
21
0.222738636073253
31
0
210
0
220
0
230
1
40
0.989133
41
3.06252645700471
42
-3.14159189831855
0
ELLIPSE
5
EA
100
AcDbEntity
8
1
62
256
6
ByLayer
370
18
48
1
60
0
100
AcDbEllipse
10
11.784574
20
-4.346604
30
0
11
-0.205060966544569
21
-0.205060966543629
31
0
210
0
220
0
230
1
40
0.989133
41
0.828973751789641
42
2.78830248259818
0
ELLIPSE
5
EB
100
AcDbEntity
8
1
62
256
6
ByLayer
370
18
48
1
60
0
100
AcDbEllipse
10
10.723395
20
-5.457753
30
0
11
0.222738636074272
21
0.222738636073253
31
0
210
0
220
0
230
1
40
0.989133
41
2.52391976393214E-06
42
0.428132046983933
0
ELLIPSE
5
EC
100
AcDbEntity
8
1
62
256
6
ByLayer
370
18
48
1
60
0
100
AcDbEllipse
10
11.311403
20
-4.577358
30
0
11
-2.32463787986249
21
-2.41216888453284
31
0
210
0
220
0
230
1
40
0.986455
41
0.156280282981031
42
-3.13758130361807
0
ELLIPSE
5
ED
100
AcDbEntity
8
1
62
256
6
ByLayer
370
18
48
1
60
0
100
AcDbEllipse
10
10.613971
20
0.235123
30
0
11
-3.60239776850916
21
2.7001165425893
31
0
210
0
220
0
230
1
40
0.223221
41
0.549363538404684
42
0.611011702009352
0
ELLIPSE
5
EE
100
AcDbEntity
8
1
62
256
6
ByLayer
370
18
48
1
60
0
100
AcDbEllipse
10
8.152469
20
1.530774
30
0
11
-2.20146803790388
21
-1.18791661358776
31
0
210
0
220
0
230
1
40
0.99535
41
-2.21947773170462
42
-1.10568333559346
0
ELLIPSE
5
EF
100
AcDbEntity
8
1
62
256
6
ByLayer
370
18
48
1
60
0
100
AcDbEllipse
10
19.935627
20
-10.530253
30
0
11
-1.49135680608408
21
-0.763642317613799
31
0
210
0
220
0
230
1
40
0.824475
41
1.7242886863005
42
2.00537237124612
0
ELLIPSE
5
F0
100
AcDbEntity
8
1
62
256
6
ByLayer
370
18
48
1
60
0
100
AcDbEllipse
10
19.935627
20
-10.530253
30
0
11
-0.498977414297153
21
-1.63519791085455
31
0
210
0
220
0
230
1
40
0.830433
41
1.32905028550732
42
1.61013397041639
0
ELLIPSE
5
F1
100
AcDbEntity
8
1
62
256
6
ByLayer
370
18
48
1
60
0
100
AcDbEllipse
10
8.544438
20
1.15483
30
0
11
1.62447811879934
21
0.775287586345958
31
0
210
0
220
0
230
1
40
0.780905
41
0.570032818628273
42
2.00026262507707
0
ELLIPSE
5
F2
100
AcDbEntity
8
1
62
256
6
ByLayer
370
18
48
1
60
0
100
AcDbEllipse
10
7.345146
20
-4.41482
30
0
11
3.68137961684051
21
-2.58794206208547
31
0
210
0
220
0
230
1
40
0.02553
41
-2.38372964245494
42
-1.94485307362605
0
ELLIPSE
5
F3
100
AcDbEntity
8
1
62
256
6
ByLayer
370
18
48
1
60
0
100
AcDbEllipse
10
11.654867
20
1.572418
30
0
11
-2.12265528407581
21
1.67444744023439
31
0
210
0
220
0
230
1
40
0.354399
41
-0.117711966623399
42
0.62377891710542
0
ELLIPSE
5
F4
100
AcDbEntity
8
1
62
256
6
ByLayer
370
18
48
1
60
0
100
AcDbEllipse
10
9.874753
20
-0.816422
30
0
11
3.68137961684051
21
-2.58794206208547
31
0
210
0
220
0
230
1
40
0.02553
41
-2.38372964245488
42
-1.94485307362607
0
ELLIPSE
5
F5
100
AcDbEntity
8
1
62
256
6
ByLayer
370
18
48
1
60
0
100
AcDbEllipse
10
6.782925
20
-5.278796
30
0
11
-3.59884832696958
21
0.244795226430176
31
0
210
0
220
0
230
1
40
0.441633
41
0.342187603470862
42
0.633811467006731
0
ELLIPSE
5
F6
100
AcDbEntity
8
1
62
256
6
ByLayer
370
18
48
1
60
0
100
AcDbEllipse
10
4.645514
20
-3.457914
30
0
11
-2.20146803791146
21
-1.18791661357068
31
0
210
0
220
0
230
1
40
0.99535
41
-1.10568333558587
42
0.00811106052589822
0
ELLIPSE
5
F7
100
AcDbEntity
8
1
62
256
6
ByLayer
370
18
48
1
60
0
100
AcDbEllipse
10
10.28988
20
-0.290108
30
0
11
-1.14831778083619
21
3.59576698877693
31
0
210
0
220
0
230
1
40
0.470983
41
-0.552170964417553
42
-0.260547100900967
0
ELLIPSE
5
F8
100
AcDbEntity
8
1
62
256
6
ByLayer
370
18
48
1
60
0
100
AcDbEllipse
10
4.994894
20
-3.894439
30
0
11
0.282985318681077
21
1.77761618731687
31
0
210
0
220
0
230
1
40
0.79553
41
1.21480414950783
42
2.64503395595662
0
ELLIPSE
5
F9
100
AcDbEntity
8
1
62
256
6
ByLayer
370
18
48
1
60
0
100
AcDbEllipse
10
6.386896
20
5.654883
30
0
11
4.90850615578735
21
-3.45058941611396
31
0
210
0
220
0
230
1
40
0.02553
41
0.808573903783103
42
0.810463024860305
0
ELLIPSE
5
FA
100
AcDbEntity
8
1
62
256
6
ByLayer
370
18
48
1
60
0
100
AcDbEllipse
10
6.605928
20
-5.466364
30
0
11
-3.75858763636561
21
2.47800815688132
31
0
210
0
220
0
230
1
40
0.172209
41
-0.609347431431696
42
-0.547699248615803
0
ELLIPSE
5
FB
100
AcDbEntity
8
1
62
256
6
ByLayer
370
18
48
1
60
0
100
AcDbEllipse
10
5.683417
20
-6.922044
30
0
11
-2.29112180354167
21
1.43508930381969
31
0
210
0
220
0
230
1
40
0.303503
41
-0.620348604311286
42
0.121142279421006
0
ELLIPSE
5
FC
100
AcDbEntity
8
1
62
256
6
ByLayer
370
18
48
1
60
0
100
AcDbEllipse
10
10.969724
20
-4.404432
30
0
11
0.636396103069348
21
0.636396103066437
31
0
210
0
220
0
230
1
40
0.989133
41
-0.442557875502153
42
-0.255573825305162
0
ELLIPSE
5
FD
100
AcDbEntity
8
1
62
256
6
ByLayer
370
18
48
1
60
0
100
AcDbEllipse
10
10.969724
20
-4.404432
30
0
11
0.636396103069348
21
0.636396103066437
31
0
210
0
220
0
230
1
40
0.989133
41
-1.48975542668901
42
-1.30277137650192
0
ELLIPSE
5
FE
100
AcDbEntity
8
1
62
256
6
ByLayer
370
18
48
1
60
0
100
AcDbEllipse
10
10.723395
20
-5.457753
30
0
11
0.222738636074272
21
0.222738636073253
31
0
210
0
220
0
230
1
40
0.989133
41
0.968131354611483
42
1.6144872010025
0
ELLIPSE
5
FF
100
AcDbEntity
8
1
62
256
6
ByLayer
370
18
48
1
60
0
100
AcDbEllipse
10
10.969724
20
-4.404432
30
0
11
0.636396103069348
21
0.636396103066437
31
0
210
0
220
0
230
1
40
0.989133
41
1.6518372269008
42
1.83882127708787
0
ELLIPSE
5
100
100
AcDbEntity
8
1
62
256
6
ByLayer
370
18
48
1
60
0
100
AcDbEllipse
10
11.807501
20
-4.947603
30
0
11
0.222738636074272
21
0.222738636073253
31
0
210
0
220
0
230
1
40
0.989133
41
0.828973751789634
42
1.47532959818065
0
ELLIPSE
5
101
100
AcDbEntity
8
1
62
256
6
ByLayer
370
18
48
1
60
0
100
AcDbEllipse
10
11.917984
20
-3.758436
30
0
11
0.222738636074272
21
0.222738636073253
31
0
210
0
220
0
230
1
40
0.989133
41
1.8761713029862
42
2.52252714937724
0
ELLIPSE
5
102
100
AcDbEntity
8
1
62
256
6
ByLayer
370
18
48
1
60
0
100
AcDbEllipse
10
10.863744
20
-5.598101
30
0
11
0.222738636074272
21
0.222738636073253
31
0
210
0
220
0
230
1
40
0.989133
41
-0.218223799407045
42
0.254976468358187
0
ELLIPSE
5
103
100
AcDbEntity
8
1
62
256
6
ByLayer
370
18
48
1
60
0
100
AcDbEllipse
10
12.058332
20
-3.898784
30
0
11
0.222738636074272
21
0.222738636073253
31
0
210
0
220
0
230
1
40
0.989133
41
1.8761713029862
42
2.3493715707514
0
ELLIPSE
5
104
100
AcDbEntity
8
1
62
256
6
ByLayer
370
18
48
1
60
0
100
AcDbEllipse
10
11.924922
20
-4.486953
30
0
11
-0.205060966544569
21
-0.205060966543629
31
0
210
0
220
0
230
1
40
0.989133
41
0.828973751789644
42
-2.57430300378388
0
ELLIPSE
5
105
100
AcDbEntity
8
1
62
256
6
ByLayer
370
18
48
1
60
0
100
AcDbEllipse
10
10.422312
20
-5.194039
30
0
11
-0.205060966544569
21
-0.205060966543629
31
0
210
0
220
0
230
1
40
0.989133
41
-1.26542135060356
42
1.61448720100246
0
ELLIPSE
5
106
100
AcDbEntity
8
1
62
256
6
ByLayer
370
18
48
1
60
0
100
AcDbEllipse
10
9.89012
20
-4.919084
30
0
11
0.222738636074272
21
0.222738636073253
31
0
210
0
220
0
230
1
40
0.989133
41
-1.26542135060365
42
-0.792221082838426
0
ELLIPSE
5
107
100
AcDbEntity
8
1
62
256
6
ByLayer
370
18
48
1
60
0
100
AcDbEllipse
10
10.575445
20
-3.545811
30
0
11
-0.205060966544569
21
-0.205060966543629
31
0
210
0
220
0
230
1
40
0.989133
41
2.92336885418279
42
-0.479907901390685
0
ELLIPSE
5
108
100
AcDbEntity
8
1
62
256
6
ByLayer
370
18
48
1
60
0
100
AcDbEllipse
10
10.863744
20
-5.598101
30
0
11
0.222738636074272
21
0.222738636073253
31
0
210
0
220
0
230
1
40
0.989133
41
1.14128693323734
42
1.61448720100246
0
ELLIPSE
5
109
100
AcDbEntity
8
1
62
256
6
ByLayer
370
18
48
1
60
0
100
AcDbEllipse
10
10.974226
20
-4.408934
30
0
11
0.654073772599053
21
0.654073772596061
31
0
210
0
220
0
230
1
40
0.989133
41
-2.59000598358025
42
-2.29691592200387
0
ELLIPSE
5
10A
100
AcDbEntity
8
1
62
256
6
ByLayer
370
18
48
1
60
0
100
AcDbEllipse
10
10.974226
20
-4.408934
30
0
11
0.654073772599053
21
0.654073772596061
31
0
210
0
220
0
230
1
40
0.989133
41
-1.54280843238362
42
-1.24971837080728
0
ELLIPSE
5
10B
100
AcDbEntity
8
1
62
256
6
ByLayer
370
18
48
1
60
0
100
AcDbEllipse
10
12.058332
20
-3.898784
30
0
11
0.222738636074272
21
0.222738636073253
31
0
210
0
220
0
230
1
40
0.989133
41
-3.04750327154917
42
-2.57430300378387
0
ELLIPSE
5
10C
100
AcDbEntity
8
1
62
256
6
ByLayer
370
18
48
1
60
0
100
AcDbEllipse
10
11.94785
20
-5.087951
30
0
11
0.222738636074272
21
0.222738636073253
31
0
210
0
220
0
230
1
40
0.989133
41
0.82897375178954
42
1.30217401955484
0
ELLIPSE
5
10D
100
AcDbEntity
8
1
62
256
6
ByLayer
370
18
48
1
60
0
100
AcDbEllipse
10
10.974226
20
-4.408934
30
0
11
-1.34350288425752
21
-1.34350288425136
31
0
210
0
220
0
230
1
40
0.989133
41
0
42
6.28318530717959
0
ELLIPSE
5
10E
100
AcDbEntity
8
1
62
256
6
ByLayer
370
18
48
1
60
0
100
AcDbEllipse
10
11.084709
20
-3.219767
30
0
11
0.222738636074272
21
0.222738636073253
31
0
210
0
220
0
230
1
40
0.989133
41
-2.00030572035257
42
-1.52710545258725
0
ELLIPSE
5
10F
100
AcDbEntity
8
1
62
256
6
ByLayer
370
18
48
1
60
0
100
AcDbEllipse
10
11.52614
20
-3.623829
30
0
11
-0.205060966544569
21
-0.205060966543629
31
0
210
0
220
0
230
1
40
0.989133
41
1.8761713029862
42
-1.52710545258724
0
ELLIPSE
5
110
100
AcDbEntity
8
1
62
256
6
ByLayer
370
18
48
1
60
0
100
AcDbEllipse
10
9.89012
20
-4.919084
30
0
11
0.222738636074272
21
0.222738636073253
31
0
210
0
220
0
230
1
40
0.989133
41
0.0940893820406737
42
0.567289649805921
0
ELLIPSE
5
111
100
AcDbEntity
8
1
62
256
6
ByLayer
370
18
48
1
60
0
100
AcDbEllipse
10
10.974226
20
-4.408934
30
0
11
0.654073772599053
21
0.654073772596061
31
0
210
0
220
0
230
1
40
0.989133
41
0.551586670009572
42
0.844676731585918
0
ELLIPSE
5
112
100
AcDbEntity
8
1
62
256
6
ByLayer
370
18
48
1
60
0
100
AcDbEllipse
10
11.084709
20
-3.219767
30
0
11
0.222738636074272
21
0.222738636073253
31
0
210
0
220
0
230
1
40
0.989133
41
2.92336885418283
42
-2.8866161852315
0
ELLIPSE
5
113
100
AcDbEntity
8
1
62
256
6
ByLayer
370
18
48
1
60
0
100
AcDbEllipse
10
10.833878
20
-4.268586
30
0
11
0.636396103069348
21
0.636396103066437
31
0
210
0
220
0
230
1
40
0.989133
41
-2.34996892769851
42
-1.489755426689
0
ELLIPSE
5
114
100
AcDbEntity
8
1
62
256
6
ByLayer
370
18
48
1
60
0
100
AcDbEllipse
10
10.000603
20
-3.729917
30
0
11
0.222738636074272
21
0.222738636073253
31
0
210
0
220
0
230
1
40
0.989133
41
-2.31261890180022
42
-1.83941863403493
0
ELLIPSE
5
115
100
AcDbEntity
8
1
62
256
6
ByLayer
370
18
48
1
60
0
100
AcDbEllipse
10
10.928589
20
-4.363297
30
0
11
-2.26274169980214
21
-2.26274169979177
31
0
210
0
220
0
230
1
40
0.989133
41
0
42
6.28318530717959
0
ELLIPSE
5
116
100
AcDbEntity
8
1
62
256
6
ByLayer
370
18
48
1
60
0
100
AcDbEllipse
10
10.02353
20
-4.330915
30
0
11
-0.205060966544569
21
-0.205060966543629
31
0
210
0
220
0
230
1
40
0.989133
41
-2.31261890180012
42
0.567289649805844
0
ELLIPSE
5
117
100
AcDbEntity
8
1
62
256
6
ByLayer
370
18
48
1
60
0
100
AcDbEllipse
10
11.94785
20
-5.087951
30
0
11
0.222738636074272
21
0.222738636073253
31
0
210
0
220
0
230
1
40
0.989133
41
2.18848448443388
42
2.6616847521991
0
ELLIPSE
5
118
100
AcDbEntity
8
1
62
256
6
ByLayer
370
18
48
1
60
0
100
AcDbEllipse
10
10.974226
20
-4.408934
30
0
11
0.654073772599053
21
0.654073772596061
31
0
210
0
220
0
230
1
40
0.989133
41
-0.495610881187044
42
-0.202520819610694
0
ELLIPSE
5
119
100
AcDbEntity
8
1
62
256
6
ByLayer
370
18
48
1
60
0
100
AcDbEllipse
10
10.974226
20
-4.408934
30
0
11
0.654073772599053
21
0.654073772596061
31
0
210
0
220
0
230
1
40
0.989133
41
2.64598177240275
42
2.9390718339791
0
ELLIPSE
5
11A
100
AcDbEntity
8
1
62
256
6
ByLayer
370
18
48
1
60
0
100
AcDbEllipse
10
11.373008
20
-5.272058
30
0
11
-0.205060966544569
21
-0.205060966543629
31
0
210
0
220
0
230
1
40
0.989133
41
-0.218223799407055
42
2.66168475219911
0
ELLIPSE
5
11B
100
AcDbEntity
8
1
62
256
6
ByLayer
370
18
48
1
60
0
100
AcDbEllipse
10
11.807501
20
-4.947603
30
0
11
0.222738636074272
21
0.222738636073253
31
0
210
0
220
0
230
1
40
0.989133
41
2.01532890580803
42
2.6616847521991
0
ELLIPSE
5
11C
100
AcDbEntity
8
1
62
256
6
ByLayer
370
18
48
1
60
0
100
AcDbEllipse
10
10.974226
20
-4.408934
30
0
11
0.654073772599053
21
0.654073772596061
31
0
210
0
220
0
230
1
40
0.989133
41
1.59878422120616
42
1.8918742827825
0
ELLIPSE
5
11D
100
AcDbEntity
8
1
62
256
6
ByLayer
370
18
48
1
60
0
100
AcDbEllipse
10
10.969724
20
-4.404432
30
0
11
0.636396103069348
21
0.636396103066437
31
0
210
0
220
0
230
1
40
0.989133
41
-2.5369529778934
42
-2.34996892769343
0
ELLIPSE
5
11E
100
AcDbEntity
8
1
62
256
6
ByLayer
370
18
48
1
60
0
100
AcDbEllipse
10
10.000603
20
-3.729917
30
0
11
0.222738636074272
21
0.222738636073253
31
0
210
0
220
0
230
1
40
0.989133
41
-0.953108169155998
42
-0.479907901390707
0
ELLIPSE
5
11F
100
AcDbEntity
8
1
62
256
6
ByLayer
370
18
48
1
60
0
100
AcDbEllipse
10
10.833878
20
-4.268586
30
0
11
0.636396103069348
21
0.636396103066437
31
0
210
0
220
0
230
1
40
0.989133
41
-1.30277137650193
42
-0.442557875492411
0
ELLIPSE
5
120
100
AcDbEntity
8
1
62
256
6
ByLayer
370
18
48
1
60
0
100
AcDbEllipse
10
10.969724
20
-4.404432
30
0
11
0.636396103069348
21
0.636396103066437
31
0
210
0
220
0
230
1
40
0.989133
41
2.69903477808765
42
2.88601882828464
0
ELLIPSE
5
121
100
AcDbEntity
8
1
62
256
6
ByLayer
370
18
48
1
60
0
100
AcDbEllipse
10
10.969724
20
-4.404432
30
0
11
0.636396103069348
21
0.636396103066437
31
0
210
0
220
0
230
1
40
0.989133
41
0.60463967570419
42
0.791623725891288
0
ELLIPSE
5
122
100
AcDbEntity
8
1
62
256
6
ByLayer
370
18
48
1
60
0
100
AcDbEllipse
10
1.228791
20
-5.393361
30
0
11
-0.618768166580234
21
-1.85497269604907
31
0
210
0
220
0
230
1
40
0.304658
41
-0.921774199096384
42
0.649022127698187
0
ELLIPSE
5
123
100
AcDbEntity
8
1
62
256
6
ByLayer
370
18
48
1
60
0
100
AcDbEllipse
10
12.011342
20
9.944951
30
0
11
-0.977941403852936
21
-7.14454667121233E-05
31
0
210
0
220
0
230
1
40
0.003571
41
1.42293688074543
42
2.99373320754003
0
ELLIPSE
5
124
100
AcDbEntity
8
1
62
256
6
ByLayer
370
18
48
1
60
0
100
AcDbEllipse
10
24.007279
20
-14.622779
30
0
11
-0.561442784263405
21
-0.561442784260833
31
0
210
0
220
0
230
1
40
0.989133
41
0.698131700797752
42
2.44346095279204
0
ELLIPSE
5
125
100
AcDbEntity
8
1
62
256
6
ByLayer
370
18
48
1
60
0
100
AcDbEllipse
10
23.352294
20
-6.641448
30
0
11
-0.561442784263405
21
-0.561442784260833
31
0
210
0
220
0
230
1
40
0.989133
41
2.44346095279204
42
-2.44346095279208
0
ELLIPSE
5
126
100
AcDbEntity
8
1
62
256
6
ByLayer
370
18
48
1
60
0
100
AcDbEllipse
10
16.025948
20
-13.967794
30
0
11
-0.561442784263405
21
-0.561442784260833
31
0
210
0
220
0
230
1
40
0.989133
41
-0.698131700797752
42
0.698131700797725
0
POINT
5
6C
100
AcDbEntity
8
2
62
256
6
ByLayer
370
18
48
1
60
0
100
AcDbPoint
10
24.797
20
35.2875
30
0
39
0
210
0
220
0
230
1
50
360
0
POINT
5
6E
100
AcDbEntity
8
80
62
256
6
ByLayer
370
18
48
1
60
0
100
AcDbPoint
10
0
20
0
30
0
39
0
210
0
220
0
230
1
50
360
0
POINT
5
70
100
AcDbEntity
8
81
62
256
6
ByLayer
370
18
48
1
60
0
100
AcDbPoint
10
24.797
20
-15.4125
30
0
39
0
210
0
220
0
230
1
50
360
0
SPLINE
5
127
100
AcDbEntity
8
1
62
256
6
ByLayer
370
18
48
1
60
0
100
AcDbSpline
70
4
71
3
72
10
73
6
40
0
40
0
40
0
40
0
40
0.626461891730194
40
0.626461891730194
40
1
40
1
40
1
40
1
41
1
10
3.20008502596829
20
-5.51074605348509
30
0
41
1
10
3.03472706959872
20
-5.3704203044712
30
0
41
1
10
2.86936335802847
20
-5.20945312062142
30
0
41
1
10
2.62328640343395
20
-4.91335874394403
30
0
41
1
10
2.53463619375748
20
-4.79277774558941
30
0
41
1
10
2.45370829045214
20
-4.6635647625892
30
0
0
SPLINE
5
128
100
AcDbEntity
8
1
62
256
6
ByLayer
370
18
48
1
60
0
100
AcDbSpline
70
4
71
1
72
4
73
2
40
0
40
0
40
1
40
1
41
1
10
15.1884814393688
20
-13.9500154564181
30
0
41
1
10
15.0070370800331
20
-11.739023049129
30
0
0
SPLINE
5
129
100
AcDbEntity
8
1
62
256
6
ByLayer
370
18
48
1
60
0
100
AcDbSpline
70
4
71
3
72
8
73
4
40
0
40
0
40
0
40
0
40
1
40
1
40
1
40
1
41
1
10
7.17429865292326
20
2.04826310495414
30
0
41
1
10
7.19127259093852
20
2.07240874188412
30
0
41
1
10
7.20883102257869
20
2.09565263322008
30
0
41
1
10
7.22693246912638
20
2.11806293285821
30
0
0
SPLINE
5
12A
100
AcDbEntity
8
1
62
256
6
ByLayer
370
18
48
1
60
0
100
AcDbSpline
70
4
71
3
72
10
73
6
40
0
40
0
40
0
40
0
40
0.20784579536769
40
0.20784579536769
40
1
40
1
40
1
40
1
41
1
10
9.73853470643382
20
-0.55428273926492
30
0
41
1
10
9.77886384982429
20
-0.56152391471872
30
0
41
1
10
9.81927553700416
20
-0.567790887260855
30
0
41
1
10
10.0123022424642
20
-0.593002560154531
30
0
41
1
10
10.165825496144
20
-0.598779021901663
30
0
41
1
10
10.3150883242454
20
-0.590331490544116
30
0
0
SPLINE
5
12B
100
AcDbEntity
8
1
62
256
6
ByLayer
370
18
48
1
60
0
100
AcDbSpline
70
4
71
3
72
14
73
10
40
0
40
0
40
0
40
0
40
0.304391776008981
40
0.304391776008981
40
0.577373879687163
40
0.577373879687163
40
0.851610378463923
40
0.851610378463923
40
1
40
1
40
1
40
1
41
1
10
20.7858429627518
20
-11.6286299105055
30
0
41
1
10
20.6368726876077
20
-11.7056888090928
30
0
41
1
10
20.4734220856723
20
-11.7739841021255
30
0
41
1
10
20.1516952104926
20
-11.8731547464001
30
0
41
1
10
19.9908623904152
20
-11.9078865878331
30
0
41
1
10
19.677481123023
20
-11.9431907826191
30
0
41
1
10
19.5207825228789
20
-11.9439256189682
30
0
41
1
10
19.3011275827816
20
-11.9188740942375
30
0
41
1
10
19.2267408218352
20
-11.9050030664948
30
0
41
1
10
19.1573114090084
20
-11.8867971697628
30
0
0
SPLINE
5
12C
100
AcDbEntity
8
1
62
256
6
ByLayer
370
18
48
1
60
0
100
AcDbSpline
70
4
71
3
72
8
73
4
40
0
40
0
40
0
40
0
40
1
40
1
40
1
40
1
41
1
10
8.54721229893022
20
-9.30147589026049
30
0
41
1
10
10.2865493288059
20
-10.3263475311993
30
0
41
1
10
12.1565979561229
20
-11.0568393936379
30
0
41
1
10
14.1311941658927
20
-11.4960045759685
30
0
0
SPLINE
5
12D
100
AcDbEntity
8
1
62
256
6
ByLayer
370
18
48
1
60
0
100
AcDbSpline
70
4
71
3
72
8
73
4
40
0
40
0
40
0
40
0
40
1
40
1
40
1
40
1
41
1
10
20.3120569096944
20
-6.32096736677002
30
0
41
1
10
20.2661730175642
20
-6.28255614598754
30
0
41
1
10
20.2198137226616
20
-6.24473140054192
30
0
41
1
10
20.1729751347993
20
-6.20752752283559
30
0
0
SPLINE
5
12E
100
AcDbEntity
8
1
62
256
6
ByLayer
370
18
48
1
60
0
100
AcDbSpline
70
4
71
2
72
6
73
3
40
0
40
0
40
0
40
1
40
1
40
1
41
1
10
16.8864739180453
20
-12.3096583839895
30
0
41
1
10
16.5129398044266
20
-12.2918832782138
30
0
41
1
10
16.1399678116378
20
-12.2568713114609
30
0
0
SPLINE
5
12F
100
AcDbEntity
8
1
62
256
6
ByLayer
370
18
48
1
60
0
100
AcDbSpline
70
4
71
1
72
4
73
2
40
0
40
0
40
1
40
1
41
1
10
14.7151252111285
20
-1.0854541437325
30
0
41
1
10
14.9094809311079
20
-0.251070008883062
30
0
0
SPLINE
5
130
100
AcDbEntity
8
1
62
256
6
ByLayer
370
18
48
1
60
0
100
AcDbSpline
70
4
71
3
72
8
73
4
40
0
40
0
40
0
40
0
40
1
40
1
40
1
40
1
41
1
10
16.89252768531
20
-12.3071595066332
30
0
41
1
10
15.9766340453577
20
-11.5638452376687
30
0
41
1
10
16.1575386614722
20
-10.4060529623833
30
0
41
1
10
15.4105261497752
20
-9.57751811915881
30
0
0
SPLINE
5
131
100
AcDbEntity
8
1
62
256
6
ByLayer
370
18
48
1
60
0
100
AcDbSpline
70
4
71
2
72
8
73
5
40
0
40
0
40
0
40
0.581603760044146
40
0.872405640066219
40
1
40
1
40
1
41
1.02990374504916
10
9.20217306886766
20
-8.92769680537123
30
0
41
1.02669755169729
10
10.9290274578596
20
-9.31700030981931
30
0
41
1.02039724512338
10
13.6696638286757
20
-9.5526120290439
30
0
41
1.01761724169577
10
15.0353089987947
20
-9.53836703116511
30
0
41
1.01686274329252
10
15.410526149775
20
-9.57751811915879
30
0
0
SPLINE
5
132
100
AcDbEntity
8
1
62
256
6
ByLayer
370
18
48
1
60
0
100
AcDbSpline
70
4
71
3
72
25
73
21
40
0
40
0
40
0
40
0
40
0.442411593548798
40
0.442411593548798
40
0.442411593548798
40
0.583396916265403
40
0.583396916265403
40
0.651602530488686
40
0.651602530488686
40
0.706341521306481
40
0.706341521306481
40
0.742475286987769
40
0.742475286987769
40
0.778972968742961
40
0.778972968742961
40
0.811539464980202
40
0.811539464980202
40
0.868309796146668
40
0.868309796146668
40
1
40
1
40
1
40
1
41
1
10
17.4518689938642
20
-8.3375497199539
30
0
41
1
10
17.2979209756013
20
-8.06162040140484
30
0
41
1
10
17.1587253024428
20
-7.74520112946874
30
0
41
1
10
17.0747964363207
20
-7.39861556213711
30
0
41
1
10
17.0475507672523
20
-7.28610414493673
30
0
41
1
10
17.0258598060764
20
-7.16878326977297
30
0
41
1
10
17.0109825349862
20
-6.9932577079658
30
0
41
1
10
17.0088794070626
20
-6.93503671602483
30
0
41
1
10
17.013702308375
20
-6.83292384658137
30
0
41
1
10
17.0190155913295
20
-6.78758605617978
30
0
41
1
10
17.0361468962964
20
-6.71961329051032
30
0
41
1
10
17.0453862805122
20
-6.69404697623153
30
0
41
1
10
17.0688097783381
20
-6.65121603194163
30
0
41
1
10
17.0834149285021
20
-6.6336106189589
30
0
41
1
10
17.1137144626866
20
-6.61088614973792
30
0
41
1
10
17.1294119953931
20
-6.60426374986889
30
0
41
1
10
17.172886768686
20
-6.59557822500969
30
0
41
1
10
17.2017128421292
20
-6.59986218674712
30
0
41
1
10
17.2944708012572
20
-6.62947379052329
30
0
41
1
10
17.3575556334739
20
-6.67342068618404
30
0
41
1
10
17.4184599938962
20
-6.72120737145312
30
0
0
SPLINE
5
133
100
AcDbEntity
8
1
62
256
6
ByLayer
370
18
48
1
60
0
100
AcDbSpline
70
4
71
3
72
8
73
4
40
0
40
0
40
0
40
0
40
1
40
1
40
1
40
1
41
1
10
8.46809399103142
20
0.0417102722898619
30
0
41
1
10
8.50407543700578
20
0.015873362674256
30
0
41
1
10
8.54039343424006
20
-0.0101698210684731
30
0
41
1
10
8.57699784193034
20
-0.0363829614189513
30
0
0
SPLINE
5
134
100
AcDbEntity
8
1
62
256
6
ByLayer
370
18
48
1
60
0
100
AcDbSpline
70
4
71
3
72
8
73
4
40
0
40
0
40
0
40
0
40
1
40
1
40
1
40
1
41
1
10
14.0498840035531
20
-2.54242976522312
30
0
41
1
10
14.4062801040383
20
-1.91244771764605
30
0
41
1
10
14.6435215375809
20
-1.39285425118166
30
0
41
1
10
14.7151252111285
20
-1.0854541437325
30
0
0
SPLINE
5
135
100
AcDbEntity
8
1
62
256
6
ByLayer
370
18
48
1
60
0
100
AcDbSpline
70
4
71
3
72
8
73
4
40
0
40
0
40
0
40
0
40
1
40
1
40
1
40
1
41
1
10
17.4184599938962
20
-6.72120737145312
30
0
41
1
10
18.4933235706761
20
-7.08270289503636
30
0
41
1
10
19.5640720686076
20
-6.45229350903193
30
0
41
1
10
20.6188594367627
20
-7.00640646834088
30
0
0
SPLINE
5
136
100
AcDbEntity
8
1
62
256
6
ByLayer
370
18
48
1
60
0
100
AcDbSpline
70
4
71
3
72
8
73
4
40
0
40
0
40
0
40
0
40
1
40
1
40
1
40
1
41
1
10
12.1534636106826
20
-1.12159304991693
30
0
41
1
10
11.5942592281729
20
-0.731597096470466
30
0
41
1
10
10.9507204084598
20
-0.554357885919529
30
0
41
1
10
10.3150883242454
20
-0.590331490544116
30
0
0
SPLINE
5
137
100
AcDbEntity
8
1
62
256
6
ByLayer
370
18
48
1
60
0
100
AcDbSpline
70
4
71
3
72
16
73
12
40
0
40
0
40
0
40
0
40
0.346164403850462
40
0.346164403850462
40
0.574058138681869
40
0.574058138681869
40
0.756733946461148
40
0.756733946461148
40
0.941193093213315
40
0.941193093213315
40
1
40
1
40
1
40
1
41
1
10
9.6165921457046
20
3.32362410982932
30
0
41
1
10
9.35537145550586
20
3.37820404593472
30
0
41
1
10
9.12976701871594
20
3.3518146261672
30
0
41
1
10
8.71611537103649
20
3.23103616918485
30
0
41
1
10
8.53592174065153
20
3.15879465676858
30
0
41
1
10
8.18481470364134
20
2.97109764831879
30
0
41
1
10
8.01662530370839
20
2.86443009840204
30
0
41
1
10
7.68572109221492
20
2.60719916371227
30
0
41
1
10
7.51830960379294
20
2.45147012726917
30
0
41
1
10
7.31966621297579
20
2.23006785718255
30
0
41
1
10
7.27232506759208
20
2.17426074723133
30
0
41
1
10
7.22693246912638
20
2.11806293285824
30
0
0
SPLINE
5
138
100
AcDbEntity
8
1
62
256
6
ByLayer
370
18
48
1
60
0
100
AcDbSpline
70
4
71
3
72
8
73
4
40
0
40
0
40
0
40
0
40
1
40
1
40
1
40
1
41
1
10
14.0498839780556
20
-2.54242981029364
30
0
41
1
10
13.8841254982366
20
-2.36335351005979
30
0
41
1
10
13.6968541180188
20
-2.19797240471974
30
0
41
1
10
13.4952438265762
20
-2.05736692970024
30
0
0
SPLINE
5
139
100
AcDbEntity
8
1
62
256
6
ByLayer
370
18
48
1
60
0
100
AcDbSpline
70
4
71
3
72
16
73
12
40
0
40
0
40
0
40
0
40
0.283825424659828
40
0.283825424659828
40
0.572792249827488
40
0.572792249827488
40
0.572792249827488
40
0.894188232602854
40
0.894188232602854
40
0.894188232602854
40
1
40
1
40
1
40
1
41
1
10
10.2890111390121
20
-7.89231797588369
30
0
41
1
10
10.6179734962207
20
-8.02841272606622
30
0
41
1
10
10.9750431015854
20
-8.11565360915657
30
0
41
1
10
11.6937958377539
20
-8.18576936359045
30
0
41
1
10
12.0646672997624
20
-8.16834759149478
30
0
41
1
10
12.4199019242436
20
-8.09615865265849
30
0
41
1
10
12.8126935288796
20
-8.01633757901206
30
0
41
1
10
13.2006322385686
20
-7.86476475774572
30
0
41
1
10
13.5373939613564
20
-7.64268307318201
30
0
41
1
10
13.6503240789286
20
-7.56820990995911
30
0
41
1
10
13.758451053619
20
-7.48540727670712
30
0
41
1
10
13.8594076992901
20
-7.39555322850757
30
0
0
SPLINE
5
13A
100
AcDbEntity
8
1
62
256
6
ByLayer
370
18
48
1
60
0
100
AcDbSpline
70
4
71
3
72
15
73
11
40
0
40
0
40
0
40
0
40
0.225043240787981
40
0.225043240787981
40
0.52048282722711
40
0.52048282722711
40
0.820975208236875
40
0.820975208236875
40
0.820975208236875
40
1
40
1
40
1
40
1
41
1
10
14.7879934961069
20
-6.07462843851141
30
0
41
1
10
14.8932021946201
20
-5.81203234213382
30
0
41
1
10
14.958569768765
20
-5.52780833185841
30
0
41
1
10
15.0166469435508
20
-4.87433731086699
30
0
41
1
10
14.9831212489481
20
-4.49494350127853
30
0
41
1
10
14.8053019108916
20
-3.76755488876196
30
0
41
1
10
14.6564700319132
20
-3.40905076491808
30
0
41
1
10
14.4589839895897
20
-3.08621066717387
30
0
41
1
10
14.340362709605
20
-2.89229465582329
30
0
41
1
10
14.2027189744245
20
-2.70877022372659
30
0
41
1
10
14.0498839780556
20
-2.54242981029367
30
0
0
SPLINE
5
13B
100
AcDbEntity
8
1
62
256
6
ByLayer
370
18
48
1
60
0
100
AcDbSpline
70
4
71
2
72
8
73
5
40
0
40
0
40
0
40
0.581603760070721
40
0.872405640106081
40
1
40
1
40
1
41
1.02990374504916
10
14.7151252111284
20
-1.08545414373253
30
0
41
1.02669755169729
10
15.6588147804101
20
-2.58881929893307
30
0
41
1.02039724512338
10
16.804899852532
20
-5.09269997779058
30
0
41
1.01761724169608
10
17.2530543255596
20
-6.38359685263434
30
0
41
1.01686274329306
10
17.4184599938962
20
-6.72120737145295
30
0
0
SPLINE
5
13C
100
AcDbEntity
8
1
62
256
6
ByLayer
370
18
48
1
60
0
100
AcDbSpline
70
4
71
3
72
8
73
4
40
0
40
0
40
0
40
0
40
1
40
1
40
1
40
1
41
1
10
9.73853470643382
20
-0.55428273926492
30
0
41
1
10
9.77522382181394
20
0.708156925399777
30
0
41
1
10
9.74366788068181
20
1.85961904652027
30
0
41
1
10
9.58533474626029
20
2.49212426212313
30
0
0
SPLINE
5
13D
100
AcDbEntity
8
1
62
256
6
ByLayer
370
18
48
1
60
0
100
AcDbSpline
70
4
71
2
72
8
73
5
40
0
40
0
40
0
40
0.145991510278039
40
0.56347020758608
40
1
40
1
40
1
41
1.02393576174182
10
14.7879934957266
20
-6.07462843819516
30
0
41
1.02323174907608
10
14.991633936922
20
-6.24397185401122
30
0
41
1.02039724512338
10
15.7697678174946
20
-6.89748189337422
30
0
41
1.01644464721285
10
16.8626272809891
20
-7.89720975397609
30
0
41
1.01495409538129
10
17.4518689939211
20
-8.33754971999649
30
0
0
SPLINE
5
13E
100
AcDbEntity
8
1
62
256
6
ByLayer
370
18
48
1
60
0
100
AcDbSpline
70
4
71
3
72
12
73
8
40
0
40
0
40
0
40
0
40
0.391502209781614
40
0.391502209781614
40
0.886018843801028
40
0.886018843801028
40
1
40
1
40
1
40
1
41
1
10
7.3175823301217
20
1.98537420496277
30
0
41
1
10
7.44347131904203
20
1.80869183140038
30
0
41
1
10
7.58343604356543
20
1.59098215866641
30
0
41
1
10
7.91694316021477
20
1.03934414932073
30
0
41
1
10
8.118713147996
20
0.683596609650095
30
0
41
1
10
8.37169805377584
20
0.220364971704726
30
0
41
1
10
8.41979483394846
20
0.131559479230532
30
0
41
1
10
8.46809399103222
20
0.0417102722903735
30
0
0
SPLINE
5
13F
100
AcDbEntity
8
1
62
256
6
ByLayer
370
18
48
1
60
0
100
AcDbSpline
70
4
71
3
72
12
73
8
40
0
40
0
40
0
40
0
40
0.307573270173411
40
0.307573270173411
40
0.64885282065766
40
0.64885282065766
40
1
40
1
40
1
40
1
41
1
10
13.8594076992901
20
-7.39555322850757
30
0
41
1
10
13.9840868285467
20
-7.28455697381168
30
0
41
1
10
14.101290195572
20
-7.16419505258247
30
0
41
1
10
14.3286886075646
20
-6.89490747073347
30
0
41
1
10
14.4374910855794
20
-6.74337240718356
30
0
41
1
10
14.6318856333827
20
-6.42205997491462
30
0
41
1
10
14.7174152322415
20
-6.25072590343831
30
0
41
1
10
14.7879934961069
20
-6.07462843851141
30
0
0
SPLINE
5
140
100
AcDbEntity
8
1
62
256
6
ByLayer
370
18
48
1
60
0
100
AcDbSpline
70
4
71
3
72
10
73
6
40
0
40
0
40
0
40
0
40
0.715855354518052
40
0.715855354518052
40
1
40
1
40
1
40
1
41
1
10
9.83349102831573
20
3.36766945418756
30
0
41
1
10
9.58829802836573
20
3.5490860062944
30
0
41
1
10
9.29676643481343
20
3.72754281018189
30
0
41
1
10
8.82826377219237
20
3.91329836826975
30
0
41
1
10
8.68711451190626
20
3.95919881729935
30
0
41
1
10
8.54022966191445
20
3.99458722722355
30
0
0
SPLINE
5
141
100
AcDbEntity
8
1
62
256
6
ByLayer
370
18
48
1
60
0
100
AcDbSpline
70
4
71
3
72
8
73
4
40
0
40
0
40
0
40
0
40
1
40
1
40
1
40
1
41
1
10
5.93848655930378
20
-3.55668761080111
30
0
41
1
10
5.06010989328075
20
-3.41129520489855
30
0
41
1
10
4.28289575510274
20
-3.24658457834988
30
0
41
1
10
3.76803894993265
20
-3.06389518957272
30
0
0
SPLINE
5
142
100
AcDbEntity
8
1
62
256
6
ByLayer
370
18
48
1
60
0
100
AcDbSpline
70
4
71
3
72
10
73
6
40
0
40
0
40
0
40
0
40
0.679966690484311
40
0.679966690484311
40
1
40
1
40
1
40
1
41
1
10
7.16077469069523
20
-5.07738167833543
30
0
41
1
10
7.12263579908711
20
-4.95648468791313
30
0
41
1
10
7.07375648463653
20
-4.83601374885149
30
0
41
1
10
6.98754982327574
20
-4.66383842540608
30
0
41
1
10
6.95766639320914
20
-4.6092210558441
30
0
41
1
10
6.92572464584975
20
-4.55553986738386
30
0
0
SPLINE
5
143
100
AcDbEntity
8
1
62
256
6
ByLayer
370
18
48
1
60
0
100
AcDbSpline
70
4
71
3
72
12
73
8
40
0
40
0
40
0
40
0
40
0.415356444741149
40
0.415356444741149
40
0.825259843212189
40
0.825259843212189
40
1
40
1
40
1
40
1
41
1
10
6.92572464584975
20
-4.55553986738386
30
0
41
1
10
6.83816156024204
20
-4.40838165315787
30
0
41
1
10
6.72750330354279
20
-4.26136330745351
30
0
41
1
10
6.48784131950646
20
-3.99700217939718
30
0
41
1
10
6.35626004729897
20
-3.87544389857862
30
0
41
1
10
6.16453963574202
20
-3.72106098879911
30
0
41
1
10
6.10611914653765
20
-3.67683765420296
30
0
41
1
10
6.04739041020264
20
-3.63478084450992
30
0
0
SPLINE
5
144
100
AcDbEntity
8
1
62
256
6
ByLayer
370
18
48
1
60
0
100
AcDbSpline
70
4
71
2
72
8
73
5
40
0
40
0
40
0
40
0.145991510275423
40
0.563470207592129
40
1
40
1
40
1
41
1.02393576174177
10
13.8594076988263
20
-7.3955532282449
30
0
41
1.02323174907605
10
14.0902052196169
20
-7.52626536216745
30
0
41
1.02039724512338
10
14.9793678474222
20
-8.02183563427331
30
0
41
1.01644464721292
10
16.3105504282531
20
-8.68254591054782
30
0
41
1.01495409538139
10
16.937984762528
20
-9.06855639991942
30
0
0
SPLINE
5
145
100
AcDbEntity
8
1
62
256
6
ByLayer
370
18
48
1
60
0
100
AcDbSpline
70
4
71
3
72
8
73
4
40
0
40
0
40
0
40
0
40
1
40
1
40
1
40
1
41
1
10
7.16077469069523
20
-5.07738167833543
30
0
41
1
10
7.34862051240401
20
-5.67283669945476
30
0
41
1
10
7.74953278781231
20
-6.21598017127064
30
0
41
1
10
8.30156138509733
20
-6.60097164462363
30
0
0
SPLINE
5
146
100
AcDbEntity
8
1
62
256
6
ByLayer
370
18
48
1
60
0
100
AcDbSpline
70
4
71
3
72
8
73
4
40
0
40
0
40
0
40
0
40
1
40
1
40
1
40
1
41
1
10
18.8898129645355
20
-4.72681043275787
30
0
41
1
10
17.8066177202566
20
-3.03904500524172
30
0
41
1
10
16.4658189815947
20
-1.52398210643275
30
0
41
1
10
14.9094809311079
20
-0.251070008883062
30
0
0
SPLINE
5
147
100
AcDbEntity
8
1
62
256
6
ByLayer
370
18
48
1
60
0
100
AcDbSpline
70
4
71
3
72
10
73
6
40
0
40
0
40
0
40
0
40
0.7599765320019
40
0.7599765320019
40
1
40
1
40
1
40
1
41
1
10
16.9379847625105
20
-9.06855639990869
30
0
41
1
10
17.2276680019219
20
-9.10880274144128
30
0
41
1
10
17.5103425876821
20
-9.15844248143895
30
0
41
1
10
17.8703855719507
20
-9.23580040399727
30
0
41
1
10
17.9559783676528
20
-9.25529407134869
30
0
41
1
10
18.0406506141061
20
-9.27569023583871
30
0
0
SPLINE
5
148
100
AcDbEntity
8
1
62
256
6
ByLayer
370
18
48
1
60
0
100
AcDbSpline
70
4
71
3
72
8
73
4
40
0
40
0
40
0
40
0
40
1
40
1
40
1
40
1
41
1
10
15.9829446675014
20
-12.167897726727
30
0
41
1
10
16.0351941464923
20
-12.1974045448326
30
0
41
1
10
16.0878647701077
20
-12.2262513470528
30
0
41
1
10
16.1409251082285
20
-12.2544539845898
30
0
0
SPLINE
5
149
100
AcDbEntity
8
1
62
256
6
ByLayer
370
18
48
1
60
0
100
AcDbSpline
70
4
71
3
72
8
73
4
40
0
40
0
40
0
40
0
40
1
40
1
40
1
40
1
41
1
10
6.04739041020264
20
-3.63478084450992
30
0
41
1
10
6.01078600251242
20
-3.60856770415947
30
0
41
1
10
5.97446800527763
20
-3.58252452041643
30
0
41
1
10
5.93848655930333
20
-3.55668761080082
30
0
0
SPLINE
5
14A
100
AcDbEntity
8
1
62
256
6
ByLayer
370
18
48
1
60
0
100
AcDbSpline
70
4
71
3
72
11
73
7
40
0
40
0
40
0
40
0
40
0.559926195718575
40
0.559926195718575
40
0.559926195718575
40
1
40
1
40
1
40
1
41
1
10
15.9829446675013
20
-12.167897726727
30
0
41
1
10
15.7084813811012
20
-12.0129002334527
30
0
41
1
10
15.3785020395038
20
-11.8649362010622
30
0
41
1
10
15.0225814599624
20
-11.7433081866896
30
0
41
1
10
14.7408272135989
20
-11.647024882222
30
0
41
1
10
14.4383585122967
20
-11.5643202576894
30
0
41
1
10
14.1311941658927
20
-11.4960045759685
30
0
0
SPLINE
5
14B
100
AcDbEntity
8
1
62
256
6
ByLayer
370
18
48
1
60
0
100
AcDbSpline
70
4
71
2
72
6
73
3
40
0
40
0
40
0
40
1
40
1
40
1
41
1.02990374504916
10
9.20217306886766
20
-8.92769680537123
30
0
41
1.02990374504916
10
8.87469268389894
20
-9.11458634781586
30
0
41
1.02990374504916
10
8.54721229893017
20
-9.30147589026051
30
0
0
SPLINE
5
14C
100
AcDbEntity
8
1
62
256
6
ByLayer
370
18
48
1
60
0
100
AcDbSpline
70
4
71
3
72
12
73
8
40
0
40
0
40
0
40
0
40
0.501637567130162
40
0.501637567130162
40
0.88695747130444
40
0.88695747130444
40
1
40
1
40
1
40
1
41
1
10
8.57699784193034
20
-0.0363829614189513
30
0
41
1
10
8.74381804797855
20
-0.155846210529347
30
0
41
1
10
8.92919032976948
20
-0.267424009340886
30
0
41
1
10
9.27668923213162
20
-0.42700428699257
30
0
41
1
10
9.43775427959298
20
-0.484910305733507
30
0
41
1
10
9.64424837173999
20
-0.535758311376668
30
0
41
1
10
9.69160090987009
20
-0.54585568559952
30
0
41
1
10
9.73853470643382
20
-0.55428273926492
30
0
0
SPLINE
5
14D
100
AcDbEntity
8
1
62
256
6
ByLayer
370
18
48
1
60
0
100
AcDbSpline
70
4
71
3
72
16
73
12
40
0
40
0
40
0
40
0
40
0.151798394921707
40
0.151798394921707
40
0.302355402833642
40
0.302355402833642
40
0.469907609657966
40
0.469907609657966
40
0.750934341340613
40
0.750934341340613
40
1
40
1
40
1
40
1
41
1
10
3.61933973624088
20
-3.01378238442229
30
0
41
1
10
3.52329682803531
20
-3.17171010595266
30
0
41
1
10
3.43519210979531
20
-3.34051813980267
30
0
41
1
10
3.29434823034154
20
-3.67090602980735
30
0
41
1
10
3.23899083669824
20
-3.83691102552649
30
0
41
1
10
3.15503908308426
20
-4.16687983375888
30
0
41
1
10
3.12885179373086
20
-4.33203817559763
30
0
41
1
10
3.0957489469489
20
-4.72757276394844
30
0
41
1
10
3.10938507449924
20
-4.93265395479938
30
0
41
1
10
3.18793872447543
20
-5.27680564993759
30
0
41
1
10
3.24870545997914
20
-5.42760835310006
30
0
41
1
10
3.35645114163009
20
-5.58150395643742
30
0
0
SPLINE
5
14E
100
AcDbEntity
8
1
62
256
6
ByLayer
370
18
48
1
60
0
100
AcDbSpline
70
4
71
3
72
8
73
4
40
0
40
0
40
0
40
0
40
1
40
1
40
1
40
1
41
1
10
10.2890111215968
20
-7.89231796848773
30
0
41
1
10
10.0605010603273
20
-7.79527429854906
30
0
41
1
10
9.84486505683265
20
-7.6772904392198
30
0
41
1
10
9.64334160099088
20
-7.53674552440694
30
0
0
SPLINE
5
14F
100
AcDbEntity
8
1
62
256
6
ByLayer
370
18
48
1
60
0
100
AcDbSpline
70
4
71
3
72
8
73
4
40
0
40
0
40
0
40
0
40
1
40
1
40
1
40
1
41
1
10
9.20217306886769
20
-8.92769680537123
30
0
41
1
10
9.44347082064172
20
-8.78999076711105
30
0
41
1
10
9.83106410208973
20
-8.42074912101236
30
0
41
1
10
10.2890111390122
20
-7.89231797588369
30
0
0
SPLINE
5
150
100
AcDbEntity
8
1
62
256
6
ByLayer
370
18
48
1
60
0
100
AcDbSpline
70
4
71
3
72
14
73
10
40
0
40
0
40
0
40
0
40
0.262932482489332
40
0.262932482489332
40
0.526305718382452
40
0.526305718382452
40
0.786105451116563
40
0.786105451116563
40
1
40
1
40
1
40
1
41
1
10
20.9969249772254
20
-9.2699240982532
30
0
41
1
10
21.0707576341568
20
-9.36980070230695
30
0
41
1
10
21.1370960015809
20
-9.49023885799042
30
0
41
1
10
21.2422126907205
20
-9.75578642871119
30
0
41
1
10
21.2822531903623
20
-9.90434809112696
30
0
41
1
10
21.3317340039009
20
-10.2051583542395
30
0
41
1
10
21.3423408138813
20
-10.3608079005374
30
0
41
1
10
21.33883486769
20
-10.636960586414
30
0
41
1
10
21.328886267422
20
-10.7607175861884
30
0
41
1
10
21.3121220354358
20
-10.8799914153348
30
0
0
SPLINE
5
151
100
AcDbEntity
8
1
62
256
6
ByLayer
370
18
48
1
60
0
100
AcDbSpline
70
4
71
3
72
24
73
20
40
0
40
0
40
0
40
0
40
0.142613444608223
40
0.142613444608223
40
0.19079521826949
40
0.19079521826949
40
0.22695117616232
40
0.22695117616232
40
0.263437466712852
40
0.263437466712852
40
0.29611936557235
40
0.29611936557235
40
0.352324850832278
40
0.352324850832278
40
0.455294648588096
40
0.455294648588096
40
0.662705158043612
40
0.662705158043612
40
1
40
1
40
1
40
1
41
1
10
15.4105261497752
20
-9.57751811915881
30
0
41
1
10
15.3373986381905
20
-9.53677087350391
30
0
41
1
10
15.2667000880794
20
-9.49231782147154
30
0
41
1
10
15.2090469926768
20
-9.41734499530324
30
0
41
1
10
15.1978726035768
20
-9.39653527227085
30
0
41
1
10
15.1908293590976
20
-9.35744865605326
30
0
41
1
10
15.1919735998995
20
-9.33947230943497
30
0
41
1
10
15.2052357623936
20
-9.30335343425273
30
0
41
1
10
15.2177429572758
20
-9.28475641628751
30
0
41
1
10
15.2498449478783
20
-9.25199496956512
30
0
41
1
10
15.2687999491105
20
-9.23718677154699
30
0
41
1
10
15.3252299443224
20
-9.20056219289577
30
0
41
1
10
15.3670071085324
20
-9.18053174323384
30
0
41
1
10
15.4884543965852
20
-9.13201706211316
30
0
41
1
10
15.5734942037039
20
-9.10871787982532
30
0
41
1
10
15.8266578398629
20
-9.05386962975112
30
0
41
1
10
15.9990556220196
20
-9.03607861051256
30
0
41
1
10
16.4340280138076
20
-9.01752568956957
30
0
41
1
10
16.6943621631764
20
-9.03477925141672
30
0
41
1
10
16.9379847625105
20
-9.06855639990869
30
0
0
SPLINE
5
152
100
AcDbEntity
8
1
62
256
6
ByLayer
370
18
48
1
60
0
100
AcDbSpline
70
4
71
3
72
8
73
4
40
0
40
0
40
0
40
0
40
1
40
1
40
1
40
1
41
1
10
3.66734289530075
20
-2.94042486933108
30
0
41
1
10
3.65036895728554
20
-2.96457050626103
30
0
41
1
10
3.63439263942735
20
-2.98903021117934
30
0
41
1
10
3.61933973624088
20
-3.01378238442229
30
0
0
SPLINE
5
153
100
AcDbEntity
8
1
62
256
6
ByLayer
370
18
48
1
60
0
100
AcDbSpline
70
4
71
3
72
12
73
8
40
0
40
0
40
0
40
0
40
0.369659083875781
40
0.369659083875781
40
0.727704501586107
40
0.727704501586107
40
1
40
1
40
1
40
1
41
1
10
4.07238260399953
20
-5.35011839951559
30
0
41
1
10
4.29571801877302
20
-5.34365606802203
30
0
41
1
10
4.58950494599696
20
-5.29397089576636
30
0
41
1
10
5.24704990204464
20
-5.1328511153587
30
0
41
1
10
5.61612175221046
20
-5.02166794118799
30
0
41
1
10
6.29960135255129
20
-4.79017882439055
30
0
41
1
10
6.6104240044973
20
-4.67691376107965
30
0
41
1
10
6.92572464584964
20
-4.55553986738369
30
0
0
SPLINE
5
154
100
AcDbEntity
8
1
62
256
6
ByLayer
370
18
48
1
60
0
100
AcDbSpline
70
4
71
3
72
10
73
6
40
0
40
0
40
0
40
0
40
0.106616270583435
40
0.106616270583435
40
1
40
1
40
1
40
1
41
1
10
18.0406506141061
20
-9.27569023583865
30
0
41
1
10
18.0185958709874
20
-9.244468725334
30
0
41
1
10
17.9966534017598
20
-9.21300897444158
30
0
41
1
10
17.7921588288234
20
-8.91607239890507
30
0
41
1
10
17.6173005532245
20
-8.63385069043886
30
0
41
1
10
17.4518689938642
20
-8.3375497199539
30
0
0
SPLINE
5
155
100
AcDbEntity
8
1
62
256
6
ByLayer
370
18
48
1
60
0
100
AcDbSpline
70
4
71
3
72
10
73
6
40
0
40
0
40
0
40
0
40
0.560518156563273
40
0.560518156563273
40
1
40
1
40
1
40
1
41
1
10
18.8898129645355
20
-4.72681043275787
30
0
41
1
10
19.1044997775466
20
-5.06132166945102
30
0
41
1
10
19.3411998858641
20
-5.37952891233942
30
0
41
1
10
19.7779465193705
20
-5.86489202475619
30
0
41
1
10
19.9787577906495
20
-6.05326073875895
30
0
41
1
10
20.1729751347993
20
-6.20752752283559
30
0
0
SPLINE
5
156
100
AcDbEntity
8
1
62
256
6
ByLayer
370
18
48
1
60
0
100
AcDbSpline
70
4
71
2
72
6
73
3
40
0
40
0
40
0
40
1
40
1
40
1
41
1
10
20.3140100537026
20
-6.31924455587176
30
0
41
1
10
20.4746129360245
20
-6.65635421221768
30
0
41
1
10
20.6191463182092
20
-6.99988569423075
30
0
0
SPLINE
5
157
100
AcDbEntity
8
1
62
256
6
ByLayer
370
18
48
1
60
0
100
AcDbSpline
70
4
71
3
72
8
73
4
40
0
40
0
40
0
40
0
40
1
40
1
40
1
40
1
41
1
10
11.745264862091
20
-4.84290250011719
30
0
41
1
10
11.7617490806958
20
-4.831580989673
30
0
41
1
10
11.7783842767782
20
-4.82303391452268
30
0
41
1
10
11.7945482339654
20
-4.81641837523961
30
0
0
SPLINE
5
158
100
AcDbEntity
8
1
62
256
6
ByLayer
370
18
48
1
60
0
100
AcDbSpline
70
4
71
3
72
10
73
6
40
0
40
0
40
0
40
0
40
0.629893813379365
40
0.629893813379365
40
1
40
1
40
1
40
1
41
1
10
10.7561908698233
20
-5.30504035547236
30
0
41
1
10
10.7649835897085
20
-5.30027751844042
30
0
41
1
10
10.774489089455
20
-5.29586939454671
30
0
41
1
10
10.7909069694743
20
-5.28974949063823
30
0
41
1
10
10.7972920816962
20
-5.28766997508558
30
0
41
1
10
10.8039949047971
20
-5.28583785778534
30
0
0
SPLINE
5
159
100
AcDbEntity
8
1
62
256
6
ByLayer
370
18
48
1
60
0
100
AcDbSpline
70
4
71
3
72
8
73
4
40
0
40
0
40
0
40
0
40
1
40
1
40
1
40
1
41
1
10
10.3092098375596
20
-3.78052527029459
30
0
41
1
10
10.3046737640901
20
-3.79525023743426
30
0
41
1
10
10.2987251885384
20
-3.81125029201982
30
0
41
1
10
10.2907924013482
20
-3.82853567498043
30
0
0
SPLINE
5
15A
100
AcDbEntity
8
1
62
256
6
ByLayer
370
18
48
1
60
0
100
AcDbSpline
70
4
71
3
72
8
73
4
40
0
40
0
40
0
40
0
40
1
40
1
40
1
40
1
41
1
10
10.1941840518626
20
-3.96596224794101
30
0
41
1
10
10.1802288604065
20
-3.97981278553394
30
0
41
1
10
10.1667220549257
20
-3.99148825128575
30
0
41
1
10
10.1539040221947
20
-4.00144971502513
30
0
0
SPLINE
5
15B
100
AcDbEntity
8
1
62
256
6
ByLayer
370
18
48
1
60
0
100
AcDbSpline
70
4
71
3
72
10
73
6
40
0
40
0
40
0
40
0
40
0.123732606265392
40
0.123732606265392
40
1
40
1
40
1
40
1
41
1
10
10.1948664915228
20
-4.86102427667552
30
0
41
1
10
10.1954175669969
20
-4.86360029735258
30
0
41
1
10
10.1959405460564
20
-4.86615917096191
30
0
41
1
10
10.1999155778386
20
-4.88651143435979
30
0
41
1
10
10.2021028428534
20
-4.90348743265008
30
0
41
1
10
10.2033896378322
20
-4.91951003725114
30
0
0
SPLINE
5
15C
100
AcDbEntity
8
1
62
256
6
ByLayer
370
18
48
1
60
0
100
AcDbSpline
70
4
71
3
72
10
73
6
40
0
40
0
40
0
40
0
40
0.315026012182678
40
0.315026012182678
40
1
40
1
40
1
40
1
41
1
10
10.9704068966408
20
-5.29949440276087
30
0
41
1
10
10.9766221711511
20
-5.30203798178044
30
0
41
1
10
10.9826417834786
20
-5.30472667080176
30
0
41
1
10
11.0010540578121
20
-5.31357011435384
30
0
41
1
10
11.012775523301
20
-5.32014161002462
30
0
41
1
10
11.0237117437175
20
-5.32699436735837
30
0
0
SPLINE
5
15D
100
AcDbEntity
8
1
62
256
6
ByLayer
370
18
48
1
60
0
100
AcDbSpline
70
4
71
3
72
10
73
6
40
0
40
0
40
0
40
0
40
0.629893813379212
40
0.629893813379212
40
1
40
1
40
1
40
1
41
1
10
11.1922613863337
20
-3.5128277347892
30
0
41
1
10
11.1813572049916
20
-3.51547911036437
30
0
41
1
10
11.169837425365
20
-3.51787295437774
30
0
41
1
10
11.1505017054415
20
-3.52107501838216
30
0
41
1
10
11.1430948285343
20
-3.52213276924962
30
0
41
1
10
11.1354540091545
20
-3.52302689027081
30
0
0
SPLINE
5
15E
100
AcDbEntity
8
1
62
256
6
ByLayer
370
18
48
1
60
0
100
AcDbSpline
70
4
71
3
72
10
73
6
40
0
40
0
40
0
40
0
40
0.516155291935588
40
0.516155291935588
40
1
40
1
40
1
40
1
41
1
10
11.8572776768384
20
-4.14123650962222
30
0
41
1
10
11.8498214068899
20
-4.13492833009647
30
0
41
1
10
11.8423623847064
20
-4.1281650557751
30
0
41
1
10
11.8280405446519
20
-4.11405820978115
30
0
41
1
10
11.8211404911877
20
-4.10674756564609
30
0
41
1
10
11.8143860647765
20
-4.09892358932464
30
0
0
SPLINE
5
15F
100
AcDbEntity
8
1
62
256
6
ByLayer
370
18
48
1
60
0
100
AcDbSpline
70
4
71
3
72
10
73
6
40
0
40
0
40
0
40
0
40
0.516155291935646
40
0.516155291935646
40
1
40
1
40
1
40
1
41
1
10
10.0911745793218
20
-4.67663158064255
30
0
41
1
10
10.0969002862414
20
-4.68120919713945
30
0
41
1
10
10.1026955539919
20
-4.6863087170278
30
0
41
1
10
10.1140035448107
20
-4.69740171378601
30
0
41
1
10
10.1195344494749
20
-4.70334320912116
30
0
41
1
10
10.1250628491748
20
-4.70994115873126
30
0
0
SPLINE
5
160
100
AcDbEntity
8
1
62
256
6
ByLayer
370
18
48
1
60
0
100
AcDbSpline
70
4
71
3
72
10
73
6
40
0
40
0
40
0
40
0
40
0.123732606265433
40
0.123732606265433
40
1
40
1
40
1
40
1
41
1
10
11.7445824224307
20
-3.94784047138265
30
0
41
1
10
11.7443472959982
20
-3.9455803997472
30
0
41
1
10
11.7441497151431
20
-3.94334692434219
30
0
41
1
10
11.7428490527063
20
-3.92566903028964
30
0
41
1
10
11.7434181357962
20
-3.91144938010407
30
0
41
1
10
11.7450626183279
20
-3.89835805301359
30
0
0
SPLINE
5
161
100
AcDbEntity
8
1
62
256
6
ByLayer
370
18
48
1
60
0
100
AcDbSpline
70
4
71
3
72
8
73
4
40
0
40
0
40
0
40
0
40
1
40
1
40
1
40
1
41
1
10
11.6392424186005
20
-5.03734281997015
30
0
41
1
10
11.6404325676137
20
-5.01927192837414
30
0
41
1
10
11.643252752564
20
-5.00014348318709
30
0
41
1
10
11.6486565126054
20
-4.98032907307774
30
0
0
SPLINE
5
162
100
AcDbEntity
8
1
62
256
6
ByLayer
370
18
48
1
60
0
100
AcDbSpline
70
4
71
3
72
10
73
6
40
0
40
0
40
0
40
0
40
0.315026012182639
40
0.315026012182639
40
1
40
1
40
1
40
1
41
1
10
10.9690420173114
20
-3.50937034529594
30
0
41
1
10
10.9636274533597
20
-3.50762747683493
30
0
41
1
10
10.9584695576824
20
-3.50580050446376
30
0
41
1
10
10.9429258438663
20
-3.4998256214291
30
0
41
1
10
10.9333839890125
20
-3.49543373639341
30
0
41
1
10
10.9247405124427
20
-3.49087372290637
30
0
0
INSERT
5
175
100
AcDbEntity
8
SK2
62
256
6
ByLayer
370
25
48
1
60
0
100
AcDbBlockReference
2
DimnDraft3D11
10
0
20
0
30
0
41
1
42
1
43
1
50
0
210
0
220
0
230
1
0
LINE
5
72
100
AcDbEntity
8
1
62
256
6
ByLayer
370
18
48
1
60
0
100
AcDbLine
10
15.133907
20
-14.198639
30
0
11
15.464505
21
-14.529237
31
0
39
0
210
0
220
0
230
1
0
LINE
5
74
100
AcDbEntity
8
1
62
256
6
ByLayer
370
18
48
1
60
0
100
AcDbLine
10
23.913737
20
-6.080005
30
0
11
23.583139
21
-5.749407
31
0
39
0
210
0
220
0
230
1
0
LINE
5
75
100
AcDbEntity
8
1
62
256
6
ByLayer
370
18
48
1
60
0
100
AcDbLine
10
3.196374
20
-5.507573
30
0
11
3.63619
21
-5.882257
31
0
39
0
210
0
220
0
230
1
0
LINE
5
76
100
AcDbEntity
8
1
62
256
6
ByLayer
370
18
48
1
60
0
100
AcDbLine
10
10.721622
20
-3.302158
30
0
11
10.86197
21
-3.442506
31
0
39
0
210
0
220
0
230
1
0
LINE
5
77
100
AcDbEntity
8
1
62
256
6
ByLayer
370
18
48
1
60
0
100
AcDbLine
10
10.11019
20
-4.693677
30
0
11
9.972511
21
-4.555997
31
0
39
0
210
0
220
0
230
1
0
LINE
5
78
100
AcDbEntity
8
1
62
256
6
ByLayer
370
18
48
1
60
0
100
AcDbLine
10
8.493216
20
-6.453408
30
0
11
8.665847
21
-6.626039
31
0
39
0
210
0
220
0
230
1
0
LINE
5
79
100
AcDbEntity
8
1
62
256
6
ByLayer
370
18
48
1
60
0
100
AcDbLine
10
13.191331
20
-2.100555
30
0
11
13.018648
21
-1.927873
31
0
39
0
210
0
220
0
230
1
0
LINE
5
7A
100
AcDbEntity
8
1
62
256
6
ByLayer
370
18
48
1
60
0
100
AcDbLine
10
11.695245
20
-3.981174
30
0
11
11.832925
21
-4.118854
31
0
39
0
210
0
220
0
230
1
0
LINE
5
7B
100
AcDbEntity
8
1
62
256
6
ByLayer
370
18
48
1
60
0
100
AcDbLine
10
6.298289
20
-3.830458
30
0
11
5.984255
21
-3.562929
31
0
39
0
210
0
220
0
230
1
0
LINE
5
7C
100
AcDbEntity
8
1
62
256
6
ByLayer
370
18
48
1
60
0
100
AcDbLine
10
11.086482
20
-5.375362
30
0
11
10.946134
21
-5.235014
31
0
39
0
210
0
220
0
230
1
0
LINE
5
7D
100
AcDbEntity
8
80
62
256
6
ByLayer
370
18
48
1
60
0
100
AcDbLine
10
0
20
0
30
0
11
-5
21
0
31
0
39
0
210
0
220
0
230
1
0
LINE
5
7E
100
AcDbEntity
8
81
62
256
6
ByLayer
370
18
48
1
60
0
100
AcDbLine
10
24.797
20
-15.4125
30
0
11
34.797
21
-15.4125
31
0
39
0
210
0
220
0
230
1
0
LINE
5
7F
100
AcDbEntity
8
1
62
256
6
ByLayer
370
18
48
1
60
0
100
AcDbLine
10
19.487379
20
-5.531217
30
0
11
23.425417
21
-5.854391
31
0
39
0
210
0
220
0
230
1
0
LINE
5
80
100
AcDbEntity
8
1
62
256
6
ByLayer
370
18
48
1
60
0
100
AcDbLine
10
15.238891
20
-14.040917
30
0
11
15.051248
21
-11.754391
31
0
39
0
210
0
220
0
230
1
0
LINE
5
81
100
AcDbEntity
8
1
62
256
6
ByLayer
370
18
48
1
60
0
100
AcDbLine
10
15.238891
20
-14.040917
30
0
11
15.160271
21
-13.962297
31
0
39
0
210
0
220
0
230
1
0
LINE
5
82
100
AcDbEntity
8
1
62
256
6
ByLayer
370
18
48
1
60
0
100
AcDbLine
10
23.351968
20
-5.780942
30
0
11
23.425417
21
-5.854391
31
0
39
0
210
0
220
0
230
1
0
LINE
5
83
100
AcDbEntity
8
1
62
256
6
ByLayer
370
18
48
1
60
0
100
AcDbLine
10
18.551897
20
-3.841452
30
0
11
18.590671
21
-4.313933
31
0
39
0
210
0
220
0
230
1
0
LINE
5
84
100
AcDbEntity
8
1
62
256
6
ByLayer
370
18
48
1
60
0
100
AcDbLine
10
14.889783
20
-11.706417
30
0
11
15.077856
21
-13.998192
31
0
39
0
210
0
220
0
230
1
0
LINE
5
85
100
AcDbEntity
8
1
62
256
6
ByLayer
370
18
48
1
60
0
100
AcDbLine
10
14.012242
20
6.729474
30
0
11
11.027623
21
2.483817
31
0
39
0
210
0
220
0
230
1
0
LINE
5
86
100
AcDbEntity
8
1
62
256
6
ByLayer
370
18
48
1
60
0
100
AcDbLine
10
4.64358
20
-6.597564
30
0
11
3.259886
21
-8.565886
31
0
39
0
210
0
220
0
230
1
0
LINE
5
87
100
AcDbEntity
8
1
62
256
6
ByLayer
370
18
48
1
60
0
100
AcDbLine
10
19.346119
20
-5.35847
30
0
11
23.383861
21
-5.707602
31
0
39
0
210
0
220
0
230
1
0
LINE
5
88
100
AcDbEntity
8
1
62
256
6
ByLayer
370
18
48
1
60
0
100
AcDbLine
10
13.01463
20
9.945373
30
0
11
8.778027
21
3.918753
31
0
39
0
210
0
220
0
230
1
0
LINE
5
89
100
AcDbEntity
8
1
62
256
6
ByLayer
370
18
48
1
60
0
100
AcDbLine
10
2.601748
20
-4.867082
30
0
11
1.283457
21
-6.742366
31
0
39
0
210
0
220
0
230
1
0
LINE
5
8A
100
AcDbEntity
8
1
62
256
6
ByLayer
370
18
48
1
60
0
100
AcDbLine
10
17.964983
20
-3.174491
30
0
11
17.990513
21
-3.485588
31
0
39
0
210
0
220
0
230
1
0
LINE
5
8B
100
AcDbEntity
8
1
62
256
6
ByLayer
370
18
48
1
60
0
100
AcDbLine
10
23.383861
20
-5.707602
30
0
11
23.339694
21
-5.809168
31
0
39
0
210
0
220
0
230
1
0
LINE
5
8C
100
AcDbEntity
8
1
62
256
6
ByLayer
370
18
48
1
60
0
100
AcDbLine
10
19.447332
20
-5.482153
30
0
11
20.091287
21
-5.537834
31
0
39
0
210
0
220
0
230
1
0
LINE
5
8D
100
AcDbEntity
8
1
62
256
6
ByLayer
370
18
48
1
60
0
100
AcDbLine
10
11.86727
20
9.941486
30
0
11
7.672999
21
3.975083
31
0
39
0
210
0
220
0
230
1
0
LINE
5
8E
100
AcDbEntity
8
1
62
256
6
ByLayer
370
18
48
1
60
0
100
AcDbLine
10
2.175563
20
-3.845088
30
0
11
0.404576
21
-6.364338
31
0
39
0
210
0
220
0
230
1
0
LINE
5
8F
100
AcDbEntity
8
1
62
256
6
ByLayer
370
18
48
1
60
0
100
AcDbLine
10
12.978613
20
9.944507
30
0
11
8.749034
21
3.92788
31
0
39
0
210
0
220
0
230
1
0
LINE
5
90
100
AcDbEntity
8
1
62
256
6
ByLayer
370
18
48
1
60
0
100
AcDbLine
10
2.58365
20
-4.842456
30
0
11
1.077403
21
-6.98511
31
0
39
0
210
0
220
0
230
1
0
LINE
5
91
100
AcDbEntity
8
1
62
256
6
ByLayer
370
18
48
1
60
0
100
AcDbLine
10
17.800701
20
-3.172711
30
0
11
17.80541
21
-3.230101
31
0
39
0
210
0
220
0
230
1
0
LINE
5
92
100
AcDbEntity
8
1
62
256
6
ByLayer
370
18
48
1
60
0
100
AcDbLine
10
10.731732
20
-3.301702
30
0
11
10.819555
21
-3.389525
31
0
39
0
210
0
220
0
230
1
0
LINE
5
93
100
AcDbEntity
8
1
62
256
6
ByLayer
370
18
48
1
60
0
100
AcDbLine
10
8.547212
20
-9.301476
30
0
11
4.829125
21
-6.708436
31
0
39
0
210
0
220
0
230
1
0
LINE
5
94
100
AcDbEntity
8
1
62
256
6
ByLayer
370
18
48
1
60
0
100
AcDbLine
10
4.782465
20
-6.694711
30
0
11
4.829125
21
-6.708436
31
0
39
0
210
0
220
0
230
1
0
LINE
5
95
100
AcDbEntity
8
1
62
256
6
ByLayer
370
18
48
1
60
0
100
AcDbLine
10
8.049535
20
-6.386268
30
0
11
9.385452
21
-7.317047
31
0
39
0
210
0
220
0
230
1
0
LINE
5
96
100
AcDbEntity
8
1
62
256
6
ByLayer
370
18
48
1
60
0
100
AcDbLine
10
20.616865
20
-6.994467
30
0
11
20.996925
21
-9.269924
31
0
39
0
210
0
220
0
230
1
0
LINE
5
97
100
AcDbEntity
8
1
62
256
6
ByLayer
370
18
48
1
60
0
100
AcDbLine
10
13.495244
20
-2.057367
30
0
11
12.153464
21
-1.121593
31
0
39
0
210
0
220
0
230
1
0
LINE
5
98
100
AcDbEntity
8
1
62
256
6
ByLayer
370
18
48
1
60
0
100
AcDbLine
10
10.200543
20
3.054974
30
0
11
9.833491
21
3.367669
31
0
39
0
210
0
220
0
230
1
0
LINE
5
99
100
AcDbEntity
8
1
62
256
6
ByLayer
370
18
48
1
60
0
100
AcDbLine
10
7.174299
20
2.048263
30
0
11
6.108271
21
2.956423
31
0
39
0
210
0
220
0
230
1
0
LINE
5
9A
100
AcDbEntity
8
1
62
256
6
ByLayer
370
18
48
1
60
0
100
AcDbLine
10
11.163974
20
2.383065
30
0
11
9.840089
21
3.362787
31
0
39
0
210
0
220
0
230
1
0
LINE
5
9B
100
AcDbEntity
8
1
62
256
6
ByLayer
370
18
48
1
60
0
100
AcDbLine
10
11.163974
20
2.383065
30
0
11
11.191393
21
2.34197
31
0
39
0
210
0
220
0
230
1
0
LINE
5
9C
100
AcDbEntity
8
1
62
256
6
ByLayer
370
18
48
1
60
0
100
AcDbLine
10
19.157311
20
-11.886797
30
0
11
16.880581
21
-12.309377
31
0
39
0
210
0
220
0
230
1
0
LINE
5
9D
100
AcDbEntity
8
1
62
256
6
ByLayer
370
18
48
1
60
0
100
AcDbLine
10
9.585335
20
2.492124
30
0
11
14.715125
21
-1.085454
31
0
39
0
210
0
220
0
230
1
0
LINE
5
9E
100
AcDbEntity
8
1
62
256
6
ByLayer
370
18
48
1
60
0
100
AcDbLine
10
18.040651
20
-9.27569
30
0
11
21.134608
21
-11.324035
31
0
39
0
210
0
220
0
230
1
0
LINE
5
9F
100
AcDbEntity
8
1
62
256
6
ByLayer
370
18
48
1
60
0
100
AcDbLine
10
14.909481
20
-0.25107
30
0
11
11.191393
21
2.34197
31
0
39
0
210
0
220
0
230
1
0
LINE
5
A0
100
AcDbEntity
8
1
62
256
6
ByLayer
370
18
48
1
60
0
100
AcDbLine
10
4.62592
20
-2.599784
30
0
11
7.155527
21
0.998614
31
0
39
0
210
0
220
0
230
1
0
LINE
5
A1
100
AcDbEntity
8
1
62
256
6
ByLayer
370
18
48
1
60
0
100
AcDbLine
10
4.072383
20
-5.350118
30
0
11
9.202173
21
-8.927697
31
0
39
0
210
0
220
0
230
1
0
LINE
5
A2
100
AcDbEntity
8
1
62
256
6
ByLayer
370
18
48
1
60
0
100
AcDbLine
10
8.301561
20
-6.600972
30
0
11
9.643342
21
-7.536746
31
0
39
0
210
0
220
0
230
1
0
LINE
5
A3
100
AcDbEntity
8
1
62
256
6
ByLayer
370
18
48
1
60
0
100
AcDbLine
10
3.667343
20
-2.940425
30
0
11
2.601315
21
-2.032265
31
0
39
0
210
0
220
0
230
1
0
LINE
5
A4
100
AcDbEntity
8
1
62
256
6
ByLayer
370
18
48
1
60
0
100
AcDbLine
10
6.108271
20
2.956423
30
0
11
2.601315
21
-2.032265
31
0
39
0
210
0
220
0
230
1
0
LINE
5
A5
100
AcDbEntity
8
1
62
256
6
ByLayer
370
18
48
1
60
0
100
AcDbLine
10
9.643342
20
-7.536746
30
0
11
9.385452
21
-7.317047
31
0
39
0
210
0
220
0
230
1
0
LINE
5
A6
100
AcDbEntity
8
1
62
256
6
ByLayer
370
18
48
1
60
0
100
AcDbLine
10
10.200543
20
3.054974
30
0
11
11.163974
21
2.383065
31
0
39
0
210
0
220
0
230
1
0
LINE
5
A7
100
AcDbEntity
8
1
62
256
6
ByLayer
370
18
48
1
60
0
100
AcDbLine
10
5.759912
20
-3.389876
30
0
11
4.62592
21
-2.599784
31
0
39
0
210
0
220
0
230
1
0
LINE
5
A8
100
AcDbEntity
8
1
62
256
6
ByLayer
370
18
48
1
60
0
100
AcDbLine
10
8.301561
20
-6.600972
30
0
11
8.049535
21
-6.386268
31
0
39
0
210
0
220
0
230
1
0
LINE
5
A9
100
AcDbEntity
8
1
62
256
6
ByLayer
370
18
48
1
60
0
100
AcDbLine
10
4.782465
20
-6.694711
30
0
11
3.819034
21
-6.022803
31
0
39
0
210
0
220
0
230
1
0
LINE
5
AA
100
AcDbEntity
8
1
62
256
6
ByLayer
370
18
48
1
60
0
100
AcDbLine
10
3.667343
20
-2.940425
30
0
11
7.174299
21
2.048263
31
0
39
0
210
0
220
0
230
1
0
LINE
5
AB
100
AcDbEntity
8
1
62
256
6
ByLayer
370
18
48
1
60
0
100
AcDbLine
10
9.819233
20
-4.472499
30
0
11
9.959582
21
-4.612848
31
0
39
0
210
0
220
0
230
1
0
LINE
5
AC
100
AcDbEntity
8
1
62
256
6
ByLayer
370
18
48
1
60
0
100
AcDbLine
10
10.803995
20
-5.285838
30
0
11
10.668148
21
-5.149991
31
0
39
0
210
0
220
0
230
1
0
LINE
5
AD
100
AcDbEntity
8
1
62
256
6
ByLayer
370
18
48
1
60
0
100
AcDbLine
10
11.608736
20
-3.811994
30
0
11
11.744582
21
-3.94784
31
0
39
0
210
0
220
0
230
1
0
LINE
5
AE
100
AcDbEntity
8
1
62
256
6
ByLayer
370
18
48
1
60
0
100
AcDbLine
10
11.648657
20
-4.980329
30
0
11
11.51281
21
-4.844483
31
0
39
0
210
0
220
0
230
1
0
LINE
5
AF
100
AcDbEntity
8
1
62
256
6
ByLayer
370
18
48
1
60
0
100
AcDbLine
10
11.814386
20
-4.098924
30
0
11
11.67854
21
-3.963077
31
0
39
0
210
0
220
0
230
1
0
LINE
5
B0
100
AcDbEntity
8
1
62
256
6
ByLayer
370
18
48
1
60
0
100
AcDbLine
10
10.83456
20
-5.163648
30
0
11
10.970407
21
-5.299494
31
0
39
0
210
0
220
0
230
1
0
LINE
5
B1
100
AcDbEntity
8
1
62
256
6
ByLayer
370
18
48
1
60
0
100
AcDbLine
10
10.493559
20
-5.247373
30
0
11
10.633907
21
-5.387722
31
0
39
0
210
0
220
0
230
1
0
LINE
5
B2
100
AcDbEntity
8
1
62
256
6
ByLayer
370
18
48
1
60
0
100
AcDbLine
10
11.795564
20
-4.634686
30
0
11
11.935912
21
-4.775034
31
0
39
0
210
0
220
0
230
1
0
LINE
5
B3
100
AcDbEntity
8
1
62
256
6
ByLayer
370
18
48
1
60
0
100
AcDbLine
10
11.508204
20
-5.04346
30
0
11
11.648552
21
-5.183808
31
0
39
0
210
0
220
0
230
1
0
LINE
5
B4
100
AcDbEntity
8
1
62
256
6
ByLayer
370
18
48
1
60
0
100
AcDbLine
10
11.609418
20
-4.707056
30
0
11
11.745265
21
-4.842903
31
0
39
0
210
0
220
0
230
1
0
LINE
5
B5
100
AcDbEntity
8
1
62
256
6
ByLayer
370
18
48
1
60
0
100
AcDbLine
10
11.640892
20
-3.615277
30
0
11
11.781241
21
-3.755626
31
0
39
0
210
0
220
0
230
1
0
LINE
5
B6
100
AcDbEntity
8
1
62
256
6
ByLayer
370
18
48
1
60
0
100
AcDbLine
10
23.191293
20
-3.361063
30
0
11
14.925393
21
7.642625
31
0
39
0
210
0
220
0
230
1
0
LINE
5
B7
100
AcDbEntity
8
1
62
256
6
ByLayer
370
18
48
1
60
0
100
AcDbLine
10
23.191293
20
-3.361063
30
0
11
23.383861
21
-5.707602
31
0
39
0
210
0
220
0
230
1
0
LINE
5
B8
100
AcDbEntity
8
1
62
256
6
ByLayer
370
18
48
1
60
0
100
AcDbLine
10
14.012242
20
6.729474
30
0
11
14.755362
21
7.867558
31
0
39
0
210
0
220
0
230
1
0
LINE
5
B9
100
AcDbEntity
8
1
62
256
6
ByLayer
370
18
48
1
60
0
100
AcDbLine
10
13.136823
20
9.945705
30
0
11
14.755362
21
7.867558
31
0
39
0
210
0
220
0
230
1
0
LINE
5
BA
100
AcDbEntity
8
1
62
256
6
ByLayer
370
18
48
1
60
0
100
AcDbLine
10
2.857651
20
-12.795151
30
0
11
3.075742
21
-13.013242
31
0
39
0
210
0
220
0
230
1
0
LINE
5
BB
100
AcDbEntity
8
1
62
256
6
ByLayer
370
18
48
1
60
0
100
AcDbLine
10
0
20
-9.9375
30
0
11
0
21
9.9375
31
0
39
0
210
0
220
0
230
1
0
LINE
5
BC
100
AcDbEntity
8
1
62
256
6
ByLayer
370
18
48
1
60
0
100
AcDbLine
10
17.800701
20
-3.172711
30
0
11
17.964983
21
-3.174491
31
0
39
0
210
0
220
0
230
1
0
LINE
5
BD
100
AcDbEntity
8
1
62
256
6
ByLayer
370
18
48
1
60
0
100
AcDbLine
10
14.925393
20
7.642625
30
0
11
14.012242
21
6.729474
31
0
39
0
210
0
220
0
230
1
0
LINE
5
BE
100
AcDbEntity
8
1
62
256
6
ByLayer
370
18
48
1
60
0
100
AcDbLine
10
1.283457
20
-6.742366
30
0
11
3.259886
21
-8.565886
31
0
39
0
210
0
220
0
230
1
0
LINE
5
BF
100
AcDbEntity
8
1
62
256
6
ByLayer
370
18
48
1
60
0
100
AcDbLine
10
15.077856
20
-13.998192
30
0
11
15.188481
21
-13.950015
31
0
39
0
210
0
220
0
230
1
0
LINE
5
C0
100
AcDbEntity
8
1
62
256
6
ByLayer
370
18
48
1
60
0
100
AcDbLine
10
15.077856
20
-13.998192
30
0
11
3.075742
21
-13.013242
31
0
39
0
210
0
220
0
230
1
0
LINE
5
C1
100
AcDbEntity
8
1
62
256
6
ByLayer
370
18
48
1
60
0
100
AcDbLine
10
17.964983
20
-3.174491
30
0
11
18.551897
21
-3.841452
31
0
39
0
210
0
220
0
230
1
0
LINE
5
C2
100
AcDbEntity
8
1
62
256
6
ByLayer
370
18
48
1
60
0
100
AcDbLine
10
14.925393
20
7.642625
30
0
11
14.755362
21
7.867558
31
0
39
0
210
0
220
0
230
1
0
LINE
5
C3
100
AcDbEntity
8
1
62
256
6
ByLayer
370
18
48
1
60
0
100
AcDbLine
10
11.86727
20
9.941486
30
0
11
1.955817
21
9.946034
31
0
39
0
210
0
220
0
230
1
0
LINE
5
C4
100
AcDbEntity
8
1
62
256
6
ByLayer
370
18
48
1
60
0
100
AcDbLine
10
3.259886
20
-8.565886
30
0
11
2.857651
21
-12.795151
31
0
39
0
210
0
220
0
230
1
0
LINE
5
C5
100
AcDbEntity
8
1
62
256
6
ByLayer
370
18
48
1
60
0
100
AcDbLine
10
2.857651
20
-12.795151
30
0
11
0
21
-9.9375
31
0
39
0
210
0
220
0
230
1
0
LINE
5
C6
100
AcDbEntity
8
1
62
256
6
ByLayer
370
18
48
1
60
0
100
AcDbLine
10
0
20
9.9375
30
0
11
1.955817
21
9.946034
31
0
39
0
210
0
220
0
230
1
0
LINE
5
C7
100
AcDbEntity
8
1
62
256
6
ByLayer
370
18
48
1
60
0
100
AcDbLine
10
1.077403
20
-6.98511
30
0
11
1.283457
21
-6.742366
31
0
39
0
210
0
220
0
230
1
0
LINE
5
C8
100
AcDbEntity
8
1
62
256
6
ByLayer
370
18
48
1
60
0
100
AcDbLine
10
13.136823
20
9.945705
30
0
11
13.01463
21
9.945373
31
0
39
0
210
0
220
0
230
1
0
LINE
5
C9
100
AcDbEntity
8
1
62
256
6
ByLayer
370
18
48
1
60
0
100
AcDbLine
10
13.01463
20
9.945373
30
0
11
12.978613
21
9.944507
31
0
39
0
210
0
220
0
230
1
0
LINE
5
CA
100
AcDbEntity
8
1
62
256
6
ByLayer
370
18
48
1
60
0
100
AcDbLine
10
1.955817
20
9.946034
30
0
11
0.404576
21
-6.364338
31
0
39
0
210
0
220
0
230
1
0
LINE
5
CB
100
AcDbEntity
8
SK1
62
256
6
ByLayer
370
18
48
1
60
0
100
AcDbLine
10
0
20
-9.9375
30
0
11
0
21
9.9375
31
0
39
0
210
0
220
0
230
1
0
LINE
5
CD
100
AcDbEntity
8
SK1
62
256
6
ByLayer
370
18
48
1
60
0
100
AcDbLine
10
-101.553
20
-9.9375
30
0
11
-101.553
21
9.9375
31
0
39
0
210
0
220
0
230
1
0
LINE
5
CE
100
AcDbEntity
8
SK1
62
256
6
ByLayer
370
18
48
1
60
0
100
AcDbLine
10
0
20
-9.9375
30
0
11
-101.553
21
-9.9375
31
0
39
0
210
0
220
0
230
1
0
LINE
5
CF
100
AcDbEntity
8
SK1
62
256
6
ByLayer
370
18
48
1
60
0
100
AcDbLine
10
-101.553
20
9.9375
30
0
11
0
21
9.9375
31
0
39
0
210
0
220
0
230
1
0
LINE
5
D0
100
AcDbEntity
8
1
62
256
6
ByLayer
370
18
48
1
60
0
100
AcDbLine
10
23.934156
20
-15.409836
30
0
11
15.952825
21
-14.754851
31
0
39
0
210
0
220
0
230
1
0
LINE
5
D1
100
AcDbEntity
8
1
62
256
6
ByLayer
370
18
48
1
60
0
100
AcDbLine
10
24.139351
20
-6.568324
30
0
11
24.794336
21
-14.549656
31
0
39
0
210
0
220
0
230
1
0
MTEXT
5
163
100
AcDbEntity
8
SK6
62
256
6
ByLayer
370
18
48
1
60
0
100
AcDbMText
10
-52.503
20
19.066767
30
0
210
0
220
0
230
1
1
\W0.7723;DCLNL 2020K 09
40
3.5
41
0
44
1.084337
50
0
71
7
72
5
7
iso_b_vert
0
DIMENSION
5
183
100
AcDbEntity
8
2
62
256
6
ByLayer
370
13
48
1
60
0
100
AcDbDimension
2
DimnDraft3D2
10
22.94168
20
-15.328051
30
0
11
12.351118
21
-26.94666
31
0
70
34
71
5
72
1
41
1
210
0
220
0
230
1
3
Standard
100
AcDb2LineAngularDimension
13
24.797
23
-15.4125
33
0
14
24.797
24
-13.825
34
0
15
23.938329
25
-15.409841
35
0
16
9.041568
26
-29.995739
36
0
40
0
0
DIMENSION
5
198
100
AcDbEntity
8
2
62
256
6
ByLayer
370
13
48
1
60
0
100
AcDbDimension
2
DimnDraft3D3
10
24.797
20
-43.6625
30
0
11
6.880079
21
-43.6625
31
0
70
32
71
5
72
1
41
1
210
0
220
0
230
1
3
Standard
100
AcDbAlignedDimension
13
0
23
-11.9375
33
0
14
24.797
24
-17.4125
34
0
50
0
100
AcDbRotatedDimension
1001
ACAD
1000
DSTYLE
1002
{
1070
   279
1070
     0
1070
   172
1070
     1
1070
   173
1070
     1
1070
   340
1005
164
1070
    77
1070
     1
1070
    73
1070
     0
1070
   171
1070
     3
1070
   274
1070
     4
1070
   177
1070
     2
1070
   176
1070
     2
1070
   178
1070
     7
1070
    78
1070
     8
1070
    41
1041
3.175
1070
   147
1041
2.25
1070
    42
1041
2.0
1070
    44
1041
2.0
1070
   140
1041
4.5
1070
   343
1005
184
1070
   344
1005
184
1002
}
0
DIMENSION
5
1A6
100
AcDbEntity
8
2
62
256
6
ByLayer
370
13
48
1
60
0
100
AcDbDimension
2
DimnDraft3D4
10
47.047
20
-15.4125
30
0
11
47.047
21
-8.019079
31
0
70
32
71
5
72
1
41
1
210
0
220
0
230
1
3
Standard
100
AcDbAlignedDimension
13
2
23
9.9375
33
0
14
26.797
24
-15.4125
34
0
50
90
100
AcDbRotatedDimension
1001
ACAD
1000
DSTYLE
1002
{
1070
    74
1070
     0
1070
   279
1070
     0
1070
   172
1070
     1
1070
   173
1070
     1
1070
   340
1005
164
1070
    77
1070
     1
1070
    73
1070
     0
1070
   171
1070
     3
1070
   274
1070
     4
1070
   177
1070
     2
1070
   176
1070
     2
1070
   178
1070
     7
1070
    78
1070
     8
1070
    41
1041
3.175
1070
   147
1041
2.25
1070
    42
1041
2.0
1070
    44
1041
2.0
1070
   140
1041
4.5
1070
   343
1005
184
1070
   344
1005
184
1002
}
0
DIMENSION
5
1B4
100
AcDbEntity
8
SK2
62
256
6
ByLayer
370
13
48
1
60
0
100
AcDbDimension
2
DimnDraft3D5
10
-109.303
20
-9.9375
30
0
11
-109.303
21
-5.281579
31
0
70
32
71
5
72
1
41
1
210
0
220
0
230
1
3
Standard
100
AcDbAlignedDimension
13
-103.553
23
9.9375
33
0
14
-103.553
24
-9.9375
34
0
50
90
100
AcDbRotatedDimension
1001
ACAD
1000
DSTYLE
1002
{
1070
    74
1070
     0
1070
   279
1070
     0
1070
   172
1070
     1
1070
   173
1070
     1
1070
   340
1005
164
1070
    77
1070
     1
1070
    73
1070
     0
1070
   171
1070
     3
1070
   274
1070
     4
1070
   177
1070
     2
1070
   176
1070
     2
1070
   178
1070
     7
1070
    78
1070
     8
1070
    41
1041
3.175
1070
   147
1041
2.25
1070
    42
1041
2.0
1070
    44
1041
2.0
1070
   140
1041
4.5
1070
   343
1005
184
1070
   344
1005
184
1002
}
0
ENDSEC
0
SECTION
2
OBJECTS
0
DICTIONARY
5
21e
330
0
100
AcDbDictionary
280
0
281
1
3
ACAD_GROUP
350
21f
3
ACAD_MLINESTYLE
350
220
0
DICTIONARY
5
21f
330
0
100
AcDbDictionary
280
0
281
1
0
DICTIONARY
5
220
330
0
100
AcDbDictionary
280
0
281
1
3
Standard
350
18
0
MLINESTYLE
5
18
330
220
100
AcDbMlineStyle
2
Standard
70
0
3

62
256
51
90
52
90
71
2
49
-0.5
62
256
6
ByLayer
49
0.5
62
256
6
ByLayer
0
RASTERVARIABLES
5
20d
330

100
AcDbRasterVariables
90
0
70
1
71
1
72
1
0
ENDSEC
0
EOF
