0
SECTION
2
HEADER
9
$ACADVER
1
AC1015
9
$DWGCODEPAGE
3
ANSI_1252
9
$HANDSEED
5
1fb
9
$ANGBASE
50
0
9
$ANGDIR
70
0
9
$ATTMODE
70
1
9
$AUNITS
70
0
9
$AUPREC
70
0
9
$CECOLOR
62
256
9
$CELTSCALE
40
1
9
$CELTYPE
6
ByLayer
9
$CELWEIGHT
370
18
9
$CLAYER
8
0
9
$CMLJUST
70
0
9
$CMLSCALE
40
1
9
$CMLSTYLE
2
Standard
9
$DIMSTYLE
2
Standard
9
$TEXTSIZE
40
0.2
9
$TEXTSTYLE
7
Standard
9
$LUNITS
70
2
9
$LUPREC
70
4
9
$EXTNAMES
290
1
9
$INSUNITS
70
4
9
$LTSCALE
40
1
9
$LWDISPLAY
290
1
9
$PDMODE
70
0
9
$PDSIZE
40
0
9
$PLINEGEN
70
0
0
ENDSEC
0
SECTION
2
CLASSES
0
CLASS
1
RASTERVARIABLES
2
AcDbRasterVariables
3
ISM
90
0
280
0
281
0
0
ENDSEC
0
SECTION
2
TABLES
0
TABLE
2
VPORT
5
1f1
100
AcDbSymbolTable
0
VPORT
5
1
100
AcDbSymbolTableRecord
100
AcDbViewportTableRecord
2
*Active
70
0
10
0
20
0
11
1
21
1
12
-1
22
1
13
0
23
0
14
0.5
24
0.5
15
10
25
10
16
0
26
0
36
1
17
0
27
0
37
0
0
ENDTAB
0
TABLE
2
LTYPE
5
1f2
100
AcDbSymbolTable
0
LTYPE
5
14
100
AcDbSymbolTableRecord
100
AcDbLinetypeTableRecord
70
0
2
ByBlock
3

72
65
73
0
40
0
0
LTYPE
5
15
100
AcDbSymbolTableRecord
100
AcDbLinetypeTableRecord
70
0
2
ByLayer
3

72
65
73
0
40
0
0
LTYPE
5
16
100
AcDbSymbolTableRecord
100
AcDbLinetypeTableRecord
70
0
2
CONTINUOUS
3
Solid line
72
65
73
0
40
0
0
LTYPE
5
6A
100
AcDbSymbolTableRecord
100
AcDbLinetypeTableRecord
70
0
2
CENTER
3
____ _ ____ _ ____ _ ____
72
65
73
4
40
47.5
49
22
74
0
49
-8.5
74
0
49
8.5
74
0
49
-8.5
74
0
0
LTYPE
5
6B
100
AcDbSymbolTableRecord
100
AcDbLinetypeTableRecord
70
0
2
DASHED
3
__ __ __ __ __ __ __ __ __
72
65
73
2
40
25.72
49
12.86
74
0
49
-12.86
74
0
0
ENDTAB
0
TABLE
2
LAYER
5
1f3
100
AcDbSymbolTable
0
LAYER
5
10
100
AcDbSymbolTableRecord
100
AcDbLayerTableRecord
2
0
70
0
62
7
6
CONTINUOUS
290
1
370
-3
390
0
0
LAYER
5
6D
100
AcDbSymbolTableRecord
100
AcDbLayerTableRecord
2
2
70
0
62
7
6
CONTINUOUS
290
1
370
-3
390
0
0
LAYER
5
6F
100
AcDbSymbolTableRecord
100
AcDbLayerTableRecord
2
80
70
0
62
-6
6
CONTINUOUS
290
1
370
-3
390
0
0
LAYER
5
71
100
AcDbSymbolTableRecord
100
AcDbLayerTableRecord
2
81
70
0
62
-3
6
CONTINUOUS
290
1
370
-3
390
0
0
LAYER
5
73
100
AcDbSymbolTableRecord
100
AcDbLayerTableRecord
2
1
70
0
62
4
6
CONTINUOUS
290
1
370
-3
390
0
0
LAYER
5
1de
100
AcDbSymbolTableRecord
100
AcDbLayerTableRecord
2
SK1
70
0
62
4
6
CONTINUOUS
290
1
370
-3
390
0
0
LAYER
5
1df
100
AcDbSymbolTableRecord
100
AcDbLayerTableRecord
2
SK6
70
0
62
5
6
CONTINUOUS
290
1
370
-3
390
0
0
LAYER
5
1e0
100
AcDbSymbolTableRecord
100
AcDbLayerTableRecord
2
SK2
70
0
62
7
6
CONTINUOUS
290
1
370
-3
390
0
0
ENDTAB
0
TABLE
2
STYLE
5
1f4
100
AcDbSymbolTable
0
STYLE
5
11
100
AcDbSymbolTableRecord
100
AcDbTextStyleTableRecord
2
Standard
3
txt
70
0
71
0
40
0
41
1
42
0
50
0
0
STYLE
5
134
100
AcDbSymbolTableRecord
100
AcDbTextStyleTableRecord
2
iso_b_vert
3
simplex.shx
70
0
71
0
40
0
41
1
42
0
50
0
0
STYLE
5
135
100
AcDbSymbolTableRecord
100
AcDbTextStyleTableRecord
2
DWGDirectTextStyle
3
simplex
70
0
71
0
40
0
41
1
42
0
50
0
0
ENDTAB
0
TABLE
2
DIMSTYLE
5
1f5
100
AcDbSymbolTable
100
AcDbDimStyleTable
0
DIMSTYLE
105
27
100
AcDbSymbolTableRecord
100
AcDbDimStyleTableRecord
2
Standard
70
0
3
<>
41
0.18
42
0.0625
44
0.18
140
0.18
147
0.09
73
0
74
0
77
1
271
2
275
0
278
52
280
0
340
11
0
ENDTAB
0
TABLE
2
VIEW
5
1f6
100
AcDbSymbolTable
0
ENDTAB
0
TABLE
2
UCS
5
1f7
100
AcDbSymbolTable
0
ENDTAB
0
TABLE
2
APPID
5
1f8
100
AcDbSymbolTable
0
APPID
5
12
100
AcDbSymbolTableRecord
100
AcDbRegAppTableRecord
2
ACAD
70
0
0
ENDTAB
0
TABLE
2
BLOCK_RECORD
5
1f9
100
AcDbSymbolTable
0
BLOCK_RECORD
5
1F
100
AcDbSymbolTableRecord
100
AcDbBlockTableRecord
2
*Model_Space
340
0
70
0
0
BLOCK_RECORD
5
1B
100
AcDbSymbolTableRecord
100
AcDbBlockTableRecord
2
*Paper_Space
340
0
70
0
0
BLOCK_RECORD
5
23
100
AcDbSymbolTableRecord
100
AcDbBlockTableRecord
2
*Paper_Space0
340
0
70
0
0
BLOCK_RECORD
5
137
100
AcDbSymbolTableRecord
100
AcDbBlockTableRecord
2
DimnDraft3D11
340
0
70
0
0
BLOCK_RECORD
5
146
100
AcDbSymbolTableRecord
100
AcDbBlockTableRecord
2
DimnDraft3D2
340
0
70
0
0
BLOCK_RECORD
5
154
100
AcDbSymbolTableRecord
100
AcDbBlockTableRecord
2
_CLOSED
340
0
70
0
0
BLOCK_RECORD
5
15B
100
AcDbSymbolTableRecord
100
AcDbBlockTableRecord
2
DimnDraft3D3
340
0
70
0
0
BLOCK_RECORD
5
169
100
AcDbSymbolTableRecord
100
AcDbBlockTableRecord
2
DimnDraft3D4
340
0
70
0
0
BLOCK_RECORD
5
177
100
AcDbSymbolTableRecord
100
AcDbBlockTableRecord
2
DimnDraft3D5
340
0
70
0
0
ENDTAB
0
ENDSEC
0
SECTION
2
BLOCKS
0
BLOCK
5
20
100
AcDbEntity
8
0
100
AcDbBlockBegin
2
*Model_Space
70
0
10
0
20
0
30
0
3
*Model_Space
0
ENDBLK
5
21
100
AcDbEntity
8
0
100
AcDbBlockEnd
0
BLOCK
5
1C
100
AcDbEntity
8
0
100
AcDbBlockBegin
2
*Paper_Space
70
0
10
0
20
0
30
0
3
*Paper_Space
0
ENDBLK
5
1D
100
AcDbEntity
8
0
100
AcDbBlockEnd
0
BLOCK
5
24
100
AcDbEntity
8
0
100
AcDbBlockBegin
2
*Paper_Space0
70
0
10
0
20
0
30
0
3
*Paper_Space0
0
ENDBLK
5
25
100
AcDbEntity
8
0
100
AcDbBlockEnd
0
BLOCK
5
138
100
AcDbEntity
8
0
100
AcDbBlockBegin
2
DimnDraft3D11
70
0
10
0
20
0
30
0
3
DimnDraft3D11
0
LINE
5
13A
100
AcDbEntity
8
SK2
62
256
6
ByLayer
370
25
48
1
60
0
100
AcDbLine
10
32.20454
20
-14.4125
30
0
11
32.20454
21
-52.6625
31
0
39
0
210
0
220
0
230
1
0
LINE
5
13C
100
AcDbEntity
8
SK2
62
256
6
ByLayer
370
25
48
1
60
0
100
AcDbLine
10
-69.14546
20
-9.9375
30
0
11
-69.14546
21
-52.6625
31
0
39
0
210
0
220
0
230
1
0
LINE
5
13D
100
AcDbEntity
8
SK2
62
256
6
ByLayer
370
25
48
1
60
0
100
AcDbLine
10
32.20454
20
-50.6625
30
0
11
-69.14546
21
-50.6625
31
0
39
0
210
0
220
0
230
1
0
LINE
5
13E
100
AcDbEntity
8
SK2
62
256
6
ByLayer
370
25
48
1
60
0
100
AcDbLine
10
32.20454
20
-50.6625
30
0
11
29.029541
21
-51.080497
31
0
39
0
210
0
220
0
230
1
0
LINE
5
13F
100
AcDbEntity
8
SK2
62
256
6
ByLayer
370
25
48
1
60
0
100
AcDbLine
10
32.20454
20
-50.6625
30
0
11
29.029538
21
-50.244503
31
0
39
0
210
0
220
0
230
1
0
LINE
5
140
100
AcDbEntity
8
SK2
62
256
6
ByLayer
370
25
48
1
60
0
100
AcDbLine
10
29.029541
20
-51.080497
30
0
11
29.029538
21
-50.244503
31
0
39
0
210
0
220
0
230
1
0
LINE
5
141
100
AcDbEntity
8
SK2
62
256
6
ByLayer
370
25
48
1
60
0
100
AcDbLine
10
-69.14546
20
-50.6625
30
0
11
-65.970462
21
-50.244503
31
0
39
0
210
0
220
0
230
1
0
LINE
5
142
100
AcDbEntity
8
SK2
62
256
6
ByLayer
370
25
48
1
60
0
100
AcDbLine
10
-69.14546
20
-50.6625
30
0
11
-65.970459
21
-51.080497
31
0
39
0
210
0
220
0
230
1
0
LINE
5
143
100
AcDbEntity
8
SK2
62
256
6
ByLayer
370
25
48
1
60
0
100
AcDbLine
10
-65.970462
20
-50.244503
30
0
11
-65.970459
21
-51.080497
31
0
39
0
210
0
220
0
230
1
0
MTEXT
5
144
100
AcDbEntity
8
SK2
62
256
6
ByLayer
370
18
48
1
60
0
100
AcDbMText
10
-23.746118
20
-49.5375
30
0
210
0
220
0
230
1
1
\W0.6864;100.0
40
4.5
41
0
44
1.084337
50
0
71
7
72
5
7
iso_b_vert
0
ENDBLK
5
139
100
AcDbEntity
8
0
100
AcDbBlockEnd
0
BLOCK
5
151
100
AcDbEntity
8
0
100
AcDbBlockBegin
2
DimnDraft3D2
70
0
10
0
20
0
30
0
3
DimnDraft3D2
0
MTEXT
5
147
100
AcDbEntity
8
2
62
256
6
ByLayer
370
18
48
1
60
0
100
AcDbMText
10
15.298607
20
-24.086616
30
0
210
0
220
0
230
1
1
\W0.7399;95%%d
40
4.5
41
0
44
1.084337
50
312.65427684
71
7
72
5
7
iso_b_vert
0
LINE
5
148
100
AcDbEntity
8
2
62
256
6
ByLayer
370
13
48
1
60
0
100
AcDbLine
10
32.20454
20
-14.4125
30
0
11
32.20454
21
-35.902991
31
0
39
0
210
0
220
0
230
1
0
LINE
5
149
100
AcDbEntity
8
2
62
256
6
ByLayer
370
13
48
1
60
0
100
AcDbLine
10
28.35592
20
-12.164471
30
0
11
8.860331
21
-10.564572
31
0
39
0
210
0
220
0
230
1
0
ARC
5
14A
100
AcDbEntity
8
2
62
256
6
ByLayer
370
13
48
1
60
0
100
AcDbCircle
39
0
10
32.20454
20
-12.480307
30
0
40
21.4226837817216
210
0
220
0
230
1
100
AcDbArc
50
175.308554
51
270
0
LINE
5
14B
100
AcDbEntity
8
2
62
256
6
ByLayer
370
13
48
1
60
0
100
AcDbLine
10
32.20454
20
-33.902991
30
0
11
29.016257
21
-34.203304
31
0
39
0
210
0
220
0
230
1
0
LINE
5
14C
100
AcDbEntity
8
2
62
256
6
ByLayer
370
13
48
1
60
0
100
AcDbLine
10
32.20454
20
-33.902991
30
0
11
29.047165
21
-33.367882
31
0
39
0
210
0
220
0
230
1
0
LINE
5
14D
100
AcDbEntity
8
2
62
256
6
ByLayer
370
13
48
1
60
0
100
AcDbLine
10
29.016257
20
-34.203304
30
0
11
29.047165
21
-33.367882
31
0
39
0
210
0
220
0
230
1
0
LINE
5
14E
100
AcDbEntity
8
2
62
256
6
ByLayer
370
13
48
1
60
0
100
AcDbLine
10
10.85363
20
-10.728152
30
0
11
11.128706
21
-13.918711
31
0
39
0
210
0
220
0
230
1
0
LINE
5
14F
100
AcDbEntity
8
2
62
256
6
ByLayer
370
13
48
1
60
0
100
AcDbLine
10
10.85363
20
-10.728152
30
0
11
10.293555
21
-13.881193
31
0
39
0
210
0
220
0
230
1
0
LINE
5
150
100
AcDbEntity
8
2
62
256
6
ByLayer
370
13
48
1
60
0
100
AcDbLine
10
11.128706
20
-13.918711
30
0
11
10.293555
21
-13.881193
31
0
39
0
210
0
220
0
230
1
0
ENDBLK
5
152
100
AcDbEntity
8
0
100
AcDbBlockEnd
0
BLOCK
5
155
100
AcDbEntity
8
0
100
AcDbBlockBegin
2
_CLOSED
70
0
10
0
20
0
30
0
3
_CLOSED
0
LINE
5
157
100
AcDbEntity
8
0
62
256
6
ByLayer
370
-2
48
1
60
0
100
AcDbLine
10
-1
20
0.166667
30
0
11
0
21
0
31
0
39
0
210
0
220
0
230
1
0
LINE
5
158
100
AcDbEntity
8
0
62
256
6
ByLayer
370
-2
48
1
60
0
100
AcDbLine
10
0
20
0
30
0
11
-1
21
-0.166667
31
0
39
0
210
0
220
0
230
1
0
LINE
5
159
100
AcDbEntity
8
0
62
256
6
ByLayer
370
-2
48
1
60
0
100
AcDbLine
10
-1
20
0.166667
30
0
11
-1
21
-0.166667
31
0
39
0
210
0
220
0
230
1
0
LINE
5
15A
100
AcDbEntity
8
0
62
256
6
ByLayer
370
-2
48
1
60
0
100
AcDbLine
10
0
20
0
30
0
11
-1
21
0
31
0
39
0
210
0
220
0
230
1
0
ENDBLK
5
156
100
AcDbEntity
8
0
100
AcDbBlockEnd
0
BLOCK
5
166
100
AcDbEntity
8
0
100
AcDbBlockBegin
2
DimnDraft3D3
70
0
10
0
20
0
30
0
3
DimnDraft3D3
0
MTEXT
5
15C
100
AcDbEntity
8
2
62
256
6
ByLayer
370
18
48
1
60
0
100
AcDbMText
10
11.945691
20
-39.5375
30
0
210
0
220
0
230
1
1
\W0.7346;32.2
40
4.5
41
0
44
1.084337
50
0
71
7
72
5
7
iso_b_vert
0
LINE
5
15D
100
AcDbEntity
8
2
62
256
6
ByLayer
370
13
48
1
60
0
100
AcDbLine
10
0
20
-9.9375
30
0
11
0
21
-42.6625
31
0
39
0
210
0
220
0
230
1
0
LINE
5
15E
100
AcDbEntity
8
2
62
256
6
ByLayer
370
13
48
1
60
0
100
AcDbLine
10
32.20454
20
-14.4125
30
0
11
32.20454
21
-42.6625
31
0
39
0
210
0
220
0
230
1
0
LINE
5
15F
100
AcDbEntity
8
2
62
256
6
ByLayer
370
13
48
1
60
0
100
AcDbLine
10
0
20
-40.6625
30
0
11
32.20454
21
-40.6625
31
0
39
0
210
0
220
0
230
1
0
LINE
5
160
100
AcDbEntity
8
2
62
256
6
ByLayer
370
13
48
1
60
0
100
AcDbLine
10
0
20
-40.6625
30
0
11
3.174998
21
-40.244503
31
0
39
0
210
0
220
0
230
1
0
LINE
5
161
100
AcDbEntity
8
2
62
256
6
ByLayer
370
13
48
1
60
0
100
AcDbLine
10
0
20
-40.6625
30
0
11
3.175002
21
-41.080497
31
0
39
0
210
0
220
0
230
1
0
LINE
5
162
100
AcDbEntity
8
2
62
256
6
ByLayer
370
13
48
1
60
0
100
AcDbLine
10
3.174998
20
-40.244503
30
0
11
3.175002
21
-41.080497
31
0
39
0
210
0
220
0
230
1
0
LINE
5
163
100
AcDbEntity
8
2
62
256
6
ByLayer
370
13
48
1
60
0
100
AcDbLine
10
32.20454
20
-40.6625
30
0
11
29.029541
21
-41.080497
31
0
39
0
210
0
220
0
230
1
0
LINE
5
164
100
AcDbEntity
8
2
62
256
6
ByLayer
370
13
48
1
60
0
100
AcDbLine
10
32.20454
20
-40.6625
30
0
11
29.029538
21
-40.244503
31
0
39
0
210
0
220
0
230
1
0
LINE
5
165
100
AcDbEntity
8
2
62
256
6
ByLayer
370
13
48
1
60
0
100
AcDbLine
10
29.029541
20
-41.080497
30
0
11
29.029538
21
-40.244503
31
0
39
0
210
0
220
0
230
1
0
ENDBLK
5
167
100
AcDbEntity
8
0
100
AcDbBlockEnd
0
BLOCK
5
174
100
AcDbEntity
8
0
100
AcDbBlockBegin
2
DimnDraft3D4
70
0
10
0
20
0
30
0
3
DimnDraft3D4
0
MTEXT
5
16A
100
AcDbEntity
8
2
62
256
6
ByLayer
370
18
48
1
60
0
100
AcDbMText
10
53.32954
20
-6.394079
30
0
210
0
220
0
230
1
1
\W0.7346;20.0
40
4.5
41
0
44
1.084337
50
90
71
7
72
5
7
iso_b_vert
0
LINE
5
16B
100
AcDbEntity
8
2
62
256
6
ByLayer
370
13
48
1
60
0
100
AcDbLine
10
2
20
7.9375
30
0
11
56.45454
21
7.9375
31
0
39
0
210
0
220
0
230
1
0
LINE
5
16C
100
AcDbEntity
8
2
62
256
6
ByLayer
370
13
48
1
60
0
100
AcDbLine
10
34.20454
20
-12.4125
30
0
11
56.45454
21
-12.4125
31
0
39
0
210
0
220
0
230
1
0
LINE
5
16D
100
AcDbEntity
8
2
62
256
6
ByLayer
370
13
48
1
60
0
100
AcDbLine
10
54.45454
20
19.1875
30
0
11
54.45454
21
-23.6625
31
0
39
0
210
0
220
0
230
1
0
LINE
5
16E
100
AcDbEntity
8
2
62
256
6
ByLayer
370
13
48
1
60
0
100
AcDbLine
10
54.45454
20
7.9375
30
0
11
54.036543
21
11.112498
31
0
39
0
210
0
220
0
230
1
0
LINE
5
16F
100
AcDbEntity
8
2
62
256
6
ByLayer
370
13
48
1
60
0
100
AcDbLine
10
54.45454
20
7.9375
30
0
11
54.872536
21
11.112502
31
0
39
0
210
0
220
0
230
1
0
LINE
5
170
100
AcDbEntity
8
2
62
256
6
ByLayer
370
13
48
1
60
0
100
AcDbLine
10
54.036543
20
11.112498
30
0
11
54.872536
21
11.112502
31
0
39
0
210
0
220
0
230
1
0
LINE
5
171
100
AcDbEntity
8
2
62
256
6
ByLayer
370
13
48
1
60
0
100
AcDbLine
10
54.45454
20
-12.4125
30
0
11
54.872536
21
-15.587498
31
0
39
0
210
0
220
0
230
1
0
LINE
5
172
100
AcDbEntity
8
2
62
256
6
ByLayer
370
13
48
1
60
0
100
AcDbLine
10
54.45454
20
-12.4125
30
0
11
54.036543
21
-15.587502
31
0
39
0
210
0
220
0
230
1
0
LINE
5
173
100
AcDbEntity
8
2
62
256
6
ByLayer
370
13
48
1
60
0
100
AcDbLine
10
54.872536
20
-15.587498
30
0
11
54.036543
21
-15.587502
31
0
39
0
210
0
220
0
230
1
0
ENDBLK
5
175
100
AcDbEntity
8
0
100
AcDbBlockEnd
0
BLOCK
5
182
100
AcDbEntity
8
0
100
AcDbBlockBegin
2
DimnDraft3D5
70
0
10
0
20
0
30
0
3
DimnDraft3D5
0
MTEXT
5
178
100
AcDbEntity
8
SK2
62
256
6
ByLayer
370
18
48
1
60
0
100
AcDbMText
10
-78.02046
20
-3.594079
30
0
210
0
220
0
230
1
1
\W0.6563;16.0
40
4.5
41
0
44
1.084337
50
90
71
7
72
5
7
iso_b_vert
0
LINE
5
179
100
AcDbEntity
8
SK2
62
256
6
ByLayer
370
13
48
1
60
0
100
AcDbLine
10
-71.14546
20
7.9375
30
0
11
-78.89546
21
7.9375
31
0
39
0
210
0
220
0
230
1
0
LINE
5
17A
100
AcDbEntity
8
SK2
62
256
6
ByLayer
370
13
48
1
60
0
100
AcDbLine
10
-71.14546
20
-7.9375
30
0
11
-78.89546
21
-7.9375
31
0
39
0
210
0
220
0
230
1
0
LINE
5
17B
100
AcDbEntity
8
SK2
62
256
6
ByLayer
370
13
48
1
60
0
100
AcDbLine
10
-76.89546
20
19.1875
30
0
11
-76.89546
21
-19.1875
31
0
39
0
210
0
220
0
230
1
0
LINE
5
17C
100
AcDbEntity
8
SK2
62
256
6
ByLayer
370
13
48
1
60
0
100
AcDbLine
10
-76.89546
20
7.9375
30
0
11
-77.313457
21
11.112498
31
0
39
0
210
0
220
0
230
1
0
LINE
5
17D
100
AcDbEntity
8
SK2
62
256
6
ByLayer
370
13
48
1
60
0
100
AcDbLine
10
-76.89546
20
7.9375
30
0
11
-76.477464
21
11.112502
31
0
39
0
210
0
220
0
230
1
0
LINE
5
17E
100
AcDbEntity
8
SK2
62
256
6
ByLayer
370
13
48
1
60
0
100
AcDbLine
10
-77.313457
20
11.112498
30
0
11
-76.477464
21
11.112502
31
0
39
0
210
0
220
0
230
1
0
LINE
5
17F
100
AcDbEntity
8
SK2
62
256
6
ByLayer
370
13
48
1
60
0
100
AcDbLine
10
-76.89546
20
-7.9375
30
0
11
-76.477464
21
-11.112498
31
0
39
0
210
0
220
0
230
1
0
LINE
5
180
100
AcDbEntity
8
SK2
62
256
6
ByLayer
370
13
48
1
60
0
100
AcDbLine
10
-76.89546
20
-7.9375
30
0
11
-77.313457
21
-11.112502
31
0
39
0
210
0
220
0
230
1
0
LINE
5
181
100
AcDbEntity
8
SK2
62
256
6
ByLayer
370
13
48
1
60
0
100
AcDbLine
10
-76.477464
20
-11.112498
30
0
11
-77.313457
21
-11.112502
31
0
39
0
210
0
220
0
230
1
0
ENDBLK
5
183
100
AcDbEntity
8
0
100
AcDbBlockEnd
0
ENDSEC
0
SECTION
2
ENTITIES
0
ELLIPSE
5
CA
100
AcDbEntity
8
1
62
256
6
ByLayer
370
18
48
1
60
0
100
AcDbEllipse
10
1.530472
20
-0.3766
30
0
11
-0.61876816657987
21
-1.85497269604801
31
0
210
0
220
0
230
1
40
0.304658
41
-0.921774199096702
42
0.649022127698441
0
ELLIPSE
5
CB
100
AcDbEntity
8
1
62
256
6
ByLayer
370
18
48
1
60
0
100
AcDbEllipse
10
14.003575
20
2.203061
30
0
11
2.82842712475267
21
2.82842712473971
31
0
210
0
220
0
230
1
40
0.989133
41
0.7908613851573
42
3.14158710851733
0
ELLIPSE
5
CC
100
AcDbEntity
8
1
62
256
6
ByLayer
370
18
48
1
60
0
100
AcDbEllipse
10
14.003575
20
2.203061
30
0
11
2.82842712475267
21
2.82842712473971
31
0
210
0
220
0
230
1
40
0.989133
41
9.25359672372431E-05
42
0.790861385157301
0
ELLIPSE
5
CD
100
AcDbEntity
8
1
62
256
6
ByLayer
370
18
48
1
60
0
100
AcDbEllipse
10
13.234544
20
2.663894
30
0
11
-0.268700576851501
21
-0.268700576850275
31
0
210
0
220
0
230
1
40
0.989133
41
-2.81373434618797
42
0.0212075429970228
0
ELLIPSE
5
CE
100
AcDbEntity
8
1
62
256
6
ByLayer
370
18
48
1
60
0
100
AcDbEllipse
10
15.001492
20
3.421132
30
0
11
0.300520382004971
21
0.300520382003594
31
0
210
0
220
0
230
1
40
0.989133
41
2.42225340979504
42
-3.14158919864637
0
ELLIPSE
5
CF
100
AcDbEntity
8
1
62
256
6
ByLayer
370
18
48
1
60
0
100
AcDbEllipse
10
12.677391
20
2.082862
30
0
11
0.300520382004971
21
0.300520382003594
31
0
210
0
220
0
230
1
40
0.989133
41
-1.76653679499137
42
0.0212075429970004
0
ELLIPSE
5
D0
100
AcDbEntity
8
1
62
256
6
ByLayer
370
18
48
1
60
0
100
AcDbEllipse
10
13.592139
20
3.384102
30
0
11
0.300520382004971
21
0.300520382003594
31
0
210
0
220
0
230
1
40
0.989133
41
-2.813734346188
42
-1.0259900081996
0
ELLIPSE
5
D1
100
AcDbEntity
8
1
62
256
6
ByLayer
370
18
48
1
60
0
100
AcDbEllipse
10
14.253083
20
1.953553
30
0
11
-1.62634559673277
21
-1.62634559672535
31
0
210
0
220
0
230
1
40
0.989133
41
0
42
6.28318530717959
0
ELLIPSE
5
D2
100
AcDbEntity
8
1
62
256
6
ByLayer
370
18
48
1
60
0
100
AcDbEllipse
10
13.971165
20
0.875866
30
0
11
-0.268700576851501
21
-0.268700576850275
31
0
210
0
220
0
230
1
40
0.989133
41
0.318294813050705
42
2.11560264539021
0
ELLIPSE
5
D3
100
AcDbEntity
8
1
62
256
6
ByLayer
370
18
48
1
60
0
100
AcDbEllipse
10
14.086744
20
2.119892
30
0
11
0.813172798366393
21
0.813172798362666
31
0
210
0
220
0
230
1
40
0.989133
41
0.790861625576225
42
0.871688112982223
0
ELLIPSE
5
D4
100
AcDbEntity
8
1
62
256
6
ByLayer
370
18
48
1
60
0
100
AcDbEllipse
10
14.086744
20
2.119892
30
0
11
0.813172798366393
21
0.813172798362666
31
0
210
0
220
0
230
1
40
0.989133
41
1.45435576396992
42
2.11742837457521
0
ELLIPSE
5
D5
100
AcDbEntity
8
1
62
256
6
ByLayer
370
18
48
1
60
0
100
AcDbEllipse
10
14.086744
20
2.119892
30
0
11
0.813172798366393
21
0.813172798362666
31
0
210
0
220
0
230
1
40
0.989133
41
2.63657603519378
42
-0.0349562380655777
0
ELLIPSE
5
D6
100
AcDbEntity
8
1
62
256
6
ByLayer
370
18
48
1
60
0
100
AcDbEllipse
10
14.086744
20
2.119892
30
0
11
0.813172798366393
21
0.813172798362666
31
0
210
0
220
0
230
1
40
0.989133
41
0.118491029831417
42
0.790860751325609
0
ELLIPSE
5
D7
100
AcDbEntity
8
1
62
256
6
ByLayer
370
18
48
1
60
0
100
AcDbEllipse
10
14.176771
20
2.029865
30
0
11
-2.82842712475264
21
-2.82842712473974
31
0
210
0
220
0
230
1
40
0.989133
41
0
42
6.28318530717959
0
ELLIPSE
5
D8
100
AcDbEntity
8
1
62
256
6
ByLayer
370
18
48
1
60
0
100
AcDbEllipse
10
15.220862
20
2.653576
30
0
11
-0.268700576851501
21
-0.268700576850275
31
0
210
0
220
0
230
1
40
0.989133
41
1.37505585859845
42
2.82331226018582
0
ELLIPSE
5
D9
100
AcDbEntity
8
1
62
256
6
ByLayer
370
18
48
1
60
0
100
AcDbEllipse
10
13.171996
20
0.818652
30
0
11
0.300520382004971
21
0.300520382003594
31
0
210
0
220
0
230
1
40
0.989133
41
3.51676185407042E-06
42
1.06840509419359
0
ELLIPSE
5
DA
100
AcDbEntity
8
1
62
256
6
ByLayer
370
18
48
1
60
0
100
AcDbEllipse
10
14.202323
20
3.363917
30
0
11
-0.268700576851501
21
-0.268700576850275
31
0
210
0
220
0
230
1
40
0.989133
41
2.42225340979504
42
2.82335423483988
0
ELLIPSE
5
DB
100
AcDbEntity
8
1
62
256
6
ByLayer
370
18
48
1
60
0
100
AcDbEllipse
10
14.034763
20
2.171873
30
0
11
0.813172798366393
21
0.813172798362666
31
0
210
0
220
0
230
1
40
0.989133
41
-3.10929842613465
42
-0.0826684831739142
0
ELLIPSE
5
DC
100
AcDbEntity
8
1
62
256
6
ByLayer
370
18
48
1
60
0
100
AcDbEllipse
10
15.271622
20
1.243212
30
0
11
-0.268700576851501
21
-0.268700576850275
31
0
210
0
220
0
230
1
40
0.989133
41
0.327858307401839
42
-3.12038511059275
0
ELLIPSE
5
DD
100
AcDbEntity
8
1
62
256
6
ByLayer
370
18
48
1
60
0
100
AcDbEllipse
10
14.747688
20
0.689343
30
0
11
0.300520382004971
21
0.300520382003594
31
0
210
0
220
0
230
1
40
0.989133
41
0.327858307401824
42
2.11560264539018
0
ELLIPSE
5
DE
100
AcDbEntity
8
1
62
256
6
ByLayer
370
18
48
1
60
0
100
AcDbEllipse
10
14.137504
20
0.709528
30
0
11
-0.268700576851501
21
-0.268700576850275
31
0
210
0
220
0
230
1
40
0.989133
41
-0.719339243794725
42
2.11560264539019
0
ELLIPSE
5
DF
100
AcDbEntity
8
1
62
256
6
ByLayer
370
18
48
1
60
0
100
AcDbEllipse
10
13.118965
20
1.419869
30
0
11
-0.268700576851501
21
-0.268700576850275
31
0
210
0
220
0
230
1
40
0.989133
41
-1.76653679499132
42
1.06840509419361
0
ELLIPSE
5
E0
100
AcDbEntity
8
1
62
256
6
ByLayer
370
18
48
1
60
0
100
AcDbEllipse
10
15.828775
20
1.824244
30
0
11
0.300520382004971
21
0.300520382003594
31
0
210
0
220
0
230
1
40
0.989133
41
1.37505585859841
42
-3.12038511059283
0
ELLIPSE
5
E1
100
AcDbEntity
8
1
62
256
6
ByLayer
370
18
48
1
60
0
100
AcDbEllipse
10
14.914027
20
0.523004
30
0
11
0.300520382004971
21
0.300520382003594
31
0
210
0
220
0
230
1
40
0.989133
41
0.327858307401831
42
2.1156026453902
0
ELLIPSE
5
E2
100
AcDbEntity
8
1
62
256
6
ByLayer
370
18
48
1
60
0
100
AcDbEllipse
10
15.167831
20
3.254793
30
0
11
0.300520382004971
21
0.300520382003594
31
0
210
0
220
0
230
1
40
0.989133
41
2.42225340979502
42
-2.07318755939619
0
ELLIPSE
5
E3
100
AcDbEntity
8
1
62
256
6
ByLayer
370
18
48
1
60
0
100
AcDbEllipse
10
12.952626
20
1.586207
30
0
11
-0.268700576851501
21
-0.268700576850275
31
0
210
0
220
0
230
1
40
0.989133
41
0.318251980072635
42
1.06840509419357
0
ELLIPSE
5
E4
100
AcDbEntity
8
1
62
256
6
ByLayer
370
18
48
1
60
0
100
AcDbEllipse
10
15.387201
20
2.487237
30
0
11
-0.268700576851501
21
-0.268700576850275
31
0
210
0
220
0
230
1
40
0.989133
41
1.37505585859845
42
-2.07318755939617
0
ELLIPSE
5
E5
100
AcDbEntity
8
1
62
256
6
ByLayer
370
18
48
1
60
0
100
AcDbEllipse
10
15.105283
20
1.40955
30
0
11
-0.268700576851501
21
-0.268700576850275
31
0
210
0
220
0
230
1
40
0.989133
41
0.32785830740179
42
3.11070847430897
0
ELLIPSE
5
E6
100
AcDbEntity
8
1
62
256
6
ByLayer
370
18
48
1
60
0
100
AcDbEllipse
10
13.338335
20
0.652313
30
0
11
0.300520382004971
21
0.300520382003594
31
0
210
0
220
0
230
1
40
0.989133
41
-0.719339243794766
42
1.06840509419362
0
ELLIPSE
5
E7
100
AcDbEntity
8
1
62
256
6
ByLayer
370
18
48
1
60
0
100
AcDbEllipse
10
14.368662
20
3.197579
30
0
11
-0.268700576851501
21
-0.268700576850275
31
0
210
0
220
0
230
1
40
0.989133
41
2.42225340979503
42
-1.02599000819959
0
ELLIPSE
5
E8
100
AcDbEntity
8
1
62
256
6
ByLayer
370
18
48
1
60
0
100
AcDbEllipse
10
15.662436
20
1.990583
30
0
11
0.300520382004971
21
0.300520382003594
31
0
210
0
220
0
230
1
40
0.989133
41
1.3750558585984
42
3.14157045834446
0
ELLIPSE
5
E9
100
AcDbEntity
8
1
62
256
6
ByLayer
370
18
48
1
60
0
100
AcDbEllipse
10
12.859466
20
3.005005
30
0
11
-1.80419656347537
21
-1.8721310745628
31
0
210
0
220
0
230
1
40
0.986455
41
-1.5214284923881
42
-1.31064727455769
0
ELLIPSE
5
EA
100
AcDbEntity
8
1
62
256
6
ByLayer
370
18
48
1
60
0
100
AcDbEllipse
10
13.530506
20
7.520062
30
0
11
-1.23592287958979
21
4.14806483912707
31
0
210
0
220
0
230
1
40
0.51148
41
-0.571189237013451
42
-0.211573503653701
0
ELLIPSE
5
EB
100
AcDbEntity
8
1
62
256
6
ByLayer
370
18
48
1
60
0
100
AcDbEllipse
10
10.008561
20
1.916382
30
0
11
4.49946397613839
21
-3.16304029810448
31
0
210
0
220
0
230
1
40
0.02553
41
-2.41393807250876
42
-1.97217033322269
0
ELLIPSE
5
EC
100
AcDbEntity
8
1
62
256
6
ByLayer
370
18
48
1
60
0
100
AcDbEllipse
10
11.541054
20
9.094106
30
0
11
1.84475298056335
21
0.772584261231507
31
0
210
0
220
0
230
1
40
0.769512
41
0.624391847984244
42
2.03706734224384
0
ELLIPSE
5
ED
100
AcDbEntity
8
1
62
256
6
ByLayer
370
18
48
1
60
0
100
AcDbEllipse
10
8.701256
20
0.650393
30
0
11
-4.14474739175938
21
0.189995050052791
31
0
210
0
220
0
230
1
40
0.485394
41
0.295792313737671
42
0.655408047097764
0
ELLIPSE
5
EE
100
AcDbEntity
8
1
62
256
6
ByLayer
370
18
48
1
60
0
100
AcDbEllipse
10
11.160861
20
9.538786
30
0
11
-2.64176164548596
21
-1.42549993630038
31
0
210
0
220
0
230
1
40
0.99535
41
-2.15737239865583
42
-1.1056833355916
0
ELLIPSE
5
EF
100
AcDbEntity
8
1
62
256
6
ByLayer
370
18
48
1
60
0
100
AcDbEllipse
10
25.767013
20
-5.94796
30
0
11
-1.96901555077209
21
-1.0572185342024
31
0
210
0
220
0
230
1
40
0.792316
41
1.12445504087199
42
1.97966637434985
0
ELLIPSE
5
F0
100
AcDbEntity
8
1
62
256
6
ByLayer
370
18
48
1
60
0
100
AcDbEllipse
10
8.746265
20
0.120749
30
0
11
-4.61457390460992
21
2.99901100176183
31
0
210
0
220
0
230
1
40
0.211917
41
-0.615012580849788
42
-0.562020279598629
0
ELLIPSE
5
F1
100
AcDbEntity
8
1
62
256
6
ByLayer
370
18
48
1
60
0
100
AcDbEllipse
10
6.105451
20
0.887844
30
0
11
2.0817652655485
21
2.16015123988015
31
0
210
0
220
0
230
1
40
0.986455
41
0.0607188507314635
42
0.15628028298103
0
ELLIPSE
5
F2
100
AcDbEntity
8
1
62
256
6
ByLayer
370
18
48
1
60
0
100
AcDbEllipse
10
7.744056
20
-1.482862
30
0
11
-2.98777498566019
21
1.83435464436111
31
0
210
0
220
0
230
1
40
0.346844
41
-0.628857654661502
42
0.0943604517375875
0
ELLIPSE
5
F3
100
AcDbEntity
8
1
62
256
6
ByLayer
370
18
48
1
60
0
100
AcDbEllipse
10
14.584014
20
1.803455
30
0
11
-2.87977528400877
21
-2.98820921516754
31
0
210
0
220
0
230
1
40
0.986455
41
0.156280282981026
42
3.08915345241595
0
ELLIPSE
5
F4
100
AcDbEntity
8
1
62
256
6
ByLayer
370
18
48
1
60
0
100
AcDbEllipse
10
9.224794
20
14.359726
30
0
11
5.72659051508523
21
-4.02568765213298
31
0
210
0
220
0
230
1
40
0.02553
41
0.808573903783178
42
0.823354940523165
0
ELLIPSE
5
F5
100
AcDbEntity
8
1
62
256
6
ByLayer
370
18
48
1
60
0
100
AcDbEllipse
10
6.704298
20
2.213762
30
0
11
0.210927185793126
21
1.98884632948184
31
0
210
0
220
0
230
1
40
0.785865
41
1.17445271745099
42
2.58712821171059
0
ELLIPSE
5
F6
100
AcDbEntity
8
1
62
256
6
ByLayer
370
18
48
1
60
0
100
AcDbEllipse
10
15.409522
20
9.421359
30
0
11
-2.73155517438181
21
2.19821380475649
31
0
210
0
220
0
230
1
40
0.397671
41
-0.0900851663823834
42
0.633132940012436
0
ELLIPSE
5
F7
100
AcDbEntity
8
1
62
256
6
ByLayer
370
18
48
1
60
0
100
AcDbEllipse
10
14.260394
20
7.964667
30
0
11
-4.38100391273356
21
3.33108974338063
31
0
210
0
220
0
230
1
40
0.262905
41
0.564127385141034
42
0.61711968850415
0
ELLIPSE
5
F8
100
AcDbEntity
8
1
62
256
6
ByLayer
370
18
48
1
60
0
100
AcDbEllipse
10
25.767013
20
-5.94796
30
0
11
-0.701994003626763
21
-2.17713231393907
31
0
210
0
220
0
230
1
40
0.799417
41
1.3565863073138
42
2.21179764079019
0
ELLIPSE
5
F9
100
AcDbEntity
8
1
62
256
6
ByLayer
370
18
48
1
60
0
100
AcDbEllipse
10
6.331611
20
2.669117
30
0
11
-2.64176164549345
21
-1.42549993628666
31
0
210
0
220
0
230
1
40
0.99535
41
-1.10568333558633
42
-0.0539942725220981
0
ELLIPSE
5
FA
100
AcDbEntity
8
1
62
256
6
ByLayer
370
18
48
1
60
0
100
AcDbEllipse
10
12.998097
20
6.169034
30
0
11
4.49946397613839
21
-3.16304029810448
31
0
210
0
220
0
230
1
40
0.02553
41
-2.41393807250874
42
-1.97217033322268
0
ELLIPSE
5
FB
100
AcDbEntity
8
1
62
256
6
ByLayer
370
18
48
1
60
0
100
AcDbEllipse
10
30.497823
20
-0.448714
30
0
11
-0.5614427842634
21
-0.561442784260838
31
0
210
0
220
0
230
1
40
0.989133
41
2.44346095279206
42
-2.44346095279205
0
ELLIPSE
5
FC
100
AcDbEntity
8
1
62
256
6
ByLayer
370
18
48
1
60
0
100
AcDbEllipse
10
20.240754
20
-10.705783
30
0
11
-0.5614427842634
21
-0.561442784260838
31
0
210
0
220
0
230
1
40
0.989133
41
-0.698131700797738
42
0.698131700797732
0
ELLIPSE
5
FD
100
AcDbEntity
8
1
62
256
6
ByLayer
370
18
48
1
60
0
100
AcDbEllipse
10
31.414819
20
-11.622779
30
0
11
-0.5614427842634
21
-0.561442784260838
31
0
210
0
220
0
230
1
40
0.989133
41
0.698131700797735
42
2.44346095279204
0
ELLIPSE
5
FE
100
AcDbEntity
8
1
62
256
6
ByLayer
370
18
48
1
60
0
100
AcDbEllipse
10
25.369289
20
-5.577249
30
0
11
1.82433549546547
21
1.82433549545711
31
0
210
0
220
0
230
1
40
0.989133
41
-2.72622083734395
42
-0.0600886318006886
0
ELLIPSE
5
FF
100
AcDbEntity
8
1
62
256
6
ByLayer
370
18
48
1
60
0
100
AcDbEllipse
10
30.002966
20
0.046143
30
0
11
0.561442784263405
21
0.561442784260832
31
0
210
0
220
0
230
1
40
0.989133
41
0
42
0.169994478825601
0
ELLIPSE
5
100
100
AcDbEntity
8
1
62
256
6
ByLayer
370
18
48
1
60
0
100
AcDbEllipse
10
19.745897
20
-10.210926
30
0
11
0.561442784263405
21
0.561442784260832
31
0
210
0
220
0
230
1
40
0.989133
41
2.97159804835052
42
3.14159259036298
0
POINT
5
6C
100
AcDbEntity
8
2
62
256
6
ByLayer
370
18
48
1
60
0
100
AcDbPoint
10
32.20454
20
28.2875
30
0
39
0
210
0
220
0
230
1
50
360
0
POINT
5
6E
100
AcDbEntity
8
80
62
256
6
ByLayer
370
18
48
1
60
0
100
AcDbPoint
10
0
20
0
30
0
39
0
210
0
220
0
230
1
50
360
0
POINT
5
70
100
AcDbEntity
8
81
62
256
6
ByLayer
370
18
48
1
60
0
100
AcDbPoint
10
32.20454
20
-12.4125
30
0
39
0
210
0
220
0
230
1
50
360
0
SPLINE
5
101
100
AcDbEntity
8
1
62
256
6
ByLayer
370
18
48
1
60
0
100
AcDbSpline
70
4
71
2
72
6
73
3
40
0
40
0
40
0
40
1
40
1
40
1
41
1
10
11.1230826738787
20
4.96271267817298
30
0
41
1
10
11.2890294365452
20
5.11222841354851
30
0
41
1
10
11.4680871349047
20
5.2328767810244
30
0
0
SPLINE
5
102
100
AcDbEntity
8
1
62
256
6
ByLayer
370
18
48
1
60
0
100
AcDbSpline
70
4
71
3
72
15
73
11
40
0
40
0
40
0
40
0
40
0.227604479949748
40
0.227604479949748
40
0.479423709218442
40
0.479423709218442
40
0.785574270382838
40
0.785574270382838
40
0.785574270382838
40
1
40
1
40
1
40
1
41
1
10
18.9955614696442
20
0.121573169751514
30
0
41
1
10
19.1059275018841
20
0.444655648696539
30
0
41
1
10
19.1692837308778
20
0.789906609244952
30
0
41
1
10
19.2045009154067
20
1.5122685669549
30
0
41
1
10
19.1672539359936
20
1.89727893028945
30
0
41
1
10
18.9793782231058
20
2.71551184509715
30
0
41
1
10
18.803809303093
20
3.1531839873179
30
0
41
1
10
18.5689836318074
20
3.5493501609873
30
0
41
1
10
18.4035003048585
20
3.82853129175763
30
0
41
1
10
18.206271678571
20
4.09106059664944
30
0
41
1
10
17.9832662064717
20
4.32655642302305
30
0
0
SPLINE
5
103
100
AcDbEntity
8
1
62
256
6
ByLayer
370
18
48
1
60
0
100
AcDbSpline
70
4
71
3
72
8
73
4
40
0
40
0
40
0
40
0
40
1
40
1
40
1
40
1
41
1
10
9.41024555952944
20
1.3791802769403
30
0
41
1
10
9.62203825443001
20
0.537950104208107
30
0
41
1
10
10.1384800222081
20
-0.210404158790368
30
0
41
1
10
10.8957585152029
20
-0.738539411548004
30
0
0
SPLINE
5
104
100
AcDbEntity
8
1
62
256
6
ByLayer
370
18
48
1
60
0
100
AcDbSpline
70
4
71
3
72
10
73
6
40
0
40
0
40
0
40
0
40
0.5
40
0.5
40
1
40
1
40
1
40
1
41
1
10
12.7676864143824
20
11.7083826908803
30
0
41
1
10
12.3340147407796
20
11.7554002810693
30
0
41
1
10
11.9786946659218
20
11.6469806290615
30
0
41
1
10
11.0848382152088
20
11.1729067207501
30
0
41
1
10
10.5307819093226
20
10.7362227011288
30
0
41
1
10
10.0899531180176
20
10.1637867833552
30
0
0
SPLINE
5
105
100
AcDbEntity
8
1
62
256
6
ByLayer
370
18
48
1
60
0
100
AcDbSpline
70
4
71
3
72
11
73
7
40
0
40
0
40
0
40
0
40
0.564783939443773
40
0.564783939443773
40
0.564783939443773
40
1
40
1
40
1
40
1
41
1
10
20.3747073208206
20
-7.95431089983325
30
0
41
1
10
20.0483766166065
20
-7.79808248276095
30
0
41
1
10
19.6666248796999
20
-7.63792831321655
30
0
41
1
10
19.2535047780126
20
-7.51480893836623
30
0
41
1
10
18.9325328972813
20
-7.41915187123544
30
0
41
1
10
18.5909326374488
20
-7.33687399532849
30
0
41
1
10
18.2455672554884
20
-7.26375394196603
30
0
0
SPLINE
5
106
100
AcDbEntity
8
1
62
256
6
ByLayer
370
18
48
1
60
0
100
AcDbSpline
70
4
71
3
72
8
73
4
40
0
40
0
40
0
40
0
40
1
40
1
40
1
40
1
41
1
10
10.0484840148645
20
10.1074426415104
30
0
41
1
10
10.0620064124544
20
10.1266784194622
30
0
41
1
10
10.0758340527189
20
10.1454525450709
30
0
41
1
10
10.0899531180176
20
10.1637867833552
30
0
0
SPLINE
5
107
100
AcDbEntity
8
1
62
256
6
ByLayer
370
18
48
1
60
0
100
AcDbSpline
70
4
71
3
72
8
73
4
40
0
40
0
40
0
40
0
40
1
40
1
40
1
40
1
41
1
10
12.9303857231079
20
6.68057890419274
30
0
41
1
10
12.939747662068
20
8.24999414092608
30
0
41
1
10
12.8770865140387
20
9.70953384222253
30
0
41
1
10
12.6901822796719
20
10.5507982657722
30
0
0
SPLINE
5
108
100
AcDbEntity
8
1
62
256
6
ByLayer
370
18
48
1
60
0
100
AcDbSpline
70
4
71
3
72
8
73
4
40
0
40
0
40
0
40
0
40
1
40
1
40
1
40
1
41
1
10
12.9303857231079
20
6.68057890419274
30
0
41
1
10
13.0033202004786
20
6.68240960884438
30
0
41
1
10
13.0758838310243
20
6.68742262058302
30
0
41
1
10
13.1475676646375
20
6.69556723199651
30
0
0
SPLINE
5
109
100
AcDbEntity
8
1
62
256
6
ByLayer
370
18
48
1
60
0
100
AcDbSpline
70
4
71
3
72
8
73
4
40
0
40
0
40
0
40
0
40
1
40
1
40
1
40
1
41
1
10
11.8970441499656
20
-3.71028690659466
30
0
41
1
10
12.2214592179759
20
-3.50326565843105
30
0
41
1
10
12.7261795547859
20
-3.00684299047796
30
0
41
1
10
13.3115089659131
20
-2.31907607864116
30
0
0
SPLINE
5
10A
100
AcDbEntity
8
1
62
256
6
ByLayer
370
18
48
1
60
0
100
AcDbSpline
70
4
71
3
72
8
73
4
40
0
40
0
40
0
40
0
40
1
40
1
40
1
40
1
41
1
10
5.21923346338443
20
3.23777395560947
30
0
41
1
10
5.20571106579447
20
3.21853817765765
30
0
41
1
10
5.19270191325532
20
3.19913663331769
30
0
41
1
10
5.18018206305808
20
3.17957668457274
30
0
0
SPLINE
5
10B
100
AcDbEntity
8
1
62
256
6
ByLayer
370
18
48
1
60
0
100
AcDbSpline
70
4
71
3
72
12
73
8
40
0
40
0
40
0
40
0
40
0.108853988607133
40
0.502629237162306
40
0.699516861439892
40
0.896404485717478
40
1
40
1
40
1
40
1
41
1.02441262532206
10
18.9955614696442
20
0.121573169751483
30
0
41
1.02394775682001
10
19.25742289553
20
-0.0932348729849107
30
0
41
1.02173322384668
10
20.4931835400794
20
-1.1139023101832
30
0
41
1.01876555595691
10
22.2082359657596
20
-2.57114695270428
30
0
41
1.01610930227499
10
23.342434180517
20
-3.56195364598506
30
0
41
1.01814069306376
10
23.9205125389206
20
-3.94364080636031
30
0
41
1.02005196006971
10
24.4240936845319
20
-4.29804520324119
30
0
41
1.02076673234773
10
24.6068489090299
20
-4.4293252596138
30
0
0
SPLINE
5
10C
100
AcDbEntity
8
1
62
256
6
ByLayer
370
18
48
1
60
0
100
AcDbSpline
70
4
71
3
72
8
73
4
40
0
40
0
40
0
40
0
40
1
40
1
40
1
40
1
41
1
10
26.1207404927951
20
-0.318263403924959
30
0
41
1
10
26.0469941407164
20
-0.244385852270767
30
0
41
1
10
25.9716739953452
20
-0.172229992160481
30
0
41
1
10
25.8947126853017
20
-0.102034942281449
30
0
0
SPLINE
5
10D
100
AcDbEntity
8
1
62
256
6
ByLayer
370
18
48
1
60
0
100
AcDbSpline
70
4
71
3
72
8
73
4
40
0
40
0
40
0
40
0
40
1
40
1
40
1
40
1
41
1
10
27.4499189958999
20
-4.64296854122804
30
0
41
1
10
27.4798362130887
20
-4.71632150465706
30
0
41
1
10
27.5070794738931
20
-4.79410829803308
30
0
41
1
10
27.5310208006087
20
-4.87504084677408
30
0
0
SPLINE
5
10E
100
AcDbEntity
8
1
62
256
6
ByLayer
370
18
48
1
60
0
100
AcDbSpline
70
4
71
3
72
8
73
4
40
0
40
0
40
0
40
0
40
1
40
1
40
1
40
1
41
1
10
17.9832662006284
20
4.32655642918832
30
0
41
1
10
17.7879141982786
20
4.53267457328548
30
0
41
1
10
17.5693489098013
20
4.7229874352787
30
0
41
1
10
17.3345782569207
20
4.88671935061259
30
0
0
SPLINE
5
10F
100
AcDbEntity
8
1
62
256
6
ByLayer
370
18
48
1
60
0
100
AcDbSpline
70
4
71
3
72
10
73
6
40
0
40
0
40
0
40
0
40
0.5
40
0.5
40
1
40
1
40
1
40
1
41
1
10
23.8952392891595
20
-8.04455282568532
30
0
41
1
10
23.1625927166747
20
-7.95431015104762
30
0
41
1
10
22.6984813214393
20
-7.6333129039177
30
0
41
1
10
22.2238695404026
20
-6.87222365192809
30
0
41
1
10
22.1715433828555
20
-6.4269799975641
30
0
41
1
10
22.1851820546297
20
-5.97248440252787
30
0
0
SPLINE
5
110
100
AcDbEntity
8
1
62
256
6
ByLayer
370
18
48
1
60
0
100
AcDbSpline
70
4
71
3
72
11
73
7
40
0
40
0
40
0
40
0
40
0.56130293680573
40
0.56130293680573
40
0.56130293680573
40
1
40
1
40
1
40
1
41
1
10
4.61459133985608
20
0.190842568355464
30
0
41
1
10
4.41157894397469
20
0.363117765416519
30
0
41
1
10
4.20883303257537
20
0.561469383486951
30
0
41
1
10
4.02186687008924
20
0.789684570536991
30
0
41
1
10
3.87455069887343
20
0.969502068647159
30
0
41
1
10
3.73578134114692
20
1.16983749802424
30
0
41
1
10
3.61712532582484
20
1.38760265947471
30
0
0
SPLINE
5
111
100
AcDbEntity
8
1
62
256
6
ByLayer
370
18
48
1
60
0
100
AcDbSpline
70
4
71
3
72
8
73
4
40
0
40
0
40
0
40
0
40
1
40
1
40
1
40
1
41
1
10
8.73620869007269
20
2.55806642673332
30
0
41
1
10
8.56091243807978
20
2.74439301401517
30
0
41
1
10
8.37260760565167
20
2.90522526125494
30
0
41
1
10
8.17635896110707
20
3.04638613196286
30
0
0
SPLINE
5
112
100
AcDbEntity
8
1
62
256
6
ByLayer
370
18
48
1
60
0
100
AcDbSpline
70
4
71
3
72
12
73
8
40
0
40
0
40
0
40
0
40
0.471343086678517
40
0.471343086678517
40
0.892619726108223
40
0.892619726108223
40
1
40
1
40
1
40
1
41
1
10
11.8074669274922
20
6.92696928546982
30
0
41
1
10
11.9694927852384
20
6.8541105889654
30
0
41
1
10
12.1441796992999
20
6.79188069160139
30
0
41
1
10
12.482214367162
20
6.71016859743574
30
0
41
1
10
12.64841190741
20
6.68633978372208
30
0
41
1
10
12.8490824016675
20
6.67973320246014
30
0
41
1
10
12.890007257554
20
6.67956537743046
30
0
41
1
10
12.9303857231079
20
6.68057890419274
30
0
0
SPLINE
5
113
100
AcDbEntity
8
1
62
256
6
ByLayer
370
18
48
1
60
0
100
AcDbSpline
70
4
71
3
72
8
73
4
40
0
40
0
40
0
40
0
40
1
40
1
40
1
40
1
41
1
10
10.1806806522152
20
10.0148067836693
30
0
41
1
10
10.6318931014079
20
9.30441806057306
30
0
41
1
10
11.2149488753281
20
8.16274383655676
30
0
41
1
10
11.8074669274922
20
6.92696928546982
30
0
0
SPLINE
5
114
100
AcDbEntity
8
1
62
256
6
ByLayer
370
18
48
1
60
0
100
AcDbSpline
70
4
71
3
72
8
73
4
40
0
40
0
40
0
40
0
40
1
40
1
40
1
40
1
41
1
10
8.73620869007269
20
2.55806642673335
30
0
41
1
10
7.38089112648797
20
2.71064386447568
30
0
41
1
10
6.13964914512448
20
2.90146015659738
30
0
41
1
10
5.343924967173
20
3.13446195237771
30
0
0
SPLINE
5
115
100
AcDbEntity
8
1
62
256
6
ByLayer
370
18
48
1
60
0
100
AcDbSpline
70
4
71
3
72
12
73
8
40
0
40
0
40
0
40
0
40
0.286978363858296
40
0.286978363858296
40
0.569998995185618
40
0.569998995185618
40
1
40
1
40
1
40
1
41
1
10
17.6084128842529
20
-1.85166286307887
30
0
41
1
10
17.7908512873073
20
-1.7054235542677
30
0
41
1
10
17.9621351323066
20
-1.5435045577218
30
0
41
1
10
18.2731668018581
20
-1.19769862900432
30
0
41
1
10
18.4143854583669
20
-1.01295875087905
30
0
41
1
10
18.7287129617485
20
-0.525650483467928
30
0
41
1
10
18.8832271288117
20
-0.207217822339629
30
0
41
1
10
18.9955614696442
20
0.121573169751514
30
0
0
SPLINE
5
116
100
AcDbEntity
8
1
62
256
6
ByLayer
370
18
48
1
60
0
100
AcDbSpline
70
4
71
3
72
10
73
6
40
0
40
0
40
0
40
0
40
0.5
40
0.5
40
1
40
1
40
1
40
1
41
1
10
10.9445518628286
20
-4.31810744760313
30
0
41
1
10
12.0441040601739
20
-5.06955618727059
30
0
41
1
10
13.2321049923444
20
-5.62852799633075
30
0
41
1
10
15.6710132502948
20
-6.60957842336737
30
0
41
1
10
16.949062567891
20
-6.98926061723355
30
0
41
1
10
18.2455672554881
20
-7.263753941966
30
0
0
SPLINE
5
117
100
AcDbEntity
8
1
62
256
6
ByLayer
370
18
48
1
60
0
100
AcDbSpline
70
4
71
3
72
8
73
4
40
0
40
0
40
0
40
0
40
1
40
1
40
1
40
1
41
1
10
9.41024555952947
20
1.37918027694022
30
0
41
1
10
9.39293007108625
20
1.44795654583305
30
0
41
1
10
9.37240645353765
20
1.51672799556252
30
0
41
1
10
9.3485690265309
20
1.58540031756797
30
0
0
SPLINE
5
118
100
AcDbEntity
8
1
62
256
6
ByLayer
370
18
48
1
60
0
100
AcDbSpline
70
4
71
3
72
8
73
4
40
0
40
0
40
0
40
0
40
1
40
1
40
1
40
1
41
1
10
22.6690216009344
20
-8.15808056490923
30
0
41
1
10
23.0765471566741
20
-8.12232354319107
30
0
41
1
10
23.4859979817234
20
-8.08442401996456
30
0
41
1
10
23.8952392891831
20
-8.04455282568824
30
0
0
SPLINE
5
119
100
AcDbEntity
8
1
62
256
6
ByLayer
370
18
48
1
60
0
100
AcDbSpline
70
4
71
2
72
6
73
3
40
0
40
0
40
0
40
1
40
1
40
1
41
1
10
26.12059689409
20
-0.318389844532646
30
0
41
1
10
26.5481931092473
20
-1.23363642759489
30
0
41
1
10
26.8775362146111
20
-2.17127159720647
30
0
0
SPLINE
5
11A
100
AcDbEntity
8
1
62
256
6
ByLayer
370
18
48
1
60
0
100
AcDbSpline
70
4
71
3
72
15
73
11
40
0
40
0
40
0
40
0
40
0.322163720426458
40
0.322163720426458
40
0.644833452600231
40
0.644833452600231
40
0.912233455904557
40
0.912233455904557
40
0.912233455904557
40
1
40
1
40
1
40
1
41
1
10
13.3115089659131
20
-2.31907607864116
30
0
41
1
10
13.7554471322678
20
-2.5126749236039
30
0
41
1
10
14.2391683563449
20
-2.63180256091039
30
0
41
1
10
15.2047287020161
20
-2.71253286782155
30
0
41
1
10
15.7001651189296
20
-2.67538078628323
30
0
41
1
10
16.5587161162885
20
-2.45791699112471
30
0
41
1
10
16.9400470715725
20
-2.29947348633468
30
0
41
1
10
17.2811186910957
20
-2.08461292814963
30
0
41
1
10
17.3944649165842
20
-2.01320964542953
30
0
41
1
10
17.5040373268052
20
-1.93531944394329
30
0
41
1
10
17.6084128842538
20
-1.85166286307907
30
0
0
SPLINE
5
11B
100
AcDbEntity
8
1
62
256
6
ByLayer
370
18
48
1
60
0
100
AcDbSpline
70
4
71
3
72
11
73
7
40
0
40
0
40
0
40
0
40
0.423407924939446
40
0.74096386864403
40
0.899741840496322
40
1
40
1
40
1
40
1
41
1.02805999725224
10
18.8851368358181
20
6.23036143757991
30
0
41
1.02767136955277
10
19.5241011932345
20
5.65020716737235
30
0
41
1.02349884684923
10
21.2857110639854
20
2.89198567991317
30
0
41
1.01876555595691
10
23.2457443888631
20
-0.824124196360355
30
0
41
1.01635405201137
10
23.9906284974637
20
-2.21298236161337
30
0
41
1.01722454828226
10
24.364297063172
20
-2.52331816136986
30
0
41
1.01774327987904
10
24.5246005754089
20
-2.6446325994338
30
0
0
SPLINE
5
11C
100
AcDbEntity
8
1
62
256
6
ByLayer
370
18
48
1
60
0
100
AcDbSpline
70
4
71
3
72
10
73
6
40
0
40
0
40
0
40
0
40
0.264715639145586
40
0.264715639145586
40
1
40
1
40
1
40
1
41
1
10
25.1364891919713
20
-5.5370082142706
30
0
41
1
10
25.0876524696863
20
-5.44322776917056
30
0
41
1
10
25.0394435628115
20
-5.34817749065058
30
0
41
1
10
24.8594815988414
20
-4.98515003716028
30
0
41
1
10
24.7313822583467
20
-4.71007767467648
30
0
41
1
10
24.6068489090384
20
-4.4293252596199
30
0
0
SPLINE
5
11D
100
AcDbEntity
8
1
62
256
6
ByLayer
370
18
48
1
60
0
100
AcDbSpline
70
4
71
3
72
11
73
7
40
0
40
0
40
0
40
0
40
0.423407924946021
40
0.740963868655536
40
0.899741840510294
40
1
40
1
40
1
40
1
41
1.02805999725224
10
11.8970441499656
20
-3.71028690659466
30
0
41
1.02767136955277
10
12.660234365363
20
-4.11372835610547
30
0
41
1.02349884684923
10
15.8436910522358
20
-4.84935514795415
30
0
41
1.01876555595691
10
20.0160784593772
20
-5.41836395779416
30
0
41
1.01635405201144
10
21.5867907283406
20
-5.63247134280726
30
0
41
1.01722454828215
10
22.0131649097463
20
-5.8678327518137
30
0
41
1.0177432798788
10
22.1851820545595
20
-5.97248440248519
30
0
0
SPLINE
5
11E
100
AcDbEntity
8
1
62
256
6
ByLayer
370
18
48
1
60
0
100
AcDbSpline
70
4
71
3
72
8
73
4
40
0
40
0
40
0
40
0
40
1
40
1
40
1
40
1
41
1
10
15.6675179886892
20
6.04934750428268
30
0
41
1
10
14.9125507369543
20
6.57587086921009
30
0
41
1
10
14.0171984430007
20
6.79437339798918
30
0
41
1
10
13.1475676646375
20
6.69556723199651
30
0
0
SPLINE
5
11F
100
AcDbEntity
8
1
62
256
6
ByLayer
370
18
48
1
60
0
100
AcDbSpline
70
4
71
3
72
10
73
6
40
0
40
0
40
0
40
0
40
0.5
40
0.5
40
1
40
1
40
1
40
1
41
1
10
24.4970759945008
20
1.62909462039929
30
0
41
1
10
23.7979715673883
20
2.74338896309422
30
0
41
1
10
23.0148787154241
20
3.79596538302405
30
0
41
1
10
21.2485162381801
20
5.75402063584679
30
0
41
1
10
20.3026281506783
20
6.6851776987846
30
0
41
1
10
19.2208219320642
20
7.45498916948213
30
0
0
SPLINE
5
120
100
AcDbEntity
8
1
62
256
6
ByLayer
370
18
48
1
60
0
100
AcDbSpline
70
4
71
3
72
10
73
6
40
0
40
0
40
0
40
0
40
0.655488757716277
40
0.655488757716277
40
1
40
1
40
1
40
1
41
1
10
13.1929068015534
20
11.7304361278571
30
0
41
1
10
12.8947471188944
20
11.9507569090168
30
0
41
1
10
12.5390381916944
20
12.1668266192162
30
0
41
1
10
11.9155941186764
20
12.4079858652811
30
0
41
1
10
11.6835543420763
20
12.47564296931
30
0
41
1
10
11.4414164164396
20
12.51775358488
30
0
0
SPLINE
5
121
100
AcDbEntity
8
1
62
256
6
ByLayer
370
18
48
1
60
0
100
AcDbSpline
70
4
71
3
72
10
73
6
40
0
40
0
40
0
40
0
40
0.5
40
0.5
40
1
40
1
40
1
40
1
41
1
10
5.18018206305808
20
3.17957668457274
30
0
41
1
10
4.78834754180824
20
2.56740776630332
30
0
41
1
10
4.57833136503359
20
1.92104417553946
30
0
41
1
10
4.46400627105552
20
0.954347255673241
30
0
41
1
10
4.50243122447066
20
0.611965185056079
30
0
41
1
10
4.70962611970631
20
0.24569217910468
30
0
0
SPLINE
5
122
100
AcDbEntity
8
1
62
256
6
ByLayer
370
18
48
1
60
0
100
AcDbSpline
70
4
71
3
72
10
73
6
40
0
40
0
40
0
40
0
40
0.5
40
0.5
40
1
40
1
40
1
40
1
41
1
10
24.5246005754084
20
-2.64463259943341
30
0
41
1
10
24.9699685495243
20
-2.44567205235913
30
0
41
1
10
25.420170729348
20
-2.31128477320681
30
0
41
1
10
26.3497398659951
20
-2.43208092679734
30
0
41
1
10
26.8295657359538
20
-2.71833198453098
30
0
41
1
10
27.1842155093768
20
-3.36594344220785
30
0
0
SPLINE
5
123
100
AcDbEntity
8
1
62
256
6
ByLayer
370
18
48
1
60
0
100
AcDbSpline
70
4
71
3
72
8
73
4
40
0
40
0
40
0
40
0
40
1
40
1
40
1
40
1
41
1
10
5.70208959381932
20
0.610149921597582
30
0
41
1
10
6.51566098467379
20
0.661856239704179
30
0
41
1
10
7.88635832630607
20
1.06006348561618
30
0
41
1
10
9.34856902652709
20
1.58540031757582
30
0
0
SPLINE
5
124
100
AcDbEntity
8
1
62
256
6
ByLayer
370
18
48
1
60
0
100
AcDbSpline
70
4
71
3
72
8
73
4
40
0
40
0
40
0
40
0
40
1
40
1
40
1
40
1
41
1
10
24.497075994501
20
1.62909462039906
30
0
41
1
10
24.9292114902956
20
0.940318924569993
30
0
41
1
10
25.4166315569549
20
0.334014400323952
30
0
41
1
10
25.8947126853018
20
-0.102034942281477
30
0
0
SPLINE
5
125
100
AcDbEntity
8
1
62
256
6
ByLayer
370
18
48
1
60
0
100
AcDbSpline
70
4
71
3
72
8
73
4
40
0
40
0
40
0
40
0
40
1
40
1
40
1
40
1
41
1
10
17.9832662188291
20
4.32655644444569
30
0
41
1
10
18.4489913464407
20
5.13392762394682
30
0
41
1
10
18.7708038340331
20
5.81325812789046
30
0
41
1
10
18.8851368358181
20
6.23036143757992
30
0
0
SPLINE
5
126
100
AcDbEntity
8
1
62
256
6
ByLayer
370
18
48
1
60
0
100
AcDbSpline
70
4
71
3
72
20
73
16
40
0
40
0
40
0
40
0
40
0.332873226652389
40
0.332873226652389
40
0.501657261698205
40
0.501657261698205
40
0.631212321676507
40
0.631212321676507
40
0.722542323637665
40
0.722542323637665
40
0.814765347404182
40
0.814765347404182
40
0.896421359038792
40
0.896421359038792
40
1
40
1
40
1
40
1
41
1
10
24.6068489090384
20
-4.42932525961993
30
0
41
1
10
24.5229436388745
20
-4.24027115058857
30
0
41
1
10
24.4440899863904
20
-4.03950968503716
30
0
41
1
10
24.3496674561244
20
-3.71209198587945
30
0
41
1
10
24.3218813923392
20
-3.59620629464124
30
0
41
1
10
24.2889625893685
20
-3.38428303568676
30
0
41
1
10
24.2799492212215
20
-3.28811766171481
30
0
41
1
10
24.2807160922853
20
-3.12717652090822
30
0
41
1
10
24.285917028423
20
-3.06017275198073
30
0
41
1
10
24.308168954772
20
-2.93643358632408
30
0
41
1
10
24.3257856629977
20
-2.87826161934208
30
0
41
1
10
24.3680816359946
20
-2.78727875866085
30
0
41
1
10
24.3921213215888
20
-2.75116267806217
30
0
41
1
10
24.4508810329909
20
-2.68642435036986
30
0
41
1
10
24.4873737654222
20
-2.66125933449473
30
0
41
1
10
24.5246005754084
20
-2.64463259943338
30
0
0
SPLINE
5
127
100
AcDbEntity
8
1
62
256
6
ByLayer
370
18
48
1
60
0
100
AcDbSpline
70
4
71
3
72
10
73
6
40
0
40
0
40
0
40
0
40
0.967465556419478
40
0.967465556419478
40
1
40
1
40
1
40
1
41
1
10
23.8915019481109
20
-5.44691516609845
30
0
41
1
10
24.3016690829105
20
-5.46584596876511
30
0
41
1
10
24.7053408643762
20
-5.49325565412778
30
0
41
1
10
25.1101666664501
20
-5.53429197790177
30
0
41
1
10
25.1233350695326
20
-5.53564272175035
30
0
41
1
10
25.1364891919873
20
-5.53700821427228
30
0
0
SPLINE
5
128
100
AcDbEntity
8
1
62
256
6
ByLayer
370
18
48
1
60
0
100
AcDbSpline
70
4
71
3
72
12
73
8
40
0
40
0
40
0
40
0
40
0.466938972358622
40
0.466938972358622
40
0.928803236876556
40
0.928803236876556
40
1
40
1
40
1
40
1
41
1
10
9.3485690265309
20
1.58540031756797
30
0
41
1
10
9.29243745666551
20
1.74710758737464
30
0
41
1
10
9.21156152421253
20
1.91371677632605
30
0
41
1
10
9.0209027099975
20
2.22111218700727
30
0
41
1
10
8.90928877929053
20
2.36659412433937
30
0
41
1
10
8.77336004459787
20
2.51811543903799
30
0
41
1
10
8.75486039881937
20
2.53824107851148
30
0
41
1
10
8.73620869007269
20
2.55806642673335
30
0
0
SPLINE
5
129
100
AcDbEntity
8
1
62
256
6
ByLayer
370
18
48
1
60
0
100
AcDbSpline
70
4
71
3
72
8
73
4
40
0
40
0
40
0
40
0
40
1
40
1
40
1
40
1
41
1
10
20.3747073208206
20
-7.95431089983325
30
0
41
1
10
20.4692098815038
20
-7.99955330354871
30
0
41
1
10
20.5649969180908
20
-8.0425947575622
30
0
41
1
10
20.6618643239449
20
-8.08358232402568
30
0
0
SPLINE
5
12A
100
AcDbEntity
8
1
62
256
6
ByLayer
370
18
48
1
60
0
100
AcDbSpline
70
4
71
2
72
6
73
3
40
0
40
0
40
0
40
1
40
1
40
1
41
1
10
22.6689300624144
20
-8.15809971079989
30
0
41
1
10
21.6712811847798
20
-8.17049669032806
30
0
41
1
10
20.6619346499451
20
-8.08340426874446
30
0
0
SPLINE
5
12B
100
AcDbEntity
8
1
62
256
6
ByLayer
370
18
48
1
60
0
100
AcDbSpline
70
4
71
3
72
12
73
8
40
0
40
0
40
0
40
0
40
0.108854002841679
40
0.502629245107338
40
0.699516866240167
40
0.896404487372997
40
1
40
1
40
1
40
1
41
1.0244126255267
10
17.6084127550593
20
-1.85166278841702
30
0
41
1.02394775696077
10
17.9020061969656
20
-2.02133172779378
30
0
41
1.02173322391444
10
19.2951829646307
20
-2.81807286885708
30
0
41
1.01876555595691
10
21.2763176445673
20
-3.89681229987203
30
0
41
1.01610930227499
10
22.6178882251914
20
-4.5926292358598
30
0
41
1.01814069306376
10
23.1851968842743
20
-4.98963642682375
30
0
41
1.0200519600697
10
23.7014512719246
20
-5.32601298002867
30
0
41
1.02076673234771
10
23.8915019480958
20
-5.44691516608879
30
0
0
SPLINE
5
12C
100
AcDbEntity
8
1
62
256
6
ByLayer
370
18
48
1
60
0
100
AcDbSpline
70
4
71
3
72
8
73
4
40
0
40
0
40
0
40
0
40
1
40
1
40
1
40
1
41
1
10
13.3115089519424
20
-2.31907607252947
30
0
41
1
10
13.0460581276001
20
-2.20295006578988
30
0
41
1
10
12.7961995863476
20
-2.06393018224165
30
0
41
1
10
12.5628187834342
20
-1.90116756521817
30
0
0
SPLINE
5
12D
100
AcDbEntity
8
1
62
256
6
ByLayer
370
18
48
1
60
0
100
AcDbSpline
70
4
71
3
72
8
73
4
40
0
40
0
40
0
40
0
40
1
40
1
40
1
40
1
41
1
10
25.4457890968532
20
-7.84130875634577
30
0
41
1
10
25.3605578510305
20
-7.84756187618095
30
0
41
1
10
25.2769949948903
20
-7.84989040429278
30
0
41
1
10
25.196552962538
20
-7.84840961582975
30
0
0
SPLINE
5
12E
100
AcDbEntity
8
1
62
256
6
ByLayer
370
18
48
1
60
0
100
AcDbSpline
70
4
71
3
72
8
73
4
40
0
40
0
40
0
40
0
40
1
40
1
40
1
40
1
41
1
10
11.8074669274922
20
6.92696928546982
30
0
41
1
10
11.5747508626432
20
7.03161547822194
30
0
41
1
10
11.3621436613298
20
7.15787730490786
30
0
41
1
10
11.1658950167852
20
7.29903817561581
30
0
0
SPLINE
5
12F
100
AcDbEntity
8
1
62
256
6
ByLayer
370
18
48
1
60
0
100
AcDbSpline
70
4
71
3
72
20
73
16
40
0
40
0
40
0
40
0
40
0.110576036200127
40
0.110576036200127
40
0.197179369122805
40
0.197179369122805
40
0.284291117387365
40
0.284291117387365
40
0.365904217918081
40
0.365904217918081
40
0.497270233392078
40
0.497270233392078
40
0.733496364826709
40
0.733496364826709
40
1
40
1
40
1
40
1
41
1
10
22.1851820546308
20
-5.97248440252855
30
0
41
1
10
22.1863923786129
20
-5.93202926372726
30
0
41
1
10
22.1970626410432
20
-5.88898239200358
30
0
41
1
10
22.2403966900271
20
-5.81144694148159
30
0
41
1
10
22.2684889776086
20
-5.7764133573192
30
0
41
1
10
22.342272394496
20
-5.70989699697532
30
0
41
1
10
22.3890911303913
20
-5.67763118128468
30
0
41
1
10
22.4899693495984
20
-5.62260970350187
30
0
41
1
10
22.5443897871413
20
-5.59870390563913
30
0
41
1
10
22.6896093880509
20
-5.5455368765812
30
0
41
1
10
22.7847741336514
20
-5.52066811505864
30
0
41
1
10
23.0448612311196
20
-5.46855013703143
30
0
41
1
10
23.2109272240323
20
-5.45291388814826
30
0
41
1
10
23.5492532853827
20
-5.43696130688025
30
0
41
1
10
23.7231197427392
20
-5.43911188085951
30
0
41
1
10
23.8915019481109
20
-5.44691516609845
30
0
0
SPLINE
5
130
100
AcDbEntity
8
1
62
256
6
ByLayer
370
18
48
1
60
0
100
AcDbSpline
70
4
71
1
72
4
73
2
40
0
40
0
40
1
40
1
41
1
10
18.8851368358181
20
6.23036143757992
30
0
41
1
10
19.2208219320642
20
7.45498916948213
30
0
0
SPLINE
5
131
100
AcDbEntity
8
1
62
256
6
ByLayer
370
18
48
1
60
0
100
AcDbSpline
70
4
71
2
72
6
73
3
40
0
40
0
40
0
40
1
40
1
40
1
41
1.02805999725224
10
11.8970441499656
20
-3.71028690659466
30
0
41
1.02805999725224
10
11.4207980063971
20
-4.01419717709891
30
0
41
1.02805999725224
10
10.9445518628286
20
-4.31810744760313
30
0
0
SPLINE
5
132
100
AcDbEntity
8
1
62
256
6
ByLayer
370
18
48
1
60
0
100
AcDbSpline
70
4
71
3
72
8
73
4
40
0
40
0
40
0
40
0
40
1
40
1
40
1
40
1
41
1
10
26.8775535527511
20
-2.17139177124852
30
0
41
1
10
26.9808250117997
20
-2.56843996802678
30
0
41
1
10
27.0832297605076
20
-2.96731728890631
30
0
41
1
10
27.1842155093767
20
-3.36594344220782
30
0
0
INSERT
5
145
100
AcDbEntity
8
SK2
62
256
6
ByLayer
370
25
48
1
60
0
100
AcDbBlockReference
2
DimnDraft3D11
10
0
20
0
30
0
41
1
42
1
43
1
50
0
210
0
220
0
230
1
0
LINE
5
72
100
AcDbEntity
8
1
62
256
6
ByLayer
370
18
48
1
60
0
100
AcDbLine
10
4.616221
20
0.18944
30
0
11
5.138689
21
-0.255655
31
0
39
0
210
0
220
0
230
1
0
LINE
5
74
100
AcDbEntity
8
1
62
256
6
ByLayer
370
18
48
1
60
0
100
AcDbLine
10
13.638855
20
0.952833
30
0
11
13.472517
21
1.119172
31
0
39
0
210
0
220
0
230
1
0
LINE
5
75
100
AcDbEntity
8
1
62
256
6
ByLayer
370
18
48
1
60
0
100
AcDbLine
10
11.175148
20
-0.625366
30
0
11
11.348344
21
-0.798562
31
0
39
0
210
0
220
0
230
1
0
LINE
5
76
100
AcDbEntity
8
1
62
256
6
ByLayer
370
18
48
1
60
0
100
AcDbLine
10
17.005198
20
4.858292
30
0
11
16.832002
21
5.031488
31
0
39
0
210
0
220
0
230
1
0
LINE
5
77
100
AcDbEntity
8
1
62
256
6
ByLayer
370
18
48
1
60
0
100
AcDbLine
10
19.184454
20
-10.772369
30
0
11
19.679311
21
-11.267226
31
0
39
0
210
0
220
0
230
1
0
LINE
5
78
100
AcDbEntity
8
1
62
256
6
ByLayer
370
18
48
1
60
0
100
AcDbLine
10
8.433707
20
2.845214
30
0
11
8.054483
21
3.168279
31
0
39
0
210
0
220
0
230
1
0
LINE
5
79
100
AcDbEntity
8
1
62
256
6
ByLayer
370
18
48
1
60
0
100
AcDbLine
10
31.059266
20
0.112728
30
0
11
30.564408
21
0.607586
31
0
39
0
210
0
220
0
230
1
0
LINE
5
7A
100
AcDbEntity
8
1
62
256
6
ByLayer
370
18
48
1
60
0
100
AcDbLine
10
12.977911
20
2.383382
30
0
11
12.957769
21
2.403525
31
0
39
0
210
0
220
0
230
1
0
LINE
5
7B
100
AcDbEntity
8
1
62
256
6
ByLayer
370
18
48
1
60
0
100
AcDbLine
10
14.700972
20
3.120611
30
0
11
14.86731
21
2.954273
31
0
39
0
210
0
220
0
230
1
0
LINE
5
7C
100
AcDbEntity
8
1
62
256
6
ByLayer
370
18
48
1
60
0
100
AcDbLine
10
15.361916
20
1.690063
30
0
11
15.528254
21
1.523724
31
0
39
0
210
0
220
0
230
1
0
LINE
5
7D
100
AcDbEntity
8
80
62
256
6
ByLayer
370
18
48
1
60
0
100
AcDbLine
10
0
20
0
30
0
11
-5
21
0
31
0
39
0
210
0
220
0
230
1
0
LINE
5
7E
100
AcDbEntity
8
81
62
256
6
ByLayer
370
18
48
1
60
0
100
AcDbLine
10
32.20454
20
-12.4125
30
0
11
42.20454
21
-12.4125
31
0
39
0
210
0
220
0
230
1
0
LINE
5
7F
100
AcDbEntity
8
SK1
62
256
6
ByLayer
370
18
48
1
60
0
100
AcDbLine
10
0
20
-7.9375
30
0
11
-69.14546
21
-7.9375
31
0
39
0
210
0
220
0
230
1
0
LINE
5
81
100
AcDbEntity
8
SK1
62
256
6
ByLayer
370
18
48
1
60
0
100
AcDbLine
10
-69.14546
20
7.9375
30
0
11
0
21
7.9375
31
0
39
0
210
0
220
0
230
1
0
LINE
5
82
100
AcDbEntity
8
SK1
62
256
6
ByLayer
370
18
48
1
60
0
100
AcDbLine
10
0
20
-7.9375
30
0
11
0
21
7.9375
31
0
39
0
210
0
220
0
230
1
0
LINE
5
83
100
AcDbEntity
8
SK1
62
256
6
ByLayer
370
18
48
1
60
0
100
AcDbLine
10
-69.14546
20
-7.9375
30
0
11
-69.14546
21
7.9375
31
0
39
0
210
0
220
0
230
1
0
LINE
5
84
100
AcDbEntity
8
1
62
256
6
ByLayer
370
18
48
1
60
0
100
AcDbLine
10
29.954671
20
6.87983
30
0
11
21.809156
21
11.958218
31
0
39
0
210
0
220
0
230
1
0
LINE
5
85
100
AcDbEntity
8
1
62
256
6
ByLayer
370
18
48
1
60
0
100
AcDbLine
10
1.757192
20
9.702376
30
0
11
0.706257
21
-1.347577
31
0
39
0
210
0
220
0
230
1
0
LINE
5
86
100
AcDbEntity
8
1
62
256
6
ByLayer
370
18
48
1
60
0
100
AcDbLine
10
23.031231
20
11.958218
30
0
11
28.019098
21
8.815402
31
0
39
0
210
0
220
0
230
1
0
LINE
5
87
100
AcDbEntity
8
1
62
256
6
ByLayer
370
18
48
1
60
0
100
AcDbLine
10
21.809156
20
11.958218
30
0
11
23.031231
21
11.958218
31
0
39
0
210
0
220
0
230
1
0
LINE
5
88
100
AcDbEntity
8
1
62
256
6
ByLayer
370
18
48
1
60
0
100
AcDbLine
10
15.364183
20
11.958218
30
0
11
12.854857
21
11.958218
31
0
39
0
210
0
220
0
230
1
0
LINE
5
89
100
AcDbEntity
8
1
62
256
6
ByLayer
370
18
48
1
60
0
100
AcDbLine
10
19.288536
20
-10.685902
30
0
11
3.599896
21
-9.398419
31
0
39
0
210
0
220
0
230
1
0
LINE
5
8A
100
AcDbEntity
8
1
62
256
6
ByLayer
370
18
48
1
60
0
100
AcDbLine
10
19.399168
20
-10.637723
30
0
11
19.140583
21
-7.486734
31
0
39
0
210
0
220
0
230
1
0
LINE
5
8B
100
AcDbEntity
8
1
62
256
6
ByLayer
370
18
48
1
60
0
100
AcDbLine
10
24.948301
20
0.96192
30
0
11
30.479571
21
0.483646
31
0
39
0
210
0
220
0
230
1
0
LINE
5
8C
100
AcDbEntity
8
1
62
256
6
ByLayer
370
18
48
1
60
0
100
AcDbLine
10
21.809156
20
11.958218
30
0
11
15.364183
21
11.958218
31
0
39
0
210
0
220
0
230
1
0
LINE
5
8D
100
AcDbEntity
8
1
62
256
6
ByLayer
370
18
48
1
60
0
100
AcDbLine
10
4.108239
20
-4.053502
30
0
11
3.599896
21
-9.398419
31
0
39
0
210
0
220
0
230
1
0
LINE
5
8E
100
AcDbEntity
8
1
62
256
6
ByLayer
370
18
48
1
60
0
100
AcDbLine
10
3.694057
20
1.274359
30
0
11
1.585138
21
-1.725605
31
0
39
0
210
0
220
0
230
1
0
LINE
5
8F
100
AcDbEntity
8
1
62
256
6
ByLayer
370
18
48
1
60
0
100
AcDbLine
10
3.343716
20
2.404242
30
0
11
0.706257
21
-1.347577
31
0
39
0
210
0
220
0
230
1
0
LINE
5
90
100
AcDbEntity
8
1
62
256
6
ByLayer
370
18
48
1
60
0
100
AcDbLine
10
19.023592
20
-7.457418
30
0
11
19.288536
21
-10.685902
31
0
39
0
210
0
220
0
230
1
0
LINE
5
91
100
AcDbEntity
8
1
62
256
6
ByLayer
370
18
48
1
60
0
100
AcDbLine
10
25.044148
20
0.838701
30
0
11
25.921038
21
0.762879
31
0
39
0
210
0
220
0
230
1
0
LINE
5
92
100
AcDbEntity
8
1
62
256
6
ByLayer
370
18
48
1
60
0
100
AcDbLine
10
0
20
7.9375
30
0
11
1.757192
21
9.702376
31
0
39
0
210
0
220
0
230
1
0
LINE
5
93
100
AcDbEntity
8
1
62
256
6
ByLayer
370
18
48
1
60
0
100
AcDbLine
10
0.964888
20
-8.902388
30
0
11
0
21
-7.9375
31
0
39
0
210
0
220
0
230
1
0
LINE
5
94
100
AcDbEntity
8
1
62
256
6
ByLayer
370
18
48
1
60
0
100
AcDbLine
10
1.585138
20
-1.725605
30
0
11
4.108239
21
-4.053502
31
0
39
0
210
0
220
0
230
1
0
LINE
5
95
100
AcDbEntity
8
1
62
256
6
ByLayer
370
18
48
1
60
0
100
AcDbLine
10
3.67655
20
1.299824
30
0
11
1.379084
21
-1.968349
31
0
39
0
210
0
220
0
230
1
0
LINE
5
96
100
AcDbEntity
8
1
62
256
6
ByLayer
370
18
48
1
60
0
100
AcDbLine
10
3.599896
20
-9.398419
30
0
11
0.964888
21
-8.902388
31
0
39
0
210
0
220
0
230
1
0
LINE
5
97
100
AcDbEntity
8
1
62
256
6
ByLayer
370
18
48
1
60
0
100
AcDbLine
10
19.288536
20
-10.685902
30
0
11
19.399168
21
-10.637723
31
0
39
0
210
0
220
0
230
1
0
LINE
5
98
100
AcDbEntity
8
1
62
256
6
ByLayer
370
18
48
1
60
0
100
AcDbLine
10
28.019098
20
8.815402
30
0
11
29.954671
21
6.87983
31
0
39
0
210
0
220
0
230
1
0
LINE
5
99
100
AcDbEntity
8
1
62
256
6
ByLayer
370
18
48
1
60
0
100
AcDbLine
10
9.407196
20
11.958218
30
0
11
4.013012
21
11.958218
31
0
39
0
210
0
220
0
230
1
0
LINE
5
9A
100
AcDbEntity
8
1
62
256
6
ByLayer
370
18
48
1
60
0
100
AcDbLine
10
30.479571
20
0.483646
30
0
11
30.436965
21
0.38567
31
0
39
0
210
0
220
0
230
1
0
LINE
5
9B
100
AcDbEntity
8
1
62
256
6
ByLayer
370
18
48
1
60
0
100
AcDbLine
10
4.013012
20
11.958218
30
0
11
1.757192
21
9.702376
31
0
39
0
210
0
220
0
230
1
0
LINE
5
9C
100
AcDbEntity
8
1
62
256
6
ByLayer
370
18
48
1
60
0
100
AcDbLine
10
15.364183
20
11.958218
30
0
11
14.515766
21
10.751334
31
0
39
0
210
0
220
0
230
1
0
LINE
5
9D
100
AcDbEntity
8
1
62
256
6
ByLayer
370
18
48
1
60
0
100
AcDbLine
10
6.231391
20
-1.033291
30
0
11
4.108239
21
-4.053502
31
0
39
0
210
0
220
0
230
1
0
LINE
5
9E
100
AcDbEntity
8
1
62
256
6
ByLayer
370
18
48
1
60
0
100
AcDbLine
10
29.954671
20
6.87983
30
0
11
30.479571
21
0.483646
31
0
39
0
210
0
220
0
230
1
0
LINE
5
9F
100
AcDbEntity
8
1
62
256
6
ByLayer
370
18
48
1
60
0
100
AcDbLine
10
0
20
-7.9375
30
0
11
0
21
7.9375
31
0
39
0
210
0
220
0
230
1
0
LINE
5
A0
100
AcDbEntity
8
1
62
256
6
ByLayer
370
18
48
1
60
0
100
AcDbLine
10
1.379084
20
-1.968349
30
0
11
1.585138
21
-1.725605
31
0
39
0
210
0
220
0
230
1
0
LINE
5
A1
100
AcDbEntity
8
1
62
256
6
ByLayer
370
18
48
1
60
0
100
AcDbLine
10
13.05618
20
1.223883
30
0
11
13.222519
21
1.057544
31
0
39
0
210
0
220
0
230
1
0
LINE
5
A2
100
AcDbEntity
8
1
62
256
6
ByLayer
370
18
48
1
60
0
100
AcDbLine
10
14.936481
20
1.069577
30
0
11
15.102819
21
0.903238
31
0
39
0
210
0
220
0
230
1
0
LINE
5
A3
100
AcDbEntity
8
1
62
256
6
ByLayer
370
18
48
1
60
0
100
AcDbLine
10
12.960266
20
2.400893
30
0
11
12.97154
21
2.389618
31
0
39
0
210
0
220
0
230
1
0
LINE
5
A4
100
AcDbEntity
8
1
62
256
6
ByLayer
370
18
48
1
60
0
100
AcDbLine
10
15.429307
20
2.34061
30
0
11
15.595646
21
2.174272
31
0
39
0
210
0
220
0
230
1
0
LINE
5
A5
100
AcDbEntity
8
1
62
256
6
ByLayer
370
18
48
1
60
0
100
AcDbLine
10
14.337723
20
0.787818
30
0
11
14.504061
21
0.621479
31
0
39
0
210
0
220
0
230
1
0
LINE
5
A6
100
AcDbEntity
8
1
62
256
6
ByLayer
370
18
48
1
60
0
100
AcDbLine
10
14.579571
20
3.390925
30
0
11
14.745909
21
3.224587
31
0
39
0
210
0
220
0
230
1
0
LINE
5
A7
100
AcDbEntity
8
1
62
256
6
ByLayer
370
18
48
1
60
0
100
AcDbLine
10
12.690182
20
10.550798
30
0
11
18.885137
21
6.230361
31
0
39
0
210
0
220
0
230
1
0
LINE
5
A8
100
AcDbEntity
8
1
62
256
6
ByLayer
370
18
48
1
60
0
100
AcDbLine
10
6.594937
20
4.201935
30
0
11
9.584473
21
8.454587
31
0
39
0
210
0
220
0
230
1
0
LINE
5
A9
100
AcDbEntity
8
1
62
256
6
ByLayer
370
18
48
1
60
0
100
AcDbLine
10
12.562819
20
-1.901168
30
0
11
12.198134
21
-1.590489
31
0
39
0
210
0
220
0
230
1
0
LINE
5
AA
100
AcDbEntity
8
1
62
256
6
ByLayer
370
18
48
1
60
0
100
AcDbLine
10
10.048484
20
10.107443
30
0
11
8.707823
21
11.249565
31
0
39
0
210
0
220
0
230
1
0
LINE
5
AB
100
AcDbEntity
8
1
62
256
6
ByLayer
370
18
48
1
60
0
100
AcDbLine
10
14.806358
20
10.536459
30
0
11
13.25352
21
11.685614
31
0
39
0
210
0
220
0
230
1
0
LINE
5
AC
100
AcDbEntity
8
1
62
256
6
ByLayer
370
18
48
1
60
0
100
AcDbLine
10
5.70209
20
0.61015
30
0
11
11.897044
21
-3.710287
31
0
39
0
210
0
220
0
230
1
0
LINE
5
AD
100
AcDbEntity
8
1
62
256
6
ByLayer
370
18
48
1
60
0
100
AcDbLine
10
10.944552
20
-4.318107
30
0
11
6.533021
21
-1.241452
31
0
39
0
210
0
220
0
230
1
0
LINE
5
AE
100
AcDbEntity
8
1
62
256
6
ByLayer
370
18
48
1
60
0
100
AcDbLine
10
14.806358
20
10.536459
30
0
11
14.809291
21
10.531645
31
0
39
0
210
0
220
0
230
1
0
LINE
5
AF
100
AcDbEntity
8
1
62
256
6
ByLayer
370
18
48
1
60
0
100
AcDbLine
10
13.63781
20
11.351418
30
0
11
13.192907
21
11.730436
31
0
39
0
210
0
220
0
230
1
0
LINE
5
B0
100
AcDbEntity
8
1
62
256
6
ByLayer
370
18
48
1
60
0
100
AcDbLine
10
25.672641
20
-7.811573
30
0
11
25.445789
21
-7.841309
31
0
39
0
210
0
220
0
230
1
0
LINE
5
B1
100
AcDbEntity
8
1
62
256
6
ByLayer
370
18
48
1
60
0
100
AcDbLine
10
24.96326
20
-7.904558
30
0
11
23.895239
21
-8.044553
31
0
39
0
210
0
220
0
230
1
0
LINE
5
B2
100
AcDbEntity
8
1
62
256
6
ByLayer
370
18
48
1
60
0
100
AcDbLine
10
25.196553
20
-7.84841
30
0
11
24.96326
21
-7.904558
31
0
39
0
210
0
220
0
230
1
0
LINE
5
B3
100
AcDbEntity
8
1
62
256
6
ByLayer
370
18
48
1
60
0
100
AcDbLine
10
5.219233
20
3.237774
30
0
11
10.048484
21
10.107443
31
0
39
0
210
0
220
0
230
1
0
LINE
5
B4
100
AcDbEntity
8
1
62
256
6
ByLayer
370
18
48
1
60
0
100
AcDbLine
10
13.63781
20
11.351418
30
0
11
14.806358
21
10.536459
31
0
39
0
210
0
220
0
230
1
0
LINE
5
B5
100
AcDbEntity
8
1
62
256
6
ByLayer
370
18
48
1
60
0
100
AcDbLine
10
8.707823
20
11.249565
30
0
11
3.878572
21
4.379896
31
0
39
0
210
0
220
0
230
1
0
LINE
5
B6
100
AcDbEntity
8
1
62
256
6
ByLayer
370
18
48
1
60
0
100
AcDbLine
10
8.176359
20
3.046386
30
0
11
7.830183
21
3.341297
31
0
39
0
210
0
220
0
230
1
0
LINE
5
B7
100
AcDbEntity
8
1
62
256
6
ByLayer
370
18
48
1
60
0
100
AcDbLine
10
25.136489
20
-5.537008
30
0
11
27.318445
21
-6.959125
31
0
39
0
210
0
220
0
230
1
0
LINE
5
B8
100
AcDbEntity
8
1
62
256
6
ByLayer
370
18
48
1
60
0
100
AcDbLine
10
17.334578
20
4.886719
30
0
11
15.667518
21
6.049348
31
0
39
0
210
0
220
0
230
1
0
LINE
5
B9
100
AcDbEntity
8
1
62
256
6
ByLayer
370
18
48
1
60
0
100
AcDbLine
10
27.423096
20
-4.405412
30
0
11
27.184216
21
-3.365943
31
0
39
0
210
0
220
0
230
1
0
LINE
5
BA
100
AcDbEntity
8
1
62
256
6
ByLayer
370
18
48
1
60
0
100
AcDbLine
10
10.538358
20
-0.434067
30
0
11
12.198134
21
-1.590489
31
0
39
0
210
0
220
0
230
1
0
LINE
5
BB
100
AcDbEntity
8
1
62
256
6
ByLayer
370
18
48
1
60
0
100
AcDbLine
10
19.220822
20
7.454989
30
0
11
14.809291
21
10.531645
31
0
39
0
210
0
220
0
230
1
0
LINE
5
BC
100
AcDbEntity
8
1
62
256
6
ByLayer
370
18
48
1
60
0
100
AcDbLine
10
10.895759
20
-0.738539
30
0
11
12.562819
21
-1.901168
31
0
39
0
210
0
220
0
230
1
0
LINE
5
BD
100
AcDbEntity
8
1
62
256
6
ByLayer
370
18
48
1
60
0
100
AcDbLine
10
7.830183
20
3.341297
30
0
11
6.594937
21
4.201935
31
0
39
0
210
0
220
0
230
1
0
LINE
5
BE
100
AcDbEntity
8
1
62
256
6
ByLayer
370
18
48
1
60
0
100
AcDbLine
10
10.895759
20
-0.738539
30
0
11
10.538358
21
-0.434067
31
0
39
0
210
0
220
0
230
1
0
LINE
5
BF
100
AcDbEntity
8
1
62
256
6
ByLayer
370
18
48
1
60
0
100
AcDbLine
10
27.423096
20
-4.405412
30
0
11
27.449919
21
-4.642969
31
0
39
0
210
0
220
0
230
1
0
LINE
5
C0
100
AcDbEntity
8
1
62
256
6
ByLayer
370
18
48
1
60
0
100
AcDbLine
10
6.527642
20
-1.240116
30
0
11
5.359095
21
-0.425156
31
0
39
0
210
0
220
0
230
1
0
LINE
5
C1
100
AcDbEntity
8
1
62
256
6
ByLayer
370
18
48
1
60
0
100
AcDbLine
10
5.219233
20
3.237774
30
0
11
3.878572
21
4.379896
31
0
39
0
210
0
220
0
230
1
0
LINE
5
C2
100
AcDbEntity
8
1
62
256
6
ByLayer
370
18
48
1
60
0
100
AcDbLine
10
27.58176
20
-5.095828
30
0
11
27.531021
21
-4.875041
31
0
39
0
210
0
220
0
230
1
0
LINE
5
C3
100
AcDbEntity
8
1
62
256
6
ByLayer
370
18
48
1
60
0
100
AcDbLine
10
6.527642
20
-1.240116
30
0
11
6.533021
21
-1.241452
31
0
39
0
210
0
220
0
230
1
0
LINE
5
C4
100
AcDbEntity
8
1
62
256
6
ByLayer
370
18
48
1
60
0
100
AcDbLine
10
31.341695
20
-12.409836
30
0
11
20.167631
21
-11.49284
31
0
39
0
210
0
220
0
230
1
0
LINE
5
C5
100
AcDbEntity
8
1
62
256
6
ByLayer
370
18
48
1
60
0
100
AcDbLine
10
19.453697
20
-10.778907
30
0
11
19.338798
21
-10.664007
31
0
39
0
210
0
220
0
230
1
0
LINE
5
C6
100
AcDbEntity
8
1
62
256
6
ByLayer
370
18
48
1
60
0
100
AcDbLine
10
25.082909
20
0.788716
30
0
11
30.570946
21
0.338342
31
0
39
0
210
0
220
0
230
1
0
LINE
5
C7
100
AcDbEntity
8
1
62
256
6
ByLayer
370
18
48
1
60
0
100
AcDbLine
10
19.453697
20
-10.778907
30
0
11
19.184416
21
-7.497573
31
0
39
0
210
0
220
0
230
1
0
LINE
5
C8
100
AcDbEntity
8
1
62
256
6
ByLayer
370
18
48
1
60
0
100
AcDbLine
10
30.463222
20
0.446067
30
0
11
30.570946
21
0.338342
31
0
39
0
210
0
220
0
230
1
0
LINE
5
C9
100
AcDbEntity
8
1
62
256
6
ByLayer
370
18
48
1
60
0
100
AcDbLine
10
31.28488
20
-0.375591
30
0
11
32.201876
21
-11.549656
31
0
39
0
210
0
220
0
230
1
0
MTEXT
5
133
100
AcDbEntity
8
SK6
62
256
6
ByLayer
370
18
48
1
60
0
100
AcDbMText
10
-32.59546
20
19.477088
30
0
210
0
220
0
230
1
1
\W0.7103;DCLNL 1616H 12
40
3.5
41
0
44
1.084337
50
0
71
7
72
5
7
iso_b_vert
0
DIMENSION
5
153
100
AcDbEntity
8
2
62
256
6
ByLayer
370
13
48
1
60
0
100
AcDbDimension
2
DimnDraft3D2
10
30.34922
20
-12.328051
30
0
11
19.758658
21
-23.94666
31
0
70
34
71
5
72
1
41
1
210
0
220
0
230
1
3
Standard
100
AcDb2LineAngularDimension
13
32.20454
23
-12.4125
33
0
14
32.20454
24
-10.825
34
0
15
31.345869
25
-12.409841
35
0
16
16.449108
26
-26.995739
36
0
40
0
0
DIMENSION
5
168
100
AcDbEntity
8
2
62
256
6
ByLayer
370
13
48
1
60
0
100
AcDbDimension
2
DimnDraft3D3
10
32.20454
20
-40.6625
30
0
11
10.820691
21
-40.6625
31
0
70
32
71
5
72
1
41
1
210
0
220
0
230
1
3
Standard
100
AcDbAlignedDimension
13
0
23
-9.9375
33
0
14
32.20454
24
-14.4125
34
0
50
0
100
AcDbRotatedDimension
1001
ACAD
1000
DSTYLE
1002
{
1070
   279
1070
     0
1070
   172
1070
     1
1070
   173
1070
     1
1070
   340
1005
134
1070
    77
1070
     1
1070
    73
1070
     0
1070
   171
1070
     3
1070
   274
1070
     4
1070
   177
1070
     2
1070
   176
1070
     2
1070
   178
1070
     7
1070
    78
1070
     8
1070
    41
1041
3.175
1070
   147
1041
2.25
1070
    42
1041
2.0
1070
    44
1041
2.0
1070
   140
1041
4.5
1070
   343
1005
154
1070
   344
1005
154
1002
}
0
DIMENSION
5
176
100
AcDbEntity
8
2
62
256
6
ByLayer
370
13
48
1
60
0
100
AcDbDimension
2
DimnDraft3D4
10
54.45454
20
-12.4125
30
0
11
54.45454
21
-7.519079
31
0
70
32
71
5
72
1
41
1
210
0
220
0
230
1
3
Standard
100
AcDbAlignedDimension
13
2
23
7.9375
33
0
14
34.20454
24
-12.4125
34
0
50
90
100
AcDbRotatedDimension
1001
ACAD
1000
DSTYLE
1002
{
1070
    74
1070
     0
1070
   279
1070
     0
1070
   172
1070
     1
1070
   173
1070
     1
1070
   340
1005
134
1070
    77
1070
     1
1070
    73
1070
     0
1070
   171
1070
     3
1070
   274
1070
     4
1070
   177
1070
     2
1070
   176
1070
     2
1070
   178
1070
     7
1070
    78
1070
     8
1070
    41
1041
3.175
1070
   147
1041
2.25
1070
    42
1041
2.0
1070
    44
1041
2.0
1070
   140
1041
4.5
1070
   343
1005
154
1070
   344
1005
154
1002
}
0
DIMENSION
5
184
100
AcDbEntity
8
SK2
62
256
6
ByLayer
370
13
48
1
60
0
100
AcDbDimension
2
DimnDraft3D5
10
-76.89546
20
-7.9375
30
0
11
-76.89546
21
-4.719079
31
0
70
32
71
5
72
1
41
1
210
0
220
0
230
1
3
Standard
100
AcDbAlignedDimension
13
-71.14546
23
7.9375
33
0
14
-71.14546
24
-7.9375
34
0
50
90
100
AcDbRotatedDimension
1001
ACAD
1000
DSTYLE
1002
{
1070
    74
1070
     0
1070
   279
1070
     0
1070
   172
1070
     1
1070
   173
1070
     1
1070
   340
1005
134
1070
    77
1070
     1
1070
    73
1070
     0
1070
   171
1070
     3
1070
   274
1070
     4
1070
   177
1070
     2
1070
   176
1070
     2
1070
   178
1070
     7
1070
    78
1070
     8
1070
    41
1041
3.175
1070
   147
1041
2.25
1070
    42
1041
2.0
1070
    44
1041
2.0
1070
   140
1041
4.5
1070
   343
1005
154
1070
   344
1005
154
1002
}
0
ENDSEC
0
SECTION
2
OBJECTS
0
DICTIONARY
5
1ee
330
0
100
AcDbDictionary
280
0
281
1
3
ACAD_GROUP
350
1ef
3
ACAD_MLINESTYLE
350
1f0
0
DICTIONARY
5
1ef
330
0
100
AcDbDictionary
280
0
281
1
0
DICTIONARY
5
1f0
330
0
100
AcDbDictionary
280
0
281
1
3
Standard
350
18
0
MLINESTYLE
5
18
330
1f0
100
AcDbMlineStyle
2
Standard
70
0
3

62
256
51
90
52
90
71
2
49
-0.5
62
256
6
ByLayer
49
0.5
62
256
6
ByLayer
0
RASTERVARIABLES
5
1dd
330

100
AcDbRasterVariables
90
0
70
1
71
1
72
1
0
ENDSEC
0
EOF
