0
SECTION
2
HEADER
9
$ACADVER
1
AC1015
9
$DWGCODEPAGE
3
ANSI_1252
9
$HANDSEED
5
22f
9
$ANGBASE
50
0
9
$ANGDIR
70
0
9
$ATTMODE
70
1
9
$AUNITS
70
0
9
$AUPREC
70
0
9
$CECOLOR
62
256
9
$CELTSCALE
40
1
9
$CELTYPE
6
ByLayer
9
$CELWEIGHT
370
18
9
$CLAYER
8
0
9
$CMLJUST
70
0
9
$CMLSCALE
40
1
9
$CMLSTYLE
2
Standard
9
$DIMSTYLE
2
Standard
9
$TEXTSIZE
40
0.2
9
$TEXTSTYLE
7
Standard
9
$LUNITS
70
2
9
$LUPREC
70
4
9
$EXTNAMES
290
1
9
$INSUNITS
70
4
9
$LTSCALE
40
1
9
$LWDISPLAY
290
1
9
$PDMODE
70
0
9
$PDSIZE
40
0
9
$PLINEGEN
70
0
0
ENDSEC
0
SECTION
2
CLASSES
0
CLASS
1
RASTERVARIABLES
2
AcDbRasterVariables
3
ISM
90
0
280
0
281
0
0
ENDSEC
0
SECTION
2
TABLES
0
TABLE
2
VPORT
5
225
100
AcDbSymbolTable
0
VPORT
5
1
100
AcDbSymbolTableRecord
100
AcDbViewportTableRecord
2
*Active
70
0
10
0
20
0
11
1
21
1
12
-1
22
1
13
0
23
0
14
0.5
24
0.5
15
10
25
10
16
0
26
0
36
1
17
0
27
0
37
0
0
ENDTAB
0
TABLE
2
LTYPE
5
226
100
AcDbSymbolTable
0
LTYPE
5
14
100
AcDbSymbolTableRecord
100
AcDbLinetypeTableRecord
70
0
2
ByBlock
3

72
65
73
0
40
0
0
LTYPE
5
15
100
AcDbSymbolTableRecord
100
AcDbLinetypeTableRecord
70
0
2
ByLayer
3

72
65
73
0
40
0
0
LTYPE
5
16
100
AcDbSymbolTableRecord
100
AcDbLinetypeTableRecord
70
0
2
CONTINUOUS
3
Solid line
72
65
73
0
40
0
0
LTYPE
5
6A
100
AcDbSymbolTableRecord
100
AcDbLinetypeTableRecord
70
0
2
CENTER
3
____ _ ____ _ ____ _ ____
72
65
73
4
40
47.5
49
22
74
0
49
-8.5
74
0
49
8.5
74
0
49
-8.5
74
0
0
LTYPE
5
6B
100
AcDbSymbolTableRecord
100
AcDbLinetypeTableRecord
70
0
2
DASHED
3
__ __ __ __ __ __ __ __ __
72
65
73
2
40
25.72
49
12.86
74
0
49
-12.86
74
0
0
ENDTAB
0
TABLE
2
LAYER
5
227
100
AcDbSymbolTable
0
LAYER
5
10
100
AcDbSymbolTableRecord
100
AcDbLayerTableRecord
2
0
70
0
62
7
6
CONTINUOUS
290
1
370
-3
390
0
0
LAYER
5
6D
100
AcDbSymbolTableRecord
100
AcDbLayerTableRecord
2
2
70
0
62
7
6
CONTINUOUS
290
1
370
-3
390
0
0
LAYER
5
6F
100
AcDbSymbolTableRecord
100
AcDbLayerTableRecord
2
80
70
0
62
-6
6
CONTINUOUS
290
1
370
-3
390
0
0
LAYER
5
71
100
AcDbSymbolTableRecord
100
AcDbLayerTableRecord
2
81
70
0
62
-3
6
CONTINUOUS
290
1
370
-3
390
0
0
LAYER
5
73
100
AcDbSymbolTableRecord
100
AcDbLayerTableRecord
2
1
70
0
62
4
6
CONTINUOUS
290
1
370
-3
390
0
0
LAYER
5
212
100
AcDbSymbolTableRecord
100
AcDbLayerTableRecord
2
SK1
70
0
62
4
6
CONTINUOUS
290
1
370
-3
390
0
0
LAYER
5
213
100
AcDbSymbolTableRecord
100
AcDbLayerTableRecord
2
SK6
70
0
62
5
6
CONTINUOUS
290
1
370
-3
390
0
0
LAYER
5
214
100
AcDbSymbolTableRecord
100
AcDbLayerTableRecord
2
SK2
70
0
62
7
6
CONTINUOUS
290
1
370
-3
390
0
0
ENDTAB
0
TABLE
2
STYLE
5
228
100
AcDbSymbolTable
0
STYLE
5
11
100
AcDbSymbolTableRecord
100
AcDbTextStyleTableRecord
2
Standard
3
txt
70
0
71
0
40
0
41
1
42
0
50
0
0
STYLE
5
168
100
AcDbSymbolTableRecord
100
AcDbTextStyleTableRecord
2
iso_b_vert
3
simplex.shx
70
0
71
0
40
0
41
1
42
0
50
0
0
STYLE
5
169
100
AcDbSymbolTableRecord
100
AcDbTextStyleTableRecord
2
DWGDirectTextStyle
3
simplex
70
0
71
0
40
0
41
1
42
0
50
0
0
ENDTAB
0
TABLE
2
DIMSTYLE
5
229
100
AcDbSymbolTable
100
AcDbDimStyleTable
0
DIMSTYLE
105
27
100
AcDbSymbolTableRecord
100
AcDbDimStyleTableRecord
2
Standard
70
0
3
<>
41
0.18
42
0.0625
44
0.18
140
0.18
147
0.09
73
0
74
0
77
1
271
2
275
0
278
52
280
0
340
11
0
ENDTAB
0
TABLE
2
VIEW
5
22a
100
AcDbSymbolTable
0
ENDTAB
0
TABLE
2
UCS
5
22b
100
AcDbSymbolTable
0
ENDTAB
0
TABLE
2
APPID
5
22c
100
AcDbSymbolTable
0
APPID
5
12
100
AcDbSymbolTableRecord
100
AcDbRegAppTableRecord
2
ACAD
70
0
0
ENDTAB
0
TABLE
2
BLOCK_RECORD
5
22d
100
AcDbSymbolTable
0
BLOCK_RECORD
5
1F
100
AcDbSymbolTableRecord
100
AcDbBlockTableRecord
2
*Model_Space
340
0
70
0
0
BLOCK_RECORD
5
1B
100
AcDbSymbolTableRecord
100
AcDbBlockTableRecord
2
*Paper_Space
340
0
70
0
0
BLOCK_RECORD
5
23
100
AcDbSymbolTableRecord
100
AcDbBlockTableRecord
2
*Paper_Space0
340
0
70
0
0
BLOCK_RECORD
5
16B
100
AcDbSymbolTableRecord
100
AcDbBlockTableRecord
2
DimnDraft3D1
340
0
70
0
0
BLOCK_RECORD
5
179
100
AcDbSymbolTableRecord
100
AcDbBlockTableRecord
2
_CLOSED
340
0
70
0
0
BLOCK_RECORD
5
180
100
AcDbSymbolTableRecord
100
AcDbBlockTableRecord
2
DimnDraft3D2
340
0
70
0
0
BLOCK_RECORD
5
18F
100
AcDbSymbolTableRecord
100
AcDbBlockTableRecord
2
DimnDraft3D3
340
0
70
0
0
BLOCK_RECORD
5
19D
100
AcDbSymbolTableRecord
100
AcDbBlockTableRecord
2
DimnDraft3D4
340
0
70
0
0
BLOCK_RECORD
5
1AB
100
AcDbSymbolTableRecord
100
AcDbBlockTableRecord
2
DimnDraft3D5
340
0
70
0
0
ENDTAB
0
ENDSEC
0
SECTION
2
BLOCKS
0
BLOCK
5
20
100
AcDbEntity
8
0
100
AcDbBlockBegin
2
*Model_Space
70
0
10
0
20
0
30
0
3
*Model_Space
0
ENDBLK
5
21
100
AcDbEntity
8
0
100
AcDbBlockEnd
0
BLOCK
5
1C
100
AcDbEntity
8
0
100
AcDbBlockBegin
2
*Paper_Space
70
0
10
0
20
0
30
0
3
*Paper_Space
0
ENDBLK
5
1D
100
AcDbEntity
8
0
100
AcDbBlockEnd
0
BLOCK
5
24
100
AcDbEntity
8
0
100
AcDbBlockBegin
2
*Paper_Space0
70
0
10
0
20
0
30
0
3
*Paper_Space0
0
ENDBLK
5
25
100
AcDbEntity
8
0
100
AcDbBlockEnd
0
BLOCK
5
176
100
AcDbEntity
8
0
100
AcDbBlockBegin
2
DimnDraft3D1
70
0
10
0
20
0
30
0
3
DimnDraft3D1
0
MTEXT
5
16C
100
AcDbEntity
8
2
62
256
6
ByLayer
370
18
48
1
60
0
100
AcDbMText
10
25.866396
20
27.165889
30
0
210
0
220
0
230
1
1
\W0.7399;75%%d
40
4.5
41
0
44
1.084337
50
37.5
71
7
72
5
7
iso_b_vert
0
LINE
5
16D
100
AcDbEntity
8
2
62
256
6
ByLayer
370
13
48
1
60
0
100
AcDbLine
10
41.624223
20
13.425
30
0
11
41.624223
21
34.380844
31
0
39
0
210
0
220
0
230
1
0
LINE
5
16E
100
AcDbEntity
8
2
62
256
6
ByLayer
370
13
48
1
60
0
100
AcDbLine
10
36.26132
20
12.861986
30
0
11
19.45058
21
17.36641
31
0
39
0
210
0
220
0
230
1
0
ARC
5
16F
100
AcDbEntity
8
2
62
256
6
ByLayer
370
13
48
1
60
0
100
AcDbCircle
39
0
10
41.624223
20
11.425
30
0
40
20.9558441220057
210
0
220
0
230
1
100
AcDbArc
50
90
51
165
0
LINE
5
170
100
AcDbEntity
8
2
62
256
6
ByLayer
370
13
48
1
60
0
100
AcDbLine
10
41.624223
20
32.380844
30
0
11
38.467292
21
31.843144
31
0
39
0
210
0
220
0
230
1
0
LINE
5
171
100
AcDbEntity
8
2
62
256
6
ByLayer
370
13
48
1
60
0
100
AcDbLine
10
41.624223
20
32.380844
30
0
11
38.435692
21
32.67854
31
0
39
0
210
0
220
0
230
1
0
LINE
5
172
100
AcDbEntity
8
2
62
256
6
ByLayer
370
13
48
1
60
0
100
AcDbLine
10
38.467292
20
31.843144
30
0
11
38.435692
21
32.67854
31
0
39
0
210
0
220
0
230
1
0
LINE
5
173
100
AcDbEntity
8
2
62
256
6
ByLayer
370
13
48
1
60
0
100
AcDbLine
10
21.382432
20
16.848772
30
0
11
21.920132
21
20.005703
31
0
39
0
210
0
220
0
230
1
0
LINE
5
174
100
AcDbEntity
8
2
62
256
6
ByLayer
370
13
48
1
60
0
100
AcDbLine
10
21.382432
20
16.848772
30
0
11
22.718886
21
19.758969
31
0
39
0
210
0
220
0
230
1
0
LINE
5
175
100
AcDbEntity
8
2
62
256
6
ByLayer
370
13
48
1
60
0
100
AcDbLine
10
21.920132
20
20.005703
30
0
11
22.718886
21
19.758969
31
0
39
0
210
0
220
0
230
1
0
ENDBLK
5
177
100
AcDbEntity
8
0
100
AcDbBlockEnd
0
BLOCK
5
17A
100
AcDbEntity
8
0
100
AcDbBlockBegin
2
_CLOSED
70
0
10
0
20
0
30
0
3
_CLOSED
0
LINE
5
17C
100
AcDbEntity
8
0
62
256
6
ByLayer
370
-2
48
1
60
0
100
AcDbLine
10
-1
20
0.166667
30
0
11
0
21
0
31
0
39
0
210
0
220
0
230
1
0
LINE
5
17D
100
AcDbEntity
8
0
62
256
6
ByLayer
370
-2
48
1
60
0
100
AcDbLine
10
0
20
0
30
0
11
-1
21
-0.166667
31
0
39
0
210
0
220
0
230
1
0
LINE
5
17E
100
AcDbEntity
8
0
62
256
6
ByLayer
370
-2
48
1
60
0
100
AcDbLine
10
-1
20
0.166667
30
0
11
-1
21
-0.166667
31
0
39
0
210
0
220
0
230
1
0
LINE
5
17F
100
AcDbEntity
8
0
62
256
6
ByLayer
370
-2
48
1
60
0
100
AcDbLine
10
0
20
0
30
0
11
-1
21
0
31
0
39
0
210
0
220
0
230
1
0
ENDBLK
5
17B
100
AcDbEntity
8
0
100
AcDbBlockEnd
0
BLOCK
5
18C
100
AcDbEntity
8
0
100
AcDbBlockBegin
2
DimnDraft3D2
70
0
10
0
20
0
30
0
3
DimnDraft3D2
0
MTEXT
5
181
100
AcDbEntity
8
SK2
62
256
6
ByLayer
370
18
48
1
60
0
100
AcDbMText
10
-138.600777
20
-4.156579
30
0
210
0
220
0
230
1
1
\W0.7346;32.0
40
4.5
41
0
44
1.084337
50
90
71
7
72
5
7
iso_b_vert
0
LINE
5
183
100
AcDbEntity
8
SK2
62
256
6
ByLayer
370
13
48
1
60
0
100
AcDbLine
10
-131.725777
20
-15.925
30
0
11
-139.475777
21
-15.925
31
0
39
0
210
0
220
0
230
1
0
LINE
5
184
100
AcDbEntity
8
SK2
62
256
6
ByLayer
370
13
48
1
60
0
100
AcDbLine
10
-131.725777
20
15.925
30
0
11
-139.475777
21
15.925
31
0
39
0
210
0
220
0
230
1
0
LINE
5
185
100
AcDbEntity
8
SK2
62
256
6
ByLayer
370
13
48
1
60
0
100
AcDbLine
10
-137.475777
20
-15.925
30
0
11
-137.475777
21
15.925
31
0
39
0
210
0
220
0
230
1
0
LINE
5
186
100
AcDbEntity
8
SK2
62
256
6
ByLayer
370
13
48
1
60
0
100
AcDbLine
10
-137.475777
20
-15.925
30
0
11
-137.893774
21
-12.750002
31
0
39
0
210
0
220
0
230
1
0
LINE
5
187
100
AcDbEntity
8
SK2
62
256
6
ByLayer
370
13
48
1
60
0
100
AcDbLine
10
-137.475777
20
-15.925
30
0
11
-137.05778
21
-12.749998
31
0
39
0
210
0
220
0
230
1
0
LINE
5
188
100
AcDbEntity
8
SK2
62
256
6
ByLayer
370
13
48
1
60
0
100
AcDbLine
10
-137.893774
20
-12.750002
30
0
11
-137.05778
21
-12.749998
31
0
39
0
210
0
220
0
230
1
0
LINE
5
189
100
AcDbEntity
8
SK2
62
256
6
ByLayer
370
13
48
1
60
0
100
AcDbLine
10
-137.475777
20
15.925
30
0
11
-137.05778
21
12.750002
31
0
39
0
210
0
220
0
230
1
0
LINE
5
18A
100
AcDbEntity
8
SK2
62
256
6
ByLayer
370
13
48
1
60
0
100
AcDbLine
10
-137.475777
20
15.925
30
0
11
-137.893774
21
12.749998
31
0
39
0
210
0
220
0
230
1
0
LINE
5
18B
100
AcDbEntity
8
SK2
62
256
6
ByLayer
370
13
48
1
60
0
100
AcDbLine
10
-137.05778
20
12.750002
30
0
11
-137.893774
21
12.749998
31
0
39
0
210
0
220
0
230
1
0
ENDBLK
5
18D
100
AcDbEntity
8
0
100
AcDbBlockEnd
0
BLOCK
5
19A
100
AcDbEntity
8
0
100
AcDbBlockBegin
2
DimnDraft3D3
70
0
10
0
20
0
30
0
3
DimnDraft3D3
0
MTEXT
5
190
100
AcDbEntity
8
2
62
256
6
ByLayer
370
18
48
1
60
0
100
AcDbMText
10
62.749223
20
-6.406579
30
0
210
0
220
0
230
1
1
\W0.7346;27.0
40
4.5
41
0
44
1.084337
50
90
71
7
72
5
7
iso_b_vert
0
LINE
5
191
100
AcDbEntity
8
2
62
256
6
ByLayer
370
13
48
1
60
0
100
AcDbLine
10
2
20
-15.925
30
0
11
65.874223
21
-15.925
31
0
39
0
210
0
220
0
230
1
0
LINE
5
192
100
AcDbEntity
8
2
62
256
6
ByLayer
370
13
48
1
60
0
100
AcDbLine
10
43.624223
20
11.425
30
0
11
65.874223
21
11.425
31
0
39
0
210
0
220
0
230
1
0
LINE
5
193
100
AcDbEntity
8
2
62
256
6
ByLayer
370
13
48
1
60
0
100
AcDbLine
10
63.874223
20
-15.925
30
0
11
63.874223
21
11.425
31
0
39
0
210
0
220
0
230
1
0
LINE
5
194
100
AcDbEntity
8
2
62
256
6
ByLayer
370
13
48
1
60
0
100
AcDbLine
10
63.874223
20
-15.925
30
0
11
63.456226
21
-12.750002
31
0
39
0
210
0
220
0
230
1
0
LINE
5
195
100
AcDbEntity
8
2
62
256
6
ByLayer
370
13
48
1
60
0
100
AcDbLine
10
63.874223
20
-15.925
30
0
11
64.29222
21
-12.749998
31
0
39
0
210
0
220
0
230
1
0
LINE
5
196
100
AcDbEntity
8
2
62
256
6
ByLayer
370
13
48
1
60
0
100
AcDbLine
10
63.456226
20
-12.750002
30
0
11
64.29222
21
-12.749998
31
0
39
0
210
0
220
0
230
1
0
LINE
5
197
100
AcDbEntity
8
2
62
256
6
ByLayer
370
13
48
1
60
0
100
AcDbLine
10
63.874223
20
11.425
30
0
11
64.29222
21
8.250002
31
0
39
0
210
0
220
0
230
1
0
LINE
5
198
100
AcDbEntity
8
2
62
256
6
ByLayer
370
13
48
1
60
0
100
AcDbLine
10
63.874223
20
11.425
30
0
11
63.456226
21
8.249998
31
0
39
0
210
0
220
0
230
1
0
LINE
5
199
100
AcDbEntity
8
2
62
256
6
ByLayer
370
13
48
1
60
0
100
AcDbLine
10
64.29222
20
8.250002
30
0
11
63.456226
21
8.249998
31
0
39
0
210
0
220
0
230
1
0
ENDBLK
5
19B
100
AcDbEntity
8
0
100
AcDbBlockEnd
0
BLOCK
5
1A8
100
AcDbEntity
8
0
100
AcDbBlockBegin
2
DimnDraft3D4
70
0
10
0
20
0
30
0
3
DimnDraft3D4
0
MTEXT
5
19E
100
AcDbEntity
8
2
62
256
6
ByLayer
370
18
48
1
60
0
100
AcDbMText
10
16.98119
20
42.3
30
0
210
0
220
0
230
1
1
\W0.6856;41.6
40
4.5
41
0
44
1.084337
50
0
71
7
72
5
7
iso_b_vert
0
LINE
5
19F
100
AcDbEntity
8
2
62
256
6
ByLayer
370
13
48
1
60
0
100
AcDbLine
10
0
20
17.925
30
0
11
0
21
43.175
31
0
39
0
210
0
220
0
230
1
0
LINE
5
1A0
100
AcDbEntity
8
2
62
256
6
ByLayer
370
13
48
1
60
0
100
AcDbLine
10
41.624223
20
13.425
30
0
11
41.624223
21
43.175
31
0
39
0
210
0
220
0
230
1
0
LINE
5
1A1
100
AcDbEntity
8
2
62
256
6
ByLayer
370
13
48
1
60
0
100
AcDbLine
10
0
20
41.175
30
0
11
41.624223
21
41.175
31
0
39
0
210
0
220
0
230
1
0
LINE
5
1A2
100
AcDbEntity
8
2
62
256
6
ByLayer
370
13
48
1
60
0
100
AcDbLine
10
0
20
41.175
30
0
11
3.174998
21
41.592997
31
0
39
0
210
0
220
0
230
1
0
LINE
5
1A3
100
AcDbEntity
8
2
62
256
6
ByLayer
370
13
48
1
60
0
100
AcDbLine
10
0
20
41.175
30
0
11
3.175002
21
40.757003
31
0
39
0
210
0
220
0
230
1
0
LINE
5
1A4
100
AcDbEntity
8
2
62
256
6
ByLayer
370
13
48
1
60
0
100
AcDbLine
10
3.174998
20
41.592997
30
0
11
3.175002
21
40.757003
31
0
39
0
210
0
220
0
230
1
0
LINE
5
1A5
100
AcDbEntity
8
2
62
256
6
ByLayer
370
13
48
1
60
0
100
AcDbLine
10
41.624223
20
41.175
30
0
11
38.449225
21
40.757003
31
0
39
0
210
0
220
0
230
1
0
LINE
5
1A6
100
AcDbEntity
8
2
62
256
6
ByLayer
370
13
48
1
60
0
100
AcDbLine
10
41.624223
20
41.175
30
0
11
38.449222
21
41.592997
31
0
39
0
210
0
220
0
230
1
0
LINE
5
1A7
100
AcDbEntity
8
2
62
256
6
ByLayer
370
13
48
1
60
0
100
AcDbLine
10
38.449225
20
40.757003
30
0
11
38.449222
21
41.592997
31
0
39
0
210
0
220
0
230
1
0
ENDBLK
5
1A9
100
AcDbEntity
8
0
100
AcDbBlockEnd
0
BLOCK
5
1B6
100
AcDbEntity
8
0
100
AcDbBlockBegin
2
DimnDraft3D5
70
0
10
0
20
0
30
0
3
DimnDraft3D5
0
MTEXT
5
1AC
100
AcDbEntity
8
SK2
62
256
6
ByLayer
370
18
48
1
60
0
100
AcDbMText
10
-49.326435
20
52.3
30
0
210
0
220
0
230
1
1
\W0.6864;170.0
40
4.5
41
0
44
1.084337
50
0
71
7
72
5
7
iso_b_vert
0
LINE
5
1AD
100
AcDbEntity
8
SK2
62
256
6
ByLayer
370
13
48
1
60
0
100
AcDbLine
10
41.624223
20
13.425
30
0
11
41.624223
21
53.175
31
0
39
0
210
0
220
0
230
1
0
LINE
5
1AE
100
AcDbEntity
8
SK2
62
256
6
ByLayer
370
13
48
1
60
0
100
AcDbLine
10
-129.725777
20
17.925
30
0
11
-129.725777
21
53.175
31
0
39
0
210
0
220
0
230
1
0
LINE
5
1AF
100
AcDbEntity
8
SK2
62
256
6
ByLayer
370
13
48
1
60
0
100
AcDbLine
10
41.624223
20
51.175
30
0
11
-129.725777
21
51.175
31
0
39
0
210
0
220
0
230
1
0
LINE
5
1B0
100
AcDbEntity
8
SK2
62
256
6
ByLayer
370
13
48
1
60
0
100
AcDbLine
10
41.624223
20
51.175
30
0
11
38.449225
21
50.757003
31
0
39
0
210
0
220
0
230
1
0
LINE
5
1B1
100
AcDbEntity
8
SK2
62
256
6
ByLayer
370
13
48
1
60
0
100
AcDbLine
10
41.624223
20
51.175
30
0
11
38.449222
21
51.592997
31
0
39
0
210
0
220
0
230
1
0
LINE
5
1B2
100
AcDbEntity
8
SK2
62
256
6
ByLayer
370
13
48
1
60
0
100
AcDbLine
10
38.449225
20
50.757003
30
0
11
38.449222
21
51.592997
31
0
39
0
210
0
220
0
230
1
0
LINE
5
1B3
100
AcDbEntity
8
SK2
62
256
6
ByLayer
370
13
48
1
60
0
100
AcDbLine
10
-129.725777
20
51.175
30
0
11
-126.550778
21
51.592997
31
0
39
0
210
0
220
0
230
1
0
LINE
5
1B4
100
AcDbEntity
8
SK2
62
256
6
ByLayer
370
13
48
1
60
0
100
AcDbLine
10
-129.725777
20
51.175
30
0
11
-126.550775
21
50.757003
31
0
39
0
210
0
220
0
230
1
0
LINE
5
1B5
100
AcDbEntity
8
SK2
62
256
6
ByLayer
370
13
48
1
60
0
100
AcDbLine
10
-126.550778
20
51.592997
30
0
11
-126.550775
21
50.757003
31
0
39
0
210
0
220
0
230
1
0
ENDBLK
5
1B7
100
AcDbEntity
8
0
100
AcDbBlockEnd
0
ENDSEC
0
SECTION
2
ENTITIES
0
ELLIPSE
5
E0
100
AcDbEntity
8
1
62
256
6
ByLayer
370
18
48
1
60
0
100
AcDbEllipse
10
9.024822
20
5.369302
30
0
11
1.42925169960528
21
-2.63765797236401
31
0
210
0
220
0
230
1
40
0.9865
41
-0.229639942064429
42
-0.0888770956031168
0
ELLIPSE
5
E1
100
AcDbEntity
8
1
62
256
6
ByLayer
370
18
48
1
60
0
100
AcDbEllipse
10
17.967386
20
1.574897
30
0
11
-2.45354875098908
21
4.52797951922488
31
0
210
0
220
0
230
1
40
0.9865
41
3.05273534649773
42
-0.229639942064428
0
ELLIPSE
5
E2
100
AcDbEntity
8
1
62
256
6
ByLayer
370
18
48
1
60
0
100
AcDbEllipse
10
28.234574
20
-2.427946
30
0
11
-1.69715012845493
21
2.93955025055596
31
0
210
0
220
0
230
1
40
0.989133
41
1.8141216041579
42
1.90132781258049
0
ELLIPSE
5
E3
100
AcDbEntity
8
1
62
256
6
ByLayer
370
18
48
1
60
0
100
AcDbEllipse
10
26.91054
20
-3.442138
30
0
11
1.74912729599004
21
-3.0295773455598
31
0
210
0
220
0
230
1
40
0.989133
41
0.353765615300055
42
0.965394297118346
0
ELLIPSE
5
E4
100
AcDbEntity
8
1
62
256
6
ByLayer
370
18
48
1
60
0
100
AcDbEllipse
10
26.891441
20
-3.453165
30
0
11
1.67412729599003
21
-2.89967353499214
31
0
210
0
220
0
230
1
40
0.989133
41
0.288012844481047
42
0.965394297118346
0
ELLIPSE
5
E5
100
AcDbEntity
8
1
62
256
6
ByLayer
370
18
48
1
60
0
100
AcDbEllipse
10
16.86762
20
-0.012222
30
0
11
-0.225000000000002
21
0.389711431702996
31
0
210
0
220
0
230
1
40
0.989133
41
-2.79622749116852
42
-2.50494336925821
0
ELLIPSE
5
E6
100
AcDbEntity
8
1
62
256
6
ByLayer
370
18
48
1
60
0
100
AcDbEllipse
10
17.233061
20
1.413765
30
0
11
0.70000000000009
21
-1.21243556529816
31
0
210
0
220
0
230
1
40
0.989133
41
-2.19680087865008
42
-1.58328359214078
0
ELLIPSE
5
E7
100
AcDbEntity
8
1
62
256
6
ByLayer
370
18
48
1
60
0
100
AcDbEllipse
10
17.163031
20
1.373333
30
0
11
0.70000000000009
21
-1.21243556529816
31
0
210
0
220
0
230
1
40
0.989133
41
3.11230752191944
42
-0.800349701270227
0
ELLIPSE
5
E8
100
AcDbEntity
8
1
62
256
6
ByLayer
370
18
48
1
60
0
100
AcDbEllipse
10
17.163031
20
1.373333
30
0
11
0.70000000000009
21
-1.21243556529816
31
0
210
0
220
0
230
1
40
0.989133
41
0.14085156483253
42
3.11230752191944
0
ELLIPSE
5
E9
100
AcDbEntity
8
1
62
256
6
ByLayer
370
18
48
1
60
0
100
AcDbEllipse
10
17.233061
20
1.413765
30
0
11
0.70000000000009
21
-1.21243556529816
31
0
210
0
220
0
230
1
40
0.989133
41
0.0819494291464701
42
0.699260212743868
0
ELLIPSE
5
EA
100
AcDbEntity
8
1
62
256
6
ByLayer
370
18
48
1
60
0
100
AcDbEllipse
10
17.233061
20
1.413765
30
0
11
0.70000000000009
21
-1.21243556529816
31
0
210
0
220
0
230
1
40
0.989133
41
-0.936155972858287
42
-0.347937338452736
0
ELLIPSE
5
EB
100
AcDbEntity
8
1
62
256
6
ByLayer
370
18
48
1
60
0
100
AcDbEllipse
10
17.233061
20
1.413765
30
0
11
0.70000000000009
21
-1.21243556529816
31
0
210
0
220
0
230
1
40
0.989133
41
2.97685763348731
42
-2.75281704605758
0
ELLIPSE
5
EC
100
AcDbEntity
8
1
62
256
6
ByLayer
370
18
48
1
60
0
100
AcDbEllipse
10
16.18452
20
2.456674
30
0
11
-0.225000000000002
21
0.389711431702996
31
0
210
0
220
0
230
1
40
0.989133
41
-1.14932164288686
42
-0.345365408186534
0
ELLIPSE
5
ED
100
AcDbEntity
8
1
62
256
6
ByLayer
370
18
48
1
60
0
100
AcDbEllipse
10
18.281603
20
0.370856
30
0
11
-0.225000000000002
21
0.389711431702996
31
0
210
0
220
0
230
1
40
0.989133
41
-2.79624117087092
42
-1.45774581806162
0
ELLIPSE
5
EE
100
AcDbEntity
8
1
62
256
6
ByLayer
370
18
48
1
60
0
100
AcDbEllipse
10
17.598503
20
2.839751
30
0
11
-0.225000000000002
21
0.389711431702996
31
0
210
0
220
0
230
1
40
0.989133
41
-2.19651919408343
42
-0.345396954052796
0
ELLIPSE
5
EF
100
AcDbEntity
8
1
62
256
6
ByLayer
370
18
48
1
60
0
100
AcDbEllipse
10
19.036607
20
0.930506
30
0
11
0.250000000000032
21
-0.433012701892201
31
0
210
0
220
0
230
1
40
0.989133
41
-3.14158663920274
42
-2.60974233072861
0
ELLIPSE
5
F0
100
AcDbEntity
8
1
62
256
6
ByLayer
370
18
48
1
60
0
100
AcDbEllipse
10
18.647044
20
1.796842
30
0
11
-0.225000000000002
21
0.389711431702996
31
0
210
0
220
0
230
1
40
0.989133
41
-2.99311319358128
42
-0.410548266864967
0
ELLIPSE
5
F1
100
AcDbEntity
8
1
62
256
6
ByLayer
370
18
48
1
60
0
100
AcDbEllipse
10
17.112101
20
1.343928
30
0
11
2.50000000000032
21
-4.33012701892201
31
0
210
0
220
0
230
1
40
0.989133
41
6.91112304970085E-05
42
-0.80034987360464
0
ELLIPSE
5
F2
100
AcDbEntity
8
1
62
256
6
ByLayer
370
18
48
1
60
0
100
AcDbEllipse
10
17.112101
20
1.343928
30
0
11
2.50000000000032
21
-4.33012701892201
31
0
210
0
220
0
230
1
40
0.989133
41
-0.295927969795453
42
-2.69380888020152E-16
0
ELLIPSE
5
F3
100
AcDbEntity
8
1
62
256
6
ByLayer
370
18
48
1
60
0
100
AcDbEllipse
10
33.338912
20
5.472066
30
0
11
1.58750000000021
21
-2.74963065701547
31
0
210
0
220
0
230
1
40
0.989133
41
0.017576924816018
42
2.60840904277215
0
ELLIPSE
5
F4
100
AcDbEntity
8
1
62
256
6
ByLayer
370
18
48
1
60
0
100
AcDbEllipse
10
17.488568
20
1.561282
30
0
11
0.70000000000009
21
-1.21243556529816
31
0
210
0
220
0
230
1
40
0.989133
41
1.74645776394048
42
1.92966008229072
0
ELLIPSE
5
F5
100
AcDbEntity
8
1
62
256
6
ByLayer
370
18
48
1
60
0
100
AcDbEllipse
10
17.859523
20
2.990451
30
0
11
-0.225000000000002
21
0.389711431702996
31
0
210
0
220
0
230
1
40
0.989133
41
-2.19651919408344
42
0.636649284331625
0
ELLIPSE
5
F6
100
AcDbEntity
8
1
62
256
6
ByLayer
370
18
48
1
60
0
100
AcDbEllipse
10
17.733362
20
-0.394447
30
0
11
0.250000000000032
21
-0.433012701892201
31
0
210
0
220
0
230
1
40
0.989133
41
-3.13891778380966
42
-2.50494336925826
0
ELLIPSE
5
F7
100
AcDbEntity
8
1
62
256
6
ByLayer
370
18
48
1
60
0
100
AcDbEllipse
10
18.542623
20
0.521556
30
0
11
-0.225000000000002
21
0.389711431702996
31
0
210
0
220
0
230
1
40
0.989133
41
1.9922710107029
42
-1.4577458180616
0
ELLIPSE
5
F8
100
AcDbEntity
8
1
62
256
6
ByLayer
370
18
48
1
60
0
100
AcDbEllipse
10
17.321637
20
1.464904
30
0
11
-2.50000000000002
21
4.33012701892218
31
0
210
0
220
0
230
1
40
0.989133
41
0
42
6.28318530717959
0
ELLIPSE
5
F9
100
AcDbEntity
8
1
62
256
6
ByLayer
370
18
48
1
60
0
100
AcDbEllipse
10
17.233061
20
1.413765
30
0
11
0.70000000000009
21
-1.21243556529816
31
0
210
0
220
0
230
1
40
0.989133
41
1.92966008229072
42
2.79365531513708
0
ELLIPSE
5
FA
100
AcDbEntity
8
1
62
256
6
ByLayer
370
18
48
1
60
0
100
AcDbEllipse
10
17.494082
20
1.564465
30
0
11
0.712500000000091
21
-1.23408620039277
31
0
210
0
220
0
230
1
40
0.989133
41
2.75505957005437
42
3.01545337856996
0
ELLIPSE
5
FB
100
AcDbEntity
8
1
62
256
6
ByLayer
370
18
48
1
60
0
100
AcDbEllipse
10
16.993781
20
3.372677
30
0
11
0.250000000000032
21
-0.433012701892201
31
0
210
0
220
0
230
1
40
0.989133
41
-1.14932164288684
42
-0.635359990860207
0
ELLIPSE
5
FC
100
AcDbEntity
8
1
62
256
6
ByLayer
370
18
48
1
60
0
100
AcDbEllipse
10
16.190837
20
0.239512
30
0
11
0.250000000000032
21
-0.433012701892201
31
0
210
0
220
0
230
1
40
0.989133
41
0.945073459506356
42
1.45903511153304
0
ELLIPSE
5
FD
100
AcDbEntity
8
1
62
256
6
ByLayer
370
18
48
1
60
0
100
AcDbEllipse
10
17.488568
20
1.561282
30
0
11
0.70000000000009
21
-1.21243556529816
31
0
210
0
220
0
230
1
40
0.989133
41
-2.4423324408459
42
-2.25913012249569
0
ELLIPSE
5
FE
100
AcDbEntity
8
1
62
256
6
ByLayer
370
18
48
1
60
0
100
AcDbEllipse
10
17.994382
20
-0.243747
30
0
11
0.250000000000032
21
-0.433012701892201
31
0
210
0
220
0
230
1
40
0.989133
41
-3.01890502128497
42
-2.50494336925824
0
ELLIPSE
5
FF
100
AcDbEntity
8
1
62
256
6
ByLayer
370
18
48
1
60
0
100
AcDbEllipse
10
16.080099
20
1.181387
30
0
11
-0.225000000000002
21
0.389711431702996
31
0
210
0
220
0
230
1
40
0.989133
41
-0.102124091690299
42
2.7310443867249
0
ELLIPSE
5
100
100
AcDbEntity
8
1
62
256
6
ByLayer
370
18
48
1
60
0
100
AcDbEllipse
10
18.908064
20
1.947542
30
0
11
-0.225000000000002
21
0.389711431702996
31
0
210
0
220
0
230
1
40
0.989133
41
3.0394685618995
42
-0.410548266864845
0
ELLIPSE
5
101
100
AcDbEntity
8
1
62
256
6
ByLayer
370
18
48
1
60
0
100
AcDbEllipse
10
19.297627
20
1.081206
30
0
11
0.250000000000032
21
-0.433012701892201
31
0
210
0
220
0
230
1
40
0.989133
41
3.03946856189956
42
-2.72975509325341
0
ELLIPSE
5
102
100
AcDbEntity
8
1
62
256
6
ByLayer
370
18
48
1
60
0
100
AcDbEllipse
10
17.494082
20
1.564465
30
0
11
-1.25000000000001
21
2.16506350946109
31
0
210
0
220
0
230
1
40
0.989133
41
0
42
6.28318530717959
0
ELLIPSE
5
103
100
AcDbEntity
8
1
62
256
6
ByLayer
370
18
48
1
60
0
100
AcDbEllipse
10
17.994382
20
-0.243747
30
0
11
0.250000000000032
21
-0.433012701892201
31
0
210
0
220
0
230
1
40
0.989133
41
1.99227101070284
42
2.5062326627295
0
ELLIPSE
5
104
100
AcDbEntity
8
1
62
256
6
ByLayer
370
18
48
1
60
0
100
AcDbEllipse
10
18.797327
20
2.889418
30
0
11
0.250000000000032
21
-0.433012701892201
31
0
210
0
220
0
230
1
40
0.989133
41
-2.19651919408345
42
-1.68255754205673
0
ELLIPSE
5
105
100
AcDbEntity
8
1
62
256
6
ByLayer
370
18
48
1
60
0
100
AcDbEllipse
10
17.494082
20
1.564465
30
0
11
0.712500000000091
21
-1.23408620039277
31
0
210
0
220
0
230
1
40
0.989133
41
-0.386533083535433
42
-0.12613927501983
0
ELLIPSE
5
106
100
AcDbEntity
8
1
62
256
6
ByLayer
370
18
48
1
60
0
100
AcDbEllipse
10
15.690536
20
2.047723
30
0
11
0.250000000000032
21
-0.433012701892201
31
0
210
0
220
0
230
1
40
0.989133
41
-0.102124091690358
42
0.411837560336371
0
ELLIPSE
5
107
100
AcDbEntity
8
1
62
256
6
ByLayer
370
18
48
1
60
0
100
AcDbEllipse
10
17.494082
20
1.564465
30
0
11
0.712500000000091
21
-1.23408620039277
31
0
210
0
220
0
230
1
40
0.989133
41
0.660664467661163
42
0.921058276176789
0
ELLIPSE
5
108
100
AcDbEntity
8
1
62
256
6
ByLayer
370
18
48
1
60
0
100
AcDbEllipse
10
17.494082
20
1.564465
30
0
11
0.712500000000091
21
-1.23408620039277
31
0
210
0
220
0
230
1
40
0.989133
41
1.70786201885777
42
1.96825582737338
0
ELLIPSE
5
109
100
AcDbEntity
8
1
62
256
6
ByLayer
370
18
48
1
60
0
100
AcDbEllipse
10
17.494082
20
1.564465
30
0
11
0.712500000000091
21
-1.23408620039277
31
0
210
0
220
0
230
1
40
0.989133
41
-1.43373063473203
42
-1.1733368262164
0
ELLIPSE
5
10A
100
AcDbEntity
8
1
62
256
6
ByLayer
370
18
48
1
60
0
100
AcDbEllipse
10
17.488568
20
1.561282
30
0
11
0.70000000000009
21
-1.21243556529816
31
0
210
0
220
0
230
1
40
0.989133
41
0.699260212743867
42
0.882462531094107
0
ELLIPSE
5
10B
100
AcDbEntity
8
1
62
256
6
ByLayer
370
18
48
1
60
0
100
AcDbEllipse
10
17.12864
20
0.138479
30
0
11
-0.225000000000002
21
0.389711431702996
31
0
210
0
220
0
230
1
40
0.989133
41
0.945073459506324
42
-2.50494336925822
0
ELLIPSE
5
10C
100
AcDbEntity
8
1
62
256
6
ByLayer
370
18
48
1
60
0
100
AcDbEllipse
10
17.488568
20
1.561282
30
0
11
0.70000000000009
21
-1.21243556529816
31
0
210
0
220
0
230
1
40
0.989133
41
-1.39513488964998
42
-1.21193257129909
0
ELLIPSE
5
10D
100
AcDbEntity
8
1
62
256
6
ByLayer
370
18
48
1
60
0
100
AcDbEllipse
10
15.690536
20
2.047723
30
0
11
0.250000000000032
21
-0.433012701892201
31
0
210
0
220
0
230
1
40
0.989133
41
1.16988518350149
42
1.6838468355282
0
ELLIPSE
5
10E
100
AcDbEntity
8
1
62
256
6
ByLayer
370
18
48
1
60
0
100
AcDbEllipse
10
19.036607
20
0.930506
30
0
11
0.250000000000032
21
-0.433012701892201
31
0
210
0
220
0
230
1
40
0.989133
41
-2.09172023261306
42
-1.45774581806156
0
ELLIPSE
5
10F
100
AcDbEntity
8
1
62
256
6
ByLayer
370
18
48
1
60
0
100
AcDbEllipse
10
16.44554
20
2.607374
30
0
11
-0.225000000000002
21
0.389711431702996
31
0
210
0
220
0
230
1
40
0.989133
41
-1.14932164288685
42
1.68384683552821
0
ELLIPSE
5
110
100
AcDbEntity
8
1
62
256
6
ByLayer
370
18
48
1
60
0
100
AcDbEllipse
10
16.993781
20
3.372677
30
0
11
0.250000000000032
21
-0.433012701892201
31
0
210
0
220
0
230
1
40
0.989133
41
0.122687632304873
42
0.636649284331588
0
ELLIPSE
5
111
100
AcDbEntity
8
1
62
256
6
ByLayer
370
18
48
1
60
0
100
AcDbEllipse
10
16.732761
20
3.221976
30
0
11
0.250000000000032
21
-0.433012701892201
31
0
210
0
220
0
230
1
40
0.989133
41
-1.14932164288682
42
-0.515347228335338
0
ELLIPSE
5
112
100
AcDbEntity
8
1
62
256
6
ByLayer
370
18
48
1
60
0
100
AcDbEllipse
10
18.536306
20
2.738718
30
0
11
0.250000000000032
21
-0.433012701892201
31
0
210
0
220
0
230
1
40
0.989133
41
-2.19651919408342
42
-1.562544779532
0
ELLIPSE
5
113
100
AcDbEntity
8
1
62
256
6
ByLayer
370
18
48
1
60
0
100
AcDbEllipse
10
16.190837
20
0.239512
30
0
11
0.250000000000032
21
-0.433012701892201
31
0
210
0
220
0
230
1
40
0.989133
41
2.21708273469805
42
2.73104438672481
0
ELLIPSE
5
114
100
AcDbEntity
8
1
62
256
6
ByLayer
370
18
48
1
60
0
100
AcDbEllipse
10
17.488568
20
1.561282
30
0
11
0.70000000000009
21
-1.21243556529816
31
0
210
0
220
0
230
1
40
0.989133
41
-0.347937338453152
42
-0.164735020102482
0
ELLIPSE
5
115
100
AcDbEntity
8
1
62
256
6
ByLayer
370
18
48
1
60
0
100
AcDbEllipse
10
18.536306
20
2.738718
30
0
11
0.250000000000032
21
-0.433012701892201
31
0
210
0
220
0
230
1
40
0.989133
41
-1.04452268141657
42
-0.410548266865119
0
ELLIPSE
5
116
100
AcDbEntity
8
1
62
256
6
ByLayer
370
18
48
1
60
0
100
AcDbEllipse
10
19.297627
20
1.081206
30
0
11
0.250000000000032
21
-0.433012701892201
31
0
210
0
220
0
230
1
40
0.989133
41
-1.97170747008833
42
-1.45774581806162
0
ELLIPSE
5
117
100
AcDbEntity
8
1
62
256
6
ByLayer
370
18
48
1
60
0
100
AcDbEllipse
10
18.797327
20
2.889418
30
0
11
0.250000000000032
21
-0.433012701892201
31
0
210
0
220
0
230
1
40
0.989133
41
-0.924509918891778
42
-0.41054826686505
0
ELLIPSE
5
118
100
AcDbEntity
8
1
62
256
6
ByLayer
370
18
48
1
60
0
100
AcDbEllipse
10
17.488568
20
1.561282
30
0
11
0.70000000000009
21
-1.21243556529816
31
0
210
0
220
0
230
1
40
0.989133
41
2.79365531513666
42
2.97685763348771
0
ELLIPSE
5
119
100
AcDbEntity
8
1
62
256
6
ByLayer
370
18
48
1
60
0
100
AcDbEllipse
10
17.233061
20
1.413765
30
0
11
0.70000000000009
21
-1.21243556529816
31
0
210
0
220
0
230
1
40
0.989133
41
0.882462531094107
42
1.7464577639405
0
ELLIPSE
5
11A
100
AcDbEntity
8
1
62
256
6
ByLayer
370
18
48
1
60
0
100
AcDbEllipse
10
17.494082
20
1.564465
30
0
11
0.712500000000091
21
-1.23408620039277
31
0
210
0
220
0
230
1
40
0.989133
41
-2.48092818592865
42
-2.22053437741302
0
ELLIPSE
5
11B
100
AcDbEntity
8
1
62
256
6
ByLayer
370
18
48
1
60
0
100
AcDbEllipse
10
12.065178
20
2.954969
30
0
11
5.30084309946888
21
1.46665007238031
31
0
210
0
220
0
230
1
40
0.037276
41
1.92420033964144
42
2.3296195116547
0
ELLIPSE
5
11C
100
AcDbEntity
8
1
62
256
6
ByLayer
370
18
48
1
60
0
100
AcDbEllipse
10
33.942872
20
5.779777
30
0
11
-0.0281092230283657
21
2.93249433653935
31
0
210
0
220
0
230
1
40
0.796432
41
-1.85424013514122
42
-1.40453015910711
0
ELLIPSE
5
11D
100
AcDbEntity
8
1
62
256
6
ByLayer
370
18
48
1
60
0
100
AcDbEllipse
10
14.14454
20
-4.936099
30
0
11
-2.69292506735733
21
-4.04030709945307
31
0
210
0
220
0
230
1
40
0.562635
41
-0.546066031324479
42
0.571906642845218
0
ELLIPSE
5
11E
100
AcDbEntity
8
1
62
256
6
ByLayer
370
18
48
1
60
0
100
AcDbEllipse
10
33.942872
20
5.779777
30
0
11
-1.97443518714424
21
2.03125611198994
31
0
210
0
220
0
230
1
40
0.785786
41
-2.02322888373692
42
-1.57351890769387
0
ELLIPSE
5
11F
100
AcDbEntity
8
1
62
256
6
ByLayer
370
18
48
1
60
0
100
AcDbEllipse
10
11.120292
20
-6.237767
30
0
11
-2.68003116007109
21
2.25732512709701
31
0
210
0
220
0
230
1
40
0.994282
41
0.967245154810937
42
2.13947998552316
0
ELLIPSE
5
120
100
AcDbEntity
8
1
62
256
6
ByLayer
370
18
48
1
60
0
100
AcDbEllipse
10
8.258315
20
4.106139
30
0
11
-2.68003115997983
21
2.25732512720181
31
0
210
0
220
0
230
1
40
0.994282
41
-0.204989675861135
42
0.967245154851214
0
ELLIPSE
5
121
100
AcDbEntity
8
1
62
256
6
ByLayer
370
18
48
1
60
0
100
AcDbEllipse
10
13.664047
20
-2.82375
30
0
11
5.30084309946888
21
1.46665007238031
31
0
210
0
220
0
230
1
40
0.037276
41
1.92420033964146
42
2.32961951165472
0
ELLIPSE
5
122
100
AcDbEntity
8
1
62
256
6
ByLayer
370
18
48
1
60
0
100
AcDbEllipse
10
7.817669
20
-10.52787
30
0
11
6.74652758114221
21
1.86664554666585
31
0
210
0
220
0
230
1
40
0.037276
41
-0.836708533810402
42
-0.806029476653131
0
ELLIPSE
5
123
100
AcDbEntity
8
1
62
256
6
ByLayer
370
18
48
1
60
0
100
AcDbEllipse
10
11.282563
20
5.407808
30
0
11
-4.38745501958001
21
1.34439754964886
31
0
210
0
220
0
230
1
40
0.529564
41
-0.699306080710383
42
0.418666593460145
0
ELLIPSE
5
124
100
AcDbEntity
8
1
62
256
6
ByLayer
370
18
48
1
60
0
100
AcDbEllipse
10
11.792916
20
-15.935623
30
0
11
-0.830067170216565
21
4.01022069622004E-05
31
0
210
0
220
0
230
1
40
0.004209
41
-2.99762355091472
42
-1.42682722412124
0
ELLIPSE
5
125
100
AcDbEntity
8
1
62
256
6
ByLayer
370
18
48
1
60
0
100
AcDbEllipse
10
28.527593
20
-2.508532
30
0
11
-1.67523835646112
21
2.90159794817881
31
0
210
0
220
0
230
1
40
0.989133
41
2.53619062391327
42
-2.17619835647132
0
ELLIPSE
5
126
100
AcDbEntity
8
1
62
256
6
ByLayer
370
18
48
1
60
0
100
AcDbEllipse
10
28.230918
20
-2.482678
30
0
11
-1.67523835646112
21
2.90159794817881
31
0
210
0
220
0
230
1
40
0.989133
41
1.89145238763669
42
2.53619062391327
0
ELLIPSE
5
127
100
AcDbEntity
8
1
62
256
6
ByLayer
370
18
48
1
60
0
100
AcDbEllipse
10
40.442894
20
10.515204
30
0
11
-0.595500000000004
21
1.03143625590726
31
0
210
0
220
0
230
1
40
0.989133
41
-2.17619835647139
42
-0.779934954875892
0
ELLIPSE
5
128
100
AcDbEntity
8
1
62
256
6
ByLayer
370
18
48
1
60
0
100
AcDbEllipse
10
27.281097
20
14.041897
30
0
11
-0.595500000000004
21
1.03143625590726
31
0
210
0
220
0
230
1
40
0.989133
41
-0.77993495487591
42
0.965394297118414
0
ELLIPSE
5
129
100
AcDbEntity
8
1
62
256
6
ByLayer
370
18
48
1
60
0
100
AcDbEllipse
10
39.396726
20
-3.097764
30
0
11
-0.595500000000004
21
1.03143625590726
31
0
210
0
220
0
230
1
40
0.989133
41
2.36165769871388
42
-2.17619835647138
0
POINT
5
6C
100
AcDbEntity
8
2
62
256
6
ByLayer
370
18
48
1
60
0
100
AcDbPoint
10
41.624223
20
11.425
30
0
39
0
210
0
220
0
230
1
50
360
0
POINT
5
6E
100
AcDbEntity
8
80
62
256
6
ByLayer
370
18
48
1
60
0
100
AcDbPoint
10
0
20
0
30
0
39
0
210
0
220
0
230
1
50
360
0
POINT
5
70
100
AcDbEntity
8
81
62
256
6
ByLayer
370
18
48
1
60
0
100
AcDbPoint
10
41.624223
20
11.425
30
0
39
0
210
0
220
0
230
1
50
360
0
SPLINE
5
12A
100
AcDbEntity
8
1
62
256
6
ByLayer
370
18
48
1
60
0
100
AcDbSpline
70
4
71
3
72
8
73
4
40
0
40
0
40
0
40
0
40
1
40
1
40
1
40
1
41
1
10
7.0498995971293
20
7.39726167720178
30
0
41
1
10
6.73300346925845
20
7.26147436179397
30
0
41
1
10
6.40857145130002
20
7.0880357303881
30
0
41
1
10
6.09126200609518
20
6.85862268077435
30
0
0
SPLINE
5
12B
100
AcDbEntity
8
1
62
256
6
ByLayer
370
18
48
1
60
0
100
AcDbSpline
70
4
71
3
72
10
73
6
40
0
40
0
40
0
40
0
40
0.201157530231549
40
0.201157530231549
40
1
40
1
40
1
40
1
41
1
10
18.3438093923547
20
2.69197094460847
30
0
41
1
10
18.3449280485735
20
2.68824814147368
30
0
41
1
10
18.3461096642732
20
2.68450688769255
30
0
41
1
10
18.35229087588
20
2.66589695877647
30
0
41
1
10
18.3582848860827
20
2.65071266652203
30
0
41
1
10
18.3655834751432
20
2.63538711303804
30
0
0
SPLINE
5
12C
100
AcDbEntity
8
1
62
256
6
ByLayer
370
18
48
1
60
0
100
AcDbSpline
70
4
71
3
72
10
73
6
40
0
40
0
40
0
40
0
40
0.769561481283254
40
0.769561481283254
40
1
40
1
40
1
40
1
41
1
10
18.0473536244125
20
0.25152157377704
30
0
41
1
10
18.0314910828675
20
0.252302308400743
30
0
41
1
10
18.0150011293306
20
0.252586799671491
30
0
41
1
10
17.9928233068107
20
0.252113405716358
30
0
41
1
10
17.9876489232025
20
0.251945472589256
30
0
41
1
10
17.9824236546014
20
0.251714161742512
30
0
0
SPLINE
5
12D
100
AcDbEntity
8
1
62
256
6
ByLayer
370
18
48
1
60
0
100
AcDbSpline
70
4
71
3
72
10
73
6
40
0
40
0
40
0
40
0
40
0.201157530231694
40
0.201157530231694
40
1
40
1
40
1
40
1
41
1
10
16.6443536823264
20
0.436958936671942
30
0
41
1
10
16.6424164108768
20
0.440209112082954
30
0
41
1
10
16.640428826651
20
0.443485039718553
30
0
41
1
10
16.6303278671745
20
0.459831901146856
30
0
41
1
10
16.6214150055766
20
0.473330993762545
30
0
41
1
10
16.611552758832
20
0.487176418792586
30
0
0
SPLINE
5
12E
100
AcDbEntity
8
1
62
256
6
ByLayer
370
18
48
1
60
0
100
AcDbSpline
70
4
71
3
72
10
73
6
40
0
40
0
40
0
40
0
40
0.769561481283312
40
0.769561481283312
40
1
40
1
40
1
40
1
41
1
10
16.9408094502679
20
2.87740830750298
30
0
41
1
10
16.953553399799
20
2.87482705294056
30
0
41
1
10
16.9670992674364
20
2.87284279288326
30
0
41
1
10
16.985825588247
20
2.87132346139745
30
0
41
1
10
16.9902288495588
20
2.8710461868591
30
0
41
1
10
16.9947125793736
20
2.87084937008794
30
0
0
SPLINE
5
12F
100
AcDbEntity
8
1
62
256
6
ByLayer
370
18
48
1
60
0
100
AcDbSpline
70
4
71
3
72
10
73
6
40
0
40
0
40
0
40
0
40
0.276054056492017
40
0.276054056492017
40
1
40
1
40
1
40
1
41
1
10
16.4300950970675
20
0.667659345121734
30
0
41
1
10
16.4254707757801
20
0.67085714672325
30
0
41
1
10
16.4209003041256
20
0.673929616814434
30
0
41
1
10
16.4046187037803
20
0.684582385090977
30
0
41
1
10
16.3932171669864
20
0.691484888260419
30
0
41
1
10
16.3822086232631
20
0.697695832111208
30
0
0
SPLINE
5
130
100
AcDbEntity
8
1
62
256
6
ByLayer
370
18
48
1
60
0
100
AcDbSpline
70
4
71
3
72
10
73
6
40
0
40
0
40
0
40
0
40
0.230438518716849
40
0.230438518716849
40
1
40
1
40
1
40
1
41
1
10
17.2394125205864
20
2.93714371085076
30
0
41
1
10
17.2439696395387
20
2.93978988296701
30
0
41
1
10
17.2484480113999
20
2.94247337801028
30
0
41
1
10
17.2675042929255
20
2.95422880804915
30
0
41
1
10
17.2813158369207
20
2.96362476408058
30
0
41
1
10
17.2943182518216
20
2.97318124817761
30
0
0
SPLINE
5
131
100
AcDbEntity
8
1
62
256
6
ByLayer
370
18
48
1
60
0
100
AcDbSpline
70
4
71
3
72
10
73
6
40
0
40
0
40
0
40
0
40
0.537616842495289
40
0.537616842495289
40
1
40
1
40
1
40
1
41
1
10
16.1809395006662
20
2.04352129005656
30
0
41
1
10
16.1817192904054
20
2.05539121496514
30
0
41
1
10
16.1821957693485
20
2.06695152138084
30
0
41
1
10
16.182606155109
20
2.08781585306616
30
0
41
1
10
16.1826070779275
20
2.0972317748456
30
0
41
1
10
16.1824453377379
20
2.10641213964925
30
0
0
SPLINE
5
132
100
AcDbEntity
8
1
62
256
6
ByLayer
370
18
48
1
60
0
100
AcDbSpline
70
4
71
3
72
10
73
6
40
0
40
0
40
0
40
0
40
0.355593196477842
40
0.355593196477842
40
1
40
1
40
1
40
1
41
1
10
18.8970814794246
20
1.37902757775228
30
0
41
1
10
18.8924277336081
20
1.3732338682498
30
0
41
1
10
18.8878228940779
20
1.3672626112843
30
0
41
1
10
18.8750920439489
20
1.34998927636258
30
0
41
1
10
18.867089960502
20
1.33823047768445
30
0
41
1
10
18.8594390127566
20
1.32581950886484
30
0
0
SPLINE
5
133
100
AcDbEntity
8
1
62
256
6
ByLayer
370
18
48
1
60
0
100
AcDbSpline
70
4
71
3
72
10
73
6
40
0
40
0
40
0
40
0
40
0.276054056492448
40
0.276054056492448
40
1
40
1
40
1
40
1
41
1
10
18.5470411369072
20
2.45490418670866
30
0
41
1
10
18.5525557672878
20
2.45222040530166
30
0
41
1
10
18.5580592384104
20
2.4496866027045
30
0
41
1
10
18.5778368717917
20
2.44105227004246
30
0
41
1
10
18.592014637833
20
2.43575262357624
30
0
41
1
10
18.6059544514188
20
2.43123404916977
30
0
0
SPLINE
5
134
100
AcDbEntity
8
1
62
256
6
ByLayer
370
18
48
1
60
0
100
AcDbSpline
70
4
71
3
72
10
73
6
40
0
40
0
40
0
40
0
40
0.230438518716702
40
0.230438518716702
40
1
40
1
40
1
40
1
41
1
10
17.7377237133886
20
0.185419820979689
30
0
41
1
10
17.7339081332227
20
0.183201776481354
30
0
41
1
10
17.7302008836579
20
0.180963489103505
30
0
41
1
10
17.7145961038415
20
0.171200784505601
30
0
41
1
10
17.7037286457457
20
0.163504597260697
30
0
41
1
10
17.6938448228587
20
0.155748633102405
30
0
0
SPLINE
5
135
100
AcDbEntity
8
1
62
256
6
ByLayer
370
18
48
1
60
0
100
AcDbSpline
70
4
71
3
72
10
73
6
40
0
40
0
40
0
40
0
40
0.355593196477807
40
0.355593196477807
40
1
40
1
40
1
40
1
41
1
10
16.0910815952546
20
1.74990230352708
30
0
41
1
10
16.0942900428113
20
1.75486156969023
30
0
41
1
10
16.097488609858
20
1.76002091485881
30
0
41
1
10
16.1064115735921
20
1.77509576554539
30
0
41
1
10
16.1121143334652
20
1.78552704913926
30
0
41
1
10
16.1176972212186
20
1.79674402296578
30
0
0
SPLINE
5
136
100
AcDbEntity
8
1
62
256
6
ByLayer
370
18
48
1
60
0
100
AcDbSpline
70
4
71
3
72
10
73
6
40
0
40
0
40
0
40
0
40
0.537616842494955
40
0.537616842494955
40
1
40
1
40
1
40
1
41
1
10
18.7961967333089
20
1.07904224177401
30
0
41
1
10
18.7971443321817
20
1.06816962514552
30
0
41
1
10
18.7985565308803
20
1.05769974727471
30
0
41
1
10
18.8018708282208
20
1.03898586238043
30
0
41
1
10
18.803680363369
20
1.03061520899539
30
0
41
1
10
18.8057177369441
20
1.0225177416317
30
0
0
SPLINE
5
137
100
AcDbEntity
8
1
62
256
6
ByLayer
370
18
48
1
60
0
100
AcDbSpline
70
4
71
3
72
8
73
4
40
0
40
0
40
0
40
0
40
1
40
1
40
1
40
1
41
1
10
10.2806426701079
20
-6.49608733315705
30
0
41
1
10
10.9315867011982
20
-5.54008267317883
30
0
41
1
10
11.756136929354
20
-4.29954885516227
30
0
41
1
10
12.5889654735597
20
-3.00700182712347
30
0
0
SPLINE
5
138
100
AcDbEntity
8
1
62
256
6
ByLayer
370
18
48
1
60
0
100
AcDbSpline
70
4
71
3
72
8
73
4
40
0
40
0
40
0
40
0
40
1
40
1
40
1
40
1
41
1
10
17.0426096879802
20
6.687607401223
30
0
41
1
10
16.7629229815829
20
7.37458985189295
30
0
41
1
10
16.4995946871832
20
7.90231333577284
30
0
41
1
10
16.2826741996411
20
8.21055731568049
30
0
0
SPLINE
5
139
100
AcDbEntity
8
1
62
256
6
ByLayer
370
18
48
1
60
0
100
AcDbSpline
70
4
71
3
72
8
73
4
40
0
40
0
40
0
40
0
40
1
40
1
40
1
40
1
41
1
10
12.9418404305068
20
-3.01671355045008
30
0
41
1
10
12.0982000663293
20
-4.78617590328562
30
0
41
1
10
11.2159681860483
20
-6.52604179110196
30
0
41
1
10
10.6555122055116
20
-7.55860592567569
30
0
0
SPLINE
5
13A
100
AcDbEntity
8
1
62
256
6
ByLayer
370
18
48
1
60
0
100
AcDbSpline
70
4
71
3
72
8
73
4
40
0
40
0
40
0
40
0
40
1
40
1
40
1
40
1
41
1
10
10.9416043012396
20
2.94697674422949
30
0
41
1
10
9.56778400165234
20
3.61084733613816
30
0
41
1
10
8.23362179664571
20
4.20913562869308
30
0
41
1
10
7.20567807051913
20
4.61760991869471
30
0
0
SPLINE
5
13B
100
AcDbEntity
8
1
62
256
6
ByLayer
370
18
48
1
60
0
100
AcDbSpline
70
4
71
3
72
8
73
4
40
0
40
0
40
0
40
0
40
1
40
1
40
1
40
1
41
1
10
10.6626871485351
20
-7.60198758900668
30
0
41
1
10
10.6604057446662
20
-7.58776105578815
30
0
41
1
10
10.6580080167614
20
-7.57328365125946
30
0
41
1
10
10.6555122055113
20
-7.55860592567575
30
0
0
SPLINE
5
13C
100
AcDbEntity
8
1
62
256
6
ByLayer
370
18
48
1
60
0
100
AcDbSpline
70
4
71
3
72
12
73
8
40
0
40
0
40
0
40
0
40
0.500000000000009
40
0.500000000000009
40
0.750000000000004
40
0.750000000000004
40
1
40
1
40
1
40
1
41
1
10
32.100593257991
20
4.61258766959145
30
0
41
1
10
31.8337422142589
20
4.33905198746069
30
0
41
1
10
31.5687265148146
20
4.03824410415132
30
0
41
1
10
31.2414509001256
20
3.4472566287798
30
0
41
1
10
31.143291061181
20
3.21793525891746
30
0
41
1
10
31.0960959743944
20
2.79884014782292
30
0
41
1
10
31.1681458850378
20
2.65630617795921
30
0
41
1
10
31.2688337726752
20
2.5922261934827
30
0
0
SPLINE
5
13D
100
AcDbEntity
8
1
62
256
6
ByLayer
370
18
48
1
60
0
100
AcDbSpline
70
4
71
3
72
8
73
4
40
0
40
0
40
0
40
0
40
1
40
1
40
1
40
1
41
1
10
31.9946924519834
20
-0.788944811677595
30
0
41
1
10
31.8518131002754
20
-0.854746685419514
30
0
41
1
10
31.7072004093658
20
-0.916353415162689
30
0
41
1
10
31.5615442809459
20
-0.975058690534439
30
0
0
SPLINE
5
13E
100
AcDbEntity
8
1
62
256
6
ByLayer
370
18
48
1
60
0
100
AcDbSpline
70
4
71
2
72
6
73
3
40
0
40
0
40
0
40
1
40
1
40
1
41
0.943993462491077
10
19.7846746901545
20
-3.222906810906
30
0
41
0.955129619920243
10
19.9761878040805
20
-4.41069596268327
30
0
41
1.0258173342201
10
19.960753011809
20
-5.08294674363508
30
0
0
SPLINE
5
13F
100
AcDbEntity
8
1
62
256
6
ByLayer
370
18
48
1
60
0
100
AcDbSpline
70
4
71
3
72
8
73
4
40
0
40
0
40
0
40
0
40
1
40
1
40
1
40
1
41
1
10
12.9418404305068
20
-3.01671355045008
30
0
41
1
10
13.3148656719997
20
-3.0593928288958
30
0
41
1
10
13.6679215633005
20
-3.17941001298641
30
0
41
1
10
13.9733121191234
20
-3.36412838217552
30
0
0
SPLINE
5
140
100
AcDbEntity
8
1
62
256
6
ByLayer
370
18
48
1
60
0
100
AcDbSpline
70
4
71
3
72
10
73
6
40
0
40
0
40
0
40
0
40
0.5
40
0.5
40
1
40
1
40
1
40
1
41
1
10
23.5399176594049
20
1.84625407745332
30
0
41
1
10
23.5766490500569
20
0.714017853374543
30
0
41
1
10
23.1553628723817
20
-0.397750814995135
30
0
41
1
10
21.7993526664895
20
-2.18205612380183
30
0
41
1
10
20.8587037552266
20
-2.87962279108743
30
0
41
1
10
19.7846746792271
20
-3.22290674313288
30
0
0
SPLINE
5
141
100
AcDbEntity
8
1
62
256
6
ByLayer
370
18
48
1
60
0
100
AcDbSpline
70
4
71
3
72
10
73
6
40
0
40
0
40
0
40
0
40
0.5
40
0.5
40
1
40
1
40
1
40
1
41
1
10
17.0426096879802
20
6.687607401223
30
0
41
1
10
18.1413579401802
20
6.93443439630303
30
0
41
1
10
19.311479209997
20
6.8212260729822
30
0
41
1
10
21.3892238263117
20
6.00283287507702
30
0
41
1
10
22.3135471411399
20
5.28043949422116
30
0
41
1
10
22.8649697334432
20
4.2856860341337
30
0
0
SPLINE
5
142
100
AcDbEntity
8
1
62
256
6
ByLayer
370
18
48
1
60
0
100
AcDbSpline
70
4
71
3
72
11
73
7
40
0
40
0
40
0
40
0
40
0.425230898251466
40
0.744154071940066
40
0.956769521065799
40
1
40
1
40
1
40
1
41
1.0258173342201
10
16.2826741996411
20
8.21055731568047
30
0
41
1.02559001729416
10
17.4070031701117
20
8.40970380998222
30
0
41
1.0228008665691
10
21.4883903695093
20
8.33541881555592
30
0
41
1.01953314781965
10
27.2135682297221
20
7.56249263850969
30
0
41
1.01775466813745
10
29.1967279378069
20
7.27403052029931
30
0
41
1.01823166218985
10
29.8591683582684
20
7.28822458543794
30
0
41
1.01834276704992
10
29.9681156471203
20
7.29334940611635
30
0
0
SPLINE
5
143
100
AcDbEntity
8
1
62
256
6
ByLayer
370
18
48
1
60
0
100
AcDbSpline
70
4
71
3
72
10
73
6
40
0
40
0
40
0
40
0
40
0.914968234315961
40
0.914968234315961
40
1
40
1
40
1
40
1
41
1
10
31.7197231969004
20
5.98914808648365
30
0
41
1
10
32.1432033896078
20
5.8590347078738
30
0
41
1
10
32.5634223243044
20
5.73750019758015
30
0
41
1
10
33.0185576533186
20
5.61364720806677
30
0
41
1
10
33.0572342951738
20
5.60318930229352
30
0
41
1
10
33.0958751533323
20
5.5928102871809
30
0
0
SPLINE
5
144
100
AcDbEntity
8
1
62
256
6
ByLayer
370
18
48
1
60
0
100
AcDbSpline
70
4
71
3
72
8
73
4
40
0
40
0
40
0
40
0
40
1
40
1
40
1
40
1
41
1
10
10.9416043012396
20
2.94697674422949
30
0
41
1
10
10.695069856453
20
2.81096790324796
30
0
41
1
10
10.4368027577994
20
2.70782960282506
30
0
41
1
10
10.1792978489987
20
2.63275597112326
30
0
0
SPLINE
5
145
100
AcDbEntity
8
1
62
256
6
ByLayer
370
18
48
1
60
0
100
AcDbSpline
70
4
71
3
72
11
73
7
40
0
40
0
40
0
40
0
40
0.0598016998824448
40
0.468392215028713
40
0.740785891792891
40
1
40
1
40
1
40
1
41
1.0229825050537
10
22.8649697333621
20
4.28568603411594
30
0
41
1.02281639303114
10
23.1015286327038
20
4.33748394557879
30
0
41
1.02150796927553
10
24.9734287231746
20
4.74222231837327
30
0
41
1.01953314781965
10
28.0241278400346
20
5.3308940039586
30
0
41
1.01726237988674
10
30.2881338084577
20
5.6967033441072
30
0
41
1.01931548101018
10
31.125506635791
20
5.87946205034214
30
0
41
1.02052415826821
10
31.7197231969004
20
5.98914808648366
30
0
0
SPLINE
5
146
100
AcDbEntity
8
1
62
256
6
ByLayer
370
18
48
1
60
0
100
AcDbSpline
70
4
71
3
72
8
73
4
40
0
40
0
40
0
40
0
40
1
40
1
40
1
40
1
41
1
10
11.9526544497945
20
3.93903783624441
30
0
41
1
10
12.5217934052899
20
4.9601406633083
30
0
41
1
10
13.4908983856538
20
5.73038909478916
30
0
41
1
10
14.726758995533
20
6.06520962641906
30
0
0
SPLINE
5
147
100
AcDbEntity
8
1
62
256
6
ByLayer
370
18
48
1
60
0
100
AcDbSpline
70
4
71
3
72
8
73
4
40
0
40
0
40
0
40
0
40
1
40
1
40
1
40
1
41
1
10
12.38889722089
20
-9.46409841948937
30
0
41
1
10
11.8900895800795
20
-9.62034096235331
30
0
41
1
10
11.3080773893205
20
-9.73374239602032
30
0
41
1
10
10.6723817718692
20
-9.69869903866748
30
0
0
SPLINE
5
148
100
AcDbEntity
8
1
62
256
6
ByLayer
370
18
48
1
60
0
100
AcDbSpline
70
4
71
3
72
12
73
8
40
0
40
0
40
0
40
0
40
0.274077856982879
40
0.274077856982879
40
0.548155363965176
40
0.548155363965176
40
1
40
1
40
1
40
1
41
1
10
22.8649697334431
20
4.2856860341337
30
0
41
1
10
22.9782712633467
20
4.08126708898777
30
0
41
1
10
23.0785574499996
20
3.86883354391145
30
0
41
1
10
23.2504624178599
20
3.43382838527708
30
0
41
1
10
23.3224754426801
20
3.21026023200506
30
0
41
1
10
23.4733383002899
20
2.61167261360785
30
0
41
1
10
23.5275195552579
20
2.22783378642327
30
0
41
1
10
23.539917659405
20
1.84625407745335
30
0
0
SPLINE
5
149
100
AcDbEntity
8
1
62
256
6
ByLayer
370
18
48
1
60
0
100
AcDbSpline
70
4
71
3
72
14
73
10
40
0
40
0
40
0
40
0
40
0.0560617400824578
40
0.0560617400824578
40
0.432699965147824
40
0.432699965147824
40
0.81134530467092
40
0.81134530467092
40
1
40
1
40
1
40
1
41
1
10
35.5443738170672
20
7.32572357958151
30
0
41
1
10
35.5166266688297
20
7.35083099604046
30
0
41
1
10
35.4884892842932
20
7.37575481514199
30
0
41
1
10
35.2703376687968
20
7.56479801835286
30
0
41
1
10
35.0607699604184
20
7.72152344605681
30
0
41
1
10
34.6305793277598
20
7.99015965510426
30
0
41
1
10
34.4040810644775
20
8.10517407482675
30
0
41
1
10
34.0793750651167
20
8.23279060245963
30
0
41
1
10
33.9720897566071
20
8.26864559460694
30
0
41
1
10
33.8682651931532
20
8.29742996117383
30
0
0
SPLINE
5
14A
100
AcDbEntity
8
1
62
256
6
ByLayer
370
18
48
1
60
0
100
AcDbSpline
70
4
71
3
72
8
73
4
40
0
40
0
40
0
40
0
40
1
40
1
40
1
40
1
41
1
10
10.1403656617442
20
-6.12221871301247
30
0
41
1
10
10.1768401310185
20
-6.25404664006913
30
0
41
1
10
10.2241493002829
20
-6.37822100637581
30
0
41
1
10
10.2806426701079
20
-6.49608733315705
30
0
0
SPLINE
5
14B
100
AcDbEntity
8
1
62
256
6
ByLayer
370
18
48
1
60
0
100
AcDbSpline
70
4
71
3
72
10
73
6
40
0
40
0
40
0
40
0
40
0.300434803509635
40
0.926576302243943
40
1
40
1
40
1
40
1
41
1.01906281214953
10
31.9946978896089
20
-0.788939414734804
30
0
41
1.01951662816455
10
32.2196961135013
20
-0.565624480999583
30
0
41
1.02128725997138
10
32.9475247727454
20
0.189186998740192
30
0
41
1.02366220434836
10
34.1433561801856
20
1.56076534190145
30
0
41
1.02527232143637
10
34.8024535766275
20
2.44165587943868
30
0
41
1.02543997666398
10
34.8696510634082
20
2.53300528369261
30
0
0
SPLINE
5
14C
100
AcDbEntity
8
1
62
256
6
ByLayer
370
18
48
1
60
0
100
AcDbSpline
70
4
71
3
72
8
73
4
40
0
40
0
40
0
40
0
40
1
40
1
40
1
40
1
41
1
10
12.5889654735597
20
-3.00700182712347
30
0
41
1
10
12.3086779416331
20
-3.02101850213381
30
0
41
1
10
12.0356726612004
20
-3.07088929815774
30
0
41
1
10
11.7781677523997
20
-3.14596292985951
30
0
0
SPLINE
5
14D
100
AcDbEntity
8
1
62
256
6
ByLayer
370
18
48
1
60
0
100
AcDbSpline
70
4
71
3
72
11
73
7
40
0
40
0
40
0
40
0
40
0.425230898249523
40
0.744154071936665
40
0.956769521061427
40
1
40
1
40
1
40
1
41
1.0258173342201
10
19.960753011809
20
-5.08294674363508
30
0
41
1.02559001729416
10
21.0290415251765
20
-4.68125590937494
30
0
41
1.0228008665691
10
24.4896339297409
20
-2.5118320143196
30
0
41
1.01953314781965
10
29.0227603857463
20
1.02361609521228
30
0
41
1.01775466813744
10
30.589357732982
20
2.24071536302622
30
0
41
1.01823166218986
10
31.1715793877421
20
2.54484027026828
30
0
41
1.01834276704995
10
31.2688337726752
20
2.59222619348273
30
0
0
SPLINE
5
14E
100
AcDbEntity
8
1
62
256
6
ByLayer
370
18
48
1
60
0
100
AcDbSpline
70
4
71
3
72
8
73
4
40
0
40
0
40
0
40
0
40
1
40
1
40
1
40
1
41
1
10
6.99894510296298
20
5.65714939204358
30
0
41
1
10
7.98060771102183
20
5.17516302107234
30
0
41
1
10
9.60978659590597
20
4.20160715111535
30
0
41
1
10
11.2394066820958
20
3.13631119451827
30
0
0
SPLINE
5
14F
100
AcDbEntity
8
1
62
256
6
ByLayer
370
18
48
1
60
0
100
AcDbSpline
70
4
71
3
72
10
73
6
40
0
40
0
40
0
40
0
40
0.5
40
0.5
40
1
40
1
40
1
40
1
41
1
10
33.1380222257371
20
8.78142918622422
30
0
41
1
10
32.2341269553953
20
8.94974008085785
30
0
41
1
10
31.5963656109812
20
8.75738689643532
30
0
41
1
10
30.5769974094443
20
8.19859096081726
30
0
41
1
10
30.2621022770839
20
7.74888455130665
30
0
41
1
10
29.9681156471203
20
7.29334940611636
30
0
0
SPLINE
5
150
100
AcDbEntity
8
1
62
256
6
ByLayer
370
18
48
1
60
0
100
AcDbSpline
70
4
71
3
72
10
73
6
40
0
40
0
40
0
40
0
40
0.731297369966808
40
0.731297369966808
40
1
40
1
40
1
40
1
41
1
10
12.5889654735597
20
-3.00700182712347
30
0
41
1
10
12.6733618643344
20
-3.00278131551741
30
0
41
1
10
12.7616862994798
20
-3.00280145660406
30
0
41
1
10
12.8791585748463
20
-3.0103623626309
30
0
41
1
10
12.9108264812928
20
-3.01316512308654
30
0
41
1
10
12.9418404305068
20
-3.01671355045011
30
0
0
SPLINE
5
151
100
AcDbEntity
8
1
62
256
6
ByLayer
370
18
48
1
60
0
100
AcDbSpline
70
4
71
3
72
8
73
4
40
0
40
0
40
0
40
0
40
1
40
1
40
1
40
1
41
1
10
15.1888658457049
20
9.76485882077981
30
0
41
1
10
18.8020565661434
20
10.7205707137854
30
0
41
1
10
22.5392280101547
20
10.7989692287541
30
0
41
1
10
26.2313025048712
20
10.2598341194063
30
0
0
SPLINE
5
152
100
AcDbEntity
8
1
62
256
6
ByLayer
370
18
48
1
60
0
100
AcDbSpline
70
4
71
3
72
10
73
6
40
0
40
0
40
0
40
0
40
0.579529299651683
40
0.579529299651683
40
1
40
1
40
1
40
1
41
1
10
29.6671089474266
20
-2.15803652002481
30
0
41
1
10
30.0317027774659
20
-1.86569970902826
30
0
41
1
10
30.4093716977135
20
-1.5939366562464
30
0
41
1
10
31.0435442831682
20
-1.21137788351481
30
0
41
1
10
31.3105425961733
20
-1.07622246018292
30
0
41
1
10
31.5615442809459
20
-0.975058690534468
30
0
0
SPLINE
5
153
100
AcDbEntity
8
1
62
256
6
ByLayer
370
18
48
1
60
0
100
AcDbSpline
70
4
71
3
72
8
73
4
40
0
40
0
40
0
40
0
40
1
40
1
40
1
40
1
41
1
10
19.7846746792271
20
-3.22290674313288
30
0
41
1
10
19.7130137650203
20
-3.2458511701129
30
0
41
1
10
19.6407832015575
20
-3.26721633497604
30
0
41
1
10
19.5679628090371
20
-3.28694490496383
30
0
0
SPLINE
5
154
100
AcDbEntity
8
1
62
256
6
ByLayer
370
18
48
1
60
0
100
AcDbSpline
70
4
71
3
72
8
73
4
40
0
40
0
40
0
40
0
40
1
40
1
40
1
40
1
41
1
10
11.9526544497945
20
3.93903783624444
30
0
41
1
10
11.7820424895015
20
3.63293973260241
30
0
41
1
10
11.535714547168
20
3.35529199108677
30
0
41
1
10
11.2394066820958
20
3.1363111945183
30
0
0
SPLINE
5
155
100
AcDbEntity
8
1
62
256
6
ByLayer
370
18
48
1
60
0
100
AcDbSpline
70
4
71
3
72
8
73
4
40
0
40
0
40
0
40
0
40
1
40
1
40
1
40
1
41
1
10
28.4826116363764
20
10.1529800762093
30
0
41
1
10
27.8302192364465
20
10.087986995202
30
0
41
1
10
27.042590889064
20
10.1413657482101
30
0
41
1
10
26.2313025048712
20
10.2598341194063
30
0
0
SPLINE
5
156
100
AcDbEntity
8
1
62
256
6
ByLayer
370
18
48
1
60
0
100
AcDbSpline
70
4
71
1
72
4
73
2
40
0
40
0
40
1
40
1
41
1
10
16.2826741996411
20
8.21055731568049
30
0
41
1
10
15.1888658457049
20
9.76485882077981
30
0
0
SPLINE
5
157
100
AcDbEntity
8
1
62
256
6
ByLayer
370
18
48
1
60
0
100
AcDbSpline
70
4
71
3
72
10
73
6
40
0
40
0
40
0
40
0
40
0.0734657164133868
40
0.699676314776438
40
1
40
1
40
1
40
1
41
1.02544020896672
10
33.1413419848642
20
8.7800130078773
30
0
41
1.02527247753992
10
33.0364450457759
20
8.82477177373417
30
0
41
1.02366228488755
10
32.015765234309
20
9.25060801372697
30
0
41
1.02128760257541
10
30.2808436909966
20
9.82806794824952
30
0
41
1.01951717951064
10
29.2660266106825
20
10.110737718724
30
0
41
1.01906346594983
10
28.9575781624627
20
10.1894707249196
30
0
0
SPLINE
5
158
100
AcDbEntity
8
1
62
256
6
ByLayer
370
18
48
1
60
0
100
AcDbSpline
70
4
71
3
72
8
73
4
40
0
40
0
40
0
40
0
40
1
40
1
40
1
40
1
41
1
10
28.4826116363765
20
10.1529800762093
30
0
41
1
10
28.6401676331895
20
10.168676227276
30
0
41
1
10
28.7983163549141
20
10.1813603292516
30
0
41
1
10
28.957125991244
20
10.189586138386
30
0
0
SPLINE
5
159
100
AcDbEntity
8
1
62
256
6
ByLayer
370
18
48
1
60
0
100
AcDbSpline
70
4
71
3
72
8
73
4
40
0
40
0
40
0
40
0
40
1
40
1
40
1
40
1
41
1
10
17.0426096881326
20
6.68760740125762
30
0
41
1
10
16.9688610111866
20
6.67096563480121
30
0
41
1
10
16.895734260072
20
6.6528304676045
30
0
41
1
10
16.8232361415321
20
6.63318920838992
30
0
0
SPLINE
5
15A
100
AcDbEntity
8
1
62
256
6
ByLayer
370
18
48
1
60
0
100
AcDbSpline
70
4
71
3
72
10
73
6
40
0
40
0
40
0
40
0
40
0.311681797709787
40
0.311681797709787
40
1
40
1
40
1
40
1
41
1
10
33.0958751533511
20
5.59281028717595
30
0
41
1
10
32.9919615248026
20
5.49459580808247
30
0
41
1
10
32.888198134094
20
5.39515373717154
30
0
41
1
10
32.5558006333611
20
5.07260272801403
30
0
41
1
10
32.3276791063822
20
4.84544614057091
30
0
41
1
10
32.100593257991
20
4.61258766959145
30
0
0
SPLINE
5
15B
100
AcDbEntity
8
1
62
256
6
ByLayer
370
18
48
1
60
0
100
AcDbSpline
70
4
71
3
72
14
73
10
40
0
40
0
40
0
40
0
40
0.264998964150959
40
0.264998964150959
40
0.633007150607461
40
0.633007150607461
40
0.984533813617862
40
0.984533813617862
40
1
40
1
40
1
40
1
41
1
10
35.2468647866834
20
3.31482348951852
30
0
41
1
10
35.3526555844953
20
3.4166677271418
30
0
41
1
10
35.4571180212121
20
3.53521198359309
30
0
41
1
10
35.6915208897079
20
3.84899388707564
30
0
41
1
10
35.8186903374983
20
4.06118304591541
30
0
41
1
10
36.0285015574766
20
4.49723866601809
30
0
41
1
10
36.1155524383839
20
4.7250793913949
30
0
41
1
10
36.1870879894475
20
4.96107149255161
30
0
41
1
10
36.1900977890439
20
4.97111428309816
30
0
41
1
10
36.1930738274355
20
4.98115820686942
30
0
0
SPLINE
5
15C
100
AcDbEntity
8
1
62
256
6
ByLayer
370
18
48
1
60
0
100
AcDbSpline
70
4
71
3
72
10
73
6
40
0
40
0
40
0
40
0
40
0.5
40
0.5
40
1
40
1
40
1
40
1
41
1
10
29.6671089474266
20
-2.15803652002481
30
0
41
1
10
28.2219367929354
20
-3.31679726740057
30
0
41
1
10
26.6902119627027
20
-4.33499912477194
30
0
41
1
10
23.4393572688666
20
-6.06706281482897
30
0
41
1
10
21.710366997644
20
-6.79874917210432
30
0
41
1
10
19.9098928489453
20
-7.2981229250417
30
0
0
SPLINE
5
15D
100
AcDbEntity
8
1
62
256
6
ByLayer
370
18
48
1
60
0
100
AcDbSpline
70
4
71
3
72
10
73
6
40
0
40
0
40
0
40
0
40
0.731096563947344
40
0.731096563947344
40
1
40
1
40
1
40
1
41
1
10
11.2394066820958
20
3.13631119451827
30
0
41
1
10
11.1724109596767
20
3.0867992564587
30
0
41
1
10
11.0983487191135
20
3.03820615413784
30
0
41
1
10
10.9969429699344
20
2.97804431013685
30
0
41
1
10
10.9692301236968
20
2.96221743847337
30
0
41
1
10
10.9416043012396
20
2.94697674422949
30
0
0
SPLINE
5
15E
100
AcDbEntity
8
1
62
256
6
ByLayer
370
18
48
1
60
0
100
AcDbSpline
70
4
71
3
72
10
73
6
40
0
40
0
40
0
40
0
40
0.5
40
0.5
40
1
40
1
40
1
40
1
41
1
10
31.2688337726752
20
2.5922261934827
30
0
41
1
10
31.7751907736798
20
2.27977037032221
30
0
41
1
10
32.2974994653554
20
1.98186576196812
30
0
41
1
10
33.497061542837
20
1.88437803979389
30
0
41
1
10
34.1647670533944
20
1.97604642310733
30
0
41
1
10
34.8676164014444
20
2.53023981318842
30
0
0
SPLINE
5
15F
100
AcDbEntity
8
1
62
256
6
ByLayer
370
18
48
1
60
0
100
AcDbSpline
70
4
71
3
72
20
73
16
40
0
40
0
40
0
40
0
40
0.118962056339778
40
0.118962056339778
40
0.191173230286444
40
0.191173230286444
40
0.263712164126317
40
0.263712164126317
40
0.333306822588757
40
0.333306822588757
40
0.451479822004408
40
0.451479822004408
40
0.654414534009064
40
0.654414534009064
40
1
40
1
40
1
40
1
41
1
10
29.9681156471203
20
7.29334940611636
30
0
41
1
10
29.9413197352092
20
7.25038759342306
30
0
41
1
10
29.9255267746731
20
7.19827172565638
30
0
41
1
10
29.9355192757467
20
7.09846587189034
30
0
41
1
10
29.9479328906081
20
7.05605755902906
30
0
41
1
10
29.9916946328041
20
6.96736757210908
30
0
41
1
10
30.0237248228831
20
6.91999935263155
30
0
41
1
10
30.0995355490359
20
6.82954018916425
30
0
41
1
10
30.1434401267481
20
6.78535532504233
30
0
41
1
10
30.2693820652993
20
6.67289209435802
30
0
41
1
10
30.35864871066
20
6.60699756985224
30
0
41
1
10
30.6034070766867
20
6.44648976305825
30
0
41
1
10
30.7658800451833
20
6.36084563447625
30
0
41
1
10
31.194371505778
20
6.1625418301829
30
0
41
1
10
31.4613777525305
20
6.068479413951
30
0
41
1
10
31.7197231969005
20
5.98914808648365
30
0
0
SPLINE
5
160
100
AcDbEntity
8
1
62
256
6
ByLayer
370
18
48
1
60
0
100
AcDbSpline
70
4
71
3
72
16
73
12
40
0
40
0
40
0
40
0
40
0.474320436274421
40
0.474320436274421
40
0.658954025821057
40
0.658954025821057
40
0.84550400404177
40
0.84550400404177
40
0.957858191960714
40
0.957858191960714
40
1
40
1
40
1
40
1
41
1
10
10.6555122055116
20
-7.55860592567569
30
0
41
1
10
10.6377248245051
20
-7.45399933843535
30
0
41
1
10
10.6012870257383
20
-7.32409421207976
30
0
41
1
10
10.5228460760035
20
-7.09772235597106
30
0
41
1
10
10.4974072961302
20
-7.02787744617766
30
0
41
1
10
10.4406310934414
20
-6.87759410903413
30
0
41
1
10
10.408703452385
20
-6.79535502887714
30
0
41
1
10
10.3530733088334
20
-6.65903293085995
30
0
41
1
10
10.3306461077081
20
-6.60558314790237
30
0
41
1
10
10.2986479779594
20
-6.53437239180087
30
0
41
1
10
10.2896799932585
20
-6.51494257381626
30
0
41
1
10
10.2806426701079
20
-6.49608733315705
30
0
0
SPLINE
5
161
100
AcDbEntity
8
1
62
256
6
ByLayer
370
18
48
1
60
0
100
AcDbSpline
70
4
71
2
72
6
73
3
40
0
40
0
40
0
40
1
40
1
40
1
41
1.0258173342201
10
19.960753011809
20
-5.08294674363508
30
0
41
1.0258173342201
10
19.9353229303772
20
-6.19053483433837
30
0
41
1.0258173342201
10
19.9098928489454
20
-7.29812292504169
30
0
0
SPLINE
5
162
100
AcDbEntity
8
1
62
256
6
ByLayer
370
18
48
1
60
0
100
AcDbSpline
70
4
71
3
72
16
73
12
40
0
40
0
40
0
40
0
40
0.107738294188995
40
0.107738294188995
40
0.260376815889415
40
0.260376815889415
40
0.501548994683955
40
0.501548994683955
40
0.879664328740044
40
0.879664328740044
40
1
40
1
40
1
40
1
41
1
10
7.20567807051913
20
4.61760991869471
30
0
41
1
10
7.20056126620904
20
4.67093418332365
30
0
41
1
10
7.19342967434454
20
4.72649700965192
30
0
41
1
10
7.17539400942968
20
4.8545032364207
30
0
41
1
10
7.16381365200533
20
4.92715932183751
30
0
41
1
10
7.13515054889791
20
5.09939176980478
30
0
41
1
10
7.11802139093868
20
5.19417336283854
30
0
41
1
10
7.07605785555489
20
5.40495313922983
30
0
41
1
10
7.05108866446363
20
5.50716313680147
30
0
41
1
10
7.01635597836321
20
5.6122982023598
30
0
41
1
10
7.00774691294907
20
5.63570323672937
30
0
41
1
10
6.99894510296656
20
5.65714939205603
30
0
0
SPLINE
5
163
100
AcDbEntity
8
1
62
256
6
ByLayer
370
18
48
1
60
0
100
AcDbSpline
70
4
71
3
72
8
73
4
40
0
40
0
40
0
40
0
40
1
40
1
40
1
40
1
41
1
10
17.4714856630381
20
-3.85492448693472
30
0
41
1
10
16.2492683598431
20
-4.18604876094412
30
0
41
1
10
14.9933926416577
20
-3.98113374455934
30
0
41
1
10
13.9733121191234
20
-3.36412838217549
30
0
0
SPLINE
5
164
100
AcDbEntity
8
1
62
256
6
ByLayer
370
18
48
1
60
0
100
AcDbSpline
70
4
71
3
72
11
73
7
40
0
40
0
40
0
40
0
40
0.0598016998855069
40
0.468392215040458
40
0.740785891810426
40
1
40
1
40
1
40
1
41
1.02298250505371
10
23.5399176593254
20
1.8462540774286
30
0
41
1.02281639303115
10
23.7709463890661
20
1.91803941599436
30
0
41
1.02150796927554
10
25.5969906612469
20
2.48851227621636
30
0
41
1.01953314781965
10
28.5443180736013
20
3.45079536152734
30
0
41
1.0172623798868
10
30.7021235710427
20
4.20043997640317
30
0
41
1.01931548101
10
31.5256890280379
20
4.43310199972899
30
0
41
1.02052415826788
10
32.1005932578215
20
4.61258766953848
30
0
0
SPLINE
5
165
100
AcDbEntity
8
1
62
256
6
ByLayer
370
18
48
1
60
0
100
AcDbSpline
70
4
71
3
72
8
73
4
40
0
40
0
40
0
40
0
40
1
40
1
40
1
40
1
41
1
10
6.99894510296298
20
5.65714939204358
30
0
41
1
10
6.99413827205211
20
5.66886153335841
30
0
41
1
10
6.98936254629103
20
5.68031796224278
30
0
41
1
10
6.9846083363671
20
5.69151647030887
30
0
0
SPLINE
5
166
100
AcDbEntity
8
1
62
256
6
ByLayer
370
18
48
1
60
0
100
AcDbSpline
70
4
71
3
72
8
73
4
40
0
40
0
40
0
40
0
40
1
40
1
40
1
40
1
41
1
10
7.27838853465636
20
4.22168811974674
30
0
41
1
10
7.24191406538199
20
4.35351604680341
30
0
41
1
10
7.21835811718785
20
4.48546607986663
30
0
41
1
10
7.20567807051918
20
4.61760991869471
30
0
0
LINE
5
72
100
AcDbEntity
8
1
62
256
6
ByLayer
370
18
48
1
60
0
100
AcDbLine
10
7.937061
20
7.778295
30
0
11
7.047727
21
7.395517
31
0
39
0
210
0
220
0
230
1
0
LINE
5
74
100
AcDbEntity
8
1
62
256
6
ByLayer
370
18
48
1
60
0
100
AcDbLine
10
19.612101
20
-2.986199
30
0
11
19.821637
21
-2.865223
31
0
39
0
210
0
220
0
230
1
0
LINE
5
75
100
AcDbEntity
8
1
62
256
6
ByLayer
370
18
48
1
60
0
100
AcDbLine
10
14.821637
20
5.795031
30
0
11
14.614481
21
5.675429
31
0
39
0
210
0
220
0
230
1
0
LINE
5
76
100
AcDbEntity
8
1
62
256
6
ByLayer
370
18
48
1
60
0
100
AcDbLine
10
26.685597
20
15.073333
30
0
11
26.093667
21
14.731582
31
0
39
0
210
0
220
0
230
1
0
LINE
5
77
100
AcDbEntity
8
1
62
256
6
ByLayer
370
18
48
1
60
0
100
AcDbLine
10
39.570491
20
-4.372689
30
0
11
39.992226
21
-4.1292
31
0
39
0
210
0
220
0
230
1
0
LINE
5
78
100
AcDbEntity
8
1
62
256
6
ByLayer
370
18
48
1
60
0
100
AcDbLine
10
15.80056
20
1.533895
30
0
11
15.940536
21
1.614711
31
0
39
0
210
0
220
0
230
1
0
LINE
5
79
100
AcDbEntity
8
1
62
256
6
ByLayer
370
18
48
1
60
0
100
AcDbLine
10
19.047627
20
1.514219
30
0
11
18.786607
21
1.363519
31
0
39
0
210
0
220
0
230
1
0
LINE
5
7A
100
AcDbEntity
8
1
62
256
6
ByLayer
370
18
48
1
60
0
100
AcDbLine
10
10.217343
20
2.61685
30
0
11
10.624206
21
2.791969
31
0
39
0
210
0
220
0
230
1
0
LINE
5
7B
100
AcDbEntity
8
80
62
256
6
ByLayer
370
18
48
1
60
0
100
AcDbLine
10
0
20
0
30
0
11
-5
21
0
31
0
39
0
210
0
220
0
230
1
0
LINE
5
7C
100
AcDbEntity
8
81
62
256
6
ByLayer
370
18
48
1
60
0
100
AcDbLine
10
41.624223
20
11.425
30
0
11
51.624223
21
11.425
31
0
39
0
210
0
220
0
230
1
0
LINE
5
7D
100
AcDbEntity
8
1
62
256
6
ByLayer
370
18
48
1
60
0
100
AcDbLine
10
16.665796
20
-15.611694
30
0
11
14.758057
21
-8.716645
31
0
39
0
210
0
220
0
230
1
0
LINE
5
7E
100
AcDbEntity
8
1
62
256
6
ByLayer
370
18
48
1
60
0
100
AcDbLine
10
10.028228
20
8.37815
30
0
11
7.849603
21
16.252248
31
0
39
0
210
0
220
0
230
1
0
LINE
5
7F
100
AcDbEntity
8
1
62
256
6
ByLayer
370
18
48
1
60
0
100
AcDbLine
10
25.656347
20
10.31997
30
0
11
26.008676
21
14.904551
31
0
39
0
210
0
220
0
230
1
0
LINE
5
80
100
AcDbEntity
8
1
62
256
6
ByLayer
370
18
48
1
60
0
100
AcDbLine
10
12.644168
20
-15.936027
30
0
11
10.919757
21
-9.703572
31
0
39
0
210
0
220
0
230
1
0
LINE
5
81
100
AcDbEntity
8
1
62
256
6
ByLayer
370
18
48
1
60
0
100
AcDbLine
10
6.298554
20
6.998622
30
0
11
3.738238
21
16.252248
31
0
39
0
210
0
220
0
230
1
0
LINE
5
82
100
AcDbEntity
8
1
62
256
6
ByLayer
370
18
48
1
60
0
100
AcDbLine
10
26.100104
20
14.815476
30
0
11
25.753854
21
10.309992
31
0
39
0
210
0
220
0
230
1
0
LINE
5
83
100
AcDbEntity
8
1
62
256
6
ByLayer
370
18
48
1
60
0
100
AcDbLine
10
11.673824
20
-15.932159
30
0
11
9.894522
21
-9.501312
31
0
39
0
210
0
220
0
230
1
0
LINE
5
84
100
AcDbEntity
8
1
62
256
6
ByLayer
370
18
48
1
60
0
100
AcDbLine
10
5.523488
20
6.296706
30
0
11
2.768965
21
16.252248
31
0
39
0
210
0
220
0
230
1
0
LINE
5
85
100
AcDbEntity
8
1
62
256
6
ByLayer
370
18
48
1
60
0
100
AcDbLine
10
30.898404
20
-3.013919
30
0
11
31.662475
21
-2.437096
31
0
39
0
210
0
220
0
230
1
0
LINE
5
86
100
AcDbEntity
8
1
62
256
6
ByLayer
370
18
48
1
60
0
100
AcDbLine
10
31.810915
20
-2.339114
30
0
11
31.866468
21
-2.465069
31
0
39
0
210
0
220
0
230
1
0
LINE
5
87
100
AcDbEntity
8
1
62
256
6
ByLayer
370
18
48
1
60
0
100
AcDbLine
10
39.375401
20
-4.321336
30
0
11
39.724548
21
-4.413259
31
0
39
0
210
0
220
0
230
1
0
LINE
5
88
100
AcDbEntity
8
1
62
256
6
ByLayer
370
18
48
1
60
0
100
AcDbLine
10
12.614395
20
-15.935161
30
0
11
10.890031
21
-9.702874
31
0
39
0
210
0
220
0
230
1
0
LINE
5
89
100
AcDbEntity
8
1
62
256
6
ByLayer
370
18
48
1
60
0
100
AcDbLine
10
6.273683
20
6.981771
30
0
11
3.708705
21
16.252248
31
0
39
0
210
0
220
0
230
1
0
LINE
5
8A
100
AcDbEntity
8
1
62
256
6
ByLayer
370
18
48
1
60
0
100
AcDbLine
10
30.897174
20
-2.984171
30
0
11
30.927391
21
-2.992127
31
0
39
0
210
0
220
0
230
1
0
LINE
5
8B
100
AcDbEntity
8
1
62
256
6
ByLayer
370
18
48
1
60
0
100
AcDbLine
10
30.202589
20
-3.741717
30
0
11
30.244151
21
-3.200903
31
0
39
0
210
0
220
0
230
1
0
LINE
5
8C
100
AcDbEntity
8
1
62
256
6
ByLayer
370
18
48
1
60
0
100
AcDbLine
10
30.268225
20
-3.207346
30
0
11
30.399516
21
-3.359871
31
0
39
0
210
0
220
0
230
1
0
LINE
5
8D
100
AcDbEntity
8
1
62
256
6
ByLayer
370
18
48
1
60
0
100
AcDbLine
10
15.816969
20
1.546378
30
0
11
15.895569
21
1.591757
31
0
39
0
210
0
220
0
230
1
0
LINE
5
8E
100
AcDbEntity
8
1
62
256
6
ByLayer
370
18
48
1
60
0
100
AcDbLine
10
19.612101
20
-2.986199
30
0
11
19.612396
21
-2.986028
31
0
39
0
210
0
220
0
230
1
0
LINE
5
8F
100
AcDbEntity
8
1
62
256
6
ByLayer
370
18
48
1
60
0
100
AcDbLine
10
30.097096
20
-1.832268
30
0
11
39.102645
21
-4.245298
31
0
39
0
210
0
220
0
230
1
0
LINE
5
90
100
AcDbEntity
8
1
62
256
6
ByLayer
370
18
48
1
60
0
100
AcDbLine
10
26.103296
20
14.144537
30
0
11
25.808163
21
10.304191
31
0
39
0
210
0
220
0
230
1
0
LINE
5
91
100
AcDbEntity
8
1
62
256
6
ByLayer
370
18
48
1
60
0
100
AcDbLine
10
26.103296
20
14.144537
30
0
11
26.045992
21
14.111452
31
0
39
0
210
0
220
0
230
1
0
LINE
5
92
100
AcDbEntity
8
1
62
256
6
ByLayer
370
18
48
1
60
0
100
AcDbLine
10
39.060879
20
-4.269411
30
0
11
39.102645
21
-4.245298
31
0
39
0
210
0
220
0
230
1
0
LINE
5
93
100
AcDbEntity
8
1
62
256
6
ByLayer
370
18
48
1
60
0
100
AcDbLine
10
29.427592
20
-2.336322
30
0
11
31.175643
21
-2.804711
31
0
39
0
210
0
220
0
230
1
0
LINE
5
94
100
AcDbEntity
8
1
62
256
6
ByLayer
370
18
48
1
60
0
100
AcDbLine
10
31.175692
20
-2.804724
30
0
11
29.427592
21
-2.336322
31
0
39
0
210
0
220
0
230
1
0
LINE
5
95
100
AcDbEntity
8
1
62
256
6
ByLayer
370
18
48
1
60
0
100
AcDbLine
10
28.789254
20
-2.811056
30
0
11
30.51432
21
-3.273286
31
0
39
0
210
0
220
0
230
1
0
LINE
5
96
100
AcDbEntity
8
1
62
256
6
ByLayer
370
18
48
1
60
0
100
AcDbLine
10
18.365583
20
2.635387
30
0
11
18.110077
21
2.48787
31
0
39
0
210
0
220
0
230
1
0
LINE
5
97
100
AcDbEntity
8
1
62
256
6
ByLayer
370
18
48
1
60
0
100
AcDbLine
10
18.54069
20
0.931525
30
0
11
18.796197
21
1.079042
31
0
39
0
210
0
220
0
230
1
0
LINE
5
98
100
AcDbEntity
8
1
62
256
6
ByLayer
370
18
48
1
60
0
100
AcDbLine
10
18.639236
20
0.635953
30
0
11
18.900256
21
0.786654
31
0
39
0
210
0
220
0
230
1
0
LINE
5
99
100
AcDbEntity
8
1
62
256
6
ByLayer
370
18
48
1
60
0
100
AcDbLine
10
16.444213
20
2.819185
30
0
11
16.705233
21
2.969886
31
0
39
0
210
0
220
0
230
1
0
LINE
5
9A
100
AcDbEntity
8
1
62
256
6
ByLayer
370
18
48
1
60
0
100
AcDbLine
10
16.983906
20
2.789627
30
0
11
17.239413
21
2.937144
31
0
39
0
210
0
220
0
230
1
0
LINE
5
9B
100
AcDbEntity
8
1
62
256
6
ByLayer
370
18
48
1
60
0
100
AcDbLine
10
18.594589
20
2.242994
30
0
11
18.85561
21
2.393694
31
0
39
0
210
0
220
0
230
1
0
LINE
5
9C
100
AcDbEntity
8
1
62
256
6
ByLayer
370
18
48
1
60
0
100
AcDbLine
10
17.482217
20
0.037903
30
0
11
17.737724
21
0.18542
31
0
39
0
210
0
220
0
230
1
0
LINE
5
9D
100
AcDbEntity
8
1
62
256
6
ByLayer
370
18
48
1
60
0
100
AcDbLine
10
17.277708
20
-0.193276
30
0
11
17.538728
21
-0.042576
31
0
39
0
210
0
220
0
230
1
0
LINE
5
9E
100
AcDbEntity
8
1
62
256
6
ByLayer
370
18
48
1
60
0
100
AcDbLine
10
16.994713
20
2.870849
30
0
11
16.739206
21
2.723332
31
0
39
0
210
0
220
0
230
1
0
LINE
5
9F
100
AcDbEntity
8
1
62
256
6
ByLayer
370
18
48
1
60
0
100
AcDbLine
10
18.859439
20
1.32582
30
0
11
18.603932
21
1.178303
31
0
39
0
210
0
220
0
230
1
0
LINE
5
A0
100
AcDbEntity
8
1
62
256
6
ByLayer
370
18
48
1
60
0
100
AcDbLine
10
18.291534
20
2.307387
30
0
11
18.547041
21
2.454904
31
0
39
0
210
0
220
0
230
1
0
LINE
5
A1
100
AcDbEntity
8
1
62
256
6
ByLayer
370
18
48
1
60
0
100
AcDbLine
10
18.042725
20
2.791893
30
0
11
18.303746
21
2.942593
31
0
39
0
210
0
220
0
230
1
0
LINE
5
A2
100
AcDbEntity
8
1
62
256
6
ByLayer
370
18
48
1
60
0
100
AcDbLine
10
33.095875
20
5.59281
30
0
11
36.241545
21
6.287186
31
0
39
0
210
0
220
0
230
1
0
LINE
5
A3
100
AcDbEntity
8
1
62
256
6
ByLayer
370
18
48
1
60
0
100
AcDbLine
10
10.179298
20
2.632756
30
0
11
9.824257
21
2.479943
31
0
39
0
210
0
220
0
230
1
0
LINE
5
A4
100
AcDbEntity
8
1
62
256
6
ByLayer
370
18
48
1
60
0
100
AcDbLine
10
13.110486
20
-9.153519
30
0
11
14.970192
21
-8.649686
31
0
39
0
210
0
220
0
230
1
0
LINE
5
A5
100
AcDbEntity
8
1
62
256
6
ByLayer
370
18
48
1
60
0
100
AcDbLine
10
33.868265
20
8.29743
30
0
11
33.144151
21
8.777367
31
0
39
0
210
0
220
0
230
1
0
LINE
5
A6
100
AcDbEntity
8
1
62
256
6
ByLayer
370
18
48
1
60
0
100
AcDbLine
10
10.140366
20
-6.122219
30
0
11
7.751302
21
-7.150497
31
0
39
0
210
0
220
0
230
1
0
LINE
5
A7
100
AcDbEntity
8
1
62
256
6
ByLayer
370
18
48
1
60
0
100
AcDbLine
10
19.567963
20
-3.286945
30
0
11
17.471486
21
-3.854924
31
0
39
0
210
0
220
0
230
1
0
LINE
5
A8
100
AcDbEntity
8
1
62
256
6
ByLayer
370
18
48
1
60
0
100
AcDbLine
10
10.662687
20
-7.601988
30
0
11
19.960753
21
-5.082947
31
0
39
0
210
0
220
0
230
1
0
LINE
5
A9
100
AcDbEntity
8
1
62
256
6
ByLayer
370
18
48
1
60
0
100
AcDbLine
10
7.278389
20
4.221688
30
0
11
10.140366
21
-6.122219
31
0
39
0
210
0
220
0
230
1
0
LINE
5
AA
100
AcDbEntity
8
1
62
256
6
ByLayer
370
18
48
1
60
0
100
AcDbLine
10
14.970192
20
-8.649686
30
0
11
14.990761
21
-8.630819
31
0
39
0
210
0
220
0
230
1
0
LINE
5
AB
100
AcDbEntity
8
1
62
256
6
ByLayer
370
18
48
1
60
0
100
AcDbLine
10
13.110486
20
-9.153519
30
0
11
12.388897
21
-9.464098
31
0
39
0
210
0
220
0
230
1
0
LINE
5
AC
100
AcDbEntity
8
1
62
256
6
ByLayer
370
18
48
1
60
0
100
AcDbLine
10
15.188866
20
9.764859
30
0
11
10.269734
21
8.432163
31
0
39
0
210
0
220
0
230
1
0
LINE
5
AD
100
AcDbEntity
8
1
62
256
6
ByLayer
370
18
48
1
60
0
100
AcDbLine
10
10.242866
20
8.43606
30
0
11
8.38316
21
7.932227
31
0
39
0
210
0
220
0
230
1
0
LINE
5
AE
100
AcDbEntity
8
1
62
256
6
ByLayer
370
18
48
1
60
0
100
AcDbLine
10
7.751302
20
-7.150497
30
0
11
4.889325
21
3.193409
31
0
39
0
210
0
220
0
230
1
0
LINE
5
AF
100
AcDbEntity
8
1
62
256
6
ByLayer
370
18
48
1
60
0
100
AcDbLine
10
9.824257
20
2.479943
30
0
11
8.378165
21
2.089199
31
0
39
0
210
0
220
0
230
1
0
LINE
5
B0
100
AcDbEntity
8
1
62
256
6
ByLayer
370
18
48
1
60
0
100
AcDbLine
10
14.970192
20
-8.649686
30
0
11
12.538961
21
-9.416921
31
0
39
0
210
0
220
0
230
1
0
LINE
5
B1
100
AcDbEntity
8
1
62
256
6
ByLayer
370
18
48
1
60
0
100
AcDbLine
10
16.823236
20
6.633189
30
0
11
16.595023
21
6.534964
31
0
39
0
210
0
220
0
230
1
0
LINE
5
B2
100
AcDbEntity
8
1
62
256
6
ByLayer
370
18
48
1
60
0
100
AcDbLine
10
8.378165
20
2.089199
30
0
11
9.977035
21
-3.68952
31
0
39
0
210
0
220
0
230
1
0
LINE
5
B3
100
AcDbEntity
8
1
62
256
6
ByLayer
370
18
48
1
60
0
100
AcDbLine
10
19.909893
20
-7.298123
30
0
11
14.990761
21
-8.630819
31
0
39
0
210
0
220
0
230
1
0
LINE
5
B4
100
AcDbEntity
8
1
62
256
6
ByLayer
370
18
48
1
60
0
100
AcDbLine
10
7.278389
20
4.221688
30
0
11
4.889325
21
3.193409
31
0
39
0
210
0
220
0
230
1
0
LINE
5
B5
100
AcDbEntity
8
1
62
256
6
ByLayer
370
18
48
1
60
0
100
AcDbLine
10
14.726759
20
6.06521
30
0
11
14.507896
21
5.971009
31
0
39
0
210
0
220
0
230
1
0
LINE
5
B6
100
AcDbEntity
8
1
62
256
6
ByLayer
370
18
48
1
60
0
100
AcDbLine
10
6.984608
20
5.691516
30
0
11
16.282674
21
8.210557
31
0
39
0
210
0
220
0
230
1
0
LINE
5
B7
100
AcDbEntity
8
1
62
256
6
ByLayer
370
18
48
1
60
0
100
AcDbLine
10
10.242866
20
8.43606
30
0
11
10.269734
21
8.432163
31
0
39
0
210
0
220
0
230
1
0
LINE
5
B8
100
AcDbEntity
8
1
62
256
6
ByLayer
370
18
48
1
60
0
100
AcDbLine
10
14.507896
20
5.971009
30
0
11
16.595023
21
6.534964
31
0
39
0
210
0
220
0
230
1
0
LINE
5
B9
100
AcDbEntity
8
1
62
256
6
ByLayer
370
18
48
1
60
0
100
AcDbLine
10
14.726759
20
6.06521
30
0
11
16.823236
21
6.633189
31
0
39
0
210
0
220
0
230
1
0
LINE
5
BA
100
AcDbEntity
8
1
62
256
6
ByLayer
370
18
48
1
60
0
100
AcDbLine
10
34.870663
20
2.536542
30
0
11
35.246865
21
3.314823
31
0
39
0
210
0
220
0
230
1
0
LINE
5
BB
100
AcDbEntity
8
1
62
256
6
ByLayer
370
18
48
1
60
0
100
AcDbLine
10
15.172173
20
-15.944095
30
0
11
16.665796
21
-15.611694
31
0
39
0
210
0
220
0
230
1
0
LINE
5
BC
100
AcDbEntity
8
1
62
256
6
ByLayer
370
18
48
1
60
0
100
AcDbLine
10
30.399516
20
-3.359871
30
0
11
30.897174
21
-2.984172
31
0
39
0
210
0
220
0
230
1
0
LINE
5
BD
100
AcDbEntity
8
1
62
256
6
ByLayer
370
18
48
1
60
0
100
AcDbLine
10
31.866468
20
-2.465069
30
0
11
31.840938
21
-2.797276
31
0
39
0
210
0
220
0
230
1
0
LINE
5
BE
100
AcDbEntity
8
1
62
256
6
ByLayer
370
18
48
1
60
0
100
AcDbLine
10
26.008676
20
14.904551
30
0
11
26.100104
21
14.815476
31
0
39
0
210
0
220
0
230
1
0
LINE
5
BF
100
AcDbEntity
8
1
62
256
6
ByLayer
370
18
48
1
60
0
100
AcDbLine
10
0.327248
20
16.252248
30
0
11
0
21
15.925
31
0
39
0
210
0
220
0
230
1
0
LINE
5
C0
100
AcDbEntity
8
1
62
256
6
ByLayer
370
18
48
1
60
0
100
AcDbLine
10
26.008676
20
14.904551
30
0
11
20.979004
21
16.252248
31
0
39
0
210
0
220
0
230
1
0
LINE
5
C1
100
AcDbEntity
8
1
62
256
6
ByLayer
370
18
48
1
60
0
100
AcDbLine
10
0
20
-15.925
30
0
11
2.785332
21
-15.937153
31
0
39
0
210
0
220
0
230
1
0
LINE
5
C2
100
AcDbEntity
8
1
62
256
6
ByLayer
370
18
48
1
60
0
100
AcDbLine
10
15.172173
20
-15.944095
30
0
11
26.033908
21
-15.786027
31
0
39
0
210
0
220
0
230
1
0
LINE
5
C3
100
AcDbEntity
8
1
62
256
6
ByLayer
370
18
48
1
60
0
100
AcDbLine
10
30.202589
20
-3.741717
30
0
11
30.370025
21
-3.743617
31
0
39
0
210
0
220
0
230
1
0
LINE
5
C4
100
AcDbEntity
8
1
62
256
6
ByLayer
370
18
48
1
60
0
100
AcDbLine
10
39.24824
20
-11.627898
30
0
11
39.792052
21
-4.551698
31
0
39
0
210
0
220
0
230
1
0
LINE
5
C5
100
AcDbEntity
8
1
62
256
6
ByLayer
370
18
48
1
60
0
100
AcDbLine
10
15.172173
20
-15.944095
30
0
11
12.644168
21
-15.936027
31
0
39
0
210
0
220
0
230
1
0
LINE
5
C6
100
AcDbEntity
8
1
62
256
6
ByLayer
370
18
48
1
60
0
100
AcDbLine
10
3.708705
20
16.252248
30
0
11
3.738238
21
16.252248
31
0
39
0
210
0
220
0
230
1
0
LINE
5
C7
100
AcDbEntity
8
1
62
256
6
ByLayer
370
18
48
1
60
0
100
AcDbLine
10
0
20
-15.925
30
0
11
0
21
15.925
31
0
39
0
210
0
220
0
230
1
0
LINE
5
C8
100
AcDbEntity
8
1
62
256
6
ByLayer
370
18
48
1
60
0
100
AcDbLine
10
39.24824
20
-11.627898
30
0
11
16.665796
21
-15.611694
31
0
39
0
210
0
220
0
230
1
0
LINE
5
C9
100
AcDbEntity
8
1
62
256
6
ByLayer
370
18
48
1
60
0
100
AcDbLine
10
34.849576
20
-14.167468
30
0
11
39.24824
21
-11.627898
31
0
39
0
210
0
220
0
230
1
0
LINE
5
CA
100
AcDbEntity
8
1
62
256
6
ByLayer
370
18
48
1
60
0
100
AcDbLine
10
30.897174
20
-2.984168
30
0
11
30.898404
21
-3.013919
31
0
39
0
210
0
220
0
230
1
0
LINE
5
CB
100
AcDbEntity
8
1
62
256
6
ByLayer
370
18
48
1
60
0
100
AcDbLine
10
3.738238
20
16.252248
30
0
11
7.849603
21
16.252248
31
0
39
0
210
0
220
0
230
1
0
LINE
5
CC
100
AcDbEntity
8
1
62
256
6
ByLayer
370
18
48
1
60
0
100
AcDbLine
10
31.866468
20
-2.465069
30
0
11
39.792052
21
-4.551698
31
0
39
0
210
0
220
0
230
1
0
LINE
5
CD
100
AcDbEntity
8
1
62
256
6
ByLayer
370
18
48
1
60
0
100
AcDbLine
10
27.975088
20
-5.81159
30
0
11
28.271764
21
-5.837444
31
0
39
0
210
0
220
0
230
1
0
LINE
5
CE
100
AcDbEntity
8
1
62
256
6
ByLayer
370
18
48
1
60
0
100
AcDbLine
10
20.979004
20
16.252248
30
0
11
7.849603
21
16.252248
31
0
39
0
210
0
220
0
230
1
0
LINE
5
CF
100
AcDbEntity
8
1
62
256
6
ByLayer
370
18
48
1
60
0
100
AcDbLine
10
30.370025
20
-3.743617
30
0
11
30.399516
21
-3.359871
31
0
39
0
210
0
220
0
230
1
0
LINE
5
D0
100
AcDbEntity
8
1
62
256
6
ByLayer
370
18
48
1
60
0
100
AcDbLine
10
11.673824
20
-15.932159
30
0
11
2.785332
21
-15.937153
31
0
39
0
210
0
220
0
230
1
0
LINE
5
D1
100
AcDbEntity
8
1
62
256
6
ByLayer
370
18
48
1
60
0
100
AcDbLine
10
2.768965
20
16.252248
30
0
11
3.708705
21
16.252248
31
0
39
0
210
0
220
0
230
1
0
LINE
5
D2
100
AcDbEntity
8
1
62
256
6
ByLayer
370
18
48
1
60
0
100
AcDbLine
10
30.370025
20
-3.743617
30
0
11
31.840938
21
-2.797276
31
0
39
0
210
0
220
0
230
1
0
LINE
5
D3
100
AcDbEntity
8
1
62
256
6
ByLayer
370
18
48
1
60
0
100
AcDbLine
10
39.792052
20
-4.551698
30
0
11
39.724548
21
-4.413259
31
0
39
0
210
0
220
0
230
1
0
LINE
5
D4
100
AcDbEntity
8
1
62
256
6
ByLayer
370
18
48
1
60
0
100
AcDbLine
10
12.644168
20
-15.936027
30
0
11
12.614395
21
-15.935161
31
0
39
0
210
0
220
0
230
1
0
LINE
5
D5
100
AcDbEntity
8
1
62
256
6
ByLayer
370
18
48
1
60
0
100
AcDbLine
10
2.785332
20
-15.937153
30
0
11
0.66585
21
16.252248
31
0
39
0
210
0
220
0
230
1
0
LINE
5
D6
100
AcDbEntity
8
1
62
256
6
ByLayer
370
18
48
1
60
0
100
AcDbLine
10
26.033908
20
-15.786027
30
0
11
34.849576
21
-14.167468
31
0
39
0
210
0
220
0
230
1
0
LINE
5
D7
100
AcDbEntity
8
1
62
256
6
ByLayer
370
18
48
1
60
0
100
AcDbLine
10
0.66585
20
16.252248
30
0
11
2.768965
21
16.252248
31
0
39
0
210
0
220
0
230
1
0
LINE
5
D8
100
AcDbEntity
8
1
62
256
6
ByLayer
370
18
48
1
60
0
100
AcDbLine
10
0.66585
20
16.252248
30
0
11
0.327248
21
16.252248
31
0
39
0
210
0
220
0
230
1
0
LINE
5
D9
100
AcDbEntity
8
SK1
62
256
6
ByLayer
370
18
48
1
60
0
100
AcDbLine
10
-129.725777
20
15.925
30
0
11
-129.725777
21
-15.925
31
0
39
0
210
0
220
0
230
1
0
LINE
5
DB
100
AcDbEntity
8
SK1
62
256
6
ByLayer
370
18
48
1
60
0
100
AcDbLine
10
-129.725777
20
-15.925
30
0
11
0
21
-15.925
31
0
39
0
210
0
220
0
230
1
0
LINE
5
DC
100
AcDbEntity
8
SK1
62
256
6
ByLayer
370
18
48
1
60
0
100
AcDbLine
10
0
20
15.925
30
0
11
0
21
-15.925
31
0
39
0
210
0
220
0
230
1
0
LINE
5
DD
100
AcDbEntity
8
SK1
62
256
6
ByLayer
370
18
48
1
60
0
100
AcDbLine
10
0
20
15.925
30
0
11
-129.725777
21
15.925
31
0
39
0
210
0
220
0
230
1
0
LINE
5
DE
100
AcDbEntity
8
1
62
256
6
ByLayer
370
18
48
1
60
0
100
AcDbLine
10
40.736975
20
11.662737
30
0
11
27.575178
21
15.18943
31
0
39
0
210
0
220
0
230
1
0
LINE
5
DF
100
AcDbEntity
8
1
62
256
6
ByLayer
370
18
48
1
60
0
100
AcDbLine
10
40.574527
20
-3.200404
30
0
11
41.620695
21
10.412563
31
0
39
0
210
0
220
0
230
1
0
MTEXT
5
167
100
AcDbEntity
8
SK6
62
256
6
ByLayer
370
18
48
1
60
0
100
AcDbMText
10
-58.175777
20
-26.645923
30
0
210
0
220
0
230
1
1
\W0.7446;DCBNR 3232P 16
40
3.5
41
0
44
1.084337
50
0
71
7
72
5
7
iso_b_vert
0
DIMENSION
5
178
100
AcDbEntity
8
2
62
256
6
ByLayer
370
13
48
1
60
0
100
AcDbDimension
2
DimnDraft3D1
10
38.193172
20
12.344347
30
0
11
26.127687
21
31.620479
31
0
70
34
71
5
72
1
41
1
210
0
220
0
230
1
3
Standard
100
AcDb2LineAngularDimension
13
41.624223
23
11.425
33
0
14
41.624223
24
9.04375
34
0
15
41.624223
25
11.425
35
0
16
28.867113
26
28.050389
36
0
40
0
0
DIMENSION
5
18E
100
AcDbEntity
8
SK2
62
256
6
ByLayer
370
13
48
1
60
0
100
AcDbDimension
2
DimnDraft3D2
10
-137.475777
20
15.925
30
0
11
-137.475777
21
-5.281579
31
0
70
32
71
5
72
1
41
1
210
0
220
0
230
1
3
Standard
100
AcDbAlignedDimension
13
-131.725777
23
-15.925
33
0
14
-131.725777
24
15.925
34
0
50
90
100
AcDbRotatedDimension
1001
ACAD
1000
DSTYLE
1002
{
1070
    74
1070
     0
1070
   279
1070
     0
1070
   172
1070
     1
1070
   173
1070
     1
1070
   340
1005
168
1070
    77
1070
     1
1070
    73
1070
     0
1070
   171
1070
     3
1070
   274
1070
     4
1070
   177
1070
     2
1070
   176
1070
     2
1070
   178
1070
     7
1070
    78
1070
     8
1070
    41
1041
3.175
1070
   147
1041
2.25
1070
    42
1041
2.0
1070
    44
1041
2.0
1070
   140
1041
4.5
1070
   343
1005
179
1070
   344
1005
179
1002
}
0
DIMENSION
5
19C
100
AcDbEntity
8
2
62
256
6
ByLayer
370
13
48
1
60
0
100
AcDbDimension
2
DimnDraft3D3
10
63.874223
20
11.425
30
0
11
63.874223
21
-7.531579
31
0
70
32
71
5
72
1
41
1
210
0
220
0
230
1
3
Standard
100
AcDbAlignedDimension
13
2
23
-15.925
33
0
14
43.624223
24
11.425
34
0
50
90
100
AcDbRotatedDimension
1001
ACAD
1000
DSTYLE
1002
{
1070
    74
1070
     0
1070
   279
1070
     0
1070
   172
1070
     1
1070
   173
1070
     1
1070
   340
1005
168
1070
    77
1070
     1
1070
    73
1070
     0
1070
   171
1070
     3
1070
   274
1070
     4
1070
   177
1070
     2
1070
   176
1070
     2
1070
   178
1070
     7
1070
    78
1070
     8
1070
    41
1041
3.175
1070
   147
1041
2.25
1070
    42
1041
2.0
1070
    44
1041
2.0
1070
   140
1041
4.5
1070
   343
1005
179
1070
   344
1005
179
1002
}
0
DIMENSION
5
1AA
100
AcDbEntity
8
2
62
256
6
ByLayer
370
13
48
1
60
0
100
AcDbDimension
2
DimnDraft3D4
10
41.624223
20
41.175
30
0
11
15.85619
21
41.175
31
0
70
32
71
5
72
1
41
1
210
0
220
0
230
1
3
Standard
100
AcDbAlignedDimension
13
0
23
17.925
33
0
14
41.624223
24
13.425
34
0
50
0
100
AcDbRotatedDimension
1001
ACAD
1000
DSTYLE
1002
{
1070
   279
1070
     0
1070
   172
1070
     1
1070
   173
1070
     1
1070
   340
1005
168
1070
    77
1070
     1
1070
    73
1070
     0
1070
   171
1070
     3
1070
   274
1070
     4
1070
   177
1070
     2
1070
   176
1070
     2
1070
   178
1070
     7
1070
    78
1070
     8
1070
    41
1041
3.175
1070
   147
1041
2.25
1070
    42
1041
2.0
1070
    44
1041
2.0
1070
   140
1041
4.5
1070
   343
1005
179
1070
   344
1005
179
1002
}
0
DIMENSION
5
1B8
100
AcDbEntity
8
SK2
62
256
6
ByLayer
370
13
48
1
60
0
100
AcDbDimension
2
DimnDraft3D5
10
-129.725777
20
51.175
30
0
11
-50.451435
21
51.175
31
0
70
32
71
5
72
1
41
1
210
0
220
0
230
1
3
Standard
100
AcDbAlignedDimension
13
41.624223
23
13.425
33
0
14
-129.725777
24
17.925
34
0
50
0
100
AcDbRotatedDimension
1001
ACAD
1000
DSTYLE
1002
{
1070
   279
1070
     0
1070
   172
1070
     1
1070
   173
1070
     1
1070
   340
1005
168
1070
    77
1070
     1
1070
    73
1070
     0
1070
   171
1070
     3
1070
   274
1070
     4
1070
   177
1070
     2
1070
   176
1070
     2
1070
   178
1070
     7
1070
    78
1070
     8
1070
    41
1041
3.175
1070
   147
1041
2.25
1070
    42
1041
2.0
1070
    44
1041
2.0
1070
   140
1041
4.5
1070
   343
1005
179
1070
   344
1005
179
1002
}
0
ENDSEC
0
SECTION
2
OBJECTS
0
DICTIONARY
5
222
330
0
100
AcDbDictionary
280
0
281
1
3
ACAD_GROUP
350
223
3
ACAD_MLINESTYLE
350
224
0
DICTIONARY
5
223
330
0
100
AcDbDictionary
280
0
281
1
0
DICTIONARY
5
224
330
0
100
AcDbDictionary
280
0
281
1
3
Standard
350
18
0
MLINESTYLE
5
18
330
224
100
AcDbMlineStyle
2
Standard
70
0
3

62
256
51
90
52
90
71
2
49
-0.5
62
256
6
ByLayer
49
0.5
62
256
6
ByLayer
0
RASTERVARIABLES
5
211
330

100
AcDbRasterVariables
90
0
70
1
71
1
72
1
0
ENDSEC
0
EOF
