0
SECTION
2
HEADER
9
$ACADVER
1
AC1015
9
$DWGCODEPAGE
3
ANSI_1252
9
$HANDSEED
5
240
9
$ANGBASE
50
0
9
$ANGDIR
70
0
9
$ATTMODE
70
1
9
$AUNITS
70
0
9
$AUPREC
70
0
9
$CECOLOR
62
256
9
$CELTSCALE
40
1
9
$CELTYPE
6
ByLayer
9
$CELWEIGHT
370
18
9
$CLAYER
8
0
9
$CMLJUST
70
0
9
$CMLSCALE
40
1
9
$CMLSTYLE
2
Standard
9
$DIMSTYLE
2
Standard
9
$TEXTSIZE
40
0.2
9
$TEXTSTYLE
7
Standard
9
$LUNITS
70
2
9
$LUPREC
70
4
9
$EXTNAMES
290
1
9
$INSUNITS
70
4
9
$LTSCALE
40
1
9
$LWDISPLAY
290
1
9
$PDMODE
70
0
9
$PDSIZE
40
0
9
$PLINEGEN
70
0
0
ENDSEC
0
SECTION
2
CLASSES
0
CLASS
1
RASTERVARIABLES
2
AcDbRasterVariables
3
ISM
90
0
280
0
281
0
0
ENDSEC
0
SECTION
2
TABLES
0
TABLE
2
VPORT
5
236
100
AcDbSymbolTable
0
VPORT
5
1
100
AcDbSymbolTableRecord
100
AcDbViewportTableRecord
2
*Active
70
0
10
0
20
0
11
1
21
1
12
-1
22
1
13
0
23
0
14
0.5
24
0.5
15
10
25
10
16
0
26
0
36
1
17
0
27
0
37
0
0
ENDTAB
0
TABLE
2
LTYPE
5
237
100
AcDbSymbolTable
0
LTYPE
5
14
100
AcDbSymbolTableRecord
100
AcDbLinetypeTableRecord
70
0
2
ByBlock
3

72
65
73
0
40
0
0
LTYPE
5
15
100
AcDbSymbolTableRecord
100
AcDbLinetypeTableRecord
70
0
2
ByLayer
3

72
65
73
0
40
0
0
LTYPE
5
16
100
AcDbSymbolTableRecord
100
AcDbLinetypeTableRecord
70
0
2
CONTINUOUS
3
Solid line
72
65
73
0
40
0
0
LTYPE
5
6A
100
AcDbSymbolTableRecord
100
AcDbLinetypeTableRecord
70
0
2
CENTER
3
____ _ ____ _ ____ _ ____
72
65
73
4
40
47.5
49
22
74
0
49
-8.5
74
0
49
8.5
74
0
49
-8.5
74
0
0
LTYPE
5
6B
100
AcDbSymbolTableRecord
100
AcDbLinetypeTableRecord
70
0
2
DASHED
3
__ __ __ __ __ __ __ __ __
72
65
73
2
40
25.72
49
12.86
74
0
49
-12.86
74
0
0
ENDTAB
0
TABLE
2
LAYER
5
238
100
AcDbSymbolTable
0
LAYER
5
10
100
AcDbSymbolTableRecord
100
AcDbLayerTableRecord
2
0
70
0
62
7
6
CONTINUOUS
290
1
370
-3
390
0
0
LAYER
5
6D
100
AcDbSymbolTableRecord
100
AcDbLayerTableRecord
2
2
70
0
62
7
6
CONTINUOUS
290
1
370
-3
390
0
0
LAYER
5
6F
100
AcDbSymbolTableRecord
100
AcDbLayerTableRecord
2
80
70
0
62
-6
6
CONTINUOUS
290
1
370
-3
390
0
0
LAYER
5
71
100
AcDbSymbolTableRecord
100
AcDbLayerTableRecord
2
81
70
0
62
-3
6
CONTINUOUS
290
1
370
-3
390
0
0
LAYER
5
73
100
AcDbSymbolTableRecord
100
AcDbLayerTableRecord
2
1
70
0
62
4
6
CONTINUOUS
290
1
370
-3
390
0
0
LAYER
5
223
100
AcDbSymbolTableRecord
100
AcDbLayerTableRecord
2
SK1
70
0
62
4
6
CONTINUOUS
290
1
370
-3
390
0
0
LAYER
5
224
100
AcDbSymbolTableRecord
100
AcDbLayerTableRecord
2
SK6
70
0
62
5
6
CONTINUOUS
290
1
370
-3
390
0
0
LAYER
5
225
100
AcDbSymbolTableRecord
100
AcDbLayerTableRecord
2
SK2
70
0
62
7
6
CONTINUOUS
290
1
370
-3
390
0
0
ENDTAB
0
TABLE
2
STYLE
5
239
100
AcDbSymbolTable
0
STYLE
5
11
100
AcDbSymbolTableRecord
100
AcDbTextStyleTableRecord
2
Standard
3
txt
70
0
71
0
40
0
41
1
42
0
50
0
0
STYLE
5
179
100
AcDbSymbolTableRecord
100
AcDbTextStyleTableRecord
2
iso_b_vert
3
simplex.shx
70
0
71
0
40
0
41
1
42
0
50
0
0
STYLE
5
17A
100
AcDbSymbolTableRecord
100
AcDbTextStyleTableRecord
2
DWGDirectTextStyle
3
simplex
70
0
71
0
40
0
41
1
42
0
50
0
0
ENDTAB
0
TABLE
2
DIMSTYLE
5
23a
100
AcDbSymbolTable
100
AcDbDimStyleTable
0
DIMSTYLE
105
27
100
AcDbSymbolTableRecord
100
AcDbDimStyleTableRecord
2
Standard
70
0
3
<>
41
0.18
42
0.0625
44
0.18
140
0.18
147
0.09
73
0
74
0
77
1
271
2
275
0
278
52
280
0
340
11
0
ENDTAB
0
TABLE
2
VIEW
5
23b
100
AcDbSymbolTable
0
ENDTAB
0
TABLE
2
UCS
5
23c
100
AcDbSymbolTable
0
ENDTAB
0
TABLE
2
APPID
5
23d
100
AcDbSymbolTable
0
APPID
5
12
100
AcDbSymbolTableRecord
100
AcDbRegAppTableRecord
2
ACAD
70
0
0
ENDTAB
0
TABLE
2
BLOCK_RECORD
5
23e
100
AcDbSymbolTable
0
BLOCK_RECORD
5
1F
100
AcDbSymbolTableRecord
100
AcDbBlockTableRecord
2
*Model_Space
340
0
70
0
0
BLOCK_RECORD
5
1B
100
AcDbSymbolTableRecord
100
AcDbBlockTableRecord
2
*Paper_Space
340
0
70
0
0
BLOCK_RECORD
5
23
100
AcDbSymbolTableRecord
100
AcDbBlockTableRecord
2
*Paper_Space0
340
0
70
0
0
BLOCK_RECORD
5
17C
100
AcDbSymbolTableRecord
100
AcDbBlockTableRecord
2
DimnDraft3D11
340
0
70
0
0
BLOCK_RECORD
5
18B
100
AcDbSymbolTableRecord
100
AcDbBlockTableRecord
2
DimnDraft3D2
340
0
70
0
0
BLOCK_RECORD
5
199
100
AcDbSymbolTableRecord
100
AcDbBlockTableRecord
2
_CLOSED
340
0
70
0
0
BLOCK_RECORD
5
1A0
100
AcDbSymbolTableRecord
100
AcDbBlockTableRecord
2
DimnDraft3D3
340
0
70
0
0
BLOCK_RECORD
5
1AE
100
AcDbSymbolTableRecord
100
AcDbBlockTableRecord
2
DimnDraft3D4
340
0
70
0
0
BLOCK_RECORD
5
1BC
100
AcDbSymbolTableRecord
100
AcDbBlockTableRecord
2
DimnDraft3D5
340
0
70
0
0
ENDTAB
0
ENDSEC
0
SECTION
2
BLOCKS
0
BLOCK
5
20
100
AcDbEntity
8
0
100
AcDbBlockBegin
2
*Model_Space
70
0
10
0
20
0
30
0
3
*Model_Space
0
ENDBLK
5
21
100
AcDbEntity
8
0
100
AcDbBlockEnd
0
BLOCK
5
1C
100
AcDbEntity
8
0
100
AcDbBlockBegin
2
*Paper_Space
70
0
10
0
20
0
30
0
3
*Paper_Space
0
ENDBLK
5
1D
100
AcDbEntity
8
0
100
AcDbBlockEnd
0
BLOCK
5
24
100
AcDbEntity
8
0
100
AcDbBlockBegin
2
*Paper_Space0
70
0
10
0
20
0
30
0
3
*Paper_Space0
0
ENDBLK
5
25
100
AcDbEntity
8
0
100
AcDbBlockEnd
0
BLOCK
5
17D
100
AcDbEntity
8
0
100
AcDbBlockBegin
2
DimnDraft3D11
70
0
10
0
20
0
30
0
3
DimnDraft3D11
0
LINE
5
17F
100
AcDbEntity
8
SK2
62
256
6
ByLayer
370
25
48
1
60
0
100
AcDbLine
10
46.743142
20
-17.425
30
0
11
46.743142
21
-55.675
31
0
39
0
210
0
220
0
230
1
0
LINE
5
181
100
AcDbEntity
8
SK2
62
256
6
ByLayer
370
25
48
1
60
0
100
AcDbLine
10
-204.606858
20
-21.925
30
0
11
-204.606858
21
-55.675
31
0
39
0
210
0
220
0
230
1
0
LINE
5
182
100
AcDbEntity
8
SK2
62
256
6
ByLayer
370
25
48
1
60
0
100
AcDbLine
10
46.743142
20
-53.675
30
0
11
-204.606858
21
-53.675
31
0
39
0
210
0
220
0
230
1
0
LINE
5
183
100
AcDbEntity
8
SK2
62
256
6
ByLayer
370
25
48
1
60
0
100
AcDbLine
10
46.743142
20
-53.675
30
0
11
43.568143
21
-54.092997
31
0
39
0
210
0
220
0
230
1
0
LINE
5
184
100
AcDbEntity
8
SK2
62
256
6
ByLayer
370
25
48
1
60
0
100
AcDbLine
10
46.743142
20
-53.675
30
0
11
43.56814
21
-53.257003
31
0
39
0
210
0
220
0
230
1
0
LINE
5
185
100
AcDbEntity
8
SK2
62
256
6
ByLayer
370
25
48
1
60
0
100
AcDbLine
10
43.568143
20
-54.092997
30
0
11
43.56814
21
-53.257003
31
0
39
0
210
0
220
0
230
1
0
LINE
5
186
100
AcDbEntity
8
SK2
62
256
6
ByLayer
370
25
48
1
60
0
100
AcDbLine
10
-204.606858
20
-53.675
30
0
11
-201.43186
21
-53.257003
31
0
39
0
210
0
220
0
230
1
0
LINE
5
187
100
AcDbEntity
8
SK2
62
256
6
ByLayer
370
25
48
1
60
0
100
AcDbLine
10
-204.606858
20
-53.675
30
0
11
-201.431857
21
-54.092997
31
0
39
0
210
0
220
0
230
1
0
LINE
5
188
100
AcDbEntity
8
SK2
62
256
6
ByLayer
370
25
48
1
60
0
100
AcDbLine
10
-201.43186
20
-53.257003
30
0
11
-201.431857
21
-54.092997
31
0
39
0
210
0
220
0
230
1
0
MTEXT
5
189
100
AcDbEntity
8
SK2
62
256
6
ByLayer
370
18
48
1
60
0
100
AcDbMText
10
-84.770016
20
-52.55
30
0
210
0
220
0
230
1
1
\W0.7468;250.0
40
4.5
41
0
44
1.084337
50
0
71
7
72
5
7
iso_b_vert
0
ENDBLK
5
17E
100
AcDbEntity
8
0
100
AcDbBlockEnd
0
BLOCK
5
196
100
AcDbEntity
8
0
100
AcDbBlockBegin
2
DimnDraft3D2
70
0
10
0
20
0
30
0
3
DimnDraft3D2
0
MTEXT
5
18C
100
AcDbEntity
8
2
62
256
6
ByLayer
370
18
48
1
60
0
100
AcDbMText
10
32.041687
20
-29.789197
30
0
210
0
220
0
230
1
1
\W0.7399;75%%d
40
4.5
41
0
44
1.084337
50
322.5
71
7
72
5
7
iso_b_vert
0
LINE
5
18D
100
AcDbEntity
8
2
62
256
6
ByLayer
370
13
48
1
60
0
100
AcDbLine
10
41.81692
20
-16.744977
30
0
11
24.072319
21
-21.499629
31
0
39
0
210
0
220
0
230
1
0
LINE
5
18E
100
AcDbEntity
8
2
62
256
6
ByLayer
370
13
48
1
60
0
100
AcDbLine
10
46.743142
20
-17.425
30
0
11
46.743142
21
-38.895563
31
0
39
0
210
0
220
0
230
1
0
ARC
5
18F
100
AcDbEntity
8
2
62
256
6
ByLayer
370
13
48
1
60
0
100
AcDbCircle
39
0
10
46.743142
20
-15.425
30
0
40
21.4705627491871
210
0
220
0
230
1
100
AcDbArc
50
195
51
270
0
LINE
5
190
100
AcDbEntity
8
2
62
256
6
ByLayer
370
13
48
1
60
0
100
AcDbLine
10
26.00417
20
-20.981991
30
0
11
27.337995
21
-23.89339
31
0
39
0
210
0
220
0
230
1
0
LINE
5
191
100
AcDbEntity
8
2
62
256
6
ByLayer
370
13
48
1
60
0
100
AcDbLine
10
26.00417
20
-20.981991
30
0
11
26.53902
21
-24.139409
31
0
39
0
210
0
220
0
230
1
0
LINE
5
192
100
AcDbEntity
8
2
62
256
6
ByLayer
370
13
48
1
60
0
100
AcDbLine
10
27.337995
20
-23.89339
30
0
11
26.53902
21
-24.139409
31
0
39
0
210
0
220
0
230
1
0
LINE
5
193
100
AcDbEntity
8
2
62
256
6
ByLayer
370
13
48
1
60
0
100
AcDbLine
10
46.743142
20
-36.895563
30
0
11
43.554883
21
-37.196137
31
0
39
0
210
0
220
0
230
1
0
LINE
5
194
100
AcDbEntity
8
2
62
256
6
ByLayer
370
13
48
1
60
0
100
AcDbLine
10
46.743142
20
-36.895563
30
0
11
43.585723
21
-36.360713
31
0
39
0
210
0
220
0
230
1
0
LINE
5
195
100
AcDbEntity
8
2
62
256
6
ByLayer
370
13
48
1
60
0
100
AcDbLine
10
43.554883
20
-37.196137
30
0
11
43.585723
21
-36.360713
31
0
39
0
210
0
220
0
230
1
0
ENDBLK
5
197
100
AcDbEntity
8
0
100
AcDbBlockEnd
0
BLOCK
5
19A
100
AcDbEntity
8
0
100
AcDbBlockBegin
2
_CLOSED
70
0
10
0
20
0
30
0
3
_CLOSED
0
LINE
5
19C
100
AcDbEntity
8
0
62
256
6
ByLayer
370
-2
48
1
60
0
100
AcDbLine
10
-1
20
0.166667
30
0
11
0
21
0
31
0
39
0
210
0
220
0
230
1
0
LINE
5
19D
100
AcDbEntity
8
0
62
256
6
ByLayer
370
-2
48
1
60
0
100
AcDbLine
10
0
20
0
30
0
11
-1
21
-0.166667
31
0
39
0
210
0
220
0
230
1
0
LINE
5
19E
100
AcDbEntity
8
0
62
256
6
ByLayer
370
-2
48
1
60
0
100
AcDbLine
10
-1
20
0.166667
30
0
11
-1
21
-0.166667
31
0
39
0
210
0
220
0
230
1
0
LINE
5
19F
100
AcDbEntity
8
0
62
256
6
ByLayer
370
-2
48
1
60
0
100
AcDbLine
10
0
20
0
30
0
11
-1
21
0
31
0
39
0
210
0
220
0
230
1
0
ENDBLK
5
19B
100
AcDbEntity
8
0
100
AcDbBlockEnd
0
BLOCK
5
1AB
100
AcDbEntity
8
0
100
AcDbBlockBegin
2
DimnDraft3D3
70
0
10
0
20
0
30
0
3
DimnDraft3D3
0
MTEXT
5
1A1
100
AcDbEntity
8
2
62
256
6
ByLayer
370
18
48
1
60
0
100
AcDbMText
10
18.97815
20
-42.55
30
0
210
0
220
0
230
1
1
\W0.7640;46.7
40
4.5
41
0
44
1.084337
50
0
71
7
72
5
7
iso_b_vert
0
LINE
5
1A2
100
AcDbEntity
8
2
62
256
6
ByLayer
370
13
48
1
60
0
100
AcDbLine
10
0
20
-21.925
30
0
11
0
21
-45.675
31
0
39
0
210
0
220
0
230
1
0
LINE
5
1A3
100
AcDbEntity
8
2
62
256
6
ByLayer
370
13
48
1
60
0
100
AcDbLine
10
46.743142
20
-17.425
30
0
11
46.743142
21
-45.675
31
0
39
0
210
0
220
0
230
1
0
LINE
5
1A4
100
AcDbEntity
8
2
62
256
6
ByLayer
370
13
48
1
60
0
100
AcDbLine
10
0
20
-43.675
30
0
11
46.743142
21
-43.675
31
0
39
0
210
0
220
0
230
1
0
LINE
5
1A5
100
AcDbEntity
8
2
62
256
6
ByLayer
370
13
48
1
60
0
100
AcDbLine
10
0
20
-43.675
30
0
11
3.174998
21
-43.257003
31
0
39
0
210
0
220
0
230
1
0
LINE
5
1A6
100
AcDbEntity
8
2
62
256
6
ByLayer
370
13
48
1
60
0
100
AcDbLine
10
0
20
-43.675
30
0
11
3.175002
21
-44.092997
31
0
39
0
210
0
220
0
230
1
0
LINE
5
1A7
100
AcDbEntity
8
2
62
256
6
ByLayer
370
13
48
1
60
0
100
AcDbLine
10
3.174998
20
-43.257003
30
0
11
3.175002
21
-44.092997
31
0
39
0
210
0
220
0
230
1
0
LINE
5
1A8
100
AcDbEntity
8
2
62
256
6
ByLayer
370
13
48
1
60
0
100
AcDbLine
10
46.743142
20
-43.675
30
0
11
43.568143
21
-44.092997
31
0
39
0
210
0
220
0
230
1
0
LINE
5
1A9
100
AcDbEntity
8
2
62
256
6
ByLayer
370
13
48
1
60
0
100
AcDbLine
10
46.743142
20
-43.675
30
0
11
43.56814
21
-43.257003
31
0
39
0
210
0
220
0
230
1
0
LINE
5
1AA
100
AcDbEntity
8
2
62
256
6
ByLayer
370
13
48
1
60
0
100
AcDbLine
10
43.568143
20
-44.092997
30
0
11
43.56814
21
-43.257003
31
0
39
0
210
0
220
0
230
1
0
ENDBLK
5
1AC
100
AcDbEntity
8
0
100
AcDbBlockEnd
0
BLOCK
5
1B9
100
AcDbEntity
8
0
100
AcDbBlockBegin
2
DimnDraft3D4
70
0
10
0
20
0
30
0
3
DimnDraft3D4
0
MTEXT
5
1AF
100
AcDbEntity
8
2
62
256
6
ByLayer
370
18
48
1
60
0
100
AcDbMText
10
67.868142
20
-1.906579
30
0
210
0
220
0
230
1
1
\W0.7346;35.0
40
4.5
41
0
44
1.084337
50
90
71
7
72
5
7
iso_b_vert
0
LINE
5
1B0
100
AcDbEntity
8
2
62
256
6
ByLayer
370
13
48
1
60
0
100
AcDbLine
10
2
20
19.925
30
0
11
70.993141
21
19.925
31
0
39
0
210
0
220
0
230
1
0
LINE
5
1B1
100
AcDbEntity
8
2
62
256
6
ByLayer
370
13
48
1
60
0
100
AcDbLine
10
48.743141
20
-15.425
30
0
11
70.993141
21
-15.425
31
0
39
0
210
0
220
0
230
1
0
LINE
5
1B2
100
AcDbEntity
8
2
62
256
6
ByLayer
370
13
48
1
60
0
100
AcDbLine
10
68.993142
20
19.925
30
0
11
68.993142
21
-15.425
31
0
39
0
210
0
220
0
230
1
0
LINE
5
1B3
100
AcDbEntity
8
2
62
256
6
ByLayer
370
13
48
1
60
0
100
AcDbLine
10
68.993142
20
19.925
30
0
11
69.411138
21
16.750002
31
0
39
0
210
0
220
0
230
1
0
LINE
5
1B4
100
AcDbEntity
8
2
62
256
6
ByLayer
370
13
48
1
60
0
100
AcDbLine
10
68.993142
20
19.925
30
0
11
68.575145
21
16.749998
31
0
39
0
210
0
220
0
230
1
0
LINE
5
1B5
100
AcDbEntity
8
2
62
256
6
ByLayer
370
13
48
1
60
0
100
AcDbLine
10
69.411138
20
16.750002
30
0
11
68.575145
21
16.749998
31
0
39
0
210
0
220
0
230
1
0
LINE
5
1B6
100
AcDbEntity
8
2
62
256
6
ByLayer
370
13
48
1
60
0
100
AcDbLine
10
68.993142
20
-15.425
30
0
11
68.575145
21
-12.250002
31
0
39
0
210
0
220
0
230
1
0
LINE
5
1B7
100
AcDbEntity
8
2
62
256
6
ByLayer
370
13
48
1
60
0
100
AcDbLine
10
68.993142
20
-15.425
30
0
11
69.411138
21
-12.249998
31
0
39
0
210
0
220
0
230
1
0
LINE
5
1B8
100
AcDbEntity
8
2
62
256
6
ByLayer
370
13
48
1
60
0
100
AcDbLine
10
68.575145
20
-12.250002
30
0
11
69.411138
21
-12.249998
31
0
39
0
210
0
220
0
230
1
0
ENDBLK
5
1BA
100
AcDbEntity
8
0
100
AcDbBlockEnd
0
BLOCK
5
1C7
100
AcDbEntity
8
0
100
AcDbBlockBegin
2
DimnDraft3D5
70
0
10
0
20
0
30
0
3
DimnDraft3D5
0
MTEXT
5
1BD
100
AcDbEntity
8
SK2
62
256
6
ByLayer
370
18
48
1
60
0
100
AcDbMText
10
-213.481858
20
-4.393421
30
0
210
0
220
0
230
1
1
\W0.7640;40.0
40
4.5
41
0
44
1.084337
50
90
71
7
72
5
7
iso_b_vert
0
LINE
5
1BE
100
AcDbEntity
8
SK2
62
256
6
ByLayer
370
13
48
1
60
0
100
AcDbLine
10
-206.606858
20
19.925
30
0
11
-214.356858
21
19.925
31
0
39
0
210
0
220
0
230
1
0
LINE
5
1BF
100
AcDbEntity
8
SK2
62
256
6
ByLayer
370
13
48
1
60
0
100
AcDbLine
10
-206.606858
20
-19.925
30
0
11
-214.356858
21
-19.925
31
0
39
0
210
0
220
0
230
1
0
LINE
5
1C0
100
AcDbEntity
8
SK2
62
256
6
ByLayer
370
13
48
1
60
0
100
AcDbLine
10
-212.356858
20
19.925
30
0
11
-212.356858
21
-19.925
31
0
39
0
210
0
220
0
230
1
0
LINE
5
1C1
100
AcDbEntity
8
SK2
62
256
6
ByLayer
370
13
48
1
60
0
100
AcDbLine
10
-212.356858
20
19.925
30
0
11
-211.938862
21
16.750002
31
0
39
0
210
0
220
0
230
1
0
LINE
5
1C2
100
AcDbEntity
8
SK2
62
256
6
ByLayer
370
13
48
1
60
0
100
AcDbLine
10
-212.356858
20
19.925
30
0
11
-212.774855
21
16.749998
31
0
39
0
210
0
220
0
230
1
0
LINE
5
1C3
100
AcDbEntity
8
SK2
62
256
6
ByLayer
370
13
48
1
60
0
100
AcDbLine
10
-211.938862
20
16.750002
30
0
11
-212.774855
21
16.749998
31
0
39
0
210
0
220
0
230
1
0
LINE
5
1C4
100
AcDbEntity
8
SK2
62
256
6
ByLayer
370
13
48
1
60
0
100
AcDbLine
10
-212.356858
20
-19.925
30
0
11
-212.774855
21
-16.750002
31
0
39
0
210
0
220
0
230
1
0
LINE
5
1C5
100
AcDbEntity
8
SK2
62
256
6
ByLayer
370
13
48
1
60
0
100
AcDbLine
10
-212.356858
20
-19.925
30
0
11
-211.938862
21
-16.749998
31
0
39
0
210
0
220
0
230
1
0
LINE
5
1C6
100
AcDbEntity
8
SK2
62
256
6
ByLayer
370
13
48
1
60
0
100
AcDbLine
10
-212.774855
20
-16.750002
30
0
11
-211.938862
21
-16.749998
31
0
39
0
210
0
220
0
230
1
0
ENDBLK
5
1C8
100
AcDbEntity
8
0
100
AcDbBlockEnd
0
ENDSEC
0
SECTION
2
ENTITIES
0
ELLIPSE
5
E4
100
AcDbEntity
8
1
62
256
6
ByLayer
370
18
48
1
60
0
100
AcDbEllipse
10
35.847812
20
-7.743594
30
0
11
-2.00000000000599
21
-3.46410161514828
31
0
210
0
220
0
230
1
40
0.989133
41
2.92374721655957
42
-1.03299055851129
0
ELLIPSE
5
E5
100
AcDbEntity
8
1
62
256
6
ByLayer
370
18
48
1
60
0
100
AcDbEllipse
10
35.847812
20
-7.743594
30
0
11
-2.00000000000599
21
-3.46410161514828
31
0
210
0
220
0
230
1
40
0.989133
41
2.67094719754288
42
2.92374721655957
0
ELLIPSE
5
E6
100
AcDbEntity
8
1
62
256
6
ByLayer
370
18
48
1
60
0
100
AcDbEllipse
10
18.379282
20
-2.28371
30
0
11
-0.224999999999993
21
-0.389711431703001
31
0
210
0
220
0
230
1
40
0.989133
41
2.50494336925817
42
2.79622749116849
0
ELLIPSE
5
E7
100
AcDbEntity
8
1
62
256
6
ByLayer
370
18
48
1
60
0
100
AcDbEllipse
10
18.744723
20
-3.709696
30
0
11
0.700000000000003
21
1.21243556529821
31
0
210
0
220
0
230
1
40
0.989133
41
1.58328302166282
42
2.20116089918985
0
ELLIPSE
5
E8
100
AcDbEntity
8
1
62
256
6
ByLayer
370
18
48
1
60
0
100
AcDbEllipse
10
18.674693
20
-3.669265
30
0
11
0.700000000000003
21
1.21243556529821
31
0
210
0
220
0
230
1
40
0.989133
41
-3.11243067028359
42
-0.140778310053258
0
ELLIPSE
5
E9
100
AcDbEntity
8
1
62
256
6
ByLayer
370
18
48
1
60
0
100
AcDbEllipse
10
18.744723
20
-3.709696
30
0
11
0.700000000000003
21
1.21243556529821
31
0
210
0
220
0
230
1
40
0.989133
41
2.75281704605757
42
-2.97685763348731
0
ELLIPSE
5
EA
100
AcDbEntity
8
1
62
256
6
ByLayer
370
18
48
1
60
0
100
AcDbEllipse
10
18.744723
20
-3.709696
30
0
11
0.700000000000003
21
1.21243556529821
31
0
210
0
220
0
230
1
40
0.989133
41
0.347937338452718
42
0.936155972858271
0
ELLIPSE
5
EB
100
AcDbEntity
8
1
62
256
6
ByLayer
370
18
48
1
60
0
100
AcDbEllipse
10
18.744723
20
-3.709696
30
0
11
0.700000000000003
21
1.21243556529821
31
0
210
0
220
0
230
1
40
0.989133
41
-0.699260212743864
42
-0.081949429146468
0
ELLIPSE
5
EC
100
AcDbEntity
8
1
62
256
6
ByLayer
370
18
48
1
60
0
100
AcDbEllipse
10
17.696182
20
-4.752605
30
0
11
-0.224999999999993
21
-0.389711431703001
31
0
210
0
220
0
230
1
40
0.989133
41
0.345365408186508
42
1.14932164288683
0
ELLIPSE
5
ED
100
AcDbEntity
8
1
62
256
6
ByLayer
370
18
48
1
60
0
100
AcDbEllipse
10
19.793265
20
-2.666787
30
0
11
-0.224999999999993
21
-0.389711431703001
31
0
210
0
220
0
230
1
40
0.989133
41
1.45774581806161
42
2.7962411708709
0
ELLIPSE
5
EE
100
AcDbEntity
8
1
62
256
6
ByLayer
370
18
48
1
60
0
100
AcDbEllipse
10
19.110165
20
-5.135683
30
0
11
-0.224999999999993
21
-0.389711431703001
31
0
210
0
220
0
230
1
40
0.989133
41
0.345396954052751
42
2.19651919408339
0
ELLIPSE
5
EF
100
AcDbEntity
8
1
62
256
6
ByLayer
370
18
48
1
60
0
100
AcDbEllipse
10
20.548269
20
-3.226438
30
0
11
0.250000000000001
21
0.433012701892219
31
0
210
0
220
0
230
1
40
0.989133
41
2.60974233072856
42
3.1415866392027
0
ELLIPSE
5
F0
100
AcDbEntity
8
1
62
256
6
ByLayer
370
18
48
1
60
0
100
AcDbEllipse
10
20.158706
20
-4.092774
30
0
11
-0.224999999999993
21
-0.389711431703001
31
0
210
0
220
0
230
1
40
0.989133
41
0.410548266865053
42
2.99311319358137
0
ELLIPSE
5
F1
100
AcDbEntity
8
1
62
256
6
ByLayer
370
18
48
1
60
0
100
AcDbEllipse
10
18.623763
20
-3.63986
30
0
11
2.50000000000001
21
4.33012701892218
31
0
210
0
220
0
230
1
40
0.989133
41
0.528343003110832
42
3.14149871281478
0
ELLIPSE
5
F2
100
AcDbEntity
8
1
62
256
6
ByLayer
370
18
48
1
60
0
100
AcDbEllipse
10
18.623763
20
-3.63986
30
0
11
2.50000000000001
21
4.33012701892218
31
0
210
0
220
0
230
1
40
0.989133
41
-1.03299065879922
42
-2.69380888020153E-16
0
ELLIPSE
5
F3
100
AcDbEntity
8
1
62
256
6
ByLayer
370
18
48
1
60
0
100
AcDbEllipse
10
18.623763
20
-3.63986
30
0
11
2.50000000000001
21
4.33012701892218
31
0
210
0
220
0
230
1
40
0.989133
41
0
42
0.528338808974092
0
ELLIPSE
5
F4
100
AcDbEntity
8
1
62
256
6
ByLayer
370
18
48
1
60
0
100
AcDbEllipse
10
36.786212
20
-8.28538
30
0
11
1.98500000000001
21
3.43812085302422
31
0
210
0
220
0
230
1
40
0.989133
41
-2.75664519167234
42
-1.35708255929548E-15
0
ELLIPSE
5
F5
100
AcDbEntity
8
1
62
256
6
ByLayer
370
18
48
1
60
0
100
AcDbEllipse
10
36.786212
20
-8.28538
30
0
11
1.98500000000001
21
3.43812085302422
31
0
210
0
220
0
230
1
40
0.989133
41
0
42
0.129889468906428
0
ELLIPSE
5
F6
100
AcDbEntity
8
1
62
256
6
ByLayer
370
18
48
1
60
0
100
AcDbEllipse
10
35.977686
20
-7.818577
30
0
11
1.98500000000001
21
3.43812085302422
31
0
210
0
220
0
230
1
40
0.989133
41
-1.03299053199071
42
-0.504319496049698
0
ELLIPSE
5
F7
100
AcDbEntity
8
1
62
256
6
ByLayer
370
18
48
1
60
0
100
AcDbEllipse
10
35.977686
20
-7.818577
30
0
11
1.98500000000001
21
3.43812085302422
31
0
210
0
220
0
230
1
40
0.989133
41
-0.504319496049694
42
-0.119081648816792
0
ELLIPSE
5
F8
100
AcDbEntity
8
1
62
256
6
ByLayer
370
18
48
1
60
0
100
AcDbEllipse
10
28.494423
20
-18.40495
30
0
11
0.595500000000002
21
1.03143625590726
31
0
210
0
220
0
230
1
40
0.989133
41
2.9486703938358
42
3.14158384764338
0
ELLIPSE
5
F9
100
AcDbEntity
8
1
62
256
6
ByLayer
370
18
48
1
60
0
100
AcDbEllipse
10
10.535072
20
-7.663669
30
0
11
1.42925169960528
21
2.63765797236401
31
0
210
0
220
0
230
1
40
0.9865
41
0.0892487394620024
42
0.229639942064421
0
ELLIPSE
5
FA
100
AcDbEntity
8
1
62
256
6
ByLayer
370
18
48
1
60
0
100
AcDbEllipse
10
19.63012
20
-3.910466
30
0
11
-2.45354875098908
21
-4.52797951922488
31
0
210
0
220
0
230
1
40
0.9865
41
0.229639942064422
42
-3.05268634065745
0
ELLIPSE
5
FB
100
AcDbEntity
8
1
62
256
6
ByLayer
370
18
48
1
60
0
100
AcDbEllipse
10
30.032091
20
0.799156
30
0
11
1.70772010276394
21
2.95785798309387
31
0
210
0
220
0
230
1
40
0.989133
41
0.605402029676494
42
1.31940279384727
0
ELLIPSE
5
FC
100
AcDbEntity
8
1
62
256
6
ByLayer
370
18
48
1
60
0
100
AcDbEllipse
10
29.180894
20
1.721278
30
0
11
1.74912729598983
21
3.02957734555993
31
0
210
0
220
0
230
1
40
0.989133
41
-0.965394297118422
42
-0.318201533524957
0
ELLIPSE
5
FD
100
AcDbEntity
8
1
62
256
6
ByLayer
370
18
48
1
60
0
100
AcDbEllipse
10
29.161795
20
1.732305
30
0
11
1.67412729598982
21
2.89967353499226
31
0
210
0
220
0
230
1
40
0.989133
41
-0.965394297118416
42
-0.239784573964295
0
ELLIPSE
5
FE
100
AcDbEntity
8
1
62
256
6
ByLayer
370
18
48
1
60
0
100
AcDbEllipse
10
30.397714
20
0.887321
30
0
11
1.68448901896903
21
2.91762056564621
31
0
210
0
220
0
230
1
40
0.989133
41
0.605402029676456
42
0.681802508121281
0
ELLIPSE
5
FF
100
AcDbEntity
8
1
62
256
6
ByLayer
370
18
48
1
60
0
100
AcDbEllipse
10
13.891895
20
17.981259
30
0
11
-0.777319328420729
21
0.19060368909877
31
0
210
0
220
0
230
1
40
0.041471
41
-3.00001070695782
42
-1.42921438016387
0
ELLIPSE
5
100
100
AcDbEntity
8
1
62
256
6
ByLayer
370
18
48
1
60
0
100
AcDbEllipse
10
30.595497
20
0.904557
30
0
11
1.68448901896903
21
2.91762056564621
31
0
210
0
220
0
230
1
40
0.989133
41
-0.965394297118423
42
0.605402029676477
0
ELLIPSE
5
101
100
AcDbEntity
8
1
62
256
6
ByLayer
370
18
48
1
60
0
100
AcDbEllipse
10
45.561812
20
-14.515204
30
0
11
-0.595499999999983
21
-1.03143625590728
31
0
210
0
220
0
230
1
40
0.989133
41
0.779934954875932
42
2.17619835647139
0
ELLIPSE
5
102
100
AcDbEntity
8
1
62
256
6
ByLayer
370
18
48
1
60
0
100
AcDbEllipse
10
29.30295
20
-18.871753
30
0
11
-0.595499999999983
21
-1.03143625590728
31
0
210
0
220
0
230
1
40
0.989133
41
-0.965394297118411
42
0.779934954875905
0
ELLIPSE
5
103
100
AcDbEntity
8
1
62
256
6
ByLayer
370
18
48
1
60
0
100
AcDbEllipse
10
44.269474
20
2.300993
30
0
11
-0.595499999999983
21
-1.03143625590728
31
0
210
0
220
0
230
1
40
0.989133
41
2.17619835647138
42
-2.36165769871385
0
ELLIPSE
5
104
100
AcDbEntity
8
1
62
256
6
ByLayer
370
18
48
1
60
0
100
AcDbEllipse
10
9.099165
20
-6.849952
30
0
11
-2.68003115993311
21
-2.25732512725443
31
0
210
0
220
0
230
1
40
0.994282
41
-0.967245154871469
42
0.2231109856401
0
ELLIPSE
5
105
100
AcDbEntity
8
1
62
256
6
ByLayer
370
18
48
1
60
0
100
AcDbEllipse
10
10.180192
20
-6.409501
30
0
11
-0.606109273776456
21
1.90594636552086
31
0
210
0
220
0
230
1
40
0.717372
41
1.15901653494549
42
2.48512897400582
0
ELLIPSE
5
106
100
AcDbEntity
8
1
62
256
6
ByLayer
370
18
48
1
60
0
100
AcDbEllipse
10
37.36837
20
-8.580503
30
0
11
-0.0368801306872192
21
3.74876567302608
31
0
210
0
220
0
230
1
40
0.835939
41
-1.72760443960278
42
-1.43886277407123
0
ELLIPSE
5
107
100
AcDbEntity
8
1
62
256
6
ByLayer
370
18
48
1
60
0
100
AcDbEllipse
10
9.05076
20
8.982287
30
0
11
6.74652758114221
21
-1.86664554666586
31
0
210
0
220
0
230
1
40
0.037276
41
0.806029476653111
42
0.852017782695119
0
ELLIPSE
5
108
100
AcDbEntity
8
1
62
256
6
ByLayer
370
18
48
1
60
0
100
AcDbEllipse
10
15.110639
20
3.496424
30
0
11
-2.46848461423911
21
3.88951775902714
31
0
210
0
220
0
230
1
40
0.616723
41
-0.593373236642874
42
-0.414067033052686
0
ELLIPSE
5
109
100
AcDbEntity
8
1
62
256
6
ByLayer
370
18
48
1
60
0
100
AcDbEllipse
10
17.098708
20
5.119314
30
0
11
-4.20144695919888
21
1.66098318299496
31
0
210
0
220
0
230
1
40
0.549976
41
-0.487955214608347
42
0.751819553228864
0
ELLIPSE
5
10A
100
AcDbEntity
8
1
62
256
6
ByLayer
370
18
48
1
60
0
100
AcDbEllipse
10
12.81559
20
3.11549
30
0
11
1.57677578521319
21
1.23035690885422
31
0
210
0
220
0
230
1
40
0.687028
41
0.742453391571833
42
2.06856583063214
0
ELLIPSE
5
10B
100
AcDbEntity
8
1
62
256
6
ByLayer
370
18
48
1
60
0
100
AcDbEllipse
10
16.508419
20
3.480363
30
0
11
-6.15718500263773
21
2.11462625397765
31
0
210
0
220
0
230
1
40
0.394014
41
0.647851091604946
42
0.717081159136129
0
ELLIPSE
5
10C
100
AcDbEntity
8
1
62
256
6
ByLayer
370
18
48
1
60
0
100
AcDbEllipse
10
15.662363
20
0.422505
30
0
11
6.26463275391777
21
-1.73331372190401
31
0
210
0
220
0
230
1
40
0.037276
41
-2.32329098038962
42
-1.94176629755792
0
ELLIPSE
5
10D
100
AcDbEntity
8
1
62
256
6
ByLayer
370
18
48
1
60
0
100
AcDbEllipse
10
11.912899
20
-8.061014
30
0
11
-4.15751772440407
21
-1.3921580641137
31
0
210
0
220
0
230
1
40
0.589282
41
0.54489344531253
42
0.724199648701557
0
ELLIPSE
5
10E
100
AcDbEntity
8
1
62
256
6
ByLayer
370
18
48
1
60
0
100
AcDbEllipse
10
37.36837
20
-8.580503
30
0
11
-2.60705217477061
21
-2.54359005740363
31
0
210
0
220
0
230
1
40
0.827434
41
1.72158061657598
42
2.0103222820019
0
ELLIPSE
5
10F
100
AcDbEntity
8
1
62
256
6
ByLayer
370
18
48
1
60
0
100
AcDbEllipse
10
12.863098
20
-10.189249
30
0
11
-4.44801607138174
21
0.781182503530915
31
0
210
0
220
0
230
1
40
0.476384
41
-0.738943731996036
42
0.500831035840841
0
ELLIPSE
5
110
100
AcDbEntity
8
1
62
256
6
ByLayer
370
18
48
1
60
0
100
AcDbEllipse
10
13.217437
20
-8.414072
30
0
11
-6.36297083490172
21
1.37379551062122
31
0
210
0
220
0
230
1
40
0.319754
41
-0.71140112509344
42
-0.642171056582544
0
ELLIPSE
5
111
100
AcDbEntity
8
1
62
256
6
ByLayer
370
18
48
1
60
0
100
AcDbEllipse
10
14.063493
20
-5.356214
30
0
11
6.26463275391777
21
-1.73331372190401
31
0
210
0
220
0
230
1
40
0.037276
41
-2.32329098038954
42
-1.94176629755789
0
ELLIPSE
5
112
100
AcDbEntity
8
1
62
256
6
ByLayer
370
18
48
1
60
0
100
AcDbEllipse
10
12.296905
20
4.707485
30
0
11
-2.68003116007822
21
-2.25732512709054
31
0
210
0
220
0
230
1
40
0.994282
41
-2.15760129531904
42
-0.967245154808449
0
ELLIPSE
5
113
100
AcDbEntity
8
1
62
256
6
ByLayer
370
18
48
1
60
0
100
AcDbEllipse
10
19.00023
20
-3.857213
30
0
11
0.700000000000003
21
1.21243556529821
31
0
210
0
220
0
230
1
40
0.989133
41
1.21193257129908
42
1.39513488965
0
ELLIPSE
5
114
100
AcDbEntity
8
1
62
256
6
ByLayer
370
18
48
1
60
0
100
AcDbEllipse
10
18.744723
20
-3.709696
30
0
11
0.700000000000003
21
1.21243556529821
31
0
210
0
220
0
230
1
40
0.989133
41
-2.79365531513708
42
-1.92966008229069
0
ELLIPSE
5
115
100
AcDbEntity
8
1
62
256
6
ByLayer
370
18
48
1
60
0
100
AcDbEllipse
10
19.00023
20
-3.857213
30
0
11
0.700000000000003
21
1.21243556529821
31
0
210
0
220
0
230
1
40
0.989133
41
-2.97685763348771
42
-2.79365531513664
0
ELLIPSE
5
116
100
AcDbEntity
8
1
62
256
6
ByLayer
370
18
48
1
60
0
100
AcDbEllipse
10
19.005744
20
-3.860396
30
0
11
-1.24999999999996
21
-2.16506350946112
31
0
210
0
220
0
230
1
40
0.989133
41
0
42
6.28318530717959
0
ELLIPSE
5
117
100
AcDbEntity
8
1
62
256
6
ByLayer
370
18
48
1
60
0
100
AcDbEllipse
10
20.047968
20
-5.034649
30
0
11
0.250000000000001
21
0.433012701892219
31
0
210
0
220
0
230
1
40
0.989133
41
1.56254477953195
42
2.19651919408341
0
ELLIPSE
5
118
100
AcDbEntity
8
1
62
256
6
ByLayer
370
18
48
1
60
0
100
AcDbEllipse
10
17.202198
20
-4.343655
30
0
11
0.250000000000001
21
0.433012701892219
31
0
210
0
220
0
230
1
40
0.989133
41
-0.411837560336415
42
0.102124091690245
0
ELLIPSE
5
119
100
AcDbEntity
8
1
62
256
6
ByLayer
370
18
48
1
60
0
100
AcDbEllipse
10
18.505443
20
-5.668608
30
0
11
0.250000000000001
21
0.433012701892219
31
0
210
0
220
0
230
1
40
0.989133
41
-0.636649284331671
42
-0.122687632304876
0
ELLIPSE
5
11A
100
AcDbEntity
8
1
62
256
6
ByLayer
370
18
48
1
60
0
100
AcDbEllipse
10
19.005744
20
-3.860396
30
0
11
0.712500000000003
21
1.23408620039282
31
0
210
0
220
0
230
1
40
0.989133
41
1.17333682621639
42
1.43373063473202
0
ELLIPSE
5
11B
100
AcDbEntity
8
1
62
256
6
ByLayer
370
18
48
1
60
0
100
AcDbEllipse
10
20.809289
20
-3.377138
30
0
11
0.250000000000001
21
0.433012701892219
31
0
210
0
220
0
230
1
40
0.989133
41
2.72975509325333
42
-3.03946856189949
0
ELLIPSE
5
11C
100
AcDbEntity
8
1
62
256
6
ByLayer
370
18
48
1
60
0
100
AcDbEllipse
10
19.245024
20
-1.901485
30
0
11
0.250000000000001
21
0.433012701892219
31
0
210
0
220
0
230
1
40
0.989133
41
2.50494336925825
42
3.13891778380972
0
ELLIPSE
5
11D
100
AcDbEntity
8
1
62
256
6
ByLayer
370
18
48
1
60
0
100
AcDbEllipse
10
19.00023
20
-3.857213
30
0
11
0.700000000000003
21
1.21243556529821
31
0
210
0
220
0
230
1
40
0.989133
41
2.25913012249571
42
2.44233244084591
0
ELLIPSE
5
11E
100
AcDbEntity
8
1
62
256
6
ByLayer
370
18
48
1
60
0
100
AcDbEllipse
10
17.202198
20
-4.343655
30
0
11
0.250000000000001
21
0.433012701892219
31
0
210
0
220
0
230
1
40
0.989133
41
-1.6838468355282
42
-1.1698851835015
0
ELLIPSE
5
11F
100
AcDbEntity
8
1
62
256
6
ByLayer
370
18
48
1
60
0
100
AcDbEllipse
10
20.054285
20
-2.817488
30
0
11
-0.224999999999993
21
-0.389711431703001
31
0
210
0
220
0
230
1
40
0.989133
41
1.45774581806161
42
-1.99227101070296
0
ELLIPSE
5
120
100
AcDbEntity
8
1
62
256
6
ByLayer
370
18
48
1
60
0
100
AcDbEllipse
10
20.308989
20
-5.18535
30
0
11
0.250000000000001
21
0.433012701892219
31
0
210
0
220
0
230
1
40
0.989133
41
1.68255754205669
42
2.19651919408341
0
ELLIPSE
5
121
100
AcDbEntity
8
1
62
256
6
ByLayer
370
18
48
1
60
0
100
AcDbEllipse
10
20.308989
20
-5.18535
30
0
11
0.250000000000001
21
0.433012701892219
31
0
210
0
220
0
230
1
40
0.989133
41
0.410548266865029
42
0.92450991889168
0
ELLIPSE
5
122
100
AcDbEntity
8
1
62
256
6
ByLayer
370
18
48
1
60
0
100
AcDbEllipse
10
19.506044
20
-2.052185
30
0
11
0.250000000000001
21
0.433012701892219
31
0
210
0
220
0
230
1
40
0.989133
41
2.50494336925828
42
3.01890502128486
0
ELLIPSE
5
123
100
AcDbEntity
8
1
62
256
6
ByLayer
370
18
48
1
60
0
100
AcDbEllipse
10
19.00023
20
-3.857213
30
0
11
0.700000000000003
21
1.21243556529821
31
0
210
0
220
0
230
1
40
0.989133
41
-0.882462531094127
42
-0.699260212743872
0
ELLIPSE
5
124
100
AcDbEntity
8
1
62
256
6
ByLayer
370
18
48
1
60
0
100
AcDbEllipse
10
18.244423
20
-5.517908
30
0
11
0.250000000000001
21
0.433012701892219
31
0
210
0
220
0
230
1
40
0.989133
41
0.515347228335362
42
1.1493216428869
0
ELLIPSE
5
125
100
AcDbEntity
8
1
62
256
6
ByLayer
370
18
48
1
60
0
100
AcDbEllipse
10
19.00023
20
-3.857213
30
0
11
0.700000000000003
21
1.21243556529821
31
0
210
0
220
0
230
1
40
0.989133
41
0.16473502010248
42
0.347937338453133
0
ELLIPSE
5
126
100
AcDbEntity
8
1
62
256
6
ByLayer
370
18
48
1
60
0
100
AcDbEllipse
10
17.702499
20
-2.535443
30
0
11
0.250000000000001
21
0.433012701892219
31
0
210
0
220
0
230
1
40
0.989133
41
-1.45903511153299
42
-0.945073459506383
0
ELLIPSE
5
127
100
AcDbEntity
8
1
62
256
6
ByLayer
370
18
48
1
60
0
100
AcDbEllipse
10
20.419726
20
-4.243474
30
0
11
-0.224999999999993
21
-0.389711431703001
31
0
210
0
220
0
230
1
40
0.989133
41
0.410548266864967
42
-3.03946856189956
0
ELLIPSE
5
128
100
AcDbEntity
8
1
62
256
6
ByLayer
370
18
48
1
60
0
100
AcDbEllipse
10
18.640302
20
-2.43441
30
0
11
-0.224999999999993
21
-0.389711431703001
31
0
210
0
220
0
230
1
40
0.989133
41
2.5049433692583
42
-0.945073459506353
0
ELLIPSE
5
129
100
AcDbEntity
8
1
62
256
6
ByLayer
370
18
48
1
60
0
100
AcDbEllipse
10
20.047968
20
-5.034649
30
0
11
0.250000000000001
21
0.433012701892219
31
0
210
0
220
0
230
1
40
0.989133
41
0.410548266865038
42
1.04452268141647
0
ELLIPSE
5
12A
100
AcDbEntity
8
1
62
256
6
ByLayer
370
18
48
1
60
0
100
AcDbEllipse
10
19.506044
20
-2.052185
30
0
11
0.250000000000001
21
0.433012701892219
31
0
210
0
220
0
230
1
40
0.989133
41
-2.50623266272959
42
-1.99227101070297
0
ELLIPSE
5
12B
100
AcDbEntity
8
1
62
256
6
ByLayer
370
18
48
1
60
0
100
AcDbEllipse
10
19.005744
20
-3.860396
30
0
11
0.712500000000003
21
1.23408620039282
31
0
210
0
220
0
230
1
40
0.989133
41
-3.01545337856994
42
-2.75505957005432
0
ELLIPSE
5
12C
100
AcDbEntity
8
1
62
256
6
ByLayer
370
18
48
1
60
0
100
AcDbEllipse
10
18.505443
20
-5.668608
30
0
11
0.250000000000001
21
0.433012701892219
31
0
210
0
220
0
230
1
40
0.989133
41
0.635359990860174
42
1.14932164288686
0
ELLIPSE
5
12D
100
AcDbEntity
8
1
62
256
6
ByLayer
370
18
48
1
60
0
100
AcDbEllipse
10
19.00023
20
-3.857213
30
0
11
0.700000000000003
21
1.21243556529821
31
0
210
0
220
0
230
1
40
0.989133
41
-1.9296600822907
42
-1.7464577639405
0
ELLIPSE
5
12E
100
AcDbEntity
8
1
62
256
6
ByLayer
370
18
48
1
60
0
100
AcDbEllipse
10
20.809289
20
-3.377138
30
0
11
0.250000000000001
21
0.433012701892219
31
0
210
0
220
0
230
1
40
0.989133
41
1.45774581806161
42
1.97170747008827
0
ELLIPSE
5
12F
100
AcDbEntity
8
1
62
256
6
ByLayer
370
18
48
1
60
0
100
AcDbEllipse
10
19.005744
20
-3.860396
30
0
11
0.712500000000003
21
1.23408620039282
31
0
210
0
220
0
230
1
40
0.989133
41
2.22053437741302
42
2.48092818592864
0
ELLIPSE
5
130
100
AcDbEntity
8
1
62
256
6
ByLayer
370
18
48
1
60
0
100
AcDbEllipse
10
17.957202
20
-4.903305
30
0
11
-0.224999999999993
21
-0.389711431703001
31
0
210
0
220
0
230
1
40
0.989133
41
-1.68384683552813
42
1.14932164288681
0
ELLIPSE
5
131
100
AcDbEntity
8
1
62
256
6
ByLayer
370
18
48
1
60
0
100
AcDbEllipse
10
19.005744
20
-3.860396
30
0
11
0.712500000000003
21
1.23408620039282
31
0
210
0
220
0
230
1
40
0.989133
41
0.126139275019789
42
0.386533083535427
0
ELLIPSE
5
132
100
AcDbEntity
8
1
62
256
6
ByLayer
370
18
48
1
60
0
100
AcDbEllipse
10
19.005744
20
-3.860396
30
0
11
0.712500000000003
21
1.23408620039282
31
0
210
0
220
0
230
1
40
0.989133
41
-1.96825582737336
42
-1.70786201885775
0
ELLIPSE
5
133
100
AcDbEntity
8
1
62
256
6
ByLayer
370
18
48
1
60
0
100
AcDbEllipse
10
18.744723
20
-3.709696
30
0
11
0.700000000000003
21
1.21243556529821
31
0
210
0
220
0
230
1
40
0.989133
41
-1.74645776394049
42
-0.882462531094124
0
ELLIPSE
5
134
100
AcDbEntity
8
1
62
256
6
ByLayer
370
18
48
1
60
0
100
AcDbEllipse
10
20.548269
20
-3.226438
30
0
11
0.250000000000001
21
0.433012701892219
31
0
210
0
220
0
230
1
40
0.989133
41
1.45774581806162
42
2.09172023261306
0
ELLIPSE
5
135
100
AcDbEntity
8
1
62
256
6
ByLayer
370
18
48
1
60
0
100
AcDbEllipse
10
19.005744
20
-3.860396
30
0
11
0.712500000000003
21
1.23408620039282
31
0
210
0
220
0
230
1
40
0.989133
41
-0.921058276176795
42
-0.66066446766118
0
ELLIPSE
5
136
100
AcDbEntity
8
1
62
256
6
ByLayer
370
18
48
1
60
0
100
AcDbEllipse
10
19.371185
20
-5.286383
30
0
11
-0.224999999999993
21
-0.389711431703001
31
0
210
0
220
0
230
1
40
0.989133
41
-0.63664928433157
42
2.19651919408339
0
ELLIPSE
5
137
100
AcDbEntity
8
1
62
256
6
ByLayer
370
18
48
1
60
0
100
AcDbEllipse
10
17.702499
20
-2.535443
30
0
11
0.250000000000001
21
0.433012701892219
31
0
210
0
220
0
230
1
40
0.989133
41
-2.73104438672468
42
-2.217082734698
0
ELLIPSE
5
138
100
AcDbEntity
8
1
62
256
6
ByLayer
370
18
48
1
60
0
100
AcDbEllipse
10
17.591761
20
-3.477319
30
0
11
-0.224999999999993
21
-0.389711431703001
31
0
210
0
220
0
230
1
40
0.989133
41
-2.73104438672489
42
0.102124091690365
0
ELLIPSE
5
139
100
AcDbEntity
8
1
62
256
6
ByLayer
370
18
48
1
60
0
100
AcDbEllipse
10
18.833299
20
-3.760836
30
0
11
-2.49999999999992
21
-4.33012701892224
31
0
210
0
220
0
230
1
40
0.989133
41
0
42
6.28318530717959
0
POINT
5
6C
100
AcDbEntity
8
2
62
256
6
ByLayer
370
18
48
1
60
0
100
AcDbPoint
10
46.743142
20
55.275
30
0
39
0
210
0
220
0
230
1
50
360
0
POINT
5
6E
100
AcDbEntity
8
80
62
256
6
ByLayer
370
18
48
1
60
0
100
AcDbPoint
10
0
20
0
30
0
39
0
210
0
220
0
230
1
50
360
0
POINT
5
70
100
AcDbEntity
8
81
62
256
6
ByLayer
370
18
48
1
60
0
100
AcDbPoint
10
46.743142
20
-15.425
30
0
39
0
210
0
220
0
230
1
50
360
0
SPLINE
5
13A
100
AcDbEntity
8
1
62
256
6
ByLayer
370
18
48
1
60
0
100
AcDbSpline
70
4
71
3
72
8
73
4
40
0
40
0
40
0
40
0
40
1
40
1
40
1
40
1
41
1
10
7.87360688014979
20
-10.1335179486423
30
0
41
1
10
7.57846800970117
20
-10.0068275325399
30
0
41
1
10
7.27739322953136
20
-9.84737547493378
30
0
41
1
10
6.98217172356448
20
-9.64093196023779
30
0
0
SPLINE
5
13B
100
AcDbEntity
8
1
62
256
6
ByLayer
370
18
48
1
60
0
100
AcDbSpline
70
4
71
3
72
8
73
4
40
0
40
0
40
0
40
0
40
1
40
1
40
1
40
1
41
1
10
34.9522027402218
20
-0.82509729859035
30
0
41
1
10
34.7451565376268
20
-0.792946467574524
30
0
41
1
10
34.5380043159864
20
-0.761278771515777
30
0
41
1
10
34.3308138779778
20
-0.729788417953927
30
0
0
SPLINE
5
13C
100
AcDbEntity
8
1
62
256
6
ByLayer
370
18
48
1
60
0
100
AcDbSpline
70
4
71
3
72
12
73
8
40
0
40
0
40
0
40
0
40
0.295831841262311
40
0.295831841262311
40
0.591663914161889
40
0.591663914161889
40
1
40
1
40
1
40
1
41
1
10
24.6661350509791
20
-6.57968159252087
30
0
41
1
10
24.7757896060136
20
-6.37325307666677
30
0
41
1
10
24.872314425548
20
-6.15906904999628
30
0
41
1
10
25.0365952641664
20
-5.72114039033357
30
0
41
1
10
25.1047273401414
20
-5.49639164099463
30
0
41
1
10
25.2312006854903
20
-4.95567591830331
30
0
41
1
10
25.2765835815487
20
-4.63492832275304
30
0
41
1
10
25.2927351499451
20
-4.31499087094844
30
0
0
SPLINE
5
13D
100
AcDbEntity
8
1
62
256
6
ByLayer
370
18
48
1
60
0
100
AcDbSpline
70
4
71
3
72
8
73
4
40
0
40
0
40
0
40
0
40
1
40
1
40
1
40
1
41
1
10
30.7738199834449
20
-13.585661059808
30
0
41
1
10
30.970983804585
20
-13.6533901344089
30
0
41
1
10
31.1682061647209
20
-13.7209468532291
30
0
41
1
10
31.3655863392351
20
-13.7880331465019
30
0
0
SPLINE
5
13E
100
AcDbEntity
8
1
62
256
6
ByLayer
370
18
48
1
60
0
100
AcDbSpline
70
4
71
3
72
8
73
4
40
0
40
0
40
0
40
0
40
1
40
1
40
1
40
1
41
1
10
13.5485992765747
20
-6.27028871324049
30
0
41
1
10
14.1206350448056
20
-7.29658876612254
30
0
41
1
10
15.1005639120644
20
-8.06535719677632
30
0
41
1
10
16.3227038223132
20
-8.39646050341511
30
0
0
SPLINE
5
13F
100
AcDbEntity
8
1
62
256
6
ByLayer
370
18
48
1
60
0
100
AcDbSpline
70
4
71
3
72
10
73
6
40
0
40
0
40
0
40
0
40
0.493064313563137
40
0.493064313563137
40
1
40
1
40
1
40
1
41
1
10
30.7738199834449
20
-13.585661059808
30
0
41
1
10
30.4808835783837
20
-13.4850324986603
30
0
41
1
10
30.1339650230792
20
-13.425656197681
30
0
41
1
10
29.3938070132234
20
-13.3857949375568
30
0
41
1
10
28.989747406073
20
-13.4055845065921
30
0
41
1
10
28.5888405541256
20
-13.4527828377948
30
0
0
SPLINE
5
140
100
AcDbEntity
8
1
62
256
6
ByLayer
370
18
48
1
60
0
100
AcDbSpline
70
4
71
3
72
12
73
8
40
0
40
0
40
0
40
0
40
0.357928014296227
40
0.357928014296227
40
0.886263242629131
40
0.886263242629131
40
1
40
1
40
1
40
1
41
1
10
8.3850853947024
20
-6.09535688728351
30
0
41
1
10
8.35258837811199
20
-6.21280929763742
30
0
41
1
10
8.31301751323826
20
-6.32825015381246
30
0
41
1
10
8.2116909357772
20
-6.5886044952461
30
0
41
1
10
8.14623858991206
20
-6.7281926914747
30
0
41
1
10
8.06743967552802
20
-6.87909615821556
30
0
41
1
10
8.05334921163364
20
-6.90539122090445
30
0
41
1
10
8.0392563329757
20
-6.93107571217314
30
0
0
SPLINE
5
141
100
AcDbEntity
8
1
62
256
6
ByLayer
370
18
48
1
60
0
100
AcDbSpline
70
4
71
3
72
10
73
6
40
0
40
0
40
0
40
0
40
0.5
40
0.5
40
1
40
1
40
1
40
1
41
1
10
16.8597624742068
20
-12.741734550699
30
0
41
1
10
18.7745045215439
20
-13.2018275168874
30
0
41
1
10
20.7096180399506
20
-13.5216454508872
30
0
41
1
10
24.6504240342408
20
-13.6752847259934
30
0
41
1
10
26.6264865247887
20
-13.6838086607851
30
0
41
1
10
28.5888405541255
20
-13.4527828377949
30
0
0
SPLINE
5
142
100
AcDbEntity
8
1
62
256
6
ByLayer
370
18
48
1
60
0
100
AcDbSpline
70
4
71
3
72
8
73
4
40
0
40
0
40
0
40
0
40
1
40
1
40
1
40
1
41
1
10
13.5485992765747
20
-6.27028871324049
30
0
41
1
10
13.4766360356466
20
-6.14117811898777
30
0
41
1
10
13.3907935211575
20
-6.01601451051138
30
0
41
1
10
13.2933694744267
20
-5.89882136843272
30
0
0
SPLINE
5
143
100
AcDbEntity
8
1
62
256
6
ByLayer
370
18
48
1
60
0
100
AcDbSpline
70
4
71
3
72
8
73
4
40
0
40
0
40
0
40
0
40
1
40
1
40
1
40
1
41
1
10
12.3705176291082
20
-5.19412336766851
30
0
41
1
10
10.97752496648
20
-5.58672628854734
30
0
41
1
10
9.67085731842968
20
-5.90354405723772
30
0
41
1
10
8.6846203972089
20
-6.04512361892569
30
0
0
SPLINE
5
144
100
AcDbEntity
8
1
62
256
6
ByLayer
370
18
48
1
60
0
100
AcDbSpline
70
4
71
3
72
10
73
6
40
0
40
0
40
0
40
0
40
0.5
40
0.5
40
1
40
1
40
1
40
1
41
1
10
33.6817421158145
20
-5.95583815767901
30
0
41
1
10
34.4522155987332
20
-5.77389268970751
30
0
41
1
10
35.1433498755986
20
-5.40566089598184
30
0
41
1
10
36.4421232986573
20
-4.51043018619723
30
0
41
1
10
37.0804986046652
20
-4.03716197797064
30
0
41
1
10
37.6086192611299
20
-3.38619411889584
30
0
0
SPLINE
5
145
100
AcDbEntity
8
1
62
256
6
ByLayer
370
18
48
1
60
0
100
AcDbSpline
70
4
71
3
72
14
73
10
40
0
40
0
40
0
40
0
40
0.272255003219813
40
0.272255003219813
40
0.545341763696493
40
0.545341763696493
40
0.807341289944271
40
0.807341289944271
40
1
40
1
40
1
40
1
41
1
10
38.6080453717607
20
-5.13674474647871
30
0
41
1
10
38.8396767470657
20
-5.27696001755729
30
0
41
1
10
39.0719183872993
20
-5.46577462758958
30
0
41
1
10
39.4981936625981
20
-5.9201220408562
30
0
41
1
10
39.6976164058889
20
-6.19207962294934
30
0
41
1
10
40.0282265851429
20
-6.76366309644624
30
0
41
1
10
40.1660898917575
20
-7.0682710235391
30
0
41
1
10
40.3541316682363
20
-7.60019874884091
30
0
41
1
10
40.4192505460969
20
-7.82972519189923
30
0
41
1
10
40.4700222232738
20
-8.05678654671027
30
0
0
SPLINE
5
146
100
AcDbEntity
8
1
62
256
6
ByLayer
370
18
48
1
60
0
100
AcDbSpline
70
4
71
3
72
10
73
6
40
0
40
0
40
0
40
0
40
0.5
40
0.5
40
1
40
1
40
1
40
1
41
1
10
18.9324576406757
20
-9.09015076740283
30
0
41
1
10
20.0270200466811
20
-9.30180833213674
30
0
41
1
10
21.1875452429206
20
-9.16483402155015
30
0
41
1
10
23.2329602826281
20
-8.31079720380873
30
0
41
1
10
24.1358900606959
20
-7.57780149839064
30
0
41
1
10
24.6661350509791
20
-6.57968159252087
30
0
0
SPLINE
5
147
100
AcDbEntity
8
1
62
256
6
ByLayer
370
18
48
1
60
0
100
AcDbSpline
70
4
71
3
72
8
73
4
40
0
40
0
40
0
40
0
40
1
40
1
40
1
40
1
41
1
10
34.7185224826675
20
-8.39269913277823
30
0
41
1
10
35.3949313263895
20
-8.35970854807618
30
0
41
1
10
36.0513462286759
20
-8.36611229786357
30
0
41
1
10
36.6704849724492
20
-8.41659667910062
30
0
0
SPLINE
5
148
100
AcDbEntity
8
1
62
256
6
ByLayer
370
18
48
1
60
0
100
AcDbSpline
70
4
71
3
72
8
73
4
40
0
40
0
40
0
40
0
40
1
40
1
40
1
40
1
41
1
10
18.2674700729746
20
-10.4716884382424
30
0
41
1
10
18.464449449717
20
-10.1540427362516
30
0
41
1
10
18.6925490363963
20
-9.68015692694286
30
0
41
1
10
18.9324576406757
20
-9.09015076740283
30
0
0
SPLINE
5
149
100
AcDbEntity
8
1
62
256
6
ByLayer
370
18
48
1
60
0
100
AcDbSpline
70
4
71
3
72
8
73
4
40
0
40
0
40
0
40
0
40
1
40
1
40
1
40
1
41
1
10
21.6701005993607
20
0.804381036593412
30
0
41
1
10
21.7778000900912
20
1.47071816331467
30
0
41
1
10
21.8386492700963
20
2.04116603984539
30
0
41
1
10
21.8474965727493
20
2.46742984540353
30
0
0
SPLINE
5
14A
100
AcDbEntity
8
1
62
256
6
ByLayer
370
18
48
1
60
0
100
AcDbSpline
70
4
71
3
72
10
73
6
40
0
40
0
40
0
40
0
40
0.137559836752826
40
0.137559836752826
40
1
40
1
40
1
40
1
41
1
10
15.1559978845355
20
0.833187268484863
30
0
41
1
10
15.1760834165705
20
0.840696574484468
30
0
41
1
10
15.1960492834901
20
0.848452281294897
30
0
41
1
10
15.3391493755976
20
0.906149963071897
30
0
41
1
10
15.4577954188323
20
0.965458945190051
30
0
41
1
10
15.5692569459037
20
1.03287750517944
30
0
0
SPLINE
5
14B
100
AcDbEntity
8
1
62
256
6
ByLayer
370
18
48
1
60
0
100
AcDbSpline
70
4
71
1
72
4
73
2
40
0
40
0
40
1
40
1
41
1
10
21.8474965727493
20
2.46742984540353
30
0
41
1
10
21.9107235733656
20
5.51371219312301
30
0
0
SPLINE
5
14C
100
AcDbEntity
8
1
62
256
6
ByLayer
370
18
48
1
60
0
100
AcDbSpline
70
4
71
3
72
14
73
10
40
0
40
0
40
0
40
0
40
0.185244445916094
40
0.185244445916094
40
0.469711312964406
40
0.469711312964406
40
0.755916846591523
40
0.755916846591523
40
1
40
1
40
1
40
1
41
1
10
39.8407573727656
20
-10.331108352141
30
0
41
1
10
39.6881530534184
20
-10.4883286098433
30
0
41
1
10
39.5227799987109
20
-10.6417243075753
30
0
41
1
10
39.0781887496514
20
-11.0085782015896
30
0
41
1
10
38.7788363815487
20
-11.2146926294323
30
0
41
1
10
38.1596020712112
20
-11.5546001266494
30
0
41
1
10
37.8308424414784
20
-11.6922239598626
30
0
41
1
10
37.2451713521808
20
-11.8606812757733
30
0
41
1
10
36.9782929222711
20
-11.9063842324134
30
0
41
1
10
36.7311098754836
20
-11.9204627995808
30
0
0
SPLINE
5
14D
100
AcDbEntity
8
1
62
256
6
ByLayer
370
18
48
1
60
0
100
AcDbSpline
70
4
71
3
72
26
73
22
40
0
40
0
40
0
40
0
40
0.305559650062832
40
0.305559650062832
40
0.592938506760059
40
0.592938506760059
40
0.73685575959638
40
0.73685575959638
40
0.794364492020967
40
0.794364492020967
40
0.820930548617545
40
0.820930548617545
40
0.847991021748999
40
0.847991021748999
40
0.871122963339878
40
0.871122963339878
40
0.898335682818881
40
0.898335682818881
40
0.945305435562348
40
0.945305435562348
40
1
40
1
40
1
40
1
41
1
10
34.9522457262673
20
-7.54796440951637
30
0
41
1
10
34.7538998627281
20
-7.4302143961483
30
0
41
1
10
34.5556815279861
20
-7.30026117103256
30
0
41
1
10
34.1772576990397
20
-7.01516491235765
30
0
41
1
10
33.9944463090006
20
-6.86201717082648
30
0
41
1
10
33.7368452160997
20
-6.59058410798724
30
0
41
1
10
33.6517658743909
20
-6.49195470029966
30
0
41
1
10
33.5499654330697
20
-6.3345301252896
30
0
41
1
10
33.5223715688888
20
-6.28627819646707
30
0
41
1
10
33.4915064458721
20
-6.21221404694973
30
0
41
1
10
33.4830733167829
20
-6.18787854749706
30
0
41
1
10
33.471565558759
20
-6.13948737521662
30
0
41
1
10
33.468581047368
20
-6.11475425248287
30
0
41
1
10
33.4706163275615
20
-6.07378009419847
30
0
41
1
10
33.4745903328327
20
-6.05635814827602
30
0
41
1
10
33.4883055300601
20
-6.02479124516
30
0
41
1
10
33.4990132942723
20
-6.01114747458675
30
0
41
1
10
33.532107008983
20
-5.98227762659599
30
0
41
1
10
33.5577059900388
20
-5.97187120597744
30
0
41
1
10
33.6152402910382
20
-5.95781309173711
30
0
41
1
10
33.6482361515895
20
-5.95551504885179
30
0
41
1
10
33.6817421158145
20
-5.95583815767901
30
0
0
SPLINE
5
14E
100
AcDbEntity
8
1
62
256
6
ByLayer
370
18
48
1
60
0
100
AcDbSpline
70
4
71
2
72
6
73
3
40
0
40
0
40
0
40
1
40
1
40
1
41
1.02275914691308
10
18.2674700729745
20
-10.4716884382424
30
0
41
1.02275914691308
10
17.5636162735907
20
-11.6067114944707
30
0
41
1.02275914691308
10
16.8597624742068
20
-12.741734550699
30
0
0
SPLINE
5
14F
100
AcDbEntity
8
1
62
256
6
ByLayer
370
18
48
1
60
0
100
AcDbSpline
70
4
71
2
72
10
73
7
40
0
40
0
40
0
40
0.327809911400262
40
0.546349852333769
40
0.764889793267277
40
0.983429734200785
40
1
40
1
40
1
41
1.02275914691308
10
21.8474965727493
20
2.46742984540352
30
0
41
1.0218723728006
10
23.8109060257791
20
1.51150814537708
30
0
41
1.01941804929199
10
26.603019598815
20
-0.539509962384468
30
0
41
1.01588036664668
10
30.3654186200656
20
-3.53241428192675
30
0
41
1.01357557431911
10
32.4788926665177
20
-5.12713419788723
30
0
41
1.01317993487853
10
33.6021461267627
20
-5.90292419657653
30
0
41
1.01314306577281
10
33.6817421158149
20
-5.95583815767925
30
0
0
SPLINE
5
150
100
AcDbEntity
8
1
62
256
6
ByLayer
370
18
48
1
60
0
100
AcDbSpline
70
4
71
3
72
8
73
4
40
0
40
0
40
0
40
0
40
1
40
1
40
1
40
1
41
1
10
21.6701005993223
20
0.804381036355181
30
0
41
1
10
21.5535693270646
20
0.845346700923415
30
0
41
1
10
21.435905675483
20
0.882004060413863
30
0
41
1
10
21.3170749158904
20
0.91419780280097
30
0
0
SPLINE
5
151
100
AcDbEntity
8
1
62
256
6
ByLayer
370
18
48
1
60
0
100
AcDbSpline
70
4
71
3
72
8
73
4
40
0
40
0
40
0
40
0
40
1
40
1
40
1
40
1
41
1
10
15.1559978845355
20
0.833187268484863
30
0
41
1
10
14.5544843983374
20
2.3679476077719
30
0
41
1
10
13.9360375961172
20
3.79864072766011
30
0
41
1
10
13.4058787392696
20
4.754440976132
30
0
0
SPLINE
5
152
100
AcDbEntity
8
1
62
256
6
ByLayer
370
18
48
1
60
0
100
AcDbSpline
70
4
71
3
72
10
73
6
40
0
40
0
40
0
40
0
40
0.5
40
0.5
40
1
40
1
40
1
40
1
41
1
10
34.9699235338013
20
-12.92310567821
30
0
41
1
10
34.8312810576492
20
-12.1664873258491
30
0
41
1
10
34.5059206626782
20
-11.5073299789166
30
0
41
1
10
33.8098067491852
20
-10.2219091213996
30
0
41
1
10
33.3864069426868
20
-9.627928196775
30
0
41
1
10
32.7978673428041
20
-9.15038441064041
30
0
0
SPLINE
5
153
100
AcDbEntity
8
1
62
256
6
ByLayer
370
18
48
1
60
0
100
AcDbSpline
70
4
71
2
72
6
73
3
40
0
40
0
40
0
40
1
40
1
40
1
41
1
10
34.9510246866716
20
-0.827373906836471
30
0
41
1
10
36.3562164670511
20
-2.03873745586475
30
0
41
1
10
37.6082802163016
20
-3.38513952373688
30
0
0
SPLINE
5
154
100
AcDbEntity
8
1
62
256
6
ByLayer
370
18
48
1
60
0
100
AcDbSpline
70
4
71
3
72
10
73
6
40
0
40
0
40
0
40
0
40
0.495114567541134
40
0.495114567541134
40
1
40
1
40
1
40
1
41
1
10
32.3700488423374
20
0.213457146561268
30
0
41
1
10
32.6834870547575
20
-0.0237449739965996
30
0
41
1
10
33.0137775683513
20
-0.236477211022361
30
0
41
1
10
33.6752072860788
20
-0.56504002923171
30
0
41
1
10
34.0158206914298
20
-0.681913395779588
30
0
41
1
10
34.3308138779777
20
-0.729788417953898
30
0
0
SPLINE
5
155
100
AcDbEntity
8
1
62
256
6
ByLayer
370
18
48
1
60
0
100
AcDbSpline
70
4
71
3
72
8
73
4
40
0
40
0
40
0
40
0
40
1
40
1
40
1
40
1
41
1
10
39.7395579919638
20
-9.13740157525245
30
0
41
1
10
39.9627267474922
20
-9.23323084919355
30
0
41
1
10
40.1769386270893
20
-9.33760936711212
30
0
41
1
10
40.3823112452174
20
-9.45031095032667
30
0
0
SPLINE
5
156
100
AcDbEntity
8
1
62
256
6
ByLayer
370
18
48
1
60
0
100
AcDbSpline
70
4
71
3
72
8
73
4
40
0
40
0
40
0
40
0
40
1
40
1
40
1
40
1
41
1
10
18.9324576381205
20
-9.09015076689704
30
0
41
1
10
18.8112309353136
20
-9.06615557528696
30
0
41
1
10
18.691179007143
20
-9.03813005271368
30
0
41
1
10
18.5723482483853
20
-9.00593631055278
30
0
0
SPLINE
5
157
100
AcDbEntity
8
1
62
256
6
ByLayer
370
18
48
1
60
0
100
AcDbSpline
70
4
71
2
72
10
73
7
40
0
40
0
40
0
40
0.327809911387052
40
0.546349852311753
40
0.764889793236455
40
0.983429734161156
40
1
40
1
40
1
41
1.02275914691308
10
18.2674700729746
20
-10.4716884382424
30
0
41
1.0218723728006
10
20.445010289238
20
-10.6536875767227
30
0
41
1.01941804929199
10
23.8977708678483
20
-10.3169608583046
30
0
41
1.01588036664668
10
28.6780935402861
20
-9.63083248751376
30
0
41
1.01357557431911
10
31.3270491226757
20
-9.29018714046645
30
0
41
1.01317993487846
10
32.7014954361939
20
-9.15810284388596
30
0
41
1.01314306577263
10
32.7978673428047
20
-9.15038441064039
30
0
0
SPLINE
5
158
100
AcDbEntity
8
1
62
256
6
ByLayer
370
18
48
1
60
0
100
AcDbSpline
70
4
71
3
72
8
73
4
40
0
40
0
40
0
40
0
40
1
40
1
40
1
40
1
41
1
10
36.6704849724492
20
-8.41659667910062
30
0
41
1
10
36.1025788111928
20
-8.1816497717644
30
0
41
1
10
35.5256733156256
20
-7.8880523941348
30
0
41
1
10
34.9522457262673
20
-7.54796440951637
30
0
0
SPLINE
5
159
100
AcDbEntity
8
1
62
256
6
ByLayer
370
18
48
1
60
0
100
AcDbSpline
70
4
71
2
72
9
73
6
40
0
40
0
40
0
40
0.215578737060679
40
0.501173956569647
40
0.786769176078616
40
1
40
1
40
1
41
1.01987110935361
10
25.292735149945
20
-4.31499087094845
30
0
41
1.01898440041077
10
26.348494476388
20
-4.67190341816683
30
0
41
1.01588036664668
10
29.9064817014106
20
-5.89547768850257
30
0
41
1.01357557431911
10
32.17287769325
20
-6.65655475040435
30
0
41
1.01293324595055
10
34.1045745668412
20
-7.31562171434396
30
0
41
1.0117874761266
10
34.9522457283212
20
-7.54796441007932
30
0
0
SPLINE
5
15A
100
AcDbEntity
8
1
62
256
6
ByLayer
370
18
48
1
60
0
100
AcDbSpline
70
4
71
3
72
12
73
8
40
0
40
0
40
0
40
0
40
0.5
40
0.5
40
0.75
40
0.75
40
1
40
1
40
1
40
1
41
1
10
8.0392563329757
20
-6.93107571217209
30
0
41
1
10
7.64319993508258
20
-7.65289467765888
30
0
41
1
10
7.49766596199288
20
-8.27439362808909
30
0
41
1
10
7.56601437357364
20
-9.13989556386196
30
0
41
1
10
7.64226042453532
20
-9.42743428676664
30
0
41
1
10
8.02179968390124
20
-10.0117641691682
30
0
41
1
10
8.34310406628794
20
-10.3100651894874
30
0
41
1
10
8.78268389010105
20
-10.5214373963257
30
0
0
SPLINE
5
15B
100
AcDbEntity
8
1
62
256
6
ByLayer
370
18
48
1
60
0
100
AcDbSpline
70
4
71
3
72
8
73
4
40
0
40
0
40
0
40
0
40
1
40
1
40
1
40
1
41
1
10
40.4694188642201
20
-9.13548205569492
30
0
41
1
10
40.2293442312892
20
-9.1481047605925
30
0
41
1
10
39.986080795073
20
-9.14883234108214
30
0
41
1
10
39.7395579919638
20
-9.13740157525248
30
0
0
SPLINE
5
15C
100
AcDbEntity
8
1
62
256
6
ByLayer
370
18
48
1
60
0
100
AcDbSpline
70
4
71
3
72
10
73
6
40
0
40
0
40
0
40
0
40
0.5
40
0.5
40
1
40
1
40
1
40
1
41
1
10
32.3700488423374
20
0.21345714656124
30
0
41
1
10
30.8004217069358
20
1.40131130808061
30
0
41
1
10
29.0941575440138
20
2.39083071558076
30
0
41
1
10
25.6255900592711
20
4.24403665652284
30
0
41
1
10
23.795789449872
20
4.94434152681845
30
0
41
1
10
21.9107235733656
20
5.51371219312301
30
0
0
SPLINE
5
15D
100
AcDbEntity
8
1
62
256
6
ByLayer
370
18
48
1
60
0
100
AcDbSpline
70
4
71
3
72
8
73
4
40
0
40
0
40
0
40
0
40
1
40
1
40
1
40
1
41
1
10
12.3705176291082
20
-5.19412336766854
30
0
41
1
10
12.1616290509418
20
-5.0901208491602
30
0
41
1
10
11.946474917826
20
-5.0081286073318
30
0
41
1
10
11.7322249335182
20
-4.94549154916203
30
0
0
SPLINE
5
15E
100
AcDbEntity
8
1
62
256
6
ByLayer
370
18
48
1
60
0
100
AcDbSpline
70
4
71
3
72
14
73
10
40
0
40
0
40
0
40
0
40
0.125000000000012
40
0.125000000000012
40
0.250000000000024
40
0.250000000000024
40
0.500000000000026
40
0.500000000000026
40
1
40
1
40
1
40
1
41
1
10
32.7978673428042
20
-9.15038441064041
30
0
41
1
10
32.7296120217775
20
-9.11815811272808
30
0
41
1
10
32.6593192146559
20
-9.07800097070586
30
0
41
1
10
32.6674475192804
20
-8.92413142044447
30
0
41
1
10
32.7849535357223
20
-8.83269084295651
30
0
41
1
10
33.100089700274
20
-8.66389059081243
30
0
41
1
10
33.3171967869774
20
-8.60367764685586
30
0
41
1
10
33.942538987
20
-8.45295469086048
30
0
41
1
10
34.3351651640095
20
-8.41154604375555
30
0
41
1
10
34.7185224826675
20
-8.39269913277823
30
0
0
SPLINE
5
15F
100
AcDbEntity
8
1
62
256
6
ByLayer
370
18
48
1
60
0
100
AcDbSpline
70
4
71
3
72
12
73
8
40
0
40
0
40
0
40
0
40
0.470394739545275
40
0.470394739545275
40
0.888179192190589
40
0.888179192190589
40
1
40
1
40
1
40
1
41
1
10
14.0019841921
20
0.702408078591134
30
0
41
1
10
14.1801023768648
20
0.685052488801318
30
0
41
1
10
14.3667823487992
20
0.682118230200217
30
0
41
1
10
14.7148770728796
20
0.713775043187127
30
0
41
1
10
14.8803443816858
20
0.744902925137865
30
0
41
1
10
15.0752206381068
20
0.804412396488033
30
0
41
1
10
15.1161066843566
20
0.818273288197304
30
0
41
1
10
15.1559978845355
20
0.833187268484863
30
0
0
SPLINE
5
160
100
AcDbEntity
8
1
62
256
6
ByLayer
370
18
48
1
60
0
100
AcDbSpline
70
4
71
3
72
10
73
6
40
0
40
0
40
0
40
0
40
0.5
40
0.5
40
1
40
1
40
1
40
1
41
1
10
25.2927351499451
20
-4.31499087094844
30
0
41
1
10
25.3494255722817
20
-3.19129987554402
30
0
41
1
10
24.9540911635145
20
-2.08407190054109
30
0
41
1
10
23.6451588139734
20
-0.282905829752991
30
0
41
1
10
22.7215207048918
20
0.436457626605886
30
0
41
1
10
21.6701005993223
20
0.804381036355181
30
0
0
SPLINE
5
161
100
AcDbEntity
8
1
62
256
6
ByLayer
370
18
48
1
60
0
100
AcDbSpline
70
4
71
3
72
12
73
8
40
0
40
0
40
0
40
0
40
0.477525441753642
40
0.477525441753642
40
0.843795690072564
40
0.843795690072564
40
1
40
1
40
1
40
1
41
1
10
11.2369961397778
20
4.6263620897935
30
0
41
1
10
11.2302994339706
20
4.49692890475134
30
0
41
1
10
11.2183804211141
20
4.35819062428669
30
0
41
1
10
11.1828899285797
20
4.09875178654863
30
0
41
1
10
11.1623051150489
20
3.97921822059743
30
0
41
1
10
11.1233485593852
20
3.80672358506973
30
0
41
1
10
11.1102958102445
20
3.75424057148956
30
0
41
1
10
11.0959775167486
20
3.70249064919858
30
0
0
SPLINE
5
162
100
AcDbEntity
8
1
62
256
6
ByLayer
370
18
48
1
60
0
100
AcDbSpline
70
4
71
3
72
20
73
16
40
0
40
0
40
0
40
0
40
0.180139434362045
40
0.180139434362045
40
0.338734027846983
40
0.338734027846983
40
0.497328642471106
40
0.497328642471106
40
0.655923259311444
40
0.655923259311444
40
0.814517859427945
40
0.814517859427945
40
0.975792228009341
40
0.975792228009341
40
1
40
1
40
1
40
1
41
1
10
40.3823112452175
20
-9.4503109503267
30
0
41
1
10
40.3882735511103
20
-9.43160037981738
30
0
41
1
10
40.3941072752687
20
-9.41284496989621
30
0
41
1
10
40.404831071816
20
-9.37750485179035
30
0
41
1
10
40.4097511534666
20
-9.36092677985613
30
0
41
1
10
40.4193859616248
20
-9.3277189486339
30
0
41
1
10
40.4241011796439
20
-9.31108749504182
30
0
41
1
10
40.433324292388
20
-9.27777969261044
30
0
41
1
10
40.4378326580201
20
-9.26110164315159
30
0
41
1
10
40.4466403017727
20
-9.22770748183413
30
0
41
1
10
40.4509400293445
20
-9.21098966611069
30
0
41
1
10
40.4593997083357
20
-9.17724010537844
30
0
41
1
10
40.4635565157738
20
-9.16020605159875
30
0
41
1
10
40.4682112232611
20
-9.14060063411111
30
0
41
1
10
40.4688162776039
20
-9.13804148850258
30
0
41
1
10
40.4694188642201
20
-9.13548205569498
30
0
0
SPLINE
5
163
100
AcDbEntity
8
1
62
256
6
ByLayer
370
18
48
1
60
0
100
AcDbSpline
70
4
71
3
72
12
73
8
40
0
40
0
40
0
40
0
40
0.465693311738351
40
0.465693311738351
40
0.925991506701023
40
0.925991506701023
40
1
40
1
40
1
40
1
41
1
10
13.2933694744266
20
-5.89882136843272
30
0
41
1
10
13.1833546904356
20
-5.76648260153016
30
0
41
1
10
13.048199366425
20
-5.63780385767168
30
0
41
1
10
12.7601938477966
20
-5.41464572355187
30
0
41
1
10
12.6039614122275
20
-5.31632629045865
30
0
41
1
10
12.4216535697796
20
-5.21996357081358
30
0
41
1
10
12.3961061387418
20
-5.20686350631144
30
0
41
1
10
12.3705176291081
20
-5.19412336766842
30
0
0
SPLINE
5
164
100
AcDbEntity
8
1
62
256
6
ByLayer
370
18
48
1
60
0
100
AcDbSpline
70
4
71
2
72
9
73
6
40
0
40
0
40
0
40
0.215578737053015
40
0.501173956564868
40
0.78676917607672
40
1
40
1
40
1
41
1.01987110935352
10
24.6661350509791
20
-6.57968159252087
30
0
41
1.01898440041071
10
25.7622790639868
20
-6.79063370151123
30
0
41
1.01588036664668
10
29.4737478524522
20
-7.45948690915117
30
0
41
1.01357557431911
10
31.8355536846218
20
-7.87572875576373
30
0
41
1.01293324595055
10
33.8583585019113
20
-8.20550864329617
30
0
41
1.01178747612661
10
34.7185224847518
20
-8.39269913323181
30
0
0
SPLINE
5
165
100
AcDbEntity
8
1
62
256
6
ByLayer
370
18
48
1
60
0
100
AcDbSpline
70
4
71
3
72
8
73
4
40
0
40
0
40
0
40
0
40
1
40
1
40
1
40
1
41
1
10
19.0674304898183
20
1.52367360993864
30
0
41
1
10
17.8461840862834
20
1.8545348468889
30
0
41
1
10
16.5896933043314
20
1.65009809827254
30
0
41
1
10
15.5692569459037
20
1.03287750517944
30
0
0
SPLINE
5
166
100
AcDbEntity
8
1
62
256
6
ByLayer
370
18
48
1
60
0
100
AcDbSpline
70
4
71
3
72
8
73
4
40
0
40
0
40
0
40
0
40
1
40
1
40
1
40
1
41
1
10
13.5454857087634
20
7.94243522394166
30
0
41
1
10
13.0662442921215
20
8.09201230738225
30
0
41
1
10
12.5172414020113
20
8.19991969383409
30
0
41
1
10
11.9118897250303
20
8.17631166351708
30
0
0
SPLINE
5
167
100
AcDbEntity
8
1
62
256
6
ByLayer
370
18
48
1
60
0
100
AcDbSpline
70
4
71
3
72
8
73
4
40
0
40
0
40
0
40
0
40
1
40
1
40
1
40
1
41
1
10
9.82585223949479
20
-8.18467730751405
30
0
41
1
10
10.7470064479698
20
-7.73051304591854
30
0
41
1
10
11.9945076388012
20
-6.88172156701879
30
0
41
1
10
13.2933694744266
20
-5.89882136843264
30
0
0
SPLINE
5
168
100
AcDbEntity
8
1
62
256
6
ByLayer
370
18
48
1
60
0
100
AcDbSpline
70
4
71
3
72
8
73
4
40
0
40
0
40
0
40
0
40
1
40
1
40
1
40
1
41
1
10
11.3200178264767
20
3.47986706588003
30
0
41
1
10
12.0709790767887
20
2.77287836878955
30
0
41
1
10
13.0158465051224
20
1.77850205310261
30
0
41
1
10
14.0019841921
20
0.702408078591134
30
0
0
SPLINE
5
169
100
AcDbEntity
8
1
62
256
6
ByLayer
370
18
48
1
60
0
100
AcDbSpline
70
4
71
3
72
12
73
8
40
0
40
0
40
0
40
0
40
0.25
40
0.25
40
0.5
40
0.5
40
1
40
1
40
1
40
1
41
1
10
13.8158660320138
20
7.66975171398991
30
0
41
1
10
13.3257556378129
20
7.69605741894731
30
0
41
1
10
12.8902009968803
20
7.58095186167043
30
0
41
1
10
12.2478297632428
20
7.21605016873062
30
0
41
1
10
12.0265460768525
20
6.97716891333354
30
0
41
1
10
11.4948419698644
20
6.1726070953342
30
0
41
1
10
11.282061751771
20
5.49738522626325
30
0
41
1
10
11.2369961397778
20
4.6263620897935
30
0
0
SPLINE
5
16A
100
AcDbEntity
8
1
62
256
6
ByLayer
370
18
48
1
60
0
100
AcDbSpline
70
4
71
3
72
8
73
4
40
0
40
0
40
0
40
0
40
1
40
1
40
1
40
1
41
1
10
14.0019841921
20
0.702408078591134
30
0
41
1
10
13.770559063739
20
0.724957823302503
30
0
41
1
10
13.5453448212271
20
0.770590293650969
30
0
41
1
10
13.3310948369193
20
0.833227351820739
30
0
0
SPLINE
5
16B
100
AcDbEntity
8
1
62
256
6
ByLayer
370
18
48
1
60
0
100
AcDbSpline
70
4
71
2
72
6
73
3
40
0
40
0
40
0
40
1
40
1
40
1
41
1
10
34.9690888920193
20
-12.9238422965423
30
0
41
1
10
33.1985454052124
20
-13.4513567330191
30
0
41
1
10
31.3657445426512
20
-13.78548023302
30
0
0
SPLINE
5
16C
100
AcDbEntity
8
1
62
256
6
ByLayer
370
18
48
1
60
0
100
AcDbSpline
70
4
71
3
72
10
73
6
40
0
40
0
40
0
40
0
40
0.355593196478052
40
0.355593196478052
40
1
40
1
40
1
40
1
41
1
10
20.4087435159188
20
-3.67495912987752
30
0
41
1
10
20.4040897701024
20
-3.66916542037504
30
0
41
1
10
20.3994849305722
20
-3.66319416340954
30
0
41
1
10
20.3867540804431
20
-3.64592082848782
30
0
41
1
10
20.3787519969962
20
-3.63416202980966
30
0
41
1
10
20.3711010492508
20
-3.62175106099005
30
0
0
SPLINE
5
16D
100
AcDbEntity
8
1
62
256
6
ByLayer
370
18
48
1
60
0
100
AcDbSpline
70
4
71
3
72
10
73
6
40
0
40
0
40
0
40
0
40
0.230438518716478
40
0.230438518716478
40
1
40
1
40
1
40
1
41
1
10
18.7510745570806
20
-5.233075262976
30
0
41
1
10
18.7556316760329
20
-5.23572143509227
30
0
41
1
10
18.7601100478941
20
-5.23840493013552
30
0
41
1
10
18.7791663294197
20
-5.25016036017439
30
0
41
1
10
18.7929778734149
20
-5.25955631620585
30
0
41
1
10
18.8059802883158
20
-5.26911280030288
30
0
0
SPLINE
5
16E
100
AcDbEntity
8
1
62
256
6
ByLayer
370
18
48
1
60
0
100
AcDbSpline
70
4
71
3
72
10
73
6
40
0
40
0
40
0
40
0
40
0.769561481283294
40
0.769561481283294
40
1
40
1
40
1
40
1
41
1
10
19.5590156609067
20
-2.54745312590228
30
0
41
1
10
19.5431531193617
20
-2.54823386052598
30
0
41
1
10
19.5266631658249
20
-2.54851835179673
30
0
41
1
10
19.504485343305
20
-2.5480449578416
30
0
41
1
10
19.4993109596967
20
-2.5478770247145
30
0
41
1
10
19.4940856910955
20
-2.54764571386775
30
0
0
SPLINE
5
16F
100
AcDbEntity
8
1
62
256
6
ByLayer
370
18
48
1
60
0
100
AcDbSpline
70
4
71
3
72
10
73
6
40
0
40
0
40
0
40
0
40
0.76956148128326
40
0.76956148128326
40
1
40
1
40
1
40
1
41
1
10
18.4524714867621
20
-5.17333985962821
30
0
41
1
10
18.4652154362932
20
-5.17075860506577
30
0
41
1
10
18.4787613039307
20
-5.1687743450085
30
0
41
1
10
18.4974876247412
20
-5.16725501352269
30
0
41
1
10
18.5018908860531
20
-5.16697773898437
30
0
41
1
10
18.5063746158678
20
-5.16678092221318
30
0
0
SPLINE
5
170
100
AcDbEntity
8
1
62
256
6
ByLayer
370
18
48
1
60
0
100
AcDbSpline
70
4
71
3
72
10
73
6
40
0
40
0
40
0
40
0
40
0.276054056492207
40
0.276054056492207
40
1
40
1
40
1
40
1
41
1
10
20.0587031734015
20
-4.75083573883387
30
0
41
1
10
20.064217803782
20
-4.7481519574269
30
0
41
1
10
20.0697212749046
20
-4.74561815482974
30
0
41
1
10
20.0894989082859
20
-4.7369838221677
30
0
41
1
10
20.1036766743272
20
-4.73168417570147
30
0
41
1
10
20.117616487913
20
-4.72716560129501
30
0
0
SPLINE
5
171
100
AcDbEntity
8
1
62
256
6
ByLayer
370
18
48
1
60
0
100
AcDbSpline
70
4
71
3
72
10
73
6
40
0
40
0
40
0
40
0
40
0.537616842494971
40
0.537616842494971
40
1
40
1
40
1
40
1
41
1
10
20.3078587698032
20
-3.37497379389927
30
0
41
1
10
20.308806368676
20
-3.36410117727078
30
0
41
1
10
20.3102185673746
20
-3.35363129939995
30
0
41
1
10
20.3135328647151
20
-3.33491741450567
30
0
41
1
10
20.3153423998633
20
-3.32654676112065
30
0
41
1
10
20.3173797734384
20
-3.31844929375697
30
0
0
SPLINE
5
172
100
AcDbEntity
8
1
62
256
6
ByLayer
370
18
48
1
60
0
100
AcDbSpline
70
4
71
3
72
10
73
6
40
0
40
0
40
0
40
0
40
0.537616842495327
40
0.537616842495327
40
1
40
1
40
1
40
1
41
1
10
17.6926015371604
20
-4.3394528421818
30
0
41
1
10
17.6933813268996
20
-4.35132276709038
30
0
41
1
10
17.6938578058428
20
-4.36288307350611
30
0
41
1
10
17.6942681916032
20
-4.3837474051914
30
0
41
1
10
17.6942691144217
20
-4.39316332697084
30
0
41
1
10
17.6941073742322
20
-4.40234369177449
30
0
0
SPLINE
5
173
100
AcDbEntity
8
1
62
256
6
ByLayer
370
18
48
1
60
0
100
AcDbSpline
70
4
71
3
72
10
73
6
40
0
40
0
40
0
40
0
40
0.20115753023178
40
0.20115753023178
40
1
40
1
40
1
40
1
41
1
10
18.1560157188206
20
-2.73289048879718
30
0
41
1
10
18.154078447371
20
-2.73614066420819
30
0
41
1
10
18.1520908631452
20
-2.73941659184379
30
0
41
1
10
18.1419899036687
20
-2.75576345327209
30
0
41
1
10
18.1330770420708
20
-2.76926254588778
30
0
41
1
10
18.1232147953262
20
-2.78310797091783
30
0
0
SPLINE
5
174
100
AcDbEntity
8
1
62
256
6
ByLayer
370
18
48
1
60
0
100
AcDbSpline
70
4
71
3
72
10
73
6
40
0
40
0
40
0
40
0
40
0.230438518716671
40
0.230438518716671
40
1
40
1
40
1
40
1
41
1
10
19.2493857498828
20
-2.48135137310493
30
0
41
1
10
19.2455701697169
20
-2.47913332860659
30
0
41
1
10
19.2418629201521
20
-2.47689504122877
30
0
41
1
10
19.2262581403357
20
-2.46713233663084
30
0
41
1
10
19.21539068224
20
-2.45943614938594
30
0
41
1
10
19.205506859353
20
-2.45168018522764
30
0
0
SPLINE
5
175
100
AcDbEntity
8
1
62
256
6
ByLayer
370
18
48
1
60
0
100
AcDbSpline
70
4
71
3
72
10
73
6
40
0
40
0
40
0
40
0
40
0.355593196477824
40
0.355593196477824
40
1
40
1
40
1
40
1
41
1
10
17.6027436317488
20
-4.04583385565232
30
0
41
1
10
17.6059520793055
20
-4.05079312181547
30
0
41
1
10
17.6091506463522
20
-4.05595246698405
30
0
41
1
10
17.6180736100864
20
-4.07102731767066
30
0
41
1
10
17.6237763699594
20
-4.0814586012645
30
0
41
1
10
17.6293592577128
20
-4.09267557509105
30
0
0
SPLINE
5
176
100
AcDbEntity
8
1
62
256
6
ByLayer
370
18
48
1
60
0
100
AcDbSpline
70
4
71
3
72
10
73
6
40
0
40
0
40
0
40
0
40
0.201157530231463
40
0.201157530231463
40
1
40
1
40
1
40
1
41
1
10
19.8554714288489
20
-4.98790249673371
30
0
41
1
10
19.8565900850678
20
-4.98417969359892
30
0
41
1
10
19.8577717007674
20
-4.98043843981779
30
0
41
1
10
19.8639529123743
20
-4.96182851090171
30
0
41
1
10
19.8699469225769
20
-4.94664421864726
30
0
41
1
10
19.8772455116374
20
-4.93131866516325
30
0
0
SPLINE
5
177
100
AcDbEntity
8
1
62
256
6
ByLayer
370
18
48
1
60
0
100
AcDbSpline
70
4
71
3
72
10
73
6
40
0
40
0
40
0
40
0
40
0.276054056491901
40
0.276054056491901
40
1
40
1
40
1
40
1
41
1
10
17.9417571335617
20
-2.96359089724697
30
0
41
1
10
17.9371328122743
20
-2.96678869884849
30
0
41
1
10
17.9325623406198
20
-2.96986116893967
30
0
41
1
10
17.9162807402745
20
-2.98051393721622
30
0
41
1
10
17.9048792034806
20
-2.98741644038569
30
0
41
1
10
17.8938706597573
20
-2.99362738423645
30
0
0
INSERT
5
18A
100
AcDbEntity
8
SK2
62
256
6
ByLayer
370
25
48
1
60
0
100
AcDbBlockReference
2
DimnDraft3D11
10
0
20
0
30
0
41
1
42
1
43
1
50
0
210
0
220
0
230
1
0
LINE
5
72
100
AcDbEntity
8
1
62
256
6
ByLayer
370
18
48
1
60
0
100
AcDbLine
10
27.898923
20
-19.436386
30
0
11
28.70745
21
-19.903189
31
0
39
0
210
0
220
0
230
1
0
LINE
5
74
100
AcDbEntity
8
1
62
256
6
ByLayer
370
18
48
1
60
0
100
AcDbLine
10
44.864974
20
3.332429
30
0
11
44.168605
21
3.734478
31
0
39
0
210
0
220
0
230
1
0
LINE
5
75
100
AcDbEntity
8
1
62
256
6
ByLayer
370
18
48
1
60
0
100
AcDbLine
10
7.872481
20
-10.132401
30
0
11
8.892935
21
-10.571616
31
0
39
0
210
0
220
0
230
1
0
LINE
5
76
100
AcDbEntity
8
1
62
256
6
ByLayer
370
18
48
1
60
0
100
AcDbLine
10
17.452198
20
-3.910642
30
0
11
17.312222
21
-3.829827
31
0
39
0
210
0
220
0
230
1
0
LINE
5
77
100
AcDbEntity
8
1
62
256
6
ByLayer
370
18
48
1
60
0
100
AcDbLine
10
20.298269
20
-3.659451
30
0
11
20.559289
21
-3.810151
31
0
39
0
210
0
220
0
230
1
0
LINE
5
78
100
AcDbEntity
8
1
62
256
6
ByLayer
370
18
48
1
60
0
100
AcDbLine
10
16.123763
20
-7.969987
30
0
11
16.333299
21
-8.090963
31
0
39
0
210
0
220
0
230
1
0
LINE
5
79
100
AcDbEntity
8
1
62
256
6
ByLayer
370
18
48
1
60
0
100
AcDbLine
10
21.333299
20
0.569291
30
0
11
21.123763
21
0.690267
31
0
39
0
210
0
220
0
230
1
0
LINE
5
7A
100
AcDbEntity
8
1
62
256
6
ByLayer
370
18
48
1
60
0
100
AcDbLine
10
12.182496
20
-5.107012
30
0
11
11.727389
21
-4.91113
31
0
39
0
210
0
220
0
230
1
0
LINE
5
7B
100
AcDbEntity
8
80
62
256
6
ByLayer
370
18
48
1
60
0
100
AcDbLine
10
0
20
0
30
0
11
-5
21
0
31
0
39
0
210
0
220
0
230
1
0
LINE
5
7C
100
AcDbEntity
8
81
62
256
6
ByLayer
370
18
48
1
60
0
100
AcDbLine
10
46.743142
20
-15.425
30
0
11
56.743142
21
-15.425
31
0
39
0
210
0
220
0
230
1
0
LINE
5
7D
100
AcDbEntity
8
1
62
256
6
ByLayer
370
18
48
1
60
0
100
AcDbLine
10
17.328631
20
-3.842309
30
0
11
17.407231
21
-3.887689
31
0
39
0
210
0
220
0
230
1
0
LINE
5
7E
100
AcDbEntity
8
1
62
256
6
ByLayer
370
18
48
1
60
0
100
AcDbLine
10
32.542107
20
1.120874
30
0
11
32.831826
21
1.19715
31
0
39
0
210
0
220
0
230
1
0
LINE
5
7F
100
AcDbEntity
8
1
62
256
6
ByLayer
370
18
48
1
60
0
100
AcDbLine
10
32.237764
20
0.303439
30
0
11
43.975392
21
3.448527
31
0
39
0
210
0
220
0
230
1
0
LINE
5
80
100
AcDbEntity
8
1
62
256
6
ByLayer
370
18
48
1
60
0
100
AcDbLine
10
28.125149
20
-18.974393
30
0
11
27.70518
21
-13.509655
31
0
39
0
210
0
220
0
230
1
0
LINE
5
81
100
AcDbEntity
8
1
62
256
6
ByLayer
370
18
48
1
60
0
100
AcDbLine
10
28.125149
20
-18.974393
30
0
11
28.061478
21
-18.937632
31
0
39
0
210
0
220
0
230
1
0
LINE
5
82
100
AcDbEntity
8
1
62
256
6
ByLayer
370
18
48
1
60
0
100
AcDbLine
10
31.516629
20
0.793658
30
0
11
33.27284
21
1.264233
31
0
39
0
210
0
220
0
230
1
0
LINE
5
83
100
AcDbEntity
8
1
62
256
6
ByLayer
370
18
48
1
60
0
100
AcDbLine
10
43.930923
20
3.474201
30
0
11
43.975392
21
3.448527
31
0
39
0
210
0
220
0
230
1
0
LINE
5
84
100
AcDbEntity
8
1
62
256
6
ByLayer
370
18
48
1
60
0
100
AcDbLine
10
11.348311
20
-11.270429
30
0
11
8.766123
21
-20.603108
31
0
39
0
210
0
220
0
230
1
0
LINE
5
85
100
AcDbEntity
8
1
62
256
6
ByLayer
370
18
48
1
60
0
100
AcDbLine
10
14.688018
20
17.782409
30
0
11
12.030711
21
8.178233
31
0
39
0
210
0
220
0
230
1
0
LINE
5
86
100
AcDbEntity
8
1
62
256
6
ByLayer
370
18
48
1
60
0
100
AcDbLine
10
7.082508
20
-9.70582
30
0
11
4.06742
21
-20.603108
31
0
39
0
210
0
220
0
230
1
0
LINE
5
87
100
AcDbEntity
8
1
62
256
6
ByLayer
370
18
48
1
60
0
100
AcDbLine
10
18.620337
20
15.012506
30
0
11
16.413888
21
7.037845
31
0
39
0
210
0
220
0
230
1
0
LINE
5
88
100
AcDbEntity
8
1
62
256
6
ByLayer
370
18
48
1
60
0
100
AcDbLine
10
27.538706
20
-13.52043
30
0
11
27.977776
21
-19.233709
31
0
39
0
210
0
220
0
230
1
0
LINE
5
89
100
AcDbEntity
8
1
62
256
6
ByLayer
370
18
48
1
60
0
100
AcDbLine
10
28.076823
20
-19.137211
30
0
11
27.644663
21
-13.51384
31
0
39
0
210
0
220
0
230
1
0
LINE
5
8A
100
AcDbEntity
8
1
62
256
6
ByLayer
370
18
48
1
60
0
100
AcDbLine
10
13.790034
20
18.040069
30
0
11
10.995943
21
7.94152
31
0
39
0
210
0
220
0
230
1
0
LINE
5
8B
100
AcDbEntity
8
1
62
256
6
ByLayer
370
18
48
1
60
0
100
AcDbLine
10
6.314901
20
-8.976946
30
0
11
3.098146
21
-20.603108
31
0
39
0
210
0
220
0
230
1
0
LINE
5
8C
100
AcDbEntity
8
1
62
256
6
ByLayer
370
18
48
1
60
0
100
AcDbLine
10
33.185701
20
1.240885
30
0
11
33.189263
21
1.327074
31
0
39
0
210
0
220
0
230
1
0
LINE
5
8D
100
AcDbEntity
8
1
62
256
6
ByLayer
370
18
48
1
60
0
100
AcDbLine
10
32.695954
20
1.299602
30
0
11
32.881656
21
1.159409
31
0
39
0
210
0
220
0
230
1
0
LINE
5
8E
100
AcDbEntity
8
1
62
256
6
ByLayer
370
18
48
1
60
0
100
AcDbLine
10
44.176429
20
3.632621
30
0
11
44.118204
21
3.513214
31
0
39
0
210
0
220
0
230
1
0
LINE
5
8F
100
AcDbEntity
8
1
62
256
6
ByLayer
370
18
48
1
60
0
100
AcDbLine
10
33.885832
20
0.80121
30
0
11
34.390717
21
0.934135
31
0
39
0
210
0
220
0
230
1
0
LINE
5
90
100
AcDbEntity
8
1
62
256
6
ByLayer
370
18
48
1
60
0
100
AcDbLine
10
14.662552
20
17.797111
30
0
11
12.000907
21
8.177256
31
0
39
0
210
0
220
0
230
1
0
LINE
5
91
100
AcDbEntity
8
1
62
256
6
ByLayer
370
18
48
1
60
0
100
AcDbLine
10
7.05745
20
-9.689646
30
0
11
4.037887
21
-20.603108
31
0
39
0
210
0
220
0
230
1
0
LINE
5
92
100
AcDbEntity
8
1
62
256
6
ByLayer
370
18
48
1
60
0
100
AcDbLine
10
32.640379
20
2.022757
30
0
11
33.927138
21
1.194895
31
0
39
0
210
0
220
0
230
1
0
LINE
5
93
100
AcDbEntity
8
1
62
256
6
ByLayer
370
18
48
1
60
0
100
AcDbLine
10
0.581478
20
-20.603108
30
0
11
3.098146
21
-20.603108
31
0
39
0
210
0
220
0
230
1
0
LINE
5
94
100
AcDbEntity
8
1
62
256
6
ByLayer
370
18
48
1
60
0
100
AcDbLine
10
4.037887
20
-20.603108
30
0
11
4.06742
21
-20.603108
31
0
39
0
210
0
220
0
230
1
0
LINE
5
95
100
AcDbEntity
8
1
62
256
6
ByLayer
370
18
48
1
60
0
100
AcDbLine
10
19.461498
20
16.46944
30
0
11
18.973201
21
16.589177
31
0
39
0
210
0
220
0
230
1
0
LINE
5
96
100
AcDbEntity
8
1
62
256
6
ByLayer
370
18
48
1
60
0
100
AcDbLine
10
33.946774
20
0.939383
30
0
11
44.176429
21
3.632621
31
0
39
0
210
0
220
0
230
1
0
LINE
5
97
100
AcDbEntity
8
1
62
256
6
ByLayer
370
18
48
1
60
0
100
AcDbLine
10
43.633795
20
10.693495
30
0
11
19.461498
21
16.46944
31
0
39
0
210
0
220
0
230
1
0
LINE
5
98
100
AcDbEntity
8
1
62
256
6
ByLayer
370
18
48
1
60
0
100
AcDbLine
10
27.977776
20
-19.233709
30
0
11
28.076823
21
-19.137211
31
0
39
0
210
0
220
0
230
1
0
LINE
5
99
100
AcDbEntity
8
1
62
256
6
ByLayer
370
18
48
1
60
0
100
AcDbLine
10
32.640379
20
2.022757
30
0
11
32.695954
21
1.299602
31
0
39
0
210
0
220
0
230
1
0
LINE
5
9A
100
AcDbEntity
8
1
62
256
6
ByLayer
370
18
48
1
60
0
100
AcDbLine
10
38.163843
20
13.851574
30
0
11
43.633795
21
10.693495
31
0
39
0
210
0
220
0
230
1
0
LINE
5
9B
100
AcDbEntity
8
1
62
256
6
ByLayer
370
18
48
1
60
0
100
AcDbLine
10
14.662552
20
17.797111
30
0
11
14.688018
21
17.782409
31
0
39
0
210
0
220
0
230
1
0
LINE
5
9C
100
AcDbEntity
8
1
62
256
6
ByLayer
370
18
48
1
60
0
100
AcDbLine
10
0.5
20
19.927182
30
0
11
0
21
19.925
31
0
39
0
210
0
220
0
230
1
0
LINE
5
9D
100
AcDbEntity
8
1
62
256
6
ByLayer
370
18
48
1
60
0
100
AcDbLine
10
5.844275
20
19.9387
30
0
11
1.361956
21
19.941218
31
0
39
0
210
0
220
0
230
1
0
LINE
5
9E
100
AcDbEntity
8
1
62
256
6
ByLayer
370
18
48
1
60
0
100
AcDbLine
10
43.633795
20
10.693495
30
0
11
44.176429
21
3.632621
31
0
39
0
210
0
220
0
230
1
0
LINE
5
9F
100
AcDbEntity
8
1
62
256
6
ByLayer
370
18
48
1
60
0
100
AcDbLine
10
22.867111
20
-20.603108
30
0
11
8.766123
21
-20.603108
31
0
39
0
210
0
220
0
230
1
0
LINE
5
A0
100
AcDbEntity
8
1
62
256
6
ByLayer
370
18
48
1
60
0
100
AcDbLine
10
32.542107
20
1.120874
30
0
11
32.695954
21
1.299602
31
0
39
0
210
0
220
0
230
1
0
LINE
5
A1
100
AcDbEntity
8
1
62
256
6
ByLayer
370
18
48
1
60
0
100
AcDbLine
10
0.581478
20
-20.603108
30
0
11
0.547724
21
-20.603108
31
0
39
0
210
0
220
0
230
1
0
LINE
5
A2
100
AcDbEntity
8
1
62
256
6
ByLayer
370
18
48
1
60
0
100
AcDbLine
10
18.620337
20
15.012506
30
0
11
18.973201
21
16.589177
31
0
39
0
210
0
220
0
230
1
0
LINE
5
A3
100
AcDbEntity
8
1
62
256
6
ByLayer
370
18
48
1
60
0
100
AcDbLine
10
14.104865
20
19.75112
30
0
11
38.163843
21
13.851574
31
0
39
0
210
0
220
0
230
1
0
LINE
5
A4
100
AcDbEntity
8
1
62
256
6
ByLayer
370
18
48
1
60
0
100
AcDbLine
10
0.5
20
-20.425
30
0
11
0.5
21
19.927182
31
0
39
0
210
0
220
0
230
1
0
LINE
5
A5
100
AcDbEntity
8
1
62
256
6
ByLayer
370
18
48
1
60
0
100
AcDbLine
10
5.844275
20
19.9387
30
0
11
14.104865
21
19.75112
31
0
39
0
210
0
220
0
230
1
0
LINE
5
A6
100
AcDbEntity
8
1
62
256
6
ByLayer
370
18
48
1
60
0
100
AcDbLine
10
30.338255
20
4.251851
30
0
11
30.140471
21
4.234615
31
0
39
0
210
0
220
0
230
1
0
LINE
5
A7
100
AcDbEntity
8
1
62
256
6
ByLayer
370
18
48
1
60
0
100
AcDbLine
10
29.88693
20
4.20269
30
0
11
29.771301
21
4.192614
31
0
39
0
210
0
220
0
230
1
0
LINE
5
A8
100
AcDbEntity
8
1
62
256
6
ByLayer
370
18
48
1
60
0
100
AcDbLine
10
4.06742
20
-20.603108
30
0
11
8.766123
21
-20.603108
31
0
39
0
210
0
220
0
230
1
0
LINE
5
A9
100
AcDbEntity
8
1
62
256
6
ByLayer
370
18
48
1
60
0
100
AcDbLine
10
33.927138
20
1.194895
30
0
11
33.946774
21
0.939383
31
0
39
0
210
0
220
0
230
1
0
LINE
5
AA
100
AcDbEntity
8
1
62
256
6
ByLayer
370
18
48
1
60
0
100
AcDbLine
10
0.5
20
-20.425
30
0
11
0
21
-19.925
31
0
39
0
210
0
220
0
230
1
0
LINE
5
AB
100
AcDbEntity
8
1
62
256
6
ByLayer
370
18
48
1
60
0
100
AcDbLine
10
14.688018
20
17.782409
30
0
11
18.973201
21
16.589177
31
0
39
0
210
0
220
0
230
1
0
LINE
5
AC
100
AcDbEntity
8
1
62
256
6
ByLayer
370
18
48
1
60
0
100
AcDbLine
10
3.098146
20
-20.603108
30
0
11
4.037887
21
-20.603108
31
0
39
0
210
0
220
0
230
1
0
LINE
5
AD
100
AcDbEntity
8
1
62
256
6
ByLayer
370
18
48
1
60
0
100
AcDbLine
10
5.844275
20
19.9387
30
0
11
13.790034
21
18.040069
31
0
39
0
210
0
220
0
230
1
0
LINE
5
AE
100
AcDbEntity
8
1
62
256
6
ByLayer
370
18
48
1
60
0
100
AcDbLine
10
19.461498
20
16.46944
30
0
11
18.620337
21
15.012506
31
0
39
0
210
0
220
0
230
1
0
LINE
5
AF
100
AcDbEntity
8
1
62
256
6
ByLayer
370
18
48
1
60
0
100
AcDbLine
10
33.885832
20
0.80121
30
0
11
33.946774
21
0.939383
31
0
39
0
210
0
220
0
230
1
0
LINE
5
B0
100
AcDbEntity
8
1
62
256
6
ByLayer
370
18
48
1
60
0
100
AcDbLine
10
0
20
-19.925
30
0
11
0
21
19.925
31
0
39
0
210
0
220
0
230
1
0
LINE
5
B1
100
AcDbEntity
8
1
62
256
6
ByLayer
370
18
48
1
60
0
100
AcDbLine
10
1.361956
20
19.941218
30
0
11
0.581478
21
-20.603108
31
0
39
0
210
0
220
0
230
1
0
LINE
5
B2
100
AcDbEntity
8
1
62
256
6
ByLayer
370
18
48
1
60
0
100
AcDbLine
10
32.472942
20
2.020857
30
0
11
32.640379
21
2.022757
31
0
39
0
210
0
220
0
230
1
0
LINE
5
B3
100
AcDbEntity
8
1
62
256
6
ByLayer
370
18
48
1
60
0
100
AcDbLine
10
0.5
20
19.927182
30
0
11
1.361956
21
19.941218
31
0
39
0
210
0
220
0
230
1
0
LINE
5
B4
100
AcDbEntity
8
1
62
256
6
ByLayer
370
18
48
1
60
0
100
AcDbLine
10
27.977776
20
-19.233709
30
0
11
22.867111
21
-20.603108
31
0
39
0
210
0
220
0
230
1
0
LINE
5
B5
100
AcDbEntity
8
1
62
256
6
ByLayer
370
18
48
1
60
0
100
AcDbLine
10
32.472942
20
2.020857
30
0
11
32.542107
21
1.120874
31
0
39
0
210
0
220
0
230
1
0
LINE
5
B6
100
AcDbEntity
8
1
62
256
6
ByLayer
370
18
48
1
60
0
100
AcDbLine
10
0.547724
20
-20.603108
30
0
11
0.5
21
-20.425
31
0
39
0
210
0
220
0
230
1
0
LINE
5
B7
100
AcDbEntity
8
1
62
256
6
ByLayer
370
18
48
1
60
0
100
AcDbLine
10
33.189263
20
1.327074
30
0
11
33.885832
21
0.80121
31
0
39
0
210
0
220
0
230
1
0
LINE
5
B8
100
AcDbEntity
8
SK1
62
256
6
ByLayer
370
18
48
1
60
0
100
AcDbLine
10
0
20
-19.925
30
0
11
-204.606858
21
-19.925
31
0
39
0
210
0
220
0
230
1
0
LINE
5
BA
100
AcDbEntity
8
SK1
62
256
6
ByLayer
370
18
48
1
60
0
100
AcDbLine
10
-204.606858
20
19.925
30
0
11
0
21
19.925
31
0
39
0
210
0
220
0
230
1
0
LINE
5
BB
100
AcDbEntity
8
SK1
62
256
6
ByLayer
370
18
48
1
60
0
100
AcDbLine
10
-204.606858
20
-19.925
30
0
11
-204.606858
21
19.925
31
0
39
0
210
0
220
0
230
1
0
LINE
5
BC
100
AcDbEntity
8
SK1
62
256
6
ByLayer
370
18
48
1
60
0
100
AcDbLine
10
0
20
-19.925
30
0
11
0
21
19.925
31
0
39
0
210
0
220
0
230
1
0
LINE
5
BD
100
AcDbEntity
8
1
62
256
6
ByLayer
370
18
48
1
60
0
100
AcDbLine
10
45.447275
20
2.403633
30
0
11
46.739613
21
-14.412563
31
0
39
0
210
0
220
0
230
1
0
LINE
5
BE
100
AcDbEntity
8
1
62
256
6
ByLayer
370
18
48
1
60
0
100
AcDbLine
10
45.855894
20
-15.662737
30
0
11
29.597031
21
-20.019286
31
0
39
0
210
0
220
0
230
1
0
LINE
5
BF
100
AcDbEntity
8
1
62
256
6
ByLayer
370
18
48
1
60
0
100
AcDbLine
10
21.317075
20
0.914198
30
0
11
19.06743
21
1.523674
31
0
39
0
210
0
220
0
230
1
0
LINE
5
C0
100
AcDbEntity
8
1
62
256
6
ByLayer
370
18
48
1
60
0
100
AcDbLine
10
16.859762
20
-12.741735
30
0
11
11.606857
21
-11.318612
31
0
39
0
210
0
220
0
230
1
0
LINE
5
C1
100
AcDbEntity
8
1
62
256
6
ByLayer
370
18
48
1
60
0
100
AcDbLine
10
21.910724
20
5.513712
30
0
11
16.657818
21
6.936834
31
0
39
0
210
0
220
0
230
1
0
LINE
5
C2
100
AcDbEntity
8
1
62
256
6
ByLayer
370
18
48
1
60
0
100
AcDbLine
10
8.927915
20
5.620215
30
0
11
5.730175
21
-5.937222
31
0
39
0
210
0
220
0
230
1
0
LINE
5
C3
100
AcDbEntity
8
1
62
256
6
ByLayer
370
18
48
1
60
0
100
AcDbLine
10
16.322704
20
-8.396461
30
0
11
16.018146
21
-8.265375
31
0
39
0
210
0
220
0
230
1
0
LINE
5
C4
100
AcDbEntity
8
1
62
256
6
ByLayer
370
18
48
1
60
0
100
AcDbLine
10
16.322704
20
-8.396461
30
0
11
18.572348
21
-9.005936
31
0
39
0
210
0
220
0
230
1
0
LINE
5
C5
100
AcDbEntity
8
1
62
256
6
ByLayer
370
18
48
1
60
0
100
AcDbLine
10
14.405409
20
7.572315
30
0
11
13.545486
21
7.942435
31
0
39
0
210
0
220
0
230
1
0
LINE
5
C6
100
AcDbEntity
8
1
62
256
6
ByLayer
370
18
48
1
60
0
100
AcDbLine
10
8.039256
20
-6.931076
30
0
11
5.730175
21
-5.937222
31
0
39
0
210
0
220
0
230
1
0
LINE
5
C7
100
AcDbEntity
8
1
62
256
6
ByLayer
370
18
48
1
60
0
100
AcDbLine
10
16.018146
20
-8.265375
30
0
11
18.257757
21
-8.870533
31
0
39
0
210
0
220
0
230
1
0
LINE
5
C8
100
AcDbEntity
8
1
62
256
6
ByLayer
370
18
48
1
60
0
100
AcDbLine
10
13.405879
20
4.754441
30
0
11
21.847497
21
2.46743
31
0
39
0
210
0
220
0
230
1
0
LINE
5
C9
100
AcDbEntity
8
1
62
256
6
ByLayer
370
18
48
1
60
0
100
AcDbLine
10
11.562761
20
-11.328525
30
0
11
11.606857
21
-11.318612
31
0
39
0
210
0
220
0
230
1
0
LINE
5
CA
100
AcDbEntity
8
1
62
256
6
ByLayer
370
18
48
1
60
0
100
AcDbLine
10
36.73111
20
-11.920463
30
0
11
34.968125
21
-12.924129
31
0
39
0
210
0
220
0
230
1
0
LINE
5
CB
100
AcDbEntity
8
1
62
256
6
ByLayer
370
18
48
1
60
0
100
AcDbLine
10
11.732225
20
-4.945492
30
0
11
11.334507
21
-4.774309
31
0
39
0
210
0
220
0
230
1
0
LINE
5
CC
100
AcDbEntity
8
1
62
256
6
ByLayer
370
18
48
1
60
0
100
AcDbLine
10
14.405409
20
7.572315
30
0
11
16.625849
21
6.970751
31
0
39
0
210
0
220
0
230
1
0
LINE
5
CD
100
AcDbEntity
8
1
62
256
6
ByLayer
370
18
48
1
60
0
100
AcDbLine
10
37.607599
20
-3.384407
30
0
11
38.608045
21
-5.136745
31
0
39
0
210
0
220
0
230
1
0
LINE
5
CE
100
AcDbEntity
8
1
62
256
6
ByLayer
370
18
48
1
60
0
100
AcDbLine
10
11.236996
20
4.626362
30
0
11
8.927915
21
5.620215
31
0
39
0
210
0
220
0
230
1
0
LINE
5
CF
100
AcDbEntity
8
1
62
256
6
ByLayer
370
18
48
1
60
0
100
AcDbLine
10
16.625849
20
6.970751
30
0
11
13.772051
21
7.871338
31
0
39
0
210
0
220
0
230
1
0
LINE
5
D0
100
AcDbEntity
8
1
62
256
6
ByLayer
370
18
48
1
60
0
100
AcDbLine
10
9.825852
20
-8.184677
30
0
11
18.26747
21
-10.471688
31
0
39
0
210
0
220
0
230
1
0
LINE
5
D1
100
AcDbEntity
8
1
62
256
6
ByLayer
370
18
48
1
60
0
100
AcDbLine
10
11.562761
20
-11.328525
30
0
11
9.342321
21
-10.726961
31
0
39
0
210
0
220
0
230
1
0
LINE
5
D2
100
AcDbEntity
8
1
62
256
6
ByLayer
370
18
48
1
60
0
100
AcDbLine
10
18.572348
20
-9.005936
30
0
11
18.257757
21
-8.870533
31
0
39
0
210
0
220
0
230
1
0
LINE
5
D3
100
AcDbEntity
8
1
62
256
6
ByLayer
370
18
48
1
60
0
100
AcDbLine
10
8.385085
20
-6.095357
30
0
11
11.095978
21
3.702491
31
0
39
0
210
0
220
0
230
1
0
LINE
5
D4
100
AcDbEntity
8
1
62
256
6
ByLayer
370
18
48
1
60
0
100
AcDbLine
10
11.334507
20
-4.774309
30
0
11
9.73469
21
-4.342029
31
0
39
0
210
0
220
0
230
1
0
LINE
5
D5
100
AcDbEntity
8
1
62
256
6
ByLayer
370
18
48
1
60
0
100
AcDbLine
10
16.625849
20
6.970751
30
0
11
16.657818
21
6.936834
31
0
39
0
210
0
220
0
230
1
0
LINE
5
D6
100
AcDbEntity
8
1
62
256
6
ByLayer
370
18
48
1
60
0
100
AcDbLine
10
9.73469
20
-4.342029
30
0
11
11.33356
21
1.43669
31
0
39
0
210
0
220
0
230
1
0
LINE
5
D7
100
AcDbEntity
8
1
62
256
6
ByLayer
370
18
48
1
60
0
100
AcDbLine
10
36.670485
20
-8.416597
30
0
11
39.739558
21
-9.137402
31
0
39
0
210
0
220
0
230
1
0
LINE
5
D8
100
AcDbEntity
8
1
62
256
6
ByLayer
370
18
48
1
60
0
100
AcDbLine
10
18.993879
20
-2.333834
30
0
11
19.249386
21
-2.481351
31
0
39
0
210
0
220
0
230
1
0
LINE
5
D9
100
AcDbEntity
8
1
62
256
6
ByLayer
370
18
48
1
60
0
100
AcDbLine
10
19.554387
20
-5.087825
30
0
11
19.815408
21
-5.238525
31
0
39
0
210
0
220
0
230
1
0
LINE
5
DA
100
AcDbEntity
8
1
62
256
6
ByLayer
370
18
48
1
60
0
100
AcDbLine
10
20.371101
20
-3.621751
30
0
11
20.115594
21
-3.474234
31
0
39
0
210
0
220
0
230
1
0
LINE
5
DB
100
AcDbEntity
8
1
62
256
6
ByLayer
370
18
48
1
60
0
100
AcDbLine
10
18.506375
20
-5.166781
30
0
11
18.250868
21
-5.019264
31
0
39
0
210
0
220
0
230
1
0
LINE
5
DC
100
AcDbEntity
8
1
62
256
6
ByLayer
370
18
48
1
60
0
100
AcDbLine
10
20.150898
20
-2.931885
30
0
11
20.411918
21
-3.082585
31
0
39
0
210
0
220
0
230
1
0
LINE
5
DD
100
AcDbEntity
8
1
62
256
6
ByLayer
370
18
48
1
60
0
100
AcDbLine
10
19.877246
20
-4.931319
30
0
11
19.621739
21
-4.783802
31
0
39
0
210
0
220
0
230
1
0
LINE
5
DE
100
AcDbEntity
8
1
62
256
6
ByLayer
370
18
48
1
60
0
100
AcDbLine
10
18.78937
20
-2.102656
30
0
11
19.05039
21
-2.253356
31
0
39
0
210
0
220
0
230
1
0
LINE
5
DF
100
AcDbEntity
8
1
62
256
6
ByLayer
370
18
48
1
60
0
100
AcDbLine
10
18.495568
20
-5.085558
30
0
11
18.751075
21
-5.233075
31
0
39
0
210
0
220
0
230
1
0
LINE
5
E0
100
AcDbEntity
8
1
62
256
6
ByLayer
370
18
48
1
60
0
100
AcDbLine
10
19.803196
20
-4.603319
30
0
11
20.058703
21
-4.750836
31
0
39
0
210
0
220
0
230
1
0
LINE
5
E1
100
AcDbEntity
8
1
62
256
6
ByLayer
370
18
48
1
60
0
100
AcDbLine
10
20.052352
20
-3.227457
30
0
11
20.307859
21
-3.374974
31
0
39
0
210
0
220
0
230
1
0
LINE
5
E2
100
AcDbEntity
8
1
62
256
6
ByLayer
370
18
48
1
60
0
100
AcDbLine
10
17.955875
20
-5.115117
30
0
11
18.216895
21
-5.265817
31
0
39
0
210
0
220
0
230
1
0
LINE
5
E3
100
AcDbEntity
8
1
62
256
6
ByLayer
370
18
48
1
60
0
100
AcDbLine
10
20.106251
20
-4.538925
30
0
11
20.367272
21
-4.689626
31
0
39
0
210
0
220
0
230
1
0
MTEXT
5
178
100
AcDbEntity
8
SK6
62
256
6
ByLayer
370
18
48
1
60
0
100
AcDbMText
10
-93.056858
20
28.719055
30
0
210
0
220
0
230
1
1
\W0.7688;DCBNL 4040S 19
40
3.5
41
0
44
1.084337
50
0
71
7
72
5
7
iso_b_vert
0
DIMENSION
5
198
100
AcDbEntity
8
2
62
256
6
ByLayer
370
13
48
1
60
0
100
AcDbDimension
2
DimnDraft3D2
10
46.743142
20
-13.04375
30
0
11
36.412117
21
-28.888653
31
0
70
34
71
5
72
1
41
1
210
0
220
0
230
1
3
Standard
100
AcDb2LineAngularDimension
13
46.743142
23
-15.425
33
0
14
43.748771
24
-16.227339
34
0
15
46.743142
25
-15.425
35
0
16
33.672691
26
-32.458743
36
0
40
0
0
DIMENSION
5
1AD
100
AcDbEntity
8
2
62
256
6
ByLayer
370
13
48
1
60
0
100
AcDbDimension
2
DimnDraft3D3
10
46.743142
20
-43.675
30
0
11
17.85315
21
-43.675
31
0
70
32
71
5
72
1
41
1
210
0
220
0
230
1
3
Standard
100
AcDbAlignedDimension
13
0
23
-21.925
33
0
14
46.743142
24
-17.425
34
0
50
0
100
AcDbRotatedDimension
1001
ACAD
1000
DSTYLE
1002
{
1070
   279
1070
     0
1070
   172
1070
     1
1070
   173
1070
     1
1070
   340
1005
179
1070
    77
1070
     1
1070
    73
1070
     0
1070
   171
1070
     3
1070
   274
1070
     4
1070
   177
1070
     2
1070
   176
1070
     2
1070
   178
1070
     7
1070
    78
1070
     8
1070
    41
1041
3.175
1070
   147
1041
2.25
1070
    42
1041
2.0
1070
    44
1041
2.0
1070
   140
1041
4.5
1070
   343
1005
199
1070
   344
1005
199
1002
}
0
DIMENSION
5
1BB
100
AcDbEntity
8
2
62
256
6
ByLayer
370
13
48
1
60
0
100
AcDbDimension
2
DimnDraft3D4
10
68.993142
20
-15.425
30
0
11
68.993142
21
-3.031579
31
0
70
32
71
5
72
1
41
1
210
0
220
0
230
1
3
Standard
100
AcDbAlignedDimension
13
2
23
19.925
33
0
14
48.743141
24
-15.425
34
0
50
90
100
AcDbRotatedDimension
1001
ACAD
1000
DSTYLE
1002
{
1070
    74
1070
     0
1070
   279
1070
     0
1070
   172
1070
     1
1070
   173
1070
     1
1070
   340
1005
179
1070
    77
1070
     1
1070
    73
1070
     0
1070
   171
1070
     3
1070
   274
1070
     4
1070
   177
1070
     2
1070
   176
1070
     2
1070
   178
1070
     7
1070
    78
1070
     8
1070
    41
1041
3.175
1070
   147
1041
2.25
1070
    42
1041
2.0
1070
    44
1041
2.0
1070
   140
1041
4.5
1070
   343
1005
199
1070
   344
1005
199
1002
}
0
DIMENSION
5
1C9
100
AcDbEntity
8
SK2
62
256
6
ByLayer
370
13
48
1
60
0
100
AcDbDimension
2
DimnDraft3D5
10
-212.356858
20
-19.925
30
0
11
-212.356858
21
-5.518421
31
0
70
32
71
5
72
1
41
1
210
0
220
0
230
1
3
Standard
100
AcDbAlignedDimension
13
-206.606858
23
19.925
33
0
14
-206.606858
24
-19.925
34
0
50
90
100
AcDbRotatedDimension
1001
ACAD
1000
DSTYLE
1002
{
1070
    74
1070
     0
1070
   279
1070
     0
1070
   172
1070
     1
1070
   173
1070
     1
1070
   340
1005
179
1070
    77
1070
     1
1070
    73
1070
     0
1070
   171
1070
     3
1070
   274
1070
     4
1070
   177
1070
     2
1070
   176
1070
     2
1070
   178
1070
     7
1070
    78
1070
     8
1070
    41
1041
3.175
1070
   147
1041
2.25
1070
    42
1041
2.0
1070
    44
1041
2.0
1070
   140
1041
4.5
1070
   343
1005
199
1070
   344
1005
199
1002
}
0
ENDSEC
0
SECTION
2
OBJECTS
0
DICTIONARY
5
233
330
0
100
AcDbDictionary
280
0
281
1
3
ACAD_GROUP
350
234
3
ACAD_MLINESTYLE
350
235
0
DICTIONARY
5
234
330
0
100
AcDbDictionary
280
0
281
1
0
DICTIONARY
5
235
330
0
100
AcDbDictionary
280
0
281
1
3
Standard
350
18
0
MLINESTYLE
5
18
330
235
100
AcDbMlineStyle
2
Standard
70
0
3

62
256
51
90
52
90
71
2
49
-0.5
62
256
6
ByLayer
49
0.5
62
256
6
ByLayer
0
RASTERVARIABLES
5
222
330

100
AcDbRasterVariables
90
0
70
1
71
1
72
1
0
ENDSEC
0
EOF
