0
SECTION
2
HEADER
9
$ACADVER
1
AC1015
9
$DWGCODEPAGE
3
ANSI_1252
9
$HANDSEED
5
211
9
$ANGBASE
50
0
9
$ANGDIR
70
0
9
$ATTMODE
70
1
9
$AUNITS
70
0
9
$AUPREC
70
0
9
$CECOLOR
62
256
9
$CELTSCALE
40
1
9
$CELTYPE
6
ByLayer
9
$CELWEIGHT
370
18
9
$CLAYER
8
0
9
$CMLJUST
70
0
9
$CMLSCALE
40
1
9
$CMLSTYLE
2
Standard
9
$DIMSTYLE
2
Standard
9
$TEXTSIZE
40
0.2
9
$TEXTSTYLE
7
Standard
9
$LUNITS
70
2
9
$LUPREC
70
4
9
$EXTNAMES
290
1
9
$INSUNITS
70
4
9
$LTSCALE
40
1
9
$LWDISPLAY
290
1
9
$PDMODE
70
0
9
$PDSIZE
40
0
9
$PLINEGEN
70
0
0
ENDSEC
0
SECTION
2
CLASSES
0
CLASS
1
RASTERVARIABLES
2
AcDbRasterVariables
3
ISM
90
0
280
0
281
0
0
ENDSEC
0
SECTION
2
TABLES
0
TABLE
2
VPORT
5
207
100
AcDbSymbolTable
0
VPORT
5
1
100
AcDbSymbolTableRecord
100
AcDbViewportTableRecord
2
*Active
70
0
10
0
20
0
11
1
21
1
12
-1
22
1
13
0
23
0
14
0.5
24
0.5
15
10
25
10
16
0
26
0
36
1
17
0
27
0
37
0
0
ENDTAB
0
TABLE
2
LTYPE
5
208
100
AcDbSymbolTable
0
LTYPE
5
14
100
AcDbSymbolTableRecord
100
AcDbLinetypeTableRecord
70
0
2
ByBlock
3

72
65
73
0
40
0
0
LTYPE
5
15
100
AcDbSymbolTableRecord
100
AcDbLinetypeTableRecord
70
0
2
ByLayer
3

72
65
73
0
40
0
0
LTYPE
5
16
100
AcDbSymbolTableRecord
100
AcDbLinetypeTableRecord
70
0
2
CONTINUOUS
3
Solid line
72
65
73
0
40
0
0
LTYPE
5
6A
100
AcDbSymbolTableRecord
100
AcDbLinetypeTableRecord
70
0
2
CENTER
3
____ _ ____ _ ____ _ ____
72
65
73
4
40
47.5
49
22
74
0
49
-8.5
74
0
49
8.5
74
0
49
-8.5
74
0
0
LTYPE
5
6B
100
AcDbSymbolTableRecord
100
AcDbLinetypeTableRecord
70
0
2
DASHED
3
__ __ __ __ __ __ __ __ __
72
65
73
2
40
25.72
49
12.86
74
0
49
-12.86
74
0
0
ENDTAB
0
TABLE
2
LAYER
5
209
100
AcDbSymbolTable
0
LAYER
5
10
100
AcDbSymbolTableRecord
100
AcDbLayerTableRecord
2
0
70
0
62
7
6
CONTINUOUS
290
1
370
-3
390
0
0
LAYER
5
6D
100
AcDbSymbolTableRecord
100
AcDbLayerTableRecord
2
2
70
0
62
7
6
CONTINUOUS
290
1
370
-3
390
0
0
LAYER
5
6F
100
AcDbSymbolTableRecord
100
AcDbLayerTableRecord
2
80
70
0
62
-6
6
CONTINUOUS
290
1
370
-3
390
0
0
LAYER
5
71
100
AcDbSymbolTableRecord
100
AcDbLayerTableRecord
2
81
70
0
62
-3
6
CONTINUOUS
290
1
370
-3
390
0
0
LAYER
5
73
100
AcDbSymbolTableRecord
100
AcDbLayerTableRecord
2
1
70
0
62
4
6
CONTINUOUS
290
1
370
-3
390
0
0
LAYER
5
1f4
100
AcDbSymbolTableRecord
100
AcDbLayerTableRecord
2
SK1
70
0
62
4
6
CONTINUOUS
290
1
370
-3
390
0
0
LAYER
5
1f5
100
AcDbSymbolTableRecord
100
AcDbLayerTableRecord
2
SK6
70
0
62
5
6
CONTINUOUS
290
1
370
-3
390
0
0
LAYER
5
1f6
100
AcDbSymbolTableRecord
100
AcDbLayerTableRecord
2
SK2
70
0
62
7
6
CONTINUOUS
290
1
370
-3
390
0
0
ENDTAB
0
TABLE
2
STYLE
5
20a
100
AcDbSymbolTable
0
STYLE
5
11
100
AcDbSymbolTableRecord
100
AcDbTextStyleTableRecord
2
Standard
3
txt
70
0
71
0
40
0
41
1
42
0
50
0
0
STYLE
5
14A
100
AcDbSymbolTableRecord
100
AcDbTextStyleTableRecord
2
iso_b_vert
3
simplex.shx
70
0
71
0
40
0
41
1
42
0
50
0
0
STYLE
5
14B
100
AcDbSymbolTableRecord
100
AcDbTextStyleTableRecord
2
DWGDirectTextStyle
3
simplex
70
0
71
0
40
0
41
1
42
0
50
0
0
ENDTAB
0
TABLE
2
DIMSTYLE
5
20b
100
AcDbSymbolTable
100
AcDbDimStyleTable
0
DIMSTYLE
105
27
100
AcDbSymbolTableRecord
100
AcDbDimStyleTableRecord
2
Standard
70
0
3
<>
41
0.18
42
0.0625
44
0.18
140
0.18
147
0.09
73
0
74
0
77
1
271
2
275
0
278
52
280
0
340
11
0
ENDTAB
0
TABLE
2
VIEW
5
20c
100
AcDbSymbolTable
0
ENDTAB
0
TABLE
2
UCS
5
20d
100
AcDbSymbolTable
0
ENDTAB
0
TABLE
2
APPID
5
20e
100
AcDbSymbolTable
0
APPID
5
12
100
AcDbSymbolTableRecord
100
AcDbRegAppTableRecord
2
ACAD
70
0
0
ENDTAB
0
TABLE
2
BLOCK_RECORD
5
20f
100
AcDbSymbolTable
0
BLOCK_RECORD
5
1F
100
AcDbSymbolTableRecord
100
AcDbBlockTableRecord
2
*Model_Space
340
0
70
0
0
BLOCK_RECORD
5
1B
100
AcDbSymbolTableRecord
100
AcDbBlockTableRecord
2
*Paper_Space
340
0
70
0
0
BLOCK_RECORD
5
23
100
AcDbSymbolTableRecord
100
AcDbBlockTableRecord
2
*Paper_Space0
340
0
70
0
0
BLOCK_RECORD
5
14D
100
AcDbSymbolTableRecord
100
AcDbBlockTableRecord
2
DimnDraft3D11
340
0
70
0
0
BLOCK_RECORD
5
15C
100
AcDbSymbolTableRecord
100
AcDbBlockTableRecord
2
DimnDraft3D2
340
0
70
0
0
BLOCK_RECORD
5
16A
100
AcDbSymbolTableRecord
100
AcDbBlockTableRecord
2
_CLOSED
340
0
70
0
0
BLOCK_RECORD
5
171
100
AcDbSymbolTableRecord
100
AcDbBlockTableRecord
2
DimnDraft3D3
340
0
70
0
0
BLOCK_RECORD
5
17F
100
AcDbSymbolTableRecord
100
AcDbBlockTableRecord
2
DimnDraft3D4
340
0
70
0
0
BLOCK_RECORD
5
18D
100
AcDbSymbolTableRecord
100
AcDbBlockTableRecord
2
DimnDraft3D5
340
0
70
0
0
ENDTAB
0
ENDSEC
0
SECTION
2
BLOCKS
0
BLOCK
5
20
100
AcDbEntity
8
0
100
AcDbBlockBegin
2
*Model_Space
70
0
10
0
20
0
30
0
3
*Model_Space
0
ENDBLK
5
21
100
AcDbEntity
8
0
100
AcDbBlockEnd
0
BLOCK
5
1C
100
AcDbEntity
8
0
100
AcDbBlockBegin
2
*Paper_Space
70
0
10
0
20
0
30
0
3
*Paper_Space
0
ENDBLK
5
1D
100
AcDbEntity
8
0
100
AcDbBlockEnd
0
BLOCK
5
24
100
AcDbEntity
8
0
100
AcDbBlockBegin
2
*Paper_Space0
70
0
10
0
20
0
30
0
3
*Paper_Space0
0
ENDBLK
5
25
100
AcDbEntity
8
0
100
AcDbBlockEnd
0
BLOCK
5
14E
100
AcDbEntity
8
0
100
AcDbBlockBegin
2
DimnDraft3D11
70
0
10
0
20
0
30
0
3
DimnDraft3D11
0
LINE
5
150
100
AcDbEntity
8
SK2
62
256
6
ByLayer
370
25
48
1
60
0
100
AcDbLine
10
34.213719
20
-11.9125
30
0
11
34.213719
21
-50.1625
31
0
39
0
210
0
220
0
230
1
0
LINE
5
152
100
AcDbEntity
8
SK2
62
256
6
ByLayer
370
25
48
1
60
0
100
AcDbLine
10
-137.136281
20
-14.4375
30
0
11
-137.136281
21
-50.1625
31
0
39
0
210
0
220
0
230
1
0
LINE
5
153
100
AcDbEntity
8
SK2
62
256
6
ByLayer
370
25
48
1
60
0
100
AcDbLine
10
34.213719
20
-48.1625
30
0
11
-137.136281
21
-48.1625
31
0
39
0
210
0
220
0
230
1
0
LINE
5
154
100
AcDbEntity
8
SK2
62
256
6
ByLayer
370
25
48
1
60
0
100
AcDbLine
10
34.213719
20
-48.1625
30
0
11
31.038721
21
-48.580497
31
0
39
0
210
0
220
0
230
1
0
LINE
5
155
100
AcDbEntity
8
SK2
62
256
6
ByLayer
370
25
48
1
60
0
100
AcDbLine
10
34.213719
20
-48.1625
30
0
11
31.038717
21
-47.744503
31
0
39
0
210
0
220
0
230
1
0
LINE
5
156
100
AcDbEntity
8
SK2
62
256
6
ByLayer
370
25
48
1
60
0
100
AcDbLine
10
31.038721
20
-48.580497
30
0
11
31.038717
21
-47.744503
31
0
39
0
210
0
220
0
230
1
0
LINE
5
157
100
AcDbEntity
8
SK2
62
256
6
ByLayer
370
25
48
1
60
0
100
AcDbLine
10
-137.136281
20
-48.1625
30
0
11
-133.961283
21
-47.744503
31
0
39
0
210
0
220
0
230
1
0
LINE
5
158
100
AcDbEntity
8
SK2
62
256
6
ByLayer
370
25
48
1
60
0
100
AcDbLine
10
-137.136281
20
-48.1625
30
0
11
-133.961279
21
-48.580497
31
0
39
0
210
0
220
0
230
1
0
LINE
5
159
100
AcDbEntity
8
SK2
62
256
6
ByLayer
370
25
48
1
60
0
100
AcDbLine
10
-133.961283
20
-47.744503
30
0
11
-133.961279
21
-48.580497
31
0
39
0
210
0
220
0
230
1
0
MTEXT
5
15A
100
AcDbEntity
8
SK2
62
256
6
ByLayer
370
18
48
1
60
0
100
AcDbMText
10
-56.736939
20
-47.0375
30
0
210
0
220
0
230
1
1
\W0.6864;170.0
40
4.5
41
0
44
1.084337
50
0
71
7
72
5
7
iso_b_vert
0
ENDBLK
5
14F
100
AcDbEntity
8
0
100
AcDbBlockEnd
0
BLOCK
5
167
100
AcDbEntity
8
0
100
AcDbBlockBegin
2
DimnDraft3D2
70
0
10
0
20
0
30
0
3
DimnDraft3D2
0
MTEXT
5
15D
100
AcDbEntity
8
2
62
256
6
ByLayer
370
18
48
1
60
0
100
AcDbMText
10
19.512264
20
-24.276697
30
0
210
0
220
0
230
1
1
\W0.7399;75%%d
40
4.5
41
0
44
1.084337
50
322.5
71
7
72
5
7
iso_b_vert
0
LINE
5
15E
100
AcDbEntity
8
2
62
256
6
ByLayer
370
13
48
1
60
0
100
AcDbLine
10
29.287497
20
-11.232477
30
0
11
11.542896
21
-15.987129
31
0
39
0
210
0
220
0
230
1
0
LINE
5
15F
100
AcDbEntity
8
2
62
256
6
ByLayer
370
13
48
1
60
0
100
AcDbLine
10
34.213719
20
-11.9125
30
0
11
34.213719
21
-33.383063
31
0
39
0
210
0
220
0
230
1
0
ARC
5
160
100
AcDbEntity
8
2
62
256
6
ByLayer
370
13
48
1
60
0
100
AcDbCircle
39
0
10
34.213719
20
-9.9125
30
0
40
21.4705627491871
210
0
220
0
230
1
100
AcDbArc
50
195
51
270
0
LINE
5
161
100
AcDbEntity
8
2
62
256
6
ByLayer
370
13
48
1
60
0
100
AcDbLine
10
13.474748
20
-15.469491
30
0
11
14.808572
21
-18.38089
31
0
39
0
210
0
220
0
230
1
0
LINE
5
162
100
AcDbEntity
8
2
62
256
6
ByLayer
370
13
48
1
60
0
100
AcDbLine
10
13.474748
20
-15.469491
30
0
11
14.009598
21
-18.626909
31
0
39
0
210
0
220
0
230
1
0
LINE
5
163
100
AcDbEntity
8
2
62
256
6
ByLayer
370
13
48
1
60
0
100
AcDbLine
10
14.808572
20
-18.38089
30
0
11
14.009598
21
-18.626909
31
0
39
0
210
0
220
0
230
1
0
LINE
5
164
100
AcDbEntity
8
2
62
256
6
ByLayer
370
13
48
1
60
0
100
AcDbLine
10
34.213719
20
-31.383063
30
0
11
31.025461
21
-31.683637
31
0
39
0
210
0
220
0
230
1
0
LINE
5
165
100
AcDbEntity
8
2
62
256
6
ByLayer
370
13
48
1
60
0
100
AcDbLine
10
34.213719
20
-31.383063
30
0
11
31.0563
21
-30.848213
31
0
39
0
210
0
220
0
230
1
0
LINE
5
166
100
AcDbEntity
8
2
62
256
6
ByLayer
370
13
48
1
60
0
100
AcDbLine
10
31.025461
20
-31.683637
30
0
11
31.0563
21
-30.848213
31
0
39
0
210
0
220
0
230
1
0
ENDBLK
5
168
100
AcDbEntity
8
0
100
AcDbBlockEnd
0
BLOCK
5
16B
100
AcDbEntity
8
0
100
AcDbBlockBegin
2
_CLOSED
70
0
10
0
20
0
30
0
3
_CLOSED
0
LINE
5
16D
100
AcDbEntity
8
0
62
256
6
ByLayer
370
-2
48
1
60
0
100
AcDbLine
10
-1
20
0.166667
30
0
11
0
21
0
31
0
39
0
210
0
220
0
230
1
0
LINE
5
16E
100
AcDbEntity
8
0
62
256
6
ByLayer
370
-2
48
1
60
0
100
AcDbLine
10
0
20
0
30
0
11
-1
21
-0.166667
31
0
39
0
210
0
220
0
230
1
0
LINE
5
16F
100
AcDbEntity
8
0
62
256
6
ByLayer
370
-2
48
1
60
0
100
AcDbLine
10
-1
20
0.166667
30
0
11
-1
21
-0.166667
31
0
39
0
210
0
220
0
230
1
0
LINE
5
170
100
AcDbEntity
8
0
62
256
6
ByLayer
370
-2
48
1
60
0
100
AcDbLine
10
0
20
0
30
0
11
-1
21
0
31
0
39
0
210
0
220
0
230
1
0
ENDBLK
5
16C
100
AcDbEntity
8
0
100
AcDbBlockEnd
0
BLOCK
5
17C
100
AcDbEntity
8
0
100
AcDbBlockBegin
2
DimnDraft3D3
70
0
10
0
20
0
30
0
3
DimnDraft3D3
0
MTEXT
5
172
100
AcDbEntity
8
2
62
256
6
ByLayer
370
18
48
1
60
0
100
AcDbMText
10
12.713438
20
-37.0375
30
0
210
0
220
0
230
1
1
\W0.7640;34.2
40
4.5
41
0
44
1.084337
50
0
71
7
72
5
7
iso_b_vert
0
LINE
5
173
100
AcDbEntity
8
2
62
256
6
ByLayer
370
13
48
1
60
0
100
AcDbLine
10
0
20
-14.4375
30
0
11
0
21
-40.1625
31
0
39
0
210
0
220
0
230
1
0
LINE
5
174
100
AcDbEntity
8
2
62
256
6
ByLayer
370
13
48
1
60
0
100
AcDbLine
10
34.213719
20
-11.9125
30
0
11
34.213719
21
-40.1625
31
0
39
0
210
0
220
0
230
1
0
LINE
5
175
100
AcDbEntity
8
2
62
256
6
ByLayer
370
13
48
1
60
0
100
AcDbLine
10
0
20
-38.1625
30
0
11
34.213719
21
-38.1625
31
0
39
0
210
0
220
0
230
1
0
LINE
5
176
100
AcDbEntity
8
2
62
256
6
ByLayer
370
13
48
1
60
0
100
AcDbLine
10
0
20
-38.1625
30
0
11
3.174998
21
-37.744503
31
0
39
0
210
0
220
0
230
1
0
LINE
5
177
100
AcDbEntity
8
2
62
256
6
ByLayer
370
13
48
1
60
0
100
AcDbLine
10
0
20
-38.1625
30
0
11
3.175002
21
-38.580497
31
0
39
0
210
0
220
0
230
1
0
LINE
5
178
100
AcDbEntity
8
2
62
256
6
ByLayer
370
13
48
1
60
0
100
AcDbLine
10
3.174998
20
-37.744503
30
0
11
3.175002
21
-38.580497
31
0
39
0
210
0
220
0
230
1
0
LINE
5
179
100
AcDbEntity
8
2
62
256
6
ByLayer
370
13
48
1
60
0
100
AcDbLine
10
34.213719
20
-38.1625
30
0
11
31.038721
21
-38.580497
31
0
39
0
210
0
220
0
230
1
0
LINE
5
17A
100
AcDbEntity
8
2
62
256
6
ByLayer
370
13
48
1
60
0
100
AcDbLine
10
34.213719
20
-38.1625
30
0
11
31.038717
21
-37.744503
31
0
39
0
210
0
220
0
230
1
0
LINE
5
17B
100
AcDbEntity
8
2
62
256
6
ByLayer
370
13
48
1
60
0
100
AcDbLine
10
31.038721
20
-38.580497
30
0
11
31.038717
21
-37.744503
31
0
39
0
210
0
220
0
230
1
0
ENDBLK
5
17D
100
AcDbEntity
8
0
100
AcDbBlockEnd
0
BLOCK
5
18A
100
AcDbEntity
8
0
100
AcDbBlockBegin
2
DimnDraft3D4
70
0
10
0
20
0
30
0
3
DimnDraft3D4
0
MTEXT
5
180
100
AcDbEntity
8
2
62
256
6
ByLayer
370
18
48
1
60
0
100
AcDbMText
10
55.338719
20
-2.894079
30
0
210
0
220
0
230
1
1
\W0.7346;22.0
40
4.5
41
0
44
1.084337
50
90
71
7
72
5
7
iso_b_vert
0
LINE
5
181
100
AcDbEntity
8
2
62
256
6
ByLayer
370
13
48
1
60
0
100
AcDbLine
10
2
20
12.4375
30
0
11
58.463719
21
12.4375
31
0
39
0
210
0
220
0
230
1
0
LINE
5
182
100
AcDbEntity
8
2
62
256
6
ByLayer
370
13
48
1
60
0
100
AcDbLine
10
36.213719
20
-9.9125
30
0
11
58.463719
21
-9.9125
31
0
39
0
210
0
220
0
230
1
0
LINE
5
183
100
AcDbEntity
8
2
62
256
6
ByLayer
370
13
48
1
60
0
100
AcDbLine
10
56.463719
20
12.4375
30
0
11
56.463719
21
-9.9125
31
0
39
0
210
0
220
0
230
1
0
LINE
5
184
100
AcDbEntity
8
2
62
256
6
ByLayer
370
13
48
1
60
0
100
AcDbLine
10
56.463719
20
12.4375
30
0
11
56.881716
21
9.262502
31
0
39
0
210
0
220
0
230
1
0
LINE
5
185
100
AcDbEntity
8
2
62
256
6
ByLayer
370
13
48
1
60
0
100
AcDbLine
10
56.463719
20
12.4375
30
0
11
56.045722
21
9.262498
31
0
39
0
210
0
220
0
230
1
0
LINE
5
186
100
AcDbEntity
8
2
62
256
6
ByLayer
370
13
48
1
60
0
100
AcDbLine
10
56.881716
20
9.262502
30
0
11
56.045722
21
9.262498
31
0
39
0
210
0
220
0
230
1
0
LINE
5
187
100
AcDbEntity
8
2
62
256
6
ByLayer
370
13
48
1
60
0
100
AcDbLine
10
56.463719
20
-9.9125
30
0
11
56.045722
21
-6.737502
31
0
39
0
210
0
220
0
230
1
0
LINE
5
188
100
AcDbEntity
8
2
62
256
6
ByLayer
370
13
48
1
60
0
100
AcDbLine
10
56.463719
20
-9.9125
30
0
11
56.881716
21
-6.737498
31
0
39
0
210
0
220
0
230
1
0
LINE
5
189
100
AcDbEntity
8
2
62
256
6
ByLayer
370
13
48
1
60
0
100
AcDbLine
10
56.045722
20
-6.737502
30
0
11
56.881716
21
-6.737498
31
0
39
0
210
0
220
0
230
1
0
ENDBLK
5
18B
100
AcDbEntity
8
0
100
AcDbBlockEnd
0
BLOCK
5
198
100
AcDbEntity
8
0
100
AcDbBlockBegin
2
DimnDraft3D5
70
0
10
0
20
0
30
0
3
DimnDraft3D5
0
MTEXT
5
18E
100
AcDbEntity
8
SK2
62
256
6
ByLayer
370
18
48
1
60
0
100
AcDbMText
10
-146.011281
20
-4.156579
30
0
210
0
220
0
230
1
1
\W0.7346;25.0
40
4.5
41
0
44
1.084337
50
90
71
7
72
5
7
iso_b_vert
0
LINE
5
18F
100
AcDbEntity
8
SK2
62
256
6
ByLayer
370
13
48
1
60
0
100
AcDbLine
10
-139.136281
20
12.4375
30
0
11
-146.886281
21
12.4375
31
0
39
0
210
0
220
0
230
1
0
LINE
5
190
100
AcDbEntity
8
SK2
62
256
6
ByLayer
370
13
48
1
60
0
100
AcDbLine
10
-139.136281
20
-12.4375
30
0
11
-146.886281
21
-12.4375
31
0
39
0
210
0
220
0
230
1
0
LINE
5
191
100
AcDbEntity
8
SK2
62
256
6
ByLayer
370
13
48
1
60
0
100
AcDbLine
10
-144.886281
20
12.4375
30
0
11
-144.886281
21
-12.4375
31
0
39
0
210
0
220
0
230
1
0
LINE
5
192
100
AcDbEntity
8
SK2
62
256
6
ByLayer
370
13
48
1
60
0
100
AcDbLine
10
-144.886281
20
12.4375
30
0
11
-144.468284
21
9.262502
31
0
39
0
210
0
220
0
230
1
0
LINE
5
193
100
AcDbEntity
8
SK2
62
256
6
ByLayer
370
13
48
1
60
0
100
AcDbLine
10
-144.886281
20
12.4375
30
0
11
-145.304278
21
9.262498
31
0
39
0
210
0
220
0
230
1
0
LINE
5
194
100
AcDbEntity
8
SK2
62
256
6
ByLayer
370
13
48
1
60
0
100
AcDbLine
10
-144.468284
20
9.262502
30
0
11
-145.304278
21
9.262498
31
0
39
0
210
0
220
0
230
1
0
LINE
5
195
100
AcDbEntity
8
SK2
62
256
6
ByLayer
370
13
48
1
60
0
100
AcDbLine
10
-144.886281
20
-12.4375
30
0
11
-145.304278
21
-9.262502
31
0
39
0
210
0
220
0
230
1
0
LINE
5
196
100
AcDbEntity
8
SK2
62
256
6
ByLayer
370
13
48
1
60
0
100
AcDbLine
10
-144.886281
20
-12.4375
30
0
11
-144.468284
21
-9.262498
31
0
39
0
210
0
220
0
230
1
0
LINE
5
197
100
AcDbEntity
8
SK2
62
256
6
ByLayer
370
13
48
1
60
0
100
AcDbLine
10
-145.304278
20
-9.262502
30
0
11
-144.468284
21
-9.262498
31
0
39
0
210
0
220
0
230
1
0
ENDBLK
5
199
100
AcDbEntity
8
0
100
AcDbBlockEnd
0
ENDSEC
0
SECTION
2
ENTITIES
0
ELLIPSE
5
D5
100
AcDbEntity
8
1
62
256
6
ByLayer
370
18
48
1
60
0
100
AcDbEllipse
10
14.011065
20
-0.565189
30
0
11
-0.190000000000002
21
-0.329089653438085
31
0
210
0
220
0
230
1
40
0.989133
41
2.50405666387322
42
2.82334085438505
0
ELLIPSE
5
D6
100
AcDbEntity
8
1
62
256
6
ByLayer
370
18
48
1
60
0
100
AcDbEllipse
10
13.431815
20
-2.658745
30
0
11
-0.190000000000002
21
-0.329089653438085
31
0
210
0
220
0
230
1
40
0.989133
41
0.31824246949134
42
1.15020834827184
0
ELLIPSE
5
D7
100
AcDbEntity
8
1
62
256
6
ByLayer
370
18
48
1
60
0
100
AcDbEllipse
10
14.744947
20
-0.241955
30
0
11
0.212499999999998
21
0.368060796608388
31
0
210
0
220
0
230
1
40
0.989133
41
2.50405666387322
42
-3.14157508544019
0
ELLIPSE
5
D8
100
AcDbEntity
8
1
62
256
6
ByLayer
370
18
48
1
60
0
100
AcDbEllipse
10
15.210085
20
-0.890028
30
0
11
-0.190000000000002
21
-0.329089653438085
31
0
210
0
220
0
230
1
40
0.989133
41
1.45685911267668
42
2.82334436917113
0
ELLIPSE
5
D9
100
AcDbEntity
8
1
62
256
6
ByLayer
370
18
48
1
60
0
100
AcDbEllipse
10
13.896953
20
-3.306819
30
0
11
0.212499999999998
21
0.368060796608388
31
0
210
0
220
0
230
1
40
0.989133
41
1.93219937668444E-05
42
1.15020834827182
0
ELLIPSE
5
DA
100
AcDbEntity
8
1
62
256
6
ByLayer
370
18
48
1
60
0
100
AcDbEllipse
10
14.630834
20
-2.983585
30
0
11
-0.190000000000002
21
-0.329089653438085
31
0
210
0
220
0
230
1
40
0.989133
41
0.318282348964218
42
2.19740589946841
0
ELLIPSE
5
DB
100
AcDbEntity
8
1
62
256
6
ByLayer
370
18
48
1
60
0
100
AcDbEllipse
10
15.849427
20
-1.364833
30
0
11
0.212499999999998
21
0.368060796608388
31
0
210
0
220
0
230
1
40
0.989133
41
1.45685911267662
42
3.14158538262177
0
ELLIPSE
5
DC
100
AcDbEntity
8
1
62
256
6
ByLayer
370
18
48
1
60
0
100
AcDbEllipse
10
14.219088
20
-1.715577
30
0
11
1.99999999999998
21
3.46410161513777
31
0
210
0
220
0
230
1
40
0.989133
41
0.528343053518855
42
3.14149876336411
0
ELLIPSE
5
DD
100
AcDbEntity
8
1
62
256
6
ByLayer
370
18
48
1
60
0
100
AcDbEllipse
10
14.219088
20
-1.715577
30
0
11
1.99999999999998
21
3.46410161513777
31
0
210
0
220
0
230
1
40
0.989133
41
-1.0329905585144
42
-2.24484073350127E-16
0
ELLIPSE
5
DE
100
AcDbEntity
8
1
62
256
6
ByLayer
370
18
48
1
60
0
100
AcDbEllipse
10
14.219088
20
-1.715577
30
0
11
1.99999999999998
21
3.46410161513777
31
0
210
0
220
0
230
1
40
0.989133
41
0
42
0.528338758566072
0
ELLIPSE
5
DF
100
AcDbEntity
8
1
62
256
6
ByLayer
370
18
48
1
60
0
100
AcDbEllipse
10
15.519969
20
-2.099226
30
0
11
-0.190000000000002
21
-0.329089653438085
31
0
210
0
220
0
230
1
40
0.989133
41
0.409661561479996
42
2.99158584164606
0
ELLIPSE
5
E0
100
AcDbEntity
8
1
62
256
6
ByLayer
370
18
48
1
60
0
100
AcDbEllipse
10
14.32095
20
-1.774387
30
0
11
0.574999999999993
21
0.995929214352108
31
0
210
0
220
0
230
1
40
0.989133
41
0.5283431959763
42
0.962804170555695
0
ELLIPSE
5
E1
100
AcDbEntity
8
1
62
256
6
ByLayer
370
18
48
1
60
0
100
AcDbEllipse
10
14.32095
20
-1.774387
30
0
11
0.574999999999993
21
0.995929214352108
31
0
210
0
220
0
230
1
40
0.989133
41
1.5536203460728
42
2.21855822120152
0
ELLIPSE
5
E2
100
AcDbEntity
8
1
62
256
6
ByLayer
370
18
48
1
60
0
100
AcDbEllipse
10
14.32095
20
-1.774387
30
0
11
0.574999999999993
21
0.995929214352108
31
0
210
0
220
0
230
1
40
0.989133
41
2.71630342858916
42
-1.95203542043589E-16
0
ELLIPSE
5
E3
100
AcDbEntity
8
1
62
256
6
ByLayer
370
18
48
1
60
0
100
AcDbEllipse
10
14.32095
20
-1.774387
30
0
11
0.574999999999993
21
0.995929214352108
31
0
210
0
220
0
230
1
40
0.989133
41
0.256338635127989
42
0.5283431959763
0
ELLIPSE
5
E4
100
AcDbEntity
8
1
62
256
6
ByLayer
370
18
48
1
60
0
100
AcDbEllipse
10
14.257286
20
-1.737631
30
0
11
0.574999999999993
21
0.995929214352108
31
0
210
0
220
0
230
1
40
0.989133
41
-3.10928888970021
42
-0.064397981414296
0
ELLIPSE
5
E5
100
AcDbEntity
8
1
62
256
6
ByLayer
370
18
48
1
60
0
100
AcDbEllipse
10
27.575766
20
-5.152753
30
0
11
1.28999999999998
21
2.23434554176386
31
0
210
0
220
0
230
1
40
0.989133
41
-2.64325322109132
42
-3.48037323023453E-16
0
ELLIPSE
5
E6
100
AcDbEntity
8
1
62
256
6
ByLayer
370
18
48
1
60
0
100
AcDbEllipse
10
27.575766
20
-5.152753
30
0
11
1.28999999999998
21
2.23434554176386
31
0
210
0
220
0
230
1
40
0.989133
41
0
42
0.0233698083342302
0
ELLIPSE
5
E7
100
AcDbEntity
8
1
62
256
6
ByLayer
370
18
48
1
60
0
100
AcDbEllipse
10
7.218899
20
-5.614815
30
0
11
1.42925169960529
21
2.63765797236401
31
0
210
0
220
0
230
1
40
0.9865
41
0.0889977109651703
42
0.229639942064431
0
ELLIPSE
5
E8
100
AcDbEntity
8
1
62
256
6
ByLayer
370
18
48
1
60
0
100
AcDbEllipse
10
14.901561
20
-1.894026
30
0
11
-1.97713151778731
21
-3.64876019510354
31
0
210
0
220
0
230
1
40
0.9865
41
0.229639942064432
42
-3.05263718780788
0
ELLIPSE
5
E9
100
AcDbEntity
8
1
62
256
6
ByLayer
370
18
48
1
60
0
100
AcDbEllipse
10
12.871616
20
-1.345521
30
0
11
-1.23868480632458
21
-2.28597024271547
31
0
210
0
220
0
230
1
40
0.9865
41
-1.44654712648013
42
-1.24028195058364
0
ELLIPSE
5
EA
100
AcDbEntity
8
1
62
256
6
ByLayer
370
18
48
1
60
0
100
AcDbEllipse
10
23.235125
20
0.435038
30
0
11
1.19771302649503
21
2.07449981477651
31
0
210
0
220
0
230
1
40
0.989133
41
0.605402029676517
42
0.864901880419006
0
ELLIPSE
5
EB
100
AcDbEntity
8
1
62
256
6
ByLayer
370
18
48
1
60
0
100
AcDbEllipse
10
22.086529
20
1.261214
30
0
11
1.24912729598981
21
2.16355194177551
31
0
210
0
220
0
230
1
40
0.989133
41
-0.82454950188702
42
-0.408366737789776
0
ELLIPSE
5
EC
100
AcDbEntity
8
1
62
256
6
ByLayer
370
18
48
1
60
0
100
AcDbEllipse
10
22.06743
20
1.27224
30
0
11
1.17412729598981
21
2.03364813120784
31
0
210
0
220
0
230
1
40
0.989133
41
-0.890439249670498
42
-0.335622516229941
0
ELLIPSE
5
ED
100
AcDbEntity
8
1
62
256
6
ByLayer
370
18
48
1
60
0
100
AcDbEllipse
10
23.501132
20
0.444492
30
0
11
1.18448901896902
21
2.05159516186179
31
0
210
0
220
0
230
1
40
0.989133
41
-0.786190306996521
42
0.0279563292030917
0
ELLIPSE
5
EE
100
AcDbEntity
8
1
62
256
6
ByLayer
370
18
48
1
60
0
100
AcDbEllipse
10
23.432909
20
0.452274
30
0
11
1.19771302649503
21
2.07449981477651
31
0
210
0
220
0
230
1
40
0.989133
41
0.00106588010670151
42
0.605402029676536
0
ELLIPSE
5
EF
100
AcDbEntity
8
1
62
256
6
ByLayer
370
18
48
1
60
0
100
AcDbEllipse
10
22.45271
20
1.026052
30
0
11
-2.01041232730355
21
-1.51868844560691
31
0
210
0
220
0
230
1
40
0.848525
41
2.66175026192639
42
2.67797811415129
0
ELLIPSE
5
F0
100
AcDbEntity
8
1
62
256
6
ByLayer
370
18
48
1
60
0
100
AcDbEllipse
10
8.936366
20
11.83137
30
0
11
-0.786404780343059
21
0.157751326368793
31
0
210
0
220
0
230
1
40
0.047372
41
-3.00220300160436
42
-1.43140667481071
0
ELLIPSE
5
F1
100
AcDbEntity
8
1
62
256
6
ByLayer
370
18
48
1
60
0
100
AcDbEllipse
10
22.436678
20
1.059055
30
0
11
1.23312772246981
21
2.13583986753944
31
0
210
0
220
0
230
1
40
0.989133
41
-0.837913482376618
42
-0.836113817479754
0
ELLIPSE
5
F2
100
AcDbEntity
8
1
62
256
6
ByLayer
370
18
48
1
60
0
100
AcDbEllipse
10
23.472236
20
0.381756
30
0
11
-2.21966426248145
21
-1.35203120631754
31
0
210
0
220
0
230
1
40
0.525221
41
2.60255853048884
42
2.67505980087702
0
ELLIPSE
5
F3
100
AcDbEntity
8
1
62
256
6
ByLayer
370
18
48
1
60
0
100
AcDbEllipse
10
32.564607
20
1.904829
30
0
11
-0.397000000000006
21
-0.687624170604842
31
0
210
0
220
0
230
1
40
0.989133
41
2.17619835647136
42
-2.36165769871389
0
ELLIPSE
5
F4
100
AcDbEntity
8
1
62
256
6
ByLayer
370
18
48
1
60
0
100
AcDbEllipse
10
22.586925
20
-12.210335
30
0
11
-0.397000000000006
21
-0.687624170604842
31
0
210
0
220
0
230
1
40
0.989133
41
-0.965394297118431
42
0.779934954875912
0
ELLIPSE
5
F5
100
AcDbEntity
8
1
62
256
6
ByLayer
370
18
48
1
60
0
100
AcDbEllipse
10
33.426166
20
-9.305969
30
0
11
-0.397000000000006
21
-0.687624170604842
31
0
210
0
220
0
230
1
40
0.989133
41
0.779934954875905
42
2.17619835647137
0
ELLIPSE
5
F6
100
AcDbEntity
8
1
62
256
6
ByLayer
370
18
48
1
60
0
100
AcDbEllipse
10
13.127221
20
5.57375
30
0
11
-3.31184056247643
21
1.15073777053935
31
0
210
0
220
0
230
1
40
0.409411
41
-0.0920409377178832
42
0.631177168681027
0
ELLIPSE
5
F7
100
AcDbEntity
8
1
62
256
6
ByLayer
370
18
48
1
60
0
100
AcDbEllipse
10
9.11255
20
4.306886
30
0
11
-2.29716956571162
21
-1.93485010901218
31
0
210
0
220
0
230
1
40
0.994282
41
-2.01893421790816
42
-0.96724515484256
0
ELLIPSE
5
F8
100
AcDbEntity
8
1
62
256
6
ByLayer
370
18
48
1
60
0
100
AcDbEllipse
10
28.058634
20
-5.399334
30
0
11
-0.0190641654524636
21
-2.30222641166102
31
0
210
0
220
0
230
1
40
0.801371
41
1.40106820121647
42
2.25627953469307
0
ELLIPSE
5
F9
100
AcDbEntity
8
1
62
256
6
ByLayer
370
18
48
1
60
0
100
AcDbEllipse
10
9.574182
20
-7.267829
30
0
11
-3.42905569188076
21
0.728975838399434
31
0
210
0
220
0
230
1
40
0.335188
41
-0.625034491354452
42
0.0981836150458705
0
ELLIPSE
5
FA
100
AcDbEntity
8
1
62
256
6
ByLayer
370
18
48
1
60
0
100
AcDbEllipse
10
9.982796
20
-5.41387
30
0
11
-5.35293045762518
21
1.27786215960715
31
0
210
0
220
0
230
1
40
0.200196
41
-0.611875694321857
42
-0.558883378962232
0
ELLIPSE
5
FB
100
AcDbEntity
8
1
62
256
6
ByLayer
370
18
48
1
60
0
100
AcDbEllipse
10
9.586898
20
3.952597
30
0
11
1.49594196942037
21
1.32746285225867
31
0
210
0
220
0
230
1
40
0.766835
41
0.642000135205714
42
2.05467562946532
0
ELLIPSE
5
FC
100
AcDbEntity
8
1
62
256
6
ByLayer
370
18
48
1
60
0
100
AcDbEllipse
10
28.058634
20
-5.399334
30
0
11
-1.55469798806297
21
-1.59254046504269
31
0
210
0
220
0
230
1
40
0.791036
41
1.17104293475252
42
2.02625426823071
0
ELLIPSE
5
FD
100
AcDbEntity
8
1
62
256
6
ByLayer
370
18
48
1
60
0
100
AcDbEllipse
10
11.953575
20
1.709016
30
0
11
5.30084309946888
21
-1.46665007238032
31
0
210
0
220
0
230
1
40
0.037276
41
-2.41648249963876
42
-1.9747147603527
0
ELLIPSE
5
FE
100
AcDbEntity
8
1
62
256
6
ByLayer
370
18
48
1
60
0
100
AcDbEllipse
10
11.959622
20
3.081476
30
0
11
-2.48993660157921
21
3.58150699419438
31
0
210
0
220
0
230
1
40
0.518425
41
-0.552900213109457
42
-0.193284479740716
0
ELLIPSE
5
FF
100
AcDbEntity
8
1
62
256
6
ByLayer
370
18
48
1
60
0
100
AcDbEllipse
10
6.874132
20
-3.783321
30
0
11
-2.29716956530101
21
-1.93485010947559
31
0
210
0
220
0
230
1
40
0.994282
41
-0.967245155051261
42
0.0844439080167071
0
ELLIPSE
5
100
100
AcDbEntity
8
1
62
256
6
ByLayer
370
18
48
1
60
0
100
AcDbEllipse
10
12.538667
20
3.82368
30
0
11
-5.24634902676687
21
1.66254677785284
31
0
210
0
220
0
230
1
40
0.274646
41
0.561908476545356
42
0.614900774351637
0
ELLIPSE
5
101
100
AcDbEntity
8
1
62
256
6
ByLayer
370
18
48
1
60
0
100
AcDbEllipse
10
5.631677
20
8.125672
30
0
11
6.74652758114221
21
-1.86664554666587
31
0
210
0
220
0
230
1
40
0.037276
41
0.806029476653123
42
0.820810513393104
0
ELLIPSE
5
102
100
AcDbEntity
8
1
62
256
6
ByLayer
370
18
48
1
60
0
100
AcDbEllipse
10
9.721204
20
-5.008731
30
0
11
-3.9467694447112
21
-1.11041793144974
31
0
210
0
220
0
230
1
40
0.480311
41
0.31720288292414
42
0.676818616279544
0
ELLIPSE
5
103
100
AcDbEntity
8
1
62
256
6
ByLayer
370
18
48
1
60
0
100
AcDbEllipse
10
7.345001
20
-4.150183
30
0
11
-0.447023416203213
21
1.94940248931974
31
0
210
0
220
0
230
1
40
0.790712
41
1.18921693979719
42
2.60189243405681
0
ELLIPSE
5
104
100
AcDbEntity
8
1
62
256
6
ByLayer
370
18
48
1
60
0
100
AcDbEllipse
10
10.567888
20
-3.299207
30
0
11
5.30084309946888
21
-1.46665007238032
31
0
210
0
220
0
230
1
40
0.037276
41
-2.41648249963876
42
-1.97471476035273
0
ELLIPSE
5
105
100
AcDbEntity
8
1
62
256
6
ByLayer
370
18
48
1
60
0
100
AcDbEllipse
10
14.834557
20
-3.101205
30
0
11
-0.190000000000002
21
-0.329089653438085
31
0
210
0
220
0
230
1
40
0.989133
41
-0.637535989716542
42
2.19740589946847
0
ELLIPSE
5
106
100
AcDbEntity
8
1
62
256
6
ByLayer
370
18
48
1
60
0
100
AcDbEllipse
10
14.43121
20
-1.838046
30
0
11
-2.00000000000002
21
-3.46410161513774
31
0
210
0
220
0
230
1
40
0.989133
41
0
42
6.28318530717959
0
ELLIPSE
5
107
100
AcDbEntity
8
1
62
256
6
ByLayer
370
18
48
1
60
0
100
AcDbEllipse
10
15.413808
20
-1.007648
30
0
11
-0.190000000000002
21
-0.329089653438085
31
0
210
0
220
0
230
1
40
0.989133
41
1.45685911267665
42
-1.99138430531794
0
ELLIPSE
5
108
100
AcDbEntity
8
1
62
256
6
ByLayer
370
18
48
1
60
0
100
AcDbEllipse
10
13.325654
20
-1.567167
30
0
11
-0.190000000000002
21
-0.329089653438085
31
0
210
0
220
0
230
1
40
0.989133
41
-2.73193109210973
42
0.103010797075206
0
ELLIPSE
5
109
100
AcDbEntity
8
1
62
256
6
ByLayer
370
18
48
1
60
0
100
AcDbEllipse
10
14.100676
20
-3.424439
30
0
11
0.212499999999998
21
0.368060796608388
31
0
210
0
220
0
230
1
40
0.989133
41
-0.637535989716566
42
1.15020834827181
0
ELLIPSE
5
10A
100
AcDbEntity
8
1
62
256
6
ByLayer
370
18
48
1
60
0
100
AcDbEllipse
10
16.05315
20
-1.482452
30
0
11
0.212499999999998
21
0.368060796608388
31
0
210
0
220
0
230
1
40
0.989133
41
1.45685911267665
42
-3.03858185651448
0
ELLIPSE
5
10B
100
AcDbEntity
8
1
62
256
6
ByLayer
370
18
48
1
60
0
100
AcDbEllipse
10
15.42543
20
-2.897265
30
0
11
0.212499999999998
21
0.368060796608388
31
0
210
0
220
0
230
1
40
0.989133
41
0.409661561479935
42
2.19740589946849
0
ELLIPSE
5
10C
100
AcDbEntity
8
1
62
256
6
ByLayer
370
18
48
1
60
0
100
AcDbEllipse
10
15.723692
20
-2.216846
30
0
11
-0.190000000000002
21
-0.329089653438085
31
0
210
0
220
0
230
1
40
0.989133
41
0.409661561479987
42
-3.03858185651451
0
ELLIPSE
5
10D
100
AcDbEntity
8
1
62
256
6
ByLayer
370
18
48
1
60
0
100
AcDbEllipse
10
14.524673
20
-1.892007
30
0
11
-1.15000000000001
21
-1.9918584287042
31
0
210
0
220
0
230
1
40
0.989133
41
0
42
6.28318530717959
0
ELLIPSE
5
10E
100
AcDbEntity
8
1
62
256
6
ByLayer
370
18
48
1
60
0
100
AcDbEllipse
10
13.635538
20
-2.776365
30
0
11
-0.190000000000002
21
-0.329089653438085
31
0
210
0
220
0
230
1
40
0.989133
41
-1.68473354091308
42
1.15020834827187
0
ELLIPSE
5
10F
100
AcDbEntity
8
1
62
256
6
ByLayer
370
18
48
1
60
0
100
AcDbEllipse
10
14.214789
20
-0.682809
30
0
11
-0.190000000000002
21
-0.329089653438085
31
0
210
0
220
0
230
1
40
0.989133
41
2.50405666387326
42
-0.94418675412137
0
ELLIPSE
5
110
100
AcDbEntity
8
1
62
256
6
ByLayer
370
18
48
1
60
0
100
AcDbEllipse
10
13.420193
20
-0.769129
30
0
11
0.212499999999998
21
0.368060796608388
31
0
210
0
220
0
230
1
40
0.989133
41
-2.7319310921098
42
-0.9441867541214
0
ELLIPSE
5
111
100
AcDbEntity
8
1
62
256
6
ByLayer
370
18
48
1
60
0
100
AcDbEllipse
10
14.94867
20
-0.359575
30
0
11
0.212499999999998
21
0.368060796608388
31
0
210
0
220
0
230
1
40
0.989133
41
2.50405666387322
42
-1.99138430531807
0
ELLIPSE
5
112
100
AcDbEntity
8
1
62
256
6
ByLayer
370
18
48
1
60
0
100
AcDbEllipse
10
15.629153
20
-3.014884
30
0
11
0.212499999999998
21
0.368060796608388
31
0
210
0
220
0
230
1
40
0.989133
41
0.409661561480161
42
2.19740589946847
0
ELLIPSE
5
113
100
AcDbEntity
8
1
62
256
6
ByLayer
370
18
48
1
60
0
100
AcDbEllipse
10
12.996196
20
-2.301561
30
0
11
0.212499999999998
21
0.368060796608388
31
0
210
0
220
0
230
1
40
0.989133
41
-1.6847335409132
42
0.103010797075312
0
POINT
5
6C
100
AcDbEntity
8
2
62
256
6
ByLayer
370
18
48
1
60
0
100
AcDbPoint
10
34.213719
20
34.7875
30
0
39
0
210
0
220
0
230
1
50
360
0
POINT
5
6E
100
AcDbEntity
8
80
62
256
6
ByLayer
370
18
48
1
60
0
100
AcDbPoint
10
0
20
0
30
0
39
0
210
0
220
0
230
1
50
360
0
POINT
5
70
100
AcDbEntity
8
81
62
256
6
ByLayer
370
18
48
1
60
0
100
AcDbPoint
10
34.213719
20
-9.9125
30
0
39
0
210
0
220
0
230
1
50
360
0
SPLINE
5
114
100
AcDbEntity
8
1
62
256
6
ByLayer
370
18
48
1
60
0
100
AcDbSpline
70
4
71
2
72
6
73
3
40
0
40
0
40
0
40
1
40
1
40
1
41
1
10
10.5950331307539
20
-0.0533264788751637
30
0
41
1
10
10.7013279612427
20
0.14370181437792
30
0
41
1
10
10.8299045022133
20
0.317803895431354
30
0
0
SPLINE
5
115
100
AcDbEntity
8
1
62
256
6
ByLayer
370
18
48
1
60
0
100
AcDbSpline
70
4
71
3
72
10
73
6
40
0
40
0
40
0
40
0
40
0.496184326218744
40
0.496184326218744
40
1
40
1
40
1
40
1
41
1
10
5.91147512388119
20
-6.63507253464991
30
0
41
1
10
5.71813268570577
20
-6.55193684426189
30
0
41
1
10
5.52149540294789
20
-6.4531350516088
30
0
41
1
10
5.12917952553045
20
-6.21345561653894
30
0
41
1
10
4.93180058936662
20
-6.0701790729575
30
0
41
1
10
4.74740722955841
20
-5.9039198047214
30
0
0
SPLINE
5
116
100
AcDbEntity
8
1
62
256
6
ByLayer
370
18
48
1
60
0
100
AcDbSpline
70
4
71
3
72
8
73
4
40
0
40
0
40
0
40
0
40
1
40
1
40
1
40
1
41
1
10
24.5058538896725
20
1.82282788088318
30
0
41
1
10
24.4709984148408
20
1.77694084612449
30
0
41
1
10
24.4354656637759
20
1.73118429698306
30
0
41
1
10
24.399201492511
20
1.68559493430425
30
0
0
SPLINE
5
117
100
AcDbEntity
8
1
62
256
6
ByLayer
370
18
48
1
60
0
100
AcDbSpline
70
4
71
3
72
10
73
6
40
0
40
0
40
0
40
0
40
0.60834142572423
40
0.60834142572423
40
1
40
1
40
1
40
1
41
1
10
25.7416704420141
20
0.943654472765814
30
0
41
1
10
25.5565900534133
20
1.08122077459581
30
0
41
1
10
25.3712802781732
20
1.21872703723619
30
0
41
1
10
25.0663146433255
20
1.44466986590837
30
0
41
1
10
24.9467837194465
20
1.53313914050318
30
0
41
1
10
24.8271681369806
20
1.62158625062014
30
0
0
SPLINE
5
118
100
AcDbEntity
8
1
62
256
6
ByLayer
370
18
48
1
60
0
100
AcDbSpline
70
4
71
3
72
8
73
4
40
0
40
0
40
0
40
0
40
1
40
1
40
1
40
1
41
1
10
24.8318686572508
20
1.58140323116859
30
0
41
1
10
24.7232687540247
20
1.66189688054001
30
0
41
1
10
24.6145962120106
20
1.74237151504977
30
0
41
1
10
24.5058538896725
20
1.82282788088313
30
0
0
SPLINE
5
119
100
AcDbEntity
8
1
62
256
6
ByLayer
370
18
48
1
60
0
100
AcDbSpline
70
4
71
3
72
10
73
6
40
0
40
0
40
0
40
0
40
0.264715639145587
40
0.264715639145587
40
1
40
1
40
1
40
1
41
1
10
27.3209072652927
20
-5.23516765424887
30
0
41
1
10
27.2429731959742
20
-5.16405856938033
30
0
41
1
10
27.1652101105552
20
-5.09153032212825
30
0
41
1
10
26.8721683264415
20
-4.81304800131693
30
0
41
1
10
26.657983693334
20
-4.59911275484254
30
0
41
1
10
26.4452846755424
20
-4.37856127668297
30
0
0
SPLINE
5
11A
100
AcDbEntity
8
1
62
256
6
ByLayer
370
18
48
1
60
0
100
AcDbSpline
70
4
71
3
72
8
73
4
40
0
40
0
40
0
40
0
40
1
40
1
40
1
40
1
41
1
10
25.8992971731707
20
-8.49188160234905
30
0
41
1
10
26.2708611471687
20
-8.32172662102286
30
0
41
1
10
26.6436126090227
20
-8.14872725286847
30
0
41
1
10
27.0156004114967
20
-7.97375780123215
30
0
0
SPLINE
5
11B
100
AcDbEntity
8
1
62
256
6
ByLayer
370
18
48
1
60
0
100
AcDbSpline
70
4
71
3
72
8
73
4
40
0
40
0
40
0
40
0
40
1
40
1
40
1
40
1
41
1
10
5.59719899423419
20
-3.69427426901103
30
0
41
1
10
5.59093119428945
20
-3.71692767810404
30
0
41
1
10
5.58519780743416
20
-3.73957368044287
30
0
41
1
10
5.57997404203411
20
-3.76221294444798
30
0
0
SPLINE
5
11C
100
AcDbEntity
8
1
62
256
6
ByLayer
370
18
48
1
60
0
100
AcDbSpline
70
4
71
3
72
10
73
6
40
0
40
0
40
0
40
0
40
0.655488757716279
40
0.655488757716279
40
1
40
1
40
1
40
1
41
1
10
10.2812146318537
20
7.03732507026567
30
0
41
1
10
9.92827669370058
20
7.14829897192993
30
0
41
1
10
9.52236836698938
20
7.23555542050116
30
0
41
1
10
8.856303444726
20
7.25730982369205
30
0
41
1
10
8.61569250607329
20
7.24433501162665
30
0
41
1
10
8.3740637406724
20
7.20373109518417
30
0
0
SPLINE
5
11D
100
AcDbEntity
8
1
62
256
6
ByLayer
370
18
48
1
60
0
100
AcDbSpline
70
4
71
3
72
8
73
4
40
0
40
0
40
0
40
0
40
1
40
1
40
1
40
1
41
1
10
11.6882065680217
20
2.11145155398808
30
0
41
1
10
11.1713193877544
20
3.59596600434611
30
0
41
1
10
10.6266461098369
20
4.9587499298849
30
0
41
1
10
10.175453555164
20
5.70266736889914
30
0
0
SPLINE
5
11E
100
AcDbEntity
8
1
62
256
6
ByLayer
370
18
48
1
60
0
100
AcDbSpline
70
4
71
3
72
8
73
4
40
0
40
0
40
0
40
0
40
1
40
1
40
1
40
1
41
1
10
10.1558307776362
20
-4.06163008645325
30
0
41
1
10
10.6399234409645
20
-4.7790969744257
30
0
41
1
10
11.3799156334474
20
-5.30637476084047
30
0
41
1
10
12.2713804358241
20
-5.54789125280985
30
0
0
SPLINE
5
11F
100
AcDbEntity
8
1
62
256
6
ByLayer
370
18
48
1
60
0
100
AcDbSpline
70
4
71
3
72
10
73
6
40
0
40
0
40
0
40
0
40
0.5
40
0.5
40
1
40
1
40
1
40
1
41
1
10
27.0156004114733
20
-7.97375780123753
30
0
41
1
10
26.292320062846
20
-8.14052176492802
30
0
41
1
10
25.7428995524087
20
-8.00259869302704
30
0
41
1
10
25.0313603608496
20
-7.46197568178255
30
0
41
1
10
24.8279506745604
20
-7.06879622997857
30
0
41
1
10
24.6836528964598
20
-6.64455980569554
30
0
0
SPLINE
5
120
100
AcDbEntity
8
1
62
256
6
ByLayer
370
18
48
1
60
0
100
AcDbSpline
70
4
71
3
72
10
73
6
40
0
40
0
40
0
40
0
40
0.967465556419481
40
0.967465556419481
40
1
40
1
40
1
40
1
41
1
10
26.1137124367919
20
-5.5769469358514
30
0
41
1
10
26.5077106603436
20
-5.45442116623315
30
0
41
1
10
26.8985055622771
20
-5.34193998782303
30
0
41
1
10
27.2951031602163
20
-5.24164474456927
30
0
41
1
10
27.3080094073176
20
-5.2383969543661
30
0
41
1
10
27.3209072653084
20
-5.23516765424492
30
0
0
SPLINE
5
121
100
AcDbEntity
8
1
62
256
6
ByLayer
370
18
48
1
60
0
100
AcDbSpline
70
4
71
3
72
15
73
11
40
0
40
0
40
0
40
0
40
0.322163720426455
40
0.322163720426455
40
0.644833452600232
40
0.644833452600232
40
0.912233455904555
40
0.912233455904555
40
0.912233455904555
40
1
40
1
40
1
40
1
41
1
10
15.0797827745288
20
-6.22088768792111
30
0
41
1
10
15.563027407317
20
-6.25392013202378
30
0
41
1
10
16.0586924883578
20
-6.20348783719285
30
0
41
1
10
16.9949543764835
20
-5.95557802517891
30
0
41
1
10
17.4488180927017
20
-5.75462417165809
30
0
41
1
10
18.1839325724801
20
-5.2621158310593
30
0
41
1
10
18.4896777800245
20
-4.98505780425816
30
0
41
1
10
18.7387055411408
20
-4.66808883496836
30
0
41
1
10
18.8214633994576
20
-4.56275249441859
30
0
41
1
10
18.8985043431423
20
-4.45254160052619
30
0
41
1
10
18.9687339386392
20
-4.33860591336691
30
0
0
SPLINE
5
122
100
AcDbEntity
8
1
62
256
6
ByLayer
370
18
48
1
60
0
100
AcDbSpline
70
4
71
2
72
6
73
3
40
0
40
0
40
0
40
1
40
1
40
1
41
1
10
25.899217352074
20
-8.49193047177582
30
0
41
1
10
24.9631983435432
20
-8.83991665495134
30
0
41
1
10
23.982661772617
20
-9.09825829146789
30
0
0
SPLINE
5
123
100
AcDbEntity
8
1
62
256
6
ByLayer
370
18
48
1
60
0
100
AcDbSpline
70
4
71
2
72
6
73
3
40
0
40
0
40
0
40
1
40
1
40
1
41
1.02805999725224
10
14.2290578002377
20
-7.97987911065842
30
0
41
1.02805999725224
10
13.89092762296
20
-8.41034663233423
30
0
41
1.02805999725224
10
13.5527974456823
20
-8.84081415401004
30
0
0
SPLINE
5
124
100
AcDbEntity
8
1
62
256
6
ByLayer
370
18
48
1
60
0
100
AcDbSpline
70
4
71
2
72
6
73
3
40
0
40
0
40
0
40
1
40
1
40
1
41
1
10
26.5128198698399
20
0.0463705169245827
30
0
41
1
10
27.223912305124
20
-0.670436726572405
30
0
41
1
10
27.8499474284465
20
-1.44142735041686
30
0
0
SPLINE
5
125
100
AcDbEntity
8
1
62
256
6
ByLayer
370
18
48
1
60
0
100
AcDbSpline
70
4
71
3
72
8
73
4
40
0
40
0
40
0
40
0
40
1
40
1
40
1
40
1
41
1
10
10.5478045472242
20
1.96618619382602
30
0
41
1
10
10.29383754434
20
1.98727099343648
30
0
41
1
10
10.0516406013384
20
2.03565191033678
30
0
41
1
10
9.81994264388192
20
2.103750418673
30
0
0
SPLINE
5
126
100
AcDbEntity
8
1
62
256
6
ByLayer
370
18
48
1
60
0
100
AcDbSpline
70
4
71
3
72
12
73
8
40
0
40
0
40
0
40
0
40
0.471343086678512
40
0.471343086678512
40
0.892619726108208
40
0.892619726108208
40
1
40
1
40
1
40
1
41
1
10
10.5478045472242
20
1.96618619382602
30
0
41
1
10
10.724626123802
20
1.95150614694353
30
0
41
1
10
10.9098964989412
20
1.9512740926732
30
0
41
1
10
11.2556723037805
20
1.98779496226283
30
0
41
1
10
11.4202962589291
20
2.0213617641129
30
0
41
1
10
11.611781806364
20
2.08307845601914
30
0
41
1
10
11.6504458812771
20
2.09679265485863
30
0
41
1
10
11.6882065680217
20
2.11145155398808
30
0
0
SPLINE
5
127
100
AcDbEntity
8
1
62
256
6
ByLayer
370
18
48
1
60
0
100
AcDbSpline
70
4
71
3
72
8
73
4
40
0
40
0
40
0
40
0
40
1
40
1
40
1
40
1
41
1
10
10.1558307776362
20
-4.06163008645331
30
0
41
1
10
10.1162529209909
20
-4.00297230501803
30
0
41
1
10
10.0736622100847
20
-3.94538362313978
30
0
41
1
10
10.0279898539848
20
-3.88899018607671
30
0
0
SPLINE
5
128
100
AcDbEntity
8
1
62
256
6
ByLayer
370
18
48
1
60
0
100
AcDbSpline
70
4
71
3
72
8
73
4
40
0
40
0
40
0
40
0
40
1
40
1
40
1
40
1
41
1
10
15.0797827593159
20
-6.22088768686115
30
0
41
1
10
14.790729825688
20
-6.20074805417266
30
0
41
1
10
14.5085710329278
20
-6.15399305676087
30
0
41
1
10
14.2338362117592
20
-6.07956163775972
30
0
0
SPLINE
5
129
100
AcDbEntity
8
1
62
256
6
ByLayer
370
18
48
1
60
0
100
AcDbSpline
70
4
71
3
72
12
73
8
40
0
40
0
40
0
40
0
40
0.466938972358614
40
0.466938972358614
40
0.928803236876555
40
0.928803236876555
40
1
40
1
40
1
40
1
41
1
10
10.0279898539848
20
-3.88899018607671
30
0
41
1
10
9.92044212886259
20
-3.75619682077064
30
0
41
1
10
9.78809940693429
20
-3.62680128928244
30
0
41
1
10
9.50516851983758
20
-3.40146832590239
30
0
41
1
10
9.35127026173416
20
-3.30173797099371
30
0
41
1
10
9.17257916567394
20
-3.20422826330358
30
0
41
1
10
9.14842856474161
20
-3.19142045460148
30
0
41
1
10
9.12423804707055
20
-3.17894201438222
30
0
0
SPLINE
5
12A
100
AcDbEntity
8
1
62
256
6
ByLayer
370
18
48
1
60
0
100
AcDbSpline
70
4
71
3
72
8
73
4
40
0
40
0
40
0
40
0
40
1
40
1
40
1
40
1
41
1
10
29.2214745495702
20
-3.57355156785062
30
0
41
1
10
29.2745547707176
20
-3.63210307504454
30
0
41
1
10
29.3265796250687
20
-3.69578037865452
30
0
41
1
10
29.3765193966924
20
-3.76359164682361
30
0
0
SPLINE
5
12B
100
AcDbEntity
8
1
62
256
6
ByLayer
370
18
48
1
60
0
100
AcDbSpline
70
4
71
3
72
8
73
4
40
0
40
0
40
0
40
0
40
1
40
1
40
1
40
1
41
1
10
11.6882065680217
20
2.11145155398808
30
0
41
1
10
11.7564126257582
20
2.13792950782258
30
0
41
1
10
11.8232064725252
20
2.16729241449531
30
0
41
1
10
11.8881261881276
20
2.19932223330616
30
0
0
SPLINE
5
12C
100
AcDbEntity
8
1
62
256
6
ByLayer
370
18
48
1
60
0
100
AcDbSpline
70
4
71
3
72
11
73
7
40
0
40
0
40
0
40
0
40
0.423407924939449
40
0.740963868644036
40
0.899741840496329
40
1
40
1
40
1
40
1
41
1.02805999725224
10
17.4681259210308
20
3.72692963680883
30
0
41
1.02767136955277
10
18.2650899621302
20
3.39561600290059
30
0
41
1.02349884684923
10
20.8497668533086
20
1.38715555574786
30
0
41
1.01876555595691
10
23.9472206271534
20
-1.44918546422438
30
0
41
1.01635405201137
10
25.1178447941137
20
-2.5025018245117
30
0
41
1.01722454828226
10
25.5755697162775
20
-2.66636143044635
30
0
41
1.01774327987904
10
25.7680025598847
20
-2.72544676096084
30
0
0
SPLINE
5
12D
100
AcDbEntity
8
1
62
256
6
ByLayer
370
18
48
1
60
0
100
AcDbSpline
70
4
71
3
72
11
73
7
40
0
40
0
40
0
40
0
40
0.564783939443778
40
0.564783939443778
40
0.564783939443778
40
1
40
1
40
1
40
1
41
1
10
23.6674034508123
20
-9.07577340663372
30
0
41
1
10
23.3059875102923
20
-9.04127169293452
30
0
41
1
10
22.8913618836766
20
-9.02111005247676
30
0
41
1
10
22.4600379550471
20
-9.0456071485865
30
0
41
1
10
22.1249226895077
20
-9.06464006172408
30
0
41
1
10
21.7750921513774
20
-9.10279159191722
30
0
41
1
10
21.4250007492901
20
-9.1504373665887
30
0
0
SPLINE
5
12E
100
AcDbEntity
8
1
62
256
6
ByLayer
370
18
48
1
60
0
100
AcDbSpline
70
4
71
3
72
8
73
4
40
0
40
0
40
0
40
0
40
1
40
1
40
1
40
1
41
1
10
6.93638543437101
20
-6.00414137856811
30
0
41
1
10
7.67754257580219
20
-5.6967743288121
30
0
41
1
10
8.82948663478254
20
-4.87107120350322
30
0
41
1
10
10.0279898539785
20
-3.88899018607063
30
0
0
SPLINE
5
12F
100
AcDbEntity
8
1
62
256
6
ByLayer
370
18
48
1
60
0
100
AcDbSpline
70
4
71
3
72
20
73
16
40
0
40
0
40
0
40
0
40
0.110576036200126
40
0.110576036200126
40
0.197179369122811
40
0.197179369122811
40
0.284291117387376
40
0.284291117387376
40
0.365904217918094
40
0.365904217918094
40
0.497270233392101
40
0.497270233392101
40
0.733496364826746
40
0.733496364826746
40
1
40
1
40
1
40
1
41
1
10
24.6836528964611
20
-6.64455980569576
30
0
41
1
10
24.6708053313788
20
-6.60679932029433
30
0
41
1
10
24.6659974789993
20
-6.5634172397308
30
0
41
1
10
24.6801170223392
20
-6.47704687427665
30
0
41
1
10
24.6945376151062
20
-6.43511584070879
30
0
41
1
10
24.7412309821049
20
-6.34852479692387
30
0
41
1
10
24.7742981102786
20
-6.30275701463961
30
0
41
1
10
24.8505610641823
20
-6.21752954793243
30
0
41
1
10
24.8937000949848
20
-6.17688487696714
30
0
41
1
10
25.0124900525359
20
-6.07823436079659
30
0
41
1
10
25.0937838627212
20
-6.02279345101365
30
0
41
1
10
25.3214425264599
20
-5.88590368738963
30
0
41
1
10
25.4729038706723
20
-5.81478533142774
30
0
41
1
10
25.7869757789261
20
-5.68457743333371
30
0
41
1
10
25.9519569128501
20
-5.62721698069075
30
0
41
1
10
26.1137124367919
20
-5.5769469358514
30
0
0
SPLINE
5
130
100
AcDbEntity
8
1
62
256
6
ByLayer
370
18
48
1
60
0
100
AcDbSpline
70
4
71
3
72
8
73
4
40
0
40
0
40
0
40
0
40
1
40
1
40
1
40
1
41
1
10
7.98987941644623
20
4.35048406503191
30
0
41
1
10
8.64737306921029
20
3.82121235406211
30
0
41
1
10
9.57613004809093
20
2.93415138902122
30
0
41
1
10
10.5478045472242
20
1.96618619382602
30
0
0
SPLINE
5
131
100
AcDbEntity
8
1
62
256
6
ByLayer
370
18
48
1
60
0
100
AcDbSpline
70
4
71
3
72
10
73
6
40
0
40
0
40
0
40
0
40
0.5
40
0.5
40
1
40
1
40
1
40
1
41
1
10
24.3226530234776
20
1.32240844138192
30
0
41
1
10
23.2886786120645
20
2.1349265313745
30
0
41
1
10
22.1963304587626
20
2.86107365751246
30
0
41
1
10
19.8725070365078
20
4.10751262814708
30
0
41
1
10
18.667615734521
20
4.66456151488006
30
0
41
1
10
17.3889518508188
20
5.02401494865501
30
0
0
SPLINE
5
132
100
AcDbEntity
8
1
62
256
6
ByLayer
370
18
48
1
60
0
100
AcDbSpline
70
4
71
3
72
10
73
6
40
0
40
0
40
0
40
0
40
0.5
40
0.5
40
1
40
1
40
1
40
1
41
1
10
9.87270064981863
20
6.84423963645068
30
0
41
1
10
9.44524312964285
20
6.73667853671134
30
0
41
1
10
9.1435074400863
20
6.50846348370027
30
0
41
1
10
8.45534061233184
20
5.7509031146495
30
0
41
1
10
8.07813213923191
20
5.14938772573825
30
0
41
1
10
7.85571416447226
20
4.46288556499579
30
0
0
SPLINE
5
133
100
AcDbEntity
8
1
62
256
6
ByLayer
370
18
48
1
60
0
100
AcDbSpline
70
4
71
1
72
4
73
2
40
0
40
0
40
1
40
1
41
1
10
17.4681259210308
20
3.72692963680885
30
0
41
1
10
17.3889518508188
20
5.02401494865501
30
0
0
SPLINE
5
134
100
AcDbEntity
8
1
62
256
6
ByLayer
370
18
48
1
60
0
100
AcDbSpline
70
4
71
3
72
8
73
4
40
0
40
0
40
0
40
0
40
1
40
1
40
1
40
1
41
1
10
26.5129126315916
20
0.0465378670914447
30
0
41
1
10
26.4181721915208
20
0.0904666632227418
30
0
41
1
10
26.3225271414369
20
0.132243299852462
30
0
41
1
10
26.2259947870285
20
0.171620695307752
30
0
0
SPLINE
5
135
100
AcDbEntity
8
1
62
256
6
ByLayer
370
18
48
1
60
0
100
AcDbSpline
70
4
71
3
72
8
73
4
40
0
40
0
40
0
40
0
40
1
40
1
40
1
40
1
41
1
10
9.12423804707055
20
-3.17894201438219
30
0
41
1
10
8.89688584362943
20
-3.0616646200767
30
0
41
1
10
8.66595335172406
20
-2.9725711371816
30
0
41
1
10
8.43425539426767
20
-2.90447262884538
30
0
0
SPLINE
5
136
100
AcDbEntity
8
1
62
256
6
ByLayer
370
18
48
1
60
0
100
AcDbSpline
70
4
71
3
72
8
73
4
40
0
40
0
40
0
40
0
40
1
40
1
40
1
40
1
41
1
10
17.2452005298196
20
1.60547798287496
30
0
41
1
10
17.4155463209944
20
2.52815468692594
30
0
41
1
10
17.4950922928242
20
3.28514756506019
30
0
41
1
10
17.4681259210308
20
3.72692963680885
30
0
0
SPLINE
5
137
100
AcDbEntity
8
1
62
256
6
ByLayer
370
18
48
1
60
0
100
AcDbSpline
70
4
71
3
72
11
73
7
40
0
40
0
40
0
40
0
40
0.423407924946024
40
0.740963868655541
40
0.8997418405103
40
1
40
1
40
1
40
1
41
1.02805999725224
10
14.2290578002377
20
-7.97987911065842
30
0
41
1.02767136955277
10
15.0836020759349
20
-8.10308326082132
30
0
41
1.02349884684923
10
18.3273227007363
20
-7.72959351165054
30
0
41
1.01876555595691
10
22.4502301859315
20
-6.85968630532076
30
0
41
1.01635405201144
10
24.0036360055777
20
-6.52953327468111
30
0
41
1.01722454828215
10
24.4857906379919
20
-6.60509774905031
30
0
41
1.0177432798788
10
24.6836528963792
20
-6.64455980567941
30
0
0
SPLINE
5
138
100
AcDbEntity
8
1
62
256
6
ByLayer
370
18
48
1
60
0
100
AcDbSpline
70
4
71
3
72
8
73
4
40
0
40
0
40
0
40
0
40
1
40
1
40
1
40
1
41
1
10
14.2290578002377
20
-7.9798791106584
30
0
41
1
10
14.459389375494
20
-7.68664807413117
30
0
41
1
10
14.7629516774445
20
-7.05899107388603
30
0
41
1
10
15.0797827745288
20
-6.22088768792108
30
0
0
SPLINE
5
139
100
AcDbEntity
8
1
62
256
6
ByLayer
370
18
48
1
60
0
100
AcDbSpline
70
4
71
3
72
8
73
4
40
0
40
0
40
0
40
0
40
1
40
1
40
1
40
1
41
1
10
23.6674034508123
20
-9.07577340663374
30
0
41
1
10
23.7720663936793
20
-9.08576480569741
30
0
41
1
10
23.8771981031197
20
-9.0932542638491
30
0
41
1
10
23.9826554399979
20
-9.09844949321527
30
0
0
SPLINE
5
13A
100
AcDbEntity
8
1
62
256
6
ByLayer
370
18
48
1
60
0
100
AcDbSpline
70
4
71
3
72
8
73
4
40
0
40
0
40
0
40
0
40
1
40
1
40
1
40
1
41
1
10
28.4099884933783
20
-7.25687799081294
30
0
41
1
10
28.331640079793
20
-7.29174271642242
30
0
41
1
10
28.253510390542
20
-7.32241486708628
30
0
41
1
10
28.1770112873817
20
-7.34850510331387
30
0
0
SPLINE
5
13B
100
AcDbEntity
8
1
62
256
6
ByLayer
370
18
48
1
60
0
100
AcDbSpline
70
4
71
3
72
8
73
4
40
0
40
0
40
0
40
0
40
1
40
1
40
1
40
1
41
1
10
14.4831504688622
20
2.44600322688299
30
0
41
1
10
13.5944064491988
20
2.68678260181244
30
0
41
1
10
12.6756982244537
20
2.58789124335129
30
0
41
1
10
11.8881261881276
20
2.19932223330616
30
0
0
SPLINE
5
13C
100
AcDbEntity
8
1
62
256
6
ByLayer
370
18
48
1
60
0
100
AcDbSpline
70
4
71
3
72
15
73
11
40
0
40
0
40
0
40
0
40
0.227604479949748
40
0.227604479949748
40
0.479423709218442
40
0.479423709218442
40
0.785574270382838
40
0.785574270382838
40
0.785574270382838
40
1
40
1
40
1
40
1
41
1
10
19.6116946095584
20
-2.01478396029518
30
0
41
1
10
19.606863864145
20
-1.67379910181054
30
0
41
1
10
19.5504518499453
20
-1.32745721109657
30
0
41
1
10
19.3409049500267
20
-0.635211540325344
30
0
41
1
10
19.1765510614914
20
-0.284902121063681
30
0
41
1
10
18.7248570665824
20
0.423030250263679
30
0
41
1
10
18.4125212072257
20
0.776442647636713
30
0
41
1
10
18.058200723443
20
1.07061772610621
30
0
41
1
10
17.8085085490675
20
1.27792500398627
30
0
41
1
10
17.534441003177
20
1.45874379740684
30
0
41
1
10
17.2452005252997
20
1.60547795839284
30
0
0
SPLINE
5
13D
100
AcDbEntity
8
1
62
256
6
ByLayer
370
18
48
1
60
0
100
AcDbSpline
70
4
71
3
72
8
73
4
40
0
40
0
40
0
40
0
40
1
40
1
40
1
40
1
41
1
10
9.12423804707055
20
-3.17894201438222
30
0
41
1
10
7.79836112809858
20
-3.48707038050833
30
0
41
1
10
6.56936790289774
20
-3.71647951317593
30
0
41
1
10
5.74798282866885
20
-3.75229537829855
30
0
0
SPLINE
5
13E
100
AcDbEntity
8
1
62
256
6
ByLayer
370
18
48
1
60
0
100
AcDbSpline
70
4
71
3
72
20
73
16
40
0
40
0
40
0
40
0
40
0.332873226652403
40
0.332873226652403
40
0.501657261698228
40
0.501657261698228
40
0.631212321676528
40
0.631212321676528
40
0.722542323637676
40
0.722542323637676
40
0.814765347404189
40
0.814765347404189
40
0.89642135903879
40
0.89642135903879
40
1
40
1
40
1
40
1
41
1
10
26.4452846755425
20
-4.37856127668297
30
0
41
1
10
26.3020123471124
20
-4.230061972915
30
0
41
1
10
26.1596157389142
20
-4.06873929648188
30
0
41
1
10
25.9598962391957
20
-3.79354311430868
30
0
41
1
10
25.8945669110193
20
-3.69414641292408
30
0
41
1
10
25.792119445003
20
-3.50604279840997
30
0
41
1
10
25.7512669479399
20
-3.41858907795552
30
0
41
1
10
25.6979755466174
20
-3.26661654051958
30
0
41
1
10
25.6804327235039
20
-3.20161861419058
30
0
41
1
10
25.6600661204125
20
-3.07710692861133
30
0
41
1
10
25.6572982877448
20
-3.0160388241257
30
0
41
1
10
25.6669935022727
20
-2.91530764482042
30
0
41
1
10
25.6777387413696
20
-2.872755540296
30
0
41
1
10
25.711904277703
20
-2.7909343074549
30
0
41
1
10
25.7381713086307
20
-2.75429642055096
30
0
41
1
10
25.7680025598841
20
-2.72544676096067
30
0
0
SPLINE
5
13F
100
AcDbEntity
8
1
62
256
6
ByLayer
370
18
48
1
60
0
100
AcDbSpline
70
4
71
3
72
8
73
4
40
0
40
0
40
0
40
0
40
1
40
1
40
1
40
1
41
1
10
27.8500042252318
20
-1.44153455115821
30
0
41
1
10
28.0805426304872
20
-1.78108152715421
30
0
41
1
10
28.3109744062062
20
-2.12246138281651
30
0
41
1
10
28.5400819124372
20
-2.46389734125711
30
0
0
SPLINE
5
140
100
AcDbEntity
8
1
62
256
6
ByLayer
370
18
48
1
60
0
100
AcDbSpline
70
4
71
3
72
12
73
8
40
0
40
0
40
0
40
0
40
0.286978363858294
40
0.286978363858294
40
0.569998995185617
40
0.569998995185617
40
1
40
1
40
1
40
1
41
1
10
18.9687339386383
20
-4.33860591336702
30
0
41
1
10
19.0914834826048
20
-4.13944207212543
30
0
41
1
10
19.1984297856009
20
-3.92931273663507
30
0
41
1
10
19.3751762774475
20
-3.49907904559336
30
0
41
1
10
19.4460759970171
20
-3.27767543718906
30
0
41
1
10
19.5782272532632
20
-2.71334339498938
30
0
41
1
10
19.6165938938673
20
-2.36179905066845
30
0
41
1
10
19.6116946095584
20
-2.01478396029518
30
0
0
SPLINE
5
141
100
AcDbEntity
8
1
62
256
6
ByLayer
370
18
48
1
60
0
100
AcDbSpline
70
4
71
3
72
10
73
6
40
0
40
0
40
0
40
0
40
0.5
40
0.5
40
1
40
1
40
1
40
1
41
1
10
5.57997404203411
20
-3.76221294444798
30
0
41
1
10
5.41648553519099
20
-4.47075538170731
30
0
41
1
10
5.43821493390999
20
-5.14567289400085
30
0
41
1
10
5.66134993840893
20
-6.08321273340556
30
0
41
1
10
5.81619921606159
20
-6.38590245029934
30
0
41
1
10
6.13768919687186
20
-6.65503333918002
30
0
0
SPLINE
5
142
100
AcDbEntity
8
1
62
256
6
ByLayer
370
18
48
1
60
0
100
AcDbSpline
70
4
71
3
72
10
73
6
40
0
40
0
40
0
40
0
40
0.5
40
0.5
40
1
40
1
40
1
40
1
41
1
10
25.7680025598841
20
-2.72544676096067
30
0
41
1
10
26.1248778794584
20
-2.38025815031668
30
0
41
1
10
26.5080261690604
20
-2.09422427686715
30
0
41
1
10
27.432827652332
20
-1.87903723033085
30
0
41
1
10
27.9853454291057
20
-1.9790055614996
30
0
41
1
10
28.5400819124372
20
-2.46389734125717
30
0
0
SPLINE
5
143
100
AcDbEntity
8
1
62
256
6
ByLayer
370
18
48
1
60
0
100
AcDbSpline
70
4
71
3
72
12
73
8
40
0
40
0
40
0
40
0
40
0.108854002841678
40
0.502629245107338
40
0.699516866240169
40
0.896404487372999
40
1
40
1
40
1
40
1
41
1.0244126255267
10
18.9687337916352
20
-4.33860588690587
30
0
41
1.02394775696077
10
19.3027991762018
20
-4.39873838969972
30
0
41
1.02173322391444
10
20.8854071906601
20
-4.67581062281371
30
0
41
1.01876555595691
10
23.1193575749003
20
-5.01553968316411
30
0
41
1.01610930227499
10
24.6215055285467
20
-5.21097149180937
30
0
41
1.01814069306376
10
25.2916013543038
20
-5.38973890516272
30
0
41
1.0200519600697
10
25.893203228667
20
-5.52862308370824
30
0
41
1.02076673234771
10
26.1137124367743
20
-5.57694693584754
30
0
0
SPLINE
5
144
100
AcDbEntity
8
1
62
256
6
ByLayer
370
18
48
1
60
0
100
AcDbSpline
70
4
71
3
72
12
73
8
40
0
40
0
40
0
40
0
40
0.108853988607135
40
0.502629237162308
40
0.699516861439894
40
0.896404485717481
40
1
40
1
40
1
40
1
41
1.02441262532206
10
19.6116946095586
20
-2.01478396029521
30
0
41
1.02394775682001
10
19.9310517812143
20
-2.12807547504444
30
0
41
1.02173322384668
10
21.4406954297319
20
-2.66885913198579
30
0
41
1.01876555595691
10
23.5513133403812
20
-3.4543426520324
30
0
41
1.01610930227499
10
24.9573416159378
20
-3.99717520875144
30
0
41
1.01814069306376
10
25.6324293316588
20
-4.15790067334012
30
0
41
1.02005196006971
10
26.2281570002687
20
-4.31801571236097
30
0
41
1.02076673234773
10
26.4452846755324
20
-4.37856127668013
30
0
0
SPLINE
5
145
100
AcDbEntity
8
1
62
256
6
ByLayer
370
18
48
1
60
0
100
AcDbSpline
70
4
71
3
72
10
73
6
40
0
40
0
40
0
40
0
40
0.5
40
0.5
40
1
40
1
40
1
40
1
41
1
10
13.5527974456824
20
-8.84081415401002
30
0
41
1
10
14.8420033824753
20
-9.17701159777957
30
0
41
1
10
16.1497658337953
20
-9.30233160331963
30
0
41
1
10
18.7784884764499
20
-9.4029916383283
30
0
41
1
10
20.1107545404861
20
-9.32930002460952
30
0
41
1
10
21.4250007492898
20
-9.15043736658879
30
0
0
SPLINE
5
146
100
AcDbEntity
8
1
62
256
6
ByLayer
370
18
48
1
60
0
100
AcDbSpline
70
4
71
3
72
8
73
4
40
0
40
0
40
0
40
0
40
1
40
1
40
1
40
1
41
1
10
24.3226530234778
20
1.32240844138175
30
0
41
1
10
24.9617807812012
20
0.820168870233175
30
0
41
1
10
25.6263389743681
20
0.416231781579228
30
0
41
1
10
26.2259947870285
20
0.171620695307723
30
0
0
SPLINE
5
147
100
AcDbEntity
8
1
62
256
6
ByLayer
370
18
48
1
60
0
100
AcDbSpline
70
4
71
3
72
8
73
4
40
0
40
0
40
0
40
0
40
1
40
1
40
1
40
1
41
1
10
17.2452005177233
20
1.60547796223398
30
0
41
1
10
16.9919089695203
20
1.73389554121903
30
0
41
1
10
16.7219771910347
20
1.83945816237264
30
0
41
1
10
16.4456062447974
20
1.9143328419332
30
0
0
SPLINE
5
148
100
AcDbEntity
8
1
62
256
6
ByLayer
370
18
48
1
60
0
100
AcDbSpline
70
4
71
3
72
8
73
4
40
0
40
0
40
0
40
0
40
1
40
1
40
1
40
1
41
1
10
7.83561685899571
20
4.39593219236491
30
0
41
1
10
7.84188465894044
20
4.41858560145795
30
0
41
1
10
7.84859046027884
20
4.44089796113144
30
0
41
1
10
7.85571416447226
20
4.46288556499579
30
0
0
INSERT
5
15B
100
AcDbEntity
8
SK2
62
256
6
ByLayer
370
25
48
1
60
0
100
AcDbBlockReference
2
DimnDraft3D11
10
0
20
0
30
0
41
1
42
1
43
1
50
0
210
0
220
0
230
1
0
LINE
5
72
100
AcDbEntity
8
1
62
256
6
ByLayer
370
18
48
1
60
0
100
AcDbLine
10
14.532447
20
-0.610016
30
0
11
14.73617
21
-0.727635
31
0
39
0
210
0
220
0
230
1
0
LINE
5
74
100
AcDbEntity
8
1
62
256
6
ByLayer
370
18
48
1
60
0
100
AcDbLine
10
5.922724
20
-6.639905
30
0
11
6.59867
21
-6.930839
31
0
39
0
210
0
220
0
230
1
0
LINE
5
75
100
AcDbEntity
8
1
62
256
6
ByLayer
370
18
48
1
60
0
100
AcDbLine
10
13.208696
20
-1.9335
30
0
11
13.089145
21
-1.864478
31
0
39
0
210
0
220
0
230
1
0
LINE
5
76
100
AcDbEntity
8
1
62
256
6
ByLayer
370
18
48
1
60
0
100
AcDbLine
10
14.313176
20
-3.056378
30
0
11
14.109453
21
-2.938758
31
0
39
0
210
0
220
0
230
1
0
LINE
5
77
100
AcDbEntity
8
1
62
256
6
ByLayer
370
18
48
1
60
0
100
AcDbLine
10
15.636927
20
-1.732893
30
0
11
15.84065
21
-1.850513
31
0
39
0
210
0
220
0
230
1
0
LINE
5
78
100
AcDbEntity
8
1
62
256
6
ByLayer
370
18
48
1
60
0
100
AcDbLine
10
12.219088
20
-5.179679
30
0
11
12.43121
21
-5.302147
31
0
39
0
210
0
220
0
230
1
0
LINE
5
79
100
AcDbEntity
8
1
62
256
6
ByLayer
370
18
48
1
60
0
100
AcDbLine
10
16.43121
20
1.626056
30
0
11
16.219088
21
1.748524
31
0
39
0
210
0
220
0
230
1
0
LINE
5
7A
100
AcDbEntity
8
1
62
256
6
ByLayer
370
18
48
1
60
0
100
AcDbLine
10
21.635904
20
-12.578096
30
0
11
22.189925
21
-12.897959
31
0
39
0
210
0
220
0
230
1
0
LINE
5
7B
100
AcDbEntity
8
1
62
256
6
ByLayer
370
18
48
1
60
0
100
AcDbLine
10
32.961607
20
2.592453
30
0
11
32.578785
21
2.813476
31
0
39
0
210
0
220
0
230
1
0
LINE
5
7C
100
AcDbEntity
8
1
62
256
6
ByLayer
370
18
48
1
60
0
100
AcDbLine
10
8.885571
20
-3.066443
30
0
11
8.411288
21
-2.862307
31
0
39
0
210
0
220
0
230
1
0
LINE
5
7D
100
AcDbEntity
8
80
62
256
6
ByLayer
370
18
48
1
60
0
100
AcDbLine
10
0
20
0
30
0
11
-5
21
0
31
0
39
0
210
0
220
0
230
1
0
LINE
5
7E
100
AcDbEntity
8
81
62
256
6
ByLayer
370
18
48
1
60
0
100
AcDbLine
10
34.213719
20
-9.9125
30
0
11
44.213719
21
-9.9125
31
0
39
0
210
0
220
0
230
1
0
LINE
5
7F
100
AcDbEntity
8
1
62
256
6
ByLayer
370
18
48
1
60
0
100
AcDbLine
10
13.103188
20
-1.875187
30
0
11
13.170133
21
-1.913838
31
0
39
0
210
0
220
0
230
1
0
LINE
5
80
100
AcDbEntity
8
1
62
256
6
ByLayer
370
18
48
1
60
0
100
AcDbLine
10
25.150634
20
0.735816
30
0
11
32.368553
21
2.669851
31
0
39
0
210
0
220
0
230
1
0
LINE
5
81
100
AcDbEntity
8
1
62
256
6
ByLayer
370
18
48
1
60
0
100
AcDbLine
10
21.801724
20
-12.278762
30
0
11
21.560245
21
-9.136586
31
0
39
0
210
0
220
0
230
1
0
LINE
5
82
100
AcDbEntity
8
1
62
256
6
ByLayer
370
18
48
1
60
0
100
AcDbLine
10
21.801724
20
-12.278762
30
0
11
21.744422
21
-12.245678
31
0
39
0
210
0
220
0
230
1
0
LINE
5
83
100
AcDbEntity
8
1
62
256
6
ByLayer
370
18
48
1
60
0
100
AcDbLine
10
24.61586
20
1.104839
30
0
11
25.283489
21
1.28373
31
0
39
0
210
0
220
0
230
1
0
LINE
5
84
100
AcDbEntity
8
1
62
256
6
ByLayer
370
18
48
1
60
0
100
AcDbLine
10
32.324054
20
2.695543
30
0
11
32.368553
21
2.669851
31
0
39
0
210
0
220
0
230
1
0
LINE
5
85
100
AcDbEntity
8
1
62
256
6
ByLayer
370
18
48
1
60
0
100
AcDbLine
10
24.868494
20
1.591046
30
0
11
24.831869
21
1.581403
31
0
39
0
210
0
220
0
230
1
0
LINE
5
86
100
AcDbEntity
8
1
62
256
6
ByLayer
370
18
48
1
60
0
100
AcDbLine
10
13.047937
20
10.878666
30
0
11
11.848188
21
6.542468
31
0
39
0
210
0
220
0
230
1
0
LINE
5
87
100
AcDbEntity
8
1
62
256
6
ByLayer
370
18
48
1
60
0
100
AcDbLine
10
8.007126
20
-7.340097
30
0
11
6.34835
21
-13.335332
31
0
39
0
210
0
220
0
230
1
0
LINE
5
88
100
AcDbEntity
8
1
62
256
6
ByLayer
370
18
48
1
60
0
100
AcDbLine
10
9.741648
20
11.665622
30
0
11
8.509499
21
7.212327
31
0
39
0
210
0
220
0
230
1
0
LINE
5
89
100
AcDbEntity
8
1
62
256
6
ByLayer
370
18
48
1
60
0
100
AcDbLine
10
4.8578
20
-5.985832
30
0
11
2.824323
21
-13.335332
31
0
39
0
210
0
220
0
230
1
0
LINE
5
8A
100
AcDbEntity
8
1
62
256
6
ByLayer
370
18
48
1
60
0
100
AcDbLine
10
21.762405
20
-12.47962
30
0
11
21.505926
21
-9.142247
31
0
39
0
210
0
220
0
230
1
0
LINE
5
8B
100
AcDbEntity
8
1
62
256
6
ByLayer
370
18
48
1
60
0
100
AcDbLine
10
25.74167
20
0.943654
30
0
11
25.963883
21
1.002158
31
0
39
0
210
0
220
0
230
1
0
LINE
5
8C
100
AcDbEntity
8
1
62
256
6
ByLayer
370
18
48
1
60
0
100
AcDbLine
10
32.525414
20
2.729662
30
0
11
32.539754
21
2.733437
31
0
39
0
210
0
220
0
230
1
0
LINE
5
8D
100
AcDbEntity
8
1
62
256
6
ByLayer
370
18
48
1
60
0
100
AcDbLine
10
8.834505
20
11.89018
30
0
11
7.416367
21
6.764671
31
0
39
0
210
0
220
0
230
1
0
LINE
5
8E
100
AcDbEntity
8
1
62
256
6
ByLayer
370
18
48
1
60
0
100
AcDbLine
10
4.149327
20
-5.043233
30
0
11
1.855049
21
-13.335332
31
0
39
0
210
0
220
0
230
1
0
LINE
5
8F
100
AcDbEntity
8
1
62
256
6
ByLayer
370
18
48
1
60
0
100
AcDbLine
10
9.716182
20
11.680325
30
0
11
8.479416
21
7.21034
31
0
39
0
210
0
220
0
230
1
0
LINE
5
90
100
AcDbEntity
8
1
62
256
6
ByLayer
370
18
48
1
60
0
100
AcDbLine
10
4.833356
20
-5.967439
30
0
11
2.79479
21
-13.335332
31
0
39
0
210
0
220
0
230
1
0
LINE
5
91
100
AcDbEntity
8
1
62
256
6
ByLayer
370
18
48
1
60
0
100
AcDbLine
10
25.283439
20
1.283717
30
0
11
24.615815
21
1.104827
31
0
39
0
210
0
220
0
230
1
0
LINE
5
92
100
AcDbEntity
8
1
62
256
6
ByLayer
370
18
48
1
60
0
100
AcDbLine
10
24.613415
20
1.743275
30
0
11
23.971741
21
1.571339
31
0
39
0
210
0
220
0
230
1
0
LINE
5
93
100
AcDbEntity
8
1
62
256
6
ByLayer
370
18
48
1
60
0
100
AcDbLine
10
21.408402
20
-9.152009
30
0
11
21.670977
21
-12.568695
31
0
39
0
210
0
220
0
230
1
0
LINE
5
94
100
AcDbEntity
8
1
62
256
6
ByLayer
370
18
48
1
60
0
100
AcDbLine
10
24.830971
20
1.585728
30
0
11
24.863925
21
1.594404
31
0
39
0
210
0
220
0
230
1
0
LINE
5
95
100
AcDbEntity
8
1
62
256
6
ByLayer
370
18
48
1
60
0
100
AcDbLine
10
0
20
12.4375
30
0
11
2.058614
21
12.446482
31
0
39
0
210
0
220
0
230
1
0
LINE
5
96
100
AcDbEntity
8
1
62
256
6
ByLayer
370
18
48
1
60
0
100
AcDbLine
10
9.741648
20
11.665622
30
0
11
13.047937
21
10.878666
31
0
39
0
210
0
220
0
230
1
0
LINE
5
97
100
AcDbEntity
8
1
62
256
6
ByLayer
370
18
48
1
60
0
100
AcDbLine
10
23.250003
20
2.832283
30
0
11
23.052219
21
2.815047
31
0
39
0
210
0
220
0
230
1
0
LINE
5
98
100
AcDbEntity
8
1
62
256
6
ByLayer
370
18
48
1
60
0
100
AcDbLine
10
5.973789
20
12.444283
30
0
11
8.834505
21
11.89018
31
0
39
0
210
0
220
0
230
1
0
LINE
5
99
100
AcDbEntity
8
1
62
256
6
ByLayer
370
18
48
1
60
0
100
AcDbLine
10
32.272968
20
7.154899
30
0
11
13.047937
21
10.878666
31
0
39
0
210
0
220
0
230
1
0
LINE
5
9A
100
AcDbEntity
8
1
62
256
6
ByLayer
370
18
48
1
60
0
100
AcDbLine
10
27.938778
20
9.657245
30
0
11
32.272968
21
7.154899
31
0
39
0
210
0
220
0
230
1
0
LINE
5
9B
100
AcDbEntity
8
1
62
256
6
ByLayer
370
18
48
1
60
0
100
AcDbLine
10
2.058614
20
12.446482
30
0
11
0.394195
21
-12.831695
31
0
39
0
210
0
220
0
230
1
0
LINE
5
9C
100
AcDbEntity
8
1
62
256
6
ByLayer
370
18
48
1
60
0
100
AcDbLine
10
25.774097
20
1.064925
30
0
11
32.602821
21
2.862775
31
0
39
0
210
0
220
0
230
1
0
LINE
5
9D
100
AcDbEntity
8
1
62
256
6
ByLayer
370
18
48
1
60
0
100
AcDbLine
10
0.394195
20
-12.831695
30
0
11
0
21
-12.4375
31
0
39
0
210
0
220
0
230
1
0
LINE
5
9E
100
AcDbEntity
8
1
62
256
6
ByLayer
370
18
48
1
60
0
100
AcDbLine
10
21.670977
20
-12.568695
30
0
11
18.809852
21
-13.335332
31
0
39
0
210
0
220
0
230
1
0
LINE
5
9F
100
AcDbEntity
8
1
62
256
6
ByLayer
370
18
48
1
60
0
100
AcDbLine
10
1.855049
20
-13.335332
30
0
11
2.79479
21
-13.335332
31
0
39
0
210
0
220
0
230
1
0
LINE
5
A0
100
AcDbEntity
8
1
62
256
6
ByLayer
370
18
48
1
60
0
100
AcDbLine
10
32.272968
20
7.154899
30
0
11
32.602821
21
2.862775
31
0
39
0
210
0
220
0
230
1
0
LINE
5
A1
100
AcDbEntity
8
1
62
256
6
ByLayer
370
18
48
1
60
0
100
AcDbLine
10
32.602821
20
2.862775
30
0
11
32.539754
21
2.733437
31
0
39
0
210
0
220
0
230
1
0
LINE
5
A2
100
AcDbEntity
8
1
62
256
6
ByLayer
370
18
48
1
60
0
100
AcDbLine
10
21.670977
20
-12.568695
30
0
11
21.762405
21
-12.47962
31
0
39
0
210
0
220
0
230
1
0
LINE
5
A3
100
AcDbEntity
8
1
62
256
6
ByLayer
370
18
48
1
60
0
100
AcDbLine
10
0.394195
20
-12.831695
30
0
11
0.897832
21
-13.335332
31
0
39
0
210
0
220
0
230
1
0
LINE
5
A4
100
AcDbEntity
8
1
62
256
6
ByLayer
370
18
48
1
60
0
100
AcDbLine
10
2.79479
20
-13.335332
30
0
11
2.824323
21
-13.335332
31
0
39
0
210
0
220
0
230
1
0
LINE
5
A5
100
AcDbEntity
8
1
62
256
6
ByLayer
370
18
48
1
60
0
100
AcDbLine
10
0.897832
20
-13.335332
30
0
11
1.855049
21
-13.335332
31
0
39
0
210
0
220
0
230
1
0
LINE
5
A6
100
AcDbEntity
8
1
62
256
6
ByLayer
370
18
48
1
60
0
100
AcDbLine
10
5.973789
20
12.444283
30
0
11
14.774101
21
12.298527
31
0
39
0
210
0
220
0
230
1
0
LINE
5
A7
100
AcDbEntity
8
1
62
256
6
ByLayer
370
18
48
1
60
0
100
AcDbLine
10
14.774101
20
12.298527
30
0
11
27.938778
21
9.657245
31
0
39
0
210
0
220
0
230
1
0
LINE
5
A8
100
AcDbEntity
8
1
62
256
6
ByLayer
370
18
48
1
60
0
100
AcDbLine
10
2.824323
20
-13.335332
30
0
11
6.34835
21
-13.335332
31
0
39
0
210
0
220
0
230
1
0
LINE
5
A9
100
AcDbEntity
8
1
62
256
6
ByLayer
370
18
48
1
60
0
100
AcDbLine
10
5.973789
20
12.444283
30
0
11
2.058614
21
12.446482
31
0
39
0
210
0
220
0
230
1
0
LINE
5
AA
100
AcDbEntity
8
1
62
256
6
ByLayer
370
18
48
1
60
0
100
AcDbLine
10
18.809852
20
-13.335332
30
0
11
6.34835
21
-13.335332
31
0
39
0
210
0
220
0
230
1
0
LINE
5
AB
100
AcDbEntity
8
1
62
256
6
ByLayer
370
18
48
1
60
0
100
AcDbLine
10
9.716182
20
11.680325
30
0
11
9.741648
21
11.665622
31
0
39
0
210
0
220
0
230
1
0
LINE
5
AC
100
AcDbEntity
8
1
62
256
6
ByLayer
370
18
48
1
60
0
100
AcDbLine
10
0
20
-12.4375
30
0
11
0
21
12.4375
31
0
39
0
210
0
220
0
230
1
0
LINE
5
AD
100
AcDbEntity
8
SK1
62
256
6
ByLayer
370
18
48
1
60
0
100
AcDbLine
10
-137.136281
20
-12.4375
30
0
11
-137.136281
21
12.4375
31
0
39
0
210
0
220
0
230
1
0
LINE
5
AF
100
AcDbEntity
8
SK1
62
256
6
ByLayer
370
18
48
1
60
0
100
AcDbLine
10
-137.136281
20
12.4375
30
0
11
0
21
12.4375
31
0
39
0
210
0
220
0
230
1
0
LINE
5
B0
100
AcDbEntity
8
SK1
62
256
6
ByLayer
370
18
48
1
60
0
100
AcDbLine
10
0
20
-12.4375
30
0
11
-137.136281
21
-12.4375
31
0
39
0
210
0
220
0
230
1
0
LINE
5
B1
100
AcDbEntity
8
SK1
62
256
6
ByLayer
370
18
48
1
60
0
100
AcDbLine
10
0
20
-12.4375
30
0
11
0
21
12.4375
31
0
39
0
210
0
220
0
230
1
0
LINE
5
B2
100
AcDbEntity
8
1
62
256
6
ByLayer
370
18
48
1
60
0
100
AcDbLine
10
33.349808
20
1.973256
30
0
11
34.211367
21
-9.237542
31
0
39
0
210
0
220
0
230
1
0
LINE
5
B3
100
AcDbEntity
8
1
62
256
6
ByLayer
370
18
48
1
60
0
100
AcDbLine
10
33.622221
20
-10.070992
30
0
11
22.782979
21
-12.975358
31
0
39
0
210
0
220
0
230
1
0
LINE
5
B4
100
AcDbEntity
8
1
62
256
6
ByLayer
370
18
48
1
60
0
100
AcDbLine
10
8.018334
20
-2.725455
30
0
11
6.564338
21
-2.332577
31
0
39
0
210
0
220
0
230
1
0
LINE
5
B5
100
AcDbEntity
8
1
62
256
6
ByLayer
370
18
48
1
60
0
100
AcDbLine
10
29.498894
20
-3.953742
30
0
11
29.376519
21
-3.763592
31
0
39
0
210
0
220
0
230
1
0
LINE
5
B6
100
AcDbEntity
8
1
62
256
6
ByLayer
370
18
48
1
60
0
100
AcDbLine
10
16.445606
20
1.914333
30
0
11
14.48315
21
2.446003
31
0
39
0
210
0
220
0
230
1
0
LINE
5
B7
100
AcDbEntity
8
1
62
256
6
ByLayer
370
18
48
1
60
0
100
AcDbLine
10
8.354076
20
-7.434354
30
0
11
8.359563
21
-7.433858
31
0
39
0
210
0
220
0
230
1
0
LINE
5
B8
100
AcDbEntity
8
1
62
256
6
ByLayer
370
18
48
1
60
0
100
AcDbLine
10
7.835617
20
4.395932
30
0
11
6.224845
21
5.089226
31
0
39
0
210
0
220
0
230
1
0
LINE
5
B9
100
AcDbEntity
8
1
62
256
6
ByLayer
370
18
48
1
60
0
100
AcDbLine
10
11.841973
20
-5.36307
30
0
11
13.795676
21
-5.890973
31
0
39
0
210
0
220
0
230
1
0
LINE
5
BA
100
AcDbEntity
8
1
62
256
6
ByLayer
370
18
48
1
60
0
100
AcDbLine
10
13.552797
20
-8.840814
30
0
11
8.359563
21
-7.433858
31
0
39
0
210
0
220
0
230
1
0
LINE
5
BB
100
AcDbEntity
8
1
62
256
6
ByLayer
370
18
48
1
60
0
100
AcDbLine
10
29.116221
20
-3.359129
30
0
11
29.221475
21
-3.573552
31
0
39
0
210
0
220
0
230
1
0
LINE
5
BC
100
AcDbEntity
8
1
62
256
6
ByLayer
370
18
48
1
60
0
100
AcDbLine
10
5.597199
20
-3.694274
30
0
11
7.835617
21
4.395932
31
0
39
0
210
0
220
0
230
1
0
LINE
5
BD
100
AcDbEntity
8
1
62
256
6
ByLayer
370
18
48
1
60
0
100
AcDbLine
10
27.976057
20
-7.47997
30
0
11
27.0156
21
-7.973758
31
0
39
0
210
0
220
0
230
1
0
LINE
5
BE
100
AcDbEntity
8
1
62
256
6
ByLayer
370
18
48
1
60
0
100
AcDbLine
10
5.597199
20
-3.694274
30
0
11
3.986427
21
-3.000981
31
0
39
0
210
0
220
0
230
1
0
LINE
5
BF
100
AcDbEntity
8
1
62
256
6
ByLayer
370
18
48
1
60
0
100
AcDbLine
10
10.815756
20
6.807253
30
0
11
12.191364
21
6.434572
31
0
39
0
210
0
220
0
230
1
0
LINE
5
C0
100
AcDbEntity
8
1
62
256
6
ByLayer
370
18
48
1
60
0
100
AcDbLine
10
29.116221
20
-3.359129
30
0
11
28.540082
21
-2.463897
31
0
39
0
210
0
220
0
230
1
0
LINE
5
C1
100
AcDbEntity
8
1
62
256
6
ByLayer
370
18
48
1
60
0
100
AcDbLine
10
10.815756
20
6.807253
30
0
11
10.281215
21
7.037325
31
0
39
0
210
0
220
0
230
1
0
LINE
5
C2
100
AcDbEntity
8
1
62
256
6
ByLayer
370
18
48
1
60
0
100
AcDbLine
10
14.233836
20
-6.079562
30
0
11
13.795676
21
-5.890973
31
0
39
0
210
0
220
0
230
1
0
LINE
5
C3
100
AcDbEntity
8
1
62
256
6
ByLayer
370
18
48
1
60
0
100
AcDbLine
10
6.564338
20
-2.332577
30
0
11
7.950026
21
2.675647
31
0
39
0
210
0
220
0
230
1
0
LINE
5
C4
100
AcDbEntity
8
1
62
256
6
ByLayer
370
18
48
1
60
0
100
AcDbLine
10
12.27138
20
-5.547891
30
0
11
14.233836
21
-6.079562
31
0
39
0
210
0
220
0
230
1
0
LINE
5
C5
100
AcDbEntity
8
1
62
256
6
ByLayer
370
18
48
1
60
0
100
AcDbLine
10
6.224845
20
5.089226
30
0
11
3.986427
21
-3.000981
31
0
39
0
210
0
220
0
230
1
0
LINE
5
C6
100
AcDbEntity
8
1
62
256
6
ByLayer
370
18
48
1
60
0
100
AcDbLine
10
17.388952
20
5.024015
30
0
11
12.195717
21
6.430971
31
0
39
0
210
0
220
0
230
1
0
LINE
5
C7
100
AcDbEntity
8
1
62
256
6
ByLayer
370
18
48
1
60
0
100
AcDbLine
10
28.613993
20
-7.151996
30
0
11
28.409988
21
-7.256878
31
0
39
0
210
0
220
0
230
1
0
LINE
5
C8
100
AcDbEntity
8
1
62
256
6
ByLayer
370
18
48
1
60
0
100
AcDbLine
10
12.191364
20
6.434572
30
0
11
12.195717
21
6.430971
31
0
39
0
210
0
220
0
230
1
0
LINE
5
C9
100
AcDbEntity
8
1
62
256
6
ByLayer
370
18
48
1
60
0
100
AcDbLine
10
6.936385
20
-6.004141
30
0
11
14.229058
21
-7.979879
31
0
39
0
210
0
220
0
230
1
0
LINE
5
CA
100
AcDbEntity
8
1
62
256
6
ByLayer
370
18
48
1
60
0
100
AcDbLine
10
8.434255
20
-2.904473
30
0
11
8.018334
21
-2.725455
31
0
39
0
210
0
220
0
230
1
0
LINE
5
CB
100
AcDbEntity
8
1
62
256
6
ByLayer
370
18
48
1
60
0
100
AcDbLine
10
8.354076
20
-7.434354
30
0
11
6.978468
21
-7.061672
31
0
39
0
210
0
220
0
230
1
0
LINE
5
CC
100
AcDbEntity
8
1
62
256
6
ByLayer
370
18
48
1
60
0
100
AcDbLine
10
10.175454
20
5.702667
30
0
11
17.468126
21
3.72693
31
0
39
0
210
0
220
0
230
1
0
LINE
5
CD
100
AcDbEntity
8
1
62
256
6
ByLayer
370
18
48
1
60
0
100
AcDbLine
10
12.191364
20
6.434572
30
0
11
10.352969
21
7.014723
31
0
39
0
210
0
220
0
230
1
0
LINE
5
CE
100
AcDbEntity
8
1
62
256
6
ByLayer
370
18
48
1
60
0
100
AcDbLine
10
28.177011
20
-7.348505
30
0
11
27.976057
21
-7.47997
31
0
39
0
210
0
220
0
230
1
0
LINE
5
CF
100
AcDbEntity
8
1
62
256
6
ByLayer
370
18
48
1
60
0
100
AcDbLine
10
27.320907
20
-5.235168
30
0
11
29.873842
21
-5.803271
31
0
39
0
210
0
220
0
230
1
0
LINE
5
D0
100
AcDbEntity
8
1
62
256
6
ByLayer
370
18
48
1
60
0
100
AcDbLine
10
14.357494
20
-0.412606
30
0
11
14.561217
21
-0.530226
31
0
39
0
210
0
220
0
230
1
0
LINE
5
D1
100
AcDbEntity
8
1
62
256
6
ByLayer
370
18
48
1
60
0
100
AcDbLine
10
15.511886
20
-1.11416
30
0
11
15.715609
21
-1.231779
31
0
39
0
210
0
220
0
230
1
0
LINE
5
D2
100
AcDbEntity
8
1
62
256
6
ByLayer
370
18
48
1
60
0
100
AcDbLine
10
15.005923
20
-2.942837
30
0
11
15.209646
21
-3.060457
31
0
39
0
210
0
220
0
230
1
0
LINE
5
D3
100
AcDbEntity
8
1
62
256
6
ByLayer
370
18
48
1
60
0
100
AcDbLine
10
13.651383
20
-2.964668
30
0
11
13.855106
21
-3.082288
31
0
39
0
210
0
220
0
230
1
0
LINE
5
D4
100
AcDbEntity
8
1
62
256
6
ByLayer
370
18
48
1
60
0
100
AcDbLine
10
15.475342
20
-2.47594
30
0
11
15.679065
21
-2.59356
31
0
39
0
210
0
220
0
230
1
0
MTEXT
5
149
100
AcDbEntity
8
SK6
62
256
6
ByLayer
370
18
48
1
60
0
100
AcDbMText
10
-65.586281
20
21.118075
30
0
210
0
220
0
230
1
1
\W0.7470;DCBNL 3225P 12
40
3.5
41
0
44
1.084337
50
0
71
7
72
5
7
iso_b_vert
0
DIMENSION
5
169
100
AcDbEntity
8
2
62
256
6
ByLayer
370
13
48
1
60
0
100
AcDbDimension
2
DimnDraft3D2
10
34.213719
20
-8.325
30
0
11
23.882695
21
-23.376153
31
0
70
34
71
5
72
1
41
1
210
0
220
0
230
1
3
Standard
100
AcDb2LineAngularDimension
13
34.213719
23
-9.9125
33
0
14
31.219349
24
-10.714839
34
0
15
34.213719
25
-9.9125
35
0
16
21.143269
26
-26.946243
36
0
40
0
0
DIMENSION
5
17E
100
AcDbEntity
8
2
62
256
6
ByLayer
370
13
48
1
60
0
100
AcDbDimension
2
DimnDraft3D3
10
34.213719
20
-38.1625
30
0
11
11.588438
21
-38.1625
31
0
70
32
71
5
72
1
41
1
210
0
220
0
230
1
3
Standard
100
AcDbAlignedDimension
13
0
23
-14.4375
33
0
14
34.213719
24
-11.9125
34
0
50
0
100
AcDbRotatedDimension
1001
ACAD
1000
DSTYLE
1002
{
1070
   279
1070
     0
1070
   172
1070
     1
1070
   173
1070
     1
1070
   340
1005
14A
1070
    77
1070
     1
1070
    73
1070
     0
1070
   171
1070
     3
1070
   274
1070
     4
1070
   177
1070
     2
1070
   176
1070
     2
1070
   178
1070
     7
1070
    78
1070
     8
1070
    41
1041
3.175
1070
   147
1041
2.25
1070
    42
1041
2.0
1070
    44
1041
2.0
1070
   140
1041
4.5
1070
   343
1005
16A
1070
   344
1005
16A
1002
}
0
DIMENSION
5
18C
100
AcDbEntity
8
2
62
256
6
ByLayer
370
13
48
1
60
0
100
AcDbDimension
2
DimnDraft3D4
10
56.463719
20
-9.9125
30
0
11
56.463719
21
-4.019079
31
0
70
32
71
5
72
1
41
1
210
0
220
0
230
1
3
Standard
100
AcDbAlignedDimension
13
2
23
12.4375
33
0
14
36.213719
24
-9.9125
34
0
50
90
100
AcDbRotatedDimension
1001
ACAD
1000
DSTYLE
1002
{
1070
    74
1070
     0
1070
   279
1070
     0
1070
   172
1070
     1
1070
   173
1070
     1
1070
   340
1005
14A
1070
    77
1070
     1
1070
    73
1070
     0
1070
   171
1070
     3
1070
   274
1070
     4
1070
   177
1070
     2
1070
   176
1070
     2
1070
   178
1070
     7
1070
    78
1070
     8
1070
    41
1041
3.175
1070
   147
1041
2.25
1070
    42
1041
2.0
1070
    44
1041
2.0
1070
   140
1041
4.5
1070
   343
1005
16A
1070
   344
1005
16A
1002
}
0
DIMENSION
5
19A
100
AcDbEntity
8
SK2
62
256
6
ByLayer
370
13
48
1
60
0
100
AcDbDimension
2
DimnDraft3D5
10
-144.886281
20
-12.4375
30
0
11
-144.886281
21
-5.281579
31
0
70
32
71
5
72
1
41
1
210
0
220
0
230
1
3
Standard
100
AcDbAlignedDimension
13
-139.136281
23
12.4375
33
0
14
-139.136281
24
-12.4375
34
0
50
90
100
AcDbRotatedDimension
1001
ACAD
1000
DSTYLE
1002
{
1070
    74
1070
     0
1070
   279
1070
     0
1070
   172
1070
     1
1070
   173
1070
     1
1070
   340
1005
14A
1070
    77
1070
     1
1070
    73
1070
     0
1070
   171
1070
     3
1070
   274
1070
     4
1070
   177
1070
     2
1070
   176
1070
     2
1070
   178
1070
     7
1070
    78
1070
     8
1070
    41
1041
3.175
1070
   147
1041
2.25
1070
    42
1041
2.0
1070
    44
1041
2.0
1070
   140
1041
4.5
1070
   343
1005
16A
1070
   344
1005
16A
1002
}
0
ENDSEC
0
SECTION
2
OBJECTS
0
DICTIONARY
5
204
330
0
100
AcDbDictionary
280
0
281
1
3
ACAD_GROUP
350
205
3
ACAD_MLINESTYLE
350
206
0
DICTIONARY
5
205
330
0
100
AcDbDictionary
280
0
281
1
0
DICTIONARY
5
206
330
0
100
AcDbDictionary
280
0
281
1
3
Standard
350
18
0
MLINESTYLE
5
18
330
206
100
AcDbMlineStyle
2
Standard
70
0
3

62
256
51
90
52
90
71
2
49
-0.5
62
256
6
ByLayer
49
0.5
62
256
6
ByLayer
0
RASTERVARIABLES
5
1f3
330

100
AcDbRasterVariables
90
0
70
1
71
1
72
1
0
ENDSEC
0
EOF
