0
SECTION
2
HEADER
9
$ACADVER
1
AC1015
9
$DWGCODEPAGE
3
ANSI_1252
9
$HANDSEED
5
14f
9
$ANGBASE
50
0
9
$ANGDIR
70
0
9
$ATTMODE
70
1
9
$AUNITS
70
0
9
$AUPREC
70
0
9
$CECOLOR
62
256
9
$CELTSCALE
40
1
9
$CELTYPE
6
ByLayer
9
$CELWEIGHT
370
18
9
$CLAYER
8
0
9
$CMLJUST
70
0
9
$CMLSCALE
40
1
9
$CMLSTYLE
2
Standard
9
$DIMSTYLE
2
Standard
9
$TEXTSIZE
40
0.2
9
$TEXTSTYLE
7
Standard
9
$LUNITS
70
2
9
$LUPREC
70
4
9
$EXTNAMES
290
1
9
$INSUNITS
70
4
9
$LTSCALE
40
1
9
$LWDISPLAY
290
1
9
$PDMODE
70
0
9
$PDSIZE
40
0
9
$PLINEGEN
70
0
0
ENDSEC
0
SECTION
2
CLASSES
0
CLASS
1
RASTERVARIABLES
2
AcDbRasterVariables
3
ISM
90
0
280
0
281
0
0
ENDSEC
0
SECTION
2
TABLES
0
TABLE
2
VPORT
5
145
100
AcDbSymbolTable
0
VPORT
5
1
100
AcDbSymbolTableRecord
100
AcDbViewportTableRecord
2
*Active
70
0
10
0
20
0
11
1
21
1
12
-1
22
1
13
0
23
0
14
0.5
24
0.5
15
10
25
10
16
0
26
0
36
1
17
0
27
0
37
0
0
ENDTAB
0
TABLE
2
LTYPE
5
146
100
AcDbSymbolTable
0
LTYPE
5
14
100
AcDbSymbolTableRecord
100
AcDbLinetypeTableRecord
70
0
2
ByBlock
3

72
65
73
0
40
0
0
LTYPE
5
15
100
AcDbSymbolTableRecord
100
AcDbLinetypeTableRecord
70
0
2
ByLayer
3

72
65
73
0
40
0
0
LTYPE
5
16
100
AcDbSymbolTableRecord
100
AcDbLinetypeTableRecord
70
0
2
CONTINUOUS
3
Solid line
72
65
73
0
40
0
0
LTYPE
5
6A
100
AcDbSymbolTableRecord
100
AcDbLinetypeTableRecord
70
0
2
CENTER
3
____ _ ____ _ ____ _ ____
72
65
73
4
40
47.5
49
22
74
0
49
-8.5
74
0
49
8.5
74
0
49
-8.5
74
0
0
LTYPE
5
6B
100
AcDbSymbolTableRecord
100
AcDbLinetypeTableRecord
70
0
2
DASHED
3
__ __ __ __ __ __ __ __ __
72
65
73
2
40
25.72
49
12.86
74
0
49
-12.86
74
0
0
ENDTAB
0
TABLE
2
LAYER
5
147
100
AcDbSymbolTable
0
LAYER
5
10
100
AcDbSymbolTableRecord
100
AcDbLayerTableRecord
2
0
70
0
62
7
6
CONTINUOUS
290
1
370
-3
390
0
0
LAYER
5
6D
100
AcDbSymbolTableRecord
100
AcDbLayerTableRecord
2
1
70
0
62
4
6
CONTINUOUS
290
1
370
-3
390
0
0
LAYER
5
70
100
AcDbSymbolTableRecord
100
AcDbLayerTableRecord
2
80
70
0
62
-6
6
CONTINUOUS
290
1
370
-3
390
0
0
LAYER
5
72
100
AcDbSymbolTableRecord
100
AcDbLayerTableRecord
2
81
70
0
62
-3
6
CONTINUOUS
290
1
370
-3
390
0
0
LAYER
5
AE
100
AcDbSymbolTableRecord
100
AcDbLayerTableRecord
2
2
70
0
62
7
6
CONTINUOUS
290
1
370
-3
390
0
0
LAYER
5
131
100
AcDbSymbolTableRecord
100
AcDbLayerTableRecord
2
SK1
70
0
62
4
6
CONTINUOUS
290
1
370
-3
390
0
0
LAYER
5
132
100
AcDbSymbolTableRecord
100
AcDbLayerTableRecord
2
SK3
70
0
62
1
6
DASHED
290
1
370
-3
390
0
0
LAYER
5
133
100
AcDbSymbolTableRecord
100
AcDbLayerTableRecord
2
SK6
70
0
62
5
6
CONTINUOUS
290
1
370
-3
390
0
0
LAYER
5
134
100
AcDbSymbolTableRecord
100
AcDbLayerTableRecord
2
SK2
70
0
62
7
6
CONTINUOUS
290
1
370
-3
390
0
0
ENDTAB
0
TABLE
2
STYLE
5
148
100
AcDbSymbolTable
0
STYLE
5
11
100
AcDbSymbolTableRecord
100
AcDbTextStyleTableRecord
2
Standard
3
txt
70
0
71
0
40
0
41
1
42
0
50
0
0
STYLE
5
99
100
AcDbSymbolTableRecord
100
AcDbTextStyleTableRecord
2
iso_b_vert
3
simplex.shx
70
0
71
0
40
0
41
1
42
0
50
0
0
STYLE
5
9A
100
AcDbSymbolTableRecord
100
AcDbTextStyleTableRecord
2
DWGDirectTextStyle
3
simplex
70
0
71
0
40
0
41
1
42
0
50
0
0
ENDTAB
0
TABLE
2
DIMSTYLE
5
149
100
AcDbSymbolTable
100
AcDbDimStyleTable
0
DIMSTYLE
105
27
100
AcDbSymbolTableRecord
100
AcDbDimStyleTableRecord
2
Standard
70
0
3
<>
41
0.18
42
0.0625
44
0.18
140
0.18
147
0.09
73
0
74
0
77
1
271
2
275
0
278
52
280
0
340
11
0
ENDTAB
0
TABLE
2
VIEW
5
14a
100
AcDbSymbolTable
0
ENDTAB
0
TABLE
2
UCS
5
14b
100
AcDbSymbolTable
0
ENDTAB
0
TABLE
2
APPID
5
14c
100
AcDbSymbolTable
0
APPID
5
12
100
AcDbSymbolTableRecord
100
AcDbRegAppTableRecord
2
ACAD
70
0
0
ENDTAB
0
TABLE
2
BLOCK_RECORD
5
14d
100
AcDbSymbolTable
0
BLOCK_RECORD
5
1F
100
AcDbSymbolTableRecord
100
AcDbBlockTableRecord
2
*Model_Space
340
0
70
0
0
BLOCK_RECORD
5
1B
100
AcDbSymbolTableRecord
100
AcDbBlockTableRecord
2
*Paper_Space
340
0
70
0
0
BLOCK_RECORD
5
23
100
AcDbSymbolTableRecord
100
AcDbBlockTableRecord
2
*Paper_Space0
340
0
70
0
0
BLOCK_RECORD
5
9C
100
AcDbSymbolTableRecord
100
AcDbBlockTableRecord
2
DimnDraft3D1
340
0
70
0
0
BLOCK_RECORD
5
AC
100
AcDbSymbolTableRecord
100
AcDbBlockTableRecord
2
DimnDraft3D2
340
0
70
0
0
BLOCK_RECORD
5
BC
100
AcDbSymbolTableRecord
100
AcDbBlockTableRecord
2
DimnDraft3D3
340
0
70
0
0
BLOCK_RECORD
5
CA
100
AcDbSymbolTableRecord
100
AcDbBlockTableRecord
2
DimnDraft3D4
340
0
70
0
0
ENDTAB
0
ENDSEC
0
SECTION
2
BLOCKS
0
BLOCK
5
20
100
AcDbEntity
8
0
100
AcDbBlockBegin
2
*Model_Space
70
0
10
0
20
0
30
0
3
*Model_Space
0
ENDBLK
5
21
100
AcDbEntity
8
0
100
AcDbBlockEnd
0
BLOCK
5
1C
100
AcDbEntity
8
0
100
AcDbBlockBegin
2
*Paper_Space
70
0
10
0
20
0
30
0
3
*Paper_Space
0
ENDBLK
5
1D
100
AcDbEntity
8
0
100
AcDbBlockEnd
0
BLOCK
5
24
100
AcDbEntity
8
0
100
AcDbBlockBegin
2
*Paper_Space0
70
0
10
0
20
0
30
0
3
*Paper_Space0
0
ENDBLK
5
25
100
AcDbEntity
8
0
100
AcDbBlockEnd
0
BLOCK
5
A9
100
AcDbEntity
8
0
100
AcDbBlockBegin
2
DimnDraft3D1
70
0
10
0
20
0
30
0
3
DimnDraft3D1
0
MTEXT
5
9D
100
AcDbEntity
8
SK2
62
256
6
ByLayer
370
18
48
1
60
0
100
AcDbMText
10
66.026476
20
30.822318
30
0
210
0
220
0
230
1
1
\W0.7383;25.4
40
3.50012
41
0
44
1.084337
50
90
71
7
72
5
7
iso_b_vert
0
MTEXT
5
9F
100
AcDbEntity
8
SK2
62
256
6
ByLayer
370
18
48
1
60
0
100
AcDbMText
10
66.026476
20
22.099362
30
0
210
0
220
0
230
1
1
%%c
40
3.50012
41
0
44
1.084337
50
90
71
7
72
5
7
iso_b_vert
0
LINE
5
A0
100
AcDbEntity
8
SK2
62
256
6
ByLayer
370
13
48
1
60
0
100
AcDbLine
10
14.5875
20
12.7
30
0
11
70.951536
21
12.7
31
0
39
0
210
0
220
0
230
1
0
LINE
5
A1
100
AcDbEntity
8
SK2
62
256
6
ByLayer
370
13
48
1
60
0
100
AcDbLine
10
14.5875
20
-12.7
30
0
11
70.951536
21
-12.7
31
0
39
0
210
0
220
0
230
1
0
LINE
5
A2
100
AcDbEntity
8
SK2
62
256
6
ByLayer
370
13
48
1
60
0
100
AcDbLine
10
67.776536
20
-12.7
30
0
11
67.776536
21
38.347576
31
0
39
0
210
0
220
0
230
1
0
LINE
5
A3
100
AcDbEntity
8
SK2
62
256
6
ByLayer
370
13
48
1
60
0
100
AcDbLine
10
67.776536
20
12.7
30
0
11
68.194532
21
9.525002
31
0
39
0
210
0
220
0
230
1
0
LINE
5
A4
100
AcDbEntity
8
SK2
62
256
6
ByLayer
370
13
48
1
60
0
100
AcDbLine
10
67.776536
20
12.7
30
0
11
67.358539
21
9.524998
31
0
39
0
210
0
220
0
230
1
0
LINE
5
A5
100
AcDbEntity
8
SK2
62
256
6
ByLayer
370
13
48
1
60
0
100
AcDbLine
10
68.194532
20
9.525002
30
0
11
67.358539
21
9.524998
31
0
39
0
210
0
220
0
230
1
0
LINE
5
A6
100
AcDbEntity
8
SK2
62
256
6
ByLayer
370
13
48
1
60
0
100
AcDbLine
10
67.776536
20
-12.7
30
0
11
67.358539
21
-9.525002
31
0
39
0
210
0
220
0
230
1
0
LINE
5
A7
100
AcDbEntity
8
SK2
62
256
6
ByLayer
370
13
48
1
60
0
100
AcDbLine
10
67.776536
20
-12.7
30
0
11
68.194532
21
-9.524998
31
0
39
0
210
0
220
0
230
1
0
LINE
5
A8
100
AcDbEntity
8
SK2
62
256
6
ByLayer
370
13
48
1
60
0
100
AcDbLine
10
67.358539
20
-9.525002
30
0
11
68.194532
21
-9.524998
31
0
39
0
210
0
220
0
230
1
0
ENDBLK
5
AA
100
AcDbEntity
8
0
100
AcDbBlockEnd
0
BLOCK
5
B9
100
AcDbEntity
8
0
100
AcDbBlockBegin
2
DimnDraft3D2
70
0
10
0
20
0
30
0
3
DimnDraft3D2
0
MTEXT
5
AD
100
AcDbEntity
8
2
62
256
6
ByLayer
370
18
48
1
60
0
100
AcDbMText
10
40.050195
20
34.262567
30
0
210
0
220
0
230
1
1
\W0.5211;5
40
3.50012
41
0
44
1.084337
50
90
71
7
72
5
7
iso_b_vert
0
MTEXT
5
AF
100
AcDbEntity
8
2
62
256
6
ByLayer
370
18
48
1
60
0
100
AcDbMText
10
40.050195
20
25.539612
30
0
210
0
220
0
230
1
1
%%c
40
3.50012
41
0
44
1.084337
50
90
71
7
72
5
7
iso_b_vert
0
LINE
5
B0
100
AcDbEntity
8
2
62
256
6
ByLayer
370
13
48
1
60
0
100
AcDbLine
10
16.5875
20
2.5
30
0
11
44.975255
21
2.5
31
0
39
0
210
0
220
0
230
1
0
LINE
5
B1
100
AcDbEntity
8
2
62
256
6
ByLayer
370
13
48
1
60
0
100
AcDbLine
10
16.5875
20
-2.5
30
0
11
44.975255
21
-2.5
31
0
39
0
210
0
220
0
230
1
0
LINE
5
B2
100
AcDbEntity
8
2
62
256
6
ByLayer
370
13
48
1
60
0
100
AcDbLine
10
41.800255
20
-11.2503
30
0
11
41.800255
21
34.907326
31
0
39
0
210
0
220
0
230
1
0
LINE
5
B3
100
AcDbEntity
8
2
62
256
6
ByLayer
370
13
48
1
60
0
100
AcDbLine
10
41.800255
20
2.5
30
0
11
41.382259
21
5.674998
31
0
39
0
210
0
220
0
230
1
0
LINE
5
B4
100
AcDbEntity
8
2
62
256
6
ByLayer
370
13
48
1
60
0
100
AcDbLine
10
41.800255
20
2.5
30
0
11
42.218252
21
5.675002
31
0
39
0
210
0
220
0
230
1
0
LINE
5
B5
100
AcDbEntity
8
2
62
256
6
ByLayer
370
13
48
1
60
0
100
AcDbLine
10
41.382259
20
5.674998
30
0
11
42.218252
21
5.675002
31
0
39
0
210
0
220
0
230
1
0
LINE
5
B6
100
AcDbEntity
8
2
62
256
6
ByLayer
370
13
48
1
60
0
100
AcDbLine
10
41.800255
20
-2.5
30
0
11
42.218252
21
-5.674998
31
0
39
0
210
0
220
0
230
1
0
LINE
5
B7
100
AcDbEntity
8
2
62
256
6
ByLayer
370
13
48
1
60
0
100
AcDbLine
10
41.800255
20
-2.5
30
0
11
41.382259
21
-5.675002
31
0
39
0
210
0
220
0
230
1
0
LINE
5
B8
100
AcDbEntity
8
2
62
256
6
ByLayer
370
13
48
1
60
0
100
AcDbLine
10
42.218252
20
-5.674998
30
0
11
41.382259
21
-5.675002
31
0
39
0
210
0
220
0
230
1
0
ENDBLK
5
BA
100
AcDbEntity
8
0
100
AcDbBlockEnd
0
BLOCK
5
C7
100
AcDbEntity
8
0
100
AcDbBlockBegin
2
DimnDraft3D3
70
0
10
0
20
0
30
0
3
DimnDraft3D3
0
MTEXT
5
BD
100
AcDbEntity
8
SK2
62
256
6
ByLayer
370
18
48
1
60
0
100
AcDbMText
10
-43.210993
20
40.178915
30
0
210
0
220
0
230
1
1
\W0.5123;110
40
3.50012
41
0
44
1.084337
50
0
71
7
72
5
7
iso_b_vert
0
LINE
5
BE
100
AcDbEntity
8
SK2
62
256
6
ByLayer
370
13
48
1
60
0
100
AcDbLine
10
-95
20
13.2875
30
0
11
-95
21
42.478885
31
0
39
0
210
0
220
0
230
1
0
LINE
5
BF
100
AcDbEntity
8
SK2
62
256
6
ByLayer
370
13
48
1
60
0
100
AcDbLine
10
15
20
9.5875
30
0
11
15
21
42.478885
31
0
39
0
210
0
220
0
230
1
0
LINE
5
C0
100
AcDbEntity
8
SK2
62
256
6
ByLayer
370
13
48
1
60
0
100
AcDbLine
10
-95
20
39.303885
30
0
11
15
21
39.303885
31
0
39
0
210
0
220
0
230
1
0
LINE
5
C1
100
AcDbEntity
8
SK2
62
256
6
ByLayer
370
13
48
1
60
0
100
AcDbLine
10
-95
20
39.303885
30
0
11
-91.825002
21
39.721882
31
0
39
0
210
0
220
0
230
1
0
LINE
5
C2
100
AcDbEntity
8
SK2
62
256
6
ByLayer
370
13
48
1
60
0
100
AcDbLine
10
-95
20
39.303885
30
0
11
-91.824998
21
38.885889
31
0
39
0
210
0
220
0
230
1
0
LINE
5
C3
100
AcDbEntity
8
SK2
62
256
6
ByLayer
370
13
48
1
60
0
100
AcDbLine
10
-91.825002
20
39.721882
30
0
11
-91.824998
21
38.885889
31
0
39
0
210
0
220
0
230
1
0
LINE
5
C4
100
AcDbEntity
8
SK2
62
256
6
ByLayer
370
13
48
1
60
0
100
AcDbLine
10
15
20
39.303885
30
0
11
11.825002
21
38.885889
31
0
39
0
210
0
220
0
230
1
0
LINE
5
C5
100
AcDbEntity
8
SK2
62
256
6
ByLayer
370
13
48
1
60
0
100
AcDbLine
10
15
20
39.303885
30
0
11
11.824998
21
39.721882
31
0
39
0
210
0
220
0
230
1
0
LINE
5
C6
100
AcDbEntity
8
SK2
62
256
6
ByLayer
370
13
48
1
60
0
100
AcDbLine
10
11.825002
20
38.885889
30
0
11
11.824998
21
39.721882
31
0
39
0
210
0
220
0
230
1
0
ENDBLK
5
C8
100
AcDbEntity
8
0
100
AcDbBlockEnd
0
BLOCK
5
D5
100
AcDbEntity
8
0
100
AcDbBlockBegin
2
DimnDraft3D4
70
0
10
0
20
0
30
0
3
DimnDraft3D4
0
MTEXT
5
CB
100
AcDbEntity
8
2
62
256
6
ByLayer
370
18
48
1
60
0
100
AcDbMText
10
-114.433215
20
26.327025
30
0
210
0
220
0
230
1
1
\W0.7383;23.4
40
3.50012
41
0
44
1.084337
50
90
71
7
72
5
7
iso_b_vert
0
LINE
5
CC
100
AcDbEntity
8
2
62
256
6
ByLayer
370
13
48
1
60
0
100
AcDbLine
10
-91.5875
20
11.7
30
0
11
-116.733185
21
11.7
31
0
39
0
210
0
220
0
230
1
0
LINE
5
CD
100
AcDbEntity
8
2
62
256
6
ByLayer
370
13
48
1
60
0
100
AcDbLine
10
-91.5875
20
-11.7
30
0
11
-116.733185
21
-11.7
31
0
39
0
210
0
220
0
230
1
0
LINE
5
CE
100
AcDbEntity
8
2
62
256
6
ByLayer
370
13
48
1
60
0
100
AcDbLine
10
-113.558185
20
-11.7
30
0
11
-113.558185
21
33.852283
31
0
39
0
210
0
220
0
230
1
0
LINE
5
CF
100
AcDbEntity
8
2
62
256
6
ByLayer
370
13
48
1
60
0
100
AcDbLine
10
-113.558185
20
11.7
30
0
11
-113.140188
21
8.525002
31
0
39
0
210
0
220
0
230
1
0
LINE
5
D0
100
AcDbEntity
8
2
62
256
6
ByLayer
370
13
48
1
60
0
100
AcDbLine
10
-113.558185
20
11.7
30
0
11
-113.976182
21
8.524998
31
0
39
0
210
0
220
0
230
1
0
LINE
5
D1
100
AcDbEntity
8
2
62
256
6
ByLayer
370
13
48
1
60
0
100
AcDbLine
10
-113.140188
20
8.525002
30
0
11
-113.976182
21
8.524998
31
0
39
0
210
0
220
0
230
1
0
LINE
5
D2
100
AcDbEntity
8
2
62
256
6
ByLayer
370
13
48
1
60
0
100
AcDbLine
10
-113.558185
20
-11.7
30
0
11
-113.976182
21
-8.525002
31
0
39
0
210
0
220
0
230
1
0
LINE
5
D3
100
AcDbEntity
8
2
62
256
6
ByLayer
370
13
48
1
60
0
100
AcDbLine
10
-113.558185
20
-11.7
30
0
11
-113.140188
21
-8.524998
31
0
39
0
210
0
220
0
230
1
0
LINE
5
D4
100
AcDbEntity
8
2
62
256
6
ByLayer
370
13
48
1
60
0
100
AcDbLine
10
-113.976182
20
-8.525002
30
0
11
-113.140188
21
-8.524998
31
0
39
0
210
0
220
0
230
1
0
ENDBLK
5
D6
100
AcDbEntity
8
0
100
AcDbBlockEnd
0
ENDSEC
0
SECTION
2
ENTITIES
0
ELLIPSE
5
93
100
AcDbEntity
8
1
62
256
6
ByLayer
370
18
48
1
60
0
100
AcDbEllipse
10
-6.754998
20
0
30
0
11
-7.77625034677001E-16
21
12.6999999999966
31
0
210
0
220
0
230
-1
40
0.57735
41
1.17130726510711
42
1.97028538848269
0
ELLIPSE
5
94
100
AcDbEntity
8
SK1
62
256
6
ByLayer
370
18
48
1
60
0
100
AcDbEllipse
10
-83.245002
20
0
30
0
11
-7.7762503467721E-16
21
12.7
31
0
210
0
220
0
230
-1
40
0.57735
41
-1.97028538848258
42
-1.17130726510721
0
ELLIPSE
5
95
100
AcDbEntity
8
SK1
62
256
6
ByLayer
370
18
48
0.05
60
0
100
AcDbEllipse
10
-83.245002
20
0
30
0
11
-7.77625034677246E-16
21
12.7000000000006
31
0
210
0
220
0
230
-1
40
0.57735
41
-1.97028538848255
42
-1.17130726510724
0
ELLIPSE
5
96
100
AcDbEntity
8
1
62
256
6
ByLayer
370
18
48
0.05
60
0
100
AcDbEllipse
10
-6.754998
20
0
30
0
11
-7.77625034676701E-16
21
12.6999999999917
31
0
210
0
220
0
230
-1
40
0.57735
41
1.17130726510694
42
1.97028538848285
0
POINT
5
6C
100
AcDbEntity
8
1
62
256
6
ByLayer
370
13
48
1
60
1
100
AcDbPoint
10
264.936441
20
197.491525
30
0
39
0
210
0
220
0
230
1
50
360
0
POINT
5
6E
100
AcDbEntity
8
1
62
256
6
ByLayer
370
13
48
1
60
1
100
AcDbPoint
10
151.936441
20
197.491525
30
0
39
0
210
0
220
0
230
1
50
360
0
POINT
5
6F
100
AcDbEntity
8
80
62
256
6
ByLayer
370
18
48
1
60
0
100
AcDbPoint
10
0
20
0
30
0
39
0
210
0
220
0
230
1
50
360
0
POINT
5
71
100
AcDbEntity
8
81
62
256
6
ByLayer
370
18
48
1
60
0
100
AcDbPoint
10
15
20
0
30
0
39
0
210
0
220
0
230
1
50
360
0
SPLINE
5
97
100
AcDbEntity
8
1
62
256
6
ByLayer
370
18
48
1
60
0
100
AcDbSpline
70
2053
71
3
72
96
73
92
40
0
40
0
40
0
40
0
40
0.0312500000000085
40
0.0312500000000085
40
0.0468750000000124
40
0.0468750000000124
40
0.0625000000000164
40
0.0625000000000164
40
0.0937500000000243
40
0.0937500000000243
40
0.109375000000028
40
0.109375000000028
40
0.125000000000031
40
0.125000000000031
40
0.156250000000035
40
0.156250000000035
40
0.171875000000038
40
0.171875000000038
40
0.18750000000004
40
0.203125000000043
40
0.203125000000043
40
0.218750000000045
40
0.218750000000045
40
0.250000000000047
40
0.250000000000047
40
0.28125000000005
40
0.28125000000005
40
0.312500000000052
40
0.312500000000052
40
0.328125000000053
40
0.328125000000053
40
0.343750000000054
40
0.359375000000055
40
0.359375000000055
40
0.375000000000056
40
0.375000000000056
40
0.406250000000057
40
0.406250000000057
40
0.421875000000057
40
0.421875000000057
40
0.437500000000057
40
0.437500000000057
40
0.468750000000056
40
0.468750000000056
40
0.484375000000056
40
0.484375000000056
40
0.500000000000055
40
0.500000000000055
40
0.531250000000054
40
0.531250000000054
40
0.546875000000053
40
0.546875000000053
40
0.562500000000053
40
0.578125000000052
40
0.578125000000052
40
0.593750000000052
40
0.593750000000052
40
0.62500000000005
40
0.62500000000005
40
0.656250000000049
40
0.656250000000049
40
0.687500000000048
40
0.687500000000048
40
0.703125000000048
40
0.703125000000048
40
0.718750000000047
40
0.734375000000047
40
0.734375000000047
40
0.750000000000046
40
0.750000000000046
40
0.781250000000042
40
0.781250000000042
40
0.796875000000039
40
0.796875000000039
40
0.812500000000036
40
0.812500000000036
40
0.843750000000027
40
0.843750000000027
40
0.859375000000024
40
0.859375000000024
40
0.875000000000021
40
0.875000000000021
40
0.906250000000016
40
0.906250000000016
40
0.937500000000011
40
0.937500000000011
40
0.953125000000008
40
0.953125000000008
40
0.968750000000005
40
0.968750000000005
40
1
40
1
40
1
40
1
41
1
10
4.99999999999997
20
-2.23E-14
30
0
41
1
10
4.99999999999994
20
0.165594939780647
30
0
41
1
10
5.01628978112228
20
0.328343081121233
30
0
41
1
10
5.06410353122376
20
0.56838789657499
30
0
41
1
10
5.08396727510572
20
0.64771831205681
30
0
41
1
10
5.13171902823282
20
0.804983464612292
30
0
41
1
10
5.15971252635757
20
0.88304156250237
30
0
41
1
10
5.25393354191633
20
1.10996257029191
30
0
41
1
10
5.33075081904568
20
1.25339806376201
30
0
41
1
10
5.46681062252139
20
1.45698426008539
30
0
41
1
10
5.51592051350738
20
1.52321053436825
30
0
41
1
10
5.62014280209223
20
1.65011474031522
30
0
41
1
10
5.67498756380584
20
1.71053847040889
30
0
41
1
10
5.84750987343418
20
1.88300966159241
30
0
41
1
10
5.97309593986483
20
1.98634401415944
30
0
41
1
10
6.17793341980402
20
2.12341460751071
30
0
41
1
10
6.24867230628863
20
2.16583602889341
30
0
41
1
10
6.39266041341395
20
2.24286997863925
30
0
41
1
10
6.53982041614424
20
2.31254999490523
30
0
41
1
10
6.69328357992887
20
2.36768146983775
30
0
41
1
10
6.8499693956355
20
2.41540206558142
30
0
41
1
10
6.9303988870449
20
2.43563739728796
30
0
41
1
10
7.17256189817607
20
2.48392514485906
30
0
41
1
10
7.33503385654436
20
2.49990257296926
30
0
41
1
10
7.66199986956994
20
2.50009654715259
30
0
41
1
10
7.82811160182362
20
2.48377047664064
30
0
41
1
10
8.14905047667619
20
2.41981538192675
30
0
41
1
10
8.30508278091745
20
2.37250116599179
30
0
41
1
10
8.53246046530651
20
2.27832293678259
30
0
41
1
10
8.60735950050631
20
2.24286850716015
30
0
41
1
10
8.75174438182077
20
2.16560388953118
30
0
41
1
10
8.89148021857844
20
2.08172591252887
30
0
41
1
10
9.02214273504413
20
1.98487534758667
30
0
41
1
10
9.14824634257027
20
1.88147087288343
30
0
41
1
10
9.20924860707206
20
1.82625848748879
30
0
41
1
10
9.38358408248135
20
1.65200316580578
30
0
41
1
10
9.4867332024551
20
1.52622242506814
30
0
41
1
10
9.62250848083275
20
1.32347031546712
30
0
41
1
10
9.66458505491912
20
1.25352215067284
30
0
41
1
10
9.74219532782493
20
1.10874088681109
30
0
41
1
10
9.77761976879415
20
1.0339913574991
30
0
41
1
10
9.87169197023891
20
0.80736420074436
30
0
41
1
10
9.91916011350654
20
0.651534793736403
30
0
41
1
10
9.96740980726108
20
0.410605837256895
30
0
41
1
10
9.97967658522813
20
0.328635242788067
30
0
41
1
10
9.99594075603457
20
0.164550395005904
30
0
41
1
10
9.99996680503497
20
0.0826910201097064
30
0
41
1
10
10.0000657781739
20
-0.162352792206548
30
0
41
1
10
9.98427534437727
20
-0.325007896573482
30
0
41
1
10
9.93604306741415
20
-0.56789761716567
30
0
41
1
10
9.91594869124069
20
-0.647982585241664
30
0
41
1
10
9.86842937177514
20
-0.804507191016171
30
0
41
1
10
9.81345999829628
20
-0.958005663585055
30
0
41
1
10
9.74376582436147
20
-1.10554315269675
30
0
41
1
10
9.66657828900051
20
-1.25005970044592
30
0
41
1
10
9.62401517754532
20
-1.32108346887904
30
0
41
1
10
9.48754680047804
20
-1.52527562776749
30
0
41
1
10
9.38443544884748
20
-1.65089598275867
30
0
41
1
10
9.15418273517062
20
-1.88155095212042
30
0
41
1
10
9.02590966806608
20
-1.98698521143379
30
0
41
1
10
8.75529497910011
20
-2.16812016756455
30
0
41
1
10
8.61196040482295
20
-2.24510947974014
30
0
41
1
10
8.38451101518316
20
-2.33974002690425
30
0
41
1
10
8.30648460006628
20
-2.36776175042346
30
0
41
1
10
8.14972107180009
20
-2.415486627115
30
0
41
1
10
7.9913947455581
20
-2.45528716085667
30
0
41
1
10
7.82998179464923
20
-2.47947956670578
30
0
41
1
10
7.6670014974849
20
-2.49575988555574
30
0
41
1
10
7.58433655362037
20
-2.49994026854952
30
0
41
1
10
7.33669573731041
20
-2.50011754126791
30
0
41
1
10
7.17409037764466
20
-2.48404024725915
30
0
41
1
10
6.93378794192913
20
-2.43640558267336
30
0
41
1
10
6.85429231056543
20
-2.41657886513551
30
0
41
1
10
6.69654192996163
20
-2.36880707557722
30
0
41
1
10
6.61876570178518
20
-2.34096317453978
30
0
41
1
10
6.39219622747473
20
-2.24710940836997
30
0
41
1
10
6.24864451576215
20
-2.17045532886001
30
0
41
1
10
6.04449803994251
20
-2.03425803793326
30
0
41
1
10
5.97802593307412
20
-1.98501818178093
30
0
41
1
10
5.8514195622466
20
-1.88119238321139
30
0
41
1
10
5.79105539172778
20
-1.82650230956506
30
0
41
1
10
5.61855874168103
20
-1.6542636535487
30
0
41
1
10
5.51489444598965
20
-1.52857002815156
30
0
41
1
10
5.33138298529516
20
-1.25469942020334
30
0
41
1
10
5.25450179773114
20
-1.11096866170453
30
0
41
1
10
5.16064932031494
20
-0.885475456112459
30
0
41
1
10
5.13297042357053
20
-0.80864947368633
30
0
41
1
10
5.08500739236965
20
-0.651577848054842
30
0
41
1
10
5.06471102635746
20
-0.571084015990351
30
0
41
1
10
5.01629260674628
20
-0.329051574310114
30
0
41
1
10
5
20
-0.165594939780618
30
0
41
1
10
4.99999999999997
20
-2.23E-14
30
0
0
LINE
5
73
100
AcDbEntity
8
SK1
62
256
6
ByLayer
370
18
48
1
60
0
100
AcDbLine
10
-90
20
11.7
30
0
11
-90.57735
21
12.7
31
0
39
0
210
0
220
0
230
1
0
LINE
5
75
100
AcDbEntity
8
SK1
62
256
6
ByLayer
370
18
48
1
60
0
100
AcDbLine
10
0
20
11.7
30
0
11
-90
21
11.7
31
0
39
0
210
0
220
0
230
1
0
LINE
5
76
100
AcDbEntity
8
1
62
256
6
ByLayer
370
18
48
1
60
0
100
AcDbLine
10
0.57735
20
-12.7
30
0
11
13
21
-12.7
31
0
39
0
210
0
220
0
230
1
0
LINE
5
77
100
AcDbEntity
8
SK1
62
256
6
ByLayer
370
18
48
1
60
0
100
AcDbLine
10
0
20
-11.7
30
0
11
-90
21
-11.7
31
0
39
0
210
0
220
0
230
1
0
LINE
5
78
100
AcDbEntity
8
SK1
62
256
6
ByLayer
370
18
48
1
60
0
100
AcDbLine
10
-94
20
-12.7
30
0
11
-90.57735
21
-12.7
31
0
39
0
210
0
220
0
230
1
0
LINE
5
79
100
AcDbEntity
8
SK1
62
256
6
ByLayer
370
18
48
1
60
0
100
AcDbLine
10
-90.57735
20
12.7
30
0
11
-94
21
12.7
31
0
39
0
210
0
220
0
230
1
0
LINE
5
7A
100
AcDbEntity
8
1
62
256
6
ByLayer
370
18
48
1
60
0
100
AcDbLine
10
13
20
12.7
30
0
11
0.57735
21
12.7
31
0
39
0
210
0
220
0
230
1
0
LINE
5
7B
100
AcDbEntity
8
SK1
62
256
6
ByLayer
370
18
48
1
60
0
100
AcDbLine
10
-90
20
-11.7
30
0
11
-90.57735
21
-12.7
31
0
39
0
210
0
220
0
230
1
0
LINE
5
7C
100
AcDbEntity
8
1
62
256
6
ByLayer
370
18
48
1
60
0
100
AcDbLine
10
0.57735
20
-12.7
30
0
11
0
21
-11.7
31
0
39
0
210
0
220
0
230
1
0
LINE
5
7D
100
AcDbEntity
8
1
62
256
6
ByLayer
370
18
48
1
60
0
100
AcDbLine
10
0
20
11.7
30
0
11
0.57735
21
12.7
31
0
39
0
210
0
220
0
230
1
0
LINE
5
7E
100
AcDbEntity
8
1
62
256
6
ByLayer
370
18
48
1
60
0
100
AcDbLine
10
13
20
-12.7
30
0
11
13
21
12.7
31
0
39
0
210
0
220
0
230
1
0
LINE
5
7F
100
AcDbEntity
8
SK1
62
256
6
ByLayer
370
18
48
1
60
0
100
AcDbLine
10
-94
20
12.7
30
0
11
-94
21
-12.7
31
0
39
0
210
0
220
0
230
1
0
LINE
5
80
100
AcDbEntity
8
SK1
62
256
6
ByLayer
370
18
48
1
60
0
100
AcDbLine
10
-90
20
4.939636
30
0
11
0
21
4.939636
31
0
39
0
210
0
220
0
230
1
0
LINE
5
81
100
AcDbEntity
8
SK1
62
256
6
ByLayer
370
18
48
1
60
0
100
AcDbLine
10
0
20
-4.939636
30
0
11
-90
21
-4.939636
31
0
39
0
210
0
220
0
230
1
0
LINE
5
82
100
AcDbEntity
8
SK1
62
256
6
ByLayer
370
18
48
0.05
60
0
100
AcDbLine
10
0
20
-4.939636
30
0
11
-90
21
-4.939636
31
0
39
0
210
0
220
0
230
1
0
LINE
5
83
100
AcDbEntity
8
SK1
62
256
6
ByLayer
370
18
48
0.05
60
0
100
AcDbLine
10
-90
20
4.939636
30
0
11
0
21
4.939636
31
0
39
0
210
0
220
0
230
1
0
LINE
5
84
100
AcDbEntity
8
SK1
62
256
6
ByLayer
370
18
48
1
60
0
100
AcDbLine
10
-90
20
-4.939636
30
0
11
-90
21
4.939636
31
0
39
0
210
0
220
0
230
1
0
LINE
5
85
100
AcDbEntity
8
1
62
256
6
ByLayer
370
18
48
1
60
0
100
AcDbLine
10
15
20
-8
30
0
11
15
21
8
31
0
39
0
210
0
220
0
230
1
0
LINE
5
86
100
AcDbEntity
8
1
62
256
6
ByLayer
370
18
48
1
60
0
100
AcDbLine
10
13
20
-12.7
30
0
11
15
21
-8
31
0
39
0
210
0
220
0
230
1
0
LINE
5
87
100
AcDbEntity
8
1
62
256
6
ByLayer
370
18
48
1
60
0
100
AcDbLine
10
15
20
8
30
0
11
13
21
12.7
31
0
39
0
210
0
220
0
230
1
0
LINE
5
88
100
AcDbEntity
8
1
62
256
6
ByLayer
370
18
48
1
60
0
100
AcDbLine
10
0
20
-4.939636
30
0
11
0
21
4.939636
31
0
39
0
210
0
220
0
230
1
0
LINE
5
89
100
AcDbEntity
8
SK1
62
256
6
ByLayer
370
18
48
1
60
0
100
AcDbLine
10
-95
20
11.7
30
0
11
-95
21
-11.7
31
0
39
0
210
0
220
0
230
1
0
LINE
5
8A
100
AcDbEntity
8
SK1
62
256
6
ByLayer
370
18
48
1
60
0
100
AcDbLine
10
-94
20
12.7
30
0
11
-95
21
11.7
31
0
39
0
210
0
220
0
230
1
0
LINE
5
8B
100
AcDbEntity
8
SK1
62
256
6
ByLayer
370
18
48
1
60
0
100
AcDbLine
10
-95
20
-11.7
30
0
11
-94
21
-12.7
31
0
39
0
210
0
220
0
230
1
0
LINE
5
8C
100
AcDbEntity
8
80
62
256
6
ByLayer
370
18
48
1
60
0
100
AcDbLine
10
0
20
0
30
0
11
-18.8089
21
0
31
0
39
0
210
0
220
0
230
1
0
LINE
5
8D
100
AcDbEntity
8
81
62
256
6
ByLayer
370
18
48
1
60
0
100
AcDbLine
10
15
20
0
30
0
11
25.1961
21
0
31
0
39
0
210
0
220
0
230
1
0
LINE
5
8E
100
AcDbEntity
8
SK3
62
256
6
ByLayer
370
18
48
0.05
60
0
100
AcDbLine
10
15
20
2.5
30
0
11
-4.69957
21
2.5
31
0
39
0
210
0
220
0
230
1
0
LINE
5
90
100
AcDbEntity
8
SK3
62
256
6
ByLayer
370
18
48
0.05
60
0
100
AcDbLine
10
-4.69957
20
-2.5
30
0
11
15
21
-2.5
31
0
39
0
210
0
220
0
230
1
0
LINE
5
91
100
AcDbEntity
8
SK3
62
256
6
ByLayer
370
18
48
0.05
60
0
100
AcDbLine
10
-4.69957
20
2.5
30
0
11
-6.201721
21
0
31
0
39
0
210
0
220
0
230
1
0
LINE
5
92
100
AcDbEntity
8
SK3
62
256
6
ByLayer
370
18
48
0.05
60
0
100
AcDbLine
10
-6.201721
20
0
30
0
11
-4.69957
21
-2.5
31
0
39
0
210
0
220
0
230
1
0
MTEXT
5
98
100
AcDbEntity
8
SK6
62
256
6
ByLayer
370
18
48
1
60
0
100
AcDbMText
10
-56.869113
20
-32.793562
30
0
210
0
220
0
230
1
1
\W0.7567;CXS-A1000-05M
40
3.175
41
0
44
1.084337
50
0
71
7
72
5
7
iso_b_vert
0
DIMENSION
5
AB
100
AcDbEntity
8
SK2
62
256
6
ByLayer
370
13
48
1
60
0
100
AcDbDimension
2
DimnDraft3D1
10
70.951536
20
-12.7
30
0
11
65.151446
21
29.947288
31
0
70
33
71
5
72
1
41
1
210
0
220
0
230
1
3
Standard
100
AcDbAlignedDimension
13
14.5875
23
12.7
33
0
14
14.5875
24
-12.7
34
0
1001
ACAD
1000
DSTYLE
1002
{
1070
   279
1070
     0
1070
    74
1070
     0
1070
   173
1070
     1
1070
   340
1005
99
1070
   271
1070
     1
1070
   272
1070
     2
1070
    77
1070
     1
1070
    73
1070
     0
1070
   171
1070
     3
1070
   274
1070
     4
1070
   177
1070
     7
1070
   176
1070
     7
1070
   178
1070
     7
1070
    78
1070
     8
1070
    48
1040
-0.005
1070
    41
1041
3.175
1070
   147
1041
1.75006
1070
    42
1041
1.5875
1070
    44
1041
3.175
1070
   140
1041
3.50012
1070
   343
1005
0
1070
   344
1005
0
1002
}
0
DIMENSION
5
BB
100
AcDbEntity
8
2
62
256
6
ByLayer
370
13
48
1
60
0
100
AcDbDimension
2
DimnDraft3D2
10
44.975255
20
-2.5
30
0
11
39.175165
21
33.387537
31
0
70
33
71
5
72
1
41
1
210
0
220
0
230
1
3
Standard
100
AcDbAlignedDimension
13
16.5875
23
2.5
33
0
14
16.5875
24
-2.5
34
0
1001
ACAD
1000
DSTYLE
1002
{
1070
   279
1070
     0
1070
    74
1070
     0
1070
   173
1070
     1
1070
   340
1005
99
1070
   271
1070
     1
1070
   272
1070
     2
1070
    77
1070
     1
1070
    73
1070
     0
1070
   171
1070
     3
1070
   274
1070
     4
1070
   177
1070
     7
1070
   176
1070
     7
1070
   178
1070
     7
1070
    78
1070
     8
1070
    48
1040
-0.005
1070
    41
1041
3.175
1070
   147
1041
1.75006
1070
    42
1041
1.5875
1070
    44
1041
3.175
1070
   140
1041
3.50012
1070
   343
1005
0
1070
   344
1005
0
1002
}
0
DIMENSION
5
C9
100
AcDbEntity
8
SK2
62
256
6
ByLayer
370
13
48
1
60
0
100
AcDbDimension
2
DimnDraft3D3
10
15
20
39.303885
30
0
11
-41.631333
21
39.303885
31
0
70
32
71
5
72
1
41
1
210
0
220
0
230
1
3
Standard
100
AcDbAlignedDimension
13
-95
23
13.2875
33
0
14
15
24
9.5875
34
0
50
0
100
AcDbRotatedDimension
1001
ACAD
1000
DSTYLE
1002
{
1070
   279
1070
     0
1070
   172
1070
     1
1070
   173
1070
     1
1070
   340
1005
99
1070
   271
1070
     1
1070
   272
1070
     2
1070
    77
1070
     1
1070
    73
1070
     0
1070
   171
1070
     3
1070
   274
1070
     4
1070
   177
1070
     7
1070
   176
1070
     7
1070
   178
1070
     7
1070
    78
1070
     8
1070
    48
1040
-0.005
1070
    41
1041
3.175
1070
   147
1041
1.75006
1070
    42
1041
1.5875
1070
    44
1041
3.175
1070
   140
1041
3.50012
1070
   343
1005
0
1070
   344
1005
0
1002
}
0
DIMENSION
5
D7
100
AcDbEntity
8
2
62
256
6
ByLayer
370
13
48
1
60
0
100
AcDbDimension
2
DimnDraft3D4
10
-113.558185
20
-11.7
30
0
11
-113.558185
21
29.652139
31
0
70
32
71
5
72
1
41
1
210
0
220
0
230
1
3
Standard
100
AcDbAlignedDimension
13
-91.5875
23
11.7
33
0
14
-91.5875
24
-11.7
34
0
50
90
100
AcDbRotatedDimension
1001
ACAD
1000
DSTYLE
1002
{
1070
    74
1070
     0
1070
   279
1070
     0
1070
   172
1070
     1
1070
   173
1070
     1
1070
   340
1005
99
1070
   271
1070
     1
1070
   272
1070
     2
1070
    77
1070
     1
1070
    73
1070
     0
1070
   171
1070
     3
1070
   274
1070
     4
1070
   177
1070
     7
1070
   176
1070
     7
1070
   178
1070
     7
1070
    78
1070
     8
1070
    48
1040
-0.005
1070
    41
1041
3.175
1070
   147
1041
1.75006
1070
    42
1041
1.5875
1070
    44
1041
3.175
1070
   140
1041
3.50012
1070
   343
1005
0
1070
   344
1005
0
1002
}
0
ENDSEC
0
SECTION
2
OBJECTS
0
DICTIONARY
5
142
330
0
100
AcDbDictionary
280
0
281
1
3
ACAD_GROUP
350
143
3
ACAD_MLINESTYLE
350
144
0
DICTIONARY
5
143
330
0
100
AcDbDictionary
280
0
281
1
0
DICTIONARY
5
144
330
0
100
AcDbDictionary
280
0
281
1
3
Standard
350
18
0
MLINESTYLE
5
18
330
144
100
AcDbMlineStyle
2
Standard
70
0
3

62
256
51
90
52
90
71
2
49
-0.5
62
256
6
ByLayer
49
0.5
62
256
6
ByLayer
0
RASTERVARIABLES
5
130
330

100
AcDbRasterVariables
90
0
70
1
71
1
72
1
0
ENDSEC
0
EOF
