0
SECTION
2
HEADER
9
$ACADVER
1
AC1015
9
$DWGCODEPAGE
3
ANSI_1252
9
$HANDSEED
5
190
9
$ANGBASE
50
0
9
$ANGDIR
70
0
9
$ATTMODE
70
1
9
$AUNITS
70
0
9
$AUPREC
70
0
9
$CECOLOR
62
256
9
$CELTSCALE
40
1
9
$CELTYPE
6
ByLayer
9
$CELWEIGHT
370
18
9
$CLAYER
8
0
9
$CMLJUST
70
0
9
$CMLSCALE
40
1
9
$CMLSTYLE
2
Standard
9
$DIMSTYLE
2
Standard
9
$TEXTSIZE
40
0.2
9
$TEXTSTYLE
7
Standard
9
$LUNITS
70
2
9
$LUPREC
70
4
9
$EXTNAMES
290
1
9
$INSUNITS
70
4
9
$LTSCALE
40
1
9
$LWDISPLAY
290
1
9
$PDMODE
70
0
9
$PDSIZE
40
0
9
$PLINEGEN
70
0
0
ENDSEC
0
SECTION
2
CLASSES
0
CLASS
1
RASTERVARIABLES
2
AcDbRasterVariables
3
ISM
90
0
280
0
281
0
0
ENDSEC
0
SECTION
2
TABLES
0
TABLE
2
VPORT
5
186
100
AcDbSymbolTable
0
VPORT
5
1
100
AcDbSymbolTableRecord
100
AcDbViewportTableRecord
2
*Active
70
0
10
0
20
0
11
1
21
1
12
-1
22
1
13
0
23
0
14
0.5
24
0.5
15
10
25
10
16
0
26
0
36
1
17
0
27
0
37
0
0
ENDTAB
0
TABLE
2
LTYPE
5
187
100
AcDbSymbolTable
0
LTYPE
5
14
100
AcDbSymbolTableRecord
100
AcDbLinetypeTableRecord
70
0
2
ByBlock
3

72
65
73
0
40
0
0
LTYPE
5
15
100
AcDbSymbolTableRecord
100
AcDbLinetypeTableRecord
70
0
2
ByLayer
3

72
65
73
0
40
0
0
LTYPE
5
16
100
AcDbSymbolTableRecord
100
AcDbLinetypeTableRecord
70
0
2
CONTINUOUS
3
Solid line
72
65
73
0
40
0
0
LTYPE
5
6A
100
AcDbSymbolTableRecord
100
AcDbLinetypeTableRecord
70
0
2
CENTER
3
____ _ ____ _ ____ _ ____
72
65
73
4
40
47.5
49
22
74
0
49
-8.5
74
0
49
8.5
74
0
49
-8.5
74
0
0
LTYPE
5
6B
100
AcDbSymbolTableRecord
100
AcDbLinetypeTableRecord
70
0
2
DASHED
3
__ __ __ __ __ __ __ __ __
72
65
73
2
40
25.72
49
12.86
74
0
49
-12.86
74
0
0
ENDTAB
0
TABLE
2
LAYER
5
188
100
AcDbSymbolTable
0
LAYER
5
10
100
AcDbSymbolTableRecord
100
AcDbLayerTableRecord
2
0
70
0
62
7
6
CONTINUOUS
290
1
370
-3
390
0
0
LAYER
5
6D
100
AcDbSymbolTableRecord
100
AcDbLayerTableRecord
2
80
70
0
62
-6
6
CONTINUOUS
290
1
370
-3
390
0
0
LAYER
5
6F
100
AcDbSymbolTableRecord
100
AcDbLayerTableRecord
2
81
70
0
62
-3
6
CONTINUOUS
290
1
370
-3
390
0
0
LAYER
5
74
100
AcDbSymbolTableRecord
100
AcDbLayerTableRecord
2
1
70
0
62
4
6
CONTINUOUS
290
1
370
-3
390
0
0
LAYER
5
10D
100
AcDbSymbolTableRecord
100
AcDbLayerTableRecord
2
2
70
0
62
7
6
CONTINUOUS
290
1
370
-3
390
0
0
LAYER
5
173
100
AcDbSymbolTableRecord
100
AcDbLayerTableRecord
2
SK1
70
0
62
4
6
CONTINUOUS
290
1
370
-3
390
0
0
LAYER
5
174
100
AcDbSymbolTableRecord
100
AcDbLayerTableRecord
2
SK6
70
0
62
5
6
CONTINUOUS
290
1
370
-3
390
0
0
LAYER
5
175
100
AcDbSymbolTableRecord
100
AcDbLayerTableRecord
2
SK2
70
0
62
7
6
CONTINUOUS
290
1
370
-3
390
0
0
ENDTAB
0
TABLE
2
STYLE
5
189
100
AcDbSymbolTable
0
STYLE
5
11
100
AcDbSymbolTableRecord
100
AcDbTextStyleTableRecord
2
Standard
3
txt
70
0
71
0
40
0
41
1
42
0
50
0
0
STYLE
5
DE
100
AcDbSymbolTableRecord
100
AcDbTextStyleTableRecord
2
iso_b_vert
3
simplex.shx
70
0
71
0
40
0
41
1
42
0
50
0
0
STYLE
5
DF
100
AcDbSymbolTableRecord
100
AcDbTextStyleTableRecord
2
DWGDirectTextStyle
3
simplex
70
0
71
0
40
0
41
1
42
0
50
0
0
ENDTAB
0
TABLE
2
DIMSTYLE
5
18a
100
AcDbSymbolTable
100
AcDbDimStyleTable
0
DIMSTYLE
105
27
100
AcDbSymbolTableRecord
100
AcDbDimStyleTableRecord
2
Standard
70
0
3
<>
41
0.18
42
0.0625
44
0.18
140
0.18
147
0.09
73
0
74
0
77
1
271
2
275
0
278
52
280
0
340
11
0
ENDTAB
0
TABLE
2
VIEW
5
18b
100
AcDbSymbolTable
0
ENDTAB
0
TABLE
2
UCS
5
18c
100
AcDbSymbolTable
0
ENDTAB
0
TABLE
2
APPID
5
18d
100
AcDbSymbolTable
0
APPID
5
12
100
AcDbSymbolTableRecord
100
AcDbRegAppTableRecord
2
ACAD
70
0
0
ENDTAB
0
TABLE
2
BLOCK_RECORD
5
18e
100
AcDbSymbolTable
0
BLOCK_RECORD
5
1F
100
AcDbSymbolTableRecord
100
AcDbBlockTableRecord
2
*Model_Space
340
0
70
0
0
BLOCK_RECORD
5
1B
100
AcDbSymbolTableRecord
100
AcDbBlockTableRecord
2
*Paper_Space
340
0
70
0
0
BLOCK_RECORD
5
23
100
AcDbSymbolTableRecord
100
AcDbBlockTableRecord
2
*Paper_Space0
340
0
70
0
0
BLOCK_RECORD
5
E1
100
AcDbSymbolTableRecord
100
AcDbBlockTableRecord
2
DimnDraft3D1
340
0
70
0
0
BLOCK_RECORD
5
F0
100
AcDbSymbolTableRecord
100
AcDbBlockTableRecord
2
DimnDraft3D2
340
0
70
0
0
BLOCK_RECORD
5
FE
100
AcDbSymbolTableRecord
100
AcDbBlockTableRecord
2
DimnDraft3D3
340
0
70
0
0
BLOCK_RECORD
5
10B
100
AcDbSymbolTableRecord
100
AcDbBlockTableRecord
2
DimnDraft3D4
340
0
70
0
0
ENDTAB
0
ENDSEC
0
SECTION
2
BLOCKS
0
BLOCK
5
20
100
AcDbEntity
8
0
100
AcDbBlockBegin
2
*Model_Space
70
0
10
0
20
0
30
0
3
*Model_Space
0
ENDBLK
5
21
100
AcDbEntity
8
0
100
AcDbBlockEnd
0
BLOCK
5
1C
100
AcDbEntity
8
0
100
AcDbBlockBegin
2
*Paper_Space
70
0
10
0
20
0
30
0
3
*Paper_Space
0
ENDBLK
5
1D
100
AcDbEntity
8
0
100
AcDbBlockEnd
0
BLOCK
5
24
100
AcDbEntity
8
0
100
AcDbBlockBegin
2
*Paper_Space0
70
0
10
0
20
0
30
0
3
*Paper_Space0
0
ENDBLK
5
25
100
AcDbEntity
8
0
100
AcDbBlockEnd
0
BLOCK
5
ED
100
AcDbEntity
8
0
100
AcDbBlockBegin
2
DimnDraft3D1
70
0
10
0
20
0
30
0
3
DimnDraft3D1
0
MTEXT
5
E2
100
AcDbEntity
8
SK2
62
256
6
ByLayer
370
18
48
1
60
0
100
AcDbMText
10
-132.261155
20
-1.169777
30
0
210
0
220
0
230
1
1
\W0.6562;25
40
3.50012
41
0
44
1.084337
50
90
71
7
72
5
7
iso_b_vert
0
LINE
5
E4
100
AcDbEntity
8
SK2
62
256
6
ByLayer
370
13
48
1
60
0
100
AcDbLine
10
-124.125089
20
12.5
30
0
11
-134.561125
21
12.5
31
0
39
0
210
0
220
0
230
1
0
LINE
5
E5
100
AcDbEntity
8
SK2
62
256
6
ByLayer
370
13
48
1
60
0
100
AcDbLine
10
-125.025034
20
-12.5
30
0
11
-134.561125
21
-12.5
31
0
39
0
210
0
220
0
230
1
0
LINE
5
E6
100
AcDbEntity
8
SK2
62
256
6
ByLayer
370
13
48
1
60
0
100
AcDbLine
10
-131.386125
20
12.5
30
0
11
-131.386125
21
-12.5
31
0
39
0
210
0
220
0
230
1
0
LINE
5
E7
100
AcDbEntity
8
SK2
62
256
6
ByLayer
370
13
48
1
60
0
100
AcDbLine
10
-131.386125
20
12.5
30
0
11
-130.968128
21
9.325002
31
0
39
0
210
0
220
0
230
1
0
LINE
5
E8
100
AcDbEntity
8
SK2
62
256
6
ByLayer
370
13
48
1
60
0
100
AcDbLine
10
-131.386125
20
12.5
30
0
11
-131.804121
21
9.324998
31
0
39
0
210
0
220
0
230
1
0
LINE
5
E9
100
AcDbEntity
8
SK2
62
256
6
ByLayer
370
13
48
1
60
0
100
AcDbLine
10
-130.968128
20
9.325002
30
0
11
-131.804121
21
9.324998
31
0
39
0
210
0
220
0
230
1
0
LINE
5
EA
100
AcDbEntity
8
SK2
62
256
6
ByLayer
370
13
48
1
60
0
100
AcDbLine
10
-131.386125
20
-12.5
30
0
11
-131.804121
21
-9.325002
31
0
39
0
210
0
220
0
230
1
0
LINE
5
EB
100
AcDbEntity
8
SK2
62
256
6
ByLayer
370
13
48
1
60
0
100
AcDbLine
10
-131.386125
20
-12.5
30
0
11
-130.968128
21
-9.324998
31
0
39
0
210
0
220
0
230
1
0
LINE
5
EC
100
AcDbEntity
8
SK2
62
256
6
ByLayer
370
13
48
1
60
0
100
AcDbLine
10
-131.804121
20
-9.325002
30
0
11
-130.968128
21
-9.324998
31
0
39
0
210
0
220
0
230
1
0
ENDBLK
5
EE
100
AcDbEntity
8
0
100
AcDbBlockEnd
0
BLOCK
5
FB
100
AcDbEntity
8
0
100
AcDbBlockBegin
2
DimnDraft3D2
70
0
10
0
20
0
30
0
3
DimnDraft3D2
0
MTEXT
5
F1
100
AcDbEntity
8
SK2
62
256
6
ByLayer
370
18
48
1
60
0
100
AcDbMText
10
-53.537378
20
36.17916
30
0
210
0
220
0
230
1
1
\W0.6676;150.8
40
3.50012
41
0
44
1.084337
50
0
71
7
72
5
7
iso_b_vert
0
LINE
5
F2
100
AcDbEntity
8
SK2
62
256
6
ByLayer
370
13
48
1
60
0
100
AcDbLine
10
25.838113
20
4.5875
30
0
11
25.838113
21
38.47913
31
0
39
0
210
0
220
0
230
1
0
LINE
5
F3
100
AcDbEntity
8
SK2
62
256
6
ByLayer
370
13
48
1
60
0
100
AcDbLine
10
-124.936279
20
12.5875
30
0
11
-124.936279
21
38.47913
31
0
39
0
210
0
220
0
230
1
0
LINE
5
F4
100
AcDbEntity
8
SK2
62
256
6
ByLayer
370
13
48
1
60
0
100
AcDbLine
10
25.838113
20
35.30413
30
0
11
-124.936279
21
35.30413
31
0
39
0
210
0
220
0
230
1
0
LINE
5
F5
100
AcDbEntity
8
SK2
62
256
6
ByLayer
370
13
48
1
60
0
100
AcDbLine
10
25.838113
20
35.30413
30
0
11
22.663114
21
34.886133
31
0
39
0
210
0
220
0
230
1
0
LINE
5
F6
100
AcDbEntity
8
SK2
62
256
6
ByLayer
370
13
48
1
60
0
100
AcDbLine
10
25.838113
20
35.30413
30
0
11
22.663111
21
35.722126
31
0
39
0
210
0
220
0
230
1
0
LINE
5
F7
100
AcDbEntity
8
SK2
62
256
6
ByLayer
370
13
48
1
60
0
100
AcDbLine
10
22.663114
20
34.886133
30
0
11
22.663111
21
35.722126
31
0
39
0
210
0
220
0
230
1
0
LINE
5
F8
100
AcDbEntity
8
SK2
62
256
6
ByLayer
370
13
48
1
60
0
100
AcDbLine
10
-124.936279
20
35.30413
30
0
11
-121.76128
21
35.722126
31
0
39
0
210
0
220
0
230
1
0
LINE
5
F9
100
AcDbEntity
8
SK2
62
256
6
ByLayer
370
13
48
1
60
0
100
AcDbLine
10
-124.936279
20
35.30413
30
0
11
-121.761277
21
34.886133
31
0
39
0
210
0
220
0
230
1
0
LINE
5
FA
100
AcDbEntity
8
SK2
62
256
6
ByLayer
370
13
48
1
60
0
100
AcDbLine
10
-121.76128
20
35.722126
30
0
11
-121.761277
21
34.886133
31
0
39
0
210
0
220
0
230
1
0
ENDBLK
5
FC
100
AcDbEntity
8
0
100
AcDbBlockEnd
0
BLOCK
5
108
100
AcDbEntity
8
0
100
AcDbBlockBegin
2
DimnDraft3D3
70
0
10
0
20
0
30
0
3
DimnDraft3D3
0
MTEXT
5
FF
100
AcDbEntity
8
SK2
62
256
6
ByLayer
370
18
48
1
60
0
100
AcDbMText
10
25.358354
20
-7.783517
30
0
210
0
220
0
230
1
1
\W0.8896;45%%d
40
3.50012
41
0
44
1.084337
50
283.67763568705
71
7
72
5
7
iso_b_vert
0
LINE
5
100
100
AcDbEntity
8
SK2
62
256
6
ByLayer
370
13
48
1
60
0
100
AcDbLine
10
17.933564
20
-12.5
30
0
11
28.519744
21
-12.5
31
0
39
0
210
0
220
0
230
1
0
ARC
5
101
100
AcDbEntity
8
SK2
62
256
6
ByLayer
370
13
48
1
60
0
100
AcDbCircle
39
0
10
16.407424
20
-12.5
30
0
40
8.93731944301704
210
0
220
0
230
1
100
AcDbArc
50
0
51
45.023989
0
LINE
5
102
100
AcDbEntity
8
SK2
62
256
6
ByLayer
370
13
48
1
60
0
100
AcDbLine
10
25.344744
20
-12.5
30
0
11
24.649649
21
-9.373951
31
0
39
0
210
0
220
0
230
1
0
LINE
5
103
100
AcDbEntity
8
SK2
62
256
6
ByLayer
370
13
48
1
60
0
100
AcDbLine
10
25.344744
20
-12.5
30
0
11
25.482415
21
-9.300562
31
0
39
0
210
0
220
0
230
1
0
LINE
5
104
100
AcDbEntity
8
SK2
62
256
6
ByLayer
370
13
48
1
60
0
100
AcDbLine
10
24.649649
20
-9.373951
30
0
11
25.482415
21
-9.300562
31
0
39
0
210
0
220
0
230
1
0
LINE
5
105
100
AcDbEntity
8
SK2
62
256
6
ByLayer
370
13
48
1
60
0
100
AcDbLine
10
22.724417
20
-6.177715
30
0
11
25.085014
21
-8.341721
31
0
39
0
210
0
220
0
230
1
0
LINE
5
106
100
AcDbEntity
8
SK2
62
256
6
ByLayer
370
13
48
1
60
0
100
AcDbLine
10
22.724417
20
-6.177715
30
0
11
24.444494
21
-8.878954
31
0
39
0
210
0
220
0
230
1
0
LINE
5
107
100
AcDbEntity
8
SK2
62
256
6
ByLayer
370
13
48
1
60
0
100
AcDbLine
10
25.085014
20
-8.341721
30
0
11
24.444494
21
-8.878954
31
0
39
0
210
0
220
0
230
1
0
ENDBLK
5
109
100
AcDbEntity
8
0
100
AcDbBlockEnd
0
BLOCK
5
117
100
AcDbEntity
8
0
100
AcDbBlockBegin
2
DimnDraft3D4
70
0
10
0
20
0
30
0
3
DimnDraft3D4
0
MTEXT
5
10C
100
AcDbEntity
8
2
62
256
6
ByLayer
370
18
48
1
60
0
100
AcDbMText
10
9.727026
20
25.053155
30
0
210
0
220
0
230
1
1
\W0.7259;25.9
40
3.50012
41
0
44
1.084337
50
0
71
7
72
5
7
iso_b_vert
0
LINE
5
10E
100
AcDbEntity
8
2
62
256
6
ByLayer
370
13
48
1
60
0
100
AcDbLine
10
-0.102266
20
12.5875
30
0
11
-0.102266
21
27.353125
31
0
39
0
210
0
220
0
230
1
0
LINE
5
10F
100
AcDbEntity
8
2
62
256
6
ByLayer
370
13
48
1
60
0
100
AcDbLine
10
25.838113
20
4.5875
30
0
11
25.838113
21
27.353125
31
0
39
0
210
0
220
0
230
1
0
LINE
5
110
100
AcDbEntity
8
2
62
256
6
ByLayer
370
13
48
1
60
0
100
AcDbLine
10
-0.102266
20
24.178125
30
0
11
25.838113
21
24.178125
31
0
39
0
210
0
220
0
230
1
0
LINE
5
111
100
AcDbEntity
8
2
62
256
6
ByLayer
370
13
48
1
60
0
100
AcDbLine
10
-0.102266
20
24.178125
30
0
11
3.072732
21
24.596122
31
0
39
0
210
0
220
0
230
1
0
LINE
5
112
100
AcDbEntity
8
2
62
256
6
ByLayer
370
13
48
1
60
0
100
AcDbLine
10
-0.102266
20
24.178125
30
0
11
3.072735
21
23.760129
31
0
39
0
210
0
220
0
230
1
0
LINE
5
113
100
AcDbEntity
8
2
62
256
6
ByLayer
370
13
48
1
60
0
100
AcDbLine
10
3.072732
20
24.596122
30
0
11
3.072735
21
23.760129
31
0
39
0
210
0
220
0
230
1
0
LINE
5
114
100
AcDbEntity
8
2
62
256
6
ByLayer
370
13
48
1
60
0
100
AcDbLine
10
25.838113
20
24.178125
30
0
11
22.663114
21
23.760129
31
0
39
0
210
0
220
0
230
1
0
LINE
5
115
100
AcDbEntity
8
2
62
256
6
ByLayer
370
13
48
1
60
0
100
AcDbLine
10
25.838113
20
24.178125
30
0
11
22.663111
21
24.596122
31
0
39
0
210
0
220
0
230
1
0
LINE
5
116
100
AcDbEntity
8
2
62
256
6
ByLayer
370
13
48
1
60
0
100
AcDbLine
10
22.663114
20
23.760129
30
0
11
22.663111
21
24.596122
31
0
39
0
210
0
220
0
230
1
0
ENDBLK
5
118
100
AcDbEntity
8
0
100
AcDbBlockEnd
0
ENDSEC
0
SECTION
2
ENTITIES
0
ELLIPSE
5
C1
100
AcDbEntity
8
1
62
256
6
ByLayer
370
18
48
1
60
0
100
AcDbEllipse
10
17.519621
20
0
30
0
11
-4.59227382683391E-16
21
-2.5
31
0
210
0
220
0
230
1
40
0.999163
41
0
42
3.14159265358979
0
ELLIPSE
5
C2
100
AcDbEntity
8
1
62
256
6
ByLayer
370
18
48
1
60
0
100
AcDbEllipse
10
17.519621
20
0
30
0
11
-4.59227382683391E-16
21
-2.5
31
0
210
0
220
0
230
1
40
0.999163
41
3.14159265358979
42
-2.45126441596091E-16
0
ELLIPSE
5
C3
100
AcDbEntity
8
1
62
256
6
ByLayer
370
18
48
1
60
0
100
AcDbEllipse
10
17.944027
20
0
30
0
11
-4.59227382683391E-16
21
-2.5
31
0
210
0
220
0
230
1
40
0.999163
41
-0.643501108793285
42
-2.45126441596091E-16
0
ELLIPSE
5
C4
100
AcDbEntity
8
1
62
256
6
ByLayer
370
18
48
1
60
0
100
AcDbEllipse
10
17.494055
20
0
30
0
11
-5.74034228354239E-16
21
-3.125
31
0
210
0
220
0
230
1
40
0.999163
41
3.14159265358979
42
-2.45126441596091E-16
0
ELLIPSE
5
C5
100
AcDbEntity
8
1
62
256
6
ByLayer
370
18
48
1
60
0
100
AcDbEllipse
10
24.876808
20
0
30
0
11
1.53075794227797E-16
21
2.5
31
0
210
0
220
0
230
1
40
0.040907
41
0
42
3.14159265358979
0
ELLIPSE
5
C6
100
AcDbEntity
8
1
62
256
6
ByLayer
370
18
48
1
60
0
100
AcDbEllipse
10
-0.102266
20
0
30
0
11
1.53075794227797E-16
21
2.5
31
0
210
0
220
0
230
1
40
0.040907
41
3.14159265358979
42
-5.98727041250826E-15
0
ELLIPSE
5
C7
100
AcDbEntity
8
1
62
256
6
ByLayer
370
18
48
1
60
0
100
AcDbEllipse
10
24.876808
20
0
30
0
11
1.53075794227797E-16
21
2.5
31
0
210
0
220
0
230
1
40
0.040907
41
3.14159265358979
42
-5.98727041250826E-15
0
ELLIPSE
5
C8
100
AcDbEntity
8
1
62
256
6
ByLayer
370
18
48
1
60
0
100
AcDbEllipse
10
17.944027
20
0
30
0
11
-4.59227382683391E-16
21
-2.5
31
0
210
0
220
0
230
1
40
0.999163
41
2.49809154479651
42
3.14159265358979
0
ELLIPSE
5
C9
100
AcDbEntity
8
1
62
256
6
ByLayer
370
18
48
1
60
0
100
AcDbEllipse
10
17.944027
20
0
30
0
11
-4.59227382683391E-16
21
-2.5
31
0
210
0
220
0
230
1
40
0.999163
41
0
42
0.643501108793284
0
ELLIPSE
5
CA
100
AcDbEntity
8
1
62
256
6
ByLayer
370
18
48
1
60
0
100
AcDbEllipse
10
17.944027
20
0
30
0
11
-4.59227382683391E-16
21
-2.5
31
0
210
0
220
0
230
1
40
0.999163
41
3.14159265358979
42
-2.49809154479651
0
ELLIPSE
5
CB
100
AcDbEntity
8
1
62
256
6
ByLayer
370
18
48
1
60
0
100
AcDbEllipse
10
17.494055
20
0
30
0
11
-5.74034228354239E-16
21
-3.125
31
0
210
0
220
0
230
1
40
0.999163
41
0
42
3.14159265358979
0
POINT
5
6C
100
AcDbEntity
8
80
62
256
6
ByLayer
370
18
48
1
60
0
100
AcDbPoint
10
0
20
0
30
0
39
0
210
0
220
0
230
1
50
360
0
POINT
5
6E
100
AcDbEntity
8
81
62
256
6
ByLayer
370
18
48
1
60
0
100
AcDbPoint
10
25.838113
20
0
30
0
39
0
210
0
220
0
230
1
50
360
0
SPLINE
5
CC
100
AcDbEntity
8
1
62
256
6
ByLayer
370
18
48
1
60
0
100
AcDbSpline
70
4
71
3
72
150
73
146
40
0
40
0
40
0
40
0
40
0.0065585338475199
40
0.0132321772658184
40
0.0200217604599174
40
0.026927985532665
40
0.0339514145563454
40
0.0409639074825135
40
0.0480900847048644
40
0.0553300135788569
40
0.0626835834360773
40
0.0703040531831855
40
0.0780419970851603
40
0.0858966429489266
40
0.0938669706931103
40
0.101951698832543
40
0.110149271417587
40
0.11845784562529
40
0.126875280222465
40
0.135399125144403
40
0.144026612456607
40
0.15275464899022
40
0.161579810964134
40
0.170498340927282
40
0.179506147372634
40
0.187837982869364
40
0.196237476879123
40
0.204700758787205
40
0.213223743187829
40
0.221802141258437
40
0.230431474976645
40
0.237454718902115
40
0.244505785758058
40
0.25158207416664
40
0.258680934687744
40
0.265799679870696
40
0.272935595270008
40
0.279677032033104
40
0.286429017178579
40
0.293189269494042
40
0.299955527225277
40
0.306725559505514
40
0.313497178287542
40
0.320268250711654
40
0.327036711829375
40
0.333800577589182
40
0.340557957976248
40
0.347186638701513
40
0.353805767649907
40
0.360413892274471
40
0.367009694983016
40
0.373102924412656
40
0.379183781561071
40
0.385251576595524
40
0.391305746066176
40
0.397345857804823
40
0.403371614964451
40
0.409382859097718
40
0.414880427491217
40
0.420365875344604
40
0.425839392641922
40
0.431301267989436
40
0.436751886856656
40
0.442191728999597
40
0.44762136505482
40
0.453041452303651
40
0.458452729617618
40
0.463856011608446
40
0.469252182018592
40
0.474642186401003
40
0.479719459711968
40
0.484793014508865
40
0.489863754595525
40
0.494932605837182
40
0.500000508929978
40
0.505864198438448
40
0.511729355711595
40
0.51759743307649
40
0.523469852191378
40
0.529347989222217
40
0.535233160618596
40
0.54112660966648
40
0.546537233767988
40
0.551956606968382
40
0.557385474261246
40
0.562824499477613
40
0.568274260168424
40
0.573735243304391
40
0.580303699983755
40
0.586889374937564
40
0.593492558332888
40
0.600113333632405
40
0.606751577877612
40
0.613287978357126
40
0.619840417004117
40
0.626408216241142
40
0.63299052519914
40
0.640113779850694
40
0.647251286304936
40
0.654401364434268
40
0.661562153016337
40
0.668731626500026
40
0.675907612310541
40
0.682677458396235
40
0.689449026575014
40
0.696220220769847
40
0.702988882566156
40
0.70975280379145
40
0.717293437325286
40
0.724822210514658
40
0.732335943376084
40
0.739831453306061
40
0.747305572074019
40
0.754755161555838
40
0.76217712817417
40
0.769568436030935
40
0.777398272589807
40
0.785186543186597
40
0.792929886476563
40
0.800625067263156
40
0.808268985647098
40
0.815858684563525
40
0.824730226764425
40
0.833518242237505
40
0.842218710870584
40
0.850827919713166
40
0.859515217434009
40
0.868100660842458
40
0.876581290590194
40
0.884954469772348
40
0.893217875841644
40
0.901369490970522
40
0.909407591142481
40
0.917330734230354
40
0.925137747295525
40
0.932827713318667
40
0.940399957549773
40
0.947854033643377
40
0.95518970972408
40
0.962406954508079
40
0.970209313880832
40
0.977869012597707
40
0.985386731941156
40
0.992763365589161
40
1
40
1
40
1
40
1
41
1
10
17.8826671197922
20
-2.50000000000003
30
-2E-16
41
1
10
17.8968151186991
20
-2.50000002088785
30
-2E-16
41
1
10
17.9253568262121
20
-2.49973614733809
30
-2E-16
41
1
10
17.9685388997011
20
-2.4985313558499
30
-2E-16
41
1
10
18.0124559954282
20
-2.49647134391127
30
-2E-16
41
1
10
18.0571049958244
20
-2.49351198263227
30
-2E-16
41
1
10
18.1022032757303
20
-2.4896315463668
30
-2E-16
41
1
10
18.1477352369053
20
-2.48480351705955
30
-3E-16
41
1
10
18.1936837665309
20
-2.47900150577536
30
-3E-16
41
1
10
18.2403054249046
20
-2.47215027764252
30
-2E-16
41
1
10
18.2879160694617
20
-2.46414652246783
30
-2E-16
41
1
10
18.336508038789
20
-2.45491451735034
30
-2E-16
41
1
10
18.3860701357934
20
-2.44437534607413
30
-3E-16
41
1
10
18.4362617302061
20
-2.43253542843256
30
-3E-16
41
1
10
18.4870576852695
20
-2.4193398411971
30
-3E-16
41
1
10
18.5384296590772
20
-2.40473297749821
30
-3E-16
41
1
10
18.5903459281171
20
-2.38865870967903
30
-3E-16
41
1
10
18.6427712189073
20
-2.37106057157146
30
-5E-16
41
1
10
18.6956665420673
20
-2.35188196257441
30
-4E-16
41
1
10
18.7489890325173
20
-2.33106637419644
30
-3E-16
41
1
10
18.8026917986292
20
-2.30855763924618
30
-3E-16
41
1
10
18.8567237782352
20
-2.28430020671999
30
-3E-16
41
1
10
18.9110296216052
20
-2.25823943317979
30
-4E-16
41
1
10
18.9655495374937
20
-2.23032192699841
30
-5E-16
41
1
10
19.0186799174877
20
-2.2013356776168
30
-3E-16
41
1
10
19.0703679637076
20
-2.1714056668578
30
-6E-16
41
1
10
19.1205671091406
20
-2.14066207870268
30
-5E-16
41
1
10
19.1707181965002
20
-2.10820122373253
30
-2E-16
41
1
10
19.2207582748577
20
-2.07399048527687
30
-5E-16
41
1
10
19.2706210438129
20
-2.0379998099622
30
-6E-16
41
1
10
19.3170698490555
20
-2.00261469860584
30
-6E-16
41
1
10
19.3601285720938
20
-1.96817488276089
30
-3E-16
41
1
10
19.3998343508827
20
-1.93500450102537
30
-6E-16
41
1
10
19.4392494005371
20
-1.90061160668273
30
-6E-16
41
1
10
19.4783312827461
20
-1.86498817641181
30
-3E-16
41
1
10
19.5170363475463
20
-1.82812803499696
30
-6E-16
41
1
10
19.5545885745785
20
-1.79075471743731
30
-4E-16
41
1
10
19.5909758044462
20
-1.75294481127822
30
-3E-16
41
1
10
19.6261901842267
20
-1.71477591426064
30
-4E-16
41
1
10
19.6609104110074
20
-1.67550307276975
30
-5E-16
41
1
10
19.6950962064481
20
-1.63512963732641
30
-6E-16
41
1
10
19.7287067869201
20
-1.59366085576254
30
-6E-16
41
1
10
19.7617009699767
20
-1.55110392000392
30
-4E-16
41
1
10
19.7940372649708
20
-1.50746803102204
30
-6E-16
41
1
10
19.825673977681
20
-1.46276444856375
30
-2E-16
41
1
10
19.8565693098305
20
-1.4170065515922
30
-4E-16
41
1
10
19.8865025941138
20
-1.37048786708898
30
-4E-16
41
1
10
19.9154489893377
20
-1.32324763453045
30
-7E-16
41
1
10
19.9433858718454
20
-1.27532637680254
30
-6E-16
41
1
10
19.9704490203692
20
-1.22646000968841
30
-5E-16
41
1
10
19.9959536970224
20
-1.17790209408352
30
-1E-16
41
1
10
20.0199406336468
20
-1.12975741281149
30
-7E-16
41
1
10
20.0424567544268
20
-1.08212513994024
30
-3E-16
41
1
10
20.0641006549642
20
-1.03376895779426
30
-4E-16
41
1
10
20.0848442029097
20
-0.984713365728848
30
-9E-16
41
1
10
20.104660028612
20
-0.934984358413074
30
-5E-16
41
1
10
20.1235216099023
20
-0.8846094274975
30
-9E-16
41
1
10
20.1409084935748
20
-0.8350286468132
30
-9E-16
41
1
10
20.1568891908216
20
-0.786333530615753
30
-6E-16
41
1
10
20.1715363473975
20
-0.738606447715615
30
-9E-16
41
1
10
20.1853042253086
20
-0.690435806390527
30
-8E-16
41
1
10
20.1981764714499
20
-0.641847608768096
30
-7E-16
41
1
10
20.210137646154
20
-0.592868722702192
30
-7E-16
41
1
10
20.2211732887492
20
-0.543526783102426
30
-7E-16
41
1
10
20.2312699552391
20
-0.493850159106369
30
-5E-16
41
1
10
20.2404152603558
20
-0.443867898523032
30
-7E-16
41
1
10
20.2485979147638
20
-0.393609679009595
30
-5E-16
41
1
10
20.2558077607667
20
-0.343105737467882
30
-1E-15
41
1
10
20.2620358009941
20
-0.292386863249515
30
-6E-16
41
1
10
20.2671746051395
20
-0.242452286983562
30
-8E-16
41
1
10
20.2712826228525
20
-0.193345913076465
30
-4E-16
41
1
10
20.274419110942
20
-0.145104621729283
30
-9E-16
41
1
10
20.2766619843194
20
-0.0967818161348481
30
-6E-16
41
1
10
20.2780087184945
20
-0.0484044920801281
30
-7E-16
41
1
10
20.2784813113523
20
0.0025332663196824
30
-2E-16
41
1
10
20.2779072720086
20
0.0560070609784131
30
-4E-16
41
1
10
20.276104444529
20
0.111971776520222
30
-3E-16
41
1
10
20.2731027614041
20
0.167852211843864
30
-7E-16
41
1
10
20.2689067448171
20
0.22360635116129
30
-5E-16
41
1
10
20.2635227038764
20
0.279192644549791
30
-8E-16
41
1
10
20.2569587209922
20
0.334569862812518
30
-6E-16
41
1
10
20.249439882691
20
0.388162793331051
30
-7E-16
41
1
10
20.2410875939632
20
0.4399611765945
30
-6E-16
41
1
10
20.2320169063266
20
0.489966043902018
30
-6E-16
41
1
10
20.2219939406085
20
0.539667531243748
30
-8E-16
41
1
10
20.2110309995808
20
0.589036566633845
30
-6E-16
41
1
10
20.19914142122
20
0.638044796868622
30
-8E-16
41
1
10
20.1854833974131
20
0.689916300533174
30
-4E-16
41
1
10
20.1698524858141
20
0.744512965916149
30
-5E-16
41
1
10
20.1520426253103
20
0.801664710722174
30
-4E-16
41
1
10
20.132999735901
20
0.858129810533326
30
-6E-16
41
1
10
20.112755697375
20
0.913866868639839
30
-3E-16
41
1
10
20.0914718233534
20
0.968508248324932
30
-2E-16
41
1
10
20.0692060432485
20
1.02203465114372
30
-4E-16
41
1
10
20.0460152631257
20
1.07443058800595
30
-7E-16
41
1
10
20.0218011736366
20
1.12598596479645
30
-2E-16
41
1
10
19.9959269346877
20
1.17802532344075
30
-2E-16
41
1
10
19.9683410415508
20
1.23043131101904
30
-8E-16
41
1
10
19.9390000573271
20
1.28308002623143
30
-6E-16
41
1
10
19.9086474565294
20
1.33462243623958
30
-4E-16
41
1
10
19.8773323055906
20
1.38503267673981
30
-5E-16
41
1
10
19.8451040985956
20
1.43428773444022
30
-7E-16
41
1
10
19.8126433729786
20
1.4814509086427
30
-7E-16
41
1
10
19.7800524025773
20
1.52658438630414
30
-6E-16
41
1
10
19.7474247592553
20
1.56975213624394
30
-4E-16
41
1
10
19.7141573262326
20
1.61183665806577
30
-4E-16
41
1
10
19.6802914364523
20
1.65282967696079
30
-5E-16
41
1
10
19.644538568637
20
1.69426573735514
30
-4E-16
41
1
10
19.6068662394017
20
1.73598752289514
30
-5E-16
41
1
10
19.5672507244926
20
1.77783368652697
30
-5E-16
41
1
10
19.5271017614725
20
1.81830284010805
30
-5E-16
41
1
10
19.4864729505008
20
1.85739692538092
30
-5E-16
41
1
10
19.4454166521012
20
1.89512042131276
30
-4E-16
41
1
10
19.4039839379582
20
1.93148014935853
30
-4E-16
41
1
10
19.3622244680709
20
1.96648516477775
30
-5E-16
41
1
10
19.3192912462297
20
2.00086340792971
30
-3E-16
41
1
10
19.2752082190713
20
2.03453099614421
30
-4E-16
41
1
10
19.2300036876115
20
2.06740672723926
30
-5E-16
41
1
10
19.1846428896025
20
2.0988133422951
30
-4E-16
41
1
10
19.13917585211
20
2.12877283685478
30
-4E-16
41
1
10
19.0936503538026
20
2.15730898524227
30
-5E-16
41
1
10
19.0454340417651
20
2.18604300035343
30
-4E-16
41
1
10
18.9945501198194
20
2.21472080827415
30
-3E-16
41
1
10
18.9410328325605
20
2.24308568055002
30
-3E-16
41
1
10
18.8876876806318
20
2.26963969137729
30
-4E-16
41
1
10
18.8342180337427
20
2.2945981349102
30
-4E-16
41
1
10
18.7806796965424
20
2.31797398407718
30
-2E-16
41
1
10
18.7271265693666
20
2.33978331080419
30
-4E-16
41
1
10
18.6739733924473
20
2.35992241212814
30
-4E-16
41
1
10
18.6212653980489
20
2.37844762407638
30
-4E-16
41
1
10
18.5690438454362
20
2.39541552231028
30
-3E-16
41
1
10
18.5173461845638
20
2.41088267834236
30
-3E-16
41
1
10
18.4662062162071
20
2.42490544333271
30
-3E-16
41
1
10
18.4156542600649
20
2.43753975270821
30
-3E-16
41
1
10
18.3657173252348
20
2.4488409522602
30
-2E-16
41
1
10
18.3164192829009
20
2.45886364420166
30
-3E-16
41
1
10
18.2677810374175
20
2.46766155248101
30
-2E-16
41
1
10
18.2198207022042
20
2.4752874051202
30
-2E-16
41
1
10
18.1725537514837
20
2.48179283625987
30
-2E-16
41
1
10
18.1244806688224
20
2.48740487069416
30
-2E-16
41
1
10
18.0756598384241
20
2.49205731281381
30
-2E-16
41
1
10
18.0261502977862
20
2.49568765288007
30
-2E-16
41
1
10
17.9775282934175
20
2.49820817784199
30
-2E-16
41
1
10
17.9297986016657
20
2.49967847870165
30
-2E-16
41
1
10
17.898278111816
20
2.500000031017
30
-2E-16
41
1
10
17.8826671197922
20
2.49999999999997
30
-2E-16
0
SPLINE
5
CD
100
AcDbEntity
8
1
62
256
6
ByLayer
370
18
48
1
60
0
100
AcDbSpline
70
4
71
3
72
150
73
146
40
0
40
0
40
0
40
0
40
0.0065585338475199
40
0.0132321772658184
40
0.0200217604599174
40
0.0269279855326651
40
0.0339514145563451
40
0.0409639074825135
40
0.0480900847048647
40
0.055330013578857
40
0.0626835834360774
40
0.0703040531831855
40
0.0780419970851603
40
0.0858966429489266
40
0.0938669706931104
40
0.101951698832543
40
0.110149271417587
40
0.11845784562529
40
0.126875280222465
40
0.135399125144403
40
0.144026612456607
40
0.152754648990221
40
0.161579810964134
40
0.170498340927282
40
0.179506147372634
40
0.187837982869365
40
0.196237476879123
40
0.204700758787206
40
0.213223743187829
40
0.221802141258437
40
0.230431474976645
40
0.237454718902115
40
0.244505785758058
40
0.25158207416664
40
0.258680934687744
40
0.265799679870696
40
0.272935595270008
40
0.279677032033105
40
0.286429017178579
40
0.293189269494042
40
0.299955527225277
40
0.306725559505514
40
0.313497178287542
40
0.320268250711655
40
0.327036711829376
40
0.333800577589182
40
0.340557957976249
40
0.347186638701513
40
0.353805767649907
40
0.360413892274471
40
0.367009694983016
40
0.373102924412656
40
0.379183781561071
40
0.385251576595524
40
0.391305746066177
40
0.397345857804823
40
0.403371614964451
40
0.409382859097718
40
0.414880427491217
40
0.420365875344604
40
0.425839392641923
40
0.431301267989436
40
0.436751886856656
40
0.442191728999597
40
0.447621365054821
40
0.453041452303651
40
0.458452729617618
40
0.463856011608447
40
0.469252182018593
40
0.474642186401003
40
0.479719459711968
40
0.484793014508866
40
0.489863754595526
40
0.494932605837182
40
0.500000508929978
40
0.505864198438449
40
0.511729355711595
40
0.51759743307649
40
0.523469852191378
40
0.529347989222217
40
0.535233160618596
40
0.54112660966648
40
0.546537233767989
40
0.551956606968383
40
0.557385474261247
40
0.562824499477614
40
0.568274260168425
40
0.573735243304391
40
0.580303699983755
40
0.586889374937564
40
0.593492558332888
40
0.600113333632405
40
0.606751577877613
40
0.613287978357126
40
0.619840417004117
40
0.626408216241142
40
0.63299052519914
40
0.640113779850694
40
0.647251286304937
40
0.654401364434268
40
0.661562153016337
40
0.668731626500026
40
0.675907612310541
40
0.682677458396235
40
0.689449026575014
40
0.696220220769847
40
0.702988882566156
40
0.70975280379145
40
0.717293437325286
40
0.724822210514658
40
0.732335943376084
40
0.739831453306061
40
0.74730557207402
40
0.754755161555838
40
0.76217712817417
40
0.769568436030935
40
0.777398272589807
40
0.785186543186597
40
0.792929886476563
40
0.800625067263156
40
0.808268985647099
40
0.815858684563525
40
0.824730226764425
40
0.833518242237505
40
0.842218710870584
40
0.850827919713167
40
0.859515217434009
40
0.868100660842458
40
0.876581290590195
40
0.884954469772348
40
0.893217875841644
40
0.901369490970522
40
0.909407591142481
40
0.917330734230354
40
0.925137747295525
40
0.932827713318666
40
0.940399957549774
40
0.947854033643377
40
0.955189709724081
40
0.962406954508079
40
0.970209313880832
40
0.977869012597707
40
0.985386731941156
40
0.992763365589161
40
1
40
1
40
1
40
1
41
1
10
17.8826671197922
20
2.49999999999997
30
-2E-16
41
1
10
17.8673112057454
20
2.50000002088779
30
-1E-16
41
1
10
17.8363326899704
20
2.49973614733802
30
-2E-16
41
1
10
17.7894638562063
20
2.49853135584984
30
-2E-16
41
1
10
17.7417972461357
20
2.49647134391121
30
-2E-16
41
1
10
17.6933362434968
20
2.49351198263221
30
-2E-16
41
1
10
17.6443876031658
20
2.48963154636674
30
-2E-16
41
1
10
17.594968255116
20
2.48480351705949
30
-2E-16
41
1
10
17.5450967732086
20
2.47900150577529
30
-2E-16
41
1
10
17.4944946927716
20
2.47215027764245
30
-2E-16
41
1
10
17.4428191893774
20
2.46414652246777
30
-2E-16
41
1
10
17.3900785785484
20
2.45491451735028
30
-2E-16
41
1
10
17.3362850133531
20
2.44437534607407
30
-3E-16
41
1
10
17.2818082060852
20
2.4325354284325
30
-3E-16
41
1
10
17.226675439606
20
2.41933984119704
30
-2E-16
41
1
10
17.1709174755716
20
2.40473297749815
30
-3E-16
41
1
10
17.1145687459557
20
2.38865870967896
30
-2E-16
41
1
10
17.0576675357878
20
2.37106057157139
30
-3E-16
41
1
10
17.0002561632487
20
2.35188196257434
30
-3E-16
41
1
10
16.9423811531146
20
2.33106637419637
30
-2E-16
41
1
10
16.8840934004846
20
2.30855763924612
30
-4E-16
41
1
10
16.8254483270666
20
2.28430020671993
30
-4E-16
41
1
10
16.7665060081903
20
2.25823943317973
30
-3E-16
41
1
10
16.7073313399043
20
2.23032192699835
30
-5E-16
41
1
10
16.64966484206
20
2.20133567761674
30
-3E-16
41
1
10
16.5935638202671
20
2.17140566685773
30
-4E-16
41
1
10
16.5390788172947
20
2.14066207870262
30
-5E-16
41
1
10
16.4846459754547
20
2.10820122373247
30
-4E-16
41
1
10
16.4303336202437
20
2.07399048527681
30
-2E-16
41
1
10
16.3762137125978
20
2.03799980996213
30
-5E-16
41
1
10
16.3257992429913
20
2.00261469860578
30
-5E-16
41
1
10
16.2790642909818
20
1.96817488276083
30
-3E-16
41
1
10
16.2359685478835
20
1.93500450102531
30
-5E-16
41
1
10
16.1931883555306
20
1.90061160668266
30
-6E-16
41
1
10
16.1507697754939
20
1.86498817641175
30
-5E-16
41
1
10
16.1087601844442
20
1.82812803499689
30
-6E-16
41
1
10
16.0680018571098
20
1.79075471743725
30
-4E-16
41
1
10
16.0285079910211
20
1.75294481127815
30
-4E-16
41
1
10
15.9902871095606
20
1.71477591426058
30
-3E-16
41
1
10
15.9526025704508
20
1.67550307276968
30
-7E-16
41
1
10
15.9154980908798
20
1.63512963732634
30
-3E-16
41
1
10
15.8790179364644
20
1.59366085576247
30
-5E-16
41
1
10
15.8432068056891
20
1.55110392000386
30
-5E-16
41
1
10
15.8081097315522
20
1.50746803102197
30
-3E-16
41
1
10
15.7737719680069
20
1.46276444856369
30
-4E-16
41
1
10
15.7402388819458
20
1.41700655159214
30
-3E-16
41
1
10
15.7077499806093
20
1.37048786708891
30
-4E-16
41
1
10
15.6763322260598
20
1.32324763453038
30
-7E-16
41
1
10
15.6460101734961
20
1.27532637680247
30
-4E-16
41
1
10
15.6166364517914
20
1.22646000968834
30
-3E-16
41
1
10
15.5889542597686
20
1.17790209408346
30
-5E-16
41
1
10
15.5629193880191
20
1.12975741281143
30
-8E-16
41
1
10
15.5384809061079
20
1.08212513994018
30
-7E-16
41
1
10
15.5149891120755
20
1.0337689577942
30
-5E-16
41
1
10
15.4924745401298
20
0.984713365728786
30
-9E-16
41
1
10
15.4709668966634
20
0.934984358413009
30
-7E-16
41
1
10
15.4504949682311
20
0.884609427497437
30
-9E-16
41
1
10
15.4316236428249
20
0.835028646813137
30
-6E-16
41
1
10
15.4142785599658
20
0.786333530615689
30
-8E-16
41
1
10
15.3983808716149
20
0.738606447715552
30
-1.1E-15
41
1
10
15.3834375321927
20
0.690435806390463
30
-7E-16
41
1
10
15.369466290985
20
0.641847608768033
30
-7E-16
41
1
10
15.356483905853
20
0.592868722702126
30
-6E-16
41
1
10
15.3445060720788
20
0.543526783102364
30
-1.1E-15
41
1
10
15.3335473814683
20
0.493850159106303
30
-1E-16
41
1
10
15.3236212767075
20
0.443867898522969
30
-7E-16
41
1
10
15.3147400109829
20
0.39360967900953
30
-6E-16
41
1
10
15.3069146092254
20
0.343105737467819
30
-7E-16
41
1
10
15.3001548369747
20
0.292386863249451
30
-7E-16
41
1
10
15.2945772966258
20
0.242452286983498
30
-1.1E-15
41
1
10
15.2901185482672
20
0.193345913076402
30
-6E-16
41
1
10
15.2867142759154
20
0.145104621729218
30
-6E-16
41
1
10
15.2842799125098
20
0.0967818161347846
30
-8E-16
41
1
10
15.2828181980742
20
0.0484044920800638
30
-4E-16
41
1
10
15.282305256608
20
-0.0025332663197459
30
-1E-16
41
1
10
15.2829283057671
20
-0.0560070609784771
30
-8E-16
41
1
10
15.2848850534315
20
-0.111971776520286
30
-7E-16
41
1
10
15.2881430115615
20
-0.167852211843928
30
-1.1E-15
41
1
10
15.292697271883
20
-0.223606351161354
30
-4E-16
41
1
10
15.2985409866341
20
-0.279192644549854
30
-1.1E-15
41
1
10
15.3056653833518
20
-0.334569862812583
30
-5E-16
41
1
10
15.3138261582745
20
-0.388162793331116
30
-6E-16
41
1
10
15.3228915412054
20
-0.439961176594563
30
-3E-16
41
1
10
15.3327366578619
20
-0.489966043902081
30
-1E-16
41
1
10
15.3436153553423
20
-0.539667531243813
30
-9E-16
41
1
10
15.3555142804999
20
-0.589036566633908
30
-4E-16
41
1
10
15.3684189566003
20
-0.638044796868685
30
-6E-16
41
1
10
15.3832430628932
20
-0.689916300533239
30
-2E-16
41
1
10
15.4002084964198
20
-0.744512965916213
30
-3E-16
41
1
10
15.4195389111931
20
-0.801664710722238
30
-4E-16
41
1
10
15.4402076273061
20
-0.858129810533389
30
-6E-16
41
1
10
15.4621800431659
20
-0.913866868639903
30
-7E-16
41
1
10
15.4852810726621
20
-0.968508248324997
30
-4E-16
41
1
10
15.509447840537
20
-1.02203465114378
30
-5E-16
41
1
10
15.5346185822503
20
-1.07443058800601
30
-6E-16
41
1
10
15.5609000005177
20
-1.12598596479651
30
-4E-16
41
1
10
15.5889833069938
20
-1.17802532344082
30
-6E-16
41
1
10
15.6189244037316
20
-1.23043131101911
30
-8E-16
41
1
10
15.6507704361461
20
-1.28308002623149
30
-7E-16
41
1
10
15.6837144540257
20
-1.33462243623964
30
-4E-16
41
1
10
15.7177032017874
20
-1.38503267673987
30
-7E-16
41
1
10
15.7526829596851
20
-1.43428773444029
30
-9E-16
41
1
10
15.7879150879708
20
-1.48145090864277
30
-7E-16
41
1
10
15.823288580963
20
-1.52658438630421
30
-7E-16
41
1
10
15.8587018779035
20
-1.569752136244
30
-4E-16
41
1
10
15.8948095879351
20
-1.61183665806584
30
-4E-16
41
1
10
15.9315668492276
20
-1.65282967696085
30
-5E-16
41
1
10
15.9703721932705
20
-1.6942657373552
30
-4E-16
41
1
10
16.0112608767861
20
-1.7359875228952
30
-4E-16
41
1
10
16.054258649536
20
-1.77783368652703
30
-4E-16
41
1
10
16.0978354146507
20
-1.81830284010812
30
-5E-16
41
1
10
16.1419329957443
20
-1.85739692538098
30
-6E-16
41
1
10
16.1864945619032
20
-1.89512042131282
30
-2E-16
41
1
10
16.2314646810907
20
-1.93148014935859
30
-5E-16
41
1
10
16.276789453481
20
-1.96648516477781
30
-5E-16
41
1
10
16.3233881893649
20
-2.00086340792977
30
-3E-16
41
1
10
16.3712348976114
20
-2.03453099614427
30
-4E-16
41
1
10
16.420298860946
20
-2.06740672723932
30
-4E-16
41
1
10
16.4695324324148
20
-2.09881334229516
30
-4E-16
41
1
10
16.5188813137863
20
-2.12877283685484
30
-5E-16
41
1
10
16.5682936471877
20
-2.15730898524233
30
-4E-16
41
1
10
16.6206265281963
20
-2.18604300035349
30
-4E-16
41
1
10
16.6758547719152
20
-2.21472080827421
30
-4E-16
41
1
10
16.7339412100453
20
-2.24308568055009
30
-4E-16
41
1
10
16.7918408164296
20
-2.26963969137736
30
-4E-16
41
1
10
16.8498755467931
20
-2.29459813491026
30
-3E-16
41
1
10
16.9079848320475
20
-2.31797398407725
30
-3E-16
41
1
10
16.9661101700026
20
-2.33978331080426
30
-3E-16
41
1
10
17.0238014111076
20
-2.35992241212821
30
-3E-16
41
1
10
17.0810094612984
20
-2.37844762407644
30
-3E-16
41
1
10
17.1376895387138
20
-2.39541552231035
30
-3E-16
41
1
10
17.1938009960304
20
-2.41088267834243
30
-3E-16
41
1
10
17.2493071466608
20
-2.42490544333278
30
-2E-16
41
1
10
17.3041750822982
20
-2.43753975270828
30
-3E-16
41
1
10
17.3583754878863
20
-2.44884095226026
30
-2E-16
41
1
10
17.4118824541887
20
-2.45886364420172
30
-2E-16
41
1
10
17.464673292098
20
-2.46766155248108
30
-3E-16
41
1
10
17.516728341723
20
-2.47528740512027
30
-2E-16
41
1
10
17.5680308076971
20
-2.48179283625993
30
-2E-16
41
1
10
17.6202082308206
20
-2.48740487069423
30
-2E-16
41
1
10
17.6731972422155
20
-2.49205731281388
30
-3E-16
41
1
10
17.7269337639341
20
-2.49568765288014
30
-2E-16
41
1
10
17.7797069741093
20
-2.49820817784206
30
-3E-16
41
1
10
17.8315116886027
20
-2.49967847870172
30
-2E-16
41
1
10
17.8657233065165
20
-2.50000003101706
30
-2E-16
41
1
10
17.8826671197922
20
-2.50000000000003
30
-2E-16
0
SPLINE
5
CE
100
AcDbEntity
8
1
62
256
6
ByLayer
370
18
48
1
60
0
100
AcDbSpline
70
4
71
3
72
39
73
35
40
0
40
0
40
0
40
0
40
0.0317921650317249
40
0.0636108608156632
40
0.0954386500973901
40
0.127257728300493
40
0.159050214338849
40
0.191766452133669
40
0.224511397029019
40
0.257265940256451
40
0.290010847066043
40
0.32272705288995
40
0.35451849628213
40
0.386336400659695
40
0.418163120439058
40
0.449980940229856
40
0.481772312619265
40
0.51449037401548
40
0.547237291077944
40
0.579993907472877
40
0.612740891708684
40
0.645459009493541
40
0.674397172643593
40
0.703348593534365
40
0.732300036981721
40
0.761238230904835
40
0.790176300739954
40
0.819127609997032
40
0.848078900921158
40
0.877016945745353
40
0.907754784069591
40
0.938508637384083
40
0.969262351538512
40
1
40
1
40
1
40
1
41
1
10
4.14584333029576
20
2.49999999999997
30
-1E-16
41
1
10
4.15989064348803
20
2.49999564192481
30
0
41
1
10
4.18827311512998
20
2.49992062167848
30
-1E-16
41
1
10
4.23170962382398
20
2.49959097458667
30
0
41
1
10
4.27594013295828
20
2.49909816997602
30
-1E-16
41
1
10
4.32089703008343
20
2.49847684271238
30
1E-16
41
1
10
4.36696853634341
20
2.4977591654569
30
-1E-16
41
1
10
4.41414886280247
20
2.49698238683995
30
-2E-16
41
1
10
4.4624178298122
20
2.49617480630233
30
-1E-16
41
1
10
4.51126560722332
20
2.49537208984815
30
0
41
1
10
4.56060731370661
20
2.49460347790134
30
-1E-16
41
1
10
4.60991344757161
20
2.49390419974768
30
-2E-16
41
1
10
4.65913314319634
20
2.49330046393766
30
-2E-16
41
1
10
4.7082166576953
20
2.49279974440782
30
0
41
1
10
4.75757725047506
20
2.49240654680028
30
-2E-16
41
1
10
4.80713329919845
20
2.49213165437304
30
-1E-16
41
1
10
4.85730854056584
20
2.49198419257527
30
-1E-16
41
1
10
4.90807148865543
20
2.49198028874959
30
0
41
1
10
4.95938285651833
20
2.49211712755765
30
-2E-16
41
1
10
5.0106939484857
20
2.49238704449073
30
0
41
1
10
5.06191466207019
20
2.49278221556788
30
0
41
1
10
5.11101414296998
20
2.49327620937234
30
1E-16
41
1
10
5.157967812983
20
2.49384506717338
30
0
41
1
10
5.20277590985608
20
2.49445686256157
30
-2E-16
41
1
10
5.2473495837358
20
2.49511985686985
30
-3E-16
41
1
10
5.29164142145865
20
2.49581789831982
30
0
41
1
10
5.33561665117438
20
2.49653489855519
30
-1E-16
41
1
10
5.37924323468248
20
2.49724698027586
30
-1E-16
41
1
10
5.42247560415662
20
2.49793049923627
30
-2E-16
41
1
10
5.46615453045514
20
2.49857477222103
30
-2E-16
41
1
10
5.51021276696497
20
2.4991504559304
30
-1E-16
41
1
10
5.55457471147855
20
2.49961507296112
30
-1E-16
41
1
10
5.59831602090861
20
2.49992537735432
30
-2E-16
41
1
10
5.62701725440603
20
2.4999959734177
30
-2E-16
41
1
10
5.64125354170772
20
2.49999999999997
30
0
0
SPLINE
5
CF
100
AcDbEntity
8
1
62
256
6
ByLayer
370
18
48
1
60
0
100
AcDbSpline
70
4
71
3
72
137
73
133
40
0
40
0
40
0
40
0
40
0.0064091686571797
40
0.012944988356389
40
0.0196096956184322
40
0.0264054925630936
40
0.0333345384648629
40
0.0403989406873461
40
0.0476007449879964
40
0.0549419251901778
40
0.0616543594152652
40
0.0684820087637017
40
0.0754261094573046
40
0.0824878218267657
40
0.0896682226320811
40
0.096968297119437
40
0.104388930841102
40
0.111930901270102
40
0.119594869246912
40
0.127381370301057
40
0.135290805896292
40
0.143323434653774
40
0.151479363613336
40
0.159758539598421
40
0.167455900688688
40
0.175256339386358
40
0.183159424515532
40
0.191164590010484
40
0.199271130326172
40
0.207478196179921
40
0.21500904290635
40
0.222620937860492
40
0.230312925396958
40
0.238083944143667
40
0.245932825729934
40
0.253858293833025
40
0.261399804218018
40
0.269006919485904
40
0.276678304264545
40
0.284412537533536
40
0.292208113202255
40
0.300063440951521
40
0.30797684733855
40
0.315946577162893
40
0.323970795088937
40
0.332047587518583
40
0.340029409312377
40
0.34805807142691
40
0.356131553171681
40
0.364247770058685
40
0.372553235212309
40
0.380898452229551
40
0.389281035084918
40
0.397698541912468
40
0.406148478580739
40
0.414476639314854
40
0.422831178574363
40
0.431209607234072
40
0.439609401649668
40
0.448199982024839
40
0.456807405899858
40
0.46542890478683
40
0.474061689080192
40
0.482702952254484
40
0.491349875080037
40
0.499999629851175
40
0.507846010085748
40
0.515690276342576
40
0.523530317248338
40
0.531364026636645
40
0.539189306146601
40
0.547004067815149
40
0.554806236660636
40
0.56337157086608
40
0.571916461084251
40
0.58043822235566
40
0.588934204356129
40
0.597401795383428
40
0.605838426278522
40
0.6142415742686
40
0.622608766717974
40
0.630937584772084
40
0.639225666879153
40
0.647323878208718
40
0.655378455868159
40
0.663387342314919
40
0.671348544907242
40
0.67940350670058
40
0.68740508134004
40
0.695351387835107
40
0.703240624273803
40
0.711071069591253
40
0.718702880701131
40
0.726274926525664
40
0.733785811812987
40
0.741234220703241
40
0.748768946652656
40
0.756236106280549
40
0.763634558964641
40
0.770963250534974
40
0.778221212743801
40
0.78540756249972
40
0.792521500877114
40
0.799970447884768
40
0.807336745983788
40
0.814619746172679
40
0.821818897287819
40
0.828933743438123
40
0.835963921248057
40
0.844140364108674
40
0.852198532007821
40
0.860138290052428
40
0.867959655452659
40
0.875818760078384
40
0.883555077631215
40
0.891169065480879
40
0.898661311475476
40
0.906032525211667
40
0.913283529401904
40
0.920415251384977
40
0.927428714820456
40
0.934325031601997
40
0.941105394019122
40
0.947771067191961
40
0.95432338179867
40
0.960763727110784
40
0.967093544347678
40
0.973930438551099
40
0.980637428870055
40
0.987216598206527
40
0.993670069938906
40
1
40
1
40
1
40
1
41
1
10
-0.102266442379204
20
2.49999999999997
30
0
41
1
10
-0.0985247568280521
20
2.49999997640067
30
-2E-16
41
1
10
-0.0909690522835938
20
2.49967030058149
30
0
41
1
10
-0.0795262180695389
20
2.49816217401019
30
0
41
1
10
-0.0678670018727452
20
2.49557595050869
30
-2E-16
41
1
10
-0.055992377574281
20
2.49184963690455
30
-2E-16
41
1
10
-0.0439045604220283
20
2.48691912609102
30
0
41
1
10
-0.031606326105944
20
2.48071821337171
30
0
41
1
10
-0.019101288347521
20
2.47317869552599
30
-2E-16
41
1
10
-0.0068381116652283
20
2.46454325998058
30
0
41
1
10
0.0051672768771311
20
2.45490602039736
30
0
41
1
10
0.0169000224254177
20
2.44436451045452
30
-4E-16
41
1
10
0.0287818492855401
20
2.43252185535294
30
-2E-16
41
1
10
0.0408068156339141
20
2.41932308631434
30
-2E-16
41
1
10
0.0529682102826001
20
2.40471255556103
30
-2E-16
41
1
10
0.0652585234539771
20
2.38863409103113
30
-4E-16
41
1
10
0.077669403312111
20
2.37103118129739
30
0
41
1
10
0.0901916175024304
20
2.35184717943772
30
-2E-16
41
1
10
0.102815014892151
20
2.33102553036777
30
0
41
1
10
0.1155284898453
20
2.30851002046273
30
-4E-16
41
1
10
0.128319947681987
20
2.28424505415811
30
0
41
1
10
0.141176277872816
20
2.25817594308839
30
-4E-16
41
1
10
0.154083313328861
20
2.23024926419398
30
-2E-16
41
1
10
0.166658574269945
20
2.20125977150394
30
-2E-16
41
1
10
0.178892154904645
20
2.17132774392655
30
-2E-16
41
1
10
0.190775974251206
20
2.14057509026082
30
-4E-16
41
1
10
0.2026483947548
20
2.10810451541833
30
-2E-16
41
1
10
0.214494502307453
20
2.07388340273062
30
-4E-16
41
1
10
0.226298592169179
20
2.03788169294303
30
-4E-16
41
1
10
0.237674158859694
20
2.00126329656519
30
-4E-16
41
1
10
0.248618948155357
20
1.96417801007187
30
0
41
1
10
0.259132826644699
20
1.92677349560408
30
-2E-16
41
1
10
0.269557309777486
20
1.88783262512506
30
-2E-16
41
1
10
0.279878153093232
20
1.84734492597021
30
-7E-16
41
1
10
0.290080677786797
20
1.80530287430999
30
-4E-16
41
1
10
0.29995537849048
20
1.76254396881837
30
-2E-16
41
1
10
0.309499548807786
20
1.7191581847288
30
-4E-16
41
1
10
0.31871181737851
20
1.67523491415454
30
-4E-16
41
1
10
0.327765243058448
20
1.62993121339905
30
-4E-16
41
1
10
0.336646252536095
20
1.5832546784108
30
-4E-16
41
1
10
0.345341122121671
20
1.53521601296948
30
-4E-16
41
1
10
0.353836025389906
20
1.48582910191015
30
-4E-16
41
1
10
0.362117074436544
20
1.43511111212219
30
-4E-16
41
1
10
0.370170366733397
20
1.38308256625604
30
-2E-16
41
1
10
0.377982031471241
20
1.32976742337179
30
-4E-16
41
1
10
0.38549289146582
20
1.27552093937439
30
-2E-16
41
1
10
0.39269536391204
20
1.22039647635908
30
-4E-16
41
1
10
0.399582557974135
20
1.16444884819037
30
-9E-16
41
1
10
0.406184931305262
20
1.10738496887519
30
-4E-16
41
1
10
0.412528733080098
20
1.04888902939891
30
-3E-16
41
1
10
0.418595107251832
20
0.988984061691983
30
-2E-16
41
1
10
0.424365029297587
20
0.927698644797081
30
-2E-16
41
1
10
0.429790751475018
20
0.865440166920021
30
-7E-16
41
1
10
0.434861090848823
20
0.802263340282801
30
-4E-16
41
1
10
0.439537299529086
20
0.73860907738547
30
-4E-16
41
1
10
0.443817395584702
20
0.67455256011473
30
-4E-16
41
1
10
0.447700388914068
20
0.610168556472399
30
-6E-16
41
1
10
0.451203797519401
20
0.545135866722811
30
-8E-16
41
1
10
0.454341483990099
20
0.479071558574463
30
-6E-16
41
1
10
0.457097264860867
20
0.412031884119784
30
-1E-16
41
1
10
0.459455395987362
20
0.344078770326322
30
-8E-16
41
1
10
0.461392133743192
20
0.275735334126023
30
-8E-16
41
1
10
0.462903086687295
20
0.207077866206089
30
-7E-16
41
1
10
0.463984813686636
20
0.138183802881234
30
-7E-16
41
1
10
0.464634843066012
20
0.06913157134545
30
-8E-16
41
1
10
0.464844970011406
20
0.0021403852065444
30
-6E-16
41
1
10
0.464660447117883
20
-0.0627115224161327
30
-4E-16
41
1
10
0.464125489580077
20
-0.125363936681308
30
-4E-16
41
1
10
0.463235014040976
20
-0.187898147971404
30
-4E-16
41
1
10
0.461990696513833
20
-0.250255602098431
30
-6E-16
41
1
10
0.46039487256694
20
-0.312378207854572
30
-4E-16
41
1
10
0.458450523015308
20
-0.374208692351745
30
-6E-16
41
1
10
0.45608519487585
20
-0.437733702027262
30
-6E-16
41
1
10
0.453262179917097
20
-0.502854320441302
30
-6E-16
41
1
10
0.449944952534139
20
-0.56945531261174
30
-4E-16
41
1
10
0.446229306610469
20
-0.635425794903262
30
-1E-16
41
1
10
0.442123357754298
20
-0.700698106570409
30
-6E-16
41
1
10
0.437635976290991
20
-0.765207166981682
30
-3E-16
41
1
10
0.432776743963693
20
-0.828890567596699
30
-3E-16
41
1
10
0.427555903640901
20
-0.89168877436985
30
-2E-16
41
1
10
0.421984307141475
20
-0.953545280413264
30
-7E-16
41
1
10
0.416073363185042
20
-1.01440672702303
30
-7E-16
41
1
10
0.409871818979557
20
-1.07386980231638
30
-7E-16
41
1
10
0.403398782321752
20
-1.13190769417337
30
-4E-16
41
1
10
0.396673163154947
20
-1.18849910182501
30
-2E-16
41
1
10
0.389668046063676
20
-1.24395851240327
30
-9E-16
41
1
10
0.382352409114581
20
-1.29857733777838
30
-2E-16
41
1
10
0.374733328364606
20
-1.35230193056279
30
-2E-16
41
1
10
0.366818553891619
20
-1.40508014853715
30
-4E-16
41
1
10
0.358667966276602
20
-1.45656129678322
30
-2E-16
41
1
10
0.350295457571335
20
-1.50672285440385
30
-4E-16
41
1
10
0.341765409490893
20
-1.55525848752046
30
-2E-16
41
1
10
0.333096238168722
20
-1.60217700217031
30
-2E-16
41
1
10
0.324305666853569
20
-1.64749123262854
30
-2E-16
41
1
10
0.315353830261991
20
-1.69147804859171
30
-4E-16
41
1
10
0.306192430675058
20
-1.734417687156
30
-4E-16
41
1
10
0.296830110413186
20
-1.77627864427292
30
-2E-16
41
1
10
0.287275868526827
20
-1.81703130009147
30
-2E-16
41
1
10
0.277606279563795
20
-1.85639290503853
30
-4E-16
41
1
10
0.267833972693314
20
-1.89436788694378
30
-2E-16
41
1
10
0.257971261526478
20
-1.93096310041359
30
-4E-16
41
1
10
0.24803011787964
20
-1.96618769241679
30
-4E-16
41
1
10
0.237830778725318
20
-2.00070054026041
30
-2E-16
41
1
10
0.227377805871654
20
-2.03443293727351
30
-4E-16
41
1
10
0.216676737166932
20
-2.06731696162611
30
-2E-16
41
1
10
0.205938641447069
20
-2.09873143617472
30
-2E-16
41
1
10
0.195175372179214
20
-2.12869834433865
30
-2E-16
41
1
10
0.184398243526306
20
-2.15724146727388
30
0
41
1
10
0.172988779889355
20
-2.18597066267153
30
-2E-16
41
1
10
0.160947576566048
20
-2.21464600470789
30
0
41
1
10
0.148277981375841
20
-2.2430199484298
30
-2E-16
41
1
10
0.135649153106975
20
-2.26958224821693
30
-2E-16
41
1
10
0.122991418906199
20
-2.29454721122652
30
-2E-16
41
1
10
0.110317386863645
20
-2.31792922696864
30
-2E-16
41
1
10
0.0976393581277115
20
-2.33974502983455
30
-2E-16
41
1
10
0.0850560661913811
20
-2.35988991329457
30
-4E-16
41
1
10
0.072578224001635
20
-2.37842025826093
30
-2E-16
41
1
10
0.0602156018363118
20
-2.3953926873893
30
-2E-16
41
1
10
0.0479770672611224
20
-2.41086381805037
30
0
41
1
10
0.0358706229092363
20
-2.42489004629483
30
0
41
1
10
0.0239034464890402
20
-2.43752735090072
30
-2E-16
41
1
10
0.0120819312288418
20
-2.44883111922259
30
0
41
1
10
0.0004117269517288
20
-2.45885599300906
30
0
41
1
10
-0.0111022195873041
20
-2.4676557336208
30
0
41
1
10
-0.0224556219925383
20
-2.47528310411436
30
-2E-16
41
1
10
-0.0336448217548622
20
-2.48178977184962
30
-2E-16
41
1
10
-0.045024302043128
20
-2.48740258593438
30
-2E-16
41
1
10
-0.0565809429160176
20
-2.49205580283483
30
-2E-16
41
1
10
-0.0683010345290853
20
-2.49568686132815
30
0
41
1
10
-0.0798109039589505
20
-2.49820784882796
30
-2E-16
41
1
10
-0.0911096252495298
20
-2.49967844149081
30
0
41
1
10
-0.0985710290482373
20
-2.49999997754861
30
-2E-16
41
1
10
-0.102266442379204
20
-2.50000000000003
30
0
0
SPLINE
5
D0
100
AcDbEntity
8
1
62
256
6
ByLayer
370
18
48
1
60
0
100
AcDbSpline
70
4
71
3
72
122
73
118
40
0
40
0
40
0
40
0
40
0.0132574563182638
40
0.0265164081790425
40
0.0397749797293876
40
0.0530319173813052
40
0.0663533324904355
40
0.0796776285239864
40
0.0930008361252057
40
0.10632076666536
40
0.115869346153475
40
0.125418800018999
40
0.134966891764664
40
0.144520546207792
40
0.154075754294152
40
0.163628299441443
40
0.170992964874121
40
0.178361459091359
40
0.185728477133117
40
0.193091128479052
40
0.198551551089482
40
0.204015111194082
40
0.20947783286268
40
0.214937111462283
40
0.22052905459799
40
0.226126503887731
40
0.231723006316857
40
0.237313656967579
40
0.242789084516854
40
0.248270829487995
40
0.253752708760173
40
0.259228319657704
40
0.264899918238379
40
0.270577040058726
40
0.276255420103852
40
0.281928736046778
40
0.288392155665982
40
0.29486023244172
40
0.301332150384113
40
0.307804443615473
40
0.314271402349469
40
0.322327014544836
40
0.330384615475636
40
0.338443095387933
40
0.346499906466524
40
0.357805412121268
40
0.369112357639193
40
0.380417619733462
40
0.389821219030564
40
0.399227432489392
40
0.408633006629008
40
0.418035733874029
40
0.427446114846536
40
0.436860524975345
40
0.446274329574655
40
0.455683884461885
40
0.465562985509341
40
0.475448003107983
40
0.485332671948898
40
0.495211297129748
40
0.504246942107919
40
0.513287321304523
40
0.522327836211293
40
0.531363666345234
40
0.540396436409493
40
0.5494333437013
40
0.558470692159339
40
0.567504064084098
40
0.577105841824275
40
0.586711221131947
40
0.596317324268541
40
0.605920089404823
40
0.616984380071296
40
0.628050611630417
40
0.639115460887029
40
0.650178761928815
40
0.661243357493493
40
0.672305950479369
40
0.680769681860197
40
0.689237496653569
40
0.697702506822344
40
0.706162411638563
40
0.711859475626719
40
0.71756020406088
40
0.723259656606805
40
0.728954979557059
40
0.734811998728393
40
0.740675927396505
40
0.746538881047255
40
0.752394569040366
40
0.758107226794802
40
0.763826856867213
40
0.769547122562749
40
0.775260648116181
40
0.781178781307347
40
0.787102351787269
40
0.793027210437428
40
0.798947101768268
40
0.806142949864253
40
0.813345026570096
40
0.820551524759356
40
0.827757954900479
40
0.834957457601692
40
0.844159107857317
40
0.853364596738747
40
0.862571484066158
40
0.871775042036253
40
0.882401563270983
40
0.893031609599135
40
0.90366479271063
40
0.914299535105996
40
0.924933180498003
40
0.9355621020398
40
0.951669442128018
40
0.967779960071279
40
0.983891401025409
40
1
40
1
40
1
40
1
41
1
10
16.4452825217054
20
-2.00000000000003
30
0
41
1
10
16.465310843323
20
-1.99172414954647
30
0
41
1
10
16.5052224454416
20
-1.97485896339154
30
2E-16
41
1
10
16.5646720882066
20
-1.94864861401683
30
0
41
1
10
16.6236317800179
20
-1.92145010379063
30
1E-16
41
1
10
16.6821427732243
20
-1.89316839494271
30
1E-16
41
1
10
16.7401534561938
20
-1.86374805824721
30
3E-16
41
1
10
16.7975636448393
20
-1.83308530349798
30
-2E-16
41
1
10
16.8541601969195
20
-1.80112419060215
30
6E-16
41
1
10
16.9045686541043
20
-1.77091705947249
30
1E-16
41
1
10
16.9489778488202
20
-1.74281542967092
30
1E-16
41
1
10
16.9875865366003
20
-1.7171418050408
30
0
41
1
10
17.0254817118336
20
-1.6905595748679
30
2E-16
41
1
10
17.0625734038326
20
-1.66300909071522
30
0
41
1
10
17.0987192006943
20
-1.63439669156224
30
-3E-16
41
1
10
17.1310815053346
20
-1.60690705698746
30
2E-16
41
1
10
17.1598132989783
20
-1.58076461711857
30
2E-16
41
1
10
17.1850885065974
20
-1.55618382996938
30
-2E-16
41
1
10
17.2093647196673
20
-1.53075941680438
30
2E-16
41
1
10
17.2305137178484
20
-1.50671419940721
30
-1E-16
41
1
10
17.2487442989313
20
-1.48426167408845
30
4E-16
41
1
10
17.2643000102426
20
-1.46360605932799
30
4E-16
41
1
10
17.278998180534
20
-1.44240306303802
30
2E-16
41
1
10
17.2928684824221
20
-1.42047218122037
30
-1E-16
41
1
10
17.3057890091782
20
-1.39777914807765
30
-1E-16
41
1
10
17.3176530511733
20
-1.37431555554051
30
-2E-16
41
1
10
17.3282798123342
20
-1.35029050704513
30
3E-16
41
1
10
17.3375212516864
20
-1.32590477981227
30
2E-16
41
1
10
17.3453168422824
20
-1.30118837550429
30
3E-16
41
1
10
17.3516983555082
20
-1.27620192913574
30
3E-16
41
1
10
17.3567194546258
20
-1.25083925047355
30
7E-16
41
1
10
17.3604141494423
20
-1.22485694891078
30
2E-16
41
1
10
17.3627238365626
20
-1.19828908902692
30
1E-16
41
1
10
17.3636933459312
20
-1.17118101617116
30
1E-16
41
1
10
17.3633853855863
20
-1.14390429412817
30
-1E-16
41
1
10
17.3618141975463
20
-1.11524137965384
30
3E-16
41
1
10
17.3588955133538
20
-1.08520661410528
30
0
41
1
10
17.3546149571477
20
-1.05380954341475
30
1E-16
41
1
10
17.3492490798234
20
-1.02234823826455
30
-1E-16
41
1
10
17.3429583257972
20
-0.990849422928772
30
3E-16
41
1
10
17.3353157736119
20
-0.956737934305238
30
1E-16
41
1
10
17.3262844852675
20
-0.919985346437992
30
0
41
1
10
17.3158606650927
20
-0.880550252911364
30
2E-16
41
1
10
17.3048743928749
20
-0.840996282665135
30
2E-16
41
1
10
17.2919974860661
20
-0.795958950183062
30
4E-16
41
1
10
17.2773222360493
20
-0.745304290423305
30
3E-16
41
1
10
17.2610594672478
20
-0.688864621662052
30
2E-16
41
1
10
17.2459890050418
20
-0.635136128009799
30
2E-16
41
1
10
17.2323191811102
20
-0.584164360036948
30
7E-16
41
1
10
17.2200575692578
20
-0.536030183916622
30
4E-16
41
1
10
17.2084636966377
20
-0.487514668056412
30
3E-16
41
1
10
17.1976582295
20
-0.438608966949284
30
1E-16
41
1
10
17.1877639753151
20
-0.389310576085319
30
3E-16
41
1
10
17.1788531636866
20
-0.339638929191196
30
2E-16
41
1
10
17.1710063386127
20
-0.28964242136162
30
2E-16
41
1
10
17.1641904716462
20
-0.23852463285751
30
4E-16
41
1
10
17.1585593940263
20
-0.18629610679437
30
4E-16
41
1
10
17.154220540354
20
-0.132993173442801
30
2E-16
41
1
10
17.1512999571616
20
-0.0795275855577153
30
1E-16
41
1
10
17.1498782226027
20
-0.0274957535435354
30
-2E-16
41
1
10
17.1498486537351
20
0.0230400613650916
30
6E-16
41
1
10
17.1510508989479
20
0.0720360705542443
30
4E-16
41
1
10
17.1534682885172
20
0.120956812194169
30
-1E-16
41
1
10
17.1570855941883
20
0.169738646403699
30
2E-16
41
1
10
17.1618901267668
20
0.218339487635286
30
4E-16
41
1
10
17.1678238550376
20
0.266727161671905
30
-2E-16
41
1
10
17.174831527962
20
0.31486283584362
30
3E-16
41
1
10
17.1830264274638
20
0.363708720146418
30
1E-16
41
1
10
17.1924321425407
20
0.413216019101437
30
1E-16
41
1
10
17.2030116892808
20
0.463347586505458
30
4E-16
41
1
10
17.214462732181
20
0.513087787701907
30
1E-16
41
1
10
17.227293992061
20
0.564924835579975
30
-1E-16
41
1
10
17.2415205406465
20
0.618783864381283
30
4E-16
41
1
10
17.257014449819
20
0.674615887663533
30
-2E-16
41
1
10
17.2728616769952
20
0.729975116936099
30
3E-16
41
1
10
17.2888195907636
20
0.784899672989068
30
2E-16
41
1
10
17.3044946830708
20
0.839465608150806
30
2E-16
41
1
10
17.3183041645702
20
0.889500721432163
30
-2E-16
41
1
10
17.3301244538707
20
0.935123088818095
30
-1E-16
41
1
10
17.3399167481087
20
0.976421720955915
30
4E-16
41
1
10
17.3484728884222
20
1.01764649676129
30
1E-16
41
1
10
17.3547276634227
20
1.05431394281192
30
0
41
1
10
17.3589899948649
20
1.08643715517662
30
-1E-16
41
1
10
17.3616869901953
20
1.11403760872014
30
3E-16
41
1
10
17.3633052265406
20
1.14155219165436
30
1E-16
41
1
10
17.3637404125264
20
1.16919943062335
30
4E-16
41
1
10
17.362815698752
20
1.19693885004562
30
4E-16
41
1
10
17.360421956656
20
1.22471116095591
30
-2E-16
41
1
10
17.3565219386144
20
1.25218393381348
30
3E-16
41
1
10
17.3511037689776
20
1.27905363732168
30
1E-16
41
1
10
17.3441533759553
20
1.30526182628407
30
1E-16
41
1
10
17.3357824098757
20
1.33078334610857
30
1E-16
41
1
10
17.3259965994435
20
1.35577974578119
30
1E-16
41
1
10
17.3147168323689
20
1.38048807188562
30
5E-16
41
1
10
17.3019451050731
20
1.40485304005192
30
1E-16
41
1
10
17.2877530973049
20
1.42885564448338
30
2E-16
41
1
10
17.2723997228028
20
1.4522030615918
30
1E-16
41
1
10
17.2548102993226
20
1.47652158048164
30
2E-16
41
1
10
17.2348292718082
20
1.50166648076785
30
-1E-16
41
1
10
17.2123397896374
20
1.52750152671267
30
-1E-16
41
1
10
17.1887337309973
20
1.55248403634266
30
2E-16
41
1
10
17.1641588031277
20
1.57664682767352
30
-1E-16
41
1
10
17.1363871275789
20
1.60220628839569
30
1E-16
41
1
10
17.1052674590882
20
1.62897900513597
30
3E-16
41
1
10
17.0706519961428
20
1.65676795152117
30
3E-16
41
1
10
17.0351147094365
20
1.68355337823183
30
1E-16
41
1
10
16.9969142854802
20
1.71074417069413
30
-1E-16
41
1
10
16.9560446833192
20
1.73827781766032
30
4E-16
41
1
10
16.9124623695088
20
1.76605758046711
30
4E-16
41
1
10
16.8681587701669
20
1.79285696744207
30
-2E-16
41
1
10
16.8232223535759
20
1.8187360127398
30
3E-16
41
1
10
16.7777398016208
20
1.84375292222032
30
-1E-16
41
1
10
16.7238950674204
20
1.87213866628744
30
2E-16
41
1
10
16.6614474287301
20
1.90344672432917
30
1E-16
41
1
10
16.5901464726025
20
1.9371617566751
30
-1E-16
41
1
10
16.5180817481204
20
1.96937623378476
30
1E-16
41
1
10
16.4696220481794
20
1.98994866737475
30
2E-16
41
1
10
16.4452825217054
20
1.99999999999997
30
0
0
SPLINE
5
D1
100
AcDbEntity
8
1
62
256
6
ByLayer
370
18
48
1
60
0
100
AcDbSpline
70
4
71
3
72
32
73
28
40
0
40
0
40
0
40
0
40
0.0399059778597435
40
0.0799483580586945
40
0.120102838099366
40
0.160344675893463
40
0.200648767043423
40
0.240989725451363
40
0.281341966769973
40
0.321679794172012
40
0.363894927383457
40
0.406036514763008
40
0.448075249269347
40
0.489982125901011
40
0.531728553295241
40
0.573286463495169
40
0.614628419029276
40
0.655727716468844
40
0.696558485661233
40
0.737095783878897
40
0.777315684175248
40
0.817195357297915
40
0.854465176909135
40
0.891396135789814
40
0.927972114353851
40
0.964178056060421
40
1
40
1
40
1
40
1
41
1
10
17.8826671197922
20
-2.50000000000003
30
-2E-16
41
1
10
17.8628294271855
20
-2.50000007960458
30
-2E-16
41
1
10
17.823093329086
20
-2.49948493612911
30
-2E-16
41
1
10
17.7634123025447
20
-2.49716075514065
30
-1E-16
41
1
10
17.7036031650625
20
-2.49326886959713
30
-2E-16
41
1
10
17.6437200272769
20
-2.48779767481199
30
-2E-16
41
1
10
17.583820311362
20
-2.48073835840479
30
-1E-16
41
1
10
17.5239614509343
20
-2.47208509443844
30
-2E-16
41
1
10
17.4642015374575
20
-2.46183506462683
30
-1E-16
41
1
10
17.4036543941542
20
-2.4498007797105
30
-1E-16
41
1
10
17.3423909651892
20
-2.43589611016451
30
-1E-16
41
1
10
17.2804876588526
20
-2.42003625725602
30
0
41
1
10
17.2189552849168
20
-2.40244669823708
30
-1E-16
41
1
10
17.157860190679
20
-2.38314239756604
30
1E-16
41
1
10
17.0972679208684
20
-2.3621419988617
30
-2E-16
41
1
10
17.0372430050854
20
-2.33946777046269
30
0
41
1
10
16.9778487236206
20
-2.31514552553039
30
0
41
1
10
16.9191468863098
20
-2.28920452471635
30
-1E-16
41
1
10
16.8611976217854
20
-2.26167736176167
30
1E-16
41
1
10
16.8040591631035
20
-2.23259982723273
30
1E-16
41
1
10
16.7477876969722
20
-2.20201077461063
30
-1E-16
41
1
10
16.6934772382348
20
-2.17055438671387
30
1E-16
41
1
10
16.6411289957203
20
-2.13837479896369
30
-1E-16
41
1
10
16.5907360366106
20
-2.1056129071438
30
-1E-16
41
1
10
16.5412883060609
20
-2.07166403620961
30
-1E-16
41
1
10
16.492819096959
20
-2.03657267966127
30
2E-16
41
1
10
16.4610165570358
20
-2.01231013200777
30
0
41
1
10
16.4452825217054
20
-2.00000000000003
30
0
0
SPLINE
5
D2
100
AcDbEntity
8
1
62
256
6
ByLayer
370
18
48
1
60
0
100
AcDbSpline
70
4
71
3
72
42
73
38
40
0
40
0
40
0
40
0
40
0.0288274036521281
40
0.0576772882702688
40
0.0865342937733829
40
0.115383393201925
40
0.144210137795814
40
0.173834838796884
40
0.203485579490595
40
0.23314436282056
40
0.262793791999747
40
0.292417392057923
40
0.321260343149097
40
0.350129072528912
40
0.379005860379992
40
0.407873477375089
40
0.436715494667476
40
0.466474206302994
40
0.496262417152039
40
0.526060322795763
40
0.55584815321971
40
0.585606545473062
40
0.613183514786823
40
0.640783529047396
40
0.66839167044826
40
0.695992454038789
40
0.723570069137674
40
0.751931457302086
40
0.780315790048586
40
0.808708824345981
40
0.837095079952401
40
0.865458082151483
40
0.892354291585406
40
0.919267338012475
40
0.946187073364432
40
0.973102115602371
40
1
40
1
40
1
40
1
41
1
10
5.64125354170772
20
2.49999999999997
30
0
41
1
10
5.65520391728042
20
2.50000418223597
30
0
41
1
10
5.6828699546111
20
2.4999242564022
30
-1E-16
41
1
10
5.72365870742177
20
2.499556876976
30
-2E-16
41
1
10
5.76368366312335
20
2.49888899957141
30
-1E-16
41
1
10
5.80288664369845
20
2.4978862480149
30
1E-16
41
1
10
5.8415742220955
20
2.49649653290455
30
-1E-16
41
1
10
5.87968524426737
20
2.49466448250494
30
0
41
1
10
5.9171645298254
20
2.49233301296283
30
-1E-16
41
1
10
5.95362312992146
20
2.48947737364115
30
-1E-16
41
1
10
5.98899749250257
20
2.48605632086197
30
-1E-16
41
1
10
6.02293966295007
20
2.4820629490449
30
0
41
1
10
6.05544879907397
20
2.47746899766283
30
0
41
1
10
6.08654520729291
20
2.47225950845718
30
-2E-16
41
1
10
6.116486172746
20
2.46636177547958
30
1E-16
41
1
10
6.14522175456102
20
2.45974554565093
30
1E-16
41
1
10
6.17300667411496
20
2.4523000565145
30
0
41
1
10
6.19976572100494
20
2.44395394126673
30
0
41
1
10
6.22544537014864
20
2.43465275259562
30
1E-16
41
1
10
6.24974745869737
20
2.42446339520458
30
2E-16
41
1
10
6.27263602339409
20
2.41337002785441
30
1E-16
41
1
10
6.29356233747106
20
2.4016440104179
30
0
41
1
10
6.31263058622194
20
2.38933546042648
30
1E-16
41
1
10
6.32997351404443
20
2.37651677571517
30
2E-16
41
1
10
6.3460805294507
20
2.36287078817006
30
0
41
1
10
6.36094371258709
20
2.34840180423518
30
2E-16
41
1
10
6.37468994400918
20
2.33296207403198
30
-1E-16
41
1
10
6.38728023886294
20
2.31651124839824
30
2E-16
41
1
10
6.39870008152691
20
2.29902971329627
30
1E-16
41
1
10
6.40885045614564
20
2.28068357524698
30
2E-16
41
1
10
6.41774461339309
20
2.261493189356
30
-1E-16
41
1
10
6.42526652769174
20
2.24181382283662
30
1E-16
41
1
10
6.43150796960047
20
2.22169728170272
30
2E-16
41
1
10
6.43657297100904
20
2.20120570620255
30
2E-16
41
1
10
6.44059930723911
20
2.17999855181597
30
0
41
1
10
6.44360915992929
20
2.15809943692941
30
4E-16
41
1
10
6.44496106209753
20
2.14305116605791
30
1E-16
41
1
10
6.44547144955321
20
2.13541565040626
30
-2E-16
0
SPLINE
5
D3
100
AcDbEntity
8
1
62
256
6
ByLayer
370
18
48
1
60
0
100
AcDbSpline
70
4
71
3
72
42
73
38
40
0
40
0
40
0
40
0
40
0.0287451535340188
40
0.0575113815609517
40
0.0862833044769385
40
0.115046940622779
40
0.143789918742985
40
0.173303800655432
40
0.202844143267324
40
0.232392215905626
40
0.261930393818741
40
0.291442458560277
40
0.32021531000971
40
0.349014611981278
40
0.377822387651377
40
0.406620942727483
40
0.435393167173896
40
0.465096465310228
40
0.494828932492314
40
0.524571473451313
40
0.554304489592311
40
0.584008248598616
40
0.611359360721267
40
0.638732140287803
40
0.666112674275753
40
0.693486389017249
40
0.720838286103686
40
0.748927268623625
40
0.777038169976263
40
0.805156970147411
40
0.833268918970072
40
0.861358780701422
40
0.889073473396952
40
0.916808012108153
40
0.944549548934007
40
0.972284750751493
40
1
40
1
40
1
40
1
41
1
10
3.44798252252465
20
2.13541565040623
30
2E-16
41
1
10
3.4474308537635
20
2.14357574133248
30
0
41
1
10
3.44669438336619
20
2.15964141220096
30
0
41
1
10
3.44667683723321
20
2.18296993886634
30
-1E-16
41
1
10
3.44779258962261
20
2.20550621197583
30
2E-16
41
1
10
3.45007316383042
20
2.22722157245567
30
0
41
1
10
3.45358564627429
20
2.24828003922754
30
2E-16
41
1
10
3.45841175645153
20
2.26863716651125
30
1E-16
41
1
10
3.46461520847301
20
2.28826479381767
30
0
41
1
10
3.47217528483747
20
2.3069738595676
30
-1E-16
41
1
10
3.48111229223588
20
2.32474273417755
30
1E-16
41
1
10
3.49136430024838
20
2.34141730488571
30
1E-16
41
1
10
3.50292391604741
20
2.35701665108787
30
-2E-16
41
1
10
3.51575434480188
20
2.3715844812906
30
1E-16
41
1
10
3.52995438749182
20
2.38525861929495
30
1E-16
41
1
10
3.54551941164124
20
2.39803663320957
30
1E-16
41
1
10
3.56263530683568
20
2.41004980876721
30
2E-16
41
1
10
3.58137182402648
20
2.42127219374439
30
1E-16
41
1
10
3.6017669555456
20
2.43170299037111
30
-1E-16
41
1
10
3.62360170944229
20
2.44124802505343
30
1E-16
41
1
10
3.64684481424138
20
2.44992599240541
30
0
41
1
10
3.67082922129881
20
2.45755214671043
30
1E-16
41
1
10
3.6954244345874
20
2.46422691664875
30
1E-16
41
1
10
3.72048837202341
20
2.47005870152552
30
1E-16
41
1
10
3.7466783649568
20
2.47526217091459
30
0
41
1
10
3.7739556681228
20
2.47986430894926
30
-1E-16
41
1
10
3.80254916672297
20
2.48392933039822
30
-1E-16
41
1
10
3.8324812127962
20
2.48747048889579
30
0
41
1
10
3.86375654045808
20
2.49051126976086
30
1E-16
41
1
10
3.89607375250332
20
2.49305666037778
30
1E-16
41
1
10
3.92938261854479
20
2.49514203026412
30
0
41
1
10
3.9634960987288
20
2.49679546676932
30
0
41
1
10
3.99838046427026
20
2.49806005770834
30
0
41
1
10
4.03399382837156
20
2.49897860084736
30
0
41
1
10
4.07045327393888
20
2.49959176849012
30
-1E-16
41
1
10
4.10770985341397
20
2.49993006045483
30
-2E-16
41
1
10
4.13304918037084
20
2.50000371502367
30
-2E-16
41
1
10
4.14584333029576
20
2.49999999999997
30
-1E-16
0
SPLINE
5
D4
100
AcDbEntity
8
1
62
256
6
ByLayer
370
18
48
1
60
0
100
AcDbSpline
70
4
71
3
72
32
73
28
40
0
40
0
40
0
40
0
40
0.039905977859744
40
0.0799483580586948
40
0.120102838099366
40
0.160344675893462
40
0.200648767043421
40
0.240989725451363
40
0.281341966769971
40
0.32167979417201
40
0.363894927383456
40
0.406036514763006
40
0.448075249269345
40
0.48998212590101
40
0.531728553295242
40
0.573286463495168
40
0.614628419029276
40
0.655727716468844
40
0.696558485661231
40
0.737095783878897
40
0.777315684175247
40
0.817195357297915
40
0.854465176909133
40
0.891396135789815
40
0.92797211435385
40
0.964178056060421
40
1
40
1
40
1
40
1
41
1
10
17.8826671197922
20
2.49999999999997
30
-2E-16
41
1
10
17.9041984970959
20
2.50000007960451
30
-2E-16
41
1
10
17.9473271480796
20
2.49948493612905
30
-2E-16
41
1
10
18.0121035676869
20
2.49716075514059
30
-1E-16
41
1
10
18.077019035976
20
2.49326886959707
30
-1E-16
41
1
10
18.1420148224999
20
2.48779767481193
30
-2E-16
41
1
10
18.2070286025456
20
2.48073835840472
30
-1E-16
41
1
10
18.2719980389811
20
2.47208509443837
30
-1E-16
41
1
10
18.3368600806618
20
2.46183506462676
30
-1E-16
41
1
10
18.40257656357
20
2.44980077971043
30
-1E-16
41
1
10
18.4690704865336
20
2.43589611016444
30
-1E-16
41
1
10
18.536258917744
20
2.42003625725596
30
0
41
1
10
18.6030447474203
20
2.40244669823702
30
0
41
1
10
18.6693559637256
20
2.38314239756598
30
-1E-16
41
1
10
18.7351214259114
20
2.36214199886163
30
0
41
1
10
18.8002710950271
20
2.33946777046263
30
1E-16
41
1
10
18.8647362880944
20
2.31514552553032
30
2E-16
41
1
10
18.9284499181328
20
2.28920452471628
30
2E-16
41
1
10
18.9913467229016
20
2.2616773617616
30
0
41
1
10
19.0533634975751
20
2.23259982723267
30
0
41
1
10
19.1144392583869
20
2.20201077461056
30
1E-16
41
1
10
19.1733865866773
20
2.17055438671381
30
1E-16
41
1
10
19.2302041704111
20
2.13837479896363
30
0
41
1
10
19.2848995343101
20
2.10561290714374
30
0
41
1
10
19.3385689687743
20
2.07166403620954
30
-1E-16
41
1
10
19.3911763384657
20
2.03657267966121
30
2E-16
41
1
10
19.4256940870708
20
2.0123101320077
30
2E-16
41
1
10
19.442771448734
20
1.99999999999997
30
1E-16
0
SPLINE
5
D5
100
AcDbEntity
8
1
62
256
6
ByLayer
370
18
48
1
60
0
100
AcDbSpline
70
4
71
3
72
33
73
29
40
0
40
0
40
0
40
0
40
0.0324780377057686
40
0.0652730785431878
40
0.0983748171727551
40
0.131772202671051
40
0.165453457676736
40
0.198797515454284
40
0.232390895897715
40
0.266220533072657
40
0.300272785762894
40
0.341081525158126
40
0.382160770584676
40
0.423484720873723
40
0.465026734052869
40
0.506759426209842
40
0.548654774741207
40
0.590684225186886
40
0.632818800818334
40
0.675029214125607
40
0.717285979336675
40
0.759559525101198
40
0.801820306480718
40
0.841628134519695
40
0.881374017060903
40
0.921033773847916
40
0.960583572284789
40
1
40
1
40
1
40
1
41
1
10
19.442771448734
20
-2.00000000000003
30
1E-16
41
1
10
19.4272888640104
20
-2.01116125550686
30
-1E-16
41
1
10
19.3960237219875
20
-2.03318992595613
30
0
41
1
10
19.3484404864049
20
-2.06516455765462
30
2E-16
41
1
10
19.2999771102573
20
-2.09620570750575
30
-2E-16
41
1
10
19.2506601555047
20
-2.12627987241244
30
0
41
1
10
19.2008233374003
20
-2.15518108172392
30
-1E-16
41
1
10
19.1505115509283
20
-2.18290311475367
30
1E-16
41
1
10
19.0997699989335
20
-2.20944152100276
30
0
41
1
10
19.0483327795811
20
-2.23493547830036
30
1E-16
41
1
10
18.9928951275379
20
-2.26092625430342
30
2E-16
41
1
10
18.9333811125394
20
-2.28711610424733
30
-1E-16
41
1
10
18.8697288486905
20
-2.31318189901746
30
0
41
1
10
18.805319821074
20
-2.33763138011447
30
0
41
1
10
18.74022104208
20
-2.36043499670929
30
1E-16
41
1
10
18.6745010630464
20
-2.38156667026919
30
1E-16
41
1
10
18.6082298294812
20
-2.40100385145918
30
-1E-16
41
1
10
18.5414784077478
20
-2.41872761159485
30
-1E-16
41
1
10
18.4743187379169
20
-2.43472270051944
30
-1E-16
41
1
10
18.4068233769997
20
-2.4489775883408
30
-1E-16
41
1
10
18.3390652311906
20
-2.46148448746761
30
-2E-16
41
1
10
18.2711173302673
20
-2.47223935036354
30
-1E-16
41
1
10
18.2043470062323
20
-2.48107064129648
30
-2E-16
41
1
10
18.1388292788283
20
-2.48809625672414
30
-1E-16
41
1
10
18.0746311837934
20
-2.49343343483898
30
-2E-16
41
1
10
18.0105136619258
20
-2.49723009364449
30
-2E-16
41
1
10
17.9465332685155
20
-2.49949750390997
30
-2E-16
41
1
10
17.9039343224738
20
-2.5000000757668
30
-1E-16
41
1
10
17.8826671197922
20
-2.50000000000003
30
-2E-16
0
SPLINE
5
D6
100
AcDbEntity
8
1
62
256
6
ByLayer
370
18
48
1
60
0
100
AcDbSpline
70
4
71
3
72
42
73
38
40
0
40
0
40
0
40
0
40
0.0287451535340156
40
0.057511381560945
40
0.0862833044769289
40
0.115046940622767
40
0.14378991874297
40
0.173303800655413
40
0.202844143267301
40
0.2323922159056
40
0.261930393818712
40
0.291442458560245
40
0.320215310009675
40
0.349014611981239
40
0.377822387651336
40
0.406620942727438
40
0.435393167173847
40
0.46509646531018
40
0.494828932492257
40
0.524571473451254
40
0.55430448959225
40
0.58400824859855
40
0.611359360721203
40
0.638732140287731
40
0.666112674275679
40
0.693486389017171
40
0.720838286103605
40
0.748927268623545
40
0.777038169976177
40
0.805156970147327
40
0.833268918969983
40
0.861358780701331
40
0.889073473396883
40
0.916808012108098
40
0.944549548933972
40
0.972284750751474
40
1
40
1
40
1
40
1
41
1
10
6.44547144955322
20
-2.13541565040619
30
3E-16
41
1
10
6.4449263327351
20
-2.14357574133244
30
2E-16
41
1
10
6.44345704296684
20
-2.15964141220092
30
2E-16
41
1
10
6.44012955307199
20
-2.1829699388663
30
2E-16
41
1
10
6.43563705139244
20
-2.2055062119758
30
2E-16
41
1
10
6.42995284145848
20
-2.22722157245564
30
1E-16
41
1
10
6.42298326461431
20
-2.24828003922752
30
0
41
1
10
6.41464842820766
20
-2.26863716651124
30
1E-16
41
1
10
6.40488789259414
20
-2.28826479381766
30
-2E-16
41
1
10
6.39375864435836
20
-2.3069738595676
30
2E-16
41
1
10
6.38124768940365
20
-2.32474273417755
30
1E-16
41
1
10
6.36745242535072
20
-2.34141730488571
30
1E-16
41
1
10
6.35238429181586
20
-2.35701665108788
30
1E-16
41
1
10
6.33608394332465
20
-2.37158448129061
30
3E-16
41
1
10
6.31842852133239
20
-2.38525861929497
30
-1E-16
41
1
10
6.29943019216324
20
-2.39803663320958
30
0
41
1
10
6.27887217861366
20
-2.41004980876723
30
1E-16
41
1
10
6.25669020615787
20
-2.42127219374441
30
2E-16
41
1
10
6.23285183981906
20
-2.43170299037114
30
0
41
1
10
6.20761840460324
20
-2.44124802505346
30
1E-16
41
1
10
6.18102902652285
20
-2.44992599240545
30
0
41
1
10
6.15384357242265
20
-2.45755214671047
30
0
41
1
10
6.12619160454186
20
-2.46422691664879
30
2E-16
41
1
10
6.09821184611771
20
-2.47005870152556
30
0
41
1
10
6.06916566421083
20
-2.47526217091464
30
-1E-16
41
1
10
6.03909689970365
20
-2.47986430894931
30
0
41
1
10
6.00775610398906
20
-2.48392933039827
30
0
41
1
10
5.97512598365338
20
-2.48747048889584
30
-1E-16
41
1
10
5.94120596604673
20
-2.49051126976091
30
0
41
1
10
5.90632438699624
20
-2.49305666037783
30
0
41
1
10
5.87053573830493
20
-2.49514203026417
30
0
41
1
10
5.8340409187986
20
-2.49679546676938
30
-2E-16
41
1
10
5.79687463027487
20
-2.4980600577084
30
0
41
1
10
5.75907835053001
20
-2.49897860084742
30
-1E-16
41
1
10
5.72052699259708
20
-2.49959176849018
30
-1E-16
41
1
10
5.6812722901218
20
-2.49993006045489
30
-2E-16
41
1
10
5.65466538014902
20
-2.50000371502374
30
-1E-16
41
1
10
5.64125354170767
20
-2.50000000000003
30
0
0
SPLINE
5
D7
100
AcDbEntity
8
1
62
256
6
ByLayer
370
18
48
1
60
0
100
AcDbSpline
70
4
71
3
72
39
73
35
40
0
40
0
40
0
40
0
40
0.0317921650317125
40
0.0636108608156333
40
0.0954386500973449
40
0.127257728300437
40
0.159050214338775
40
0.191766452133585
40
0.224511397028914
40
0.25726594025633
40
0.290010847065909
40
0.322727052889801
40
0.354518496281973
40
0.386336400659522
40
0.418163120438876
40
0.449980940229658
40
0.481772312619055
40
0.514490374015267
40
0.547237291077712
40
0.579993907472633
40
0.612740891708425
40
0.645459009493272
40
0.674397172643341
40
0.703348593534135
40
0.732300036981514
40
0.761238230904647
40
0.790176300739786
40
0.819127609996886
40
0.848078900921034
40
0.877016945745251
40
0.907754784069512
40
0.938508637384034
40
0.969262351538488
40
1
40
1
40
1
40
1
41
1
10
5.64125354170767
20
-2.50000000000003
30
0
41
1
10
5.62652825640356
20
-2.49999564192488
30
0
41
1
10
5.59682923881233
20
-2.49992062167855
30
0
41
1
10
5.55153667580536
20
-2.49959097458673
30
-1E-16
41
1
10
5.50557114670049
20
-2.49909816997608
30
0
41
1
10
5.45900296935989
20
-2.49847684271244
30
-2E-16
41
1
10
5.41143175080791
20
-2.49775916545696
30
-1E-16
41
1
10
5.36286944416269
20
-2.49698238684002
30
0
41
1
10
5.31334097598049
20
-2.49617480630239
30
0
41
1
10
5.26337056821145
20
-2.49537208984821
30
0
41
1
10
5.21304505547037
20
-2.49460347790141
30
-2E-16
41
1
10
5.16290343534571
20
-2.49390419974775
30
-1E-16
41
1
10
5.11299345661977
20
-2.49330046393773
30
1E-16
41
1
10
5.06335996371078
20
-2.49279974440789
30
-1E-16
41
1
10
5.01358345566536
20
-2.49240654680034
30
-1E-16
41
1
10
4.96374625046422
20
-2.4921316543731
30
-1E-16
41
1
10
4.91342381591298
20
-2.49198419257533
30
-1E-16
41
1
10
4.8626532562928
20
-2.49198028874965
30
-2E-16
41
1
10
4.81147774175539
20
-2.49211712755772
30
0
41
1
10
4.76044553604476
20
-2.49238704449079
30
0
41
1
10
4.70964622607386
20
-2.49278221556795
30
-2E-16
41
1
10
4.66108883051922
20
-2.4932762093724
30
0
41
1
10
4.61477935100919
20
-2.49384506717345
30
1E-16
41
1
10
4.57069886994686
20
-2.49445686256164
30
-1E-16
41
1
10
4.52696229686941
20
-2.49511985686992
30
-1E-16
41
1
10
4.4836162414553
20
-2.49581789831989
30
1E-16
41
1
10
4.44069515944052
20
-2.49653489855525
30
-1E-16
41
1
10
4.39822988952271
20
-2.49724698027593
30
0
41
1
10
4.35626467874063
20
-2.49793049923634
30
-1E-16
41
1
10
4.31398594252067
20
-2.4985747722211
30
-1E-16
41
1
10
4.27146806618111
20
-2.49915045593047
30
-2E-16
41
1
10
4.22879263266368
20
-2.49961507296119
30
-2E-16
41
1
10
4.18685133445014
20
-2.49992537735438
30
0
41
1
10
4.15942412462542
20
-2.49999597341776
30
0
41
1
10
4.14584333029523
20
-2.50000000000003
30
-1E-16
0
SPLINE
5
D8
100
AcDbEntity
8
1
62
256
6
ByLayer
370
18
48
1
60
0
100
AcDbSpline
70
4
71
3
72
42
73
38
40
0
40
0
40
0
40
0
40
0.0288274036521457
40
0.0576772882702876
40
0.0865342937734122
40
0.115383393201965
40
0.144210137795862
40
0.173834838796948
40
0.203485579490657
40
0.233144362820634
40
0.262793791999829
40
0.292417392058015
40
0.321260343149202
40
0.350129072529023
40
0.379005860380114
40
0.407873477375223
40
0.436715494667618
40
0.466474206303149
40
0.496262417152198
40
0.526060322795934
40
0.55584815321989
40
0.585606545473251
40
0.613183514787022
40
0.640783529047601
40
0.668391670448474
40
0.695992454039011
40
0.723570069137905
40
0.751931457302326
40
0.780315790048832
40
0.808708824346236
40
0.837095079952663
40
0.865458082151754
40
0.892354291585623
40
0.919267338012638
40
0.94618707336454
40
0.973102115602425
40
1
40
1
40
1
40
1
41
1
10
4.14584333029522
20
-2.50000000000003
30
-1E-16
41
1
10
4.13253545720352
20
-2.50000418223603
30
-1E-16
41
1
10
4.10618925650487
20
-2.49992425640226
30
-2E-16
41
1
10
4.06748491273986
20
-2.49955687697606
30
0
41
1
10
4.0296456603023
20
-2.49888899957147
30
-1E-16
41
1
10
3.99272652631689
20
-2.49788624801494
30
-1E-16
41
1
10
3.9564403395776
20
-2.49649653290459
30
1E-16
41
1
10
3.92085028035922
20
-2.49466448250498
30
-1E-16
41
1
10
3.88601176224922
20
-2.49233301296286
30
-1E-16
41
1
10
3.85228705150641
20
-2.48947737364117
30
0
41
1
10
3.81973460647124
20
-2.48605632086199
30
-1E-16
41
1
10
3.78867310402565
20
-2.48206294904491
30
1E-16
41
1
10
3.75909863085988
20
-2.47746899766284
30
-1E-16
41
1
10
3.73098500812535
20
-2.47225950845717
30
0
41
1
10
3.70409648934345
20
-2.46636177547957
30
-2E-16
41
1
10
3.67847687102723
20
-2.45974554565091
30
1E-16
41
1
10
3.65390040070842
20
-2.45230005651447
30
0
41
1
10
3.63044150216778
20
-2.44395394126669
30
-1E-16
41
1
10
3.60815108088622
20
-2.43465275259557
30
-1E-16
41
1
10
3.5872868855695
20
-2.42446339520452
30
2E-16
41
1
10
3.56787684374098
20
-2.41337002785434
30
-1E-16
41
1
10
3.55037777874583
20
-2.40164401041782
30
0
41
1
10
3.53467836774968
20
-2.38933546042639
30
1E-16
41
1
10
3.52063988206991
20
-2.37651677571507
30
-1E-16
41
1
10
3.50785431519685
20
-2.36287078816994
30
0
41
1
10
3.49632298030457
20
-2.34840180423506
30
1E-16
41
1
10
3.4859455852394
20
-2.33296207403185
30
2E-16
41
1
10
3.47675768591792
20
-2.3165112483981
30
1E-16
41
1
10
3.46877022448863
20
-2.29902971329612
30
0
41
1
10
3.46204566886315
20
-2.28068357524682
30
1E-16
41
1
10
3.45656437904183
20
-2.26149318935584
30
0
41
1
10
3.45237910826166
20
-2.24181382283646
30
2E-16
41
1
10
3.44939586784046
20
-2.22169728170258
30
-3E-16
41
1
10
3.44750996383474
20
-2.20120570620246
30
-1E-16
41
1
10
3.44663849579372
20
-2.17999855181593
30
1E-16
41
1
10
3.4467553695279
20
-2.15809943692942
30
4E-16
41
1
10
3.44746666028292
20
-2.14305116605795
30
1E-16
41
1
10
3.44798252252464
20
-2.13541565040632
30
0
0
SPLINE
5
D9
100
AcDbEntity
8
1
62
256
6
ByLayer
370
18
48
1
60
0
100
AcDbSpline
70
4
71
3
72
101
73
97
40
0
40
0
40
0
40
0
40
0.0099623645781766
40
0.0199297998683526
40
0.0298976850720409
40
0.0398606634758593
40
0.0498185539302574
40
0.0597805687539484
40
0.0697429786553154
40
0.0797014080712377
40
0.0902503045814454
40
0.100803136831127
40
0.111356369000192
40
0.121905811054711
40
0.132390500128384
40
0.142879580626176
40
0.153370547808344
40
0.16386041663219
40
0.174345767163475
40
0.187446332658148
40
0.200551583140139
40
0.213657240438289
40
0.22675836087752
40
0.240532848256348
40
0.254312042405599
40
0.268091368882244
40
0.281866036768861
40
0.295379669431235
40
0.308895483536212
40
0.322408928196104
40
0.332545563762103
40
0.34268445473757
40
0.352823078525942
40
0.362959349663086
40
0.373099775746325
40
0.383243255677175
40
0.393386231408728
40
0.403525969734185
40
0.412287380611487
40
0.42105326438654
40
0.429820075924852
40
0.438584872738725
40
0.447345371514825
40
0.457474166393553
40
0.4676121250467
40
0.477752526570979
40
0.48788929125062
40
0.498017083835657
40
0.506726953236832
40
0.515444394245651
40
0.524166061925992
40
0.532888222228187
40
0.541606800565789
40
0.550317428861726
40
0.560815695337538
40
0.571319278567273
40
0.581823661579922
40
0.592323019205969
40
0.602813646081186
40
0.613307973977131
40
0.623802903362753
40
0.63429435073196
40
0.645337994052261
40
0.656384709611473
40
0.667431808686295
40
0.678475975124606
40
0.690048240948005
40
0.701624694069172
40
0.713202714478046
40
0.72477946862042
40
0.736351987005098
40
0.747924307234638
40
0.759500959452802
40
0.771078862439538
40
0.782655129368695
40
0.794227126332512
40
0.806393745822539
40
0.818566594396854
40
0.830740940235668
40
0.842912663309815
40
0.85507833835567
40
0.865066442070162
40
0.875057379913649
40
0.885048043675903
40
0.895035773535339
40
0.905027077807361
40
0.915021890657289
40
0.925016350481598
40
0.9350071731829
40
0.945442105762583
40
0.955882013163262
40
0.966321413832892
40
0.976755655080134
40
0.984503416352432
40
0.99225234506823
40
1
40
1
40
1
40
1
41
1
10
3.44798252252465
20
-2.13541565040629
30
2E-16
41
1
10
3.44860245820444
20
-2.12628324569607
30
1E-16
41
1
10
3.45026290321242
20
-2.10770989955593
30
-1E-16
41
1
10
3.45404184236035
20
-2.07891943078809
30
0
41
1
10
3.45902884956539
20
-2.04924747062558
30
1E-16
41
1
10
3.46517380247366
20
-2.01872943795606
30
1E-16
41
1
10
3.47242192045161
20
-1.98738958984487
30
1E-16
41
1
10
3.48071499140536
20
-1.9552574765048
30
4E-16
41
1
10
3.48999741567157
20
-1.92236227453568
30
0
41
1
10
3.50041550647731
20
-1.88807153277229
30
-1E-16
41
1
10
3.51197982795408
20
-1.85235598165856
30
2E-16
41
1
10
3.52469069487633
20
-1.81519408266212
30
0
41
1
10
3.53826484734157
20
-1.77729925645251
30
-1E-16
41
1
10
3.55261062767834
20
-1.73878241382079
30
2E-16
41
1
10
3.56766598808937
20
-1.69966792625052
30
2E-16
41
1
10
3.58337059131657
20
-1.6599790717022
30
4E-16
41
1
10
3.59969870832366
20
-1.61965920245026
30
3E-16
41
1
10
3.61659070704161
20
-1.57874003757382
30
3E-16
41
1
10
3.63543776026893
20
-1.53379268262826
30
3E-16
41
1
10
3.65633449717037
20
-1.48464766871512
30
4E-16
41
1
10
3.67933557176992
20
-1.43113412409303
30
-1E-16
41
1
10
3.70284569866867
20
-1.3767846757752
30
3E-16
41
1
10
3.72716941483258
20
-1.3206816636481
30
4E-16
41
1
10
3.75222992266145
20
-1.26278868732338
30
0
41
1
10
3.77792199545876
20
-1.20306282489102
30
9E-16
41
1
10
3.80369903821838
20
-1.14247804421334
30
4E-16
41
1
10
3.82926842828299
20
-1.08143662711713
30
-2E-16
41
1
10
3.85450649663894
20
-1.01995957062981
30
6E-16
41
1
10
3.87927526284584
20
-0.958057669665407
30
8E-16
41
1
10
3.90156791724117
20
-0.900558269208664
30
4E-16
41
1
10
3.92140024773022
20
-0.847684163626479
30
3E-16
41
1
10
3.93884477969646
20
-0.799624274498789
30
7E-16
41
1
10
3.95580883211214
20
-0.751096297195646
30
2E-16
41
1
10
3.97221971204982
20
-0.702096920538293
30
1E-16
41
1
10
3.98800207002312
20
-0.652621676947643
30
2E-16
41
1
10
4.00307091197227
20
-0.60266901040335
30
3E-16
41
1
10
4.01733600546426
20
-0.552256301464259
30
4E-16
41
1
10
4.03010318909159
20
-0.503701871142239
30
6E-16
41
1
10
4.04142895614522
20
-0.457076887581298
30
0
41
1
10
4.05139836206719
20
-0.412448961534335
30
1E-16
41
1
10
4.06052092594437
20
-0.367515188926787
30
1E-16
41
1
10
4.06873575566463
20
-0.322308905591979
30
2E-16
41
1
10
4.0763656940414
20
-0.274488450806473
30
0
41
1
10
4.08314496188587
20
-0.224011614745269
30
3E-16
41
1
10
4.08881313874808
20
-0.170872732565643
30
3E-16
41
1
10
4.09301140298387
20
-0.117514366705366
30
4E-16
41
1
10
4.09569141129133
20
-0.0640282038081983
30
3E-16
41
1
10
4.0967553098982
20
-0.0129796374590293
30
7E-16
41
1
10
4.09640412032109
20
0.0355787108496031
30
6E-16
41
1
10
4.09490275022502
20
0.0816249075598653
30
3E-16
41
1
10
4.09226039012141
20
0.127616482819646
30
3E-16
41
1
10
4.08850342481806
20
0.173493994441977
30
4E-16
41
1
10
4.0836597124567
20
0.219198228805382
30
2E-16
41
1
10
4.07734511401465
20
0.267801839761587
30
8E-16
41
1
10
4.06933098869421
20
0.319230806839426
30
4E-16
41
1
10
4.05945017233795
20
0.373394433062281
30
2E-16
41
1
10
4.04827968755374
20
0.427151951998464
30
4E-16
41
1
10
4.03591928232124
20
0.480447495169312
30
1E-16
41
1
10
4.02246545659716
20
0.533261308660655
30
1E-16
41
1
10
4.00802431898863
20
0.585588534366155
30
4E-16
41
1
10
3.99269096727469
20
0.63742618946996
30
1E-16
41
1
10
3.9762807461112
20
0.689661548967781
30
4E-16
41
1
10
3.95884487004455
20
0.742265061953315
30
6E-16
41
1
10
3.94043733749814
20
0.795208878016551
30
4E-16
41
1
10
3.92145107620763
20
0.847596828880629
30
4E-16
41
1
10
3.9016722019103
20
0.900252663918581
30
1E-16
41
1
10
3.88117146048178
20
0.953156840858025
30
3E-16
41
1
10
3.86001346840506
20
1.00628487489378
30
4E-16
41
1
10
3.83860212471208
20
1.0588179380437
30
3E-16
41
1
10
3.81702904930742
20
1.11074431974369
30
2E-16
41
1
10
3.79538193305254
20
1.16206300335927
30
3E-16
41
1
10
3.77374139947928
20
1.2127822733791
30
3E-16
41
1
10
3.75217415001912
20
1.2629033010444
30
4E-16
41
1
10
3.73075391935864
20
1.31241701540672
30
3E-16
41
1
10
3.70955850954725
20
1.36130261390793
30
0
41
1
10
3.68830450270208
20
1.41037515153489
30
1E-16
41
1
10
3.66708258929472
20
1.45959358687478
30
0
41
1
10
3.64599116189125
20
1.50890617405428
30
6E-16
41
1
10
3.62546510851076
20
1.5574734095391
30
3E-16
41
1
10
3.60559434172517
20
1.60525430350443
30
3E-16
41
1
10
3.58760557607722
20
1.64941801808785
30
0
41
1
10
3.57141964711995
20
1.69010428703874
30
2E-16
41
1
10
3.5569305941103
20
1.72745586206036
30
1E-16
41
1
10
3.54309267783343
20
1.76420516501393
30
1E-16
41
1
10
3.52995563575783
20
1.80033120449599
30
-2E-16
41
1
10
3.51757009560745
20
1.83581321361109
30
3E-16
41
1
10
3.5059867747454
20
1.87063106240411
30
3E-16
41
1
10
3.49526149816328
20
1.90475116235164
30
6E-16
41
1
10
3.48530424690956
20
1.93863660987924
30
1E-16
41
1
10
3.47622141522768
20
1.97222181834741
30
-1E-16
41
1
10
3.46812548510326
20
2.00543960047979
30
2E-16
41
1
10
3.46121146311532
20
2.03776868090513
30
1E-16
41
1
10
3.45603180721678
20
2.0664732378196
30
2E-16
41
1
10
3.45228842564577
20
2.09178225471066
30
0
41
1
10
3.44967956051441
20
2.11392697503468
30
0
41
1
10
3.44846250235499
20
2.12831494601235
30
1E-16
41
1
10
3.44798252252465
20
2.13541565040623
30
2E-16
0
SPLINE
5
DA
100
AcDbEntity
8
1
62
256
6
ByLayer
370
18
48
1
60
0
100
AcDbSpline
70
4
71
3
72
101
73
97
40
0
40
0
40
0
40
0
40
0.009962364578177
40
0.0199297998683533
40
0.0298976850720418
40
0.0398606634758606
40
0.049818553930259
40
0.0597805687539502
40
0.0697429786553175
40
0.0797014080712401
40
0.0902503045814483
40
0.10080313683113
40
0.111356369000196
40
0.121905811054714
40
0.132390500128389
40
0.14287958062618
40
0.153370547808348
40
0.163860416632195
40
0.174345767163479
40
0.187446332658153
40
0.200551583140144
40
0.213657240438296
40
0.226758360877526
40
0.240532848256354
40
0.254312042405606
40
0.268091368882251
40
0.281866036768868
40
0.295379669431244
40
0.308895483536221
40
0.322408928196113
40
0.332545563762113
40
0.34268445473758
40
0.352823078525952
40
0.362959349663096
40
0.373099775746336
40
0.383243255677186
40
0.39338623140874
40
0.403525969734197
40
0.4122873806115
40
0.421053264386553
40
0.429820075924865
40
0.438584872738738
40
0.447345371514839
40
0.457474166393567
40
0.467612125046714
40
0.477752526570993
40
0.487889291250635
40
0.498017083835672
40
0.506726953236848
40
0.515444394245667
40
0.524166061926008
40
0.532888222228204
40
0.541606800565806
40
0.550317428861743
40
0.560815695337556
40
0.571319278567291
40
0.58182366157994
40
0.592323019205987
40
0.602813646081205
40
0.61330797397715
40
0.623802903362772
40
0.634294350731979
40
0.64533799405228
40
0.656384709611493
40
0.667431808686316
40
0.678475975124627
40
0.690048240948025
40
0.701624694069194
40
0.713202714478068
40
0.724779468620443
40
0.736351987005122
40
0.747924307234661
40
0.759500959452827
40
0.771078862439563
40
0.78265512936872
40
0.794227126332538
40
0.806393745822564
40
0.818566594396881
40
0.830740940235695
40
0.842912663309843
40
0.855078338355698
40
0.865066442070191
40
0.875057379913679
40
0.885048043675934
40
0.89503577353537
40
0.905027077807393
40
0.915021890657322
40
0.925016350481632
40
0.935007173182935
40
0.945442105762618
40
0.955882013163299
40
0.966321413832929
40
0.976755655080172
40
0.984503416352457
40
0.992252345068242
40
1
40
1
40
1
40
1
41
1
10
6.44547144955321
20
2.13541565040623
30
1E-16
41
1
10
6.44607865386572
20
2.12628324569601
30
-1E-16
41
1
10
6.44685593874259
20
2.10770989955588
30
0
41
1
10
6.44668396829972
20
2.07891943078803
30
-1E-16
41
1
10
6.44524934386276
20
2.04924747062552
30
3E-16
41
1
10
6.44259821510829
20
2.01872943795599
30
-1E-16
41
1
10
6.43878276626463
20
1.98738958984481
30
0
41
1
10
6.43385986947758
20
1.95525747650474
30
2E-16
41
1
10
6.42788332373778
20
1.92236227453562
30
3E-16
41
1
10
6.42076859983668
20
1.88807153277223
30
2E-16
41
1
10
6.41249912692698
20
1.8523559816585
30
-1E-16
41
1
10
6.40306898682621
20
1.81519408266205
30
-2E-16
41
1
10
6.39269733232122
20
1.77729925645245
30
6E-16
41
1
10
6.38146808866919
20
1.73878241382073
30
0
41
1
10
6.36944339835722
20
1.69966792625046
30
2E-16
41
1
10
6.35668436920683
20
1.65997907170214
30
4E-16
41
1
10
6.34322252611582
20
1.61965920245021
30
1E-16
41
1
10
6.32911648156148
20
1.57874003757377
30
4E-16
41
1
10
6.31319959080278
20
1.5337926826282
30
3E-16
41
1
10
6.29535267936505
20
1.48464766871506
30
0
41
1
10
6.2754941287977
20
1.43113412409298
30
1E-16
41
1
10
6.25500165484947
20
1.37678467577515
30
0
41
1
10
6.23362011355603
20
1.32068166364805
30
0
41
1
10
6.21141926802734
20
1.26278868732333
30
2E-16
41
1
10
6.18849717063813
20
1.20306282489097
30
4E-16
41
1
10
6.16535282115157
20
1.14247804421329
30
2E-16
41
1
10
6.14226280917934
20
1.08143662711708
30
0
41
1
10
6.11935380628715
20
1.01995957062977
30
6E-16
41
1
10
6.09676649821361
20
0.958057669665355
30
3E-16
41
1
10
6.07635134996463
20
0.900558269208615
30
4E-16
41
1
10
6.05812793530682
20
0.847684163626431
30
3E-16
41
1
10
6.04205548856523
20
0.799624274498741
30
4E-16
41
1
10
6.02638669674472
20
0.7510962971956
30
1E-16
41
1
10
6.01119356844061
20
0.702096920538246
30
4E-16
41
1
10
5.99655060034415
20
0.652621676947598
30
7E-16
41
1
10
5.98254180494295
20
0.602669010403302
30
6E-16
41
1
10
5.96925598925951
20
0.552256301464215
30
2E-16
41
1
10
5.957345310536
20
0.503701871142191
30
3E-16
41
1
10
5.94676453294207
20
0.457076887581255
30
1E-16
41
1
10
5.93743983597375
20
0.412448961534288
30
4E-16
41
1
10
5.9288979159556
20
0.367515188926742
30
1E-16
41
1
10
5.92119846399194
20
0.322308905591934
30
0
41
1
10
5.91404103178893
20
0.274488450806427
30
3E-16
41
1
10
5.90767721879196
20
0.224011614745226
30
6E-16
41
1
10
5.90235302646358
20
0.170872732565597
30
2E-16
41
1
10
5.89840703215722
20
0.117514366705323
30
2E-16
41
1
10
5.89588654542585
20
0.0640282038081532
30
0
41
1
10
5.89488539726732
20
0.0129796374589843
30
6E-16
41
1
10
5.89521621459818
20
-0.0355787108496469
30
4E-16
41
1
10
5.89662870748431
20
-0.0816249075599101
30
2E-16
41
1
10
5.89911321561832
20
-0.12761648281969
30
1E-16
41
1
10
5.90264391405187
20
-0.173493994442021
30
1E-16
41
1
10
5.9071935419358
20
-0.219198228805427
30
3E-16
41
1
10
5.91312180500501
20
-0.26780183976163
30
7E-16
41
1
10
5.92064078927786
20
-0.319230806839471
30
8E-16
41
1
10
5.92990156853842
20
-0.373394433062324
30
6E-16
41
1
10
5.94035866434389
20
-0.427151951998507
30
4E-16
41
1
10
5.95191424128289
20
-0.480447495169353
30
4E-16
41
1
10
5.96447324791511
20
-0.533261308660696
30
4E-16
41
1
10
5.97793134926979
20
-0.585588534366196
30
1E-16
41
1
10
5.99219475843789
20
-0.637426189469999
30
-1E-16
41
1
10
6.00742930430591
20
-0.689661548967821
30
3E-16
41
1
10
6.02357957197218
20
-0.742265061953356
30
3E-16
41
1
10
6.04058730605257
20
-0.795208878016587
30
3E-16
41
1
10
6.05808248878497
20
-0.847596828880666
30
6E-16
41
1
10
6.07625481602897
20
-0.900252663918613
30
6E-16
41
1
10
6.0950290004007
20
-0.953156840858068
30
2E-16
41
1
10
6.11433559913791
20
-1.00628487489382
30
3E-16
41
1
10
6.13379782240011
20
-1.05881793804374
30
6E-16
41
1
10
6.15332483286591
20
-1.11074431974373
30
0
41
1
10
6.17282929034755
20
-1.16206300335931
30
6E-16
41
1
10
6.19223031257239
20
-1.21278227337914
30
4E-16
41
1
10
6.211460793314
20
-1.26290330104444
30
1E-16
41
1
10
6.23044698429009
20
-1.31241701540677
30
1E-16
41
1
10
6.24911154928559
20
-1.36130261390797
30
0
41
1
10
6.26769291105051
20
-1.41037515153493
30
6E-16
41
1
10
6.28609358636811
20
-1.45959358687483
30
0
41
1
10
6.30420856681019
20
-1.50890617405432
30
3E-16
41
1
10
6.32164983045978
20
-1.55747340953914
30
3E-16
41
1
10
6.33832849646054
20
-1.60525430350447
30
3E-16
41
1
10
6.35321488349733
20
-1.64941801808789
30
0
41
1
10
6.36640925950072
20
-1.69010428703879
30
1E-16
41
1
10
6.37803699494834
20
-1.72745586206041
30
4E-16
41
1
10
6.38894188118458
20
-1.76420516501398
30
0
41
1
10
6.39907460855105
20
-1.80033120449605
30
2E-16
41
1
10
6.40838466173522
20
-1.83581321361115
30
0
41
1
10
6.41682205751484
20
-1.87063106240417
30
2E-16
41
1
10
6.42433285240148
20
-1.9047511623517
30
1E-16
41
1
10
6.4309601039908
20
-1.9386366098793
30
4E-16
41
1
10
6.43659463621659
20
-1.97222181834747
30
1E-16
41
1
10
6.4411224987915
20
-2.00543960047986
30
6E-16
41
1
10
6.44440151459583
20
-2.0377686809052
30
2E-16
41
1
10
6.44619986643075
20
-2.06647323781966
30
1E-16
41
1
10
6.44683580882856
20
-2.09178225471069
30
1E-16
41
1
10
6.44662700109654
20
-2.11392697503468
30
0
41
1
10
6.44594568180937
20
-2.12831494601231
30
6E-16
41
1
10
6.44547144955322
20
-2.13541565040619
30
1E-16
0
SPLINE
5
DB
100
AcDbEntity
8
1
62
256
6
ByLayer
370
18
48
1
60
0
100
AcDbSpline
70
4
71
3
72
122
73
118
40
0
40
0
40
0
40
0
40
0.0132574563182638
40
0.0265164081790424
40
0.0397749797293877
40
0.0530319173813051
40
0.0663533324904358
40
0.079677628523986
40
0.0930008361252054
40
0.10632076666536
40
0.115869346153475
40
0.125418800019
40
0.134966891764664
40
0.144520546207792
40
0.154075754294153
40
0.163628299441444
40
0.170992964874122
40
0.17836145909136
40
0.185728477133118
40
0.193091128479053
40
0.198551551089483
40
0.204015111194083
40
0.20947783286268
40
0.214937111462284
40
0.220529054597991
40
0.226126503887732
40
0.231723006316857
40
0.237313656967579
40
0.242789084516854
40
0.248270829487995
40
0.253752708760173
40
0.259228319657704
40
0.264899918238378
40
0.270577040058725
40
0.276255420103851
40
0.281928736046777
40
0.288392155665981
40
0.294860232441719
40
0.301332150384112
40
0.307804443615472
40
0.314271402349468
40
0.322327014544835
40
0.330384615475635
40
0.338443095387932
40
0.346499906466523
40
0.357805412121267
40
0.369112357639192
40
0.380417619733461
40
0.389821219030563
40
0.399227432489391
40
0.408633006629007
40
0.418035733874028
40
0.427446114846535
40
0.436860524975343
40
0.446274329574653
40
0.455683884461883
40
0.465562985509339
40
0.47544800310798
40
0.485332671948895
40
0.495211297129745
40
0.504246942107916
40
0.513287321304521
40
0.52232783621129
40
0.531363666345232
40
0.540396436409491
40
0.549433343701297
40
0.558470692159337
40
0.567504064084096
40
0.577105841824273
40
0.586711221131945
40
0.596317324268539
40
0.605920089404822
40
0.616984380071295
40
0.628050611630415
40
0.639115460887027
40
0.650178761928813
40
0.661243357493491
40
0.672305950479367
40
0.680769681860195
40
0.689237496653567
40
0.697702506822342
40
0.706162411638561
40
0.711859475626717
40
0.717560204060877
40
0.723259656606802
40
0.728954979557056
40
0.734811998728391
40
0.740675927396502
40
0.746538881047253
40
0.752394569040364
40
0.758107226794799
40
0.76382685686721
40
0.769547122562746
40
0.775260648116178
40
0.781178781307344
40
0.787102351787266
40
0.793027210437425
40
0.798947101768265
40
0.80614294986425
40
0.813345026570093
40
0.820551524759352
40
0.827757954900475
40
0.834957457601689
40
0.844159107857313
40
0.853364596738742
40
0.862571484066154
40
0.871775042036248
40
0.882401563270978
40
0.89303160959913
40
0.903664792710626
40
0.914299535105992
40
0.924933180497999
40
0.935562102039798
40
0.951669442128016
40
0.967779960071278
40
0.983891401025408
40
1
40
1
40
1
40
1
41
1
10
19.442771448734
20
1.99999999999997
30
1E-16
41
1
10
19.4236464225245
20
1.9917241495464
30
0
41
1
10
19.3855428240417
20
1.97485896339148
30
-1E-16
41
1
10
19.328808595822
20
1.94864861401677
30
1E-16
41
1
10
19.2725693142197
20
1.92145010379057
30
0
41
1
10
19.2167890493868
20
1.89316839494264
30
-1E-16
41
1
10
19.1615202969066
20
1.86374805824715
30
2E-16
41
1
10
19.1068658552242
20
1.83308530349791
30
2E-16
41
1
10
19.0530368768485
20
1.80112419060209
30
1E-16
41
1
10
19.0051472729262
20
1.77091705947243
30
1E-16
41
1
10
18.9630054607227
20
1.74281542967085
30
1E-16
41
1
10
18.9264105254864
20
1.71714180504074
30
-1E-16
41
1
10
18.8905410593223
20
1.69055957486784
30
2E-16
41
1
10
18.8554882187435
20
1.66300909071516
30
-2E-16
41
1
10
18.8213965569041
20
1.63439669156218
30
4E-16
41
1
10
18.7909470298562
20
1.60690705698739
30
-2E-16
41
1
10
18.7639833707874
20
1.58076461711851
30
2E-16
41
1
10
18.7403288117626
20
1.55618382996932
30
-1E-16
41
1
10
18.7176853078678
20
1.53075941680432
30
4E-16
41
1
10
18.6980392648545
20
1.50671419940714
30
-3E-16
41
1
10
18.681178427901
20
1.48426167408838
30
1E-16
41
1
10
18.6668563741435
20
1.46360605932793
30
4E-16
41
1
10
18.6533973027454
20
1.44240306303796
30
1E-16
41
1
10
18.6407803898235
20
1.4204721812203
30
2E-16
41
1
10
18.6291269232509
20
1.39777914807758
30
3E-16
41
1
10
18.618541767741
20
1.37431555554045
30
3E-16
41
1
10
18.6091926390778
20
1.35029050704506
30
1E-16
41
1
10
18.6012155740012
20
1.3259047798122
30
1E-16
41
1
10
18.5946684615724
20
1.30118837550423
30
-1E-16
41
1
10
18.589516593733
20
1.27620192913567
30
3E-16
41
1
10
18.5857110974094
20
1.25083925047349
30
2E-16
41
1
10
18.5832283402811
20
1.22485694891072
30
3E-16
41
1
10
18.5821228986486
20
1.19828908902686
30
5E-16
41
1
10
18.5823467842309
20
1.1711810161711
30
2E-16
41
1
10
18.583820620656
20
1.14390429412811
30
-1E-16
41
1
10
18.5865804978234
20
1.11524137965378
30
1E-16
41
1
10
18.5907041423773
20
1.08520661410522
30
2E-16
41
1
10
18.5962002936654
20
1.05380954341469
30
4E-16
41
1
10
18.6027409447807
20
1.02234823826449
30
-3E-16
41
1
10
18.6101652909031
20
0.990849422928713
30
1E-16
41
1
10
18.6189899458945
20
0.95673793430518
30
5E-16
41
1
10
18.6292407706699
20
0.919985346437933
30
1E-16
41
1
10
18.6409099481553
20
0.880550252911306
30
0
41
1
10
18.6530828271646
20
0.840996282665077
30
6E-16
41
1
10
18.6672408930784
20
0.795958950183004
30
6E-16
41
1
10
18.6832642874948
20
0.745304290423247
30
4E-16
41
1
10
18.7009095959071
20
0.688864621661995
30
6E-16
41
1
10
18.7171839218338
20
0.635136128009742
30
-1E-16
41
1
10
18.731899501293
20
0.584164360036891
30
4E-16
41
1
10
18.7450664686723
20
0.536030183916567
30
3E-16
41
1
10
18.7574905276551
20
0.487514668056356
30
4E-16
41
1
10
18.769050288849
20
0.438608966949229
30
0
41
1
10
18.7796217265935
20
0.389310576085265
30
2E-16
41
1
10
18.7891313977898
20
0.339638929191142
30
2E-16
41
1
10
18.7974973241426
20
0.289642421361566
30
2E-16
41
1
10
18.8047584323249
20
0.238524632857458
30
4E-16
41
1
10
18.8107544011494
20
0.186296106794318
30
4E-16
41
1
10
18.8153721657662
20
0.13299317344275
30
1E-16
41
1
10
18.8184790787796
20
0.0795275855576661
30
7E-16
41
1
10
18.8199909826176
20
0.0274957535434867
30
-1E-16
41
1
10
18.8200227205542
20
-0.023040061365141
30
-3E-16
41
1
10
18.8187440819291
20
-0.0720360705542936
30
4E-16
41
1
10
18.8161722057625
20
-0.120956812194219
30
-1E-16
41
1
10
18.8123226488395
20
-0.169738646403749
30
2E-16
41
1
10
18.807208317436
20
-0.218339487635337
30
4E-16
41
1
10
18.8008885489479
20
-0.266727161671957
30
-2E-16
41
1
10
18.793419697955
20
-0.314862835843672
30
-1E-16
41
1
10
18.7846782729164
20
-0.363708720146471
30
2E-16
41
1
10
18.7746361032023
20
-0.41321601910149
30
0
41
1
10
18.7633260812793
20
-0.463347586505512
30
6E-16
41
1
10
18.7510646780448
20
-0.513087787701961
30
2E-16
41
1
10
18.737299249038
20
-0.564924835580031
30
4E-16
41
1
10
18.7220013454849
20
-0.618783864381337
30
2E-16
41
1
10
18.7052841553916
20
-0.674615887663589
30
3E-16
41
1
10
18.6881110700793
20
-0.729975116936154
30
0
41
1
10
18.6707248203822
20
-0.784899672989122
30
1E-16
41
1
10
18.6535163660111
20
-0.839465608150861
30
6E-16
41
1
10
18.63819408869
20
-0.889500721432217
30
1E-16
41
1
10
18.6249070944344
20
-0.935123088818149
30
3E-16
41
1
10
18.6137170345981
20
-0.976421720955968
30
2E-16
41
1
10
18.6036942478556
20
-1.01764649676135
30
2E-16
41
1
10
18.5960701660934
20
-1.05431394281197
30
0
41
1
10
18.5905594803608
20
-1.08643715517667
30
1E-16
41
1
10
18.5867557371962
20
-1.1140376087202
30
0
41
1
10
18.5839997593735
20
-1.14155219165441
30
2E-16
41
1
10
18.582386165951
20
-1.1691994306234
30
1E-16
41
1
10
18.5820916528833
20
-1.19693885004567
30
2E-16
41
1
10
18.5832273222554
20
-1.22471116095596
30
-2E-16
41
1
10
18.5858457376088
20
-1.25218393381353
30
1E-16
41
1
10
18.5899735234737
20
-1.27905363732173
30
3E-16
41
1
10
18.5956288130222
20
-1.30526182628412
30
-1E-16
41
1
10
18.6027040266566
20
-1.33078334610863
30
-2E-16
41
1
10
18.6111869683991
20
-1.35577974578124
30
2E-16
41
1
10
18.6211452325447
20
-1.38048807188568
30
5E-16
41
1
10
18.6325797118675
20
-1.40485304005197
30
4E-16
41
1
10
18.645420673504
20
-1.42885564448343
30
1E-16
41
1
10
18.6594272160958
20
-1.45220306159185
30
5E-16
41
1
10
18.6755797980243
20
-1.47652158048169
30
2E-16
41
1
10
18.6940364070928
20
-1.5016664807679
30
4E-16
41
1
10
18.7149162447527
20
-1.52750152671272
30
-2E-16
41
1
10
18.7369237178778
20
-1.55248403634271
30
2E-16
41
1
10
18.7599119985123
20
-1.57664682767357
30
1E-16
41
1
10
18.7859627805475
20
-1.60220628839574
30
1E-16
41
1
10
18.8152295094477
20
-1.62897900513602
30
2E-16
41
1
10
18.8478626065116
20
-1.65676795152122
30
4E-16
41
1
10
18.8814318426297
20
-1.68355337823188
30
0
41
1
10
18.9175763115784
20
-1.71074417069418
30
4E-16
41
1
10
18.9563013629661
20
-1.73827781766037
30
2E-16
41
1
10
18.9976509881394
20
-1.76605758046716
30
1E-16
41
1
10
19.0397327293366
20
-1.79285696744213
30
-1E-16
41
1
10
19.082456995104
20
-1.81873601273985
30
3E-16
41
1
10
19.1257360496842
20
-1.84375292222037
30
0
41
1
10
19.1770067134868
20
-1.8721386662875
30
0
41
1
10
19.2365112973553
20
-1.90344672432923
30
0
41
1
10
19.3045030286206
20
-1.93716175667517
30
-1E-16
41
1
10
19.3732668377688
20
-1.96937623378482
30
3E-16
41
1
10
19.4195293718099
20
-1.98994866737482
30
0
41
1
10
19.442771448734
20
-2.00000000000003
30
1E-16
0
SPLINE
5
DC
100
AcDbEntity
8
1
62
256
6
ByLayer
370
18
48
1
60
0
100
AcDbSpline
70
4
71
3
72
33
73
29
40
0
40
0
40
0
40
0
40
0.0324780377057685
40
0.0652730785431874
40
0.098374817172756
40
0.131772202671052
40
0.165453457676736
40
0.198797515454283
40
0.232390895897715
40
0.266220533072655
40
0.300272785762893
40
0.341081525158125
40
0.382160770584676
40
0.423484720873722
40
0.465026734052869
40
0.506759426209843
40
0.548654774741207
40
0.590684225186885
40
0.632818800818332
40
0.675029214125607
40
0.717285979336674
40
0.759559525101197
40
0.801820306480718
40
0.841628134519693
40
0.881374017060903
40
0.921033773847915
40
0.960583572284789
40
1
40
1
40
1
40
1
41
1
10
16.4452825217054
20
1.99999999999997
30
0
41
1
10
16.4595472272174
20
2.0111612555068
30
1E-16
41
1
10
16.4883530146042
20
2.03318992595606
30
2E-16
41
1
10
16.5321932941834
20
2.06516455765455
30
1E-16
41
1
10
16.5768444813851
20
2.09620570750568
30
0
41
1
10
16.622282103646
20
2.12627987241238
30
0
41
1
10
16.6681986961661
20
2.15518108172385
30
-1E-16
41
1
10
16.7145528954561
20
2.1829031147536
30
0
41
1
10
16.7613030543829
20
2.2094415210027
30
1E-16
41
1
10
16.8086941586149
20
2.2349354783003
30
0
41
1
10
16.8597710165677
20
2.26092625430335
30
-1E-16
41
1
10
16.9146035857377
20
2.28711610424727
30
-2E-16
41
1
10
16.9732488839992
20
2.3131818990174
30
1E-16
41
1
10
17.0325914180568
20
2.33763138011441
30
0
41
1
10
17.0925694467978
20
2.36043499670922
30
-1E-16
41
1
10
17.1531198112171
20
2.38156667026913
30
-1E-16
41
1
10
17.2141780678066
20
2.40100385145912
30
1E-16
41
1
10
17.2756787403706
20
2.41872761159479
30
0
41
1
10
17.3375555477332
20
2.43472270051938
30
-1E-16
41
1
10
17.3997416403072
20
2.44897758834074
30
-1E-16
41
1
10
17.4621698467894
20
2.46148448746754
30
-2E-16
41
1
10
17.5247728820144
20
2.47223935036347
30
-3E-16
41
1
10
17.5862909700016
20
2.48107064129642
30
-1E-16
41
1
10
17.646654992154
20
2.48809625672408
30
-2E-16
41
1
10
17.7058031858471
20
2.49343343483892
30
-2E-16
41
1
10
17.7648771443576
20
2.49723009364443
30
-2E-16
41
1
10
17.8238247611044
20
2.4994975039099
30
-2E-16
41
1
10
17.863072821506
20
2.50000007576674
30
-2E-16
41
1
10
17.8826671197922
20
2.49999999999997
30
-2E-16
0
LINE
5
70
100
AcDbEntity
8
SK1
62
256
6
ByLayer
370
18
48
1
60
0
100
AcDbLine
10
-122.47623
20
-11
30
0
11
-122.537589
21
-12.5
31
0
39
0
210
0
220
0
230
1
0
LINE
5
72
100
AcDbEntity
8
SK1
62
256
6
ByLayer
370
18
48
1
60
0
100
AcDbLine
10
-122.537589
20
12.5
30
0
11
-122.47623
21
11
31
0
39
0
210
0
220
0
230
1
0
LINE
5
73
100
AcDbEntity
8
1
62
256
6
ByLayer
370
18
48
1
60
0
100
AcDbLine
10
-0.102266
20
-2.5
30
0
11
-1.603161
21
0
31
0
39
0
210
0
220
0
230
1
0
LINE
5
75
100
AcDbEntity
8
SK1
62
256
6
ByLayer
370
18
48
1
60
0
100
AcDbLine
10
-124.036334
20
11
30
0
11
-122.47623
21
11
31
0
39
0
210
0
220
0
230
1
0
LINE
5
76
100
AcDbEntity
8
SK1
62
256
6
ByLayer
370
18
48
1
60
0
100
AcDbLine
10
-122.537589
20
12.5
30
0
11
-124.036334
21
11
31
0
39
0
210
0
220
0
230
1
0
LINE
5
77
100
AcDbEntity
8
1
62
256
6
ByLayer
370
18
48
1
60
0
100
AcDbLine
10
16.346064
20
-12.5
30
0
11
17.906169
21
-11
31
0
39
0
210
0
220
0
230
1
0
LINE
5
78
100
AcDbEntity
8
1
62
256
6
ByLayer
370
18
48
1
60
0
100
AcDbLine
10
25.838113
20
3
30
0
11
24.400728
21
4.5
31
0
39
0
210
0
220
0
230
1
0
LINE
5
79
100
AcDbEntity
8
SK1
62
256
6
ByLayer
370
18
48
1
60
0
100
AcDbLine
10
-0.442494
20
-12.5
30
0
11
-123.437534
21
-12.5
31
0
39
0
210
0
220
0
230
1
0
LINE
5
7A
100
AcDbEntity
8
1
62
256
6
ByLayer
370
18
48
1
60
0
100
AcDbLine
10
22.530776
20
-5
30
0
11
24.610915
21
-3
31
0
39
0
210
0
220
0
230
1
0
LINE
5
7B
100
AcDbEntity
8
1
62
256
6
ByLayer
370
18
48
1
60
0
100
AcDbLine
10
22.530776
20
-5
30
0
11
21.490707
21
-4
31
0
39
0
210
0
220
0
230
1
0
LINE
5
7C
100
AcDbEntity
8
1
62
256
6
ByLayer
370
18
48
1
60
0
100
AcDbLine
10
21.490707
20
4
30
0
11
22.530776
21
5
31
0
39
0
210
0
220
0
230
1
0
LINE
5
7D
100
AcDbEntity
8
SK1
62
256
6
ByLayer
370
18
48
1
60
0
100
AcDbLine
10
-124.936279
20
-11
30
0
11
-124.936279
21
11
31
0
39
0
210
0
220
0
230
1
0
LINE
5
7E
100
AcDbEntity
8
1
62
256
6
ByLayer
370
18
48
1
60
0
100
AcDbLine
10
-1.603161
20
0
30
0
11
-0.102266
21
2.5
31
0
39
0
210
0
220
0
230
1
0
LINE
5
7F
100
AcDbEntity
8
1
62
256
6
ByLayer
370
18
48
1
60
0
100
AcDbLine
10
24.610915
20
3
30
0
11
22.530776
21
5
31
0
39
0
210
0
220
0
230
1
0
LINE
5
80
100
AcDbEntity
8
SK1
62
256
6
ByLayer
370
18
48
1
60
0
100
AcDbLine
10
-123.498894
20
11
30
0
11
-123.498894
21
-11
31
0
39
0
210
0
220
0
230
1
0
LINE
5
81
100
AcDbEntity
8
SK1
62
256
6
ByLayer
370
18
48
1
60
0
100
AcDbLine
10
-124.036334
20
11
30
0
11
-124.036334
21
-11
31
0
39
0
210
0
220
0
230
1
0
LINE
5
82
100
AcDbEntity
8
SK1
62
256
6
ByLayer
370
18
48
1
60
0
100
AcDbLine
10
-124.036334
20
-11
30
0
11
-124.936279
21
-11
31
0
39
0
210
0
220
0
230
1
0
LINE
5
83
100
AcDbEntity
8
1
62
256
6
ByLayer
370
18
48
1
60
0
100
AcDbLine
10
24.400728
20
-4.5
30
0
11
17.906169
21
-11
31
0
39
0
210
0
220
0
230
1
0
LINE
5
84
100
AcDbEntity
8
1
62
256
6
ByLayer
370
18
48
1
60
0
100
AcDbLine
10
17.906169
20
-11
30
0
11
0
21
-11
31
0
39
0
210
0
220
0
230
1
0
LINE
5
85
100
AcDbEntity
8
1
62
256
6
ByLayer
370
18
48
1
60
0
100
AcDbLine
10
24.400728
20
4.5
30
0
11
24.400728
21
-4.5
31
0
39
0
210
0
220
0
230
1
0
LINE
5
86
100
AcDbEntity
8
SK1
62
256
6
ByLayer
370
18
48
1
60
0
100
AcDbLine
10
-122.47623
20
-11
30
0
11
-122.47623
21
11
31
0
39
0
210
0
220
0
230
1
0
LINE
5
87
100
AcDbEntity
8
1
62
256
6
ByLayer
370
18
48
1
60
0
100
AcDbLine
10
17.906169
20
11
30
0
11
24.400728
21
4.5
31
0
39
0
210
0
220
0
230
1
0
LINE
5
88
100
AcDbEntity
8
1
62
256
6
ByLayer
370
18
48
1
60
0
100
AcDbLine
10
15.343853
20
-12.5
30
0
11
22.530776
21
-5
31
0
39
0
210
0
220
0
230
1
0
LINE
5
89
100
AcDbEntity
8
1
62
256
6
ByLayer
370
18
48
1
60
0
100
AcDbLine
10
17.906169
20
11
30
0
11
16.346064
21
12.5
31
0
39
0
210
0
220
0
230
1
0
LINE
5
8A
100
AcDbEntity
8
1
62
256
6
ByLayer
370
18
48
1
60
0
100
AcDbLine
10
22.530776
20
5
30
0
11
15.343853
21
12.5
31
0
39
0
210
0
220
0
230
1
0
LINE
5
8B
100
AcDbEntity
8
1
62
256
6
ByLayer
370
18
48
1
60
0
100
AcDbLine
10
24.400728
20
-4.5
30
0
11
25.838113
21
-3
31
0
39
0
210
0
220
0
230
1
0
LINE
5
8C
100
AcDbEntity
8
1
62
256
6
ByLayer
370
18
48
1
60
0
100
AcDbLine
10
25.838113
20
3
30
0
11
24.610915
21
3
31
0
39
0
210
0
220
0
230
1
0
LINE
5
8D
100
AcDbEntity
8
1
62
256
6
ByLayer
370
18
48
1
60
0
100
AcDbLine
10
25.838113
20
-3
30
0
11
25.838113
21
3
31
0
39
0
210
0
220
0
230
1
0
LINE
5
8E
100
AcDbEntity
8
1
62
256
6
ByLayer
370
18
48
1
60
0
100
AcDbLine
10
24.610915
20
-3
30
0
11
25.838113
21
-3
31
0
39
0
210
0
220
0
230
1
0
LINE
5
8F
100
AcDbEntity
8
1
62
256
6
ByLayer
370
18
48
1
60
0
100
AcDbLine
10
21.490707
20
4
30
0
11
21.490707
21
-4
31
0
39
0
210
0
220
0
230
1
0
LINE
5
90
100
AcDbEntity
8
1
62
256
6
ByLayer
370
18
48
1
60
0
100
AcDbLine
10
2.052508
20
4
30
0
11
21.490707
21
4
31
0
39
0
210
0
220
0
230
1
0
LINE
5
91
100
AcDbEntity
8
SK1
62
256
6
ByLayer
370
18
48
1
60
0
100
AcDbLine
10
-122.537589
20
12.5
30
0
11
-123.437534
21
12.5
31
0
39
0
210
0
220
0
230
1
0
LINE
5
92
100
AcDbEntity
8
1
62
256
6
ByLayer
370
18
48
1
60
0
100
AcDbLine
10
16.346064
20
12.5
30
0
11
0
21
12.5
31
0
39
0
210
0
220
0
230
1
0
LINE
5
93
100
AcDbEntity
8
1
62
256
6
ByLayer
370
18
48
1
60
0
100
AcDbLine
10
2.052508
20
-4
30
0
11
21.490707
21
-4
31
0
39
0
210
0
220
0
230
1
0
LINE
5
94
100
AcDbEntity
8
1
62
256
6
ByLayer
370
18
48
1
60
0
100
AcDbLine
10
-0.102266
20
-11
30
0
11
-0.442494
21
-12.5
31
0
39
0
210
0
220
0
230
1
0
LINE
5
95
100
AcDbEntity
8
1
62
256
6
ByLayer
370
18
48
1
60
0
100
AcDbLine
10
0.124552
20
12.5
30
0
11
2.052508
21
4
31
0
39
0
210
0
220
0
230
1
0
LINE
5
96
100
AcDbEntity
8
1
62
256
6
ByLayer
370
18
48
1
60
0
100
AcDbLine
10
5.641254
20
2.5
30
0
11
17.882667
21
2.5
31
0
39
0
210
0
220
0
230
1
0
LINE
5
97
100
AcDbEntity
8
1
62
256
6
ByLayer
370
18
48
1
60
0
100
AcDbLine
10
5.641254
20
-2.5
30
0
11
17.882667
21
-2.5
31
0
39
0
210
0
220
0
230
1
0
LINE
5
98
100
AcDbEntity
8
1
62
256
6
ByLayer
370
18
48
1
60
0
100
AcDbLine
10
-0.442494
20
12.5
30
0
11
-0.102266
21
11
31
0
39
0
210
0
220
0
230
1
0
LINE
5
99
100
AcDbEntity
8
1
62
256
6
ByLayer
370
18
48
1
60
0
100
AcDbLine
10
-0.102266
20
-2.5
30
0
11
-0.102266
21
-11
31
0
39
0
210
0
220
0
230
1
0
LINE
5
9A
100
AcDbEntity
8
1
62
256
6
ByLayer
370
18
48
1
60
0
100
AcDbLine
10
2.052508
20
4
30
0
11
2.052508
21
-4
31
0
39
0
210
0
220
0
230
1
0
LINE
5
9B
100
AcDbEntity
8
1
62
256
6
ByLayer
370
18
48
1
60
0
100
AcDbLine
10
-0.102266
20
2.5
30
0
11
4.145843
21
2.5
31
0
39
0
210
0
220
0
230
1
0
LINE
5
9C
100
AcDbEntity
8
1
62
256
6
ByLayer
370
18
48
1
60
0
100
AcDbLine
10
-0.102266
20
-2.5
30
0
11
4.145843
21
-2.5
31
0
39
0
210
0
220
0
230
1
0
LINE
5
9D
100
AcDbEntity
8
1
62
256
6
ByLayer
370
18
48
1
60
0
100
AcDbLine
10
17.882667
20
2.5
30
0
11
24.876808
21
2.5
31
0
39
0
210
0
220
0
230
1
0
LINE
5
9E
100
AcDbEntity
8
1
62
256
6
ByLayer
370
18
48
1
60
0
100
AcDbLine
10
17.882667
20
-2.5
30
0
11
24.876808
21
-2.5
31
0
39
0
210
0
220
0
230
1
0
LINE
5
9F
100
AcDbEntity
8
1
62
256
6
ByLayer
370
18
48
1
60
0
100
AcDbLine
10
24.610915
20
3
30
0
11
24.610915
21
-3
31
0
39
0
210
0
220
0
230
1
0
LINE
5
A0
100
AcDbEntity
8
1
62
256
6
ByLayer
370
18
48
1
60
0
100
AcDbLine
10
-0.102266
20
11
30
0
11
-0.102266
21
2.5
31
0
39
0
210
0
220
0
230
1
0
LINE
5
A1
100
AcDbEntity
8
1
62
256
6
ByLayer
370
18
48
1
60
0
100
AcDbLine
10
2.052508
20
-4
30
0
11
0.124552
21
-12.5
31
0
39
0
210
0
220
0
230
1
0
LINE
5
A2
100
AcDbEntity
8
1
62
256
6
ByLayer
370
18
48
1
60
0
100
AcDbLine
10
3.447983
20
-12.5
30
0
11
3.447983
21
-2.135416
31
0
39
0
210
0
220
0
230
1
0
LINE
5
A3
100
AcDbEntity
8
1
62
256
6
ByLayer
370
18
48
1
60
0
100
AcDbLine
10
3.447983
20
2.135416
30
0
11
3.447983
21
12.5
31
0
39
0
210
0
220
0
230
1
0
LINE
5
A4
100
AcDbEntity
8
1
62
256
6
ByLayer
370
18
48
1
60
0
100
AcDbLine
10
6.445471
20
2.135416
30
0
11
6.445471
21
12.5
31
0
39
0
210
0
220
0
230
1
0
LINE
5
A5
100
AcDbEntity
8
1
62
256
6
ByLayer
370
18
48
1
60
0
100
AcDbLine
10
6.445471
20
-12.5
30
0
11
6.445471
21
-2.135416
31
0
39
0
210
0
220
0
230
1
0
LINE
5
A6
100
AcDbEntity
8
1
62
256
6
ByLayer
370
18
48
1
60
0
100
AcDbLine
10
17.519621
20
-2.5
30
0
11
17.494055
21
-3.125
31
0
39
0
210
0
220
0
230
1
0
LINE
5
A7
100
AcDbEntity
8
SK1
62
256
6
ByLayer
370
18
48
1
60
0
100
AcDbLine
10
-123.498894
20
-11
30
0
11
-123.437534
21
-12.5
31
0
39
0
210
0
220
0
230
1
0
LINE
5
A8
100
AcDbEntity
8
SK1
62
256
6
ByLayer
370
18
48
1
60
0
100
AcDbLine
10
-124.936279
20
-11
30
0
11
-123.437534
21
-12.5
31
0
39
0
210
0
220
0
230
1
0
LINE
5
A9
100
AcDbEntity
8
SK1
62
256
6
ByLayer
370
18
48
1
60
0
100
AcDbLine
10
-124.036334
20
-11
30
0
11
-122.537589
21
-12.5
31
0
39
0
210
0
220
0
230
1
0
LINE
5
AA
100
AcDbEntity
8
SK1
62
256
6
ByLayer
370
18
48
1
60
0
100
AcDbLine
10
-123.498894
20
11
30
0
11
-123.437534
21
12.5
31
0
39
0
210
0
220
0
230
1
0
LINE
5
AB
100
AcDbEntity
8
SK1
62
256
6
ByLayer
370
18
48
1
60
0
100
AcDbLine
10
-123.437534
20
12.5
30
0
11
-124.936279
21
11
31
0
39
0
210
0
220
0
230
1
0
LINE
5
AC
100
AcDbEntity
8
1
62
256
6
ByLayer
370
18
48
1
60
0
100
AcDbLine
10
18.005475
20
0
30
0
11
17.944027
21
-2.5
31
0
39
0
210
0
220
0
230
1
0
LINE
5
AD
100
AcDbEntity
8
1
62
256
6
ByLayer
370
18
48
1
60
0
100
AcDbLine
10
18.005475
20
0
30
0
11
17.944027
21
2.5
31
0
39
0
210
0
220
0
230
1
0
LINE
5
AE
100
AcDbEntity
8
1
62
256
6
ByLayer
370
18
48
1
60
0
100
AcDbLine
10
17.519621
20
2.5
30
0
11
17.494055
21
3.125
31
0
39
0
210
0
220
0
230
1
0
LINE
5
AF
100
AcDbEntity
8
1
62
256
6
ByLayer
370
13
48
1
60
0
100
AcDbLine
10
25.773173
20
0
30
0
11
25.414663
21
0
31
0
39
0
210
0
220
0
230
1
0
LINE
5
B0
100
AcDbEntity
8
1
62
256
6
ByLayer
370
18
48
1
60
0
100
AcDbLine
10
25.544541
20
0
30
0
11
22.355102
21
0
31
0
39
0
210
0
220
0
230
1
0
LINE
5
B1
100
AcDbEntity
8
1
62
256
6
ByLayer
370
18
48
1
60
0
100
AcDbLine
10
25.544541
20
0
30
0
11
22.389296
21
0
31
0
39
0
210
0
220
0
230
1
0
LINE
5
B2
100
AcDbEntity
8
1
62
256
6
ByLayer
370
18
48
1
60
0
100
AcDbLine
10
22.355102
20
0
30
0
11
22.389296
21
0
31
0
39
0
210
0
220
0
230
1
0
LINE
5
B3
100
AcDbEntity
8
SK1
62
256
6
ByLayer
370
18
48
1
60
0
100
AcDbLine
10
-124.329905
20
0
30
0
11
-121.17466
21
0
31
0
39
0
210
0
220
0
230
1
0
LINE
5
B4
100
AcDbEntity
8
SK1
62
256
6
ByLayer
370
18
48
1
60
0
100
AcDbLine
10
-121.140465
20
0
30
0
11
-121.17466
21
0
31
0
39
0
210
0
220
0
230
1
0
LINE
5
B5
100
AcDbEntity
8
SK1
62
256
6
ByLayer
370
18
48
1
60
0
100
AcDbLine
10
-122.47623
20
11
30
0
11
-0.102266
21
11
31
0
39
0
210
0
220
0
230
1
0
LINE
5
B6
100
AcDbEntity
8
SK1
62
256
6
ByLayer
370
18
48
1
60
0
100
AcDbLine
10
-124.936279
20
11
30
0
11
-124.036334
21
11
31
0
39
0
210
0
220
0
230
1
0
LINE
5
B7
100
AcDbEntity
8
1
62
256
6
ByLayer
370
18
48
1
60
0
100
AcDbLine
10
-0.442494
20
-12.5
30
0
11
16.346064
21
-12.5
31
0
39
0
210
0
220
0
230
1
0
LINE
5
B8
100
AcDbEntity
8
1
62
256
6
ByLayer
370
18
48
1
60
0
100
AcDbLine
10
-0.102266
20
11
30
0
11
17.906169
21
11
31
0
39
0
210
0
220
0
230
1
0
LINE
5
B9
100
AcDbEntity
8
SK1
62
256
6
ByLayer
370
18
48
1
60
0
100
AcDbLine
10
-123.498894
20
-11
30
0
11
-122.47623
21
-11
31
0
39
0
210
0
220
0
230
1
0
LINE
5
BA
100
AcDbEntity
8
SK1
62
256
6
ByLayer
370
18
48
1
60
0
100
AcDbLine
10
-124.036334
20
-11
30
0
11
-123.498894
21
-11
31
0
39
0
210
0
220
0
230
1
0
LINE
5
BB
100
AcDbEntity
8
1
62
256
6
ByLayer
370
13
48
1
60
0
100
AcDbLine
10
25.544541
20
0
30
0
11
25.773173
21
0
31
0
39
0
210
0
220
0
230
1
0
LINE
5
BC
100
AcDbEntity
8
SK1
62
256
6
ByLayer
370
13
48
1
60
0
100
AcDbLine
10
-124.871339
20
0
30
0
11
-124.329905
21
0
31
0
39
0
210
0
220
0
230
1
0
LINE
5
BD
100
AcDbEntity
8
81
62
256
6
ByLayer
370
18
48
1
60
0
100
AcDbLine
10
25.838113
20
0
30
0
11
26.522302
21
0
31
0
39
0
210
0
220
0
230
1
0
LINE
5
BE
100
AcDbEntity
8
80
62
256
6
ByLayer
370
18
48
1
60
0
100
AcDbLine
10
0
20
0
30
0
11
-14.11796
21
0
31
0
39
0
210
0
220
0
230
1
0
LINE
5
BF
100
AcDbEntity
8
SK1
62
256
6
ByLayer
370
18
48
1
60
0
100
AcDbLine
10
0
20
12.5
30
0
11
-122.537589
21
12.5
31
0
39
0
210
0
220
0
230
1
0
LINE
5
C0
100
AcDbEntity
8
SK1
62
256
6
ByLayer
370
18
48
1
60
0
100
AcDbLine
10
0
20
-11
30
0
11
-122.47623
21
-11
31
0
39
0
210
0
220
0
230
1
0
MTEXT
5
DD
100
AcDbEntity
8
SK6
62
256
6
ByLayer
370
18
48
1
60
0
100
AcDbMText
10
-65.422105
20
-21.690713
30
0
210
0
220
0
230
1
1
\W0.7551;CXS-2525-05FN
40
3.175
41
0
44
1.084337
50
0
71
7
72
5
7
iso_b_vert
0
DIMENSION
5
EF
100
AcDbEntity
8
SK2
62
256
6
ByLayer
370
13
48
1
60
0
100
AcDbDimension
2
DimnDraft3D1
10
-131.386125
20
-12.5
30
0
11
-131.386125
21
0
31
0
70
32
71
5
72
1
41
1
210
0
220
0
230
1
3
Standard
100
AcDbAlignedDimension
13
-124.125089
23
12.5
33
0
14
-125.025034
24
-12.5
34
0
50
90
100
AcDbRotatedDimension
1001
ACAD
1000
DSTYLE
1002
{
1070
    74
1070
     0
1070
   279
1070
     0
1070
   172
1070
     1
1070
   173
1070
     1
1070
   340
1005
DE
1070
   271
1070
     1
1070
   272
1070
     2
1070
    77
1070
     1
1070
    73
1070
     0
1070
   171
1070
     3
1070
   274
1070
     4
1070
   177
1070
     7
1070
   176
1070
     7
1070
   178
1070
     7
1070
    78
1070
     8
1070
    48
1040
-0.005
1070
    41
1041
3.175
1070
   147
1041
1.75006
1070
    42
1041
1.5875
1070
    44
1041
3.175
1070
   140
1041
3.50012
1070
   343
1005
0
1070
   344
1005
0
1002
}
0
DIMENSION
5
FD
100
AcDbEntity
8
SK2
62
256
6
ByLayer
370
13
48
1
60
0
100
AcDbDimension
2
DimnDraft3D2
10
-124.936279
20
35.30413
30
0
11
-49.549083
21
35.30413
31
0
70
32
71
5
72
1
41
1
210
0
220
0
230
1
3
Standard
100
AcDbAlignedDimension
13
25.838113
23
4.5875
33
0
14
-124.936279
24
12.5875
34
0
50
0
100
AcDbRotatedDimension
1001
ACAD
1000
DSTYLE
1002
{
1070
   279
1070
     0
1070
   172
1070
     1
1070
   173
1070
     1
1070
   340
1005
DE
1070
   271
1070
     1
1070
   272
1070
     2
1070
    77
1070
     1
1070
    73
1070
     0
1070
   171
1070
     3
1070
   274
1070
     4
1070
   177
1070
     7
1070
   176
1070
     7
1070
   178
1070
     7
1070
    78
1070
     8
1070
    48
1040
-0.005
1070
    41
1041
3.175
1070
   147
1041
1.75006
1070
    42
1041
1.5875
1070
    44
1041
3.175
1070
   140
1041
3.50012
1070
   343
1005
0
1070
   344
1005
0
1002
}
0
DIMENSION
5
10A
100
AcDbEntity
8
SK2
62
256
6
ByLayer
370
13
48
1
60
0
100
AcDbDimension
2
DimnDraft3D3
10
17.906169
20
-11
30
0
11
28.492156
21
-9.559057
31
0
70
34
71
5
72
1
41
1
210
0
220
0
230
1
3
Standard
100
AcDb2LineAngularDimension
13
-0.442494
23
-12.5
33
0
14
16.346064
24
-12.5
34
0
15
24.400728
25
-4.5
35
0
16
24.663714
26
-9.078107
36
0
40
0
0
DIMENSION
5
119
100
AcDbEntity
8
2
62
256
6
ByLayer
370
13
48
1
60
0
100
AcDbDimension
2
DimnDraft3D4
10
25.838113
20
24.178125
30
0
11
12.867923
21
24.178125
31
0
70
32
71
5
72
1
41
1
210
0
220
0
230
1
3
Standard
100
AcDbAlignedDimension
13
-0.102266
23
12.5875
33
0
14
25.838113
24
4.5875
34
0
50
0
100
AcDbRotatedDimension
1001
ACAD
1000
DSTYLE
1002
{
1070
   279
1070
     0
1070
   172
1070
     1
1070
   173
1070
     1
1070
   340
1005
DE
1070
   271
1070
     1
1070
   272
1070
     2
1070
    77
1070
     1
1070
    73
1070
     0
1070
   171
1070
     3
1070
   274
1070
     4
1070
   177
1070
     7
1070
   176
1070
     7
1070
   178
1070
     7
1070
    78
1070
     8
1070
    48
1040
-0.005
1070
    41
1041
3.175
1070
   147
1041
1.75006
1070
    42
1041
1.5875
1070
    44
1041
3.175
1070
   140
1041
3.50012
1070
   343
1005
0
1070
   344
1005
0
1002
}
0
ENDSEC
0
SECTION
2
OBJECTS
0
DICTIONARY
5
183
330
0
100
AcDbDictionary
280
0
281
1
3
ACAD_GROUP
350
184
3
ACAD_MLINESTYLE
350
185
0
DICTIONARY
5
184
330
0
100
AcDbDictionary
280
0
281
1
0
DICTIONARY
5
185
330
0
100
AcDbDictionary
280
0
281
1
3
Standard
350
18
0
MLINESTYLE
5
18
330
185
100
AcDbMlineStyle
2
Standard
70
0
3

62
256
51
90
52
90
71
2
49
-0.5
62
256
6
ByLayer
49
0.5
62
256
6
ByLayer
0
RASTERVARIABLES
5
172
330

100
AcDbRasterVariables
90
0
70
1
71
1
72
1
0
ENDSEC
0
EOF
