0
SECTION
2
HEADER
9
$ACADVER
1
AC1015
9
$DWGCODEPAGE
3
ANSI_1252
9
$HANDSEED
5
174
9
$ANGBASE
50
0
9
$ANGDIR
70
0
9
$ATTMODE
70
1
9
$AUNITS
70
0
9
$AUPREC
70
0
9
$CECOLOR
62
256
9
$CELTSCALE
40
1
9
$CELTYPE
6
ByLayer
9
$CELWEIGHT
370
18
9
$CLAYER
8
0
9
$CMLJUST
70
0
9
$CMLSCALE
40
1
9
$CMLSTYLE
2
Standard
9
$DIMSTYLE
2
Standard
9
$TEXTSIZE
40
0.2
9
$TEXTSTYLE
7
Standard
9
$LUNITS
70
2
9
$LUPREC
70
4
9
$EXTNAMES
290
1
9
$INSUNITS
70
4
9
$LTSCALE
40
1
9
$LWDISPLAY
290
1
9
$PDMODE
70
0
9
$PDSIZE
40
0
9
$PLINEGEN
70
0
0
ENDSEC
0
SECTION
2
CLASSES
0
CLASS
1
RASTERVARIABLES
2
AcDbRasterVariables
3
ISM
90
0
280
0
281
0
0
ENDSEC
0
SECTION
2
TABLES
0
TABLE
2
VPORT
5
16a
100
AcDbSymbolTable
0
VPORT
5
1
100
AcDbSymbolTableRecord
100
AcDbViewportTableRecord
2
*Active
70
0
10
0
20
0
11
1
21
1
12
-1
22
1
13
0
23
0
14
0.5
24
0.5
15
10
25
10
16
0
26
0
36
1
17
0
27
0
37
0
0
ENDTAB
0
TABLE
2
LTYPE
5
16b
100
AcDbSymbolTable
0
LTYPE
5
14
100
AcDbSymbolTableRecord
100
AcDbLinetypeTableRecord
70
0
2
ByBlock
3

72
65
73
0
40
0
0
LTYPE
5
15
100
AcDbSymbolTableRecord
100
AcDbLinetypeTableRecord
70
0
2
ByLayer
3

72
65
73
0
40
0
0
LTYPE
5
16
100
AcDbSymbolTableRecord
100
AcDbLinetypeTableRecord
70
0
2
CONTINUOUS
3
Solid line
72
65
73
0
40
0
0
LTYPE
5
6A
100
AcDbSymbolTableRecord
100
AcDbLinetypeTableRecord
70
0
2
CENTER
3
____ _ ____ _ ____ _ ____
72
65
73
4
40
47.5
49
22
74
0
49
-8.5
74
0
49
8.5
74
0
49
-8.5
74
0
0
LTYPE
5
6B
100
AcDbSymbolTableRecord
100
AcDbLinetypeTableRecord
70
0
2
DASHED
3
__ __ __ __ __ __ __ __ __
72
65
73
2
40
25.72
49
12.86
74
0
49
-12.86
74
0
0
ENDTAB
0
TABLE
2
LAYER
5
16c
100
AcDbSymbolTable
0
LAYER
5
10
100
AcDbSymbolTableRecord
100
AcDbLayerTableRecord
2
0
70
0
62
7
6
CONTINUOUS
290
1
370
-3
390
0
0
LAYER
5
6D
100
AcDbSymbolTableRecord
100
AcDbLayerTableRecord
2
80
70
0
62
-6
6
CONTINUOUS
290
1
370
-3
390
0
0
LAYER
5
6F
100
AcDbSymbolTableRecord
100
AcDbLayerTableRecord
2
81
70
0
62
-3
6
CONTINUOUS
290
1
370
-3
390
0
0
LAYER
5
71
100
AcDbSymbolTableRecord
100
AcDbLayerTableRecord
2
1
70
0
62
4
6
CONTINUOUS
290
1
370
-3
390
0
0
LAYER
5
D5
100
AcDbSymbolTableRecord
100
AcDbLayerTableRecord
2
2
70
0
62
7
6
CONTINUOUS
290
1
370
-3
390
0
0
LAYER
5
157
100
AcDbSymbolTableRecord
100
AcDbLayerTableRecord
2
SK1
70
0
62
4
6
CONTINUOUS
290
1
370
-3
390
0
0
LAYER
5
158
100
AcDbSymbolTableRecord
100
AcDbLayerTableRecord
2
SK6
70
0
62
5
6
CONTINUOUS
290
1
370
-3
390
0
0
LAYER
5
159
100
AcDbSymbolTableRecord
100
AcDbLayerTableRecord
2
SK2
70
0
62
7
6
CONTINUOUS
290
1
370
-3
390
0
0
ENDTAB
0
TABLE
2
STYLE
5
16d
100
AcDbSymbolTable
0
STYLE
5
11
100
AcDbSymbolTableRecord
100
AcDbTextStyleTableRecord
2
Standard
3
txt
70
0
71
0
40
0
41
1
42
0
50
0
0
STYLE
5
C1
100
AcDbSymbolTableRecord
100
AcDbTextStyleTableRecord
2
iso_b_vert
3
simplex.shx
70
0
71
0
40
0
41
1
42
0
50
0
0
STYLE
5
C2
100
AcDbSymbolTableRecord
100
AcDbTextStyleTableRecord
2
DWGDirectTextStyle
3
simplex
70
0
71
0
40
0
41
1
42
0
50
0
0
ENDTAB
0
TABLE
2
DIMSTYLE
5
16e
100
AcDbSymbolTable
100
AcDbDimStyleTable
0
DIMSTYLE
105
27
100
AcDbSymbolTableRecord
100
AcDbDimStyleTableRecord
2
Standard
70
0
3
<>
41
0.18
42
0.0625
44
0.18
140
0.18
147
0.09
73
0
74
0
77
1
271
2
275
0
278
52
280
0
340
11
0
ENDTAB
0
TABLE
2
VIEW
5
16f
100
AcDbSymbolTable
0
ENDTAB
0
TABLE
2
UCS
5
170
100
AcDbSymbolTable
0
ENDTAB
0
TABLE
2
APPID
5
171
100
AcDbSymbolTable
0
APPID
5
12
100
AcDbSymbolTableRecord
100
AcDbRegAppTableRecord
2
ACAD
70
0
0
ENDTAB
0
TABLE
2
BLOCK_RECORD
5
172
100
AcDbSymbolTable
0
BLOCK_RECORD
5
1F
100
AcDbSymbolTableRecord
100
AcDbBlockTableRecord
2
*Model_Space
340
0
70
0
0
BLOCK_RECORD
5
1B
100
AcDbSymbolTableRecord
100
AcDbBlockTableRecord
2
*Paper_Space
340
0
70
0
0
BLOCK_RECORD
5
23
100
AcDbSymbolTableRecord
100
AcDbBlockTableRecord
2
*Paper_Space0
340
0
70
0
0
BLOCK_RECORD
5
C4
100
AcDbSymbolTableRecord
100
AcDbBlockTableRecord
2
DimnDraft3D1
340
0
70
0
0
BLOCK_RECORD
5
D3
100
AcDbSymbolTableRecord
100
AcDbBlockTableRecord
2
DimnDraft3D2
340
0
70
0
0
BLOCK_RECORD
5
E2
100
AcDbSymbolTableRecord
100
AcDbBlockTableRecord
2
DimnDraft3D3
340
0
70
0
0
BLOCK_RECORD
5
F0
100
AcDbSymbolTableRecord
100
AcDbBlockTableRecord
2
DimnDraft3D4
340
0
70
0
0
ENDTAB
0
ENDSEC
0
SECTION
2
BLOCKS
0
BLOCK
5
20
100
AcDbEntity
8
0
100
AcDbBlockBegin
2
*Model_Space
70
0
10
0
20
0
30
0
3
*Model_Space
0
ENDBLK
5
21
100
AcDbEntity
8
0
100
AcDbBlockEnd
0
BLOCK
5
1C
100
AcDbEntity
8
0
100
AcDbBlockBegin
2
*Paper_Space
70
0
10
0
20
0
30
0
3
*Paper_Space
0
ENDBLK
5
1D
100
AcDbEntity
8
0
100
AcDbBlockEnd
0
BLOCK
5
24
100
AcDbEntity
8
0
100
AcDbBlockBegin
2
*Paper_Space0
70
0
10
0
20
0
30
0
3
*Paper_Space0
0
ENDBLK
5
25
100
AcDbEntity
8
0
100
AcDbBlockEnd
0
BLOCK
5
D0
100
AcDbEntity
8
0
100
AcDbBlockBegin
2
DimnDraft3D1
70
0
10
0
20
0
30
0
3
DimnDraft3D1
0
MTEXT
5
C5
100
AcDbEntity
8
SK2
62
256
6
ByLayer
370
18
48
1
60
0
100
AcDbMText
10
-39.517174
20
28.398208
30
0
210
0
220
0
230
1
1
\W0.6044;125
40
3.50012
41
0
44
1.084337
50
0
71
7
72
5
7
iso_b_vert
0
LINE
5
C7
100
AcDbEntity
8
SK2
62
256
6
ByLayer
370
13
48
1
60
0
100
AcDbLine
10
-100
20
10.0875
30
0
11
-100
21
30.698178
31
0
39
0
210
0
220
0
230
1
0
LINE
5
C8
100
AcDbEntity
8
SK2
62
256
6
ByLayer
370
13
48
1
60
0
100
AcDbLine
10
25
20
4.5875
30
0
11
25
21
30.698178
31
0
39
0
210
0
220
0
230
1
0
LINE
5
C9
100
AcDbEntity
8
SK2
62
256
6
ByLayer
370
13
48
1
60
0
100
AcDbLine
10
-100
20
27.523178
30
0
11
25
21
27.523178
31
0
39
0
210
0
220
0
230
1
0
LINE
5
CA
100
AcDbEntity
8
SK2
62
256
6
ByLayer
370
13
48
1
60
0
100
AcDbLine
10
-100
20
27.523178
30
0
11
-96.825002
21
27.941174
31
0
39
0
210
0
220
0
230
1
0
LINE
5
CB
100
AcDbEntity
8
SK2
62
256
6
ByLayer
370
13
48
1
60
0
100
AcDbLine
10
-100
20
27.523178
30
0
11
-96.824998
21
27.105181
31
0
39
0
210
0
220
0
230
1
0
LINE
5
CC
100
AcDbEntity
8
SK2
62
256
6
ByLayer
370
13
48
1
60
0
100
AcDbLine
10
-96.825002
20
27.941174
30
0
11
-96.824998
21
27.105181
31
0
39
0
210
0
220
0
230
1
0
LINE
5
CD
100
AcDbEntity
8
SK2
62
256
6
ByLayer
370
13
48
1
60
0
100
AcDbLine
10
25
20
27.523178
30
0
11
21.825002
21
27.105181
31
0
39
0
210
0
220
0
230
1
0
LINE
5
CE
100
AcDbEntity
8
SK2
62
256
6
ByLayer
370
13
48
1
60
0
100
AcDbLine
10
25
20
27.523178
30
0
11
21.824998
21
27.941174
31
0
39
0
210
0
220
0
230
1
0
LINE
5
CF
100
AcDbEntity
8
SK2
62
256
6
ByLayer
370
13
48
1
60
0
100
AcDbLine
10
21.825002
20
27.105181
30
0
11
21.824998
21
27.941174
31
0
39
0
210
0
220
0
230
1
0
ENDBLK
5
D1
100
AcDbEntity
8
0
100
AcDbBlockEnd
0
BLOCK
5
DF
100
AcDbEntity
8
0
100
AcDbBlockBegin
2
DimnDraft3D2
70
0
10
0
20
0
30
0
3
DimnDraft3D2
0
MTEXT
5
D4
100
AcDbEntity
8
2
62
256
6
ByLayer
370
18
48
1
60
0
100
AcDbMText
10
11.330223
20
17.130666
30
0
210
0
220
0
230
1
1
\W0.6562;25
40
3.50012
41
0
44
1.084337
50
0
71
7
72
5
7
iso_b_vert
0
LINE
5
D6
100
AcDbEntity
8
2
62
256
6
ByLayer
370
13
48
1
60
0
100
AcDbLine
10
0
20
10.0875
30
0
11
0
21
19.430636
31
0
39
0
210
0
220
0
230
1
0
LINE
5
D7
100
AcDbEntity
8
2
62
256
6
ByLayer
370
13
48
1
60
0
100
AcDbLine
10
25
20
4.5875
30
0
11
25
21
19.430636
31
0
39
0
210
0
220
0
230
1
0
LINE
5
D8
100
AcDbEntity
8
2
62
256
6
ByLayer
370
13
48
1
60
0
100
AcDbLine
10
0
20
16.255636
30
0
11
25
21
16.255636
31
0
39
0
210
0
220
0
230
1
0
LINE
5
D9
100
AcDbEntity
8
2
62
256
6
ByLayer
370
13
48
1
60
0
100
AcDbLine
10
0
20
16.255636
30
0
11
3.174998
21
16.673633
31
0
39
0
210
0
220
0
230
1
0
LINE
5
DA
100
AcDbEntity
8
2
62
256
6
ByLayer
370
13
48
1
60
0
100
AcDbLine
10
0
20
16.255636
30
0
11
3.175002
21
15.83764
31
0
39
0
210
0
220
0
230
1
0
LINE
5
DB
100
AcDbEntity
8
2
62
256
6
ByLayer
370
13
48
1
60
0
100
AcDbLine
10
3.174998
20
16.673633
30
0
11
3.175002
21
15.83764
31
0
39
0
210
0
220
0
230
1
0
LINE
5
DC
100
AcDbEntity
8
2
62
256
6
ByLayer
370
13
48
1
60
0
100
AcDbLine
10
25
20
16.255636
30
0
11
21.825002
21
15.83764
31
0
39
0
210
0
220
0
230
1
0
LINE
5
DD
100
AcDbEntity
8
2
62
256
6
ByLayer
370
13
48
1
60
0
100
AcDbLine
10
25
20
16.255636
30
0
11
21.824998
21
16.673633
31
0
39
0
210
0
220
0
230
1
0
LINE
5
DE
100
AcDbEntity
8
2
62
256
6
ByLayer
370
13
48
1
60
0
100
AcDbLine
10
21.825002
20
15.83764
30
0
11
21.824998
21
16.673633
31
0
39
0
210
0
220
0
230
1
0
ENDBLK
5
E0
100
AcDbEntity
8
0
100
AcDbBlockEnd
0
BLOCK
5
ED
100
AcDbEntity
8
0
100
AcDbBlockBegin
2
DimnDraft3D3
70
0
10
0
20
0
30
0
3
DimnDraft3D3
0
MTEXT
5
E3
100
AcDbEntity
8
SK2
62
256
6
ByLayer
370
18
48
1
60
0
100
AcDbMText
10
-103.731329
20
-1.169777
30
0
210
0
220
0
230
1
1
\W0.6562;20
40
3.50012
41
0
44
1.084337
50
90
71
7
72
5
7
iso_b_vert
0
LINE
5
E4
100
AcDbEntity
8
SK2
62
256
6
ByLayer
370
13
48
1
60
0
100
AcDbLine
10
-100.0875
20
10
30
0
11
-106.031299
21
10
31
0
39
0
210
0
220
0
230
1
0
LINE
5
E5
100
AcDbEntity
8
SK2
62
256
6
ByLayer
370
13
48
1
60
0
100
AcDbLine
10
-100.0875
20
-10
30
0
11
-106.031299
21
-10
31
0
39
0
210
0
220
0
230
1
0
LINE
5
E6
100
AcDbEntity
8
SK2
62
256
6
ByLayer
370
13
48
1
60
0
100
AcDbLine
10
-102.856299
20
10
30
0
11
-102.856299
21
-10
31
0
39
0
210
0
220
0
230
1
0
LINE
5
E7
100
AcDbEntity
8
SK2
62
256
6
ByLayer
370
13
48
1
60
0
100
AcDbLine
10
-102.856299
20
10
30
0
11
-102.438302
21
6.825002
31
0
39
0
210
0
220
0
230
1
0
LINE
5
E8
100
AcDbEntity
8
SK2
62
256
6
ByLayer
370
13
48
1
60
0
100
AcDbLine
10
-102.856299
20
10
30
0
11
-103.274296
21
6.824998
31
0
39
0
210
0
220
0
230
1
0
LINE
5
E9
100
AcDbEntity
8
SK2
62
256
6
ByLayer
370
13
48
1
60
0
100
AcDbLine
10
-102.438302
20
6.825002
30
0
11
-103.274296
21
6.824998
31
0
39
0
210
0
220
0
230
1
0
LINE
5
EA
100
AcDbEntity
8
SK2
62
256
6
ByLayer
370
13
48
1
60
0
100
AcDbLine
10
-102.856299
20
-10
30
0
11
-103.274296
21
-6.825002
31
0
39
0
210
0
220
0
230
1
0
LINE
5
EB
100
AcDbEntity
8
SK2
62
256
6
ByLayer
370
13
48
1
60
0
100
AcDbLine
10
-102.856299
20
-10
30
0
11
-102.438302
21
-6.824998
31
0
39
0
210
0
220
0
230
1
0
LINE
5
EC
100
AcDbEntity
8
SK2
62
256
6
ByLayer
370
13
48
1
60
0
100
AcDbLine
10
-103.274296
20
-6.825002
30
0
11
-102.438302
21
-6.824998
31
0
39
0
210
0
220
0
230
1
0
ENDBLK
5
EE
100
AcDbEntity
8
0
100
AcDbBlockEnd
0
BLOCK
5
FB
100
AcDbEntity
8
0
100
AcDbBlockBegin
2
DimnDraft3D4
70
0
10
0
20
0
30
0
3
DimnDraft3D4
0
MTEXT
5
F1
100
AcDbEntity
8
SK2
62
256
6
ByLayer
370
18
48
1
60
0
100
AcDbMText
10
19.874185
20
-14.881944
30
0
210
0
220
0
230
1
1
\W0.8896;45%%d
40
3.50012
41
0
44
1.084337
50
347.651569607386
71
7
72
5
7
iso_b_vert
0
LINE
5
F2
100
AcDbEntity
8
SK2
62
256
6
ByLayer
370
13
48
1
60
0
100
AcDbLine
10
18.377468
20
-9.622532
30
0
11
13.153646
21
-14.846354
31
0
39
0
210
0
220
0
230
1
0
LINE
5
F3
100
AcDbEntity
8
SK2
62
256
6
ByLayer
370
13
48
1
60
0
100
AcDbLine
10
25
20
-4.5875
30
0
11
25
21
-19.753274
31
0
39
0
210
0
220
0
230
1
0
ARC
5
F4
100
AcDbEntity
8
SK2
62
256
6
ByLayer
370
13
48
1
60
0
100
AcDbCircle
39
0
10
25
20
-3
30
0
40
13.5782739069695
210
0
220
0
230
1
100
AcDbArc
50
225
51
270
0
LINE
5
F5
100
AcDbEntity
8
SK2
62
256
6
ByLayer
370
13
48
1
60
0
100
AcDbLine
10
15.39871
20
-12.60129
30
0
11
18.048424
21
-14.39972
31
0
39
0
210
0
220
0
230
1
0
LINE
5
F6
100
AcDbEntity
8
SK2
62
256
6
ByLayer
370
13
48
1
60
0
100
AcDbLine
10
15.39871
20
-12.60129
30
0
11
17.492671
21
-15.024239
31
0
39
0
210
0
220
0
230
1
0
LINE
5
F7
100
AcDbEntity
8
SK2
62
256
6
ByLayer
370
13
48
1
60
0
100
AcDbLine
10
18.048424
20
-14.39972
30
0
11
17.492671
21
-15.024239
31
0
39
0
210
0
220
0
230
1
0
LINE
5
F8
100
AcDbEntity
8
SK2
62
256
6
ByLayer
370
13
48
1
60
0
100
AcDbLine
10
25
20
-16.578274
30
0
11
21.806065
21
-16.810904
31
0
39
0
210
0
220
0
230
1
0
LINE
5
F9
100
AcDbEntity
8
SK2
62
256
6
ByLayer
370
13
48
1
60
0
100
AcDbLine
10
25
20
-16.578274
30
0
11
21.854684
21
-15.976326
31
0
39
0
210
0
220
0
230
1
0
LINE
5
FA
100
AcDbEntity
8
SK2
62
256
6
ByLayer
370
13
48
1
60
0
100
AcDbLine
10
21.806065
20
-16.810904
30
0
11
21.854684
21
-15.976326
31
0
39
0
210
0
220
0
230
1
0
ENDBLK
5
FC
100
AcDbEntity
8
0
100
AcDbBlockEnd
0
ENDSEC
0
SECTION
2
ENTITIES
0
ARC
5
AA
100
AcDbEntity
8
1
62
256
6
ByLayer
370
18
48
1
60
0
100
AcDbCircle
39
0
10
18
20
0
30
0
40
2.5
210
0
220
0
230
1
100
AcDbArc
50
270
51
90
0
ARC
5
AB
100
AcDbEntity
8
1
62
256
6
ByLayer
370
18
48
1
60
0
100
AcDbCircle
39
0
10
18
20
0
30
0
40
2.5
210
0
220
0
230
1
100
AcDbArc
50
90
51
270
0
ARC
5
AC
100
AcDbEntity
8
1
62
256
6
ByLayer
370
18
48
1
60
0
100
AcDbCircle
39
0
10
18
20
0
30
0
40
3.125
210
0
220
0
230
1
100
AcDbArc
50
90
51
270
0
ARC
5
AD
100
AcDbEntity
8
1
62
256
6
ByLayer
370
18
48
1
60
0
100
AcDbCircle
39
0
10
18
20
0
30
0
40
2.5
210
0
220
0
230
1
100
AcDbArc
50
53.130102
51
90
0
ARC
5
AE
100
AcDbEntity
8
1
62
256
6
ByLayer
370
18
48
1
60
0
100
AcDbCircle
39
0
10
18
20
0
30
0
40
3.125
210
0
220
0
230
1
100
AcDbArc
50
270
51
90
0
POINT
5
6C
100
AcDbEntity
8
80
62
256
6
ByLayer
370
18
48
1
60
0
100
AcDbPoint
10
0
20
0
30
0
39
0
210
0
220
0
230
1
50
360
0
POINT
5
6E
100
AcDbEntity
8
81
62
256
6
ByLayer
370
18
48
1
60
0
100
AcDbPoint
10
25
20
0
30
0
39
0
210
0
220
0
230
1
50
360
0
SPLINE
5
AF
100
AcDbEntity
8
1
62
256
6
ByLayer
370
18
48
1
60
0
100
AcDbSpline
70
4
71
3
72
150
73
146
40
0
40
0
40
0
40
0
40
0.0065585338475199
40
0.0132321772658184
40
0.0200217604599174
40
0.026927985532665
40
0.0339514145563454
40
0.0409639074825135
40
0.0480900847048644
40
0.0553300135788569
40
0.0626835834360773
40
0.0703040531831855
40
0.0780419970851603
40
0.0858966429489266
40
0.0938669706931103
40
0.101951698832543
40
0.110149271417587
40
0.11845784562529
40
0.126875280222465
40
0.135399125144403
40
0.144026612456607
40
0.15275464899022
40
0.161579810964134
40
0.170498340927282
40
0.179506147372634
40
0.187837982869364
40
0.196237476879123
40
0.204700758787205
40
0.213223743187829
40
0.221802141258437
40
0.230431474976645
40
0.237454718902115
40
0.244505785758058
40
0.25158207416664
40
0.258680934687744
40
0.265799679870696
40
0.272935595270008
40
0.279677032033104
40
0.286429017178579
40
0.293189269494042
40
0.299955527225277
40
0.306725559505514
40
0.313497178287542
40
0.320268250711654
40
0.327036711829375
40
0.333800577589182
40
0.340557957976248
40
0.347186638701513
40
0.353805767649907
40
0.360413892274471
40
0.367009694983016
40
0.373102924412656
40
0.379183781561071
40
0.385251576595524
40
0.391305746066176
40
0.397345857804823
40
0.403371614964451
40
0.409382859097718
40
0.414880427491217
40
0.420365875344604
40
0.425839392641922
40
0.431301267989436
40
0.436751886856656
40
0.442191728999597
40
0.44762136505482
40
0.453041452303651
40
0.458452729617618
40
0.463856011608446
40
0.469252182018592
40
0.474642186401003
40
0.479719459711968
40
0.484793014508865
40
0.489863754595525
40
0.494932605837182
40
0.500000508929978
40
0.505864198438448
40
0.511729355711595
40
0.51759743307649
40
0.523469852191378
40
0.529347989222217
40
0.535233160618596
40
0.54112660966648
40
0.546537233767988
40
0.551956606968382
40
0.557385474261246
40
0.562824499477613
40
0.568274260168424
40
0.573735243304391
40
0.580303699983755
40
0.586889374937564
40
0.593492558332888
40
0.600113333632405
40
0.606751577877612
40
0.613287978357126
40
0.619840417004117
40
0.626408216241142
40
0.63299052519914
40
0.640113779850694
40
0.647251286304936
40
0.654401364434268
40
0.661562153016337
40
0.668731626500026
40
0.675907612310541
40
0.682677458396235
40
0.689449026575014
40
0.696220220769847
40
0.702988882566156
40
0.70975280379145
40
0.717293437325286
40
0.724822210514658
40
0.732335943376084
40
0.739831453306061
40
0.747305572074019
40
0.754755161555838
40
0.76217712817417
40
0.769568436030935
40
0.777398272589807
40
0.785186543186597
40
0.792929886476563
40
0.800625067263156
40
0.808268985647098
40
0.815858684563525
40
0.824730226764425
40
0.833518242237505
40
0.842218710870584
40
0.850827919713166
40
0.859515217434009
40
0.868100660842458
40
0.876581290590194
40
0.884954469772348
40
0.893217875841644
40
0.901369490970522
40
0.909407591142481
40
0.917330734230354
40
0.925137747295525
40
0.932827713318667
40
0.940399957549773
40
0.947854033643377
40
0.95518970972408
40
0.962406954508079
40
0.970209313880832
40
0.977869012597707
40
0.985386731941156
40
0.992763365589161
40
1
40
1
40
1
40
1
41
1
10
18
20
-2.5
30
0
41
1
10
18.0147643145673
20
-2.50000002088782
30
0
41
1
10
18.0445493570163
20
-2.49973614733805
30
0
41
1
10
18.0896125296144
20
-2.49853135584987
30
0
41
1
10
18.1354427435171
20
-2.49647134391124
30
0
41
1
10
18.1820367453475
20
-2.49351198263224
30
0
41
1
10
18.2290995982185
20
-2.48963154636677
30
0
41
1
10
18.2766150243984
20
-2.48480351705952
30
0
41
1
10
18.3245651655995
20
-2.47900150577532
30
0
41
1
10
18.3732177584084
20
-2.47215027764249
30
0
41
1
10
18.422902419654
20
-2.4641465224678
30
0
41
1
10
18.4736111541764
20
-2.45491451735031
30
0
41
1
10
18.5253322771142
20
-2.4443753460741
30
0
41
1
10
18.5777103196501
20
-2.43253542843253
30
0
41
1
10
18.6307190500181
20
-2.41933984119707
30
0
41
1
10
18.6843288916806
20
-2.40473297749818
30
0
41
1
10
18.7385067391847
20
-2.388658709679
30
0
41
1
10
18.7932157824637
20
-2.37106057157142
30
0
41
1
10
18.8484153336803
20
-2.35188196257438
30
0
41
1
10
18.9040606604644
20
-2.3310663741964
30
0
41
1
10
18.9601028284931
20
-2.30855763924615
30
0
41
1
10
19.0164885512266
20
-2.28430020671996
30
0
41
1
10
19.0731600677875
20
-2.25823943317976
30
0
41
1
10
19.1300549823021
20
-2.23032192699838
30
0
41
1
10
19.1854998299074
20
-2.20133567761677
30
0
41
1
10
19.2394395127403
20
-2.17140566685776
30
0
41
1
10
19.2918254352344
20
-2.14066207870265
30
0
41
1
10
19.3441612061474
20
-2.1082012237325
30
0
41
1
10
19.3963811322801
20
-2.07399048527684
30
0
41
1
10
19.4484160250515
20
-2.03799980996216
30
0
41
1
10
19.4968882348947
20
-2.00261469860581
30
0
41
1
10
19.5418226836453
20
-1.96817488276086
30
0
41
1
10
19.5832581270629
20
-1.93500450102534
30
0
41
1
10
19.6243901765924
20
-1.90061160668269
30
0
41
1
10
19.6651745452238
20
-1.86498817641178
30
0
41
1
10
19.7055656815124
20
-1.82812803499693
30
0
41
1
10
19.7447537600706
20
-1.79075471743728
30
0
41
1
10
19.7827260918141
20
-1.75294481127819
30
0
41
1
10
19.8194744817308
20
-1.71477591426061
30
0
41
1
10
19.8557071923362
20
-1.67550307276971
30
0
41
1
10
19.8913821906834
20
-1.63512963732638
30
0
41
1
10
19.9264569165258
20
-1.5936608557625
30
0
41
1
10
19.9608883934254
20
-1.55110392000389
30
0
41
1
10
19.9946333233181
20
-1.50746803102201
30
0
41
1
10
20.027648195697
20
-1.46276444856372
30
0
41
1
10
20.0598893914674
20
-1.41700655159217
30
0
41
1
10
20.0911266306062
20
-1.37048786708894
30
0
41
1
10
20.1213339897874
20
-1.32324763453041
30
0
41
1
10
20.1504878598214
20
-1.27532637680251
30
0
41
1
10
20.1787299342389
20
-1.22646000968837
30
0
41
1
10
20.2053456465755
20
-1.17790209408349
30
0
41
1
10
20.2303775030352
20
-1.12975741281146
30
0
41
1
10
20.2538744719152
20
-1.08212513994021
30
0
41
1
10
20.2764612248618
20
-1.03376895779423
30
0
41
1
10
20.2981084040229
20
-0.984713365728816
30
0
41
1
10
20.3187874474696
20
-0.934984358413042
30
0
41
1
10
20.3384706776733
20
-0.884609427497468
30
0
41
1
10
20.3566149694262
20
-0.835028646813168
30
0
41
1
10
20.3732918184074
20
-0.786333530615721
30
0
41
1
10
20.3885770349689
20
-0.738606447715583
30
0
41
1
10
20.4029446696953
20
-0.690435806390495
30
0
41
1
10
20.4163776571069
20
-0.641847608768064
30
0
41
1
10
20.4288598849533
20
-0.59286872270216
30
0
41
1
10
20.4403762626263
20
-0.543526783102394
30
0
41
1
10
20.4509127604815
20
-0.493850159106337
30
0
41
1
10
20.4604564537236
20
-0.443867898523
30
0
41
1
10
20.4689955612306
20
-0.393609679009563
30
0
41
1
10
20.4765194828161
20
-0.34310573746785
30
0
41
1
10
20.4830188291662
20
-0.292386863249483
30
0
41
1
10
20.488381490091
20
-0.24245228698353
30
0
41
1
10
20.492668461426
20
-0.193345913076433
30
0
41
1
10
20.4959415813277
20
-0.145104621729251
30
0
41
1
10
20.4982821588395
20
-0.0967818161348161
30
0
41
1
10
20.4996875594994
20
-0.0484044920800961
30
0
41
1
10
20.500180739465
20
0.0025332663197144
30
0
41
1
10
20.4995816937978
20
0.0560070609784451
30
0
41
1
10
20.4977003314798
20
0.111971776520254
30
0
41
1
10
20.4945678889217
20
0.167852211843896
30
0
41
1
10
20.4901890853023
20
0.223606351161322
30
0
41
1
10
20.4845705045677
20
0.279192644549823
30
0
41
1
10
20.4777205812143
20
0.33456986281255
30
0
41
1
10
20.4698742069962
20
0.388162793331083
30
0
41
1
10
20.4611580755529
20
0.439961176594532
30
0
41
1
10
20.4516922502803
20
0.48996604390205
30
0
41
1
10
20.4412326637527
20
0.53966753124378
30
0
41
1
10
20.4297921546758
20
0.589036566633877
30
0
41
1
10
20.4173846420553
20
0.638044796868654
30
0
41
1
10
20.4031316469017
20
0.689916300533206
30
0
41
1
10
20.3868198209439
20
0.744512965916181
30
0
41
1
10
20.3682341266271
20
0.801664710722205
30
0
41
1
10
20.3483616901532
20
0.858129810533357
30
0
41
1
10
20.3272357800597
20
0.913866868639871
30
0
41
1
10
20.3050247371176
20
0.968508248324964
30
0
41
1
10
20.2817890142625
20
1.02203465114375
30
0
41
1
10
20.2575879965039
20
1.07443058800598
30
0
41
1
10
20.2323190919379
20
1.12598596479648
30
0
41
1
10
20.205317718419
20
1.17802532344078
30
0
41
1
10
20.1765301275679
20
1.23043131101908
30
0
41
1
10
20.1459109902861
20
1.28308002623146
30
0
41
1
10
20.114236168351
20
1.33462243623961
30
0
41
1
10
20.0815568656295
20
1.38503267673984
30
0
41
1
10
20.0479247322695
20
1.43428773444025
30
0
41
1
10
20.0140499513025
20
1.48145090864273
30
0
41
1
10
19.980039251823
20
1.52658438630417
30
0
41
1
10
19.9459902818758
20
1.56975213624397
30
0
41
1
10
19.9112736516847
20
1.6118366580658
30
0
41
1
10
19.8759324947403
20
1.65282967696082
30
0
41
1
10
19.8386221591528
20
1.69426573735517
30
0
41
1
10
19.7993087464947
20
1.73598752289517
30
0
41
1
10
19.7579674990354
20
1.777833686527
30
0
41
1
10
19.7160695653785
20
1.81830284010808
30
0
41
1
10
19.6736708806154
20
1.85739692538095
30
0
41
1
10
19.630826086201
20
1.89512042131279
30
0
41
1
10
19.5875884786065
20
1.93148014935856
30
0
41
1
10
19.5440098811217
20
1.96648516477778
30
0
41
1
10
19.4992064006562
20
2.00086340792974
30
0
41
1
10
19.453203027011
20
2.03453099614424
30
0
41
1
10
19.4060292940519
20
2.06740672723929
30
0
41
1
10
19.3586924872543
20
2.09881334229513
30
0
41
1
10
19.3112448129648
20
2.12877283685481
30
0
41
1
10
19.2637361311881
20
2.1573089852423
30
0
41
1
10
19.2134194183526
20
2.18604300035346
30
0
41
1
10
19.1603188890856
20
2.21472080827418
30
0
41
1
10
19.1044702797467
20
2.24308568055006
30
0
41
1
10
19.0488013043037
20
2.26963969137732
30
0
41
1
10
18.9930024106461
20
2.29459813491023
30
0
41
1
10
18.9371318343874
20
2.31797398407722
30
0
41
1
10
18.8812458238718
20
2.33978331080422
30
0
41
1
10
18.8257771862608
20
2.35992241212818
30
0
41
1
10
18.7707731242283
20
2.37844762407641
30
0
41
1
10
18.716276694377
20
2.39541552231031
30
0
41
1
10
18.6623269780576
20
2.4108826783424
30
0
41
1
10
18.6089592484763
20
2.42490544333274
30
0
41
1
10
18.5562051461197
20
2.43753975270825
30
0
41
1
10
18.5040928566567
20
2.44884095226023
30
0
41
1
10
18.4526472911489
20
2.45886364420169
30
0
41
1
10
18.4018902645867
20
2.46766155248105
30
0
41
1
10
18.3518406794474
20
2.47528740512024
30
0
41
1
10
18.3025146840422
20
2.4817928362599
30
0
41
1
10
18.2523474399462
20
2.4874048706942
30
0
41
1
10
18.2013998746983
20
2.49205731281385
30
0
41
1
10
18.1497335975894
20
2.4956876528801
30
0
41
1
10
18.098993519638
20
2.49820817784203
30
0
41
1
10
18.0491846252592
20
2.49967847870168
30
0
41
1
10
18.0162910386454
20
2.50000003101703
30
0
41
1
10
18
20
2.5
30
0
0
SPLINE
5
B0
100
AcDbEntity
8
1
62
256
6
ByLayer
370
18
48
1
60
0
100
AcDbSpline
70
4
71
3
72
150
73
146
40
0
40
0
40
0
40
0
40
0.0065585338475199
40
0.0132321772658184
40
0.0200217604599174
40
0.0269279855326651
40
0.0339514145563451
40
0.0409639074825135
40
0.0480900847048647
40
0.055330013578857
40
0.0626835834360774
40
0.0703040531831855
40
0.0780419970851603
40
0.0858966429489266
40
0.0938669706931104
40
0.101951698832543
40
0.110149271417587
40
0.11845784562529
40
0.126875280222465
40
0.135399125144403
40
0.144026612456607
40
0.152754648990221
40
0.161579810964134
40
0.170498340927282
40
0.179506147372634
40
0.187837982869365
40
0.196237476879123
40
0.204700758787206
40
0.213223743187829
40
0.221802141258437
40
0.230431474976645
40
0.237454718902115
40
0.244505785758058
40
0.25158207416664
40
0.258680934687744
40
0.265799679870696
40
0.272935595270008
40
0.279677032033105
40
0.286429017178579
40
0.293189269494042
40
0.299955527225277
40
0.306725559505514
40
0.313497178287542
40
0.320268250711655
40
0.327036711829376
40
0.333800577589182
40
0.340557957976249
40
0.347186638701513
40
0.353805767649907
40
0.360413892274471
40
0.367009694983016
40
0.373102924412656
40
0.379183781561071
40
0.385251576595524
40
0.391305746066177
40
0.397345857804823
40
0.403371614964451
40
0.409382859097718
40
0.414880427491217
40
0.420365875344604
40
0.425839392641923
40
0.431301267989436
40
0.436751886856656
40
0.442191728999597
40
0.447621365054821
40
0.453041452303651
40
0.458452729617618
40
0.463856011608447
40
0.469252182018593
40
0.474642186401003
40
0.479719459711968
40
0.484793014508866
40
0.489863754595526
40
0.494932605837182
40
0.500000508929978
40
0.505864198438449
40
0.511729355711595
40
0.51759743307649
40
0.523469852191378
40
0.529347989222217
40
0.535233160618596
40
0.54112660966648
40
0.546537233767989
40
0.551956606968383
40
0.557385474261247
40
0.562824499477614
40
0.568274260168425
40
0.573735243304391
40
0.580303699983755
40
0.586889374937564
40
0.593492558332888
40
0.600113333632405
40
0.606751577877613
40
0.613287978357126
40
0.619840417004117
40
0.626408216241142
40
0.63299052519914
40
0.640113779850694
40
0.647251286304937
40
0.654401364434268
40
0.661562153016337
40
0.668731626500026
40
0.675907612310541
40
0.682677458396235
40
0.689449026575014
40
0.696220220769847
40
0.702988882566156
40
0.70975280379145
40
0.717293437325286
40
0.724822210514658
40
0.732335943376084
40
0.739831453306061
40
0.74730557207402
40
0.754755161555838
40
0.76217712817417
40
0.769568436030935
40
0.777398272589807
40
0.785186543186597
40
0.792929886476563
40
0.800625067263156
40
0.808268985647099
40
0.815858684563525
40
0.824730226764425
40
0.833518242237505
40
0.842218710870584
40
0.850827919713167
40
0.859515217434009
40
0.868100660842458
40
0.876581290590195
40
0.884954469772348
40
0.893217875841644
40
0.901369490970522
40
0.909407591142481
40
0.917330734230354
40
0.925137747295525
40
0.932827713318666
40
0.940399957549774
40
0.947854033643377
40
0.955189709724081
40
0.962406954508079
40
0.970209313880832
40
0.977869012597707
40
0.985386731941156
40
0.992763365589161
40
1
40
1
40
1
40
1
41
1
10
18
20
2.5
30
0
41
1
10
17.9852356854327
20
2.50000002088782
30
0
41
1
10
17.9554506429837
20
2.49973614733805
30
0
41
1
10
17.9103874703856
20
2.49853135584987
30
0
41
1
10
17.8645572564829
20
2.49647134391124
30
0
41
1
10
17.8179632546526
20
2.49351198263224
30
0
41
1
10
17.7709004017815
20
2.48963154636677
30
0
41
1
10
17.7233849756016
20
2.48480351705952
30
0
41
1
10
17.6754348344005
20
2.47900150577533
30
0
41
1
10
17.6267822415916
20
2.47215027764249
30
0
41
1
10
17.577097580346
20
2.4641465224678
30
0
41
1
10
17.5263888458236
20
2.45491451735031
30
0
41
1
10
17.4746677228858
20
2.4443753460741
30
0
41
1
10
17.4222896803499
20
2.43253542843253
30
0
41
1
10
17.3692809499819
20
2.41933984119707
30
0
41
1
10
17.3156711083194
20
2.40473297749818
30
0
41
1
10
17.2614932608153
20
2.38865870967899
30
0
41
1
10
17.2067842175363
20
2.37106057157142
30
0
41
1
10
17.1515846663197
20
2.35188196257438
30
0
41
1
10
17.0959393395356
20
2.3310663741964
30
0
41
1
10
17.0398971715069
20
2.30855763924615
30
0
41
1
10
16.9835114487734
20
2.28430020671996
30
0
41
1
10
16.9268399322125
20
2.25823943317976
30
0
41
1
10
16.8699450176979
20
2.23032192699838
30
0
41
1
10
16.8145001700926
20
2.20133567761677
30
0
41
1
10
16.7605604872597
20
2.17140566685777
30
0
41
1
10
16.7081745647656
20
2.14066207870265
30
0
41
1
10
16.6558387938526
20
2.1082012237325
30
0
41
1
10
16.6036188677199
20
2.07399048527684
30
0
41
1
10
16.5515839749485
20
2.03799980996216
30
0
41
1
10
16.5031117651053
20
2.00261469860581
30
0
41
1
10
16.4581773163547
20
1.96817488276086
30
0
41
1
10
16.4167418729371
20
1.93500450102534
30
0
41
1
10
16.3756098234076
20
1.90061160668269
30
0
41
1
10
16.3348254547762
20
1.86498817641178
30
0
41
1
10
16.2944343184876
20
1.82812803499692
30
0
41
1
10
16.2552462399294
20
1.79075471743728
30
0
41
1
10
16.2172739081859
20
1.75294481127819
30
0
41
1
10
16.1805255182692
20
1.71477591426061
30
0
41
1
10
16.1442928076638
20
1.67550307276972
30
0
41
1
10
16.1086178093166
20
1.63512963732637
30
0
41
1
10
16.0735430834742
20
1.5936608557625
30
0
41
1
10
16.0391116065746
20
1.55110392000389
30
0
41
1
10
16.0053666766819
20
1.50746803102201
30
0
41
1
10
15.9723518043031
20
1.46276444856372
30
0
41
1
10
15.9401106085326
20
1.41700655159217
30
0
41
1
10
15.9088733693938
20
1.37048786708895
30
0
41
1
10
15.8786660102126
20
1.32324763453041
30
0
41
1
10
15.8495121401786
20
1.27532637680251
30
0
41
1
10
15.8212700657611
20
1.22646000968837
30
0
41
1
10
15.7946543534245
20
1.17790209408349
30
0
41
1
10
15.7696224969648
20
1.12975741281146
30
0
41
1
10
15.7461255280848
20
1.08212513994021
30
0
41
1
10
15.7235387751382
20
1.03376895779423
30
0
41
1
10
15.7018915959771
20
0.984713365728818
30
0
41
1
10
15.6812125525304
20
0.93498435841304
30
0
41
1
10
15.6615293223267
20
0.884609427497468
30
0
41
1
10
15.6433850305738
20
0.835028646813169
30
0
41
1
10
15.6267081815926
20
0.78633353061572
30
0
41
1
10
15.6114229650311
20
0.738606447715584
30
0
41
1
10
15.5970553303047
20
0.690435806390495
30
0
41
1
10
15.583622342893
20
0.641847608768065
30
0
41
1
10
15.5711401150467
20
0.592868722702158
30
0
41
1
10
15.5596237373737
20
0.543526783102396
30
0
41
1
10
15.5490872395186
20
0.493850159106335
30
0
41
1
10
15.5395435462764
20
0.443867898523001
30
0
41
1
10
15.5310044387694
20
0.393609679009562
30
0
41
1
10
15.5234805171839
20
0.343105737467851
30
0
41
1
10
15.5169811708338
20
0.292386863249483
30
0
41
1
10
15.511618509909
20
0.24245228698353
30
0
41
1
10
15.507331538574
20
0.193345913076433
30
0
41
1
10
15.5040584186723
20
0.14510462172925
30
0
41
1
10
15.5017178411605
20
0.0967818161348165
30
0
41
1
10
15.5003124405006
20
0.0484044920800957
30
0
41
1
10
15.499819260535
20
-0.002533266319714
30
0
41
1
10
15.5004183062022
20
-0.0560070609784451
30
0
41
1
10
15.5022996685202
20
-0.111971776520254
30
0
41
1
10
15.5054321110783
20
-0.167852211843896
30
0
41
1
10
15.5098109146977
20
-0.223606351161322
30
0
41
1
10
15.5154294954323
20
-0.279192644549822
30
0
41
1
10
15.5222794187857
20
-0.334569862812551
30
0
41
1
10
15.5301257930037
20
-0.388162793331084
30
0
41
1
10
15.5388419244471
20
-0.439961176594531
30
0
41
1
10
15.5483077497197
20
-0.48996604390205
30
0
41
1
10
15.5587673362473
20
-0.539667531243781
30
0
41
1
10
15.5702078453242
20
-0.589036566633876
30
0
41
1
10
15.5826153579447
20
-0.638044796868653
30
0
41
1
10
15.5968683530983
20
-0.689916300533207
30
0
41
1
10
15.6131801790561
20
-0.744512965916181
30
0
41
1
10
15.6317658733729
20
-0.801664710722205
30
0
41
1
10
15.6516383098468
20
-0.858129810533357
30
0
41
1
10
15.6727642199403
20
-0.91386686863987
30
0
41
1
10
15.6949752628824
20
-0.968508248324965
30
0
41
1
10
15.7182109857375
20
-1.02203465114375
30
0
41
1
10
15.7424120034961
20
-1.07443058800598
30
0
41
1
10
15.7676809080621
20
-1.12598596479648
30
0
41
1
10
15.794682281581
20
-1.17802532344078
30
0
41
1
10
15.8234698724321
20
-1.23043131101907
30
0
41
1
10
15.8540890097139
20
-1.28308002623146
30
0
41
1
10
15.885763831649
20
-1.33462243623961
30
0
41
1
10
15.9184431343705
20
-1.38503267673984
30
0
41
1
10
15.9520752677305
20
-1.43428773444025
30
0
41
1
10
15.9859500486975
20
-1.48145090864273
30
0
41
1
10
16.019960748177
20
-1.52658438630417
30
0
41
1
10
16.0540097181242
20
-1.56975213624397
30
0
41
1
10
16.0887263483153
20
-1.6118366580658
30
0
41
1
10
16.1240675052597
20
-1.65282967696082
30
0
41
1
10
16.1613778408472
20
-1.69426573735517
30
0
41
1
10
16.2006912535053
20
-1.73598752289517
30
0
41
1
10
16.2420325009646
20
-1.777833686527
30
0
41
1
10
16.2839304346215
20
-1.81830284010808
30
0
41
1
10
16.3263291193846
20
-1.85739692538095
30
0
41
1
10
16.369173913799
20
-1.89512042131279
30
0
41
1
10
16.4124115213935
20
-1.93148014935856
30
0
41
1
10
16.4559901188783
20
-1.96648516477778
30
0
41
1
10
16.5007935993438
20
-2.00086340792974
30
0
41
1
10
16.546796972989
20
-2.03453099614424
30
0
41
1
10
16.5939707059481
20
-2.06740672723929
30
0
41
1
10
16.6413075127457
20
-2.09881334229513
30
0
41
1
10
16.6887551870352
20
-2.12877283685481
30
0
41
1
10
16.7362638688119
20
-2.1573089852423
30
0
41
1
10
16.7865805816474
20
-2.18604300035346
30
0
41
1
10
16.8396811109144
20
-2.21472080827418
30
0
41
1
10
16.8955297202533
20
-2.24308568055006
30
0
41
1
10
16.9511986956964
20
-2.26963969137732
30
0
41
1
10
17.0069975893539
20
-2.29459813491023
30
0
41
1
10
17.0628681656126
20
-2.31797398407722
30
0
41
1
10
17.1187541761282
20
-2.33978331080422
30
0
41
1
10
17.1742228137392
20
-2.35992241212818
30
0
41
1
10
17.2292268757717
20
-2.37844762407641
30
0
41
1
10
17.283723305623
20
-2.39541552231032
30
0
41
1
10
17.3376730219424
20
-2.41088267834239
30
0
41
1
10
17.3910407515237
20
-2.42490544333275
30
0
41
1
10
17.4437948538804
20
-2.43753975270824
30
0
41
1
10
17.4959071433433
20
-2.44884095226023
30
0
41
1
10
17.5473527088511
20
-2.45886364420169
30
0
41
1
10
17.5981097354133
20
-2.46766155248105
30
0
41
1
10
17.6481593205526
20
-2.47528740512024
30
0
41
1
10
17.6974853159578
20
-2.4817928362599
30
0
41
1
10
17.7476525600538
20
-2.4874048706942
30
0
41
1
10
17.7986001253018
20
-2.49205731281385
30
0
41
1
10
17.8502664024106
20
-2.4956876528801
30
0
41
1
10
17.901006480362
20
-2.49820817784203
30
0
41
1
10
17.9508153747408
20
-2.49967847870168
30
0
41
1
10
17.9837089613546
20
-2.50000003101703
30
0
41
1
10
18
20
-2.5
30
0
0
SPLINE
5
B1
100
AcDbEntity
8
1
62
256
6
ByLayer
370
18
48
1
60
0
100
AcDbSpline
70
4
71
3
72
39
73
35
40
0
40
0
40
0
40
0
40
0.0317921650317249
40
0.0636108608156632
40
0.0954386500973901
40
0.127257728300493
40
0.159050214338849
40
0.191766452133669
40
0.224511397029019
40
0.257265940256451
40
0.290010847066043
40
0.32272705288995
40
0.35451849628213
40
0.386336400659695
40
0.418163120439058
40
0.449980940229856
40
0.481772312619265
40
0.51449037401548
40
0.547237291077944
40
0.579993907472877
40
0.612740891708684
40
0.645459009493541
40
0.674397172643593
40
0.703348593534365
40
0.732300036981721
40
0.761238230904835
40
0.790176300739954
40
0.819127609997032
40
0.848078900921158
40
0.877016945745353
40
0.907754784069591
40
0.938508637384083
40
0.969262351538512
40
1
40
1
40
1
40
1
41
1
10
4.2516685226452
20
2.5
30
0
41
1
10
4.26606687366342
20
2.49999564192485
30
0
41
1
10
4.2951319464529
20
2.49992062167851
30
0
41
1
10
4.33953364760728
20
2.4995909745867
30
0
41
1
10
4.3846694464884
20
2.49909816997605
30
0
41
1
10
4.4304703201666
20
2.49847684271241
30
0
41
1
10
4.47733090602278
20
2.49775916545693
30
0
41
1
10
4.52524232559849
20
2.49698238683998
30
0
41
1
10
4.5741820068981
20
2.49617480630236
30
0
41
1
10
4.623632490746
20
2.49537208984818
30
0
41
1
10
4.67350784724472
20
2.49460347790138
30
0
41
1
10
4.72327337920029
20
2.49390419974771
30
0
41
1
10
4.77287973810465
20
2.4933004639377
30
0
41
1
10
4.82227959068683
20
2.49279974440786
30
0
41
1
10
4.8718896659391
20
2.49240654680031
30
0
41
1
10
4.92162792503406
20
2.49213165437307
30
0
41
1
10
4.9719188577273
20
2.4919841925753
30
0
41
1
10
5.02272814018748
20
2.49198028874962
30
0
41
1
10
5.07401450932608
20
2.49211712755768
30
0
41
1
10
5.12522902596125
20
2.49238704449076
30
0
41
1
10
5.1762817701276
20
2.49278221556791
30
0
41
1
10
5.22515111318364
20
2.49327620937237
30
0
41
1
10
5.27182175240539
20
2.49384506717341
30
0
41
1
10
5.31630327348817
20
2.4944568625616
30
0
41
1
10
5.36049538684053
20
2.49511985686988
30
0
41
1
10
5.4043510416588
20
2.49581789831986
30
0
41
1
10
5.44783559515303
20
2.49653489855522
30
0
41
1
10
5.49091758253731
20
2.49724698027589
30
0
41
1
10
5.53355205875904
20
2.4979304992363
30
0
41
1
10
5.57656689448204
20
2.49857477222106
30
0
41
1
10
5.61989121441631
20
2.49915045593043
30
0
41
1
10
5.66344636014819
20
2.49961507296115
30
0
41
1
10
5.7063235532235
20
2.49992537735435
30
0
41
1
10
5.73441128499929
20
2.49999597341774
30
0
41
1
10
5.7483314773548
20
2.5
30
0
0
SPLINE
5
B2
100
AcDbEntity
8
1
62
256
6
ByLayer
370
18
48
1
60
0
100
AcDbSpline
70
4
71
3
72
137
73
133
40
0
40
0
40
0
40
0
40
0.0064091686571797
40
0.012944988356389
40
0.0196096956184322
40
0.0264054925630936
40
0.0333345384648629
40
0.0403989406873461
40
0.0476007449879964
40
0.0549419251901778
40
0.0616543594152652
40
0.0684820087637017
40
0.0754261094573046
40
0.0824878218267657
40
0.0896682226320811
40
0.096968297119437
40
0.104388930841102
40
0.111930901270102
40
0.119594869246912
40
0.127381370301057
40
0.135290805896292
40
0.143323434653774
40
0.151479363613336
40
0.159758539598421
40
0.167455900688688
40
0.175256339386358
40
0.183159424515532
40
0.191164590010484
40
0.199271130326172
40
0.207478196179921
40
0.21500904290635
40
0.222620937860492
40
0.230312925396958
40
0.238083944143667
40
0.245932825729934
40
0.253858293833025
40
0.261399804218018
40
0.269006919485904
40
0.276678304264545
40
0.284412537533536
40
0.292208113202255
40
0.300063440951521
40
0.30797684733855
40
0.315946577162893
40
0.323970795088937
40
0.332047587518583
40
0.340029409312377
40
0.34805807142691
40
0.356131553171681
40
0.364247770058685
40
0.372553235212309
40
0.380898452229551
40
0.389281035084918
40
0.397698541912468
40
0.406148478580739
40
0.414476639314854
40
0.422831178574363
40
0.431209607234072
40
0.439609401649668
40
0.448199982024839
40
0.456807405899858
40
0.46542890478683
40
0.474061689080192
40
0.482702952254484
40
0.491349875080037
40
0.499999629851175
40
0.507846010085748
40
0.515690276342576
40
0.523530317248338
40
0.531364026636645
40
0.539189306146601
40
0.547004067815149
40
0.554806236660636
40
0.56337157086608
40
0.571916461084251
40
0.58043822235566
40
0.588934204356129
40
0.597401795383428
40
0.605838426278522
40
0.6142415742686
40
0.622608766717974
40
0.630937584772084
40
0.639225666879153
40
0.647323878208718
40
0.655378455868159
40
0.663387342314919
40
0.671348544907242
40
0.67940350670058
40
0.68740508134004
40
0.695351387835107
40
0.703240624273803
40
0.711071069591253
40
0.718702880701131
40
0.726274926525664
40
0.733785811812987
40
0.741234220703241
40
0.748768946652656
40
0.756236106280549
40
0.763634558964641
40
0.770963250534974
40
0.778221212743801
40
0.78540756249972
40
0.792521500877114
40
0.799970447884768
40
0.807336745983788
40
0.814619746172679
40
0.821818897287819
40
0.828933743438123
40
0.835963921248057
40
0.844140364108674
40
0.852198532007821
40
0.860138290052428
40
0.867959655452659
40
0.875818760078384
40
0.883555077631215
40
0.891169065480879
40
0.898661311475476
40
0.906032525211667
40
0.913283529401904
40
0.920415251384977
40
0.927428714820456
40
0.934325031601997
40
0.941105394019122
40
0.947771067191961
40
0.95432338179867
40
0.960763727110784
40
0.967093544347678
40
0.973930438551099
40
0.980637428870055
40
0.987216598206527
40
0.993670069938906
40
1
40
1
40
1
40
1
41
1
10
0
20
2.5
30
0
41
1
10
0.0044201965401349
20
2.4999999764007
30
0
41
1
10
0.0133460398877716
20
2.49967030058152
30
0
41
1
10
0.0268638984867415
20
2.49816217401023
30
0
41
1
10
0.0406373774146793
20
2.49557595050872
30
0
41
1
10
0.0546653261885446
20
2.49184963690458
30
0
41
1
10
0.0689451278511193
20
2.48691912609105
30
0
41
1
10
0.0834735033734759
20
2.48071821337174
30
0
41
1
10
0.0982461837279232
20
2.47317869552602
30
0
41
1
10
0.112733144323922
20
2.46454325998061
30
0
41
1
10
0.12691556991058
20
2.4549060203974
30
0
41
1
10
0.14077591187942
20
2.44436451045455
30
0
41
1
10
0.154812369315401
20
2.43252185535297
30
0
41
1
10
0.169017922914623
20
2.41932308631437
30
0
41
1
10
0.183384644493561
20
2.40471255556106
30
0
41
1
10
0.1979036624641
20
2.38863409103116
30
0
41
1
10
0.212565110482377
20
2.37103118129742
30
0
41
1
10
0.22735808201411
20
2.35184717943775
30
0
41
1
10
0.242270585137088
20
2.33102553036781
30
0
41
1
10
0.257289500337947
20
2.30851002046276
30
0
41
1
10
0.272400539707775
20
2.28424505415814
30
0
41
1
10
0.287588215275765
20
2.25817594308842
30
0
41
1
10
0.302835790916816
20
2.23024926419402
30
0
41
1
10
0.317691428608214
20
2.20125977150397
30
0
41
1
10
0.332143426258931
20
2.17132774392658
30
0
41
1
10
0.346182237495508
20
2.14057509026085
30
0
41
1
10
0.360207582842033
20
2.10810451541836
30
0
41
1
10
0.374201843691175
20
2.07388340273066
30
0
41
1
10
0.388146467431721
20
2.03788169294306
30
0
41
1
10
0.401584860327141
20
2.00126329656523
30
0
41
1
10
0.414514359376643
20
1.96417801007191
30
0
41
1
10
0.426934806976174
20
1.92677349560411
30
0
41
1
10
0.439249648414954
20
1.88783262512509
30
0
41
1
10
0.451442056165924
20
1.84734492597024
30
0
41
1
10
0.46349468959399
20
1.80530287431003
30
0
41
1
10
0.475160051979096
20
1.7625439688184
30
0
41
1
10
0.486434946151331
20
1.71915818472883
30
0
41
1
10
0.49731775207032
20
1.67523491415457
30
0
41
1
10
0.50801291079485
20
1.62993121339909
30
0
41
1
10
0.518504387651824
20
1.58325467841084
30
0
41
1
10
0.528775970320563
20
1.53521601296952
30
0
41
1
10
0.538811325114995
20
1.48582910191018
30
0
41
1
10
0.54859404572159
20
1.43511111212222
30
0
41
1
10
0.558107708550974
20
1.38308256625607
30
0
41
1
10
0.567335927484628
20
1.32976742337182
30
0
41
1
10
0.576208794246838
20
1.27552093937442
30
0
41
1
10
0.58471735097935
20
1.22039647635911
30
0
41
1
10
0.592853457273783
20
1.1644488481904
30
0
41
1
10
0.600653093923086
20
1.10738496887522
30
0
41
1
10
0.608147270083283
20
1.04888902939895
30
0
41
1
10
0.615313710383653
20
0.988984061692015
30
0
41
1
10
0.622129940426188
20
0.927698644797113
30
0
41
1
10
0.628539553972963
20
0.865440166920053
30
0
41
1
10
0.6345293401939
20
0.802263340282833
30
0
41
1
10
0.640053524721672
20
0.738609077385501
30
0
41
1
10
0.64510976622509
20
0.674552560114762
30
0
41
1
10
0.64969689505919
20
0.610168556472431
30
0
41
1
10
0.653835605911361
20
0.545135866722843
30
0
41
1
10
0.657542275189741
20
0.479071558574495
30
0
41
1
10
0.660797784746546
20
0.412031884119816
30
0
41
1
10
0.663583535420681
20
0.344078770326354
30
0
41
1
10
0.665871477956319
20
0.275735334126055
30
0
41
1
10
0.667656424575835
20
0.207077866206121
30
0
41
1
10
0.668934310136905
20
0.138183802881266
30
0
41
1
10
0.669702214754871
20
0.069131571345482
30
0
41
1
10
0.669950445768492
20
0.0021403852065764
30
0
41
1
10
0.669732461802607
20
-0.0627115224161008
30
0
41
1
10
0.669100495961171
20
-0.125363936681276
30
0
41
1
10
0.668048543079721
20
-0.187898147971372
30
0
41
1
10
0.666578583096946
20
-0.250255602098399
30
0
41
1
10
0.664693375109191
20
-0.31237820785454
30
0
41
1
10
0.66239644046745
20
-0.374208692351713
30
0
41
1
10
0.65960218768608
20
-0.43773370202723
30
0
41
1
10
0.656267251924422
20
-0.50285432044127
30
0
41
1
10
0.652348484085557
20
-0.569455312611708
30
0
41
1
10
0.647959049155325
20
-0.63542579490323
30
0
41
1
10
0.643108534412729
20
-0.700698106570377
30
0
41
1
10
0.637807418713077
20
-0.76520716698165
30
0
41
1
10
0.632067021336756
20
-0.828890567596667
30
0
41
1
10
0.625899442576895
20
-0.891688774369818
30
0
41
1
10
0.61931750210297
20
-0.953545280413231
30
0
41
1
10
0.612334677472752
20
-1.014406727023
30
0
41
1
10
0.605008555631173
20
-1.07386980231634
30
0
41
1
10
0.597361709350849
20
-1.13190769417334
30
0
41
1
10
0.589416477672515
20
-1.18849910182497
30
0
41
1
10
0.581141064384369
20
-1.24395851240324
30
0
41
1
10
0.572498822087624
20
-1.29857733777835
30
0
41
1
10
0.563498109999539
20
-1.35230193056276
30
0
41
1
10
0.554148083584131
20
-1.40508014853712
30
0
41
1
10
0.544519482066598
20
-1.45656129678319
30
0
41
1
10
0.534628716660116
20
-1.50672285440382
30
0
41
1
10
0.524551843952107
20
-1.55525848752042
30
0
41
1
10
0.514310619626805
20
-1.60217700217028
30
0
41
1
10
0.503925980837185
20
-1.64749123262851
30
0
41
1
10
0.493350833196107
20
-1.69147804859168
30
0
41
1
10
0.482528120757191
20
-1.73441768715596
30
0
41
1
10
0.471468053024772
20
-1.77627864427288
30
0
41
1
10
0.460181260922027
20
-1.81703130009144
30
0
41
1
10
0.448758204896983
20
-1.8563929050385
30
0
41
1
10
0.437213804271242
20
-1.89436788694374
30
0
41
1
10
0.425562605585515
20
-1.93096310041356
30
0
41
1
10
0.41381875160527
20
-1.96618769241675
30
0
41
1
10
0.401769881376794
20
-2.00070054026038
30
0
41
1
10
0.389421383938874
20
-2.03443293727348
30
0
41
1
10
0.376779801363934
20
-2.06731696162608
30
0
41
1
10
0.364094477356961
20
-2.09873143617469
30
0
41
1
10
0.351379414872977
20
-2.12869834433861
30
0
41
1
10
0.338647979766279
20
-2.15724146727384
30
0
41
1
10
0.325169543108949
20
-2.1859706626715
30
0
41
1
10
0.310944808148967
20
-2.21464600470785
30
0
41
1
10
0.295977729793759
20
-2.24301994842977
30
0
41
1
10
0.281058810965096
20
-2.26958224821689
30
0
41
1
10
0.266105744451274
20
-2.29454721122649
30
0
41
1
10
0.251133424672336
20
-2.31792922696861
30
0
41
1
10
0.23615638344635
20
-2.33974502983452
30
0
41
1
10
0.221291258432473
20
-2.35988991329454
30
0
41
1
10
0.206550705245561
20
-2.37842025826089
30
0
41
1
10
0.191946265889261
20
-2.39539268738927
30
0
41
1
10
0.177488415958788
20
-2.41086381805034
30
0
41
1
10
0.163186609271399
20
-2.42489004629479
30
0
41
1
10
0.14904932512912
20
-2.43752735090069
30
0
41
1
10
0.135084116097534
20
-2.44883111922256
30
0
41
1
10
0.121297656529208
20
-2.45885599300903
30
0
41
1
10
0.107695790215384
20
-2.46765573362077
30
0
41
1
10
0.0942835808396119
20
-2.47528310411433
30
0
41
1
10
0.0810653503389034
20
-2.48178977184958
30
0
41
1
10
0.0676223341604718
20
-2.48740258593435
30
0
41
1
10
0.0539700313938276
20
-2.4920558028348
30
0
41
1
10
0.0401246380036184
20
-2.49568686132812
30
0
41
1
10
0.0265275881351208
20
-2.49820784882793
30
0
41
1
10
0.0131799756557029
20
-2.49967844149078
30
0
41
1
10
0.0043655333930808
20
-2.49999997754857
30
0
41
1
10
0
20
-2.5
30
0
0
SPLINE
5
B3
100
AcDbEntity
8
1
62
256
6
ByLayer
370
18
48
1
60
0
100
AcDbSpline
70
4
71
3
72
122
73
118
40
0
40
0
40
0
40
0
40
0.0132574563182637
40
0.0265164081790422
40
0.0397749797293872
40
0.0530319173813045
40
0.066353332490435
40
0.0796776285239854
40
0.0930008361252043
40
0.106320766665359
40
0.115869346153474
40
0.125418800018998
40
0.134966891764663
40
0.144520546207791
40
0.154075754294152
40
0.163628299441443
40
0.170992964874121
40
0.178361459091359
40
0.185728477133118
40
0.193091128479053
40
0.198551551089482
40
0.204015111194083
40
0.20947783286268
40
0.214937111462284
40
0.22052905459799
40
0.226126503887731
40
0.231723006316857
40
0.237313656967579
40
0.242789084516854
40
0.248270829487995
40
0.253752708760173
40
0.259228319657704
40
0.264899918238379
40
0.270577040058726
40
0.276255420103852
40
0.281928736046778
40
0.288392155665982
40
0.29486023244172
40
0.301332150384114
40
0.307804443615474
40
0.31427140234947
40
0.322327014544838
40
0.330384615475637
40
0.338443095387935
40
0.346499906466526
40
0.357805412121271
40
0.369112357639197
40
0.380417619733466
40
0.389821219030568
40
0.399227432489397
40
0.408633006629013
40
0.418035733874034
40
0.427446114846541
40
0.43686052497535
40
0.446274329574661
40
0.455683884461891
40
0.465562985509348
40
0.47544800310799
40
0.485332671948905
40
0.495211297129756
40
0.504246942107926
40
0.51328732130453
40
0.5223278362113
40
0.531363666345241
40
0.5403964364095
40
0.549433343701306
40
0.558470692159346
40
0.567504064084105
40
0.577105841824281
40
0.586711221131953
40
0.596317324268547
40
0.605920089404829
40
0.616984380071303
40
0.628050611630423
40
0.639115460887036
40
0.650178761928823
40
0.661243357493501
40
0.672305950479378
40
0.680769681860206
40
0.689237496653578
40
0.697702506822354
40
0.706162411638573
40
0.711859475626729
40
0.71756020406089
40
0.723259656606815
40
0.728954979557069
40
0.734811998728404
40
0.740675927396516
40
0.746538881047267
40
0.752394569040378
40
0.758107226794814
40
0.763826856867225
40
0.769547122562761
40
0.775260648116193
40
0.781178781307359
40
0.787102351787281
40
0.79302721043744
40
0.798947101768281
40
0.806142949864267
40
0.813345026570112
40
0.820551524759373
40
0.827757954900498
40
0.834957457601712
40
0.844159107857338
40
0.853364596738771
40
0.862571484066184
40
0.87177504203628
40
0.882401563271008
40
0.893031609599157
40
0.90366479271065
40
0.914299535106014
40
0.924933180498018
40
0.935562102039814
40
0.951669442128028
40
0.967779960071286
40
0.983891401025412
40
1
40
1
40
1
40
1
41
1
10
16.5
20
-2
30
0
41
1
10
16.5195930737929
20
-1.99172414954643
30
0
41
1
10
16.5586333517558
20
-1.97485896339151
30
0
41
1
10
16.6167739523451
20
-1.9486486140168
30
0
41
1
10
16.6744216916119
20
-1.9214501037906
30
0
41
1
10
16.7316151929833
20
-1.89316839494268
30
0
41
1
10
16.7883023592452
20
-1.86374805824719
30
0
41
1
10
16.8443816141096
20
-1.83308530349794
30
0
41
1
10
16.8996406324799
20
-1.80112419060212
30
0
41
1
10
16.9488308364307
20
-1.77091705947246
30
0
41
1
10
16.992142592884
20
-1.74281542967088
30
0
41
1
10
17.0297759043893
20
-1.71714180504077
30
0
41
1
10
17.0666891223494
20
-1.69055957486787
30
0
41
1
10
17.1027916072963
20
-1.66300909071519
30
0
41
1
10
17.1379397565027
20
-1.63439669156221
30
0
41
1
10
17.169371981884
20
-1.60690705698743
30
0
41
1
10
17.1972430369913
20
-1.58076461711854
30
0
41
1
10
17.2217284151704
20
-1.55618382996935
30
0
41
1
10
17.2452079265749
20
-1.53075941680435
30
0
41
1
10
17.2656225346956
20
-1.50671419940717
30
0
41
1
10
17.2831829422021
20
-1.48426167408841
30
0
41
1
10
17.2981343394196
20
-1.46360605932796
30
0
41
1
10
17.3122247542843
20
-1.44240306303799
30
0
41
1
10
17.3254794561972
20
-1.42047218122034
30
0
41
1
10
17.3377767459922
20
-1.39777914807761
30
0
41
1
10
17.3490107478776
20
-1.37431555554048
30
0
41
1
10
17.359007059946
20
-1.35029050704509
30
0
41
1
10
17.3676235243507
20
-1.32590477981223
30
0
41
1
10
17.3748008834873
20
-1.30118837550426
30
0
41
1
10
17.3805724049236
20
-1.2762019291357
30
0
41
1
10
17.3849893997764
20
-1.25083925047352
30
0
41
1
10
17.3880807132534
20
-1.22485694891075
30
0
41
1
10
17.3897897081
20
-1.19828908902689
30
0
41
1
10
17.3901628323072
20
-1.17118101617112
30
0
41
1
10
17.3892711875939
20
-1.14390429412814
30
0
41
1
10
17.3871038408682
20
-1.1152413796538
30
0
41
1
10
17.3835797267258
20
-1.08520661410524
30
0
41
1
10
17.37868727788
20
-1.05380954341471
30
0
41
1
10
17.3727290264589
20
-1.02234823826451
30
0
41
1
10
17.3658657316399
20
-0.990849422928731
30
0
41
1
10
17.3576252305517
20
-0.956737934305196
30
0
41
1
10
17.3479760974327
20
-0.919985346437948
30
0
41
1
10
17.3369203446686
20
-0.880550252911321
30
0
41
1
10
17.325331068549
20
-0.840996282665089
30
0
41
1
10
17.3118022582444
20
-0.795958950183016
30
0
41
1
10
17.2964400775089
20
-0.745304290423257
30
0
41
1
10
17.2794718360711
20
-0.688864621662002
30
0
41
1
10
17.2637863128403
20
-0.635136128009746
30
0
41
1
10
17.2495817215565
20
-0.584164360036893
30
0
41
1
10
17.2368567808558
20
-0.536030183916566
30
0
41
1
10
17.2248377548372
20
-0.487514668056353
30
0
41
1
10
17.2136457727101
20
-0.438608966949224
30
0
41
1
10
17.2034043544292
20
-0.389310576085257
30
0
41
1
10
17.1941863973625
20
-0.339638929191133
30
0
41
1
10
17.1860732307314
20
-0.289642421361554
30
0
41
1
10
17.1790288468363
20
-0.238524632857443
30
0
41
1
10
17.1732104534774
20
-0.186296106794301
30
0
41
1
10
17.1687283927389
20
-0.132993173442729
30
0
41
1
10
17.1657121199423
20
-0.0795275855576428
30
0
41
1
10
17.164244071952
20
-0.0274957535434618
30
0
41
1
10
17.1642133928708
20
0.023040061365166
30
0
41
1
10
17.1654548739396
20
0.0720360705543174
30
0
41
1
10
17.1679515966251
20
0.120956812194241
30
0
41
1
10
17.1716881555129
20
0.169738646403771
30
0
41
1
10
17.1766517421466
20
0.218339487635356
30
0
41
1
10
17.1827836230595
20
0.266727161671975
30
0
41
1
10
17.190027948695
20
0.314862835843687
30
0
41
1
10
17.1985032049608
20
0.363708720146486
30
0
41
1
10
17.208235293351
20
0.413216019101503
30
0
41
1
10
17.2191892464077
20
0.463347586505523
30
0
41
1
10
17.2310554017357
20
0.513087787701971
30
0
41
1
10
17.2443648865417
20
0.564924835580038
30
0
41
1
10
17.2591394793044
20
0.618783864381347
30
0
41
1
10
17.2752585209673
20
0.674615887663599
30
0
41
1
10
17.2917825081908
20
0.729975116936167
30
0
41
1
10
17.3084685565519
20
0.784899672989137
30
0
41
1
10
17.3249241035842
20
0.839465608150878
30
0
41
1
10
17.3395021852033
20
0.889500721432237
30
0
41
1
10
17.3520663434874
20
0.93512308881817
30
0
41
1
10
17.3625663092514
20
0.976421720955993
30
0
41
1
10
17.3718635548
20
1.01764649676137
30
0
41
1
10
17.3788087965176
20
1.054313942812
30
0
41
1
10
17.3836993986579
20
1.0864371551767
30
0
41
1
10
17.3869524908227
20
1.11403760872023
30
0
41
1
10
17.3891414301021
20
1.14155219165444
30
0
41
1
10
17.3901666779637
20
1.16919943062343
30
0
41
1
10
17.3898513136427
20
1.1969388500457
30
0
41
1
10
17.3880851295696
20
1.22471116095599
30
0
41
1
10
17.3848231825431
20
1.25218393381356
30
0
41
1
10
17.380046206347
20
1.27905363732176
30
0
41
1
10
17.3737380850106
20
1.30526182628415
30
0
41
1
10
17.3660085253241
20
1.33078334610866
30
0
41
1
10
17.3568664971368
20
1.35577974578127
30
0
41
1
10
17.3462385857063
20
1.38048807188571
30
0
41
1
10
17.3341253433185
20
1.404853040052
30
0
41
1
10
17.320597535512
20
1.42885564448346
30
0
41
1
10
17.3059052791891
20
1.45220306159188
30
0
41
1
10
17.2890201432152
20
1.47652158048172
30
0
41
1
10
17.2697852248292
20
1.50166648076793
30
0
41
1
10
17.2480823991209
20
1.52750152671276
30
0
41
1
10
17.2252565274284
20
1.55248403634275
30
0
41
1
10
17.2014550007196
20
1.57664682767361
30
0
41
1
10
17.1745212277045
20
1.60220628839579
30
0
41
1
10
17.1443027353959
20
1.62897900513607
30
0
41
1
10
17.1106502874737
20
1.65676795152127
30
0
41
1
10
17.0760680799127
20
1.68355337823193
30
0
41
1
10
17.0388644931531
20
1.71074417069423
30
0
41
1
10
16.9990338271425
20
1.73827781766042
30
0
41
1
10
16.9565322828242
20
1.7660575804672
30
0
41
1
10
16.9133034289525
20
1.79285696744216
30
0
41
1
10
16.869436369978
20
1.81873601273987
30
0
41
1
10
16.8250183877787
20
1.84375292222039
30
0
41
1
10
16.7724166598515
20
1.8721386662875
30
0
41
1
10
16.7113894673276
20
1.90344672432923
30
0
41
1
10
16.6416847791116
20
1.93716175667515
30
0
41
1
10
16.5712115244682
20
1.9693762337848
30
0
41
1
10
16.5238107318608
20
1.98994866737479
30
0
41
1
10
16.5
20
2
30
0
0
SPLINE
5
B4
100
AcDbEntity
8
1
62
256
6
ByLayer
370
18
48
1
60
0
100
AcDbSpline
70
4
71
3
72
32
73
28
40
0
40
0
40
0
40
0
40
0.0399059778597435
40
0.0799483580586946
40
0.120102838099366
40
0.160344675893463
40
0.200648767043423
40
0.240989725451363
40
0.281341966769973
40
0.321679794172012
40
0.363894927383457
40
0.406036514763008
40
0.448075249269347
40
0.489982125901011
40
0.531728553295242
40
0.573286463495169
40
0.614628419029276
40
0.655727716468844
40
0.696558485661233
40
0.737095783878897
40
0.777315684175248
40
0.817195357297915
40
0.854465176909135
40
0.891396135789815
40
0.927972114353851
40
0.964178056060421
40
1
40
1
40
1
40
1
41
1
10
18
20
-2.5
30
0
41
1
10
17.979298137082
20
-2.50000007960454
30
0
41
1
10
17.9378310535828
20
-2.49948493612908
30
0
41
1
10
17.8755501999191
20
-2.49716075514062
30
0
41
1
10
17.8131356545408
20
-2.4932688695971
30
0
41
1
10
17.7506438852552
20
-2.48779767481196
30
0
41
1
10
17.6881348156632
20
-2.48073835840476
30
0
41
1
10
17.6256683813066
20
-2.4720850944384
30
0
41
1
10
17.5633052042317
20
-2.46183506462679
30
0
41
1
10
17.500120503995
20
-2.44980077971046
30
0
41
1
10
17.4361883152336
20
-2.43589611016447
30
0
41
1
10
17.3715883747386
20
-2.42003625725599
30
0
41
1
10
17.3073755252156
20
-2.40244669823705
30
0
41
1
10
17.2436190041852
20
-2.38314239756601
30
0
41
1
10
17.1803872116385
20
-2.36214199886166
30
0
41
1
10
17.117747488217
20
-2.33946777046266
30
0
41
1
10
17.0557658708296
20
-2.31514552553036
30
0
41
1
10
16.9945068618744
20
-2.28920452471632
30
0
41
1
10
16.9340332093097
20
-2.26167736176164
30
0
41
1
10
16.8744056829421
20
-2.2325998272327
30
0
41
1
10
16.8156829170871
20
-2.2020107746106
30
0
41
1
10
16.759006584104
20
-2.17055438671384
30
0
41
1
10
16.7043779454804
20
-2.13837479896366
30
0
41
1
10
16.6517897663911
20
-2.10561290714376
30
0
41
1
10
16.6001879919438
20
-2.07166403620958
30
0
41
1
10
16.5496073653323
20
-2.03657267966124
30
0
41
1
10
16.5164194419691
20
-2.01231013200774
30
0
41
1
10
16.5
20
-2
30
0
0
SPLINE
5
B5
100
AcDbEntity
8
1
62
256
6
ByLayer
370
18
48
1
60
0
100
AcDbSpline
70
4
71
3
72
42
73
38
40
0
40
0
40
0
40
0
40
0.0288274036521281
40
0.0576772882702688
40
0.0865342937733829
40
0.115383393201925
40
0.144210137795814
40
0.173834838796884
40
0.203485579490595
40
0.23314436282056
40
0.262793791999747
40
0.292417392057923
40
0.321260343149097
40
0.350129072528912
40
0.379005860379992
40
0.407873477375089
40
0.436715494667476
40
0.466474206302994
40
0.496262417152039
40
0.526060322795763
40
0.55584815321971
40
0.585606545473062
40
0.613183514786823
40
0.640783529047396
40
0.66839167044826
40
0.695992454038789
40
0.723570069137674
40
0.751931457302086
40
0.780315790048586
40
0.808708824345981
40
0.837095079952401
40
0.865458082151483
40
0.892354291585406
40
0.919267338012475
40
0.946187073364432
40
0.973102115602371
40
1
40
1
40
1
40
1
41
1
10
5.7483314773548
20
2.5
30
0
41
1
10
5.76197201915228
20
2.500004182236
30
0
41
1
10
5.78900076188205
20
2.49992425640223
30
0
41
1
10
5.82878060686775
20
2.49955687697603
30
0
41
1
10
5.86774532535447
20
2.49888899957144
30
0
41
1
10
5.90583826735375
20
2.49788624801493
30
0
41
1
10
5.94335655364015
20
2.49649653290458
30
0
41
1
10
5.98023796497364
20
2.49466448250497
30
0
41
1
10
6.01642715804254
20
2.49233301296286
30
0
41
1
10
6.05154821063729
20
2.48947737364118
30
0
41
1
10
6.08554006645555
20
2.486056320862
30
0
41
1
10
6.11806913051997
20
2.48206294904493
30
0
41
1
10
6.14913693967675
20
2.47746899766286
30
0
41
1
10
6.1787667560305
20
2.47225950845721
30
0
41
1
10
6.20720530190265
20
2.46636177547962
30
0
41
1
10
6.23440566933741
20
2.45974554565096
30
0
41
1
10
6.2606082965101
20
2.45230005651454
30
0
41
1
10
6.28573830365264
20
2.44395394126677
30
0
41
1
10
6.3097434317414
20
2.43465275259566
30
0
41
1
10
6.33234549214844
20
2.42446339520461
30
0
41
1
10
6.35351251272216
20
2.41337002785444
30
0
41
1
10
6.37274129721857
20
2.40164401041794
30
0
41
1
10
6.39013968997002
20
2.38933546042651
30
0
41
1
10
6.40584354122664
20
2.3765167757152
30
0
41
1
10
6.42030193439309
20
2.36287078817009
30
0
41
1
10
6.43351024908811
20
2.34840180423521
30
0
41
1
10
6.44558216682053
20
2.33296207403201
30
0
41
1
10
6.45648038598267
20
2.31651124839827
30
0
41
1
10
6.46619216702629
20
2.2990297132963
30
0
41
1
10
6.47463670042824
20
2.28068357524701
30
0
41
1
10
6.4818304453021
20
2.26149318935603
30
0
41
1
10
6.48768894154536
20
2.24181382283665
30
0
41
1
10
6.49230514658623
20
2.22169728170275
30
0
41
1
10
6.49578351076882
20
2.20120570620259
30
0
41
1
10
6.49823446441218
20
2.179998551816
30
0
41
1
10
6.49968216565135
20
2.15809943692945
30
0
41
1
10
6.50000273968618
20
2.14305116605794
30
0
41
1
10
6.5
20
2.13541565040629
30
0
0
SPLINE
5
B6
100
AcDbEntity
8
1
62
256
6
ByLayer
370
18
48
1
60
0
100
AcDbSpline
70
4
71
3
72
42
73
38
40
0
40
0
40
0
40
0
40
0.0287451535340188
40
0.0575113815609517
40
0.0862833044769385
40
0.115046940622779
40
0.143789918742985
40
0.173303800655432
40
0.202844143267324
40
0.232392215905626
40
0.261930393818741
40
0.291442458560277
40
0.32021531000971
40
0.349014611981278
40
0.377822387651377
40
0.406620942727483
40
0.435393167173896
40
0.465096465310228
40
0.494828932492314
40
0.524571473451313
40
0.554304489592311
40
0.584008248598616
40
0.611359360721267
40
0.638732140287803
40
0.666112674275753
40
0.693486389017249
40
0.720838286103686
40
0.748927268623625
40
0.777038169976263
40
0.805156970147411
40
0.833268918970072
40
0.861358780701422
40
0.889073473396952
40
0.916808012108153
40
0.944549548934007
40
0.972284750751493
40
1
40
1
40
1
40
1
41
1
10
3.5
20
2.13541565040626
30
0
41
1
10
3.49999672128412
20
2.14357574133251
30
0
41
1
10
3.50036343792032
20
2.15964141220099
30
0
41
1
10
3.50201979621347
20
2.18296993886637
30
0
41
1
10
3.50482627233671
20
2.20550621197586
30
0
41
1
10
3.50881200055908
20
2.2272215724557
30
0
41
1
10
3.51405742074739
20
2.24828003922757
30
0
41
1
10
3.52064340666974
20
2.26863716651128
30
0
41
1
10
3.52863208720718
20
2.2882647938177
30
0
41
1
10
3.53798457776938
20
2.30697385956764
30
0
41
1
10
3.54871754269865
20
2.32474273417759
30
0
41
1
10
3.56075125123813
20
2.34141730488574
30
0
41
1
10
3.57407627927766
20
2.35701665108791
30
0
41
1
10
3.58865386969827
20
2.37158448129063
30
0
41
1
10
3.60459494510723
20
2.38525861929498
30
0
41
1
10
3.62189109906809
20
2.3980366332096
30
0
41
1
10
3.64074383363751
20
2.41004980876724
30
0
41
1
10
3.66122021769231
20
2.42127219374442
30
0
41
1
10
3.68335549438631
20
2.43170299037114
30
0
41
1
10
3.70690930405417
20
2.44124802505346
30
0
41
1
10
3.73184641846524
20
2.44992599240544
30
0
41
1
10
3.75745278219334
20
2.45755214671046
30
0
41
1
10
3.78359825717655
20
2.46422691664878
30
0
41
1
10
3.81014232313549
20
2.47005870152555
30
0
41
1
10
3.83778354693229
20
2.47526217091462
30
0
41
1
10
3.86648060090107
20
2.4798643089493
30
0
41
1
10
3.8964728523024
20
2.48392933039825
30
0
41
1
10
3.92778014046856
20
2.48747048889582
30
0
41
1
10
3.9604051210051
20
2.49051126976089
30
0
41
1
10
3.99403266362408
20
2.49305666037781
30
0
41
1
10
4.02861036336622
20
2.49514203026415
30
0
41
1
10
4.06394408839869
20
2.49679546676935
30
0
41
1
10
4.09999959476711
20
2.49806005770837
30
0
41
1
10
4.13673516525623
20
2.49897860084739
30
0
41
1
10
4.17427198623854
20
2.49959176849015
30
0
41
1
10
4.21255967494044
20
2.49993006045486
30
0
41
1
10
4.23855455174946
20
2.5000037150237
30
0
41
1
10
4.2516685226452
20
2.5
30
0
0
SPLINE
5
B7
100
AcDbEntity
8
1
62
256
6
ByLayer
370
18
48
1
60
0
100
AcDbSpline
70
4
71
3
72
32
73
28
40
0
40
0
40
0
40
0
40
0.0399059778597441
40
0.0799483580586949
40
0.120102838099366
40
0.160344675893462
40
0.200648767043421
40
0.240989725451363
40
0.281341966769971
40
0.321679794172011
40
0.363894927383456
40
0.406036514763007
40
0.448075249269345
40
0.48998212590101
40
0.531728553295242
40
0.573286463495168
40
0.614628419029276
40
0.655727716468844
40
0.696558485661231
40
0.737095783878897
40
0.777315684175247
40
0.817195357297915
40
0.854465176909133
40
0.891396135789815
40
0.92797211435385
40
0.964178056060421
40
1
40
1
40
1
40
1
41
1
10
18
20
2.5
30
0
41
1
10
18.020701862918
20
2.50000007960454
30
0
41
1
10
18.0621689464172
20
2.49948493612908
30
0
41
1
10
18.1244498000809
20
2.49716075514062
30
0
41
1
10
18.1868643454592
20
2.49326886959709
30
0
41
1
10
18.2493561147448
20
2.48779767481196
30
0
41
1
10
18.3118651843368
20
2.48073835840476
30
0
41
1
10
18.3743316186934
20
2.47208509443841
30
0
41
1
10
18.4366947957683
20
2.46183506462679
30
0
41
1
10
18.499879496005
20
2.44980077971046
30
0
41
1
10
18.5638116847664
20
2.43589611016447
30
0
41
1
10
18.6284116252614
20
2.42003625725599
30
0
41
1
10
18.6926244747844
20
2.40244669823705
30
0
41
1
10
18.7563809958148
20
2.38314239756601
30
0
41
1
10
18.8196127883615
20
2.36214199886167
30
0
41
1
10
18.882252511783
20
2.33946777046266
30
0
41
1
10
18.9442341291704
20
2.31514552553036
30
0
41
1
10
19.0054931381256
20
2.28920452471632
30
0
41
1
10
19.0659667906903
20
2.26167736176164
30
0
41
1
10
19.1255943170579
20
2.2325998272327
30
0
41
1
10
19.1843170829129
20
2.20201077461059
30
0
41
1
10
19.240993415896
20
2.17055438671384
30
0
41
1
10
19.2956220545195
20
2.13837479896366
30
0
41
1
10
19.3482102336089
20
2.10561290714377
30
0
41
1
10
19.3998120080562
20
2.07166403620958
30
0
41
1
10
19.4503926346677
20
2.03657267966124
30
0
41
1
10
19.4835805580309
20
2.01231013200774
30
0
41
1
10
19.5
20
2
30
0
0
SPLINE
5
B8
100
AcDbEntity
8
1
62
256
6
ByLayer
370
18
48
1
60
0
100
AcDbSpline
70
4
71
3
72
33
73
29
40
0
40
0
40
0
40
0
40
0.0324780377057686
40
0.0652730785431878
40
0.098374817172755
40
0.131772202671051
40
0.165453457676736
40
0.198797515454284
40
0.232390895897715
40
0.266220533072657
40
0.300272785762894
40
0.341081525158126
40
0.382160770584676
40
0.423484720873723
40
0.465026734052869
40
0.506759426209842
40
0.548654774741207
40
0.590684225186886
40
0.632818800818333
40
0.675029214125607
40
0.717285979336674
40
0.759559525101198
40
0.801820306480718
40
0.841628134519694
40
0.881374017060903
40
0.921033773847916
40
0.960583572284789
40
1
40
1
40
1
40
1
41
1
10
19.5
20
-2
30
0
41
1
10
19.4851138948502
20
-2.01116125550683
30
0
41
1
10
19.45505326867
20
-2.0331899259561
30
0
41
1
10
19.4093032171832
20
-2.06516455765458
30
0
41
1
10
19.3627069332855
20
-2.09620570750571
30
0
41
1
10
19.3152899556151
20
-2.12627987241241
30
0
41
1
10
19.2673731427649
20
-2.15518108172388
30
0
41
1
10
19.2189996601023
20
-2.18290311475364
30
0
41
1
10
19.1702129689944
20
-2.20944152100273
30
0
41
1
10
19.1207574116978
20
-2.23493547830033
30
0
41
1
10
19.0674555417381
20
-2.26092625430339
30
0
41
1
10
19.010234354128
20
-2.2871161042473
30
0
41
1
10
18.9490343471784
20
-2.31318189901743
30
0
41
1
10
18.8871067314206
20
-2.33763138011444
30
0
41
1
10
18.8245159375362
20
-2.36043499670925
30
0
41
1
10
18.7613278758652
20
-2.38156667026916
30
0
41
1
10
18.6976097972061
20
-2.40100385145915
30
0
41
1
10
18.6334300300312
20
-2.41872761159482
30
0
41
1
10
18.5688577428594
20
-2.43472270051941
30
0
41
1
10
18.5039626973822
20
-2.44897758834077
30
0
41
1
10
18.4388149910218
20
-2.46148448746757
30
0
41
1
10
18.3734848400221
20
-2.4722393503635
30
0
41
1
10
18.3092868987727
20
-2.48107064129645
30
0
41
1
10
18.2462932968174
20
-2.48809625672411
30
0
41
1
10
18.1845684872865
20
-2.49343343483895
30
0
41
1
10
18.1229211467739
20
-2.49723009364446
30
0
41
1
10
18.0614056517297
20
-2.49949750390994
30
0
41
1
10
18.020447865845
20
-2.50000007576677
30
0
41
1
10
18
20
-2.5
30
0
0
SPLINE
5
B9
100
AcDbEntity
8
1
62
256
6
ByLayer
370
18
48
1
60
0
100
AcDbSpline
70
4
71
3
72
42
73
38
40
0
40
0
40
0
40
0
40
0.0287451535340156
40
0.057511381560945
40
0.0862833044769289
40
0.115046940622767
40
0.14378991874297
40
0.173303800655413
40
0.202844143267301
40
0.2323922159056
40
0.261930393818712
40
0.291442458560245
40
0.320215310009675
40
0.349014611981239
40
0.377822387651336
40
0.406620942727438
40
0.435393167173847
40
0.46509646531018
40
0.494828932492257
40
0.524571473451254
40
0.55430448959225
40
0.58400824859855
40
0.611359360721203
40
0.638732140287731
40
0.666112674275679
40
0.693486389017171
40
0.720838286103605
40
0.748927268623545
40
0.777038169976177
40
0.805156970147327
40
0.833268918969983
40
0.861358780701331
40
0.889073473396883
40
0.916808012108098
40
0.944549548933972
40
0.972284750751474
40
1
40
1
40
1
40
1
41
1
10
6.5
20
-2.13541565040616
30
0
41
1
10
6.50000327871587
20
-2.14357574133241
30
0
41
1
10
6.49963656207965
20
-2.15964141220089
30
0
41
1
10
6.49798020378656
20
-2.18296993886627
30
0
41
1
10
6.49517372766328
20
-2.20550621197577
30
0
41
1
10
6.49118799944095
20
-2.22722157245561
30
0
41
1
10
6.48594257925264
20
-2.24828003922749
30
0
41
1
10
6.47935659333027
20
-2.2686371665112
30
0
41
1
10
6.47136791279286
20
-2.28826479381763
30
0
41
1
10
6.46201542223065
20
-2.30697385956757
30
0
41
1
10
6.45128245730138
20
-2.32474273417752
30
0
41
1
10
6.43924874876192
20
-2.34141730488568
30
0
41
1
10
6.42592372072238
20
-2.35701665108785
30
0
41
1
10
6.41134613030179
20
-2.37158448129058
30
0
41
1
10
6.39540505489282
20
-2.38525861929494
30
0
41
1
10
6.37810890093196
20
-2.39803663320955
30
0
41
1
10
6.35925616636256
20
-2.4100498087672
30
0
41
1
10
6.33877978230774
20
-2.42127219374438
30
0
41
1
10
6.31664450561378
20
-2.43170299037111
30
0
41
1
10
6.29309069594591
20
-2.44124802505343
30
0
41
1
10
6.26815358153485
20
-2.44992599240542
30
0
41
1
10
6.24254721780676
20
-2.45755214671044
30
0
41
1
10
6.21640174282354
20
-2.46422691664876
30
0
41
1
10
6.18985767686461
20
-2.47005870152553
30
0
41
1
10
6.16221645306782
20
-2.47526217091461
30
0
41
1
10
6.13351939909903
20
-2.47986430894928
30
0
41
1
10
6.1035271476977
20
-2.48392933039823
30
0
41
1
10
6.07221985953154
20
-2.48747048889581
30
0
41
1
10
6.039594878995
20
-2.49051126976088
30
0
41
1
10
6.00596733637601
20
-2.4930566603778
30
0
41
1
10
5.97138963663388
20
-2.49514203026414
30
0
41
1
10
5.9360559116014
20
-2.49679546676935
30
0
41
1
10
5.90000040523296
20
-2.49806005770836
30
0
41
1
10
5.86326483474382
20
-2.49897860084739
30
0
41
1
10
5.82572801376148
20
-2.49959176849015
30
0
41
1
10
5.78744032505952
20
-2.49993006045485
30
0
41
1
10
5.76144544825053
20
-2.50000371502371
30
0
41
1
10
5.74833147735475
20
-2.5
30
0
0
SPLINE
5
BA
100
AcDbEntity
8
1
62
256
6
ByLayer
370
18
48
1
60
0
100
AcDbSpline
70
4
71
3
72
39
73
35
40
0
40
0
40
0
40
0
40
0.0317921650317125
40
0.0636108608156333
40
0.0954386500973449
40
0.127257728300437
40
0.159050214338775
40
0.191766452133585
40
0.224511397028914
40
0.25726594025633
40
0.290010847065909
40
0.322727052889801
40
0.354518496281973
40
0.386336400659522
40
0.418163120438876
40
0.449980940229658
40
0.481772312619055
40
0.514490374015267
40
0.547237291077712
40
0.579993907472633
40
0.612740891708425
40
0.645459009493272
40
0.674397172643341
40
0.703348593534135
40
0.732300036981514
40
0.761238230904647
40
0.790176300739786
40
0.819127609996886
40
0.848078900921034
40
0.877016945745251
40
0.907754784069512
40
0.938508637384034
40
0.969262351538488
40
1
40
1
40
1
40
1
41
1
10
5.74833147735475
20
-2.5
30
0
41
1
10
5.73393312633654
20
-2.49999564192485
30
0
41
1
10
5.70486805354705
20
-2.49992062167851
30
0
41
1
10
5.66046635239269
20
-2.4995909745867
30
0
41
1
10
5.61533055351156
20
-2.49909816997605
30
0
41
1
10
5.56952967983337
20
-2.49847684271241
30
0
41
1
10
5.5226690939772
20
-2.49775916545692
30
0
41
1
10
5.47475767440148
20
-2.49698238683998
30
0
41
1
10
5.42581799310188
20
-2.49617480630236
30
0
41
1
10
5.376367509254
20
-2.49537208984818
30
0
41
1
10
5.32649215275527
20
-2.49460347790137
30
0
41
1
10
5.2767266207997
20
-2.49390419974771
30
0
41
1
10
5.22712026189535
20
-2.4933004639377
30
0
41
1
10
5.17772040931317
20
-2.49279974440786
30
0
41
1
10
5.12811033406089
20
-2.49240654680031
30
0
41
1
10
5.07837207496594
20
-2.49213165437307
30
0
41
1
10
5.02808114227269
20
-2.4919841925753
30
0
41
1
10
4.97727185981252
20
-2.49198028874962
30
0
41
1
10
4.92598549067391
20
-2.49211712755768
30
0
41
1
10
4.87477097403875
20
-2.49238704449076
30
0
41
1
10
4.8237182298724
20
-2.49278221556791
30
0
41
1
10
4.77484888681635
20
-2.49327620937237
30
0
41
1
10
4.72817824759457
20
-2.49384506717341
30
0
41
1
10
4.68369672651173
20
-2.4944568625616
30
0
41
1
10
4.63950461315932
20
-2.49511985686988
30
0
41
1
10
4.59564895834101
20
-2.49581789831986
30
0
41
1
10
4.55216440484674
20
-2.49653489855522
30
0
41
1
10
4.5090824174624
20
-2.4972469802759
30
0
41
1
10
4.46644794124064
20
-2.49793049923631
30
0
41
1
10
4.42343310551759
20
-2.49857477222107
30
0
41
1
10
4.38010878558329
20
-2.49915045593044
30
0
41
1
10
4.33655363985133
20
-2.49961507296116
30
0
41
1
10
4.29367644677597
20
-2.49992537735435
30
0
41
1
10
4.26558871500022
20
-2.49999597341773
30
0
41
1
10
4.25166852264465
20
-2.5
30
0
0
SPLINE
5
BB
100
AcDbEntity
8
1
62
256
6
ByLayer
370
18
48
1
60
0
100
AcDbSpline
70
4
71
3
72
42
73
38
40
0
40
0
40
0
40
0
40
0.0288274036521457
40
0.0576772882702876
40
0.0865342937734122
40
0.115383393201965
40
0.144210137795862
40
0.173834838796948
40
0.203485579490657
40
0.233144362820634
40
0.262793791999829
40
0.292417392058015
40
0.321260343149202
40
0.350129072529023
40
0.379005860380114
40
0.407873477375223
40
0.436715494667618
40
0.466474206303149
40
0.496262417152198
40
0.526060322795934
40
0.55584815321989
40
0.585606545473251
40
0.613183514787022
40
0.640783529047601
40
0.668391670448474
40
0.695992454039011
40
0.723570069137905
40
0.751931457302326
40
0.780315790048832
40
0.808708824346236
40
0.837095079952663
40
0.865458082151754
40
0.892354291585623
40
0.919267338012638
40
0.94618707336454
40
0.973102115602425
40
1
40
1
40
1
40
1
41
1
10
4.25166852264465
20
-2.5
30
0
41
1
10
4.23802798084717
20
-2.500004182236
30
0
41
1
10
4.21099923811741
20
-2.49992425640223
30
0
41
1
10
4.17121939313172
20
-2.49955687697602
30
0
41
1
10
4.13225467464502
20
-2.49888899957143
30
0
41
1
10
4.09416173264574
20
-2.49788624801491
30
0
41
1
10
4.05664344635938
20
-2.49649653290456
30
0
41
1
10
4.01976203502586
20
-2.49466448250494
30
0
41
1
10
3.98357284195702
20
-2.49233301296283
30
0
41
1
10
3.94845178936229
20
-2.48947737364114
30
0
41
1
10
3.91445993354402
20
-2.48605632086195
30
0
41
1
10
3.88193086947964
20
-2.48206294904488
30
0
41
1
10
3.85086306032284
20
-2.47746899766281
30
0
41
1
10
3.82123324396913
20
-2.47225950845714
30
0
41
1
10
3.79279469809702
20
-2.46636177547954
30
0
41
1
10
3.76559433066224
20
-2.45974554565087
30
0
41
1
10
3.73939170348959
20
-2.45230005651444
30
0
41
1
10
3.71426169634703
20
-2.44395394126666
30
0
41
1
10
3.69025656825832
20
-2.43465275259554
30
0
41
1
10
3.66765450785126
20
-2.42446339520449
30
0
41
1
10
3.64648748727757
20
-2.41337002785431
30
0
41
1
10
3.62725870278118
20
-2.40164401041779
30
0
41
1
10
3.60986031002974
20
-2.38933546042636
30
0
41
1
10
3.59415645877315
20
-2.37651677571503
30
0
41
1
10
3.57969806560673
20
-2.36287078816991
30
0
41
1
10
3.56648975091173
20
-2.34840180423503
30
0
41
1
10
3.55441783317933
20
-2.33296207403182
30
0
41
1
10
3.54351961401718
20
-2.31651124839807
30
0
41
1
10
3.53380783297362
20
-2.29902971329609
30
0
41
1
10
3.52536329957165
20
-2.28068357524679
30
0
41
1
10
3.51816955469784
20
-2.26149318935581
30
0
41
1
10
3.51231105845459
20
-2.24181382283643
30
0
41
1
10
3.50769485341372
20
-2.22169728170255
30
0
41
1
10
3.50421648923117
20
-2.20120570620243
30
0
41
1
10
3.5017655355878
20
-2.1799985518159
30
0
41
1
10
3.50031783434868
20
-2.15809943692939
30
0
41
1
10
3.49999726031377
20
-2.14305116605792
30
0
41
1
10
3.5
20
-2.13541565040628
30
0
0
SPLINE
5
BC
100
AcDbEntity
8
1
62
256
6
ByLayer
370
18
48
1
60
0
100
AcDbSpline
70
4
71
3
72
101
73
97
40
0
40
0
40
0
40
0
40
0.0099623645781766
40
0.0199297998683526
40
0.0298976850720409
40
0.0398606634758593
40
0.0498185539302574
40
0.0597805687539484
40
0.0697429786553154
40
0.0797014080712377
40
0.0902503045814454
40
0.100803136831127
40
0.111356369000192
40
0.121905811054711
40
0.132390500128384
40
0.142879580626176
40
0.153370547808344
40
0.16386041663219
40
0.174345767163475
40
0.187446332658148
40
0.200551583140139
40
0.213657240438289
40
0.22675836087752
40
0.240532848256348
40
0.254312042405599
40
0.268091368882244
40
0.281866036768861
40
0.295379669431235
40
0.308895483536212
40
0.322408928196104
40
0.332545563762103
40
0.34268445473757
40
0.352823078525942
40
0.362959349663086
40
0.373099775746325
40
0.383243255677175
40
0.393386231408728
40
0.403525969734185
40
0.412287380611487
40
0.42105326438654
40
0.429820075924852
40
0.438584872738725
40
0.447345371514825
40
0.457474166393553
40
0.4676121250467
40
0.477752526570979
40
0.48788929125062
40
0.498017083835657
40
0.506726953236832
40
0.515444394245651
40
0.524166061925992
40
0.532888222228187
40
0.541606800565789
40
0.550317428861726
40
0.560815695337538
40
0.571319278567273
40
0.581823661579922
40
0.592323019205969
40
0.602813646081186
40
0.613307973977131
40
0.623802903362753
40
0.63429435073196
40
0.645337994052261
40
0.656384709611473
40
0.667431808686295
40
0.678475975124606
40
0.690048240948005
40
0.701624694069172
40
0.713202714478046
40
0.72477946862042
40
0.736351987005098
40
0.747924307234638
40
0.759500959452802
40
0.771078862439538
40
0.782655129368695
40
0.794227126332512
40
0.806393745822539
40
0.818566594396854
40
0.830740940235668
40
0.842912663309815
40
0.85507833835567
40
0.865066442070162
40
0.875057379913649
40
0.885048043675903
40
0.895035773535339
40
0.905027077807361
40
0.915021890657289
40
0.925016350481598
40
0.9350071731829
40
0.945442105762583
40
0.955882013163262
40
0.966321413832892
40
0.976755655080134
40
0.984503416352432
40
0.99225234506823
40
1
40
1
40
1
40
1
41
1
10
3.5
20
-2.13541565040626
30
0
41
1
10
3.50000637101634
20
-2.12628324569604
30
0
41
1
10
3.50044832100479
20
-2.1077098995559
30
0
41
1
10
3.50242543068908
20
-2.07891943078806
30
0
41
1
10
3.50563893629243
20
-2.04924747062555
30
0
41
1
10
3.51004066147485
20
-2.01872943795602
30
0
41
1
10
3.51557707900179
20
-1.98738958984483
30
0
41
1
10
3.52219059854892
20
-1.95525747650477
30
0
41
1
10
3.52982647496622
20
-1.92236227453564
30
0
41
1
10
3.5386002261628
20
-1.88807153277226
30
0
41
1
10
3.54852543099389
20
-1.85235598165853
30
0
41
1
10
3.55960520854873
20
-1.81519408266208
30
0
41
1
10
3.57158814204064
20
-1.77729925645248
30
0
41
1
10
3.58438636646019
20
-1.73878241382075
30
0
41
1
10
3.59793773464646
20
-1.69966792625048
30
0
41
1
10
3.6121814731909
20
-1.65997907170217
30
0
41
1
10
3.62708893114485
20
-1.61965920245023
30
0
41
1
10
3.64260093670697
20
-1.57874003757379
30
0
41
1
10
3.65999747002152
20
-1.53379268262823
30
0
41
1
10
3.67938552246259
20
-1.48464766871508
30
0
41
1
10
3.70083328734692
20
-1.431134124093
30
0
41
1
10
3.72285301882128
20
-1.37678467577517
30
0
41
1
10
3.74572479178024
20
-1.32068166364807
30
0
41
1
10
3.76937526447994
20
-1.26278868732335
30
0
41
1
10
3.79370271223871
20
-1.20306282489099
30
0
41
1
10
3.81818389971119
20
-1.14247804421331
30
0
41
1
10
3.84253398234106
20
-1.0814366271171
30
0
41
1
10
3.86662768498028
20
-1.01995957062978
30
0
41
1
10
3.89032555781651
20
-0.958057669665375
30
0
41
1
10
3.91169734784675
20
-0.900558269208631
30
0
41
1
10
3.93074116055463
20
-0.847684163626447
30
0
41
1
10
3.94751368892277
20
-0.799624274498757
30
0
41
1
10
3.96384377972408
20
-0.751096297195614
30
0
41
1
10
3.97965902158709
20
-0.702096920538261
30
0
41
1
10
3.99488442865804
20
-0.652621676947611
30
0
41
1
10
4.00943542687265
20
-0.602669010403318
30
0
41
1
10
4.02322242151023
20
-0.552256301464227
30
0
41
1
10
4.03557168932319
20
-0.503701871142207
30
0
41
1
10
4.04653413748272
20
-0.457076887581266
30
0
41
1
10
4.05618927050907
20
-0.412448961534303
30
0
41
1
10
4.06502891145121
20
-0.367515188926755
30
0
41
1
10
4.07299271819312
20
-0.322308905591947
30
0
41
1
10
4.08039259736188
20
-0.274488450806441
30
0
41
1
10
4.08696964292971
20
-0.224011614745237
30
0
41
1
10
4.09247043181911
20
-0.170872732565611
30
0
41
1
10
4.09654597241678
20
-0.117514366705334
30
0
41
1
10
4.09914839822992
20
-0.0640282038081663
30
0
41
1
10
4.1001817865838
20
-0.0129796374589973
30
0
41
1
10
4.09984049746252
20
0.0355787108496351
30
0
41
1
10
4.09838234546273
20
0.0816249075598972
30
0
41
1
10
4.09581676388973
20
0.127616482819678
30
0
41
1
10
4.09216987949034
20
0.173493994442009
30
0
41
1
10
4.08746927484727
20
0.219198228805414
30
0
41
1
10
4.08134271601287
20
0.267801839761619
30
0
41
1
10
4.07356965497507
20
0.319230806839458
30
0
41
1
10
4.06399083946509
20
0.373394433062313
30
0
41
1
10
4.05316799018214
20
0.427151951998496
30
0
41
1
10
4.04119998158208
20
0.480447495169344
30
0
41
1
10
4.02818266959718
20
0.533261308660686
30
0
41
1
10
4.01422136416332
20
0.585588534366187
30
0
41
1
10
3.99941058674135
20
0.637426189469991
30
0
41
1
10
3.98357494841113
20
0.689661548967813
30
0
41
1
10
3.9667678085598
20
0.742265061953347
30
0
41
1
10
3.94904534111007
20
0.795208878016582
30
0
41
1
10
3.93078933838028
20
0.847596828880661
30
0
41
1
10
3.91179784126458
20
0.900252663918612
30
0
41
1
10
3.89214392756062
20
0.953156840858057
30
0
41
1
10
3.87189468304346
20
1.00628487489381
30
0
41
1
10
3.85144077915079
20
1.05881793804373
30
0
41
1
10
3.83087352092016
20
1.11074431974372
30
0
41
1
10
3.81028049719013
20
1.1620630033593
30
0
41
1
10
3.78974252851172
20
1.21278227337913
30
0
41
1
10
3.76932657476097
20
1.26290330104443
30
0
41
1
10
3.74910643919738
20
1.31241701540676
30
0
41
1
10
3.72915975593486
20
1.36130261390796
30
0
41
1
10
3.70922538607737
20
1.41037515153492
30
0
41
1
10
3.68939749528801
20
1.45959358687481
30
0
41
1
10
3.66977786926103
20
1.50890617405431
30
0
41
1
10
3.65077830765078
20
1.55747340953913
30
0
41
1
10
3.63248828206131
20
1.60525430350446
30
0
41
1
10
3.61603693554173
20
1.64941801808788
30
0
41
1
10
3.60133447674578
20
1.69010428703877
30
0
41
1
10
3.58826514316704
20
1.72745586206039
30
0
41
1
10
3.57588337807192
20
1.76420516501396
30
0
41
1
10
3.56423874651103
20
1.80033120449602
30
0
41
1
10
3.55338186236766
20
1.83581321361112
30
0
41
1
10
3.54336311811418
20
1.87063106240414
30
0
41
1
10
3.53423744396857
20
1.90475116235167
30
0
41
1
10
3.5259382459164
20
1.93863660987927
30
0
41
1
10
3.51857339940691
20
1.97222181834744
30
0
41
1
10
3.51225621542058
20
2.00543960047982
30
0
41
1
10
3.50715542704051
20
2.03776868090516
30
0
41
1
10
3.5036635003462
20
2.06647323781963
30
0
41
1
10
3.50147200402606
20
2.0917822547107
30
0
41
1
10
3.50027097003173
20
2.11392697503471
30
0
41
1
10
3.50000287619455
20
2.12831494601238
30
0
41
1
10
3.5
20
2.13541565040626
30
0
0
SPLINE
5
BD
100
AcDbEntity
8
1
62
256
6
ByLayer
370
18
48
1
60
0
100
AcDbSpline
70
4
71
3
72
101
73
97
40
0
40
0
40
0
40
0
40
0.009962364578177
40
0.0199297998683533
40
0.0298976850720418
40
0.0398606634758606
40
0.049818553930259
40
0.0597805687539502
40
0.0697429786553175
40
0.0797014080712401
40
0.0902503045814483
40
0.10080313683113
40
0.111356369000196
40
0.121905811054714
40
0.132390500128389
40
0.14287958062618
40
0.153370547808348
40
0.163860416632195
40
0.174345767163479
40
0.187446332658153
40
0.200551583140144
40
0.213657240438296
40
0.226758360877526
40
0.240532848256354
40
0.254312042405606
40
0.268091368882251
40
0.281866036768868
40
0.295379669431244
40
0.308895483536221
40
0.322408928196113
40
0.332545563762113
40
0.34268445473758
40
0.352823078525952
40
0.362959349663096
40
0.373099775746336
40
0.383243255677186
40
0.39338623140874
40
0.403525969734197
40
0.4122873806115
40
0.421053264386553
40
0.429820075924865
40
0.438584872738738
40
0.447345371514839
40
0.457474166393567
40
0.467612125046714
40
0.477752526570993
40
0.487889291250635
40
0.498017083835672
40
0.506726953236848
40
0.515444394245667
40
0.524166061926008
40
0.532888222228204
40
0.541606800565806
40
0.550317428861743
40
0.560815695337556
40
0.571319278567291
40
0.58182366157994
40
0.592323019205987
40
0.602813646081205
40
0.61330797397715
40
0.623802903362772
40
0.634294350731979
40
0.64533799405228
40
0.656384709611493
40
0.667431808686316
40
0.678475975124627
40
0.690048240948025
40
0.701624694069194
40
0.713202714478068
40
0.724779468620443
40
0.736351987005122
40
0.747924307234661
40
0.759500959452827
40
0.771078862439563
40
0.78265512936872
40
0.794227126332538
40
0.806393745822564
40
0.818566594396881
40
0.830740940235695
40
0.842912663309843
40
0.855078338355698
40
0.865066442070191
40
0.875057379913679
40
0.885048043675934
40
0.89503577353537
40
0.905027077807393
40
0.915021890657322
40
0.925016350481632
40
0.935007173182935
40
0.945442105762618
40
0.955882013163299
40
0.966321413832929
40
0.976755655080172
40
0.984503416352457
40
0.992252345068242
40
1
40
1
40
1
40
1
41
1
10
6.5
20
2.13541565040626
30
0
41
1
10
6.49999362898366
20
2.12628324569605
30
0
41
1
10
6.49955167899522
20
2.10770989955591
30
0
41
1
10
6.49757456931092
20
2.07891943078807
30
0
41
1
10
6.49436106370757
20
2.04924747062555
30
0
41
1
10
6.48995933852515
20
2.01872943795603
30
0
41
1
10
6.48442292099821
20
1.98738958984484
30
0
41
1
10
6.47780940145108
20
1.95525747650477
30
0
41
1
10
6.47017352503379
20
1.92236227453565
30
0
41
1
10
6.4613997738372
20
1.88807153277226
30
0
41
1
10
6.4514745690061
20
1.85235598165854
30
0
41
1
10
6.44039479145128
20
1.81519408266209
30
0
41
1
10
6.42841185795936
20
1.77729925645248
30
0
41
1
10
6.41561363353982
20
1.73878241382076
30
0
41
1
10
6.40206226535351
20
1.69966792625049
30
0
41
1
10
6.38781852680911
20
1.65997907170217
30
0
41
1
10
6.37291106885514
20
1.61965920245024
30
0
41
1
10
6.35739906329303
20
1.5787400375738
30
0
41
1
10
6.34000252997849
20
1.53379268262824
30
0
41
1
10
6.32061447753743
20
1.48464766871509
30
0
41
1
10
6.29916671265307
20
1.43113412409301
30
0
41
1
10
6.27714698117873
20
1.37678467577518
30
0
41
1
10
6.25427520821976
20
1.32068166364808
30
0
41
1
10
6.23062473552007
20
1.26278868732336
30
0
41
1
10
6.20629728776129
20
1.203062824891
30
0
41
1
10
6.18181610028881
20
1.14247804421333
30
0
41
1
10
6.15746601765894
20
1.08143662711711
30
0
41
1
10
6.13337231501971
20
1.0199595706298
30
0
41
1
10
6.10967444218351
20
0.958057669665387
30
0
41
1
10
6.08830265215326
20
0.900558269208647
30
0
41
1
10
6.06925883944536
20
0.847684163626463
30
0
41
1
10
6.05248631107724
20
0.799624274498773
30
0
41
1
10
6.03615622027593
20
0.751096297195631
30
0
41
1
10
6.02034097841291
20
0.702096920538277
30
0
41
1
10
6.00511557134196
20
0.65262167694763
30
0
41
1
10
5.99056457312736
20
0.602669010403334
30
0
41
1
10
5.97677757848977
20
0.552256301464246
30
0
41
1
10
5.96442831067682
20
0.503701871142223
30
0
41
1
10
5.95346586251727
20
0.457076887581287
30
0
41
1
10
5.94381072949095
20
0.412448961534319
30
0
41
1
10
5.93497108854879
20
0.367515188926774
30
0
41
1
10
5.92700728180688
20
0.322308905591966
30
0
41
1
10
5.91960740263813
20
0.274488450806459
30
0
41
1
10
5.91303035707029
20
0.224011614745258
30
0
41
1
10
5.9075295681809
20
0.170872732565629
30
0
41
1
10
5.9034540275832
20
0.117514366705355
30
0
41
1
10
5.90085160177009
20
0.0640282038081852
30
0
41
1
10
5.8998182134162
20
0.0129796374590163
30
0
41
1
10
5.90015950253748
20
-0.0355787108496149
30
0
41
1
10
5.90161765453727
20
-0.0816249075598782
30
0
41
1
10
5.90418323611026
20
-0.127616482819658
30
0
41
1
10
5.90783012050966
20
-0.173493994441989
30
0
41
1
10
5.91253072515273
20
-0.219198228805395
30
0
41
1
10
5.91865728398712
20
-0.267801839761598
30
0
41
1
10
5.92643034502493
20
-0.319230806839439
30
0
41
1
10
5.9360091605349
20
-0.373394433062292
30
0
41
1
10
5.94683200981786
20
-0.427151951998475
30
0
41
1
10
5.95880001841791
20
-0.480447495169321
30
0
41
1
10
5.97181733040282
20
-0.533261308660664
30
0
41
1
10
5.98577863583666
20
-0.585588534366164
30
0
41
1
10
6.00058941325865
20
-0.637426189469967
30
0
41
1
10
6.01642505158886
20
-0.689661548967789
30
0
41
1
10
6.03323219144019
20
-0.742265061953324
30
0
41
1
10
6.05095465888992
20
-0.795208878016555
30
0
41
1
10
6.06921066161973
20
-0.847596828880634
30
0
41
1
10
6.08820215873542
20
-0.900252663918581
30
0
41
1
10
6.10785607243936
20
-0.953156840858035
30
0
41
1
10
6.12810531695654
20
-1.00628487489378
30
0
41
1
10
6.14855922084919
20
-1.05881793804371
30
0
41
1
10
6.16912647907985
20
-1.11074431974369
30
0
41
1
10
6.18971950280987
20
-1.16206300335928
30
0
41
1
10
6.21025747148825
20
-1.21278227337911
30
0
41
1
10
6.23067342523904
20
-1.26290330104441
30
0
41
1
10
6.25089356080261
20
-1.31241701540673
30
0
41
1
10
6.27084024406513
20
-1.36130261390794
30
0
41
1
10
6.29077461392261
20
-1.4103751515349
30
0
41
1
10
6.31060250471198
20
-1.4595935868748
30
0
41
1
10
6.33022213073897
20
-1.50890617405429
30
0
41
1
10
6.34922169234921
20
-1.55747340953911
30
0
41
1
10
6.3675117179387
20
-1.60525430350444
30
0
41
1
10
6.38396306445826
20
-1.64941801808786
30
0
41
1
10
6.39866552325423
20
-1.69010428703876
30
0
41
1
10
6.41173485683295
20
-1.72745586206037
30
0
41
1
10
6.42411662192807
20
-1.76420516501395
30
0
41
1
10
6.43576125348896
20
-1.80033120449601
30
0
41
1
10
6.44661813763235
20
-1.83581321361112
30
0
41
1
10
6.45663688188582
20
-1.87063106240413
30
0
41
1
10
6.46576255603143
20
-1.90475116235167
30
0
41
1
10
6.47406175408358
20
-1.93863660987926
30
0
41
1
10
6.4814266005931
20
-1.97222181834744
30
0
41
1
10
6.48774378457941
20
-2.00543960047982
30
0
41
1
10
6.49284457295949
20
-2.03776868090517
30
0
41
1
10
6.4963364996538
20
-2.06647323781962
30
0
41
1
10
6.49852799597393
20
-2.09178225471066
30
0
41
1
10
6.49972902996827
20
-2.11392697503464
30
0
41
1
10
6.49999712380547
20
-2.12831494601228
30
0
41
1
10
6.5
20
-2.13541565040616
30
0
0
SPLINE
5
BE
100
AcDbEntity
8
1
62
256
6
ByLayer
370
18
48
1
60
0
100
AcDbSpline
70
4
71
3
72
122
73
118
40
0
40
0
40
0
40
0
40
0.0132574563182637
40
0.0265164081790421
40
0.0397749797293873
40
0.0530319173813045
40
0.066353332490435
40
0.0796776285239854
40
0.0930008361252045
40
0.106320766665359
40
0.115869346153474
40
0.125418800018999
40
0.134966891764663
40
0.144520546207791
40
0.154075754294152
40
0.163628299441443
40
0.170992964874121
40
0.17836145909136
40
0.185728477133118
40
0.193091128479053
40
0.198551551089483
40
0.204015111194083
40
0.209477832862681
40
0.214937111462284
40
0.220529054597991
40
0.226126503887732
40
0.231723006316857
40
0.237313656967579
40
0.242789084516855
40
0.248270829487995
40
0.253752708760174
40
0.259228319657704
40
0.264899918238379
40
0.270577040058726
40
0.276255420103853
40
0.281928736046779
40
0.288392155665983
40
0.294860232441721
40
0.301332150384115
40
0.307804443615475
40
0.314271402349471
40
0.322327014544839
40
0.330384615475639
40
0.338443095387937
40
0.346499906466528
40
0.357805412121272
40
0.369112357639198
40
0.380417619733467
40
0.38982121903057
40
0.399227432489399
40
0.408633006629015
40
0.418035733874037
40
0.427446114846544
40
0.436860524975353
40
0.446274329574664
40
0.455683884461894
40
0.465562985509351
40
0.475448003107993
40
0.485332671948908
40
0.495211297129759
40
0.50424694210793
40
0.513287321304534
40
0.522327836211303
40
0.531363666345244
40
0.540396436409503
40
0.549433343701309
40
0.558470692159349
40
0.567504064084108
40
0.577105841824284
40
0.586711221131956
40
0.596317324268549
40
0.605920089404831
40
0.616984380071305
40
0.628050611630425
40
0.639115460887038
40
0.650178761928825
40
0.661243357493503
40
0.67230595047938
40
0.680769681860208
40
0.689237496653581
40
0.697702506822356
40
0.706162411638576
40
0.711859475626732
40
0.717560204060893
40
0.723259656606818
40
0.728954979557072
40
0.734811998728407
40
0.740675927396519
40
0.74653888104727
40
0.752394569040381
40
0.758107226794817
40
0.763826856867228
40
0.769547122562764
40
0.775260648116197
40
0.781178781307363
40
0.787102351787285
40
0.793027210437444
40
0.798947101768285
40
0.806142949864271
40
0.813345026570116
40
0.820551524759378
40
0.827757954900503
40
0.834957457601718
40
0.844159107857345
40
0.853364596738777
40
0.862571484066191
40
0.871775042036288
40
0.882401563271015
40
0.893031609599164
40
0.903664792710656
40
0.914299535106019
40
0.924933180498023
40
0.935562102039818
40
0.951669442128031
40
0.967779960071288
40
0.983891401025413
40
1
40
1
40
1
40
1
41
1
10
19.5
20
2
30
0
41
1
10
19.4804069262071
20
1.99172414954643
30
0
41
1
10
19.4413666482441
20
1.97485896339151
30
0
41
1
10
19.3832260476549
20
1.9486486140168
30
0
41
1
10
19.3255783083881
20
1.9214501037906
30
0
41
1
10
19.2683848070167
20
1.89316839494268
30
0
41
1
10
19.2116976407548
20
1.86374805824718
30
0
41
1
10
19.1556183858904
20
1.83308530349794
30
0
41
1
10
19.1003593675201
20
1.80112419060212
30
0
41
1
10
19.0511691635693
20
1.77091705947246
30
0
41
1
10
19.007857407116
20
1.74281542967088
30
0
41
1
10
18.9702240956107
20
1.71714180504077
30
0
41
1
10
18.9333108776506
20
1.69055957486787
30
0
41
1
10
18.8972083927037
20
1.66300909071519
30
0
41
1
10
18.8620602434973
20
1.63439669156221
30
0
41
1
10
18.830628018116
20
1.60690705698743
30
0
41
1
10
18.8027569630087
20
1.58076461711854
30
0
41
1
10
18.7782715848296
20
1.55618382996935
30
0
41
1
10
18.7547920734251
20
1.53075941680434
30
0
41
1
10
18.7343774653044
20
1.50671419940717
30
0
41
1
10
18.7168170577979
20
1.48426167408841
30
0
41
1
10
18.7018656605804
20
1.46360605932796
30
0
41
1
10
18.6877752457157
20
1.44240306303799
30
0
41
1
10
18.6745205438028
20
1.42047218122034
30
0
41
1
10
18.6622232540078
20
1.39777914807761
30
0
41
1
10
18.6509892521224
20
1.37431555554047
30
0
41
1
10
18.640992940054
20
1.35029050704509
30
0
41
1
10
18.6323764756493
20
1.32590477981223
30
0
41
1
10
18.6251991165128
20
1.30118837550425
30
0
41
1
10
18.6194275950764
20
1.2762019291357
30
0
41
1
10
18.6150106002236
20
1.25083925047352
30
0
41
1
10
18.6119192867466
20
1.22485694891075
30
0
41
1
10
18.6102102919
20
1.19828908902689
30
0
41
1
10
18.6098371676928
20
1.17118101617112
30
0
41
1
10
18.6107288124061
20
1.14390429412814
30
0
41
1
10
18.6128961591318
20
1.1152413796538
30
0
41
1
10
18.6164202732742
20
1.08520661410524
30
0
41
1
10
18.62131272212
20
1.05380954341471
30
0
41
1
10
18.6272709735411
20
1.02234823826451
30
0
41
1
10
18.6341342683601
20
0.990849422928727
30
0
41
1
10
18.6423747694483
20
0.956737934305192
30
0
41
1
10
18.6520239025673
20
0.919985346437944
30
0
41
1
10
18.6630796553314
20
0.880550252911315
30
0
41
1
10
18.674668931451
20
0.840996282665084
30
0
41
1
10
18.6881977417556
20
0.795958950183009
30
0
41
1
10
18.7035599224911
20
0.74530429042325
30
0
41
1
10
18.7205281639289
20
0.688864621661995
30
0
41
1
10
18.7362136871597
20
0.635136128009737
30
0
41
1
10
18.7504182784435
20
0.584164360036885
30
0
41
1
10
18.7631432191442
20
0.536030183916556
30
0
41
1
10
18.7751622451628
20
0.487514668056343
30
0
41
1
10
18.7863542272899
20
0.438608966949212
30
0
41
1
10
18.7965956455708
20
0.389310576085245
30
0
41
1
10
18.8058136026375
20
0.339638929191119
30
0
41
1
10
18.8139267692686
20
0.28964242136154
30
0
41
1
10
18.8209711531637
20
0.238524632857428
30
0
41
1
10
18.8267895465226
20
0.186296106794285
30
0
41
1
10
18.8312716072611
20
0.132993173442712
30
0
41
1
10
18.8342878800577
20
0.0795275855576252
30
0
41
1
10
18.835755928048
20
0.0274957535434434
30
0
41
1
10
18.8357866071292
20
-0.0230400613651837
30
0
41
1
10
18.8345451260604
20
-0.0720360705543352
30
0
41
1
10
18.8320484033749
20
-0.120956812194258
30
0
41
1
10
18.8283118444871
20
-0.169738646403788
30
0
41
1
10
18.8233482578534
20
-0.218339487635372
30
0
41
1
10
18.8172163769405
20
-0.266727161671991
30
0
41
1
10
18.809972051305
20
-0.314862835843703
30
0
41
1
10
18.8014967950392
20
-0.3637087201465
30
0
41
1
10
18.791764706649
20
-0.413216019101516
30
0
41
1
10
18.7808107535923
20
-0.463347586505537
30
0
41
1
10
18.7689445982643
20
-0.513087787701983
30
0
41
1
10
18.7556351134584
20
-0.56492483558005
30
0
41
1
10
18.7408605206956
20
-0.618783864381359
30
0
41
1
10
18.7247414790327
20
-0.674615887663611
30
0
41
1
10
18.7082174918092
20
-0.729975116936179
30
0
41
1
10
18.6915314434481
20
-0.784899672989149
30
0
41
1
10
18.6750758964158
20
-0.839465608150891
30
0
41
1
10
18.6604978147966
20
-0.889500721432249
30
0
41
1
10
18.6479336565126
20
-0.935123088818184
30
0
41
1
10
18.6374336907486
20
-0.976421720956006
30
0
41
1
10
18.6281364452
20
-1.01764649676139
30
0
41
1
10
18.6211912034824
20
-1.05431394281202
30
0
41
1
10
18.6163006013421
20
-1.08643715517672
30
0
41
1
10
18.6130475091773
20
-1.11403760872024
30
0
41
1
10
18.6108585698979
20
-1.14155219165446
30
0
41
1
10
18.6098333220363
20
-1.16919943062345
30
0
41
1
10
18.6101486863572
20
-1.19693885004572
30
0
41
1
10
18.6119148704304
20
-1.22471116095601
30
0
41
1
10
18.6151768174569
20
-1.25218393381358
30
0
41
1
10
18.619953793653
20
-1.27905363732178
30
0
41
1
10
18.6262619149894
20
-1.30526182628417
30
0
41
1
10
18.6339914746759
20
-1.33078334610868
30
0
41
1
10
18.6431335028632
20
-1.35577974578129
30
0
41
1
10
18.6537614142937
20
-1.38048807188573
30
0
41
1
10
18.6658746566815
20
-1.40485304005201
30
0
41
1
10
18.6794024644881
20
-1.42885564448348
30
0
41
1
10
18.6940947208109
20
-1.45220306159189
30
0
41
1
10
18.7109798567848
20
-1.47652158048173
30
0
41
1
10
18.7302147751708
20
-1.50166648076795
30
0
41
1
10
18.7519176008792
20
-1.52750152671277
30
0
41
1
10
18.7747434725716
20
-1.55248403634277
30
0
41
1
10
18.7985449992804
20
-1.57664682767363
30
0
41
1
10
18.8254787722956
20
-1.60220628839581
30
0
41
1
10
18.8556972646041
20
-1.62897900513609
30
0
41
1
10
18.8893497125263
20
-1.65676795152129
30
0
41
1
10
18.9239319200874
20
-1.68355337823195
30
0
41
1
10
18.961135506847
20
-1.71074417069425
30
0
41
1
10
19.0009661728576
20
-1.73827781766043
30
0
41
1
10
19.0434677171758
20
-1.76605758046721
30
0
41
1
10
19.0866965710476
20
-1.79285696744217
30
0
41
1
10
19.1305636300221
20
-1.81873601273988
30
0
41
1
10
19.1749816122213
20
-1.8437529222204
30
0
41
1
10
19.2275833401485
20
-1.87213866628751
30
0
41
1
10
19.2886105326724
20
-1.90344672432923
30
0
41
1
10
19.3583152208884
20
-1.93716175667516
30
0
41
1
10
19.4287884755318
20
-1.9693762337848
30
0
41
1
10
19.4761892681392
20
-1.98994866737479
30
0
41
1
10
19.5
20
-2
30
0
0
SPLINE
5
BF
100
AcDbEntity
8
1
62
256
6
ByLayer
370
18
48
1
60
0
100
AcDbSpline
70
4
71
3
72
33
73
29
40
0
40
0
40
0
40
0
40
0.0324780377057684
40
0.0652730785431873
40
0.0983748171727558
40
0.131772202671051
40
0.165453457676736
40
0.198797515454283
40
0.232390895897715
40
0.266220533072655
40
0.300272785762893
40
0.341081525158125
40
0.382160770584675
40
0.423484720873722
40
0.465026734052868
40
0.506759426209843
40
0.548654774741207
40
0.590684225186885
40
0.632818800818332
40
0.675029214125606
40
0.717285979336673
40
0.759559525101197
40
0.801820306480718
40
0.841628134519693
40
0.881374017060903
40
0.921033773847915
40
0.960583572284789
40
1
40
1
40
1
40
1
41
1
10
16.5
20
2
30
0
41
1
10
16.5148861051498
20
2.01116125550683
30
0
41
1
10
16.54494673133
20
2.0331899259561
30
0
41
1
10
16.5906967828168
20
2.06516455765458
30
0
41
1
10
16.6372930667145
20
2.09620570750571
30
0
41
1
10
16.6847100443849
20
2.12627987241241
30
0
41
1
10
16.7326268572351
20
2.15518108172388
30
0
41
1
10
16.7810003398977
20
2.18290311475364
30
0
41
1
10
16.8297870310056
20
2.20944152100273
30
0
41
1
10
16.8792425883022
20
2.23493547830033
30
0
41
1
10
16.9325444582619
20
2.26092625430339
30
0
41
1
10
16.989765645872
20
2.2871161042473
30
0
41
1
10
17.0509656528216
20
2.31318189901743
30
0
41
1
10
17.1128932685794
20
2.33763138011444
30
0
41
1
10
17.1754840624638
20
2.36043499670925
30
0
41
1
10
17.2386721241348
20
2.38156667026916
30
0
41
1
10
17.3023902027939
20
2.40100385145915
30
0
41
1
10
17.3665699699688
20
2.41872761159482
30
0
41
1
10
17.4311422571406
20
2.43472270051941
30
0
41
1
10
17.4960373026178
20
2.44897758834077
30
0
41
1
10
17.5611850089782
20
2.46148448746757
30
0
41
1
10
17.6265151599779
20
2.4722393503635
30
0
41
1
10
17.6907131012273
20
2.48107064129645
30
0
41
1
10
17.7537067031826
20
2.48809625672411
30
0
41
1
10
17.8154315127136
20
2.49343343483895
30
0
41
1
10
17.8770788532261
20
2.49723009364446
30
0
41
1
10
17.9385943482703
20
2.49949750390994
30
0
41
1
10
17.979552134155
20
2.50000007576677
30
0
41
1
10
18
20
2.5
30
0
0
LINE
5
70
100
AcDbEntity
8
1
62
256
6
ByLayer
370
18
48
1
60
0
100
AcDbLine
10
23.5
20
4.5
30
0
11
23.5
21
-4.5
31
0
39
0
210
0
220
0
230
1
0
LINE
5
72
100
AcDbEntity
8
SK1
62
256
6
ByLayer
370
18
48
1
60
0
100
AcDbLine
10
-100
20
8.5
30
0
11
-100
21
-8.5
31
0
39
0
210
0
220
0
230
1
0
LINE
5
74
100
AcDbEntity
8
SK1
62
256
6
ByLayer
370
18
48
1
60
0
100
AcDbLine
10
-98.5
20
8.5
30
0
11
0
21
8.5
31
0
39
0
210
0
220
0
230
1
0
LINE
5
75
100
AcDbEntity
8
1
62
256
6
ByLayer
370
18
48
1
60
0
100
AcDbLine
10
0
20
-8.5
30
0
11
-0.401924
21
-10
31
0
39
0
210
0
220
0
230
1
0
LINE
5
76
100
AcDbEntity
8
1
62
256
6
ByLayer
370
18
48
1
60
0
100
AcDbLine
10
0
20
-2.5
30
0
11
0
21
-8.5
31
0
39
0
210
0
220
0
230
1
0
LINE
5
77
100
AcDbEntity
8
1
62
256
6
ByLayer
370
18
48
1
60
0
100
AcDbLine
10
0
20
8.5
30
0
11
0
21
2.5
31
0
39
0
210
0
220
0
230
1
0
LINE
5
78
100
AcDbEntity
8
1
62
256
6
ByLayer
370
18
48
1
60
0
100
AcDbLine
10
-0.401924
20
10
30
0
11
0
21
8.5
31
0
39
0
210
0
220
0
230
1
0
LINE
5
79
100
AcDbEntity
8
1
62
256
6
ByLayer
370
18
48
1
60
0
100
AcDbLine
10
25
20
-3
30
0
11
25
21
3
31
0
39
0
210
0
220
0
230
1
0
LINE
5
7A
100
AcDbEntity
8
SK1
62
256
6
ByLayer
370
18
48
1
60
0
100
AcDbLine
10
-98.5
20
-10
30
0
11
0
21
-10
31
0
39
0
210
0
220
0
230
1
0
LINE
5
7B
100
AcDbEntity
8
1
62
256
6
ByLayer
370
18
48
1
60
0
100
AcDbLine
10
23
20
-5
30
0
11
22
21
-4
31
0
39
0
210
0
220
0
230
1
0
LINE
5
7C
100
AcDbEntity
8
1
62
256
6
ByLayer
370
18
48
1
60
0
100
AcDbLine
10
23
20
-5
30
0
11
25
21
-3
31
0
39
0
210
0
220
0
230
1
0
LINE
5
7D
100
AcDbEntity
8
1
62
256
6
ByLayer
370
18
48
1
60
0
100
AcDbLine
10
2.545517
20
-4
30
0
11
0.937822
21
-10
31
0
39
0
210
0
220
0
230
1
0
LINE
5
7E
100
AcDbEntity
8
1
62
256
6
ByLayer
370
18
48
1
60
0
100
AcDbLine
10
2.545517
20
4
30
0
11
2.545517
21
-4
31
0
39
0
210
0
220
0
230
1
0
LINE
5
7F
100
AcDbEntity
8
1
62
256
6
ByLayer
370
18
48
1
60
0
100
AcDbLine
10
2.545517
20
4
30
0
11
22
21
4
31
0
39
0
210
0
220
0
230
1
0
LINE
5
80
100
AcDbEntity
8
1
62
256
6
ByLayer
370
18
48
1
60
0
100
AcDbLine
10
2.545517
20
-4
30
0
11
22
21
-4
31
0
39
0
210
0
220
0
230
1
0
LINE
5
81
100
AcDbEntity
8
1
62
256
6
ByLayer
370
18
48
1
60
0
100
AcDbLine
10
22
20
4
30
0
11
23
21
5
31
0
39
0
210
0
220
0
230
1
0
LINE
5
82
100
AcDbEntity
8
1
62
256
6
ByLayer
370
18
48
1
60
0
100
AcDbLine
10
22
20
4
30
0
11
22
21
-4
31
0
39
0
210
0
220
0
230
1
0
LINE
5
83
100
AcDbEntity
8
1
62
256
6
ByLayer
370
18
48
1
60
0
100
AcDbLine
10
0.937822
20
10
30
0
11
2.545517
21
4
31
0
39
0
210
0
220
0
230
1
0
LINE
5
84
100
AcDbEntity
8
1
62
256
6
ByLayer
370
18
48
1
60
0
100
AcDbLine
10
19.5
20
-8.5
30
0
11
0
21
-8.5
31
0
39
0
210
0
220
0
230
1
0
LINE
5
85
100
AcDbEntity
8
1
62
256
6
ByLayer
370
18
48
1
60
0
100
AcDbLine
10
19.5
20
8.5
30
0
11
23.5
21
4.5
31
0
39
0
210
0
220
0
230
1
0
LINE
5
86
100
AcDbEntity
8
1
62
256
6
ByLayer
370
18
48
1
60
0
100
AcDbLine
10
3.5
20
2.135416
30
0
11
3.5
21
10
31
0
39
0
210
0
220
0
230
1
0
LINE
5
87
100
AcDbEntity
8
1
62
256
6
ByLayer
370
18
48
1
60
0
100
AcDbLine
10
6.5
20
2.135416
30
0
11
6.5
21
10
31
0
39
0
210
0
220
0
230
1
0
LINE
5
88
100
AcDbEntity
8
1
62
256
6
ByLayer
370
18
48
1
60
0
100
AcDbLine
10
6.5
20
-10
30
0
11
6.5
21
-2.135416
31
0
39
0
210
0
220
0
230
1
0
LINE
5
89
100
AcDbEntity
8
1
62
256
6
ByLayer
370
18
48
1
60
0
100
AcDbLine
10
18
20
10
30
0
11
0
21
10
31
0
39
0
210
0
220
0
230
1
0
LINE
5
8A
100
AcDbEntity
8
1
62
256
6
ByLayer
370
18
48
1
60
0
100
AcDbLine
10
5.748331
20
-2.5
30
0
11
18
21
-2.5
31
0
39
0
210
0
220
0
230
1
0
LINE
5
8B
100
AcDbEntity
8
1
62
256
6
ByLayer
370
18
48
1
60
0
100
AcDbLine
10
18
20
0
30
0
11
18
21
-2.5
31
0
39
0
210
0
220
0
230
1
0
LINE
5
8C
100
AcDbEntity
8
1
62
256
6
ByLayer
370
18
48
1
60
0
100
AcDbLine
10
18
20
0
30
0
11
18
21
2.5
31
0
39
0
210
0
220
0
230
1
0
LINE
5
8D
100
AcDbEntity
8
1
62
256
6
ByLayer
370
18
48
1
60
0
100
AcDbLine
10
0
20
2.5
30
0
11
4.251669
21
2.5
31
0
39
0
210
0
220
0
230
1
0
LINE
5
8E
100
AcDbEntity
8
1
62
256
6
ByLayer
370
18
48
1
60
0
100
AcDbLine
10
18
20
2.5
30
0
11
18
21
3.125
31
0
39
0
210
0
220
0
230
1
0
LINE
5
8F
100
AcDbEntity
8
1
62
256
6
ByLayer
370
18
48
1
60
0
100
AcDbLine
10
18
20
-2.5
30
0
11
25
21
-2.5
31
0
39
0
210
0
220
0
230
1
0
LINE
5
90
100
AcDbEntity
8
1
62
256
6
ByLayer
370
18
48
1
60
0
100
AcDbLine
10
0
20
-2.5
30
0
11
4.251669
21
-2.5
31
0
39
0
210
0
220
0
230
1
0
LINE
5
91
100
AcDbEntity
8
1
62
256
6
ByLayer
370
18
48
1
60
0
100
AcDbLine
10
3.5
20
-10
30
0
11
3.5
21
-2.135416
31
0
39
0
210
0
220
0
230
1
0
LINE
5
92
100
AcDbEntity
8
1
62
256
6
ByLayer
370
18
48
1
60
0
100
AcDbLine
10
18
20
2.5
30
0
11
25
21
2.5
31
0
39
0
210
0
220
0
230
1
0
LINE
5
93
100
AcDbEntity
8
1
62
256
6
ByLayer
370
18
48
1
60
0
100
AcDbLine
10
5.748331
20
2.5
30
0
11
18
21
2.5
31
0
39
0
210
0
220
0
230
1
0
LINE
5
94
100
AcDbEntity
8
1
62
256
6
ByLayer
370
18
48
1
60
0
100
AcDbLine
10
0
20
-2.5
30
0
11
0
21
2.5
31
0
39
0
210
0
220
0
230
1
0
LINE
5
95
100
AcDbEntity
8
1
62
256
6
ByLayer
370
18
48
1
60
0
100
AcDbLine
10
18
20
-2.5
30
0
11
18
21
-3.125
31
0
39
0
210
0
220
0
230
1
0
LINE
5
96
100
AcDbEntity
8
SK1
62
256
6
ByLayer
370
18
48
1
60
0
100
AcDbLine
10
-100
20
-8.5
30
0
11
-98.5
21
-10
31
0
39
0
210
0
220
0
230
1
0
LINE
5
97
100
AcDbEntity
8
SK1
62
256
6
ByLayer
370
18
48
1
60
0
100
AcDbLine
10
-100
20
-8.5
30
0
11
-98.5
21
-8.5
31
0
39
0
210
0
220
0
230
1
0
LINE
5
98
100
AcDbEntity
8
SK1
62
256
6
ByLayer
370
18
48
1
60
0
100
AcDbLine
10
-98.5
20
-8.5
30
0
11
-98.5
21
-10
31
0
39
0
210
0
220
0
230
1
0
LINE
5
99
100
AcDbEntity
8
SK1
62
256
6
ByLayer
370
18
48
1
60
0
100
AcDbLine
10
-100
20
8.5
30
0
11
-98.5
21
8.5
31
0
39
0
210
0
220
0
230
1
0
LINE
5
9A
100
AcDbEntity
8
SK1
62
256
6
ByLayer
370
18
48
1
60
0
100
AcDbLine
10
-98.5
20
10
30
0
11
-100
21
8.5
31
0
39
0
210
0
220
0
230
1
0
LINE
5
9B
100
AcDbEntity
8
SK1
62
256
6
ByLayer
370
18
48
1
60
0
100
AcDbLine
10
-98.5
20
10
30
0
11
-98.5
21
8.5
31
0
39
0
210
0
220
0
230
1
0
LINE
5
9C
100
AcDbEntity
8
1
62
256
6
ByLayer
370
18
48
1
60
0
100
AcDbLine
10
25
20
3
30
0
11
23.5
21
4.5
31
0
39
0
210
0
220
0
230
1
0
LINE
5
9D
100
AcDbEntity
8
1
62
256
6
ByLayer
370
18
48
1
60
0
100
AcDbLine
10
23
20
5
30
0
11
18
21
10
31
0
39
0
210
0
220
0
230
1
0
LINE
5
9E
100
AcDbEntity
8
1
62
256
6
ByLayer
370
18
48
1
60
0
100
AcDbLine
10
-1.502152
20
0
30
0
11
0
21
2.5
31
0
39
0
210
0
220
0
230
1
0
LINE
5
9F
100
AcDbEntity
8
1
62
256
6
ByLayer
370
18
48
1
60
0
100
AcDbLine
10
0
20
-2.5
30
0
11
-1.502152
21
0
31
0
39
0
210
0
220
0
230
1
0
LINE
5
A0
100
AcDbEntity
8
SK1
62
256
6
ByLayer
370
18
48
1
60
0
100
AcDbLine
10
-98.5
20
8.5
30
0
11
-98.5
21
-8.5
31
0
39
0
210
0
220
0
230
1
0
LINE
5
A1
100
AcDbEntity
8
1
62
256
6
ByLayer
370
18
48
1
60
0
100
AcDbLine
10
19.5
20
-8.5
30
0
11
23
21
-5
31
0
39
0
210
0
220
0
230
1
0
LINE
5
A2
100
AcDbEntity
8
1
62
256
6
ByLayer
370
18
48
1
60
0
100
AcDbLine
10
18
20
-10
30
0
11
19.5
21
-8.5
31
0
39
0
210
0
220
0
230
1
0
LINE
5
A3
100
AcDbEntity
8
1
62
256
6
ByLayer
370
18
48
1
60
0
100
AcDbLine
10
23.5
20
4.5
30
0
11
23
21
5
31
0
39
0
210
0
220
0
230
1
0
LINE
5
A4
100
AcDbEntity
8
80
62
256
6
ByLayer
370
18
48
1
60
0
100
AcDbLine
10
0
20
0
30
0
11
-10
21
0
31
0
39
0
210
0
220
0
230
1
0
LINE
5
A5
100
AcDbEntity
8
81
62
256
6
ByLayer
370
18
48
1
60
0
100
AcDbLine
10
25
20
0
30
0
11
32.5
21
0
31
0
39
0
210
0
220
0
230
1
0
LINE
5
A6
100
AcDbEntity
8
SK1
62
256
6
ByLayer
370
18
48
1
60
0
100
AcDbLine
10
0
20
10
30
0
11
-98.5
21
10
31
0
39
0
210
0
220
0
230
1
0
LINE
5
A7
100
AcDbEntity
8
1
62
256
6
ByLayer
370
18
48
1
60
0
100
AcDbLine
10
0
20
8.5
30
0
11
19.5
21
8.5
31
0
39
0
210
0
220
0
230
1
0
LINE
5
A8
100
AcDbEntity
8
SK1
62
256
6
ByLayer
370
18
48
1
60
0
100
AcDbLine
10
0
20
-8.5
30
0
11
-98.5
21
-8.5
31
0
39
0
210
0
220
0
230
1
0
LINE
5
A9
100
AcDbEntity
8
1
62
256
6
ByLayer
370
18
48
1
60
0
100
AcDbLine
10
0
20
-10
30
0
11
18
21
-10
31
0
39
0
210
0
220
0
230
1
0
MTEXT
5
C0
100
AcDbEntity
8
SK6
62
256
6
ByLayer
370
18
48
1
60
0
100
AcDbMText
10
-55.085746
20
-19.052192
30
0
210
0
220
0
230
1
1
\W0.7551;CXS-2020-05FN
40
3.175
41
0
44
1.084337
50
0
71
7
72
5
7
iso_b_vert
0
DIMENSION
5
D2
100
AcDbEntity
8
SK2
62
256
6
ByLayer
370
13
48
1
60
0
100
AcDbDimension
2
DimnDraft3D1
10
25
20
27.523178
30
0
11
-37.5
21
27.523178
31
0
70
32
71
5
72
1
41
1
210
0
220
0
230
1
3
Standard
100
AcDbAlignedDimension
13
-100
23
10.0875
33
0
14
25
24
4.5875
34
0
50
0
100
AcDbRotatedDimension
1001
ACAD
1000
DSTYLE
1002
{
1070
   279
1070
     0
1070
   172
1070
     1
1070
   173
1070
     1
1070
   340
1005
C1
1070
   271
1070
     1
1070
   272
1070
     2
1070
    77
1070
     1
1070
    73
1070
     0
1070
   171
1070
     3
1070
   274
1070
     4
1070
   177
1070
     7
1070
   176
1070
     7
1070
   178
1070
     7
1070
    78
1070
     8
1070
    48
1040
-0.005
1070
    41
1041
3.175
1070
   147
1041
1.75006
1070
    42
1041
1.5875
1070
    44
1041
3.175
1070
   140
1041
3.50012
1070
   343
1005
0
1070
   344
1005
0
1002
}
0
DIMENSION
5
E1
100
AcDbEntity
8
2
62
256
6
ByLayer
370
13
48
1
60
0
100
AcDbDimension
2
DimnDraft3D2
10
25
20
16.255636
30
0
11
12.5
21
16.255636
31
0
70
32
71
5
72
1
41
1
210
0
220
0
230
1
3
Standard
100
AcDbAlignedDimension
13
0
23
10.0875
33
0
14
25
24
4.5875
34
0
50
0
100
AcDbRotatedDimension
1001
ACAD
1000
DSTYLE
1002
{
1070
   279
1070
     0
1070
   172
1070
     1
1070
   173
1070
     1
1070
   340
1005
C1
1070
   271
1070
     1
1070
   272
1070
     2
1070
    77
1070
     1
1070
    73
1070
     0
1070
   171
1070
     3
1070
   274
1070
     4
1070
   177
1070
     7
1070
   176
1070
     7
1070
   178
1070
     7
1070
    78
1070
     8
1070
    48
1040
-0.005
1070
    41
1041
3.175
1070
   147
1041
1.75006
1070
    42
1041
1.5875
1070
    44
1041
3.175
1070
   140
1041
3.50012
1070
   343
1005
0
1070
   344
1005
0
1002
}
0
DIMENSION
5
EF
100
AcDbEntity
8
SK2
62
256
6
ByLayer
370
13
48
1
60
0
100
AcDbDimension
2
DimnDraft3D3
10
-102.856299
20
-10
30
0
11
-102.856299
21
0
31
0
70
32
71
5
72
1
41
1
210
0
220
0
230
1
3
Standard
100
AcDbAlignedDimension
13
-100.0875
23
10
33
0
14
-100.0875
24
-10
34
0
50
90
100
AcDbRotatedDimension
1001
ACAD
1000
DSTYLE
1002
{
1070
    74
1070
     0
1070
   279
1070
     0
1070
   172
1070
     1
1070
   173
1070
     1
1070
   340
1005
C1
1070
   271
1070
     1
1070
   272
1070
     2
1070
    77
1070
     1
1070
    73
1070
     0
1070
   171
1070
     3
1070
   274
1070
     4
1070
   177
1070
     7
1070
   176
1070
     7
1070
   178
1070
     7
1070
    78
1070
     8
1070
    48
1040
-0.005
1070
    41
1041
3.175
1070
   147
1041
1.75006
1070
    42
1041
1.5875
1070
    44
1041
3.175
1070
   140
1041
3.50012
1070
   343
1005
0
1070
   344
1005
0
1002
}
0
DIMENSION
5
FD
100
AcDbEntity
8
SK2
62
256
6
ByLayer
370
13
48
1
60
0
100
AcDbDimension
2
DimnDraft3D4
10
25
20
3
30
0
11
22.844725
21
-12.844997
31
0
70
34
71
5
72
1
41
1
210
0
220
0
230
1
3
Standard
100
AcDb2LineAngularDimension
13
19.5
23
-8.5
33
0
14
23
24
-5
34
0
15
25
25
-3
35
0
16
19.80382
26
-15.544689
36
0
40
0
0
ENDSEC
0
SECTION
2
OBJECTS
0
DICTIONARY
5
167
330
0
100
AcDbDictionary
280
0
281
1
3
ACAD_GROUP
350
168
3
ACAD_MLINESTYLE
350
169
0
DICTIONARY
5
168
330
0
100
AcDbDictionary
280
0
281
1
0
DICTIONARY
5
169
330
0
100
AcDbDictionary
280
0
281
1
3
Standard
350
18
0
MLINESTYLE
5
18
330
169
100
AcDbMlineStyle
2
Standard
70
0
3

62
256
51
90
52
90
71
2
49
-0.5
62
256
6
ByLayer
49
0.5
62
256
6
ByLayer
0
RASTERVARIABLES
5
156
330

100
AcDbRasterVariables
90
0
70
1
71
1
72
1
0
ENDSEC
0
EOF
