0
SECTION
2
HEADER
9
$ACADVER
1
AC1015
9
$DWGCODEPAGE
3
ANSI_1252
9
$HANDSEED
5
172
9
$ANGBASE
50
0
9
$ANGDIR
70
0
9
$ATTMODE
70
1
9
$AUNITS
70
0
9
$AUPREC
70
0
9
$CECOLOR
62
256
9
$CELTSCALE
40
1
9
$CELTYPE
6
ByLayer
9
$CELWEIGHT
370
18
9
$CLAYER
8
0
9
$CMLJUST
70
0
9
$CMLSCALE
40
1
9
$CMLSTYLE
2
Standard
9
$DIMSTYLE
2
Standard
9
$TEXTSIZE
40
0.2
9
$TEXTSTYLE
7
Standard
9
$LUNITS
70
2
9
$LUPREC
70
4
9
$EXTNAMES
290
1
9
$INSUNITS
70
4
9
$LTSCALE
40
1
9
$LWDISPLAY
290
1
9
$PDMODE
70
0
9
$PDSIZE
40
0
9
$PLINEGEN
70
0
0
ENDSEC
0
SECTION
2
CLASSES
0
CLASS
1
RASTERVARIABLES
2
AcDbRasterVariables
3
ISM
90
0
280
0
281
0
0
ENDSEC
0
SECTION
2
TABLES
0
TABLE
2
VPORT
5
168
100
AcDbSymbolTable
0
VPORT
5
1
100
AcDbSymbolTableRecord
100
AcDbViewportTableRecord
2
*Active
70
0
10
0
20
0
11
1
21
1
12
-1
22
1
13
0
23
0
14
0.5
24
0.5
15
10
25
10
16
0
26
0
36
1
17
0
27
0
37
0
0
ENDTAB
0
TABLE
2
LTYPE
5
169
100
AcDbSymbolTable
0
LTYPE
5
14
100
AcDbSymbolTableRecord
100
AcDbLinetypeTableRecord
70
0
2
ByBlock
3

72
65
73
0
40
0
0
LTYPE
5
15
100
AcDbSymbolTableRecord
100
AcDbLinetypeTableRecord
70
0
2
ByLayer
3

72
65
73
0
40
0
0
LTYPE
5
16
100
AcDbSymbolTableRecord
100
AcDbLinetypeTableRecord
70
0
2
CONTINUOUS
3
Solid line
72
65
73
0
40
0
0
LTYPE
5
6A
100
AcDbSymbolTableRecord
100
AcDbLinetypeTableRecord
70
0
2
CENTER
3
____ _ ____ _ ____ _ ____
72
65
73
4
40
47.5
49
22
74
0
49
-8.5
74
0
49
8.5
74
0
49
-8.5
74
0
0
LTYPE
5
6B
100
AcDbSymbolTableRecord
100
AcDbLinetypeTableRecord
70
0
2
DASHED
3
__ __ __ __ __ __ __ __ __
72
65
73
2
40
25.72
49
12.86
74
0
49
-12.86
74
0
0
ENDTAB
0
TABLE
2
LAYER
5
16a
100
AcDbSymbolTable
0
LAYER
5
10
100
AcDbSymbolTableRecord
100
AcDbLayerTableRecord
2
0
70
0
62
7
6
CONTINUOUS
290
1
370
-3
390
0
0
LAYER
5
6D
100
AcDbSymbolTableRecord
100
AcDbLayerTableRecord
2
80
70
0
62
-6
6
CONTINUOUS
290
1
370
-3
390
0
0
LAYER
5
6F
100
AcDbSymbolTableRecord
100
AcDbLayerTableRecord
2
81
70
0
62
-3
6
CONTINUOUS
290
1
370
-3
390
0
0
LAYER
5
71
100
AcDbSymbolTableRecord
100
AcDbLayerTableRecord
2
1
70
0
62
4
6
CONTINUOUS
290
1
370
-3
390
0
0
LAYER
5
D3
100
AcDbSymbolTableRecord
100
AcDbLayerTableRecord
2
2
70
0
62
7
6
CONTINUOUS
290
1
370
-3
390
0
0
LAYER
5
155
100
AcDbSymbolTableRecord
100
AcDbLayerTableRecord
2
SK1
70
0
62
4
6
CONTINUOUS
290
1
370
-3
390
0
0
LAYER
5
156
100
AcDbSymbolTableRecord
100
AcDbLayerTableRecord
2
SK6
70
0
62
5
6
CONTINUOUS
290
1
370
-3
390
0
0
LAYER
5
157
100
AcDbSymbolTableRecord
100
AcDbLayerTableRecord
2
SK2
70
0
62
7
6
CONTINUOUS
290
1
370
-3
390
0
0
ENDTAB
0
TABLE
2
STYLE
5
16b
100
AcDbSymbolTable
0
STYLE
5
11
100
AcDbSymbolTableRecord
100
AcDbTextStyleTableRecord
2
Standard
3
txt
70
0
71
0
40
0
41
1
42
0
50
0
0
STYLE
5
BF
100
AcDbSymbolTableRecord
100
AcDbTextStyleTableRecord
2
iso_b_vert
3
simplex.shx
70
0
71
0
40
0
41
1
42
0
50
0
0
STYLE
5
C0
100
AcDbSymbolTableRecord
100
AcDbTextStyleTableRecord
2
DWGDirectTextStyle
3
simplex
70
0
71
0
40
0
41
1
42
0
50
0
0
ENDTAB
0
TABLE
2
DIMSTYLE
5
16c
100
AcDbSymbolTable
100
AcDbDimStyleTable
0
DIMSTYLE
105
27
100
AcDbSymbolTableRecord
100
AcDbDimStyleTableRecord
2
Standard
70
0
3
<>
41
0.18
42
0.0625
44
0.18
140
0.18
147
0.09
73
0
74
0
77
1
271
2
275
0
278
52
280
0
340
11
0
ENDTAB
0
TABLE
2
VIEW
5
16d
100
AcDbSymbolTable
0
ENDTAB
0
TABLE
2
UCS
5
16e
100
AcDbSymbolTable
0
ENDTAB
0
TABLE
2
APPID
5
16f
100
AcDbSymbolTable
0
APPID
5
12
100
AcDbSymbolTableRecord
100
AcDbRegAppTableRecord
2
ACAD
70
0
0
ENDTAB
0
TABLE
2
BLOCK_RECORD
5
170
100
AcDbSymbolTable
0
BLOCK_RECORD
5
1F
100
AcDbSymbolTableRecord
100
AcDbBlockTableRecord
2
*Model_Space
340
0
70
0
0
BLOCK_RECORD
5
1B
100
AcDbSymbolTableRecord
100
AcDbBlockTableRecord
2
*Paper_Space
340
0
70
0
0
BLOCK_RECORD
5
23
100
AcDbSymbolTableRecord
100
AcDbBlockTableRecord
2
*Paper_Space0
340
0
70
0
0
BLOCK_RECORD
5
C2
100
AcDbSymbolTableRecord
100
AcDbBlockTableRecord
2
DimnDraft3D1
340
0
70
0
0
BLOCK_RECORD
5
D1
100
AcDbSymbolTableRecord
100
AcDbBlockTableRecord
2
DimnDraft3D2
340
0
70
0
0
BLOCK_RECORD
5
E0
100
AcDbSymbolTableRecord
100
AcDbBlockTableRecord
2
DimnDraft3D3
340
0
70
0
0
BLOCK_RECORD
5
EE
100
AcDbSymbolTableRecord
100
AcDbBlockTableRecord
2
DimnDraft3D4
340
0
70
0
0
ENDTAB
0
ENDSEC
0
SECTION
2
BLOCKS
0
BLOCK
5
20
100
AcDbEntity
8
0
100
AcDbBlockBegin
2
*Model_Space
70
0
10
0
20
0
30
0
3
*Model_Space
0
ENDBLK
5
21
100
AcDbEntity
8
0
100
AcDbBlockEnd
0
BLOCK
5
1C
100
AcDbEntity
8
0
100
AcDbBlockBegin
2
*Paper_Space
70
0
10
0
20
0
30
0
3
*Paper_Space
0
ENDBLK
5
1D
100
AcDbEntity
8
0
100
AcDbBlockEnd
0
BLOCK
5
24
100
AcDbEntity
8
0
100
AcDbBlockBegin
2
*Paper_Space0
70
0
10
0
20
0
30
0
3
*Paper_Space0
0
ENDBLK
5
25
100
AcDbEntity
8
0
100
AcDbBlockEnd
0
BLOCK
5
CE
100
AcDbEntity
8
0
100
AcDbBlockBegin
2
DimnDraft3D1
70
0
10
0
20
0
30
0
3
DimnDraft3D1
0
MTEXT
5
C3
100
AcDbEntity
8
SK2
62
256
6
ByLayer
370
18
48
1
60
0
100
AcDbMText
10
-45.517174
20
24.915658
30
0
210
0
220
0
230
1
1
\W0.6044;125
40
3.50012
41
0
44
1.084337
50
0
71
7
72
5
7
iso_b_vert
0
LINE
5
C5
100
AcDbEntity
8
SK2
62
256
6
ByLayer
370
13
48
1
60
0
100
AcDbLine
10
-106
20
8.5875
30
0
11
-106
21
27.215628
31
0
39
0
210
0
220
0
230
1
0
LINE
5
C6
100
AcDbEntity
8
SK2
62
256
6
ByLayer
370
13
48
1
60
0
100
AcDbLine
10
19
20
4.0875
30
0
11
19
21
27.215628
31
0
39
0
210
0
220
0
230
1
0
LINE
5
C7
100
AcDbEntity
8
SK2
62
256
6
ByLayer
370
13
48
1
60
0
100
AcDbLine
10
-106
20
24.040628
30
0
11
19
21
24.040628
31
0
39
0
210
0
220
0
230
1
0
LINE
5
C8
100
AcDbEntity
8
SK2
62
256
6
ByLayer
370
13
48
1
60
0
100
AcDbLine
10
-106
20
24.040628
30
0
11
-102.825002
21
24.458625
31
0
39
0
210
0
220
0
230
1
0
LINE
5
C9
100
AcDbEntity
8
SK2
62
256
6
ByLayer
370
13
48
1
60
0
100
AcDbLine
10
-106
20
24.040628
30
0
11
-102.824998
21
23.622632
31
0
39
0
210
0
220
0
230
1
0
LINE
5
CA
100
AcDbEntity
8
SK2
62
256
6
ByLayer
370
13
48
1
60
0
100
AcDbLine
10
-102.825002
20
24.458625
30
0
11
-102.824998
21
23.622632
31
0
39
0
210
0
220
0
230
1
0
LINE
5
CB
100
AcDbEntity
8
SK2
62
256
6
ByLayer
370
13
48
1
60
0
100
AcDbLine
10
19
20
24.040628
30
0
11
15.825002
21
23.622632
31
0
39
0
210
0
220
0
230
1
0
LINE
5
CC
100
AcDbEntity
8
SK2
62
256
6
ByLayer
370
13
48
1
60
0
100
AcDbLine
10
19
20
24.040628
30
0
11
15.824998
21
24.458625
31
0
39
0
210
0
220
0
230
1
0
LINE
5
CD
100
AcDbEntity
8
SK2
62
256
6
ByLayer
370
13
48
1
60
0
100
AcDbLine
10
15.825002
20
23.622632
30
0
11
15.824998
21
24.458625
31
0
39
0
210
0
220
0
230
1
0
ENDBLK
5
CF
100
AcDbEntity
8
0
100
AcDbBlockEnd
0
BLOCK
5
DD
100
AcDbEntity
8
0
100
AcDbBlockBegin
2
DimnDraft3D2
70
0
10
0
20
0
30
0
3
DimnDraft3D2
0
MTEXT
5
D2
100
AcDbEntity
8
2
62
256
6
ByLayer
370
18
48
1
60
0
100
AcDbMText
10
6.746324
20
13.868673
30
0
210
0
220
0
230
1
1
\W0.5286;19
40
3.50012
41
0
44
1.084337
50
0
71
7
72
5
7
iso_b_vert
0
LINE
5
D4
100
AcDbEntity
8
2
62
256
6
ByLayer
370
13
48
1
60
0
100
AcDbLine
10
0
20
8.5875
30
0
11
0
21
16.168643
31
0
39
0
210
0
220
0
230
1
0
LINE
5
D5
100
AcDbEntity
8
2
62
256
6
ByLayer
370
13
48
1
60
0
100
AcDbLine
10
19
20
4.0875
30
0
11
19
21
16.168643
31
0
39
0
210
0
220
0
230
1
0
LINE
5
D6
100
AcDbEntity
8
2
62
256
6
ByLayer
370
13
48
1
60
0
100
AcDbLine
10
0
20
12.993643
30
0
11
19
21
12.993643
31
0
39
0
210
0
220
0
230
1
0
LINE
5
D7
100
AcDbEntity
8
2
62
256
6
ByLayer
370
13
48
1
60
0
100
AcDbLine
10
0
20
12.993643
30
0
11
3.174998
21
13.41164
31
0
39
0
210
0
220
0
230
1
0
LINE
5
D8
100
AcDbEntity
8
2
62
256
6
ByLayer
370
13
48
1
60
0
100
AcDbLine
10
0
20
12.993643
30
0
11
3.175002
21
12.575646
31
0
39
0
210
0
220
0
230
1
0
LINE
5
D9
100
AcDbEntity
8
2
62
256
6
ByLayer
370
13
48
1
60
0
100
AcDbLine
10
3.174998
20
13.41164
30
0
11
3.175002
21
12.575646
31
0
39
0
210
0
220
0
230
1
0
LINE
5
DA
100
AcDbEntity
8
2
62
256
6
ByLayer
370
13
48
1
60
0
100
AcDbLine
10
19
20
12.993643
30
0
11
15.825002
21
12.575646
31
0
39
0
210
0
220
0
230
1
0
LINE
5
DB
100
AcDbEntity
8
2
62
256
6
ByLayer
370
13
48
1
60
0
100
AcDbLine
10
19
20
12.993643
30
0
11
15.824998
21
13.41164
31
0
39
0
210
0
220
0
230
1
0
LINE
5
DC
100
AcDbEntity
8
2
62
256
6
ByLayer
370
13
48
1
60
0
100
AcDbLine
10
15.825002
20
12.575646
30
0
11
15.824998
21
13.41164
31
0
39
0
210
0
220
0
230
1
0
ENDBLK
5
DE
100
AcDbEntity
8
0
100
AcDbBlockEnd
0
BLOCK
5
EB
100
AcDbEntity
8
0
100
AcDbBlockBegin
2
DimnDraft3D3
70
0
10
0
20
0
30
0
3
DimnDraft3D3
0
MTEXT
5
E1
100
AcDbEntity
8
SK2
62
256
6
ByLayer
370
18
48
1
60
0
100
AcDbMText
10
-110.03229
20
-0.732262
30
0
210
0
220
0
230
1
1
\W0.5144;16
40
3.50012
41
0
44
1.084337
50
90
71
7
72
5
7
iso_b_vert
0
LINE
5
E2
100
AcDbEntity
8
SK2
62
256
6
ByLayer
370
13
48
1
60
0
100
AcDbLine
10
-106.5875
20
8
30
0
11
-112.33226
21
8
31
0
39
0
210
0
220
0
230
1
0
LINE
5
E3
100
AcDbEntity
8
SK2
62
256
6
ByLayer
370
13
48
1
60
0
100
AcDbLine
10
-106.5875
20
-8
30
0
11
-112.33226
21
-8
31
0
39
0
210
0
220
0
230
1
0
LINE
5
E4
100
AcDbEntity
8
SK2
62
256
6
ByLayer
370
13
48
1
60
0
100
AcDbLine
10
-109.15726
20
8
30
0
11
-109.15726
21
-8
31
0
39
0
210
0
220
0
230
1
0
LINE
5
E5
100
AcDbEntity
8
SK2
62
256
6
ByLayer
370
13
48
1
60
0
100
AcDbLine
10
-109.15726
20
8
30
0
11
-108.739264
21
4.825002
31
0
39
0
210
0
220
0
230
1
0
LINE
5
E6
100
AcDbEntity
8
SK2
62
256
6
ByLayer
370
13
48
1
60
0
100
AcDbLine
10
-109.15726
20
8
30
0
11
-109.575257
21
4.824998
31
0
39
0
210
0
220
0
230
1
0
LINE
5
E7
100
AcDbEntity
8
SK2
62
256
6
ByLayer
370
13
48
1
60
0
100
AcDbLine
10
-108.739264
20
4.825002
30
0
11
-109.575257
21
4.824998
31
0
39
0
210
0
220
0
230
1
0
LINE
5
E8
100
AcDbEntity
8
SK2
62
256
6
ByLayer
370
13
48
1
60
0
100
AcDbLine
10
-109.15726
20
-8
30
0
11
-109.575257
21
-4.825002
31
0
39
0
210
0
220
0
230
1
0
LINE
5
E9
100
AcDbEntity
8
SK2
62
256
6
ByLayer
370
13
48
1
60
0
100
AcDbLine
10
-109.15726
20
-8
30
0
11
-108.739264
21
-4.824998
31
0
39
0
210
0
220
0
230
1
0
LINE
5
EA
100
AcDbEntity
8
SK2
62
256
6
ByLayer
370
13
48
1
60
0
100
AcDbLine
10
-109.575257
20
-4.825002
30
0
11
-108.739264
21
-4.824998
31
0
39
0
210
0
220
0
230
1
0
ENDBLK
5
EC
100
AcDbEntity
8
0
100
AcDbBlockEnd
0
BLOCK
5
F9
100
AcDbEntity
8
0
100
AcDbBlockBegin
2
DimnDraft3D4
70
0
10
0
20
0
30
0
3
DimnDraft3D4
0
MTEXT
5
EF
100
AcDbEntity
8
SK2
62
256
6
ByLayer
370
18
48
1
60
0
100
AcDbMText
10
10.906277
20
-15.595477
30
0
210
0
220
0
230
1
1
\W0.8896;45%%d
40
3.50012
41
0
44
1.084337
50
337.5
71
7
72
5
7
iso_b_vert
0
LINE
5
F0
100
AcDbEntity
8
SK2
62
256
6
ByLayer
370
13
48
1
60
0
100
AcDbLine
10
13.377468
20
-8.122532
30
0
11
5.391018
21
-16.108982
31
0
39
0
210
0
220
0
230
1
0
LINE
5
F1
100
AcDbEntity
8
SK2
62
256
6
ByLayer
370
13
48
1
60
0
100
AcDbLine
10
19
20
-4.0875
30
0
11
19
21
-21.746007
31
0
39
0
210
0
220
0
230
1
0
ARC
5
F2
100
AcDbEntity
8
SK2
62
256
6
ByLayer
370
13
48
1
60
0
100
AcDbCircle
39
0
10
19
20
-2.5
30
0
40
16.0710065923015
210
0
220
0
230
1
100
AcDbArc
50
225
51
270
0
LINE
5
F3
100
AcDbEntity
8
SK2
62
256
6
ByLayer
370
13
48
1
60
0
100
AcDbLine
10
7.636082
20
-13.863918
30
0
11
10.269571
21
-15.686024
31
0
39
0
210
0
220
0
230
1
0
LINE
5
F4
100
AcDbEntity
8
SK2
62
256
6
ByLayer
370
13
48
1
60
0
100
AcDbLine
10
7.636082
20
-13.863918
30
0
11
9.708243
21
-16.305537
31
0
39
0
210
0
220
0
230
1
0
LINE
5
F5
100
AcDbEntity
8
SK2
62
256
6
ByLayer
370
13
48
1
60
0
100
AcDbLine
10
10.269571
20
-15.686024
30
0
11
9.708243
21
-16.305537
31
0
39
0
210
0
220
0
230
1
0
LINE
5
F6
100
AcDbEntity
8
SK2
62
256
6
ByLayer
370
13
48
1
60
0
100
AcDbLine
10
19
20
-18.571007
30
0
11
15.808278
21
-18.832253
31
0
39
0
210
0
220
0
230
1
0
LINE
5
F7
100
AcDbEntity
8
SK2
62
256
6
ByLayer
370
13
48
1
60
0
100
AcDbLine
10
19
20
-18.571007
30
0
11
15.849415
21
-17.997273
31
0
39
0
210
0
220
0
230
1
0
LINE
5
F8
100
AcDbEntity
8
SK2
62
256
6
ByLayer
370
13
48
1
60
0
100
AcDbLine
10
15.808278
20
-18.832253
30
0
11
15.849415
21
-17.997273
31
0
39
0
210
0
220
0
230
1
0
ENDBLK
5
FA
100
AcDbEntity
8
0
100
AcDbBlockEnd
0
ENDSEC
0
SECTION
2
ENTITIES
0
ARC
5
AA
100
AcDbEntity
8
1
62
256
6
ByLayer
370
18
48
1
60
0
100
AcDbCircle
39
0
10
12
20
0
30
0
40
2.5
210
0
220
0
230
1
100
AcDbArc
50
270
51
90
0
ARC
5
AB
100
AcDbEntity
8
1
62
256
6
ByLayer
370
18
48
1
60
0
100
AcDbCircle
39
0
10
12
20
0
30
0
40
2.5
210
0
220
0
230
1
100
AcDbArc
50
90
51
270
0
ARC
5
AC
100
AcDbEntity
8
1
62
256
6
ByLayer
370
18
48
1
60
0
100
AcDbCircle
39
0
10
12
20
0
30
0
40
3.125
210
0
220
0
230
1
100
AcDbArc
50
90
51
270
0
ARC
5
AD
100
AcDbEntity
8
1
62
256
6
ByLayer
370
18
48
1
60
0
100
AcDbCircle
39
0
10
12
20
0
30
0
40
2.5
210
0
220
0
230
1
100
AcDbArc
50
0
51
90
0
ARC
5
AE
100
AcDbEntity
8
1
62
256
6
ByLayer
370
18
48
1
60
0
100
AcDbCircle
39
0
10
12
20
0
30
0
40
3.125
210
0
220
0
230
1
100
AcDbArc
50
270
51
90
0
POINT
5
6C
100
AcDbEntity
8
80
62
256
6
ByLayer
370
18
48
1
60
0
100
AcDbPoint
10
0
20
0
30
0
39
0
210
0
220
0
230
1
50
360
0
POINT
5
6E
100
AcDbEntity
8
81
62
256
6
ByLayer
370
18
48
1
60
0
100
AcDbPoint
10
19
20
0
30
0
39
0
210
0
220
0
230
1
50
360
0
SPLINE
5
AF
100
AcDbEntity
8
1
62
256
6
ByLayer
370
18
48
1
60
0
100
AcDbSpline
70
4
71
3
72
69
73
65
40
0
40
0
40
0
40
0
40
0.0133402231089959
40
0.0266935178263603
40
0.040051797012893
40
0.0534062358825303
40
0.0667474195499683
40
0.0805168140787191
40
0.0942974591532904
40
0.108083256287874
40
0.121866511361174
40
0.135638096742879
40
0.150673765722293
40
0.165716656298712
40
0.180760658991687
40
0.19579784520159
40
0.210823724040286
40
0.225854744806229
40
0.240886475115409
40
0.255913321835841
40
0.271706808234248
40
0.28750480440178
40
0.303303262714263
40
0.31909737948692
40
0.339581073796975
40
0.360072888814902
40
0.380565159418717
40
0.401049475226031
40
0.42153117944562
40
0.442020564428183
40
0.462509831455013
40
0.482991374765386
40
0.50022074339496
40
0.517457692760942
40
0.534696795965244
40
0.551933019121306
40
0.569161778405666
40
0.585609108118803
40
0.602061431682161
40
0.618513418487253
40
0.63496028884343
40
0.651411542773663
40
0.667868617079634
40
0.684325262920195
40
0.700775932369929
40
0.717976458219067
40
0.73518480566805
40
0.752392563145532
40
0.769592284117212
40
0.786138149061246
40
0.802696639879517
40
0.819258605048596
40
0.835815665364695
40
0.852360329625484
40
0.86653107018693
40
0.880714028644831
40
0.89490273032762
40
0.909090961903163
40
0.923272835035338
40
0.937442851431665
40
0.953077893803398
40
0.968721542969041
40
0.984365092951995
40
1
40
1
40
1
40
1
41
1
10
13.4999971147409
20
2.00000127582938
30
0
41
1
10
13.5000060545556
20
1.9999967805861
30
0
41
1
10
13.5004461281075
20
1.99966750112607
30
0
41
1
10
13.5024322015357
20
1.99818060729839
30
0
41
1
10
13.5057013833571
20
1.99571917744677
30
0
41
1
10
13.510229148914
20
1.99229284924893
30
0
41
1
10
13.5160541882494
20
1.98786268382642
30
0
41
1
10
13.5231985299671
20
1.98239848790848
30
0
41
1
10
13.5316358981938
20
1.97589106850185
30
0
41
1
10
13.5412282415097
20
1.96842090125209
30
0
41
1
10
13.5519065107553
20
1.96001464078596
30
0
41
1
10
13.5639690212191
20
1.95040737135691
30
0
41
1
10
13.5774613311614
20
1.93951804799471
30
0
41
1
10
13.5923994850806
20
1.92727659040537
30
0
41
1
10
13.6083077896888
20
1.91402628177242
30
0
41
1
10
13.6250959501139
20
1.89979863411058
30
0
41
1
10
13.6426828443659
20
1.88461651284706
30
0
41
1
10
13.6609938760544
20
1.86850236065946
30
0
41
1
10
13.679959761227
20
1.85147441546044
30
0
41
1
10
13.6998404219454
20
1.83324846441197
30
0
41
1
10
13.7206000875051
20
1.81378624020788
30
0
41
1
10
13.7422049273231
20
1.79304865943867
30
0
41
1
10
13.7642461396332
20
1.77137224284737
30
0
41
1
10
13.788875337218
20
1.74653574741003
30
0
41
1
10
13.8161488227677
20
1.71820224864312
30
0
41
1
10
13.8460851101455
20
1.68600601795938
30
0
41
1
10
13.8763191926914
20
1.65230728336462
30
0
41
1
10
13.9067377538821
20
1.61712543638476
30
0
41
1
10
13.9372392093717
20
1.58046618928732
30
0
41
1
10
13.9677418888775
20
1.54233307877243
30
0
41
1
10
13.9981560491008
20
1.50273545939803
30
0
41
1
10
14.0267907666654
20
1.46385587868822
30
0
41
1
10
14.053608142048
20
1.42595051387801
30
0
41
1
10
14.0786120115375
20
1.38925395727781
30
0
41
1
10
14.103342038269
20
1.35152782391087
30
0
41
1
10
14.127744483827
20
1.31278600415964
30
0
41
1
10
14.1514074847089
20
1.2736344786028
30
0
41
1
10
14.174308556389
20
1.23412378442606
30
0
41
1
10
14.1964350816273
20
1.19430622844095
30
0
41
1
10
14.2181021147244
20
1.15357611201081
30
0
41
1
10
14.2392690083685
20
1.11194072978214
30
0
41
1
10
14.2598960736157
20
1.06940138571382
30
0
41
1
10
14.2799468299035
20
1.025965755181
30
0
41
1
10
14.2993773990381
20
0.981655618578018
30
0
41
1
10
14.3184297569378
20
0.935804128600269
30
0
41
1
10
14.3370255959645
20
0.888371811946996
30
0
41
1
10
14.3550852349776
20
0.839332510712531
30
0
41
1
10
14.3722871898701
20
0.789419615120394
30
0
41
1
10
14.3883766518833
20
0.739312342536364
30
0
41
1
10
14.4033475804234
20
0.689061896415498
30
0
41
1
10
14.4172100226851
20
0.638728097355913
30
0
41
1
10
14.4301232539674
20
0.587701657335393
30
0
41
1
10
14.4420441160181
20
0.536048164387842
30
0
41
1
10
14.4524139474792
20
0.486311001315971
30
0
41
1
10
14.4613648551531
20
0.438606045544895
30
0
41
1
10
14.469047235197
20
0.393031122347964
30
0
41
1
10
14.4759204986451
20
0.347100104665636
30
0
41
1
10
14.4819663611267
20
0.300868648117439
30
0
41
1
10
14.4871669340997
20
0.254392527854139
30
0
41
1
10
14.4916545575508
20
0.206100672383825
30
0
41
1
10
14.495306189217
20
0.155991570613618
30
0
41
1
10
14.4980081723292
20
0.104088000863389
30
0
41
1
10
14.4996365712333
20
0.0520647896771149
30
0
41
1
10
14.4999989209446
20
0.0173591399064497
30
0
41
1
10
14.5
20
8E-16
30
0
0
SPLINE
5
B0
100
AcDbEntity
8
1
62
256
6
ByLayer
370
18
48
1
60
0
100
AcDbSpline
70
4
71
3
72
133
73
129
40
0
40
0
40
0
40
0
40
0.0066701014700681
40
0.0133467387344389
40
0.0200258682296261
40
0.0267030775692685
40
0.0333736593178315
40
0.0402583461733486
40
0.047148658293271
40
0.0540415464393048
40
0.0609331635566189
40
0.067818945836957
40
0.0753367689605755
40
0.0828582028772383
40
0.0903801928513375
40
0.0978987745890543
40
0.105411702649715
40
0.112927201670112
40
0.120443055461592
40
0.127956467462389
40
0.135853198722639
40
0.143752184864042
40
0.151651402077571
40
0.159548448524469
40
0.16979028019502
40
0.180036172213367
40
0.190282292024315
40
0.200524434443025
40
0.210765271069847
40
0.221009948072349
40
0.231254566097074
40
0.24149532226941
40
0.250109993559801
40
0.258728455212664
40
0.267347993783059
40
0.275966092331512
40
0.284580458949755
40
0.292804111373103
40
0.301030260717785
40
0.30925624168359
40
0.317479664428805
40
0.325705278957734
40
0.333933803670132
40
0.342162114150149
40
0.35038743643927
40
0.358987686361246
40
0.367591847077231
40
0.376195712807912
40
0.384795560291766
40
0.393068480256076
40
0.401347713147959
40
0.40962868321262
40
0.417907200854498
40
0.426179520478092
40
0.433264880046563
40
0.440356348554024
40
0.447450688669589
40
0.454544793731886
40
0.461635719577305
40
0.468720717063763
40
0.475603940437339
40
0.48249009720719
40
0.489376220654198
40
0.496259398568128
40
0.503142737469645
40
0.510029035129071
40
0.516915352067313
40
0.523798717269413
40
0.531079258999452
40
0.538363193882391
40
0.545647215182731
40
0.552927874809347
40
0.560788364788531
40
0.568654630380415
40
0.576523105945161
40
0.58438989628408
40
0.592250826699409
40
0.600302799877564
40
0.608360069370177
40
0.61641945754148
40
0.624477383219853
40
0.632529907112949
40
0.64116836676344
40
0.649812195805548
40
0.658458234020131
40
0.667102843887416
40
0.67574195883534
40
0.684554456715306
40
0.693371599908762
40
0.702190630944095
40
0.711008406062959
40
0.719821434227307
40
0.72849495750686
40
0.737171059856716
40
0.745847294300134
40
0.754520997760331
40
0.763193496167726
40
0.771868356328694
40
0.780543266575233
40
0.78921583329966
40
0.798211221736733
40
0.80720923251925
40
0.816207170737009
40
0.825202460193146
40
0.833031600845192
40
0.84086266812357
40
0.848693583554712
40
0.856522517090659
40
0.864353905691672
40
0.872187694812357
40
0.880021168406615
40
0.887852126609273
40
0.89598773957515
40
0.904127070814312
40
0.912265758876619
40
0.92040049436965
40
0.926885256450668
40
0.933372657644477
40
0.939859703366243
40
0.946343980510539
40
0.952832516641072
40
0.959324487771439
40
0.965816112376717
40
0.972304175718277
40
0.979225785148233
40
0.986152324571315
40
0.99307866378236
40
1
40
1
40
1
40
1
41
1
10
10.5000028852591
20
2.00000127582937
30
0
41
1
10
10.4999939454444
20
1.9999967805861
30
0
41
1
10
10.4995538718925
20
1.99966750112607
30
0
41
1
10
10.4975677984643
20
1.99818060729839
30
0
41
1
10
10.4942986166429
20
1.99571917744677
30
0
41
1
10
10.489770851086
20
1.99229284924893
30
0
41
1
10
10.4839458117506
20
1.98786268382642
30
0
41
1
10
10.4768014700329
20
1.98239848790848
30
0
41
1
10
10.4683641018062
20
1.97589106850185
30
0
41
1
10
10.4587717584903
20
1.96842090125209
30
0
41
1
10
10.4480934892447
20
1.96001464078596
30
0
41
1
10
10.4360309787809
20
1.95040737135691
30
0
41
1
10
10.4225386688386
20
1.93951804799471
30
0
41
1
10
10.4076005149193
20
1.92727659040537
30
0
41
1
10
10.3916922103112
20
1.91402628177241
30
0
41
1
10
10.3749040498861
20
1.89979863411058
30
0
41
1
10
10.3573171556341
20
1.88461651284705
30
0
41
1
10
10.3390061239456
20
1.86850236065946
30
0
41
1
10
10.320040238773
20
1.85147441546044
30
0
41
1
10
10.3001595780546
20
1.83324846441197
30
0
41
1
10
10.2793999124949
20
1.81378624020789
30
0
41
1
10
10.2577950726769
20
1.79304865943867
30
0
41
1
10
10.2357538603668
20
1.77137224284737
30
0
41
1
10
10.211124662782
20
1.74653574741003
30
0
41
1
10
10.1838511772323
20
1.71820224864312
30
0
41
1
10
10.1539148898545
20
1.68600601795938
30
0
41
1
10
10.1236808073086
20
1.65230728336462
30
0
41
1
10
10.0932622461179
20
1.61712543638476
30
0
41
1
10
10.0627607906283
20
1.58046618928732
30
0
41
1
10
10.0322581111225
20
1.54233307877243
30
0
41
1
10
10.0018439508992
20
1.50273545939803
30
0
41
1
10
9.97320923333459
20
1.46385587868821
30
0
41
1
10
9.94639185795202
20
1.42595051387801
30
0
41
1
10
9.92138798846246
20
1.38925395727781
30
0
41
1
10
9.89665796173098
20
1.35152782391087
30
0
41
1
10
9.872255516173
20
1.31278600415964
30
0
41
1
10
9.84859251529112
20
1.27363447860281
30
0
41
1
10
9.82569144361096
20
1.23412378442606
30
0
41
1
10
9.80356491837275
20
1.19430622844094
30
0
41
1
10
9.78189788527561
20
1.15357611201081
30
0
41
1
10
9.76073099163146
20
1.11194072978214
30
0
41
1
10
9.74010392638429
20
1.06940138571382
30
0
41
1
10
9.72005317009651
20
1.025965755181
30
0
41
1
10
9.70062260096188
20
0.981655618578015
30
0
41
1
10
9.68157024306218
20
0.935804128600266
30
0
41
1
10
9.66297440403546
20
0.888371811946992
30
0
41
1
10
9.64491476502235
20
0.839332510712539
30
0
41
1
10
9.62771281012995
20
0.789419615120358
30
0
41
1
10
9.61162334811667
20
0.739312342536497
30
0
41
1
10
9.59665241957681
20
0.689061896415021
30
0
41
1
10
9.58278997731419
20
0.638728097357703
30
0
41
1
10
9.56987674603512
20
0.587701657328709
30
0
41
1
10
9.55795588397263
20
0.536048164412768
30
0
41
1
10
9.54758605255325
20
0.486311001228644
30
0
41
1
10
9.5386351447451
20
0.438606045819311
30
0
41
1
10
9.5309527651855
20
0.393031121317348
30
0
41
1
10
9.52407949992644
20
0.347100108514938
30
0
41
1
10
9.51803364420337
20
0.300868633754739
30
0
41
1
10
9.51283304602526
20
0.254392581410894
30
0
41
1
10
9.50853615092278
20
0.208151924031514
30
0
41
1
10
9.50512798890506
20
0.162179338238184
30
0
41
1
10
9.50257905544169
20
0.116507106503678
30
0
41
1
10
9.50086230360108
20
0.0707352893205589
30
0
41
1
10
9.49998329015912
20
0.0249087794764831
30
0
41
1
10
9.49994899302667
20
-0.0209396855516927
30
0
41
1
10
9.50075462469375
20
-0.0667769362622086
30
0
41
1
10
9.50239669089719
20
-0.112556939945703
30
0
41
1
10
9.50491998923609
20
-0.159112446011324
30
0
41
1
10
9.50838098489546
20
-0.206402667041691
30
0
41
1
10
9.51282356011164
20
-0.254380365139749
30
0
41
1
10
9.51816973530121
20
-0.3021196818633
30
0
41
1
10
9.52457150434287
20
-0.350830424806755
30
0
41
1
10
9.53210574706781
20
-0.400451949261915
30
0
41
1
10
9.54083217099412
20
-0.450917000855506
30
0
41
1
10
9.55053186659591
20
-0.50092753282765
30
0
41
1
10
9.56117334227651
20
-0.550416268590849
30
0
41
1
10
9.57282404749633
20
-0.599733275495573
30
0
41
1
10
9.58548870614717
20
-0.648835608924804
30
0
41
1
10
9.59915612560656
20
-0.69768975533049
30
0
41
1
10
9.61368769814844
20
-0.745869587488454
30
0
41
1
10
9.62904095523962
20
-0.7933241657672
30
0
41
1
10
9.64557166088491
20
-0.84115306634327
30
0
41
1
10
9.66331711113104
20
-0.889275740959463
30
0
41
1
10
9.68229809320478
20
-0.937615430763782
30
0
41
1
10
9.70205516378364
20
-0.985035200467527
30
0
41
1
10
9.72253321345652
20
-1.0314961040717
30
0
41
1
10
9.74382708784611
20
-1.07728032284737
30
0
41
1
10
9.76591325141813
20
-1.12235887093753
30
0
41
1
10
9.78875958685905
20
-1.16671217154699
30
0
41
1
10
9.81216895228877
20
-1.21003086241433
30
0
41
1
10
9.83608376465949
20
-1.25229163684423
30
0
41
1
10
9.86032612602234
20
-1.29326666838739
30
0
41
1
10
9.88484481613789
20
-1.3329751040148
30
0
41
1
10
9.90958688785208
20
-1.37144207429254
30
0
41
1
10
9.93463286508431
20
-1.40887206696984
30
0
41
1
10
9.9599317638723
20
-1.44525677058937
30
0
41
1
10
9.98543963666454
20
-1.48059627690531
30
0
41
1
10
10.011107080859
20
-1.51489242291212
30
0
41
1
10
10.0368813261342
20
-1.54814091657067
30
0
41
1
10
10.0630289560167
20
-1.58073499573462
30
0
41
1
10
10.0895024006452
20
-1.61262767772763
30
0
41
1
10
10.116237594609
20
-1.64376959083844
30
0
41
1
10
10.142843794626
20
-1.67376482499847
30
0
41
1
10
10.168109718817
20
-1.70135661732374
30
0
41
1
10
10.1920068743145
20
-1.72670656117955
30
0
41
1
10
10.2145195644654
20
-1.74996948443596
30
0
41
1
10
10.2367205070257
20
-1.77233281563361
30
0
41
1
10
10.2585536524157
20
-1.79378629693529
30
0
41
1
10
10.2799635501315
20
-1.81431925846558
30
0
41
1
10
10.300882431374
20
-1.83391827516181
30
0
41
1
10
10.3212346467411
20
-1.85256229221299
30
0
41
1
10
10.3412011883983
20
-1.87045995517958
30
0
41
1
10
10.3606762299114
20
-1.88754650029975
30
0
41
1
10
10.379530945316
20
-1.90375110577988
30
0
41
1
10
10.3974167826444
20
-1.91882645156151
30
0
41
1
10
10.4130924047497
20
-1.93179790464682
30
0
41
1
10
10.4267126232635
20
-1.94289694482592
30
0
41
1
10
10.4384643099628
20
-1.95235173106425
30
0
41
1
10
10.4493556728102
20
-1.96101043905194
30
0
41
1
10
10.4593311532521
20
-1.96885422338434
30
0
41
1
10
10.4683293219656
20
-1.97586086172959
30
0
41
1
10
10.4763039890198
20
-1.98201556487895
30
0
41
1
10
10.4832058910825
20
-1.98729974667299
30
0
41
1
10
10.4891150526288
20
-1.99179297614035
30
0
41
1
10
10.4938840527466
20
-1.99540235389873
30
0
41
1
10
10.4973933700125
20
-1.99804694962602
30
0
41
1
10
10.4995223766424
20
-1.99964328249029
30
0
41
1
10
10.4999940844075
20
-1.99999682670737
30
0
41
1
10
10.5000030151358
20
-2.00000133940539
30
0
0
SPLINE
5
B1
100
AcDbEntity
8
1
62
256
6
ByLayer
370
18
48
1
60
0
100
AcDbSpline
70
4
71
3
72
39
73
35
40
0
40
0
40
0
40
0
40
0.0317791602522466
40
0.0635849309412231
40
0.0953999399014923
40
0.12720630714813
40
0.158985968158777
40
0.191689418746947
40
0.224421548070922
40
0.257163257913896
40
0.289895328317172
40
0.322598729444659
40
0.354376762428182
40
0.386181296946103
40
0.417994635453701
40
0.449799037110494
40
0.481576958569214
40
0.514283260552941
40
0.547018474259921
40
0.579763426376588
40
0.612498745243545
40
0.645205135503954
40
0.674163125247789
40
0.703134412294509
40
0.732105734794826
40
0.761063772906663
40
0.79002161594421
40
0.818992727462714
40
0.847963810263125
40
0.876921614121683
40
0.907683270933168
40
0.938461064689153
40
0.969238640518066
40
1
40
1
40
1
40
1
41
1
10
3.2516685226452
20
2
30
0
41
1
10
3.26606155139179
20
1.9999945621975
30
0
41
1
10
3.29511566542914
20
1.99990085207194
30
0
41
1
10
3.33950007751327
20
1.99948906662988
30
0
41
1
10
3.38461744850055
20
1.99887338797959
30
0
41
1
10
3.43039870512405
20
1.99809702771726
30
0
41
1
10
3.47723857035864
20
1.99720011051975
30
0
41
1
10
3.52512837471176
20
1.9962290634376
30
0
41
1
10
3.57404587014247
20
1.99521923322694
30
0
41
1
10
3.62347392963026
20
1.99421522265255
30
0
41
1
10
3.67332697225628
20
1.99325359200307
30
0
41
1
10
3.72307030417642
20
1.99237839567612
30
0
41
1
10
3.77265481338168
20
1.99162244639043
30
0
41
1
10
3.82203317603974
20
1.99099519558231
30
0
41
1
10
3.87162241352664
20
1.99050231206957
30
0
41
1
10
3.92134042668208
20
1.99015734799574
30
0
41
1
10
3.9716125400096
20
1.98997175938838
30
0
41
1
10
4.02240437351807
20
1.98996580496002
30
0
41
1
10
4.07367453411782
20
1.99013598742097
30
0
41
1
10
4.12487304640013
20
1.99047272667266
30
0
41
1
10
4.17590982921014
20
1.99096623505258
30
0
41
1
10
4.2247794104408
20
1.99158368071227
30
0
41
1
10
4.27146622880325
20
1.99229520338592
30
0
41
1
10
4.3159796453274
20
1.9930608983714
30
0
41
1
10
4.36020317069327
20
1.99389078654353
30
0
41
1
10
4.40408973002036
20
1.99476460475577
30
0
41
1
10
4.44760474694552
20
1.99566216529314
30
0
41
1
10
4.49071689491122
20
1.99655356817356
30
0
41
1
10
4.53338135676612
20
1.99740921422721
30
0
41
1
10
4.57642806898462
20
1.99821574711732
30
0
41
1
10
4.61978618561352
20
1.99893643122177
30
0
41
1
10
4.66337692454515
20
1.99951809587166
30
0
41
1
10
4.70628936580118
20
1.99990657653841
30
0
41
1
10
4.734399985183
20
1.9999949583331
30
0
41
1
10
4.74833147735478
20
2
30
0
0
SPLINE
5
B2
100
AcDbEntity
8
1
62
256
6
ByLayer
370
18
48
1
60
0
100
AcDbSpline
70
4
71
3
72
127
73
123
40
0
40
0
40
0
40
0
40
0.0073350450979028
40
0.0148359289753577
40
0.0225059795137596
40
0.0303484618347112
40
0.0383665614044796
40
0.0465633657455879
40
0.0549418447410297
40
0.0627841682774467
40
0.0707835943196114
40
0.0789420562234814
40
0.0872613420221088
40
0.0957430775873918
40
0.104388709160418
40
0.111930709239779
40
0.119594707346568
40
0.127381239012416
40
0.135290705702657
40
0.143323366039464
40
0.151479327063091
40
0.159758535596772
40
0.167455926948299
40
0.175256396312466
40
0.18315951251168
40
0.191164709477988
40
0.199271281663576
40
0.207478379782429
40
0.216525095767573
40
0.225688248910658
40
0.234966133065027
40
0.24435682177213
40
0.253858165492903
40
0.261399705526447
40
0.269006850700802
40
0.276678265638581
40
0.28441252931379
40
0.292208135629889
40
0.300063494261441
40
0.307976931759087
40
0.315946692915476
40
0.323970942387778
40
0.332047766570374
40
0.340029619743751
40
0.348058313422014
40
0.35613182690672
40
0.364248075701665
40
0.372553573507238
40
0.380898823332709
40
0.389281439143204
40
0.397698979063181
40
0.406148948951373
40
0.414477142426662
40
0.422831714531049
40
0.431210176129554
40
0.439610003567943
40
0.44820061771596
40
0.456808075430043
40
0.465429608211413
40
0.47406242644354
40
0.482703723589931
40
0.491350680409833
40
0.500000469186453
40
0.509154374089049
40
0.51830492256984
40
0.52744876383489
40
0.536582558340316
40
0.545702983402663
40
0.554806738790424
40
0.563372106669461
40
0.571917030480852
40
0.580438825254553
40
0.588934840655965
40
0.597402464972591
40
0.605839129035296
40
0.614242310061352
40
0.622609535405348
40
0.630938386203216
40
0.639226500893894
40
0.647324744060615
40
0.65537935338567
40
0.663388271318415
40
0.67134950520926
40
0.680335970350313
40
0.689255662096446
40
0.698105984543876
40
0.706884465133312
40
0.715588757586261
40
0.724216644348258
40
0.732766038528781
40
0.741234985332541
40
0.750018922480336
40
0.758710633313782
40
0.767308340873689
40
0.775810428054394
40
0.784215436245358
40
0.792522063392069
40
0.801450852697078
40
0.810260437886712
40
0.818949748299911
40
0.827517914041001
40
0.835964259356967
40
0.844140734362297
40
0.852198933941173
40
0.860138723199995
40
0.867960119348994
40
0.877117084626811
40
0.886107023428284
40
0.894930714292467
40
0.903589172094222
40
0.912083629258839
40
0.920415517280031
40
0.928586448667706
40
0.936598199432521
40
0.944452692195724
40
0.95215197999523
40
0.95969823084269
40
0.967093713071405
40
0.975619403425361
40
0.983942934398035
40
0.992068404156533
40
1
40
1
40
1
40
1
41
1
10
0
20
2
30
0
41
1
10
0.0040471526226113
20
1.9999999675729
30
0
41
1
10
0.0122306801780248
20
1.99965404352547
30
0
41
1
10
0.0246408791704837
20
1.9980678441528
30
0
41
1
10
0.037317672753435
20
1.9953367668209
30
0
41
1
10
0.0502593640680828
20
1.99138585696942
30
0
41
1
10
0.0634623249007085
20
1.98613730422504
30
0
41
1
10
0.0769219226011408
20
1.97951050580511
30
0
41
1
10
0.0902391245346266
20
1.97165405905498
30
0
41
1
10
0.103395647838507
20
1.96262534478935
30
0
41
1
10
0.116374153360027
20
1.95248658565368
30
0
41
1
10
0.12954195258061
20
1.94091109502969
30
0
41
1
10
0.142889658505634
20
1.9278286612929
30
0
41
1
10
0.1564064849765
20
1.91316821120212
30
0
41
1
10
0.169411421270166
20
1.89765578703702
30
0
41
1
10
0.181886458986995
20
1.88147775104901
30
0
41
1
10
0.19381646992748
20
1.86482042223643
30
0
41
1
10
0.205831599771624
20
1.8468080169349
30
0
41
1
10
0.217920431903195
20
1.82739604317106
30
0
41
1
10
0.230070572182299
20
1.80654075451558
30
0
41
1
10
0.242268632746839
20
1.78419941133445
30
0
41
1
10
0.254153142872738
20
1.76100781723953
30
0
41
1
10
0.265714741046761
20
1.73706219502479
30
0
41
1
10
0.276945789847556
20
1.71246007265068
30
0
41
1
10
0.288166066839537
20
1.686483610653
30
0
41
1
10
0.299361472800221
20
1.65910672858196
30
0
41
1
10
0.310517182131694
20
1.63030533002633
30
0
41
1
10
0.321951297727022
20
1.59914841669377
30
0
41
1
10
0.33363366140604
20
1.56547577125564
30
0
41
1
10
0.345528548520225
20
1.52912537293718
30
0
41
1
10
0.357294080300814
20
1.49099994473303
30
0
41
1
10
0.368906596880191
20
1.45108716723653
30
0
41
1
10
0.379512058114948
20
1.41240548911101
30
0
41
1
10
0.389147949871337
20
1.37532657243801
30
0
41
1
10
0.397854203569398
20
1.34018792463279
30
0
41
1
10
0.406410328116895
20
1.30394497253435
30
0
41
1
10
0.414803510262189
20
1.26660374223647
30
0
41
1
10
0.423020776218301
20
1.22817281050903
30
0
41
1
10
0.431049060102325
20
1.18866328149199
30
0
41
1
10
0.438875236574479
20
1.14808888970757
30
0
41
1
10
0.446486166841538
20
1.10646605300221
30
0
41
1
10
0.453868741987499
20
1.06381393869817
30
0
41
1
10
0.46096703539752
20
1.02041675149934
30
0
41
1
10
0.467773880783465
20
0.976317181087339
30
0
41
1
10
0.474282765819034
20
0.931559078552309
30
0
41
1
10
0.480522475138461
20
0.885907975100182
30
0
41
1
10
0.48651781606662
20
0.839111223519155
30
0
41
1
10
0.492250968306927
20
0.791187249353612
30
0
41
1
10
0.497703952340945
20
0.742158915837692
30
0
41
1
10
0.502831643178371
20
0.692352133536036
30
0
41
1
10
0.507623472155117
20
0.641810672226289
30
0
41
1
10
0.512042819777335
20
0.59088726190832
30
0
41
1
10
0.516087812980079
20
0.539642048092106
30
0
41
1
10
0.519757516047349
20
0.48813484517683
30
0
41
1
10
0.523068484729119
20
0.436108693382454
30
0
41
1
10
0.526033820151646
20
0.383257246843801
30
0
41
1
10
0.528638227797792
20
0.329625507356337
30
0
41
1
10
0.530866828334485
20
0.275263016034875
30
0
41
1
10
0.53269718237275
20
0.220588268146966
30
0
41
1
10
0.534125139631904
20
0.165662289801412
30
0
41
1
10
0.535147448217007
20
0.110547054126912
30
0
41
1
10
0.535761771402424
20
0.0553052129197737
30
0
41
1
10
0.535970684953021
20
-0.0010744621465125
30
0
41
1
10
0.535745384125505
20
-0.0585279525404819
30
0
41
1
10
0.535057427073532
20
-0.116980712206476
30
0
41
1
10
0.533912793566543
20
-0.175283521341278
30
0
41
1
10
0.532314410952079
20
-0.233362162560856
30
0
41
1
10
0.530266354922237
20
-0.291143371628567
30
0
41
1
10
0.527821131205066
20
-0.347465337157858
30
0
41
1
10
0.525013803157606
20
-0.402283413998204
30
0
41
1
10
0.521878786836581
20
-0.455564261393909
30
0
41
1
10
0.518367239439463
20
-0.508340632906875
30
0
41
1
10
0.514486827499496
20
-0.560558486060278
30
0
41
1
10
0.510245934978538
20
-0.612165733371606
30
0
41
1
10
0.505653617067622
20
-0.663112454132184
30
0
41
1
10
0.500719554060638
20
-0.713351019488971
30
0
41
1
10
0.495454001687626
20
-0.762836224303789
30
0
41
1
10
0.489867741958168
20
-0.811525381731627
30
0
41
1
10
0.484006844578797
20
-0.859095841433136
30
0
41
1
10
0.477889367212523
20
-0.905526156863728
30
0
41
1
10
0.471533183131189
20
-0.950799275811397
30
0
41
1
10
0.464912847832714
20
-0.995166830822612
30
0
41
1
10
0.45773101941662
20
-1.04055587654674
30
0
41
1
10
0.449957780659986
20
-1.08680176851294
30
0
41
1
10
0.441565245455657
20
-1.13372513240275
30
0
41
1
10
0.432898895386025
20
-1.17935057506327
30
0
41
1
10
0.42397699849473
20
-1.22365410457085
30
0
41
1
10
0.414817803970358
20
-1.26661600224627
30
0
41
1
10
0.405439484219102
20
-1.30822060419532
30
0
41
1
10
0.39586005224572
20
-1.34845622918289
30
0
41
1
10
0.385944663444981
20
-1.38792256488199
30
0
41
1
10
0.375699473040534
20
-1.42654719662012
30
0
41
1
10
0.365132042476372
20
-1.46425861160073
30
0
41
1
10
0.354421673309243
20
-1.50045672703059
30
0
41
1
10
0.343587129422072
20
-1.53514844615843
30
0
41
1
10
0.332646586222381
20
-1.56834420954397
30
0
41
1
10
0.321298230430482
20
-1.60097605443008
30
0
41
1
10
0.309545931966159
20
-1.63292413502563
30
0
41
1
10
0.297395892980852
20
-1.66406841965842
30
0
41
1
10
0.285201958367168
20
-1.69352975002973
30
0
41
1
10
0.272983062420966
20
-1.72133973573013
30
0
41
1
10
0.260828294542033
20
-1.74738021713949
30
0
41
1
10
0.248755854036219
20
-1.77171678684332
30
0
41
1
10
0.236782183749788
20
-1.79441596038805
30
0
41
1
10
0.224847041914863
20
-1.81566580832952
30
0
41
1
10
0.21222734187468
20
-1.83673509559448
30
0
41
1
10
0.198933392870575
20
-1.85737859517034
30
0
41
1
10
0.184979398547185
20
-1.87734666342728
30
0
41
1
10
0.171151936167384
20
-1.89551570889982
30
0
41
1
10
0.157466511540978
20
-1.91195747005287
30
0
41
1
10
0.143936988519339
20
-1.92674390418345
30
0
41
1
10
0.13057570153758
20
-1.93994673374595
30
0
41
1
10
0.117393526959649
20
-1.95163711459481
30
0
41
1
10
0.104399968714365
20
-1.96188532723839
30
0
41
1
10
0.0916032389540717
20
-1.97076051465297
30
0
41
1
10
0.0790103497240509
20
-1.97833045444293
30
0
41
1
10
0.0666271661393836
20
-1.98466137533882
30
0
41
1
10
0.0537573836560554
20
-1.99011491056847
30
0
41
1
10
0.0404299509928521
20
-1.99452656910999
30
0
41
1
10
0.0266763104860779
20
-1.99773592881697
30
0
41
1
10
0.0132333984559843
20
-1.99959511456898
30
0
41
1
10
0.0043764374135016
20
-1.99999995563134
30
0
41
1
10
0
20
-2
30
0
0
SPLINE
5
B3
100
AcDbEntity
8
1
62
256
6
ByLayer
370
18
48
1
60
0
100
AcDbSpline
70
4
71
3
72
68
73
64
40
0
40
0
40
0
40
0
40
0.0141597096081529
40
0.0283258448597659
40
0.0424920407379735
40
0.0566518330562074
40
0.0708104134100696
40
0.0849751832840318
40
0.099140121664707
40
0.113298931900402
40
0.128300599587811
40
0.143309088909133
40
0.158317885791802
40
0.173319973070189
40
0.19033812138555
40
0.207369013201221
40
0.224405034252304
40
0.241437560335292
40
0.258457080363386
40
0.275892270334393
40
0.293338663123563
40
0.31078967266501
40
0.328237707962825
40
0.34567427641728
40
0.36473830200517
40
0.383810578859602
40
0.402883501176532
40
0.421948407316076
40
0.441006646655699
40
0.460071911475376
40
0.479137604901011
40
0.49819642891636
40
0.518248302290553
40
0.538307520968134
40
0.558366943459843
40
0.578419094863686
40
0.597780245725681
40
0.617147950369844
40
0.636515443190415
40
0.655876305103704
40
0.675242190637326
40
0.69461562950856
40
0.713988224508471
40
0.733352958850501
40
0.749638633069259
40
0.765934137670808
40
0.782231494830964
40
0.798524239747296
40
0.814807598025666
40
0.82853416099328
40
0.842269631337355
40
0.856006857488661
40
0.869739983712148
40
0.883464579394247
40
0.897536562292459
40
0.91162210878079
40
0.925710799868157
40
0.939793673476635
40
0.953863412477868
40
0.965394776296876
40
0.976931899427977
40
0.988468859138758
40
1
40
1
40
1
40
1
41
1
10
9.5
20
0
30
0
41
1
10
9.50000072741079
20
0.0157200818616973
30
0
41
1
10
9.50029776816034
20
0.0471508675286604
30
0
41
1
10
9.50163303594115
20
0.0942708552756953
30
0
41
1
10
9.50385024547988
20
0.141301917870146
30
0
41
1
10
9.50694567392739
20
0.188197968729093
30
0
41
1
10
9.51091677119057
20
0.23492212964286
30
0
41
1
10
9.51574894217123
20
0.28144234930041
30
0
41
1
10
9.52142831624513
20
0.327714519485248
30
0
41
1
10
9.5280709298148
20
0.374606014821949
30
0
41
1
10
9.53572512667397
20
0.422063551647176
30
0
41
1
10
9.54442583814774
20
0.470030791929789
30
0
41
1
10
9.55400219338126
20
0.517557151896621
30
0
41
1
10
9.56489684135703
20
0.566705446875039
30
0
41
1
10
9.57722962196833
20
0.617368395669206
30
0
41
1
10
9.59110163151978
20
0.669425631034649
30
0
41
1
10
9.60596123454646
20
0.720752314343974
30
0
41
1
10
9.62175918887067
20
0.771285373294659
30
0
41
1
10
9.6385901642673
20
0.821388585347827
30
0
41
1
10
9.65644520355679
20
0.871018044141799
30
0
41
1
10
9.67530120227461
20
0.920142549734487
30
0
41
1
10
9.69496489691876
20
0.968338491145631
30
0
41
1
10
9.7153796035765
20
1.01556438874341
30
0
41
1
10
9.7371544867142
20
1.06323421822646
30
0
41
1
10
9.7603232451274
20
1.11122936465455
30
0
41
1
10
9.78490001750781
20
1.15943190792479
30
0
41
1
10
9.81014007004372
20
1.20641673859616
30
0
41
1
10
9.8359753766483
20
1.25216051560785
30
0
41
1
10
9.86234952936386
20
1.296658431667
30
0
41
1
10
9.88920085150973
20
1.33991323312865
30
0
41
1
10
9.91646592710799
20
1.38191982026568
30
0
41
1
10
9.94455869878246
20
1.4233761121594
30
0
41
1
10
9.97344066277509
20
1.46420502276219
30
0
41
1
10
10.0030538449618
20
1.50432920068349
30
0
41
1
10
10.0328306883308
20
1.54305439980639
30
0
41
1
10
10.0623459520714
20
1.57994260494915
30
0
41
1
10
10.0915249558042
20
1.6150476557772
30
0
41
1
10
10.1202874267134
20
1.64842317433568
30
0
41
1
10
10.1488882388942
20
1.68046928628994
30
0
41
1
10
10.177241077509
20
1.71117484481092
30
0
41
1
10
10.2052641508916
20
1.74053058840606
30
0
41
1
10
10.2328531592923
20
1.76852293623318
30
0
41
1
10
10.2598912620407
20
1.79512527706721
30
0
41
1
10
10.2848650122318
20
1.81897656507963
30
0
41
1
10
10.3078000835306
20
1.84030717840843
30
0
41
1
10
10.3287439779099
20
1.85933909499531
30
0
41
1
10
10.3489661673997
20
1.87731281212961
30
0
41
1
10
10.3683676698045
20
1.89419609224761
30
0
41
1
10
10.3858885372864
20
1.90913657320155
30
0
41
1
10
10.4016082094053
20
1.92230583326056
30
0
41
1
10
10.4156301342389
20
1.93387539116232
30
0
41
1
10
10.4288090871749
20
1.94459445242941
30
0
41
1
10
10.4410727054457
20
1.95443644676079
30
0
41
1
10
10.4524501625606
20
1.96345411623843
30
0
41
1
10
10.4628353710359
20
1.97159407023307
30
0
41
1
10
10.4721377555886
20
1.97881127962077
30
0
41
1
10
10.4802146977359
20
1.98501877533788
30
0
41
1
10
10.4870007917061
20
1.99019102574648
30
0
41
1
10
10.4921057065057
20
1.99405657732
30
0
41
1
10
10.4957514518444
20
1.99680852023755
30
0
41
1
10
10.4981933802506
20
1.99864599012411
30
0
41
1
10
10.4996696951644
20
1.99975301217985
30
0
41
1
10
10.4999950140555
20
1.99999698493388
30
0
41
1
10
10.5000038229291
20
2.00000172630055
30
0
0
SPLINE
5
B4
100
AcDbEntity
8
1
62
256
6
ByLayer
370
18
48
1
60
0
100
AcDbSpline
70
4
71
3
72
69
73
65
40
0
40
0
40
0
40
0
40
0.0133402231090491
40
0.0266935178264666
40
0.0400517970130527
40
0.0534062358827432
40
0.0667474195502344
40
0.0805168140790409
40
0.0942974591536676
40
0.108083256288306
40
0.121866511361662
40
0.135638096743423
40
0.150673765722928
40
0.16571665629944
40
0.180760658992505
40
0.195797845202501
40
0.210823724041288
40
0.225854744807323
40
0.240886475116595
40
0.255913321837119
40
0.271706808235621
40
0.287504804403248
40
0.303303262715828
40
0.319097379488581
40
0.339581073798667
40
0.360072888816625
40
0.380565159420471
40
0.401049475227816
40
0.421531179447436
40
0.44202056443003
40
0.462509831456891
40
0.482991374767295
40
0.500220743396897
40
0.517457692762903
40
0.534696795967232
40
0.55193301912332
40
0.569161778407706
40
0.585609108120816
40
0.602061431684145
40
0.61851341848921
40
0.63496028884536
40
0.651411542775565
40
0.667868617081508
40
0.684325262922043
40
0.700775932371749
40
0.717976458220858
40
0.735184805669811
40
0.752392563147264
40
0.769592284118914
40
0.786138149062949
40
0.802696639881219
40
0.819258605050298
40
0.835815665366397
40
0.852360329627186
40
0.866531070188632
40
0.880714028646533
40
0.894902730329323
40
0.909090961904866
40
0.923272835037041
40
0.937442851433367
40
0.953077893804676
40
0.968721542969892
40
0.98436509295242
40
1
40
1
40
1
40
1
41
1
10
10.500002885259
20
-2.00000127582937
30
0
41
1
10
10.4999939454444
20
-1.99999678058608
30
0
41
1
10
10.4995538718924
20
-1.99966750112597
30
0
41
1
10
10.497567798464
20
-1.9981806072982
30
0
41
1
10
10.4942986166425
20
-1.99571917744646
30
0
41
1
10
10.4897708510855
20
-1.99229284924852
30
0
41
1
10
10.4839458117499
20
-1.9878626838259
30
0
41
1
10
10.4768014700321
20
-1.98239848790784
30
0
41
1
10
10.4683641018052
20
-1.97589106850108
30
0
41
1
10
10.4587717584892
20
-1.9684209012512
30
0
41
1
10
10.4480934892434
20
-1.96001464078494
30
0
41
1
10
10.4360309787794
20
-1.95040737135575
30
0
41
1
10
10.422538668837
20
-1.93951804799339
30
0
41
1
10
10.4076005149175
20
-1.92727659040387
30
0
41
1
10
10.3916922103092
20
-1.91402628177073
30
0
41
1
10
10.3749040498839
20
-1.8997986341087
30
0
41
1
10
10.3573171556317
20
-1.88461651284498
30
0
41
1
10
10.339006123943
20
-1.86850236065718
30
0
41
1
10
10.3200402387703
20
-1.85147441545795
30
0
41
1
10
10.3001595780517
20
-1.83324846440927
30
0
41
1
10
10.2793999124918
20
-1.81378624020495
30
0
41
1
10
10.2577950726736
20
-1.7930486594355
30
0
41
1
10
10.2357538603634
20
-1.77137224284395
30
0
41
1
10
10.2111246627785
20
-1.74653574740638
30
0
41
1
10
10.1838511772286
20
-1.71820224863926
30
0
41
1
10
10.1539148898507
20
-1.68600601795532
30
0
41
1
10
10.1236808073049
20
-1.65230728336037
30
0
41
1
10
10.0932622461142
20
-1.61712543638031
30
0
41
1
10
10.0627607906245
20
-1.58046618928268
30
0
41
1
10
10.0322581111187
20
-1.5423330787676
30
0
41
1
10
10.0018439508954
20
-1.50273545939301
30
0
41
1
10
9.97320923333083
20
-1.46385587868301
30
0
41
1
10
9.94639185794828
20
-1.42595051387262
30
0
41
1
10
9.92138798845876
20
-1.38925395727227
30
0
41
1
10
9.89665796172732
20
-1.35152782390516
30
0
41
1
10
9.87225551616938
20
-1.31278600415377
30
0
41
1
10
9.84859251528758
20
-1.27363447859682
30
0
41
1
10
9.82569144360752
20
-1.23412378442
30
0
41
1
10
9.80356491836944
20
-1.19430622843486
30
0
41
1
10
9.78189788527244
20
-1.15357611200471
30
0
41
1
10
9.76073099162843
20
-1.11194072977603
30
0
41
1
10
9.7401039263814
20
-1.06940138570771
30
0
41
1
10
9.72005317009377
20
-1.02596575517489
30
0
41
1
10
9.70062260095928
20
-0.981655618571915
30
0
41
1
10
9.68157024305972
20
-0.935804128594184
30
0
41
1
10
9.66297440403316
20
-0.888371811940939
30
0
41
1
10
9.64491476502022
20
-0.839332510706508
30
0
41
1
10
9.62771281012794
20
-0.789419615114417
30
0
41
1
10
9.61162334811488
20
-0.73931234253041
30
0
41
1
10
9.59665241957492
20
-0.68906189640955
30
0
41
1
10
9.58278997731328
20
-0.638728097349942
30
0
41
1
10
9.56987674603119
20
-0.58770165732941
30
0
41
1
10
9.55795588398057
20
-0.53604816438185
30
0
41
1
10
9.54758605251966
20
-0.486311001309979
30
0
41
1
10
9.53863514484587
20
-0.438606045538909
30
0
41
1
10
9.53095276480209
20
-0.393031122341988
30
0
41
1
10
9.52407950135409
20
-0.347100104659675
30
0
41
1
10
9.51803363887261
20
-0.3008686481115
30
0
41
1
10
9.51283306589971
20
-0.254392527848227
30
0
41
1
10
9.50834544244872
20
-0.206100672378412
30
0
41
1
10
9.5046938107827
20
-0.155991570609188
30
0
41
1
10
9.50199182767064
20
-0.10408800086043
30
0
41
1
10
9.50036342876673
20
-0.0520647896756276
30
0
41
1
10
9.50000107905542
20
-0.0173591399059662
30
0
41
1
10
9.5
20
-9E-16
30
0
0
SPLINE
5
B5
100
AcDbEntity
8
1
62
256
6
ByLayer
370
18
48
1
60
0
100
AcDbSpline
70
4
71
3
72
43
73
39
40
0
40
0
40
0
40
0
40
0.0272353361593357
40
0.0544912237694557
40
0.0817534452328027
40
0.109008275452318
40
0.136242724101478
40
0.164211429869408
40
0.19220460538497
40
0.220205055948336
40
0.248196452989548
40
0.276163665836396
40
0.303420237795595
40
0.330701880506853
40
0.357991105222571
40
0.38527117108708
40
0.412526419319307
40
0.440680674466687
40
0.468864373999924
40
0.497057584466456
40
0.525240575501154
40
0.553394235803696
40
0.57897080968861
40
0.604569211733104
40
0.630175307323899
40
0.65577442297196
40
0.681351595875219
40
0.70767016195048
40
0.734010410526313
40
0.760358944457267
40
0.786701119883778
40
0.813021303368204
40
0.844148489351953
40
0.875313573589023
40
0.906501155827675
40
0.937692653429561
40
0.96886677889903
40
1
40
1
40
1
40
1
41
1
10
4.74833147735478
20
2
30
0
41
1
10
4.76158548607564
20
2.00000480039514
30
0
41
1
10
4.78785540956435
20
1.99991068568445
30
0
41
1
10
4.82653998693345
20
1.99947832141544
30
0
41
1
10
4.86445570864672
20
1.9986939248213
30
0
41
1
10
4.90154916899442
20
1.99751803891902
30
0
41
1
10
4.93810261180309
20
1.99589098506462
30
0
41
1
10
4.97405774016487
20
1.99374944757204
30
0
41
1
10
5.00936247023612
20
1.99102798104258
30
0
41
1
10
5.04365917218188
20
1.98769791176439
30
0
41
1
10
5.07688856778854
20
1.98371178245349
30
0
41
1
10
5.10873452664021
20
1.97906076618975
30
0
41
1
10
5.13919587773364
20
1.97371151361725
30
0
41
1
10
5.16829315849044
20
1.96764596431213
30
0
41
1
10
5.19625869057475
20
1.96078173629926
30
0
41
1
10
5.22304598487926
20
1.95308414224273
30
0
41
1
10
5.24890252261021
20
1.94442153063701
30
0
41
1
10
5.27375419301113
20
1.93470970491009
30
0
41
1
10
5.29755173509457
20
1.92388513112621
30
0
41
1
10
5.32001287869936
20
1.91203093289436
30
0
41
1
10
5.34110740947688
20
1.89913046456742
30
0
41
1
10
5.36021454521113
20
1.88558535032693
30
0
41
1
10
5.37746705669156
20
1.87147734054199
30
0
41
1
10
5.39302575454212
20
1.85691263011158
30
0
41
1
10
5.40745714166274
20
1.84143359296445
30
0
41
1
10
5.42076058329361
20
1.82504722052306
30
0
41
1
10
5.43305821322251
20
1.80758507595296
30
0
41
1
10
5.44432125225829
20
1.78900377306541
30
0
41
1
10
5.45454611966909
20
1.76928281361822
30
0
41
1
10
5.46365190348914
20
1.74861469662728
30
0
41
1
10
5.47165994667221
20
1.72702349129532
30
0
41
1
10
5.47901717680615
20
1.70315436658038
30
0
41
1
10
5.48551416680215
20
1.67679363768067
30
0
41
1
10
5.49097057139212
20
1.64775391608381
30
0
41
1
10
5.49510129656352
20
1.6175063402719
30
0
41
1
10
5.49797158221344
20
1.58610665142103
30
0
41
1
10
5.49963886313708
20
1.55360764436337
30
0
41
1
10
5.50000656690034
20
1.53123103548797
30
0
41
1
10
5.5
20
1.51986841535706
30
0
0
SPLINE
5
B6
100
AcDbEntity
8
1
62
256
6
ByLayer
370
18
48
1
60
0
100
AcDbSpline
70
4
71
3
72
45
73
41
40
0
40
0
40
0
40
0
40
0.0271427779239126
40
0.0543046461519786
40
0.0814714960849037
40
0.108630669777435
40
0.135771186196804
40
0.16361551715819
40
0.191484646027889
40
0.219360655488158
40
0.24722705289062
40
0.275069090921696
40
0.302245874362683
40
0.329448533681832
40
0.356659159016453
40
0.383860462662944
40
0.411036108010093
40
0.439131553351537
40
0.46725636024622
40
0.495391167567821
40
0.523516249048147
40
0.551611924928085
40
0.576874685878855
40
0.6021577431545
40
0.627448148848805
40
0.652732238498811
40
0.677995866010424
40
0.703945143830724
40
0.729914509745722
40
0.755891343236251
40
0.781862097314297
40
0.807812540306658
40
0.831677481798504
40
0.855552103124023
40
0.879427018032576
40
0.903292360026408
40
0.927464408609541
40
0.951645929083224
40
0.975827661834482
40
1
40
1
40
1
40
1
41
1
10
2.5
20
1.51986841535697
30
0
41
1
10
2.49999530979419
20
1.52977440699868
30
0
41
1
10
2.50027218626811
20
1.54931909370455
30
0
41
1
10
2.50152680765565
20
1.57782769791944
30
0
41
1
10
2.50368148919083
20
1.60549912930573
30
0
41
1
10
2.50677607188379
20
1.63229807285428
30
0
41
1
10
2.51089161243575
20
1.65841999673677
30
0
41
1
10
2.51611168143363
20
1.68381473513629
30
0
41
1
10
2.52250658370915
20
1.70844565752273
30
0
41
1
10
2.53006672201428
20
1.73207748695966
30
0
41
1
10
2.53882546189662
20
1.75467629228965
30
0
41
1
10
2.54873994450341
20
1.77604668661882
30
0
41
1
10
2.55982195669157
20
1.79620002898657
30
0
41
1
10
2.5720537009814
20
1.81517465103045
30
0
41
1
10
2.5855369441406
20
1.83312988392222
30
0
41
1
10
2.60027888279442
20
1.85005095162555
30
0
41
1
10
2.61647447843923
20
1.86611008923984
30
0
41
1
10
2.63420451370443
20
1.88126449389719
30
0
41
1
10
2.65351541841315
20
1.89550162961939
30
0
41
1
10
2.67419851069365
20
1.90867273881248
30
0
41
1
10
2.69623078068932
20
1.92078774926975
30
0
41
1
10
2.7188184218604
20
1.93148971359523
30
0
41
1
10
2.74180988709112
20
1.94091638177768
30
0
41
1
10
2.76504150611822
20
1.9492167575516
30
0
41
1
10
2.78931805304954
20
1.95675683983701
30
0
41
1
10
2.81460593661287
20
1.96356053884928
30
0
41
1
10
2.84112174995734
20
1.96970873425847
30
0
41
1
10
2.86888926525851
20
1.97520881695727
30
0
41
1
10
2.89791374784104
20
1.98008230737641
30
0
41
1
10
2.92791477993226
20
1.98431782138895
30
0
41
1
10
2.95884666454339
20
1.98795133247236
30
0
41
1
10
2.98982663697757
20
1.99093722885467
30
0
41
1
10
3.02075180606047
20
1.99336237830252
30
0
41
1
10
3.05152295865308
20
1.9953073693089
30
0
41
1
10
3.08298584294098
20
1.99687106333194
30
0
41
1
10
3.11524907833502
20
1.99808912800949
30
0
41
1
10
3.14830348161715
20
1.99898717898836
30
0
41
1
10
3.18213340962056
20
1.99959292037494
30
0
41
1
10
3.21656960632565
20
1.99992982403742
30
0
41
1
10
3.2399057438809
20
2.00000334266959
30
0
41
1
10
3.2516685226452
20
2
30
0
0
SPLINE
5
B7
100
AcDbEntity
8
1
62
256
6
ByLayer
370
18
48
1
60
0
100
AcDbSpline
70
4
71
3
72
45
73
41
40
0
40
0
40
0
40
0
40
0.0271427779239138
40
0.0543046461519807
40
0.0814714960849069
40
0.10863066977744
40
0.135771186196809
40
0.163615517158196
40
0.191484646027896
40
0.219360655488166
40
0.247227052890628
40
0.275069090921704
40
0.302245874362693
40
0.329448533681842
40
0.356659159016466
40
0.383860462662958
40
0.411036108010109
40
0.439131553351557
40
0.467256360246238
40
0.495391167567843
40
0.52351624904817
40
0.55161192492811
40
0.576874685878884
40
0.602157743154526
40
0.627448148848831
40
0.652732238498838
40
0.67799586601045
40
0.703945143830755
40
0.729914509745751
40
0.755891343236282
40
0.781862097314328
40
0.807812540306686
40
0.831677481798529
40
0.855552103124046
40
0.879427018032594
40
0.903292360026423
40
0.927464408609553
40
0.951645929083233
40
0.975827661834488
40
1
40
1
40
1
40
1
41
1
10
5.5
20
-1.51986841535706
30
0
41
1
10
5.50000469020581
20
-1.52977440699877
30
0
41
1
10
5.49972781373188
20
-1.54931909370464
30
0
41
1
10
5.49847319234435
20
-1.57782769791953
30
0
41
1
10
5.49631851080916
20
-1.60549912930582
30
0
41
1
10
5.4932239281162
20
-1.63229807285436
30
0
41
1
10
5.48910838756424
20
-1.65841999673685
30
0
41
1
10
5.48388831856635
20
-1.68381473513636
30
0
41
1
10
5.47749341629084
20
-1.7084456575228
30
0
41
1
10
5.4699332779857
20
-1.73207748695973
30
0
41
1
10
5.46117453810338
20
-1.75467629228972
30
0
41
1
10
5.45126005549658
20
-1.77604668661888
30
0
41
1
10
5.4401780433084
20
-1.79620002898663
30
0
41
1
10
5.4279462990186
20
-1.81517465103051
30
0
41
1
10
5.41446305585936
20
-1.83312988392227
30
0
41
1
10
5.39972111720554
20
-1.85005095162559
30
0
41
1
10
5.38352552156073
20
-1.86611008923988
30
0
41
1
10
5.36579548629551
20
-1.88126449389722
30
0
41
1
10
5.34648458158681
20
-1.89550162961942
30
0
41
1
10
5.32580148930629
20
-1.90867273881251
30
0
41
1
10
5.30376921931061
20
-1.92078774926977
30
0
41
1
10
5.28118157813954
20
-1.93148971359525
30
0
41
1
10
5.25819011290878
20
-1.9409163817777
30
0
41
1
10
5.23495849388171
20
-1.94921675755162
30
0
41
1
10
5.21068194695039
20
-1.95675683983703
30
0
41
1
10
5.18539406338706
20
-1.9635605388493
30
0
41
1
10
5.1588782500426
20
-1.96970873425848
30
0
41
1
10
5.13111073474142
20
-1.97520881695728
30
0
41
1
10
5.10208625215889
20
-1.98008230737643
30
0
41
1
10
5.07208522006768
20
-1.98431782138896
30
0
41
1
10
5.04115333545655
20
-1.98795133247237
30
0
41
1
10
5.01017336302236
20
-1.99093722885468
30
0
41
1
10
4.97924819393947
20
-1.99336237830253
30
0
41
1
10
4.94847704134687
20
-1.99530736930891
30
0
41
1
10
4.91701415705896
20
-1.99687106333194
30
0
41
1
10
4.88475092166494
20
-1.99808912800949
30
0
41
1
10
4.85169651838281
20
-1.99898717898836
30
0
41
1
10
4.81786659037941
20
-1.99959292037494
30
0
41
1
10
4.78343039367431
20
-1.99992982403742
30
0
41
1
10
4.7600942561191
20
-2.00000334266958
30
0
41
1
10
4.74833147735478
20
-2
30
0
0
SPLINE
5
B8
100
AcDbEntity
8
1
62
256
6
ByLayer
370
18
48
1
60
0
100
AcDbSpline
70
4
71
3
72
39
73
35
40
0
40
0
40
0
40
0
40
0.0317791602522526
40
0.0635849309412225
40
0.0953999399014932
40
0.127206307148129
40
0.158985968158774
40
0.191689418746948
40
0.224421548070918
40
0.257163257913892
40
0.289895328317167
40
0.322598729444652
40
0.354376762428177
40
0.386181296946094
40
0.417994635453694
40
0.449799037110486
40
0.481576958569205
40
0.514283260552938
40
0.547018474259911
40
0.579763426376579
40
0.612498745243534
40
0.645205135503942
40
0.674163125247777
40
0.703134412294498
40
0.732105734794817
40
0.761063772906656
40
0.790021615944202
40
0.81899272746271
40
0.847963810263121
40
0.876921614121679
40
0.907683270933166
40
0.938461064689149
40
0.969238640518066
40
1
40
1
40
1
40
1
41
1
10
4.74833147735478
20
-2
30
0
41
1
10
4.73393844860818
20
-1.9999945621975
30
0
41
1
10
4.70488433457083
20
-1.99990085207194
30
0
41
1
10
4.66049992248671
20
-1.99948906662988
30
0
41
1
10
4.61538255149943
20
-1.99887338797959
30
0
41
1
10
4.56960129487593
20
-1.99809702771726
30
0
41
1
10
4.52276142964135
20
-1.99720011051975
30
0
41
1
10
4.47487162528821
20
-1.9962290634376
30
0
41
1
10
4.42595412985751
20
-1.99521923322694
30
0
41
1
10
4.37652607036973
20
-1.99421522265255
30
0
41
1
10
4.32667302774371
20
-1.99325359200307
30
0
41
1
10
4.27692969582357
20
-1.99237839567612
30
0
41
1
10
4.22734518661831
20
-1.99162244639042
30
0
41
1
10
4.17796682396025
20
-1.99099519558231
30
0
41
1
10
4.12837758647335
20
-1.99050231206957
30
0
41
1
10
4.07865957331791
20
-1.99015734799574
30
0
41
1
10
4.02838745999039
20
-1.98997175938838
30
0
41
1
10
3.97759562648192
20
-1.98996580496002
30
0
41
1
10
3.92632546588217
20
-1.99013598742097
30
0
41
1
10
3.87512695359987
20
-1.99047272667266
30
0
41
1
10
3.82409017078985
20
-1.99096623505258
30
0
41
1
10
3.7752205895592
20
-1.99158368071227
30
0
41
1
10
3.72853377119675
20
-1.99229520338592
30
0
41
1
10
3.68402035467259
20
-1.9930608983714
30
0
41
1
10
3.63979682930672
20
-1.99389078654353
30
0
41
1
10
3.59591026997964
20
-1.99476460475577
30
0
41
1
10
3.55239525305447
20
-1.99566216529314
30
0
41
1
10
3.50928310508876
20
-1.99655356817356
30
0
41
1
10
3.46661864323387
20
-1.99740921422721
30
0
41
1
10
3.42357193101537
20
-1.99821574711732
30
0
41
1
10
3.38021381438646
20
-1.99893643122177
30
0
41
1
10
3.33662307545483
20
-1.99951809587166
30
0
41
1
10
3.29371063419881
20
-1.99990657653841
30
0
41
1
10
3.26560001481695
20
-1.99999495833311
30
0
41
1
10
3.2516685226452
20
-2
30
0
0
SPLINE
5
B9
100
AcDbEntity
8
1
62
256
6
ByLayer
370
18
48
1
60
0
100
AcDbSpline
70
4
71
3
72
43
73
39
40
0
40
0
40
0
40
0
40
0.0272353361593388
40
0.0544912237694526
40
0.0817534452328006
40
0.109008275452313
40
0.136242724101472
40
0.164211429869405
40
0.192204605384963
40
0.220205055948329
40
0.248196452989538
40
0.276163665836385
40
0.303420237795586
40
0.330701880506843
40
0.357991105222561
40
0.385271171087072
40
0.412526419319298
40
0.440680674466682
40
0.468864373999915
40
0.497057584466448
40
0.525240575501149
40
0.553394235803691
40
0.578970809688606
40
0.604569211733098
40
0.630175307323894
40
0.655774422971955
40
0.681351595875214
40
0.707670161950476
40
0.734010410526308
40
0.760358944457263
40
0.786701119883773
40
0.8130213033682
40
0.844148489351949
40
0.875313573589021
40
0.906501155827673
40
0.937692653429559
40
0.968866778899029
40
1
40
1
40
1
40
1
41
1
10
3.2516685226452
20
-2
30
0
41
1
10
3.23841451392433
20
-2.00000480039514
30
0
41
1
10
3.21214459043563
20
-1.99991068568445
30
0
41
1
10
3.17346001306653
20
-1.99947832141544
30
0
41
1
10
3.13554429135327
20
-1.99869392482129
30
0
41
1
10
3.09845083100557
20
-1.99751803891902
30
0
41
1
10
3.06189738819691
20
-1.99589098506462
30
0
41
1
10
3.02594225983512
20
-1.99374944757204
30
0
41
1
10
2.99063752976387
20
-1.99102798104258
30
0
41
1
10
2.95634082781812
20
-1.98769791176439
30
0
41
1
10
2.92311143221146
20
-1.98371178245349
30
0
41
1
10
2.8912654733598
20
-1.97906076618975
30
0
41
1
10
2.86080412226636
20
-1.97371151361725
30
0
41
1
10
2.83170684150957
20
-1.96764596431213
30
0
41
1
10
2.80374130942526
20
-1.96078173629926
30
0
41
1
10
2.77695401512073
20
-1.95308414224273
30
0
41
1
10
2.7510974773898
20
-1.94442153063701
30
0
41
1
10
2.72624580698886
20
-1.93470970491009
30
0
41
1
10
2.70244826490544
20
-1.92388513112621
30
0
41
1
10
2.67998712130065
20
-1.91203093289436
30
0
41
1
10
2.65889259052311
20
-1.89913046456742
30
0
41
1
10
2.63978545478887
20
-1.88558535032693
30
0
41
1
10
2.62253294330844
20
-1.87147734054199
30
0
41
1
10
2.60697424545788
20
-1.85691263011158
30
0
41
1
10
2.59254285833726
20
-1.84143359296445
30
0
41
1
10
2.57923941670639
20
-1.82504722052306
30
0
41
1
10
2.5669417867775
20
-1.80758507595296
30
0
41
1
10
2.55567874774169
20
-1.78900377306541
30
0
41
1
10
2.54545388033092
20
-1.76928281361822
30
0
41
1
10
2.53634809651086
20
-1.74861469662728
30
0
41
1
10
2.5283400533278
20
-1.72702349129532
30
0
41
1
10
2.52098282319386
20
-1.70315436658038
30
0
41
1
10
2.51448583319786
20
-1.67679363768067
30
0
41
1
10
2.50902942860787
20
-1.64775391608381
30
0
41
1
10
2.50489870343649
20
-1.6175063402719
30
0
41
1
10
2.50202841778657
20
-1.58610665142103
30
0
41
1
10
2.50036113686292
20
-1.55360764436337
30
0
41
1
10
2.49999343309965
20
-1.53123103548797
30
0
41
1
10
2.5
20
-1.51986841535706
30
0
0
SPLINE
5
BA
100
AcDbEntity
8
1
62
256
6
ByLayer
370
18
48
1
60
0
100
AcDbSpline
70
4
71
3
72
72
73
68
40
0
40
0
40
0
40
0
40
0.0148290495385932
40
0.0296653379073043
40
0.0445022619305122
40
0.059332178687043
40
0.0741553643792189
40
0.0889845460005641
40
0.10381418587707
40
0.118637996711891
40
0.134312898607561
40
0.149993897189094
40
0.165675220802949
40
0.18135056609523
40
0.196167859455197
40
0.210989895284843
40
0.225811998826671
40
0.240629384550907
40
0.255446732309885
40
0.270268829745364
40
0.285090828518748
40
0.299908041695216
40
0.315356755431889
40
0.330811240933077
40
0.346265466212705
40
0.361713824968133
40
0.377786277466897
40
0.393865936378066
40
0.409945256231198
40
0.426017246169011
40
0.442092668669524
40
0.458175923712022
40
0.474258999606093
40
0.490334177693773
40
0.507441490984442
40
0.524558407541408
40
0.541675463519992
40
0.558782967037494
40
0.573158934785505
40
0.587540287014109
40
0.601921839937645
40
0.616298081462371
40
0.630671807310384
40
0.645050447154931
40
0.659429304227499
40
0.673803326395996
40
0.688849194250438
40
0.703900213332326
40
0.718951401374662
40
0.733997499708127
40
0.749281331791394
40
0.764570325585287
40
0.779859324277652
40
0.795143163042908
40
0.810427858712146
40
0.825717895647152
40
0.841007726893911
40
0.856292141980471
40
0.872283357156164
40
0.888281460348903
40
0.904279042754292
40
0.920269547455303
40
0.936208029409369
40
0.952159533069061
40
0.96811421111858
40
0.984063433183254
40
1
40
1
40
1
40
1
41
1
10
2.5
20
-1.51986841535706
30
0
41
1
10
2.50000782846675
20
-1.50870229654039
30
0
41
1
10
2.50033786532353
20
-1.48604215068327
30
0
41
1
10
2.50180870669211
20
-1.45106374824438
30
0
41
1
10
2.50415871153886
20
-1.41515115355161
30
0
41
1
10
2.50732710204292
20
-1.37834352080997
30
0
41
1
10
2.51124517814877
20
-1.34066704877858
30
0
41
1
10
2.51584455461978
20
-1.30215059463506
30
0
41
1
10
2.52105834343881
20
-1.262823939697
30
0
41
1
10
2.52693004783922
20
-1.22195286329474
30
0
41
1
10
2.53342788177432
20
-1.17950570446851
30
0
41
1
10
2.54050952177615
20
-1.13545768332856
30
0
41
1
10
2.5479791117538
20
-1.09062635364874
30
0
41
1
10
2.55561905512846
20
-1.04587660147994
30
0
41
1
10
2.56334063208024
20
-1.00127590633086
30
0
41
1
10
2.57106933946766
20
-0.95688638260747
30
0
41
1
10
2.5788902802812
20
-0.911890094583199
30
0
41
1
10
2.58674254315658
20
-0.866312998889345
30
0
41
1
10
2.5945662889277
20
-0.820170517203505
30
0
41
1
10
2.60230537170799
20
-0.77348049466829
30
0
41
1
10
2.6099024100212
20
-0.726270098737798
30
0
41
1
10
2.61740514536983
20
-0.677889224028648
30
0
41
1
10
2.62474329256321
20
-0.628329527088843
30
0
41
1
10
2.63184706258138
20
-0.577591511042719
30
0
41
1
10
2.63855761101282
20
-0.526396212755185
30
0
41
1
10
2.64490153089421
20
-0.474086342661141
30
0
41
1
10
2.65079522393474
20
-0.420666345343697
30
0
41
1
10
2.65616616710536
20
-0.366153822215191
30
0
41
1
10
2.66088922312392
20
-0.311301188751409
30
0
41
1
10
2.6649159075331
20
-0.256157970964998
30
0
41
1
10
2.6681951877528
20
-0.200761821309549
30
0
41
1
10
2.67070647902455
20
-0.145157215550788
30
0
41
1
10
2.67242881969904
20
-0.0894101115735851
30
0
41
1
10
2.67336004733003
20
-0.0323888415919621
30
0
41
1
10
2.67341204807076
20
0.0258658638924763
30
0
41
1
10
2.67253566299768
20
0.08529751817609
30
0
41
1
10
2.67074647090406
20
0.144633689660493
30
0
41
1
10
2.6682012320367
20
0.200649853572404
30
0
41
1
10
2.66507333075363
20
0.253325295453235
30
0
41
1
10
2.66154186128185
20
0.302674873975597
30
0
41
1
10
2.65745000258385
20
0.351794781272487
30
0
41
1
10
2.65282769173165
20
0.40064256605185
30
0
41
1
10
2.64770400930152
20
0.449190650027572
30
0
41
1
10
2.64212293650494
20
0.497416738703287
30
0
41
1
10
2.63612711340628
20
0.545290550792216
30
0
41
1
10
2.62965998768406
20
0.593519548648066
30
0
41
1
10
2.62274484076521
20
0.642060767780133
30
0
41
1
10
2.61542104193112
20
0.690870890985387
30
0
41
1
10
2.60785090948901
20
0.739185934327007
30
0
41
1
10
2.60005122681816
20
0.787227288112107
30
0
41
1
10
2.59207591249297
20
0.834965525338825
30
0
41
1
10
2.58398720863093
20
0.882373096725564
30
0
41
1
10
2.57589210561982
20
0.929172671585051
30
0
41
1
10
2.56785598672881
20
0.975336212822684
30
0
41
1
10
2.55994315068053
20
1.02084415243892
30
0
41
1
10
2.55222077689088
20
1.06567868654503
30
0
41
1
10
2.54475782960568
20
1.10980942781053
30
0
41
1
10
2.53751351368441
20
1.15387435670222
30
0
41
1
10
2.53057788883753
20
1.19781035014219
30
0
41
1
10
2.52405330507911
20
1.24154976342225
30
0
41
1
10
2.51812612140825
20
1.28439666358509
30
0
41
1
10
2.5128849139589
20
1.32626442610316
30
0
41
1
10
2.50841182201229
20
1.36712523620919
30
0
41
1
10
2.50478523599925
20
1.406957084679
30
0
41
1
10
2.50208587961939
20
1.44576223550864
30
0
41
1
10
2.50039050823669
20
1.48348393682067
30
0
41
1
10
2.5000098372349
20
1.50786728098679
30
0
41
1
10
2.5
20
1.51986841535697
30
0
0
SPLINE
5
BB
100
AcDbEntity
8
1
62
256
6
ByLayer
370
18
48
1
60
0
100
AcDbSpline
70
4
71
3
72
72
73
68
40
0
40
0
40
0
40
0
40
0.0148290495385926
40
0.029665337907303
40
0.0445022619305103
40
0.0593321786870405
40
0.0741553643792156
40
0.0889845460005602
40
0.103814185877066
40
0.118637996711886
40
0.134312898607555
40
0.149993897189087
40
0.165675220802941
40
0.181350566095221
40
0.196167859455188
40
0.210989895284833
40
0.225811998826661
40
0.240629384550896
40
0.255446732309873
40
0.270268829745352
40
0.285090828518736
40
0.299908041695203
40
0.315356755431876
40
0.330811240933063
40
0.34626546621269
40
0.361713824968118
40
0.377786277466881
40
0.393865936378049
40
0.409945256231181
40
0.426017246168993
40
0.442092668669506
40
0.458175923712003
40
0.474258999606073
40
0.490334177693752
40
0.507441490984421
40
0.524558407541385
40
0.541675463519969
40
0.55878296703747
40
0.573158934785481
40
0.587540287014084
40
0.601921839937619
40
0.616298081462345
40
0.630671807310358
40
0.645050447154903
40
0.659429304227471
40
0.673803326395968
40
0.688849194250409
40
0.703900213332296
40
0.718951401374632
40
0.733997499708097
40
0.749281331791363
40
0.764570325585255
40
0.779859324277619
40
0.795143163042875
40
0.810427858712112
40
0.825717895647117
40
0.841007726893875
40
0.856292141980434
40
0.872283357156126
40
0.888281460348864
40
0.904279042754252
40
0.920269547455262
40
0.936208029409336
40
0.952159533069037
40
0.968114211118564
40
0.984063433183246
40
1
40
1
40
1
40
1
41
1
10
5.5
20
1.51986841535706
30
0
41
1
10
5.49999217153325
20
1.50870229654039
30
0
41
1
10
5.49966213467647
20
1.48604215068327
30
0
41
1
10
5.4981912933079
20
1.45106374824438
30
0
41
1
10
5.49584128846115
20
1.41515115355161
30
0
41
1
10
5.49267289795708
20
1.37834352080996
30
0
41
1
10
5.48875482185123
20
1.34066704877858
30
0
41
1
10
5.48415544538023
20
1.30215059463506
30
0
41
1
10
5.47894165656119
20
1.262823939697
30
0
41
1
10
5.47306995216078
20
1.22195286329474
30
0
41
1
10
5.4665721182257
20
1.17950570446851
30
0
41
1
10
5.45949047822387
20
1.13545768332856
30
0
41
1
10
5.45202088824622
20
1.09062635364874
30
0
41
1
10
5.44438094487158
20
1.04587660147994
30
0
41
1
10
5.43665936791978
20
1.00127590633086
30
0
41
1
10
5.42893066053236
20
0.95688638260747
30
0
41
1
10
5.42110971971881
20
0.911890094583202
30
0
41
1
10
5.41325745684341
20
0.866312998889347
30
0
41
1
10
5.40543371107232
20
0.820170517203506
30
0
41
1
10
5.39769462829201
20
0.773480494668291
30
0
41
1
10
5.3900975899788
20
0.726270098737799
30
0
41
1
10
5.38259485463017
20
0.677889224028649
30
0
41
1
10
5.37525670743679
20
0.628329527088844
30
0
41
1
10
5.36815293741861
20
0.577591511042719
30
0
41
1
10
5.36144238898717
20
0.526396212755186
30
0
41
1
10
5.35509846910578
20
0.474086342661143
30
0
41
1
10
5.34920477606524
20
0.420666345343697
30
0
41
1
10
5.34383383289464
20
0.366153822215191
30
0
41
1
10
5.33911077687608
20
0.311301188751409
30
0
41
1
10
5.33508409246691
20
0.256157970964997
30
0
41
1
10
5.33180481224718
20
0.200761821309549
30
0
41
1
10
5.32929352097545
20
0.145157215550787
30
0
41
1
10
5.32757118030097
20
0.089410111573585
30
0
41
1
10
5.32663995266998
20
0.0323888415919618
30
0
41
1
10
5.32658795192924
20
-0.0258658638924761
30
0
41
1
10
5.32746433700231
20
-0.08529751817609
30
0
41
1
10
5.32925352909592
20
-0.144633689660492
30
0
41
1
10
5.3317987679633
20
-0.200649853572404
30
0
41
1
10
5.33492666924638
20
-0.253325295453234
30
0
41
1
10
5.33845813871813
20
-0.302674873975597
30
0
41
1
10
5.34254999741615
20
-0.351794781272486
30
0
41
1
10
5.34717230826834
20
-0.40064256605185
30
0
41
1
10
5.35229599069849
20
-0.449190650027571
30
0
41
1
10
5.35787706349505
20
-0.497416738703287
30
0
41
1
10
5.36387288659373
20
-0.545290550792215
30
0
41
1
10
5.37034001231594
20
-0.593519548648066
30
0
41
1
10
5.37725515923479
20
-0.642060767780133
30
0
41
1
10
5.3845789580689
20
-0.690870890985386
30
0
41
1
10
5.39214909051101
20
-0.739185934327006
30
0
41
1
10
5.39994877318187
20
-0.787227288112104
30
0
41
1
10
5.40792408750706
20
-0.834965525338824
30
0
41
1
10
5.41601279136908
20
-0.882373096725564
30
0
41
1
10
5.42410789438019
20
-0.929172671585051
30
0
41
1
10
5.43214401327119
20
-0.975336212822684
30
0
41
1
10
5.44005684931947
20
-1.02084415243892
30
0
41
1
10
5.44777922310912
20
-1.06567868654503
30
0
41
1
10
5.45524217039432
20
-1.10980942781053
30
0
41
1
10
5.46248648631559
20
-1.15387435670222
30
0
41
1
10
5.46942211116247
20
-1.19781035014219
30
0
41
1
10
5.47594669492088
20
-1.24154976342224
30
0
41
1
10
5.48187387859174
20
-1.28439666358508
30
0
41
1
10
5.48711508604109
20
-1.32626442610317
30
0
41
1
10
5.49158817798769
20
-1.36712523620921
30
0
41
1
10
5.49521476400075
20
-1.40695708467904
30
0
41
1
10
5.4979141203806
20
-1.4457622355087
30
0
41
1
10
5.49960949176331
20
-1.48348393682076
30
0
41
1
10
5.49999016276512
20
-1.50786728098687
30
0
41
1
10
5.5
20
-1.51986841535706
30
0
0
SPLINE
5
BC
100
AcDbEntity
8
1
62
256
6
ByLayer
370
18
48
1
60
0
100
AcDbSpline
70
4
71
3
72
68
73
64
40
0
40
0
40
0
40
0
40
0.0141597096081351
40
0.0283258448597304
40
0.0424920407379202
40
0.0566518330561363
40
0.0708104134099807
40
0.0849751832839251
40
0.0991401216645825
40
0.11329893190026
40
0.12830059958765
40
0.143309088908954
40
0.158317885791603
40
0.173319973069972
40
0.190338121385312
40
0.207369013200961
40
0.224405034252022
40
0.241437560334989
40
0.258457080363062
40
0.275892270334047
40
0.293338663123194
40
0.310789672664619
40
0.328237707962413
40
0.345674276416846
40
0.364738302004712
40
0.38381057885912
40
0.402883501176026
40
0.421948407315546
40
0.441006646655145
40
0.460071911474798
40
0.47913760490041
40
0.498196428915735
40
0.518248302289903
40
0.538307520967459
40
0.558366943459143
40
0.578419094862961
40
0.597780245724931
40
0.61714795036907
40
0.636515443189617
40
0.655876305102881
40
0.675242190636479
40
0.694615629507689
40
0.713988224507575
40
0.733352958849581
40
0.749638633068319
40
0.765934137669847
40
0.782231494829982
40
0.798524239746294
40
0.814807598024643
40
0.828534160992228
40
0.842269631336272
40
0.856006857487549
40
0.869739983711006
40
0.883464579393075
40
0.897536562291255
40
0.911622108779556
40
0.925710799866891
40
0.939793673475337
40
0.953863412476539
40
0.965394776295879
40
0.976931899427312
40
0.988468859138426
40
1
40
1
40
1
40
1
41
1
10
14.5
20
0
30
0
41
1
10
14.4999992725892
20
-0.0157200818616973
30
0
41
1
10
14.4997022318397
20
-0.0471508675286604
30
0
41
1
10
14.4983669640589
20
-0.0942708552756953
30
0
41
1
10
14.4961497545201
20
-0.141301917870146
30
0
41
1
10
14.4930543260726
20
-0.188197968729093
30
0
41
1
10
14.4890832288094
20
-0.234922129642861
30
0
41
1
10
14.4842510578288
20
-0.28144234930041
30
0
41
1
10
14.4785716837549
20
-0.327714519485248
30
0
41
1
10
14.4719290701852
20
-0.374606014821949
30
0
41
1
10
14.464274873326
20
-0.422063551647176
30
0
41
1
10
14.4555741618522
20
-0.470030791929788
30
0
41
1
10
14.4459978066187
20
-0.517557151896621
30
0
41
1
10
14.435103158643
20
-0.566705446875039
30
0
41
1
10
14.4227703780317
20
-0.617368395669204
30
0
41
1
10
14.4088983684802
20
-0.66942563103465
30
0
41
1
10
14.3940387654535
20
-0.720752314343974
30
0
41
1
10
14.3782408111293
20
-0.771285373294659
30
0
41
1
10
14.3614098357327
20
-0.821388585347828
30
0
41
1
10
14.3435547964432
20
-0.871018044141798
30
0
41
1
10
14.3246987977254
20
-0.920142549734488
30
0
41
1
10
14.3050351030812
20
-0.968338491145628
30
0
41
1
10
14.2846203964235
20
-1.01556438874341
30
0
41
1
10
14.2628455132858
20
-1.06323421822645
30
0
41
1
10
14.2396767548726
20
-1.11122936465455
30
0
41
1
10
14.2150999824922
20
-1.15943190792479
30
0
41
1
10
14.1898599299563
20
-1.20641673859616
30
0
41
1
10
14.1640246233517
20
-1.25216051560785
30
0
41
1
10
14.1376504706361
20
-1.296658431667
30
0
41
1
10
14.1107991484903
20
-1.33991323312865
30
0
41
1
10
14.083534072892
20
-1.38191982026569
30
0
41
1
10
14.0554413012175
20
-1.4233761121594
30
0
41
1
10
14.0265593372249
20
-1.46420502276219
30
0
41
1
10
13.9969461550382
20
-1.5043292006835
30
0
41
1
10
13.9671693116692
20
-1.54305439980639
30
0
41
1
10
13.9376540479286
20
-1.57994260494915
30
0
41
1
10
13.9084750441957
20
-1.6150476557772
30
0
41
1
10
13.8797125732866
20
-1.64842317433568
30
0
41
1
10
13.8511117611058
20
-1.68046928628994
30
0
41
1
10
13.822758922491
20
-1.71117484481092
30
0
41
1
10
13.7947358491084
20
-1.74053058840606
30
0
41
1
10
13.7671468407077
20
-1.76852293623318
30
0
41
1
10
13.7401087379593
20
-1.79512527706721
30
0
41
1
10
13.7151349877682
20
-1.81897656507964
30
0
41
1
10
13.6921999164694
20
-1.84030717840843
30
0
41
1
10
13.6712560220901
20
-1.85933909499531
30
0
41
1
10
13.6510338326003
20
-1.87731281212961
30
0
41
1
10
13.6316323301955
20
-1.89419609224761
30
0
41
1
10
13.6141114627136
20
-1.90913657320155
30
0
41
1
10
13.5983917905947
20
-1.92230583326055
30
0
41
1
10
13.5843698657612
20
-1.9338753911623
30
0
41
1
10
13.5711909128251
20
-1.94459445242938
30
0
41
1
10
13.5589272945543
20
-1.95443644676076
30
0
41
1
10
13.5475498374394
20
-1.96345411623839
30
0
41
1
10
13.5371646289642
20
-1.97159407023302
30
0
41
1
10
13.5278622444115
20
-1.97881127962072
30
0
41
1
10
13.5197853022641
20
-1.98501877533784
30
0
41
1
10
13.5129992082939
20
-1.99019102574644
30
0
41
1
10
13.5078942934943
20
-1.99405657732
30
0
41
1
10
13.5042485481555
20
-1.99680852023759
30
0
41
1
10
13.5018066197492
20
-1.99864599012419
30
0
41
1
10
13.5003303048355
20
-1.99975301217991
30
0
41
1
10
13.5000049859445
20
-1.99999698493389
30
0
41
1
10
13.4999961770709
20
-2.00000172630057
30
0
0
SPLINE
5
BD
100
AcDbEntity
8
1
62
256
6
ByLayer
370
18
48
1
60
0
100
AcDbSpline
70
4
71
3
72
133
73
129
40
0
40
0
40
0
40
0
40
0.0066701014700946
40
0.0133467387344922
40
0.020025868229706
40
0.0267030775693751
40
0.0333736593179647
40
0.0402583461735094
40
0.0471486582934596
40
0.054041546439521
40
0.0609331635568628
40
0.0678189458372286
40
0.0753367689608931
40
0.0828582028776018
40
0.090380192851747
40
0.0978987745895096
40
0.105411702650216
40
0.112927201670659
40
0.120443055462185
40
0.127956467463028
40
0.135853198723325
40
0.143752184864776
40
0.151651402078353
40
0.1595484485253
40
0.169790280195865
40
0.180036172214229
40
0.190282292025192
40
0.200524434443917
40
0.210765271070755
40
0.221009948073273
40
0.231254566098014
40
0.241495322270365
40
0.250109993560768
40
0.258728455213644
40
0.267347993784053
40
0.275966092332519
40
0.284580458950775
40
0.292804111374109
40
0.301030260718778
40
0.309256241684569
40
0.31747966442977
40
0.325705278958685
40
0.333933803671069
40
0.342162114151072
40
0.350387436440179
40
0.358987686362141
40
0.367591847078111
40
0.376195712808777
40
0.384795560292618
40
0.393068480256927
40
0.40134771314881
40
0.409628683213471
40
0.417907200855349
40
0.426179520478943
40
0.433264880047413
40
0.440356348554875
40
0.44745068867044
40
0.454544793732737
40
0.461635719578156
40
0.468720717064615
40
0.47560394043819
40
0.482490097208042
40
0.48937622065505
40
0.496259398568979
40
0.503142737470496
40
0.510029035129922
40
0.516915352068164
40
0.523798717270263
40
0.531079259000302
40
0.538363193883239
40
0.545647215183578
40
0.552927874810193
40
0.560788364789389
40
0.568654630381284
40
0.576523105946041
40
0.584389896284971
40
0.592250826700312
40
0.600302799878478
40
0.608360069371102
40
0.616419457542416
40
0.624477383220801
40
0.632529907113908
40
0.641168366764423
40
0.649812195806554
40
0.658458234021161
40
0.66710284388847
40
0.675741958836417
40
0.684554456716407
40
0.693371599909888
40
0.702190630945245
40
0.711008406064134
40
0.719821434228506
40
0.728494957508087
40
0.737171059857971
40
0.745847294301417
40
0.754520997761643
40
0.763193496169065
40
0.771868356330062
40
0.780543266576628
40
0.789215833301084
40
0.798211221738187
40
0.807209232520734
40
0.816207170738522
40
0.825202460194689
40
0.833031600846701
40
0.840862668125044
40
0.848693583556151
40
0.856522517092064
40
0.864353905693043
40
0.872187694813693
40
0.880021168407916
40
0.887852126610539
40
0.89598773957638
40
0.904127070815504
40
0.912265758877774
40
0.920400494370767
40
0.926885256451698
40
0.93337265764542
40
0.939859703367099
40
0.946343980511308
40
0.952832516641755
40
0.959324487772033
40
0.965816112377225
40
0.972304175718697
40
0.979225785148548
40
0.986152324571525
40
0.993078663782465
40
1
40
1
40
1
40
1
41
1
10
13.4999971147409
20
-2.00000127582937
30
0
41
1
10
13.5000060545556
20
-1.99999678058608
30
0
41
1
10
13.5004461281076
20
-1.99966750112597
30
0
41
1
10
13.502432201536
20
-1.99818060729819
30
0
41
1
10
13.5057013833575
20
-1.99571917744646
30
0
41
1
10
13.5102291489145
20
-1.99229284924852
30
0
41
1
10
13.5160541882501
20
-1.9878626838259
30
0
41
1
10
13.5231985299679
20
-1.98239848790784
30
0
41
1
10
13.5316358981948
20
-1.97589106850108
30
0
41
1
10
13.5412282415108
20
-1.9684209012512
30
0
41
1
10
13.5519065107566
20
-1.96001464078494
30
0
41
1
10
13.5639690212206
20
-1.95040737135575
30
0
41
1
10
13.577461331163
20
-1.93951804799339
30
0
41
1
10
13.5923994850825
20
-1.92727659040387
30
0
41
1
10
13.6083077896908
20
-1.91402628177073
30
0
41
1
10
13.6250959501161
20
-1.8997986341087
30
0
41
1
10
13.6426828443683
20
-1.88461651284498
30
0
41
1
10
13.660993876057
20
-1.86850236065718
30
0
41
1
10
13.6799597612297
20
-1.85147441545795
30
0
41
1
10
13.6998404219483
20
-1.83324846440927
30
0
41
1
10
13.7206000875082
20
-1.81378624020495
30
0
41
1
10
13.7422049273264
20
-1.7930486594355
30
0
41
1
10
13.7642461396366
20
-1.77137224284395
30
0
41
1
10
13.7888753372215
20
-1.74653574740638
30
0
41
1
10
13.8161488227714
20
-1.71820224863926
30
0
41
1
10
13.8460851101493
20
-1.68600601795532
30
0
41
1
10
13.8763191926951
20
-1.65230728336037
30
0
41
1
10
13.9067377538858
20
-1.61712543638031
30
0
41
1
10
13.9372392093755
20
-1.58046618928268
30
0
41
1
10
13.9677418888813
20
-1.5423330787676
30
0
41
1
10
13.9981560491046
20
-1.50273545939301
30
0
41
1
10
14.0267907666692
20
-1.46385587868301
30
0
41
1
10
14.0536081420517
20
-1.42595051387262
30
0
41
1
10
14.0786120115412
20
-1.38925395727227
30
0
41
1
10
14.1033420382727
20
-1.35152782390517
30
0
41
1
10
14.1277444838306
20
-1.31278600415377
30
0
41
1
10
14.1514074847124
20
-1.27363447859682
30
0
41
1
10
14.1743085563925
20
-1.23412378442
30
0
41
1
10
14.1964350816306
20
-1.19430622843486
30
0
41
1
10
14.2181021147276
20
-1.15357611200471
30
0
41
1
10
14.2392690083716
20
-1.11194072977603
30
0
41
1
10
14.2598960736186
20
-1.06940138570771
30
0
41
1
10
14.2799468299062
20
-1.02596575517489
30
0
41
1
10
14.2993773990407
20
-0.981655618571919
30
0
41
1
10
14.3184297569403
20
-0.935804128594189
30
0
41
1
10
14.3370255959668
20
-0.88837181194094
30
0
41
1
10
14.3550852349798
20
-0.839332510706521
30
0
41
1
10
14.372287189872
20
-0.789419615114382
30
0
41
1
10
14.3883766518852
20
-0.739312342530546
30
0
41
1
10
14.4033475804249
20
-0.68906189640907
30
0
41
1
10
14.4172100226874
20
-0.638728097351736
30
0
41
1
10
14.4301232539663
20
-0.587701657322728
30
0
41
1
10
14.4420441160287
20
-0.536048164406783
30
0
41
1
10
14.4524139474479
20
-0.486311001222658
30
0
41
1
10
14.461364855256
20
-0.43860604581333
30
0
41
1
10
14.4690472348154
20
-0.393031121311376
30
0
41
1
10
14.4759205000744
20
-0.34710010850898
30
0
41
1
10
14.4819663557973
20
-0.300868633748802
30
0
41
1
10
14.4871669539753
20
-0.254392581404983
30
0
41
1
10
14.4914638490777
20
-0.208151924025634
30
0
41
1
10
14.4948720110953
20
-0.162179338232342
30
0
41
1
10
14.4974209445586
20
-0.116507106497879
30
0
41
1
10
14.4991376963991
20
-0.0707352893148085
30
0
41
1
10
14.5000167098409
20
-0.0249087794707859
30
0
41
1
10
14.5000510069733
20
0.0209396855573326
30
0
41
1
10
14.4992453753061
20
0.0667769362677834
30
0
41
1
10
14.4976033091025
20
0.112556939951212
30
0
41
1
10
14.4950800107636
20
0.159112446016756
30
0
41
1
10
14.4916190151041
20
0.206402667047039
30
0
41
1
10
14.4871764398878
20
0.254380365145006
30
0
41
1
10
14.4818302646982
20
0.30211968186846
30
0
41
1
10
14.4754284956564
20
0.350830424811841
30
0
41
1
10
14.4678942529314
20
0.400451949266944
30
0
41
1
10
14.459167829005
20
0.450917000860503
30
0
41
1
10
14.4494681334031
20
0.500927532832606
30
0
41
1
10
14.4388266577224
20
0.550416268595762
30
0
41
1
10
14.4271759525025
20
0.599733275500438
30
0
41
1
10
14.4145112938515
20
0.648835608929609
30
0
41
1
10
14.4008438743921
20
0.697689755335241
30
0
41
1
10
14.3863123018501
20
0.745869587493138
30
0
41
1
10
14.3709590447588
20
0.793324165771819
30
0
41
1
10
14.3544283391135
20
0.841153066347842
30
0
41
1
10
14.3366828888672
20
0.889275740964004
30
0
41
1
10
14.3177019067934
20
0.937615430768312
30
0
41
1
10
14.2979448362144
20
0.985035200472038
30
0
41
1
10
14.2774667865414
20
1.03149610407618
30
0
41
1
10
14.2561729121518
20
1.07728032285183
30
0
41
1
10
14.2340867485796
20
1.12235887094196
30
0
41
1
10
14.2112404131386
20
1.16671217155138
30
0
41
1
10
14.1878310477088
20
1.21003086241868
30
0
41
1
10
14.163916235338
20
1.25229163684853
30
0
41
1
10
14.1396738739751
20
1.29326666839165
30
0
41
1
10
14.1151551838595
20
1.33297510401902
30
0
41
1
10
14.0904131121452
20
1.37144207429673
30
0
41
1
10
14.0653671349129
20
1.40887206697399
30
0
41
1
10
14.0400682361248
20
1.44525677059347
30
0
41
1
10
14.0145603633325
20
1.48059627690936
30
0
41
1
10
13.9888929191379
20
1.51489242291612
30
0
41
1
10
13.9631186738627
20
1.5481409165746
30
0
41
1
10
13.9369710439801
20
1.58073499573849
30
0
41
1
10
13.9104975993516
20
1.61262767773144
30
0
41
1
10
13.8837624053877
20
1.64376959084217
30
0
41
1
10
13.8571562053707
20
1.67376482500212
30
0
41
1
10
13.8318902811797
20
1.70135661732724
30
0
41
1
10
13.8079931256823
20
1.72670656118285
30
0
41
1
10
13.7854804355316
20
1.74996948443901
30
0
41
1
10
13.7632794929715
20
1.77233281563641
30
0
41
1
10
13.7414463475816
20
1.79378629693785
30
0
41
1
10
13.720036449866
20
1.81431925846792
30
0
41
1
10
13.6991175686237
20
1.83391827516393
30
0
41
1
10
13.6787653532568
20
1.8525622922149
30
0
41
1
10
13.6587988115997
20
1.87045995518128
30
0
41
1
10
13.6393237700868
20
1.88754650030126
30
0
41
1
10
13.6204690546825
20
1.90375110578119
30
0
41
1
10
13.6025832173542
20
1.91882645156264
30
0
41
1
10
13.5869075952491
20
1.93179790464776
30
0
41
1
10
13.5732873767356
20
1.94289694482666
30
0
41
1
10
13.5615356900365
20
1.9523517310648
30
0
41
1
10
13.5506443271893
20
1.96101043905232
30
0
41
1
10
13.5406688467476
20
1.96885422338458
30
0
41
1
10
13.5316706780343
20
1.9758608617297
30
0
41
1
10
13.5236960109801
20
1.98201556487896
30
0
41
1
10
13.5167941089176
20
1.98729974667293
30
0
41
1
10
13.5108849473714
20
1.99179297614023
30
0
41
1
10
13.5061159472535
20
1.99540235389859
30
0
41
1
10
13.5026066299877
20
1.99804694962589
30
0
41
1
10
13.5004776233578
20
1.99964328249021
30
0
41
1
10
13.5000059155925
20
1.99999682670732
30
0
41
1
10
13.4999969848643
20
2.00000133940542
30
0
0
LINE
5
70
100
AcDbEntity
8
1
62
256
6
ByLayer
370
18
48
1
60
0
100
AcDbLine
10
18
20
3.5
30
0
11
18
21
-3.5
31
0
39
0
210
0
220
0
230
1
0
LINE
5
72
100
AcDbEntity
8
SK1
62
256
6
ByLayer
370
18
48
1
60
0
100
AcDbLine
10
-106
20
7
30
0
11
-106
21
-7
31
0
39
0
210
0
220
0
230
1
0
LINE
5
74
100
AcDbEntity
8
SK1
62
256
6
ByLayer
370
18
48
1
60
0
100
AcDbLine
10
-105
20
7
30
0
11
0
21
7
31
0
39
0
210
0
220
0
230
1
0
LINE
5
75
100
AcDbEntity
8
1
62
256
6
ByLayer
370
18
48
1
60
0
100
AcDbLine
10
0
20
-7
30
0
11
-0.267949
21
-8
31
0
39
0
210
0
220
0
230
1
0
LINE
5
76
100
AcDbEntity
8
1
62
256
6
ByLayer
370
18
48
1
60
0
100
AcDbLine
10
0
20
-2
30
0
11
0
21
-7
31
0
39
0
210
0
220
0
230
1
0
LINE
5
77
100
AcDbEntity
8
1
62
256
6
ByLayer
370
18
48
1
60
0
100
AcDbLine
10
0
20
7
30
0
11
0
21
2
31
0
39
0
210
0
220
0
230
1
0
LINE
5
78
100
AcDbEntity
8
1
62
256
6
ByLayer
370
18
48
1
60
0
100
AcDbLine
10
-0.267949
20
8
30
0
11
0
21
7
31
0
39
0
210
0
220
0
230
1
0
LINE
5
79
100
AcDbEntity
8
SK1
62
256
6
ByLayer
370
18
48
1
60
0
100
AcDbLine
10
-105
20
-8
30
0
11
0
21
-8
31
0
39
0
210
0
220
0
230
1
0
LINE
5
7A
100
AcDbEntity
8
1
62
256
6
ByLayer
370
18
48
1
60
0
100
AcDbLine
10
16
20
4
30
0
11
16.75
21
4.75
31
0
39
0
210
0
220
0
230
1
0
LINE
5
7B
100
AcDbEntity
8
1
62
256
6
ByLayer
370
18
48
1
60
0
100
AcDbLine
10
2.411543
20
-4
30
0
11
1.339746
21
-8
31
0
39
0
210
0
220
0
230
1
0
LINE
5
7C
100
AcDbEntity
8
1
62
256
6
ByLayer
370
18
48
1
60
0
100
AcDbLine
10
2.411543
20
4
30
0
11
2.411543
21
-4
31
0
39
0
210
0
220
0
230
1
0
LINE
5
7D
100
AcDbEntity
8
1
62
256
6
ByLayer
370
18
48
1
60
0
100
AcDbLine
10
2.411543
20
4
30
0
11
16
21
4
31
0
39
0
210
0
220
0
230
1
0
LINE
5
7E
100
AcDbEntity
8
1
62
256
6
ByLayer
370
18
48
1
60
0
100
AcDbLine
10
2.411543
20
-4
30
0
11
16
21
-4
31
0
39
0
210
0
220
0
230
1
0
LINE
5
7F
100
AcDbEntity
8
1
62
256
6
ByLayer
370
18
48
1
60
0
100
AcDbLine
10
19
20
2.5
30
0
11
19
21
-2.5
31
0
39
0
210
0
220
0
230
1
0
LINE
5
80
100
AcDbEntity
8
1
62
256
6
ByLayer
370
18
48
1
60
0
100
AcDbLine
10
16.75
20
-4.75
30
0
11
16
21
-4
31
0
39
0
210
0
220
0
230
1
0
LINE
5
81
100
AcDbEntity
8
1
62
256
6
ByLayer
370
18
48
1
60
0
100
AcDbLine
10
16
20
4
30
0
11
16
21
-4
31
0
39
0
210
0
220
0
230
1
0
LINE
5
82
100
AcDbEntity
8
1
62
256
6
ByLayer
370
18
48
1
60
0
100
AcDbLine
10
16.75
20
-4.75
30
0
11
19
21
-2.5
31
0
39
0
210
0
220
0
230
1
0
LINE
5
83
100
AcDbEntity
8
1
62
256
6
ByLayer
370
18
48
1
60
0
100
AcDbLine
10
1.339746
20
8
30
0
11
2.411543
21
4
31
0
39
0
210
0
220
0
230
1
0
LINE
5
84
100
AcDbEntity
8
1
62
256
6
ByLayer
370
18
48
1
60
0
100
AcDbLine
10
14.5
20
-7
30
0
11
0
21
-7
31
0
39
0
210
0
220
0
230
1
0
LINE
5
85
100
AcDbEntity
8
1
62
256
6
ByLayer
370
18
48
1
60
0
100
AcDbLine
10
14.5
20
7
30
0
11
18
21
3.5
31
0
39
0
210
0
220
0
230
1
0
LINE
5
86
100
AcDbEntity
8
1
62
256
6
ByLayer
370
18
48
1
60
0
100
AcDbLine
10
2.5
20
1.519868
30
0
11
2.5
21
8
31
0
39
0
210
0
220
0
230
1
0
LINE
5
87
100
AcDbEntity
8
1
62
256
6
ByLayer
370
18
48
1
60
0
100
AcDbLine
10
5.5
20
1.519868
30
0
11
5.5
21
8
31
0
39
0
210
0
220
0
230
1
0
LINE
5
88
100
AcDbEntity
8
1
62
256
6
ByLayer
370
18
48
1
60
0
100
AcDbLine
10
5.5
20
-8
30
0
11
5.5
21
-1.519868
31
0
39
0
210
0
220
0
230
1
0
LINE
5
89
100
AcDbEntity
8
1
62
256
6
ByLayer
370
18
48
1
60
0
100
AcDbLine
10
13.5
20
8
30
0
11
0
21
8
31
0
39
0
210
0
220
0
230
1
0
LINE
5
8A
100
AcDbEntity
8
1
62
256
6
ByLayer
370
18
48
1
60
0
100
AcDbLine
10
4.748331
20
-2
30
0
11
10.5
21
-2
31
0
39
0
210
0
220
0
230
1
0
LINE
5
8B
100
AcDbEntity
8
1
62
256
6
ByLayer
370
18
48
1
60
0
100
AcDbLine
10
12
20
0
30
0
11
12
21
-2.5
31
0
39
0
210
0
220
0
230
1
0
LINE
5
8C
100
AcDbEntity
8
1
62
256
6
ByLayer
370
18
48
1
60
0
100
AcDbLine
10
12
20
0
30
0
11
12
21
2.5
31
0
39
0
210
0
220
0
230
1
0
LINE
5
8D
100
AcDbEntity
8
1
62
256
6
ByLayer
370
18
48
1
60
0
100
AcDbLine
10
0
20
2
30
0
11
3.251669
21
2
31
0
39
0
210
0
220
0
230
1
0
LINE
5
8E
100
AcDbEntity
8
1
62
256
6
ByLayer
370
18
48
1
60
0
100
AcDbLine
10
12
20
2.5
30
0
11
12
21
3.125
31
0
39
0
210
0
220
0
230
1
0
LINE
5
8F
100
AcDbEntity
8
1
62
256
6
ByLayer
370
18
48
1
60
0
100
AcDbLine
10
13.5
20
-2
30
0
11
19
21
-2
31
0
39
0
210
0
220
0
230
1
0
LINE
5
90
100
AcDbEntity
8
1
62
256
6
ByLayer
370
18
48
1
60
0
100
AcDbLine
10
0
20
-2
30
0
11
3.251669
21
-2
31
0
39
0
210
0
220
0
230
1
0
LINE
5
91
100
AcDbEntity
8
1
62
256
6
ByLayer
370
18
48
1
60
0
100
AcDbLine
10
2.5
20
-8
30
0
11
2.5
21
-1.519868
31
0
39
0
210
0
220
0
230
1
0
LINE
5
92
100
AcDbEntity
8
1
62
256
6
ByLayer
370
18
48
1
60
0
100
AcDbLine
10
13.5
20
2
30
0
11
19
21
2
31
0
39
0
210
0
220
0
230
1
0
LINE
5
93
100
AcDbEntity
8
1
62
256
6
ByLayer
370
18
48
1
60
0
100
AcDbLine
10
4.748331
20
2
30
0
11
10.5
21
2
31
0
39
0
210
0
220
0
230
1
0
LINE
5
94
100
AcDbEntity
8
1
62
256
6
ByLayer
370
18
48
1
60
0
100
AcDbLine
10
0
20
-2
30
0
11
0
21
2
31
0
39
0
210
0
220
0
230
1
0
LINE
5
95
100
AcDbEntity
8
1
62
256
6
ByLayer
370
18
48
1
60
0
100
AcDbLine
10
12
20
-2.5
30
0
11
12
21
-3.125
31
0
39
0
210
0
220
0
230
1
0
LINE
5
96
100
AcDbEntity
8
SK1
62
256
6
ByLayer
370
18
48
1
60
0
100
AcDbLine
10
-106
20
-7
30
0
11
-105
21
-8
31
0
39
0
210
0
220
0
230
1
0
LINE
5
97
100
AcDbEntity
8
SK1
62
256
6
ByLayer
370
18
48
1
60
0
100
AcDbLine
10
-106
20
-7
30
0
11
-105
21
-7
31
0
39
0
210
0
220
0
230
1
0
LINE
5
98
100
AcDbEntity
8
SK1
62
256
6
ByLayer
370
18
48
1
60
0
100
AcDbLine
10
-105
20
-7
30
0
11
-105
21
-8
31
0
39
0
210
0
220
0
230
1
0
LINE
5
99
100
AcDbEntity
8
SK1
62
256
6
ByLayer
370
18
48
1
60
0
100
AcDbLine
10
-106
20
7
30
0
11
-105
21
7
31
0
39
0
210
0
220
0
230
1
0
LINE
5
9A
100
AcDbEntity
8
SK1
62
256
6
ByLayer
370
18
48
1
60
0
100
AcDbLine
10
-105
20
8
30
0
11
-106
21
7
31
0
39
0
210
0
220
0
230
1
0
LINE
5
9B
100
AcDbEntity
8
SK1
62
256
6
ByLayer
370
18
48
1
60
0
100
AcDbLine
10
-105
20
8
30
0
11
-105
21
7
31
0
39
0
210
0
220
0
230
1
0
LINE
5
9C
100
AcDbEntity
8
1
62
256
6
ByLayer
370
18
48
1
60
0
100
AcDbLine
10
19
20
2.5
30
0
11
18
21
3.5
31
0
39
0
210
0
220
0
230
1
0
LINE
5
9D
100
AcDbEntity
8
1
62
256
6
ByLayer
370
18
48
1
60
0
100
AcDbLine
10
16.75
20
4.75
30
0
11
13.5
21
8
31
0
39
0
210
0
220
0
230
1
0
LINE
5
9E
100
AcDbEntity
8
1
62
256
6
ByLayer
370
18
48
1
60
0
100
AcDbLine
10
-1.201721
20
0
30
0
11
0
21
2
31
0
39
0
210
0
220
0
230
1
0
LINE
5
9F
100
AcDbEntity
8
1
62
256
6
ByLayer
370
18
48
1
60
0
100
AcDbLine
10
0
20
-2
30
0
11
-1.201721
21
0
31
0
39
0
210
0
220
0
230
1
0
LINE
5
A0
100
AcDbEntity
8
SK1
62
256
6
ByLayer
370
18
48
1
60
0
100
AcDbLine
10
-105
20
7
30
0
11
-105
21
-7
31
0
39
0
210
0
220
0
230
1
0
LINE
5
A1
100
AcDbEntity
8
1
62
256
6
ByLayer
370
18
48
1
60
0
100
AcDbLine
10
14.5
20
-7
30
0
11
16.75
21
-4.75
31
0
39
0
210
0
220
0
230
1
0
LINE
5
A2
100
AcDbEntity
8
1
62
256
6
ByLayer
370
18
48
1
60
0
100
AcDbLine
10
13.5
20
-8
30
0
11
14.5
21
-7
31
0
39
0
210
0
220
0
230
1
0
LINE
5
A3
100
AcDbEntity
8
1
62
256
6
ByLayer
370
18
48
1
60
0
100
AcDbLine
10
18
20
3.5
30
0
11
16.75
21
4.75
31
0
39
0
210
0
220
0
230
1
0
LINE
5
A4
100
AcDbEntity
8
80
62
256
6
ByLayer
370
18
48
1
60
0
100
AcDbLine
10
0
20
0
30
0
11
-10
21
0
31
0
39
0
210
0
220
0
230
1
0
LINE
5
A5
100
AcDbEntity
8
81
62
256
6
ByLayer
370
18
48
1
60
0
100
AcDbLine
10
19
20
0
30
0
11
29
21
0
31
0
39
0
210
0
220
0
230
1
0
LINE
5
A6
100
AcDbEntity
8
1
62
256
6
ByLayer
370
18
48
1
60
0
100
AcDbLine
10
0
20
7
30
0
11
14.5
21
7
31
0
39
0
210
0
220
0
230
1
0
LINE
5
A7
100
AcDbEntity
8
SK1
62
256
6
ByLayer
370
18
48
1
60
0
100
AcDbLine
10
0
20
8
30
0
11
-105
21
8
31
0
39
0
210
0
220
0
230
1
0
LINE
5
A8
100
AcDbEntity
8
SK1
62
256
6
ByLayer
370
18
48
1
60
0
100
AcDbLine
10
0
20
-7
30
0
11
-105
21
-7
31
0
39
0
210
0
220
0
230
1
0
LINE
5
A9
100
AcDbEntity
8
1
62
256
6
ByLayer
370
18
48
1
60
0
100
AcDbLine
10
0
20
-8
30
0
11
13.5
21
-8
31
0
39
0
210
0
220
0
230
1
0
MTEXT
5
BE
100
AcDbEntity
8
SK6
62
256
6
ByLayer
370
18
48
1
60
0
100
AcDbMText
10
-61.998766
20
-15.753209
30
0
210
0
220
0
230
1
1
\W0.7246;CXS-1616-04FN
40
3.175
41
0
44
1.084337
50
0
71
7
72
5
7
iso_b_vert
0
DIMENSION
5
D0
100
AcDbEntity
8
SK2
62
256
6
ByLayer
370
13
48
1
60
0
100
AcDbDimension
2
DimnDraft3D1
10
19
20
24.040628
30
0
11
-43.5
21
24.040628
31
0
70
32
71
5
72
1
41
1
210
0
220
0
230
1
3
Standard
100
AcDbAlignedDimension
13
-106
23
8.5875
33
0
14
19
24
4.0875
34
0
50
0
100
AcDbRotatedDimension
1001
ACAD
1000
DSTYLE
1002
{
1070
   279
1070
     0
1070
   172
1070
     1
1070
   173
1070
     1
1070
   340
1005
BF
1070
   271
1070
     1
1070
   272
1070
     2
1070
    77
1070
     1
1070
    73
1070
     0
1070
   171
1070
     3
1070
   274
1070
     4
1070
   177
1070
     7
1070
   176
1070
     7
1070
   178
1070
     7
1070
    78
1070
     8
1070
    48
1040
-0.005
1070
    41
1041
3.175
1070
   147
1041
1.75006
1070
    42
1041
1.5875
1070
    44
1041
3.175
1070
   140
1041
3.50012
1070
   343
1005
0
1070
   344
1005
0
1002
}
0
DIMENSION
5
DF
100
AcDbEntity
8
2
62
256
6
ByLayer
370
13
48
1
60
0
100
AcDbDimension
2
DimnDraft3D2
10
19
20
12.993643
30
0
11
7.478586
21
12.993643
31
0
70
32
71
5
72
1
41
1
210
0
220
0
230
1
3
Standard
100
AcDbAlignedDimension
13
0
23
8.5875
33
0
14
19
24
4.0875
34
0
50
0
100
AcDbRotatedDimension
1001
ACAD
1000
DSTYLE
1002
{
1070
   279
1070
     0
1070
   172
1070
     1
1070
   173
1070
     1
1070
   340
1005
BF
1070
   271
1070
     1
1070
   272
1070
     2
1070
    77
1070
     1
1070
    73
1070
     0
1070
   171
1070
     3
1070
   274
1070
     4
1070
   177
1070
     7
1070
   176
1070
     7
1070
   178
1070
     7
1070
    78
1070
     8
1070
    48
1040
-0.005
1070
    41
1041
3.175
1070
   147
1041
1.75006
1070
    42
1041
1.5875
1070
    44
1041
3.175
1070
   140
1041
3.50012
1070
   343
1005
0
1070
   344
1005
0
1002
}
0
DIMENSION
5
ED
100
AcDbEntity
8
SK2
62
256
6
ByLayer
370
13
48
1
60
0
100
AcDbDimension
2
DimnDraft3D3
10
-109.15726
20
-8
30
0
11
-109.15726
21
0
31
0
70
32
71
5
72
1
41
1
210
0
220
0
230
1
3
Standard
100
AcDbAlignedDimension
13
-106.5875
23
8
33
0
14
-106.5875
24
-8
34
0
50
90
100
AcDbRotatedDimension
1001
ACAD
1000
DSTYLE
1002
{
1070
    74
1070
     0
1070
   279
1070
     0
1070
   172
1070
     1
1070
   173
1070
     1
1070
   340
1005
BF
1070
   271
1070
     1
1070
   272
1070
     2
1070
    77
1070
     1
1070
    73
1070
     0
1070
   171
1070
     3
1070
   274
1070
     4
1070
   177
1070
     7
1070
   176
1070
     7
1070
   178
1070
     7
1070
    78
1070
     8
1070
    48
1040
-0.005
1070
    41
1041
3.175
1070
   147
1041
1.75006
1070
    42
1041
1.5875
1070
    44
1041
3.175
1070
   140
1041
3.50012
1070
   343
1005
0
1070
   344
1005
0
1002
}
0
DIMENSION
5
FB
100
AcDbEntity
8
SK2
62
256
6
ByLayer
370
13
48
1
60
0
100
AcDbDimension
2
DimnDraft3D4
10
19
20
-2.5
30
0
11
14.18933
21
-14.113985
31
0
70
34
71
5
72
1
41
1
210
0
220
0
230
1
3
Standard
100
AcDb2LineAngularDimension
13
14.5
23
-7
33
0
14
16.75
24
-4.75
34
0
15
19
25
2.5
35
0
16
12.849892
26
-17.347674
36
0
40
0
0
ENDSEC
0
SECTION
2
OBJECTS
0
DICTIONARY
5
165
330
0
100
AcDbDictionary
280
0
281
1
3
ACAD_GROUP
350
166
3
ACAD_MLINESTYLE
350
167
0
DICTIONARY
5
166
330
0
100
AcDbDictionary
280
0
281
1
0
DICTIONARY
5
167
330
0
100
AcDbDictionary
280
0
281
1
3
Standard
350
18
0
MLINESTYLE
5
18
330
167
100
AcDbMlineStyle
2
Standard
70
0
3

62
256
51
90
52
90
71
2
49
-0.5
62
256
6
ByLayer
49
0.5
62
256
6
ByLayer
0
RASTERVARIABLES
5
154
330

100
AcDbRasterVariables
90
0
70
1
71
1
72
1
0
ENDSEC
0
EOF
