0
SECTION
2
HEADER
9
$ACADVER
1
AC1015
9
$DWGCODEPAGE
3
ANSI_1252
9
$HANDSEED
5
168
9
$ANGBASE
50
0
9
$ANGDIR
70
0
9
$ATTMODE
70
1
9
$AUNITS
70
0
9
$AUPREC
70
0
9
$CECOLOR
62
256
9
$CELTSCALE
40
1
9
$CELTYPE
6
ByLayer
9
$CELWEIGHT
370
18
9
$CLAYER
8
0
9
$CMLJUST
70
0
9
$CMLSCALE
40
1
9
$CMLSTYLE
2
Standard
9
$DIMSTYLE
2
Standard
9
$TEXTSIZE
40
0.2
9
$TEXTSTYLE
7
Standard
9
$LUNITS
70
2
9
$LUPREC
70
4
9
$EXTNAMES
290
1
9
$INSUNITS
70
4
9
$LTSCALE
40
1
9
$LWDISPLAY
290
1
9
$PDMODE
70
0
9
$PDSIZE
40
0
9
$PLINEGEN
70
0
0
ENDSEC
0
SECTION
2
CLASSES
0
CLASS
1
RASTERVARIABLES
2
AcDbRasterVariables
3
ISM
90
0
280
0
281
0
0
ENDSEC
0
SECTION
2
TABLES
0
TABLE
2
VPORT
5
15e
100
AcDbSymbolTable
0
VPORT
5
1
100
AcDbSymbolTableRecord
100
AcDbViewportTableRecord
2
*Active
70
0
10
0
20
0
11
1
21
1
12
-1
22
1
13
0
23
0
14
0.5
24
0.5
15
10
25
10
16
0
26
0
36
1
17
0
27
0
37
0
0
ENDTAB
0
TABLE
2
LTYPE
5
15f
100
AcDbSymbolTable
0
LTYPE
5
14
100
AcDbSymbolTableRecord
100
AcDbLinetypeTableRecord
70
0
2
ByBlock
3

72
65
73
0
40
0
0
LTYPE
5
15
100
AcDbSymbolTableRecord
100
AcDbLinetypeTableRecord
70
0
2
ByLayer
3

72
65
73
0
40
0
0
LTYPE
5
16
100
AcDbSymbolTableRecord
100
AcDbLinetypeTableRecord
70
0
2
CONTINUOUS
3
Solid line
72
65
73
0
40
0
0
LTYPE
5
6A
100
AcDbSymbolTableRecord
100
AcDbLinetypeTableRecord
70
0
2
CENTER
3
____ _ ____ _ ____ _ ____
72
65
73
4
40
47.5
49
22
74
0
49
-8.5
74
0
49
8.5
74
0
49
-8.5
74
0
0
LTYPE
5
6B
100
AcDbSymbolTableRecord
100
AcDbLinetypeTableRecord
70
0
2
DASHED
3
__ __ __ __ __ __ __ __ __
72
65
73
2
40
25.72
49
12.86
74
0
49
-12.86
74
0
0
ENDTAB
0
TABLE
2
LAYER
5
160
100
AcDbSymbolTable
0
LAYER
5
10
100
AcDbSymbolTableRecord
100
AcDbLayerTableRecord
2
0
70
0
62
7
6
CONTINUOUS
290
1
370
-3
390
0
0
LAYER
5
6D
100
AcDbSymbolTableRecord
100
AcDbLayerTableRecord
2
80
70
0
62
-6
6
CONTINUOUS
290
1
370
-3
390
0
0
LAYER
5
6F
100
AcDbSymbolTableRecord
100
AcDbLayerTableRecord
2
81
70
0
62
-3
6
CONTINUOUS
290
1
370
-3
390
0
0
LAYER
5
74
100
AcDbSymbolTableRecord
100
AcDbLayerTableRecord
2
1
70
0
62
4
6
CONTINUOUS
290
1
370
-3
390
0
0
LAYER
5
C9
100
AcDbSymbolTableRecord
100
AcDbLayerTableRecord
2
2
70
0
62
7
6
CONTINUOUS
290
1
370
-3
390
0
0
LAYER
5
14b
100
AcDbSymbolTableRecord
100
AcDbLayerTableRecord
2
SK1
70
0
62
4
6
CONTINUOUS
290
1
370
-3
390
0
0
LAYER
5
14c
100
AcDbSymbolTableRecord
100
AcDbLayerTableRecord
2
SK6
70
0
62
5
6
CONTINUOUS
290
1
370
-3
390
0
0
LAYER
5
14d
100
AcDbSymbolTableRecord
100
AcDbLayerTableRecord
2
SK2
70
0
62
7
6
CONTINUOUS
290
1
370
-3
390
0
0
ENDTAB
0
TABLE
2
STYLE
5
161
100
AcDbSymbolTable
0
STYLE
5
11
100
AcDbSymbolTableRecord
100
AcDbTextStyleTableRecord
2
Standard
3
txt
70
0
71
0
40
0
41
1
42
0
50
0
0
STYLE
5
B5
100
AcDbSymbolTableRecord
100
AcDbTextStyleTableRecord
2
iso_b_vert
3
simplex.shx
70
0
71
0
40
0
41
1
42
0
50
0
0
STYLE
5
B6
100
AcDbSymbolTableRecord
100
AcDbTextStyleTableRecord
2
DWGDirectTextStyle
3
simplex
70
0
71
0
40
0
41
1
42
0
50
0
0
ENDTAB
0
TABLE
2
DIMSTYLE
5
162
100
AcDbSymbolTable
100
AcDbDimStyleTable
0
DIMSTYLE
105
27
100
AcDbSymbolTableRecord
100
AcDbDimStyleTableRecord
2
Standard
70
0
3
<>
41
0.18
42
0.0625
44
0.18
140
0.18
147
0.09
73
0
74
0
77
1
271
2
275
0
278
52
280
0
340
11
0
ENDTAB
0
TABLE
2
VIEW
5
163
100
AcDbSymbolTable
0
ENDTAB
0
TABLE
2
UCS
5
164
100
AcDbSymbolTable
0
ENDTAB
0
TABLE
2
APPID
5
165
100
AcDbSymbolTable
0
APPID
5
12
100
AcDbSymbolTableRecord
100
AcDbRegAppTableRecord
2
ACAD
70
0
0
ENDTAB
0
TABLE
2
BLOCK_RECORD
5
166
100
AcDbSymbolTable
0
BLOCK_RECORD
5
1F
100
AcDbSymbolTableRecord
100
AcDbBlockTableRecord
2
*Model_Space
340
0
70
0
0
BLOCK_RECORD
5
1B
100
AcDbSymbolTableRecord
100
AcDbBlockTableRecord
2
*Paper_Space
340
0
70
0
0
BLOCK_RECORD
5
23
100
AcDbSymbolTableRecord
100
AcDbBlockTableRecord
2
*Paper_Space0
340
0
70
0
0
BLOCK_RECORD
5
B8
100
AcDbSymbolTableRecord
100
AcDbBlockTableRecord
2
DimnDraft3D1
340
0
70
0
0
BLOCK_RECORD
5
C7
100
AcDbSymbolTableRecord
100
AcDbBlockTableRecord
2
DimnDraft3D2
340
0
70
0
0
BLOCK_RECORD
5
D6
100
AcDbSymbolTableRecord
100
AcDbBlockTableRecord
2
DimnDraft3D3
340
0
70
0
0
BLOCK_RECORD
5
E4
100
AcDbSymbolTableRecord
100
AcDbBlockTableRecord
2
DimnDraft3D4
340
0
70
0
0
ENDTAB
0
ENDSEC
0
SECTION
2
BLOCKS
0
BLOCK
5
20
100
AcDbEntity
8
0
100
AcDbBlockBegin
2
*Model_Space
70
0
10
0
20
0
30
0
3
*Model_Space
0
ENDBLK
5
21
100
AcDbEntity
8
0
100
AcDbBlockEnd
0
BLOCK
5
1C
100
AcDbEntity
8
0
100
AcDbBlockBegin
2
*Paper_Space
70
0
10
0
20
0
30
0
3
*Paper_Space
0
ENDBLK
5
1D
100
AcDbEntity
8
0
100
AcDbBlockEnd
0
BLOCK
5
24
100
AcDbEntity
8
0
100
AcDbBlockBegin
2
*Paper_Space0
70
0
10
0
20
0
30
0
3
*Paper_Space0
0
ENDBLK
5
25
100
AcDbEntity
8
0
100
AcDbBlockEnd
0
BLOCK
5
C4
100
AcDbEntity
8
0
100
AcDbBlockBegin
2
DimnDraft3D1
70
0
10
0
20
0
30
0
3
DimnDraft3D1
0
MTEXT
5
B9
100
AcDbEntity
8
SK2
62
256
6
ByLayer
370
18
48
1
60
0
100
AcDbMText
10
-26.023367
20
22.437589
30
0
210
0
220
0
230
1
1
\W0.6044;100
40
3.50012
41
0
44
1.084337
50
0
71
7
72
5
7
iso_b_vert
0
LINE
5
BB
100
AcDbEntity
8
SK2
62
256
6
ByLayer
370
13
48
1
60
0
100
AcDbLine
10
-74.006193
20
6.724342
30
0
11
-74.006193
21
24.737559
31
0
39
0
210
0
220
0
230
1
0
LINE
5
BC
100
AcDbEntity
8
SK2
62
256
6
ByLayer
370
13
48
1
60
0
100
AcDbLine
10
25.993807
20
1.524342
30
0
11
25.993807
21
24.737559
31
0
39
0
210
0
220
0
230
1
0
LINE
5
BD
100
AcDbEntity
8
SK2
62
256
6
ByLayer
370
13
48
1
60
0
100
AcDbLine
10
-74.006193
20
21.562559
30
0
11
25.993807
21
21.562559
31
0
39
0
210
0
220
0
230
1
0
LINE
5
BE
100
AcDbEntity
8
SK2
62
256
6
ByLayer
370
13
48
1
60
0
100
AcDbLine
10
-74.006193
20
21.562559
30
0
11
-70.831194
21
21.980556
31
0
39
0
210
0
220
0
230
1
0
LINE
5
BF
100
AcDbEntity
8
SK2
62
256
6
ByLayer
370
13
48
1
60
0
100
AcDbLine
10
-74.006193
20
21.562559
30
0
11
-70.831191
21
21.144562
31
0
39
0
210
0
220
0
230
1
0
LINE
5
C0
100
AcDbEntity
8
SK2
62
256
6
ByLayer
370
13
48
1
60
0
100
AcDbLine
10
-70.831194
20
21.980556
30
0
11
-70.831191
21
21.144562
31
0
39
0
210
0
220
0
230
1
0
LINE
5
C1
100
AcDbEntity
8
SK2
62
256
6
ByLayer
370
13
48
1
60
0
100
AcDbLine
10
25.993807
20
21.562559
30
0
11
22.818809
21
21.144562
31
0
39
0
210
0
220
0
230
1
0
LINE
5
C2
100
AcDbEntity
8
SK2
62
256
6
ByLayer
370
13
48
1
60
0
100
AcDbLine
10
25.993807
20
21.562559
30
0
11
22.818806
21
21.980556
31
0
39
0
210
0
220
0
230
1
0
LINE
5
C3
100
AcDbEntity
8
SK2
62
256
6
ByLayer
370
13
48
1
60
0
100
AcDbLine
10
22.818809
20
21.144562
30
0
11
22.818806
21
21.980556
31
0
39
0
210
0
220
0
230
1
0
ENDBLK
5
C5
100
AcDbEntity
8
0
100
AcDbBlockEnd
0
BLOCK
5
D3
100
AcDbEntity
8
0
100
AcDbBlockBegin
2
DimnDraft3D2
70
0
10
0
20
0
30
0
3
DimnDraft3D2
0
MTEXT
5
C8
100
AcDbEntity
8
2
62
256
6
ByLayer
370
18
48
1
60
0
100
AcDbMText
10
11.82403
20
13.009492
30
0
210
0
220
0
230
1
1
\W0.6562;26
40
3.50012
41
0
44
1.084337
50
0
71
7
72
5
7
iso_b_vert
0
LINE
5
CA
100
AcDbEntity
8
2
62
256
6
ByLayer
370
13
48
1
60
0
100
AcDbLine
10
-0.006193
20
6.724342
30
0
11
-0.006193
21
15.309462
31
0
39
0
210
0
220
0
230
1
0
LINE
5
CB
100
AcDbEntity
8
2
62
256
6
ByLayer
370
13
48
1
60
0
100
AcDbLine
10
25.993807
20
-1.975658
30
0
11
25.993807
21
15.309462
31
0
39
0
210
0
220
0
230
1
0
LINE
5
CC
100
AcDbEntity
8
2
62
256
6
ByLayer
370
13
48
1
60
0
100
AcDbLine
10
-0.006193
20
12.134462
30
0
11
25.993807
21
12.134462
31
0
39
0
210
0
220
0
230
1
0
LINE
5
CD
100
AcDbEntity
8
2
62
256
6
ByLayer
370
13
48
1
60
0
100
AcDbLine
10
-0.006193
20
12.134462
30
0
11
3.168806
21
12.552459
31
0
39
0
210
0
220
0
230
1
0
LINE
5
CE
100
AcDbEntity
8
2
62
256
6
ByLayer
370
13
48
1
60
0
100
AcDbLine
10
-0.006193
20
12.134462
30
0
11
3.168809
21
11.716465
31
0
39
0
210
0
220
0
230
1
0
LINE
5
CF
100
AcDbEntity
8
2
62
256
6
ByLayer
370
13
48
1
60
0
100
AcDbLine
10
3.168806
20
12.552459
30
0
11
3.168809
21
11.716465
31
0
39
0
210
0
220
0
230
1
0
LINE
5
D0
100
AcDbEntity
8
2
62
256
6
ByLayer
370
13
48
1
60
0
100
AcDbLine
10
25.993807
20
12.134462
30
0
11
22.818809
21
11.716465
31
0
39
0
210
0
220
0
230
1
0
LINE
5
D1
100
AcDbEntity
8
2
62
256
6
ByLayer
370
13
48
1
60
0
100
AcDbLine
10
25.993807
20
12.134462
30
0
11
22.818806
21
12.552459
31
0
39
0
210
0
220
0
230
1
0
LINE
5
D2
100
AcDbEntity
8
2
62
256
6
ByLayer
370
13
48
1
60
0
100
AcDbLine
10
22.818809
20
11.716465
30
0
11
22.818806
21
12.552459
31
0
39
0
210
0
220
0
230
1
0
ENDBLK
5
D4
100
AcDbEntity
8
0
100
AcDbBlockEnd
0
BLOCK
5
E1
100
AcDbEntity
8
0
100
AcDbBlockBegin
2
DimnDraft3D3
70
0
10
0
20
0
30
0
3
DimnDraft3D3
0
MTEXT
5
D7
100
AcDbEntity
8
SK2
62
256
6
ByLayer
370
18
48
1
60
0
100
AcDbMText
10
-79.58524
20
-0.79542
30
0
210
0
220
0
230
1
1
\W0.5144;12
40
3.50012
41
0
44
1.084337
50
90
71
7
72
5
7
iso_b_vert
0
LINE
5
D8
100
AcDbEntity
8
SK2
62
256
6
ByLayer
370
13
48
1
60
0
100
AcDbLine
10
-74.793693
20
5.936842
30
0
11
-81.88521
21
5.936842
31
0
39
0
210
0
220
0
230
1
0
LINE
5
D9
100
AcDbEntity
8
SK2
62
256
6
ByLayer
370
13
48
1
60
0
100
AcDbLine
10
-74.793693
20
-6.063158
30
0
11
-81.88521
21
-6.063158
31
0
39
0
210
0
220
0
230
1
0
LINE
5
DA
100
AcDbEntity
8
SK2
62
256
6
ByLayer
370
13
48
1
60
0
100
AcDbLine
10
-78.71021
20
5.936842
30
0
11
-78.71021
21
-6.063158
31
0
39
0
210
0
220
0
230
1
0
LINE
5
DB
100
AcDbEntity
8
SK2
62
256
6
ByLayer
370
13
48
1
60
0
100
AcDbLine
10
-78.71021
20
5.936842
30
0
11
-78.292214
21
2.761843
31
0
39
0
210
0
220
0
230
1
0
LINE
5
DC
100
AcDbEntity
8
SK2
62
256
6
ByLayer
370
13
48
1
60
0
100
AcDbLine
10
-78.71021
20
5.936842
30
0
11
-79.128207
21
2.76184
31
0
39
0
210
0
220
0
230
1
0
LINE
5
DD
100
AcDbEntity
8
SK2
62
256
6
ByLayer
370
13
48
1
60
0
100
AcDbLine
10
-78.292214
20
2.761843
30
0
11
-79.128207
21
2.76184
31
0
39
0
210
0
220
0
230
1
0
LINE
5
DE
100
AcDbEntity
8
SK2
62
256
6
ByLayer
370
13
48
1
60
0
100
AcDbLine
10
-78.71021
20
-6.063158
30
0
11
-79.128207
21
-2.88816
31
0
39
0
210
0
220
0
230
1
0
LINE
5
DF
100
AcDbEntity
8
SK2
62
256
6
ByLayer
370
13
48
1
60
0
100
AcDbLine
10
-78.71021
20
-6.063158
30
0
11
-78.292214
21
-2.888157
31
0
39
0
210
0
220
0
230
1
0
LINE
5
E0
100
AcDbEntity
8
SK2
62
256
6
ByLayer
370
13
48
1
60
0
100
AcDbLine
10
-79.128207
20
-2.88816
30
0
11
-78.292214
21
-2.888157
31
0
39
0
210
0
220
0
230
1
0
ENDBLK
5
E2
100
AcDbEntity
8
0
100
AcDbBlockEnd
0
BLOCK
5
EF
100
AcDbEntity
8
0
100
AcDbBlockBegin
2
DimnDraft3D4
70
0
10
0
20
0
30
0
3
DimnDraft3D4
0
MTEXT
5
E5
100
AcDbEntity
8
SK2
62
256
6
ByLayer
370
18
48
1
60
0
100
AcDbMText
10
17.686233
20
-17.174918
30
0
210
0
220
0
230
1
1
\W0.8896;45%%d
40
3.50012
41
0
44
1.084337
50
337.5
71
7
72
5
7
iso_b_vert
0
LINE
5
E6
100
AcDbEntity
8
SK2
62
256
6
ByLayer
370
13
48
1
60
0
100
AcDbLine
10
23.171275
20
-6.38569
30
0
11
11.98968
21
-17.567286
31
0
39
0
210
0
220
0
230
1
0
LINE
5
E7
100
AcDbEntity
8
SK2
62
256
6
ByLayer
370
13
48
1
60
0
100
AcDbLine
10
25.993807
20
-5.150658
30
0
11
25.993807
21
-23.367986
31
0
39
0
210
0
220
0
230
1
0
ARC
5
E8
100
AcDbEntity
8
SK2
62
256
6
ByLayer
370
13
48
1
60
0
100
AcDbCircle
39
0
10
25.993807
20
-3.563158
30
0
40
16.6298274617036
210
0
220
0
230
1
100
AcDbArc
50
225
51
270
0
LINE
5
E9
100
AcDbEntity
8
SK2
62
256
6
ByLayer
370
13
48
1
60
0
100
AcDbLine
10
14.234744
20
-15.322222
30
0
11
16.865233
21
-17.148656
31
0
39
0
210
0
220
0
230
1
0
LINE
5
EA
100
AcDbEntity
8
SK2
62
256
6
ByLayer
370
13
48
1
60
0
100
AcDbLine
10
14.234744
20
-15.322222
30
0
11
16.302887
21
-17.767245
31
0
39
0
210
0
220
0
230
1
0
LINE
5
EB
100
AcDbEntity
8
SK2
62
256
6
ByLayer
370
13
48
1
60
0
100
AcDbLine
10
16.865233
20
-17.148656
30
0
11
16.302887
21
-17.767245
31
0
39
0
210
0
220
0
230
1
0
LINE
5
EC
100
AcDbEntity
8
SK2
62
256
6
ByLayer
370
13
48
1
60
0
100
AcDbLine
10
25.993807
20
-20.192986
30
0
11
22.80252
21
-20.45948
31
0
39
0
210
0
220
0
230
1
0
LINE
5
ED
100
AcDbEntity
8
SK2
62
256
6
ByLayer
370
13
48
1
60
0
100
AcDbLine
10
25.993807
20
-20.192986
30
0
11
22.842283
21
-19.624432
31
0
39
0
210
0
220
0
230
1
0
LINE
5
EE
100
AcDbEntity
8
SK2
62
256
6
ByLayer
370
13
48
1
60
0
100
AcDbLine
10
22.80252
20
-20.45948
30
0
11
22.842283
21
-19.624432
31
0
39
0
210
0
220
0
230
1
0
ENDBLK
5
F0
100
AcDbEntity
8
0
100
AcDbBlockEnd
0
ENDSEC
0
SECTION
2
ENTITIES
0
ARC
5
A5
100
AcDbEntity
8
1
62
256
6
ByLayer
370
18
48
1
60
0
100
AcDbCircle
39
0
10
18.993807
20
-0.063158
30
0
40
2.5
210
0
220
0
230
1
100
AcDbArc
50
270
51
90
0
ARC
5
A6
100
AcDbEntity
8
1
62
256
6
ByLayer
370
18
48
1
60
0
100
AcDbCircle
39
0
10
18.993807
20
-0.063158
30
0
40
2.5
210
0
220
0
230
1
100
AcDbArc
50
90
51
270
0
ARC
5
A7
100
AcDbEntity
8
1
62
256
6
ByLayer
370
18
48
1
60
0
100
AcDbCircle
39
0
10
18.993807
20
-0.063158
30
0
40
3.125
210
0
220
0
230
1
100
AcDbArc
50
90
51
270
0
ARC
5
A8
100
AcDbEntity
8
1
62
256
6
ByLayer
370
18
48
1
60
0
100
AcDbCircle
39
0
10
18.993807
20
-0.063158
30
0
40
3.125
210
0
220
0
230
1
100
AcDbArc
50
270
51
90
0
POINT
5
6C
100
AcDbEntity
8
80
62
256
6
ByLayer
370
18
48
1
60
0
100
AcDbPoint
10
0
20
0
30
0
39
0
210
0
220
0
230
1
50
360
0
POINT
5
6E
100
AcDbEntity
8
81
62
256
6
ByLayer
370
18
48
1
60
0
100
AcDbPoint
10
25.993807
20
-0.063158
30
0
39
0
210
0
220
0
230
1
50
360
0
SPLINE
5
A9
100
AcDbEntity
8
1
62
256
6
ByLayer
370
18
48
1
60
0
100
AcDbSpline
70
4
71
3
72
150
73
146
40
0
40
0
40
0
40
0
40
0.0051713715787505
40
0.0103452555061159
40
0.0155192132202472
40
0.0206906854659348
40
0.025860760384517
40
0.0310330769042962
40
0.0362055737186794
40
0.0413758945985724
40
0.0468553367179249
40
0.0523369233914634
40
0.0578187703421605
40
0.0632985675207472
40
0.0690776685191933
40
0.0748593441496904
40
0.0806422654149929
40
0.0864246654502678
40
0.0922043742907994
40
0.0994231693619818
40
0.106644362323616
40
0.11386593460516
40
0.121085247097629
40
0.128668504632166
40
0.136253773726517
40
0.143839279947415
40
0.151422860920266
40
0.15977963375714
40
0.168139552431387
40
0.176500701861546
40
0.18486095415199
40
0.193218006902226
40
0.201573737786496
40
0.209932476939255
40
0.218292185622564
40
0.226650853976315
40
0.235006525459433
40
0.243793574390891
40
0.252584507277612
40
0.261376526521227
40
0.270167054467683
40
0.278953763622961
40
0.287189435174323
40
0.295427552049279
40
0.30366549333211
40
0.31190092536764
40
0.320138652316362
40
0.328379257498691
40
0.336619636636636
40
0.344857055233776
40
0.351742507641978
40
0.358631029897819
40
0.365520385586602
40
0.372408541619644
40
0.379293686737607
40
0.386091590652181
40
0.392891737905978
40
0.399691755121285
40
0.406489481651507
40
0.41328871309141
40
0.420090468056255
40
0.426892101725029
40
0.433691167699269
40
0.440817521321288
40
0.447947066054214
40
0.455076497586875
40
0.462202696775326
40
0.469003919921982
40
0.47580808804832
40
0.482612207701476
40
0.48941336471963
40
0.496214854464822
40
0.503019346451646
40
0.50982384466822
40
0.516625342912275
40
0.52382917903419
40
0.53103650341731
40
0.538243904566643
40
0.545447845420242
40
0.551822042867119
40
0.558198513431991
40
0.564575062505611
40
0.570949367047809
40
0.577322662906484
40
0.58369804208148
40
0.590073516678397
40
0.596446942700051
40
0.603104699337483
40
0.60976458146912
40
0.616424583303924
40
0.623082503224526
40
0.63002365831196
40
0.636966924639307
40
0.643910325735276
40
0.650851664653354
40
0.65779148384303
40
0.66473313215191
40
0.671674899192363
40
0.678614880330901
40
0.685807486878802
40
0.693001857736142
40
0.700196341439571
40
0.70738910190581
40
0.715554272367981
40
0.723722684263333
40
0.731892377305889
40
0.740061163047055
40
0.748226647182953
40
0.756389760511617
40
0.764555730767146
40
0.772722745866878
40
0.780888885308537
40
0.789052140585144
40
0.797639868653344
40
0.806230899654105
40
0.814822956410606
40
0.823413833618411
40
0.832001432649545
40
0.839526740970139
40
0.847053717361077
40
0.854580546728797
40
0.862105654518033
40
0.869633173206121
40
0.877162826227196
40
0.884692162509297
40
0.892219249154825
40
0.898455734646981
40
0.904694999986015
40
0.910934786296852
40
0.917173269034479
40
0.923409097865302
40
0.930286713650479
40
0.93716587070805
40
0.944043109780446
40
0.949203167674292
40
0.954365084100819
40
0.959526795518603
40
0.964686573752357
40
0.970076921771468
40
0.975469868759809
40
0.980862632706407
40
0.986252731001247
40
0.990834870800101
40
0.995417879872535
40
1
40
1
40
1
40
1
41
1
10
18.9938073961995
20
-2.56315806627009
30
0
41
1
10
19.0082786109875
20
-2.56315737147304
30
0
41
1
10
19.0372116795354
20
-2.56290561652909
30
0
41
1
10
19.0805851825198
20
-2.5617740423904
30
0
41
1
10
19.1238710213093
20
-2.55989606138026
30
0
41
1
10
19.1670221835948
20
-2.5572753718421
30
0
41
1
10
19.2100034366588
20
-2.5539151852348
30
0
41
1
10
19.2527879164797
20
-2.54982889424777
30
0
41
1
10
19.2953412362237
20
-2.54502841814475
30
0
41
1
10
19.3384696795094
20
-2.53941544230467
30
0
41
1
10
19.3821303823774
20
-2.53294996731486
30
0
41
1
10
19.4262833988105
20
-2.52560012520017
30
0
41
1
10
19.4700645078898
20
-2.51750768520201
30
0
41
1
10
19.5142384870975
20
-2.50852898442472
30
0
41
1
10
19.5587692815869
20
-2.49863113446821
30
0
41
1
10
19.6036261123647
20
-2.48778583813761
30
0
41
1
10
19.6480158004267
20
-2.47618553260108
30
0
41
1
10
19.6919186519402
20
-2.46385107677033
30
0
41
1
10
19.7389295481302
20
-2.44971595444089
30
0
41
1
10
19.7889049422647
20
-2.43357316493349
30
0
41
1
10
19.8416853333463
20
-2.41520783924097
30
0
41
1
10
19.8937120629903
20
-2.39579465993826
30
0
41
1
10
19.9458482343524
20
-2.37501428540556
30
0
41
1
10
19.9980648973332
20
-2.35282424826244
30
0
41
1
10
20.0503300557913
20
-2.3291800623331
30
0
41
1
10
20.1017996147997
20
-2.30446067680865
30
0
41
1
10
20.154202178063
20
-2.27780680827262
30
0
41
1
10
20.2074639628554
20
-2.24909890038415
30
0
41
1
10
20.2614992010126
20
-2.21821201716563
30
0
41
1
10
20.3146168216217
20
-2.18607033297001
30
0
41
1
10
20.3668100226822
20
-2.15269043144709
30
0
41
1
10
20.4180811753573
20
-2.11808294515702
30
0
41
1
10
20.4684441875805
20
-2.08224748520988
30
0
41
1
10
20.5179018492061
20
-2.04518134827046
30
0
41
1
10
20.566449530645
20
-2.00688607371245
30
0
41
1
10
20.6140692921581
20
-1.96737215736625
30
0
41
1
10
20.6615559567419
20
-1.92594164822205
30
0
41
1
10
20.7088520967994
20
-1.88251102375546
30
0
41
1
10
20.7558866941271
20
-1.83699781864042
30
0
41
1
10
20.8018497246728
20
-1.79012735721071
30
0
41
1
10
20.8467047445275
20
-1.74191390148488
30
0
41
1
10
20.8895118059634
20
-1.69339634755673
30
0
41
1
10
20.9303315165836
20
-1.64466566451764
30
0
41
1
10
20.9692236949979
20
-1.59581318795223
30
0
41
1
10
21.0070463070688
20
-1.5457853337754
30
0
41
1
10
21.0437684004992
20
-1.49458774743403
30
0
41
1
10
21.0793599943635
20
-1.4422190730508
30
0
41
1
10
21.1137898786291
20
-1.38868556926979
30
0
41
1
10
21.1470140658304
20
-1.33401115047712
30
0
41
1
10
21.1772408656398
20
-1.28126805316159
30
0
41
1
10
21.2046653888281
20
-1.23066746711006
30
0
41
1
10
21.2294874923307
20
-1.18240146949184
30
0
41
1
10
21.2533661044534
20
-1.13337990365806
30
0
41
1
10
21.276268698201
20
-1.08363264194056
30
0
41
1
10
21.2980751325718
20
-1.03339148277727
30
0
41
1
10
21.3187755417464
20
-0.982676290750932
30
0
41
1
10
21.3383656665572
20
-0.931513568246784
30
0
41
1
10
21.3569069488594
20
-0.879716670296918
30
0
41
1
10
21.3743729591621
20
-0.8273122931098
30
0
41
1
10
21.3907372275259
20
-0.774319069128528
30
0
41
1
10
21.4059805664559
20
-0.720763379753761
30
0
41
1
10
21.4200777612461
20
-0.666688725635884
30
0
41
1
10
21.4332110096321
20
-0.611260670799626
30
0
41
1
10
21.4452876811946
20
-0.554479142009702
30
0
41
1
10
21.456222134285
20
-0.496359158280002
30
0
41
1
10
21.4658061250091
20
-0.43784012152908
30
0
41
1
10
21.4738925524766
20
-0.379874287359272
30
0
41
1
10
21.4805321977551
20
-0.322519965845038
30
0
41
1
10
21.4857919445822
20
-0.265831679382337
30
0
41
1
10
21.4897669440897
20
-0.208966806457972
30
0
41
1
10
21.4924471619941
20
-0.151981161882424
30
0
41
1
10
21.4938209886903
20
-0.094915759220678
30
0
41
1
10
21.4938925050902
20
-0.0378131619758846
30
0
41
1
10
21.4926635023375
20
0.0192671424634871
30
0
41
1
10
21.4900848287647
20
0.0773902434417729
30
0
41
1
10
21.4860625402413
20
0.136507030403033
30
0
41
1
10
21.4805190611369
20
0.196558857696091
30
0
41
1
10
21.4735458810013
20
0.256358569932127
30
0
41
1
10
21.4654781504585
20
0.313557686112988
30
0
41
1
10
21.4565090194604
20
0.368153023228556
30
0
41
1
10
21.446829325484
20
0.420165900767514
30
0
41
1
10
21.436083098468
20
0.471826412178806
30
0
41
1
10
21.4242872115079
20
0.523092865023022
30
0
41
1
10
21.4114543415845
20
0.573938145618303
30
0
41
1
10
21.3976050216435
20
0.624340896496186
30
0
41
1
10
21.3827597941458
20
0.674271504777559
30
0
41
1
10
21.3667037310268
20
0.724433355570767
30
0
41
1
10
21.3494018753753
20
0.774778768846903
30
0
41
1
10
21.3308273401468
20
0.825261544606115
30
0
41
1
10
21.3112561368495
20
0.87512706618878
30
0
41
1
10
21.2904220645915
20
0.925046362897761
30
0
41
1
10
21.2682967540076
20
0.974970603407574
30
0
41
1
10
21.2448584750766
20
1.02485368267035
30
0
41
1
10
21.2204414151435
20
1.07398559057922
30
0
41
1
10
21.1950752786512
20
1.12234201496179
30
0
41
1
10
21.168782217277
20
1.16991211315229
30
0
41
1
10
21.1415860418551
20
1.21669103462202
30
0
41
1
10
21.1135112473127
20
1.26266849074035
30
0
41
1
10
21.0842321654744
20
1.30837943918552
30
0
41
1
10
21.0537321384376
20
1.35378405553518
30
0
41
1
10
21.0219966890826
20
1.39884514689315
30
0
41
1
10
20.9894120057746
20
1.44301612612584
30
0
41
1
10
20.9544964539588
20
1.48823867620287
30
0
41
1
10
20.9171323559803
20
1.53436763087313
30
0
41
1
10
20.8772027291053
20
1.58125008691143
30
0
41
1
10
20.8362773414162
20
1.62697555935744
30
0
41
1
10
20.7943898954507
20
1.67153028365401
30
0
41
1
10
20.7515675212704
20
1.71490656560216
30
0
41
1
10
20.7078238103822
20
1.75711042697332
30
0
41
1
10
20.6631658269535
20
1.7981506083397
30
0
41
1
10
20.6176024766914
20
1.83802920930712
30
0
41
1
10
20.5711554494789
20
1.87673666684629
30
0
41
1
10
20.5230162799435
20
1.91492129057923
30
0
41
1
10
20.4731331140943
20
1.95251655008347
30
0
41
1
10
20.4214445014493
20
1.98945243811437
30
0
41
1
10
20.3687861786866
20
2.02509332043466
30
0
41
1
10
20.3151699437721
20
2.05942493980109
30
0
41
1
10
20.2628464389696
20
2.09107873189535
30
0
41
1
10
20.2119424406099
20
2.12023342649274
30
0
41
1
10
20.1625677962023
20
2.14705895998405
30
0
41
1
10
20.1124303244737
20
2.17285368109298
30
0
41
1
10
20.0615204838244
20
2.19760739528756
30
0
41
1
10
20.0098263887624
20
2.22130917005827
30
0
41
1
10
19.957331128548
20
2.24394414234913
30
0
41
1
10
19.9040341740008
20
2.26548888713506
30
0
41
1
10
19.8530240796128
20
2.28475322855337
30
0
41
1
10
19.8044440280609
20
2.30193094347038
30
0
41
1
10
19.7584247603479
20
2.31720860058068
30
0
41
1
10
19.7118332280739
20
2.33167677055835
30
0
41
1
10
19.664683335258
20
2.34531280912086
30
0
41
1
10
19.6153445180443
20
2.35853505776172
30
0
41
1
10
19.5637462675463
20
2.37121581590353
30
0
41
1
10
19.5098312739149
20
2.38321476095978
30
0
41
1
10
19.4598176730722
20
2.3931883271351
30
0
41
1
10
19.4139006212564
20
2.40141258674514
30
0
41
1
10
19.3722373709026
20
2.40815326969617
30
0
41
1
10
19.3302694483013
20
2.41421775586421
30
0
41
1
10
19.2873954477368
20
2.4196716326758
30
0
41
1
10
19.2436186451917
20
2.42446225948131
30
0
41
1
10
19.1989569897742
20
2.42854252222382
30
0
41
1
10
19.1540896735579
20
2.43183262426133
30
0
41
1
10
19.1113132069072
20
2.43419595622987
30
0
41
1
10
19.0706910228957
20
2.43575731177797
30
0
41
1
10
19.0322623238637
20
2.43664436155579
30
0
41
1
10
19.0066286783769
20
2.43684162596257
30
0
41
1
10
18.9938073961995
20
2.43684193372991
30
0
0
SPLINE
5
AA
100
AcDbEntity
8
1
62
256
6
ByLayer
370
18
48
1
60
0
100
AcDbSpline
70
4
71
3
72
150
73
146
40
0
40
0
40
0
40
0
40
0.0051713715787506
40
0.010345255506116
40
0.0155192132202472
40
0.0206906854659348
40
0.025860760384517
40
0.0310330769042962
40
0.0362055737186793
40
0.0413758945985725
40
0.0468553367179249
40
0.0523369233914636
40
0.0578187703421606
40
0.0632985675207472
40
0.0690776685191941
40
0.0748593441496907
40
0.0806422654149936
40
0.0864246654502684
40
0.0922043742908002
40
0.0994231693619825
40
0.106644362323617
40
0.113865934605161
40
0.12108524709763
40
0.128668504632167
40
0.136253773726518
40
0.143839279947416
40
0.151422860920267
40
0.159779633757141
40
0.168139552431388
40
0.176500701861548
40
0.184860954151991
40
0.193218006902227
40
0.201573737786497
40
0.209932476939256
40
0.218292185622565
40
0.226650853976316
40
0.235006525459435
40
0.243793574390892
40
0.252584507277613
40
0.261376526521229
40
0.270167054467684
40
0.278953763622961
40
0.287189435174323
40
0.295427552049279
40
0.303665493332111
40
0.311900925367641
40
0.320138652316363
40
0.328379257498692
40
0.336619636636637
40
0.344857055233776
40
0.351742507641978
40
0.35863102989782
40
0.365520385586603
40
0.372408541619644
40
0.379293686737608
40
0.386091590652182
40
0.392891737905979
40
0.399691755121285
40
0.406489481651508
40
0.413288713091411
40
0.420090468056256
40
0.426892101725029
40
0.43369116769927
40
0.440817521321288
40
0.447947066054214
40
0.455076497586876
40
0.462202696775327
40
0.469003919921983
40
0.47580808804832
40
0.482612207701476
40
0.489413364719631
40
0.496214854464823
40
0.503019346451647
40
0.509823844668221
40
0.516625342912275
40
0.52382917903419
40
0.53103650341731
40
0.538243904566643
40
0.545447845420243
40
0.55182204286712
40
0.558198513431992
40
0.564575062505612
40
0.570949367047809
40
0.577322662906484
40
0.58369804208148
40
0.590073516678397
40
0.596446942700052
40
0.603104699337484
40
0.60976458146912
40
0.616424583303925
40
0.623082503224526
40
0.630023658311961
40
0.636966924639307
40
0.643910325735277
40
0.650851664653354
40
0.65779148384303
40
0.66473313215191
40
0.671674899192363
40
0.678614880330901
40
0.685807486878803
40
0.693001857736142
40
0.700196341439571
40
0.70738910190581
40
0.715554272367981
40
0.723722684263333
40
0.731892377305889
40
0.740061163047055
40
0.748226647182953
40
0.756389760511617
40
0.764555730767145
40
0.772722745866878
40
0.780888885308537
40
0.789052140585144
40
0.797639868653343
40
0.806230899654105
40
0.814822956410606
40
0.82341383361841
40
0.832001432649545
40
0.839526740970139
40
0.847053717361076
40
0.854580546728797
40
0.862105654518033
40
0.86963317320612
40
0.877162826227195
40
0.884692162509296
40
0.892219249154824
40
0.89845573464698
40
0.904694999986014
40
0.910934786296851
40
0.917173269034478
40
0.923409097865301
40
0.930286713650478
40
0.937165870708049
40
0.944043109780445
40
0.949203167674292
40
0.954365084100819
40
0.959526795518602
40
0.964686573752356
40
0.970076921771467
40
0.975469868759809
40
0.980862632706407
40
0.986252731001247
40
0.990834870800101
40
0.995417879872535
40
1
40
1
40
1
40
1
41
1
10
18.9938073961995
20
2.43684193372991
30
0
41
1
10
18.9793361814115
20
2.43684123893286
30
0
41
1
10
18.9504031128636
20
2.43658948398891
30
0
41
1
10
18.9070296098792
20
2.43545790985022
30
0
41
1
10
18.8637437710897
20
2.43357992884008
30
0
41
1
10
18.8205926088042
20
2.43095923930192
30
0
41
1
10
18.7776113557402
20
2.42759905269462
30
0
41
1
10
18.7348268759193
20
2.42351276170759
30
0
41
1
10
18.6922735561753
20
2.41871228560457
30
0
41
1
10
18.6491451128896
20
2.41309930976449
30
0
41
1
10
18.6054844100216
20
2.40663383477469
30
0
41
1
10
18.5613313935885
20
2.39928399265999
30
0
41
1
10
18.5175502845092
20
2.39119155266183
30
0
41
1
10
18.4733763053015
20
2.38221285188455
30
0
41
1
10
18.4288455108121
20
2.37231500192804
30
0
41
1
10
18.3839886800343
20
2.36146970559743
30
0
41
1
10
18.3395989919723
20
2.3498694000609
30
0
41
1
10
18.2956961404587
20
2.33753494423015
30
0
41
1
10
18.2486852442688
20
2.32339982190071
30
0
41
1
10
18.1987098501343
20
2.30725703239332
30
0
41
1
10
18.1459294590527
20
2.28889170670079
30
0
41
1
10
18.0939027294087
20
2.26947852739808
30
0
41
1
10
18.0417665580466
20
2.24869815286538
30
0
41
1
10
17.9895498950658
20
2.22650811572226
30
0
41
1
10
17.9372847366077
20
2.20286392979292
30
0
41
1
10
17.8858151775993
20
2.17814454426847
30
0
41
1
10
17.833412614336
20
2.15149067573244
30
0
41
1
10
17.7801508295436
20
2.12278276784397
30
0
41
1
10
17.7261155913864
20
2.09189588462545
30
0
41
1
10
17.6729979707773
20
2.05975420042983
30
0
41
1
10
17.6208047697168
20
2.02637429890691
30
0
41
1
10
17.5695336170417
20
1.99176681261684
30
0
41
1
10
17.5191706048185
20
1.95593135266971
30
0
41
1
10
17.4697129431929
20
1.91886521573027
30
0
41
1
10
17.421165261754
20
1.88056994117227
30
0
41
1
10
17.3735455002409
20
1.84105602482606
30
0
41
1
10
17.3260588356571
20
1.79962551568186
30
0
41
1
10
17.2787626955996
20
1.75619489121527
30
0
41
1
10
17.2317280982719
20
1.71068168610024
30
0
41
1
10
17.1857650677261
20
1.66381122467053
30
0
41
1
10
17.1409100478715
20
1.6155977689447
30
0
41
1
10
17.0981029864356
20
1.56708021501655
30
0
41
1
10
17.0572832758154
20
1.51834953197747
30
0
41
1
10
17.0183910974011
20
1.46949705541204
30
0
41
1
10
16.9805684853302
20
1.41946920123522
30
0
41
1
10
16.9438463918998
20
1.36827161489385
30
0
41
1
10
16.9082547980355
20
1.31590294051062
30
0
41
1
10
16.8738249137699
20
1.2623694367296
30
0
41
1
10
16.8406007265686
20
1.20769501793693
30
0
41
1
10
16.8103739267593
20
1.15495192062141
30
0
41
1
10
16.7829494035709
20
1.10435133456988
30
0
41
1
10
16.7581273000683
20
1.05608533695165
30
0
41
1
10
16.7342486879456
20
1.00706377111788
30
0
41
1
10
16.7113460941981
20
0.957316509400378
30
0
41
1
10
16.6895396598272
20
0.90707535023709
30
0
41
1
10
16.6688392506526
20
0.856360158210751
30
0
41
1
10
16.6492491258418
20
0.805197435706604
30
0
41
1
10
16.6307078435397
20
0.753400537756735
30
0
41
1
10
16.6132418332369
20
0.70099616056962
30
0
41
1
10
16.5968775648731
20
0.648002936588346
30
0
41
1
10
16.5816342259431
20
0.594447247213578
30
0
41
1
10
16.5675370311529
20
0.5403725930957
30
0
41
1
10
16.5544037827669
20
0.484944538259443
30
0
41
1
10
16.5423271112044
20
0.428163009469518
30
0
41
1
10
16.531392658114
20
0.37004302573982
30
0
41
1
10
16.5218086673899
20
0.311523988988898
30
0
41
1
10
16.5137222399224
20
0.253558154819091
30
0
41
1
10
16.5070825946439
20
0.196203833304856
30
0
41
1
10
16.5018228478168
20
0.139515546842155
30
0
41
1
10
16.4978478483093
20
0.0826506739177894
30
0
41
1
10
16.4951676304049
20
0.025665029342242
30
0
41
1
10
16.4937938037086
20
-0.0314003733195049
30
0
41
1
10
16.4937222873088
20
-0.0885029705642974
30
0
41
1
10
16.4949512900615
20
-0.145583275003669
30
0
41
1
10
16.4975299636343
20
-0.203706375981956
30
0
41
1
10
16.5015522521577
20
-0.262823162943214
30
0
41
1
10
16.5070957312621
20
-0.322874990236273
30
0
41
1
10
16.5140689113977
20
-0.382674702472308
30
0
41
1
10
16.5221366419405
20
-0.439873818653169
30
0
41
1
10
16.5311057729386
20
-0.494469155768738
30
0
41
1
10
16.540785466915
20
-0.546482033307695
30
0
41
1
10
16.551531693931
20
-0.598142544718986
30
0
41
1
10
16.563327580891
20
-0.649408997563203
30
0
41
1
10
16.5761604508145
20
-0.700254278158484
30
0
41
1
10
16.5900097707555
20
-0.750657029036366
30
0
41
1
10
16.6048549982532
20
-0.80058763731774
30
0
41
1
10
16.6209110613722
20
-0.850749488110947
30
0
41
1
10
16.6382129170237
20
-0.901094901387083
30
0
41
1
10
16.6567874522522
20
-0.951577677146295
30
0
41
1
10
16.6763586555495
20
-1.00144319872896
30
0
41
1
10
16.6971927278075
20
-1.05136249543794
30
0
41
1
10
16.7193180383914
20
-1.10128673594775
30
0
41
1
10
16.7427563173224
20
-1.15116981521053
30
0
41
1
10
16.7671733772555
20
-1.2003017231194
30
0
41
1
10
16.7925395137478
20
-1.24865814750196
30
0
41
1
10
16.818832575122
20
-1.29622824569248
30
0
41
1
10
16.8460287505439
20
-1.34300716716221
30
0
41
1
10
16.8741035450863
20
-1.38898462328052
30
0
41
1
10
16.9033826269246
20
-1.4346955717257
30
0
41
1
10
16.9338826539614
20
-1.48010018807536
30
0
41
1
10
16.9656181033164
20
-1.52516127943333
30
0
41
1
10
16.9982027866244
20
-1.56933225866602
30
0
41
1
10
17.0331183384402
20
-1.61455480874305
30
0
41
1
10
17.0704824364187
20
-1.66068376341331
30
0
41
1
10
17.1104120632937
20
-1.70756621945161
30
0
41
1
10
17.1513374509828
20
-1.75329169189762
30
0
41
1
10
17.1932248969483
20
-1.79784641619419
30
0
41
1
10
17.2360472711286
20
-1.84122269814234
30
0
41
1
10
17.2797909820168
20
-1.8834265595135
30
0
41
1
10
17.3244489654455
20
-1.92446674087987
30
0
41
1
10
17.3700123157076
20
-1.9643453418473
30
0
41
1
10
17.4164593429201
20
-2.00305279938647
30
0
41
1
10
17.4645985124555
20
-2.04123742311941
30
0
41
1
10
17.5144816783047
20
-2.07883268262365
30
0
41
1
10
17.5661702909497
20
-2.11576857065455
30
0
41
1
10
17.6188286137124
20
-2.15140945297484
30
0
41
1
10
17.6724448486269
20
-2.18574107234126
30
0
41
1
10
17.7247683534294
20
-2.21739486443553
30
0
41
1
10
17.7756723517892
20
-2.24654955903292
30
0
41
1
10
17.8250469961967
20
-2.27337509252423
30
0
41
1
10
17.8751844679253
20
-2.29916981363316
30
0
41
1
10
17.9260943085746
20
-2.32392352782774
30
0
41
1
10
17.9777884036365
20
-2.34762530259845
30
0
41
1
10
18.030283663851
20
-2.37026027488931
30
0
41
1
10
18.0835806183982
20
-2.39180501967524
30
0
41
1
10
18.1345907127862
20
-2.41106936109355
30
0
41
1
10
18.1831707643381
20
-2.42824707601056
30
0
41
1
10
18.2291900320511
20
-2.44352473312086
30
0
41
1
10
18.275781564325
20
-2.45799290309853
30
0
41
1
10
18.322931457141
20
-2.47162894166104
30
0
41
1
10
18.3722702743547
20
-2.4848511903019
30
0
41
1
10
18.4238685248527
20
-2.49753194844371
30
0
41
1
10
18.4777835184841
20
-2.50953089349996
30
0
41
1
10
18.5277971193268
20
-2.51950445967528
30
0
41
1
10
18.5737141711426
20
-2.52772871928532
30
0
41
1
10
18.6153774214964
20
-2.53446940223635
30
0
41
1
10
18.6573453440977
20
-2.54053388840439
30
0
41
1
10
18.7002193446622
20
-2.54598776521598
30
0
41
1
10
18.7439961472073
20
-2.55077839202149
30
0
41
1
10
18.7886578026248
20
-2.554858654764
30
0
41
1
10
18.8335251188411
20
-2.55814875680151
30
0
41
1
10
18.8763015854918
20
-2.56051208877004
30
0
41
1
10
18.9169237695033
20
-2.56207344431815
30
0
41
1
10
18.9553524685353
20
-2.56296049409597
30
0
41
1
10
18.9809861140221
20
-2.56315775850275
30
0
41
1
10
18.9938073961995
20
-2.56315806627009
30
0
0
SPLINE
5
AB
100
AcDbEntity
8
1
62
256
6
ByLayer
370
18
48
1
60
0
100
AcDbSpline
70
4
71
3
72
32
73
28
40
0
40
0
40
0
40
0
40
0.0402837892048315
40
0.0806025140517597
40
0.120921338151293
40
0.161205262817904
40
0.202659197349189
40
0.244151089725845
40
0.285642970791323
40
0.327096889884156
40
0.367380428574895
40
0.407698839145221
40
0.448017228726741
40
0.488300738771601
40
0.529755422317721
40
0.571248126494898
40
0.612740849791758
40
0.654195559434073
40
0.696707676097548
40
0.739260745796844
40
0.781813834507352
40
0.824325977120197
40
0.859437731573389
40
0.894584148714965
40
0.929742105468829
40
0.964888371994499
40
1
40
1
40
1
40
1
41
1
10
6.48685911762435
20
-3.06315806627009
30
0
41
1
10
6.47480460531421
20
-3.06315495193628
30
0
41
1
10
6.45042617293472
20
-3.06311348732011
30
0
41
1
10
6.41304479453669
20
-3.06293260550893
30
0
41
1
10
6.37494793692782
20
-3.06267174634354
30
0
41
1
10
6.33582845219308
20
-3.06235218477062
30
0
41
1
10
6.29571816492031
20
-3.06200186680389
30
0
41
1
10
6.25466364306443
20
-3.06164072062547
30
0
41
1
10
6.21313371931341
20
-3.06129224297508
30
0
41
1
10
6.17160964060156
20
-3.06097972097501
30
0
41
1
10
6.13016521991316
20
-3.06072201402746
30
0
41
1
10
6.08887114564964
20
-3.06052438385198
30
0
41
1
10
6.0474132004475
20
-3.06039134575425
30
0
41
1
10
6.00547190400228
20
-3.06032942854411
30
0
41
1
10
5.96310505537419
20
-3.06034890347043
30
0
41
1
10
5.92037915458392
20
-3.06044639592253
30
0
41
1
10
5.87778724915547
20
-3.06061559120955
30
0
41
1
10
5.83506006860509
20
-3.06085265217644
30
0
41
1
10
5.79227213345979
20
-3.06115352183894
30
0
41
1
10
5.7495006572789
20
-3.06149902442568
30
0
41
1
10
5.7071976280935
20
-3.06186598323828
30
0
41
1
10
5.66787872890474
20
-3.0622125964982
30
0
41
1
10
5.63149773578252
20
-3.06252151174911
30
0
41
1
10
5.59796422614683
20
-3.06277814897265
30
0
41
1
10
5.56493862572391
20
-3.06298443779116
30
0
41
1
10
5.53248063798921
20
-3.06312414505159
30
0
41
1
10
5.51126077089934
20
-3.06315602029913
30
0
41
1
10
5.50075567477465
20
-3.06315806627009
30
0
0
SPLINE
5
AC
100
AcDbEntity
8
1
62
256
6
ByLayer
370
18
48
1
60
0
100
AcDbSpline
70
4
71
3
72
32
73
28
40
0
40
0
40
0
40
0
40
0.0402837892048315
40
0.0806025140517567
40
0.12092133815129
40
0.161205262817904
40
0.202659197349189
40
0.244151089725842
40
0.285642970791324
40
0.327096889884156
40
0.367380428574895
40
0.407698839145218
40
0.448017228726738
40
0.488300738771601
40
0.529755422317718
40
0.571248126494898
40
0.612740849791754
40
0.654195559434077
40
0.696707676097556
40
0.739260745796837
40
0.781813834507353
40
0.824325977120197
40
0.85943773157338
40
0.894584148714962
40
0.929742105468825
40
0.964888371994496
40
1
40
1
40
1
40
1
41
1
10
5.50075567477465
20
2.93684193372991
30
0
41
1
10
5.51281018708479
20
2.9368388193961
30
0
41
1
10
5.53718861946428
20
2.93679735477993
30
0
41
1
10
5.57456999786231
20
2.93661647296875
30
0
41
1
10
5.61266685547118
20
2.93635561380336
30
0
41
1
10
5.65178634020591
20
2.93603605223044
30
0
41
1
10
5.69189662747869
20
2.93568573426371
30
0
41
1
10
5.73295114933458
20
2.9353245880853
30
0
41
1
10
5.77448107308558
20
2.9349761104349
30
0
41
1
10
5.81600515179744
20
2.93466358843483
30
0
41
1
10
5.85744957248584
20
2.93440588148728
30
0
41
1
10
5.89874364674935
20
2.93420825131181
30
0
41
1
10
5.9402015919515
20
2.93407521321407
30
0
41
1
10
5.98214288839671
20
2.93401329600393
30
0
41
1
10
6.02450973702481
20
2.93403277093025
30
0
41
1
10
6.06723563781507
20
2.93413026338235
30
0
41
1
10
6.10982754324354
20
2.93429945866937
30
0
41
1
10
6.15255472379391
20
2.93453651963626
30
0
41
1
10
6.19534265893923
20
2.93483738929876
30
0
41
1
10
6.23811413512009
20
2.9351828918855
30
0
41
1
10
6.28041716430551
20
2.9355498506981
30
0
41
1
10
6.31973606349426
20
2.93589646395802
30
0
41
1
10
6.35611705661647
20
2.93620537920893
30
0
41
1
10
6.38965056625216
20
2.93646201643247
30
0
41
1
10
6.42267616667509
20
2.93666830525098
30
0
41
1
10
6.45513415440981
20
2.93680801251141
30
0
41
1
10
6.47635402149962
20
2.93683988775895
30
0
41
1
10
6.48685911762435
20
2.93684193372991
30
0
0
SPLINE
5
AD
100
AcDbEntity
8
1
62
256
6
ByLayer
370
18
48
1
60
0
100
AcDbSpline
70
4
71
3
72
135
73
131
40
0
40
0
40
0
40
0
40
0.0076363045016674
40
0.0154219301638287
40
0.0233560383688244
40
0.0314373252116513
40
0.0396639932949171
40
0.047883037249844
40
0.0562373784024401
40
0.0647237875457765
40
0.0733384961235553
40
0.0811351659802172
40
0.0890272319249533
40
0.0970108891804336
40
0.105081979389006
40
0.113235995296478
40
0.12146808857136
40
0.129773080884459
40
0.138145478330988
40
0.146579489228997
40
0.155069045274706
40
0.16360782597796
40
0.172189286240945
40
0.18080668688158
40
0.189453127841387
40
0.198121583757663
40
0.206804941523211
40
0.215909938139292
40
0.225015185746878
40
0.234112482604997
40
0.243193719791089
40
0.252250931946879
40
0.261276346522262
40
0.270010554759706
40
0.278700951895823
40
0.287341167243597
40
0.295925150061832
40
0.304447197174395
40
0.312751631263529
40
0.320986491391096
40
0.329147467206644
40
0.337230632613126
40
0.345394866635245
40
0.353471059126005
40
0.361456286770546
40
0.369348035588171
40
0.377144188823172
40
0.384843011413152
40
0.392443131490588
40
0.399927265728801
40
0.407311396314414
40
0.414595109514189
40
0.421778258824677
40
0.428860939383827
40
0.435719662068012
40
0.442482245496029
40
0.449149318771531
40
0.455721644513105
40
0.462331328829493
40
0.468844302765759
40
0.47526168011984
40
0.481584639515185
40
0.487814408482602
40
0.493952249350268
40
0.499999446914552
40
0.506033353457867
40
0.512157505445198
40
0.518373179342489
40
0.524681629393497
40
0.531084075434039
40
0.537464829364683
40
0.543938432635588
40
0.550505859465782
40
0.557167990951766
40
0.564064491832008
40
0.571061076827962
40
0.578158253281404
40
0.585356336389014
40
0.592655423664332
40
0.600055369029231
40
0.607555756943523
40
0.615139188764955
40
0.6228208956119
40
0.630599515732773
40
0.638473327424378
40
0.646440230719279
40
0.654353083863848
40
0.662350586219175
40
0.670429609508222
40
0.678586636558862
40
0.686986469455345
40
0.695458891346954
40
0.70399893200087
40
0.712601227876776
40
0.721260041094202
40
0.729969282991865
40
0.738722542027059
40
0.74690817246128
40
0.755120554108578
40
0.763353907529631
40
0.771602316656389
40
0.779859758772719
40
0.788120135449769
40
0.795905689358403
40
0.803683231372305
40
0.811447615498956
40
0.819193732429308
40
0.826916532016179
40
0.835502043092994
40
0.844045566298072
40
0.852540534899805
40
0.860980603736104
40
0.86935967710935
40
0.877671933555856
40
0.885911847346567
40
0.894074206636119
40
0.902154128235042
40
0.910147069033577
40
0.918048834154536
40
0.925855581955901
40
0.933563826041157
40
0.941170434466297
40
0.948672626357037
40
0.956067966168051
40
0.963698558229555
40
0.971207553680393
40
0.978593306144566
40
0.985854533555975
40
0.992990300595341
40
1
40
1
40
1
40
1
41
1
10
-0.0061926038004962
20
1.2725624513794
30
0
41
1
10
-0.0021714590395447
20
1.27925311216864
30
0
41
1
10
0.005993431907779
20
1.29233371784022
30
0
41
1
10
0.0184983434495578
20
1.31082502779363
30
0
41
1
10
0.0313710207011368
20
1.3282954684582
30
0
41
1
10
0.044606422591265
20
1.34466318302901
30
0
41
1
10
0.058113321051863
20
1.35975218154834
30
0
41
1
10
0.0718769579570804
20
1.3735080135743
30
0
41
1
10
0.085881216999713
20
1.38587852766046
30
0
41
1
10
0.100193915537737
20
1.39686519752633
30
0
41
1
10
0.114267725206485
20
1.40604243083298
30
0
41
1
10
0.128063938342102
20
1.41353076799962
30
0
41
1
10
0.14154701332038
20
1.41945611852151
30
0
41
1
10
0.155222780973762
20
1.42404919154747
30
0
41
1
10
0.169075404496368
20
1.42726026463018
30
0
41
1
10
0.183087794078034
20
1.42904201209777
30
0
41
1
10
0.197241660637648
20
1.42934990211635
30
0
41
1
10
0.211517551059441
20
1.42814257369122
30
0
41
1
10
0.225894903720114
20
1.42538221466482
30
0
41
1
10
0.240352113998842
20
1.42103492905322
30
0
41
1
10
0.254866612571398
20
1.41507109073754
30
0
41
1
10
0.269414955603967
20
1.40746567784028
30
0
41
1
10
0.283972926238405
20
1.39819858338526
30
0
41
1
10
0.29851564818161
20
1.38725489534265
30
0
41
1
10
0.313017704933053
20
1.37462514841709
30
0
41
1
10
0.327453284756196
20
1.36030551637478
30
0
41
1
10
0.342024223246614
20
1.34404363495084
30
0
41
1
10
0.356696848764283
20
1.32575367409884
30
0
41
1
10
0.37143441733561
20
1.30535533001
30
0
41
1
10
0.385981700679547
20
1.28315300660925
30
0
41
1
10
0.400309260896574
20
1.25917739267646
30
0
41
1
10
0.414388284800943
20
1.23346628228707
30
0
41
1
10
0.428062361817069
20
1.20631930622428
30
0
41
1
10
0.441313692632992
20
1.17784201934642
30
0
41
1
10
0.454127294283392
20
1.14814250839867
30
0
41
1
10
0.466607884942924
20
1.11700551915973
30
0
41
1
10
0.478734243058948
20
1.08449424361604
30
0
41
1
10
0.49041746790807
20
1.05087528797191
30
0
41
1
10
0.501646631190091
20
1.01624788967174
30
0
41
1
10
0.51241323195374
20
0.980711866683323
30
0
41
1
10
0.522771526676618
20
0.944130511255437
30
0
41
1
10
0.532775544585824
20
0.906329022746199
30
0
41
1
10
0.542405179149196
20
0.867361391073029
30
0
41
1
10
0.551641231844311
20
0.827286503315119
30
0
41
1
10
0.56041021080317
20
0.786455921163761
30
0
41
1
10
0.568706070613487
20
0.7449561552779
30
0
41
1
10
0.576524578129753
20
0.70287365280816
30
0
41
1
10
0.583863267663887
20
0.6602943234118
30
0
41
1
10
0.590716501482078
20
0.617333705246953
30
0
41
1
10
0.59708628432638
20
0.574076669495739
30
0
41
1
10
0.602976220056753
20
0.530605771855559
30
0
41
1
10
0.608394975812526
20
0.486967746463969
30
0
41
1
10
0.61334787385179
20
0.443238939391468
30
0
41
1
10
0.617815348904323
20
0.39974770411664
30
0
41
1
10
0.621813825349239
20
0.356568931703894
30
0
41
1
10
0.625360655142782
20
0.313770724702231
30
0
41
1
10
0.628489745595342
20
0.271148018474815
30
0
41
1
10
0.631229338909446
20
0.228475899316404
30
0
41
1
10
0.63358135400502
20
0.185808659365559
30
0
41
1
10
0.635548564281226
20
0.143200430382921
30
0
41
1
10
0.637127598410125
20
0.100993485627047
30
0
41
1
10
0.638331685733863
20
0.059233693145205
30
0
41
1
10
0.639174432795244
20
0.0179631528706428
30
0
41
1
10
0.639669731820977
20
-0.0227797378124474
30
0
41
1
10
0.639832355295344
20
-0.0631286330995295
30
0
41
1
10
0.639670211253627
20
-0.103447199960881
30
0
41
1
10
0.639177107869848
20
-0.144099380565101
30
0
41
1
10
0.638338132155472
20
-0.185277070279229
30
0
41
1
10
0.637139481814945
20
-0.226942135604972
30
0
41
1
10
0.635577197451969
20
-0.268796624587664
30
0
41
1
10
0.633646083355895
20
-0.310792128695981
30
0
41
1
10
0.631341665767966
20
-0.352879429824785
30
0
41
1
10
0.628641066929234
20
-0.395255875019431
30
0
41
1
10
0.6255118139022
20
-0.438163959709419
30
0
41
1
10
0.621934010901438
20
-0.48154480073139
30
0
41
1
10
0.617888344084339
20
-0.525332196215519
30
0
41
1
10
0.61338934735355
20
-0.569173777704735
30
0
41
1
10
0.608429159223956
20
-0.61299863864802
30
0
41
1
10
0.603001114103005
20
-0.656732801622327
30
0
41
1
10
0.59709984695878
20
-0.70029944250222
30
0
41
1
10
0.590726120609641
20
-0.743587065158219
30
0
41
1
10
0.583878604444802
20
-0.786515571005354
30
0
41
1
10
0.576557503719329
20
-0.829003482269936
30
0
41
1
10
0.568758668689352
20
-0.870997107424006
30
0
41
1
10
0.560484541155777
20
-0.912411095646228
30
0
41
1
10
0.551792236431194
20
-0.952912964636704
30
0
41
1
10
0.542696577398708
20
-0.992436944682219
30
0
41
1
10
0.533213504574004
20
-1.03092101588225
30
0
41
1
10
0.523298219184621
20
-1.06851918660859
30
0
41
1
10
0.512890225907256
20
-1.10540533688948
30
0
41
1
10
0.501993115372191
20
-1.14147370200062
30
0
41
1
10
0.490613026042244
20
-1.17661733668741
30
0
41
1
10
0.478838767342477
20
-1.2105216302141
30
0
41
1
10
0.466688690634943
20
-1.24311424918813
30
0
41
1
10
0.454182695612541
20
-1.27432699710397
30
0
41
1
10
0.441342150301576
20
-1.30409621588078
30
0
41
1
10
0.428492764115045
20
-1.33171200777566
30
0
41
1
10
0.41567870587873
20
-1.35724915692473
30
0
41
1
10
0.402940609177417
20
-1.38078952620062
30
0
41
1
10
0.389993640180712
20
-1.40290813357192
30
0
41
1
10
0.376859167273963
20
-1.42357557432753
30
0
41
1
10
0.363559040934888
20
-1.44276718053762
30
0
41
1
10
0.350371318438018
20
-1.46012634506719
30
0
41
1
10
0.337326045806098
20
-1.47573751253859
30
0
41
1
10
0.324450393577337
20
-1.4896881116589
30
0
41
1
10
0.311504796699282
20
-1.5022827786107
30
0
41
1
10
0.298507981587807
20
-1.51352074991109
30
0
41
1
10
0.284977380820173
20
-1.52378515439035
30
0
41
1
10
0.270927436724687
20
-1.53289665295653
30
0
41
1
10
0.256376964349936
20
-1.54067385084329
30
0
41
1
10
0.241857841246848
20
-1.54680716147434
30
0
41
1
10
0.227393613302976
20
-1.55132109714821
30
0
41
1
10
0.213006940640305
20
-1.55424482425512
30
0
41
1
10
0.198719533121118
20
-1.555611810407
30
0
41
1
10
0.184552063769335
20
-1.55545947808774
30
0
41
1
10
0.170524103408422
20
-1.55382883677182
30
0
41
1
10
0.15665406512483
20
-1.55076410720611
30
0
41
1
10
0.142959161465075
20
-1.54631234028247
30
0
41
1
10
0.1294553731781
20
-1.5405230355036
30
0
41
1
10
0.116157429553152
20
-1.53344776331467
30
0
41
1
10
0.103078798651403
20
-1.52513979403313
30
0
41
1
10
0.0902316906693983
20
-1.51565374067194
30
0
41
1
10
0.07762705937456
20
-1.50504520414233
30
0
41
1
10
0.0650829949494387
20
-1.49318933280555
30
0
41
1
10
0.0526183556295621
20
-1.4800832219941
30
0
41
1
10
0.0402520381449918
20
-1.46572790338551
30
0
41
1
10
0.0281872800136824
20
-1.45039460759267
30
0
41
1
10
0.0164300826887285
20
-1.43414772332409
30
0
41
1
10
0.0049840815145998
20
-1.41705050910085
30
0
41
1
10
-0.0025016021577358
20
-1.40502016931906
30
0
41
1
10
-0.0061926038004998
20
-1.39887858391958
30
0
0
SPLINE
5
AE
100
AcDbEntity
8
1
62
256
6
ByLayer
370
18
48
1
60
0
100
AcDbSpline
70
4
71
3
72
33
73
29
40
0
40
0
40
0
40
0
40
0.0382246196158487
40
0.0764805497054952
40
0.114735412895703
40
0.152958576449548
40
0.192263251185905
40
0.231604136509261
40
0.270944313752462
40
0.310248022032236
40
0.348486596740894
40
0.386759458567289
40
0.425032187883424
40
0.463270581734136
40
0.502661009071797
40
0.542088833024823
40
0.58151692704954
40
0.620907723015958
40
0.658507436252621
40
0.696139009091901
40
0.733770935078081
40
0.771371130285908
40
0.810025857775858
40
0.848714390364007
40
0.887403252485712
40
0.926058429731899
40
0.96302919860998
40
1
40
1
40
1
40
1
41
1
10
4.9938073961995
20
2.80792186992117
30
0
41
1
10
4.99380667949734
20
2.81186704690229
30
0
41
1
10
4.99431968259061
20
2.81957733314918
30
0
41
1
10
4.99662907421115
20
2.83059948005641
30
0
41
1
10
5.00049186804447
20
2.84106020408473
30
0
41
1
10
5.0059713573955
20
2.85103694930354
30
0
41
1
10
5.01314288361564
20
2.8604960006063
30
0
41
1
10
5.02205242839672
20
2.86942193806377
30
0
41
1
10
5.03262581054473
20
2.87772470568129
30
0
41
1
10
5.04474815549684
20
2.88533070463771
30
0
41
1
10
5.05837457782789
20
2.89225836929529
30
0
41
1
10
5.07343012477572
20
2.89854529179371
30
0
41
1
10
5.09001391732414
20
2.90426635262046
30
0
41
1
10
5.10828393749348
20
2.90948351685221
30
0
41
1
10
5.12828581936919
20
2.91418979876728
30
0
41
1
10
5.15003207068348
20
2.91839598994613
30
0
41
1
10
5.17327830475556
20
2.92208069833661
30
0
41
1
10
5.19760636946925
20
2.92521935854492
30
0
41
1
10
5.22291444700746
20
2.92786226875132
30
0
41
1
10
5.24908564900701
20
2.9300662847896
30
0
41
1
10
5.27646254479301
20
2.9319008274446
30
0
41
1
10
5.30526106410973
20
2.93340751006985
30
0
41
1
10
5.33548754549961
20
2.9346046395549
30
0
41
1
10
5.36712507051317
20
2.93551736522372
30
0
41
1
10
5.39983023858395
20
2.93616713625211
30
0
41
1
10
5.43304897025398
20
2.93658103859306
30
0
41
1
10
5.46668305050166
20
2.93679851345773
30
0
41
1
10
5.48930598899939
20
2.93684495334659
30
0
41
1
10
5.50075567477465
20
2.93684193372991
30
0
0
SPLINE
5
AF
100
AcDbEntity
8
1
62
256
6
ByLayer
370
18
48
1
60
0
100
AcDbSpline
70
4
71
3
72
33
73
29
40
0
40
0
40
0
40
0
40
0.0382683076335156
40
0.0765690088004142
40
0.114869464176155
40
0.153137436355787
40
0.19250055185377
40
0.231899660405282
40
0.271298356910538
40
0.310660910012407
40
0.348936374301788
40
0.387245747300373
40
0.425554786162379
40
0.463829794406578
40
0.50325242691253
40
0.542712687659128
40
0.582172878212496
40
0.621595414909015
40
0.659272374569362
40
0.696981918878826
40
0.734691839437595
40
0.772369312607959
40
0.811121112276925
40
0.84990698647252
40
0.888693792704109
40
0.927446864443207
40
0.963723347285745
40
1
40
1
40
1
40
1
41
1
10
6.48685911762434
20
2.93684193372991
30
0
41
1
10
6.4987106379109
20
2.93684530808863
30
0
41
1
10
6.52212697947657
20
2.93679539631859
30
0
41
1
10
6.55639108236483
20
2.93656467515578
30
0
41
1
10
6.58971320773777
20
2.93613531335687
30
0
41
1
10
6.62233981646306
20
2.93547344309251
30
0
41
1
10
6.6541808687071
20
2.93453603895082
30
0
41
1
10
6.68515875446616
20
2.93328007315798
30
0
41
1
10
6.71491267584075
20
2.93168081191525
30
0
41
1
10
6.74311504394498
20
2.92972238528532
30
0
41
1
10
6.7697539420723
20
2.92738027203884
30
0
41
1
10
6.79484474573575
20
2.924640401756
30
0
41
1
10
6.81859008759415
20
2.92145497846265
30
0
41
1
10
6.84116364556641
20
2.91776094082072
30
0
41
1
10
6.86247273484315
20
2.91350864905404
30
0
41
1
10
6.88244791424734
20
2.90866061925523
30
0
41
1
10
6.90084609018003
20
2.9032412818142
30
0
41
1
10
6.91738158116649
20
2.89732061020581
30
0
41
1
10
6.93210504428799
20
2.89090565673418
30
0
41
1
10
6.94510051973192
20
2.88402220892292
30
0
41
1
10
6.95657901942246
20
2.87657012520662
30
0
41
1
10
6.96661994758541
20
2.86846947061811
30
0
41
1
10
6.97515762452191
20
2.8596899954904
30
0
41
1
10
6.98215486464234
20
2.85022033576351
30
0
41
1
10
6.98753800962525
20
2.84015402065069
30
0
41
1
10
6.99122857395853
20
2.82972730831638
30
0
41
1
10
6.99334819196509
20
2.81899019263681
30
0
41
1
10
6.99380882337835
20
2.81166635292897
30
0
41
1
10
6.9938073961995
20
2.80792186992117
30
0
0
SPLINE
5
B0
100
AcDbEntity
8
1
62
256
6
ByLayer
370
18
48
1
60
0
100
AcDbSpline
70
4
71
3
72
33
73
29
40
0
40
0
40
0
40
0
40
0.0382246196158488
40
0.0764805497054951
40
0.114735412895703
40
0.152958576449548
40
0.192263251185905
40
0.23160413650926
40
0.270944313752463
40
0.310248022032236
40
0.348486596740894
40
0.386759458567288
40
0.425032187883424
40
0.463270581734134
40
0.502661009071795
40
0.542088833024821
40
0.581516927049542
40
0.62090772301596
40
0.65850743625262
40
0.696139009091902
40
0.733770935078077
40
0.771371130285904
40
0.810025857775854
40
0.848714390364001
40
0.887403252485714
40
0.926058429731898
40
0.963029198609983
40
1
40
1
40
1
40
1
41
1
10
6.9938073961995
20
-2.93423800246135
30
0
41
1
10
6.99380811290166
20
-2.93818317944247
30
0
41
1
10
6.99329510980839
20
-2.94589346568936
30
0
41
1
10
6.99098571818785
20
-2.95691561259659
30
0
41
1
10
6.98712292435452
20
-2.96737633662491
30
0
41
1
10
6.9816434350035
20
-2.97735308184372
30
0
41
1
10
6.97447190878336
20
-2.98681213314648
30
0
41
1
10
6.96556236400229
20
-2.99573807060395
30
0
41
1
10
6.95498898185426
20
-3.00404083822147
30
0
41
1
10
6.94286663690216
20
-3.01164683717789
30
0
41
1
10
6.92924021457111
20
-3.01857450183547
30
0
41
1
10
6.91418466762329
20
-3.02486142433389
30
0
41
1
10
6.89760087507486
20
-3.03058248516064
30
0
41
1
10
6.87933085490552
20
-3.03579964939239
30
0
41
1
10
6.85932897302981
20
-3.04050593130746
30
0
41
1
10
6.83758272171552
20
-3.04471212248631
30
0
41
1
10
6.81433648764344
20
-3.04839683087678
30
0
41
1
10
6.79000842292974
20
-3.0515354910851
30
0
41
1
10
6.76470034539155
20
-3.0541784012915
30
0
41
1
10
6.73852914339198
20
-3.05638241732978
30
0
41
1
10
6.71115224760599
20
-3.05821695998478
30
0
41
1
10
6.68235372828927
20
-3.05972364261003
30
0
41
1
10
6.6521272468994
20
-3.06092077209507
30
0
41
1
10
6.62048972188583
20
-3.0618334977639
30
0
41
1
10
6.58778455381505
20
-3.06248326879228
30
0
41
1
10
6.55456582214502
20
-3.06289717113324
30
0
41
1
10
6.52093174189735
20
-3.06311464599791
30
0
41
1
10
6.49830880339959
20
-3.06316108588676
30
0
41
1
10
6.48685911762435
20
-3.06315806627009
30
0
0
SPLINE
5
B1
100
AcDbEntity
8
1
62
256
6
ByLayer
370
18
48
1
60
0
100
AcDbSpline
70
4
71
3
72
33
73
29
40
0
40
0
40
0
40
0
40
0.0382683076335127
40
0.076569008800417
40
0.114869464176155
40
0.153137436355787
40
0.19250055185377
40
0.231899660405282
40
0.271298356910536
40
0.310660910012404
40
0.348936374301785
40
0.387245747300369
40
0.425554786162373
40
0.463829794406572
40
0.503252426912528
40
0.542712687659128
40
0.582172878212493
40
0.621595414909015
40
0.659272374569363
40
0.696981918878826
40
0.734691839437594
40
0.772369312607959
40
0.811121112276925
40
0.84990698647252
40
0.888693792704108
40
0.927446864443207
40
0.963723347285745
40
1
40
1
40
1
40
1
41
1
10
5.50075567477466
20
-3.06315806627009
30
0
41
1
10
5.4889041544881
20
-3.06316144062881
30
0
41
1
10
5.46548781292243
20
-3.06311152885877
30
0
41
1
10
5.43122371003416
20
-3.06288080769596
30
0
41
1
10
5.39790158466122
20
-3.06245144589705
30
0
41
1
10
5.36527497593594
20
-3.06178957563269
30
0
41
1
10
5.33343392369191
20
-3.06085217149099
30
0
41
1
10
5.30245603793284
20
-3.05959620569816
30
0
41
1
10
5.27270211655825
20
-3.05799694445543
30
0
41
1
10
5.24449974845403
20
-3.0560385178255
30
0
41
1
10
5.21786085032671
20
-3.05369640457902
30
0
41
1
10
5.19277004666325
20
-3.05095653429617
30
0
41
1
10
5.16902470480487
20
-3.04777111100283
30
0
41
1
10
5.14645114683258
20
-3.0440770733609
30
0
41
1
10
5.12514205755585
20
-3.03982478159422
30
0
41
1
10
5.10516687815166
20
-3.03497675179541
30
0
41
1
10
5.08676870221897
20
-3.02955741435438
30
0
41
1
10
5.07023321123252
20
-3.02363674274599
30
0
41
1
10
5.05550974811099
20
-3.01722178927436
30
0
41
1
10
5.04251427266707
20
-3.0103383414631
30
0
41
1
10
5.03103577297654
20
-3.0028862577468
30
0
41
1
10
5.0209948448136
20
-2.99478560315829
30
0
41
1
10
5.01245716787708
20
-2.98600612803058
30
0
41
1
10
5.00545992775666
20
-2.97653646830369
30
0
41
1
10
5.00007678277376
20
-2.96647015319087
30
0
41
1
10
4.99638621844047
20
-2.95604344085656
30
0
41
1
10
4.99426660043391
20
-2.94530632517699
30
0
41
1
10
4.99380596902065
20
-2.93798248546914
30
0
41
1
10
4.9938073961995
20
-2.93423800246135
30
0
0
SPLINE
5
B2
100
AcDbEntity
8
1
62
256
6
ByLayer
370
18
48
1
60
0
100
AcDbSpline
70
4
71
3
72
92
73
88
40
0
40
0
40
0
40
0
40
0.0110187729822053
40
0.0220475474153727
40
0.033080069248731
40
0.0441095964432725
40
0.0551290013502308
40
0.0664870604103961
40
0.0778548942085601
40
0.0892264081990395
40
0.100595012512795
40
0.1119537183715
40
0.125716350299257
40
0.139489626560748
40
0.153263283231186
40
0.167026434296999
40
0.181134661346192
40
0.195253757327558
40
0.209372910743088
40
0.223481216171876
40
0.235306384184877
40
0.247141582994345
40
0.258979795447384
40
0.270814332517325
40
0.282638945054678
40
0.294833026021845
40
0.30704012062575
40
0.319250555057886
40
0.331455692637508
40
0.343648130498791
40
0.35483277651734
40
0.366025543302737
40
0.377217520271791
40
0.38840108847216
40
0.399883864735857
40
0.411377480821897
40
0.422870094450073
40
0.434351502413471
40
0.445554042310071
40
0.456768491188511
40
0.46798230090429
40
0.479183968279785
40
0.490806034821223
40
0.502442327072623
40
0.514078666559366
40
0.52570079759143
40
0.535616251238046
40
0.545540071179771
40
0.555464300554155
40
0.565380312984901
40
0.575559655111392
40
0.585746883432101
40
0.595934730418925
40
0.606114916825236
40
0.616552394007038
40
0.626996923331328
40
0.637442076876409
40
0.647880405834205
40
0.658532192837017
40
0.669190171544142
40
0.679848639390347
40
0.69050109378312
40
0.702965378080892
40
0.715438097097361
40
0.727911334280667
40
0.740376325642376
40
0.753106616428389
40
0.765845029428956
40
0.778583627896904
40
0.791314171753669
40
0.80582582721348
40
0.820349342050275
40
0.834872664408922
40
0.849384057183396
40
0.861318441465743
40
0.8732635313704
40
0.885211818426422
40
0.897156168903476
40
0.909089932467494
40
0.920338048201087
40
0.931592678784886
40
0.942847031150417
40
0.954094767274008
40
0.965567468199974
40
0.977047753795198
40
0.988527726299959
40
1
40
1
40
1
40
1
41
1
10
4.9938073961995
20
-2.93423800246135
30
0
41
1
10
4.99380987568134
20
-2.93068564101909
30
0
41
1
10
4.99422105971467
20
-2.92343990257828
30
0
41
1
10
4.99606720052536
20
-2.91214592914117
30
0
41
1
10
4.99911531809229
20
-2.90045187029155
30
0
41
1
10
5.00334864441587
20
-2.8883799545398
30
0
41
1
10
5.00880610161648
20
-2.87582100105044
30
0
41
1
10
5.01551846594465
20
-2.86277278615763
30
0
41
1
10
5.02350246666989
20
-2.84924504305475
30
0
41
1
10
5.03266707692553
20
-2.83539528368162
30
0
41
1
10
5.0429849918995
20
-2.82125620637551
30
0
41
1
10
5.0552427639315
20
-2.80583735367395
30
0
41
1
10
5.06972005641206
20
-2.78909133466148
30
0
41
1
10
5.08669296176542
20
-2.77099947835381
30
0
41
1
10
5.10522581403351
20
-2.75265280200063
30
0
41
1
10
5.12544779051704
20
-2.73395176895046
30
0
41
1
10
5.14737912852755
20
-2.71493675059497
30
0
41
1
10
5.17103196998155
20
-2.69566347798112
30
0
41
1
10
5.19618864010353
20
-2.6763569355372
30
0
41
1
10
5.2213783093049
20
-2.65812477802775
30
0
41
1
10
5.24632049727101
20
-2.64101035304655
30
0
41
1
10
5.27076647029356
20
-2.62503507792938
30
0
41
1
10
5.29620689110434
20
-2.6092108060854
30
0
41
1
10
5.32261372627627
20
-2.59359167851367
30
0
41
1
10
5.35025523834932
20
-2.57806485405685
30
0
41
1
10
5.37916801853304
20
-2.56268225868853
30
0
41
1
10
5.40938018094109
20
-2.54750811762834
30
0
41
1
10
5.44057481397486
20
-2.53276123501188
30
0
41
1
10
5.47271150022774
20
-2.51851408383337
30
0
41
1
10
5.50485631614968
20
-2.50520827825884
30
0
41
1
10
5.53691307259347
20
-2.49284909116808
30
0
41
1
10
5.56878523516199
20
-2.48142733404207
30
0
41
1
10
5.60137299110395
20
-2.47063926320005
30
0
41
1
10
5.63493589462135
20
-2.46045292523433
30
0
41
1
10
5.66947678002278
20
-2.45095108578123
30
0
41
1
10
5.70497548144348
20
-2.44220952637305
30
0
41
1
10
5.74106639949036
20
-2.43436876043174
30
0
41
1
10
5.77738690157558
20
-2.42754455653349
30
0
41
1
10
5.8138780133868
20
-2.42177197838979
30
0
41
1
10
5.85046664018937
20
-2.41705097289444
30
0
41
1
10
5.88736722056883
20
-2.41336679860063
30
0
41
1
10
5.92495601353564
20
-2.41072242246087
30
0
41
1
10
5.96317777969865
20
-2.40920810347042
30
0
41
1
10
6.00195563485021
20
-2.4088666151087
30
0
41
1
10
6.04071359054196
20
-2.40971144000332
30
0
41
1
10
6.07745252202813
20
-2.41164381951055
30
0
41
1
10
6.11211796068114
20
-2.41446912817768
30
0
41
1
10
6.14470691941844
20
-2.41797437711672
30
0
41
1
10
6.17703911440177
20
-2.4222877541012
30
0
41
1
10
6.20933920562829
20
-2.42743013177496
30
0
41
1
10
6.24155542043188
20
-2.4334046278741
30
0
41
1
10
6.27364388833242
20
-2.44019215832121
30
0
41
1
10
6.30527708403199
20
-2.44769935860179
30
0
41
1
10
6.33667175958517
20
-2.45595549453058
30
0
41
1
10
6.36778357810789
20
-2.46494443620621
30
0
41
1
10
6.39857784814568
20
-2.47463740650679
30
0
41
1
10
6.42876449067218
20
-2.48491228009714
30
0
41
1
10
6.45851433919684
20
-2.49579648339592
30
0
41
1
10
6.48779493977604
20
-2.5072609841549
30
0
41
1
10
6.51658123709035
20
-2.51927249884954
30
0
41
1
10
6.54465528391486
20
-2.53170741343713
30
0
41
1
10
6.57354683839653
20
-2.545246509822
30
0
41
1
10
6.60309522608917
20
-2.55992170087115
30
0
41
1
10
6.63312330679462
20
-2.57574674338623
30
0
41
1
10
6.66210365877648
20
-2.59191101511732
30
0
41
1
10
6.69021112290667
20
-2.60846868296146
30
0
41
1
10
6.71740677127343
20
-2.6253711610104
30
0
41
1
10
6.74365342672274
20
-2.64257304368149
30
0
41
1
10
6.76873739805167
20
-2.65989946380998
30
0
41
1
10
6.79374858311174
20
-2.67810523985033
30
0
41
1
10
6.81846783383416
20
-2.69714663330897
30
0
41
1
10
6.8426534192664
20
-2.71696317180586
30
0
41
1
10
6.86521131650442
20
-2.73667155522342
30
0
41
1
10
6.8848627305807
20
-2.75504436339034
30
0
41
1
10
6.90190303560187
20
-2.77206450718215
30
0
41
1
10
6.91662901336739
20
-2.78775276772183
30
0
41
1
10
6.93016059606019
20
-2.8032187487568
30
0
41
1
10
6.94246544280995
20
-2.81842146336856
30
0
41
1
10
6.95330465167583
20
-2.83304124165789
30
0
41
1
10
6.9627363569812
20
-2.84707019973836
30
0
41
1
10
6.97082949272757
20
-2.86051341307028
30
0
41
1
10
6.97774995096713
20
-2.87362508367516
30
0
41
1
10
6.98351288302014
20
-2.88646465283624
30
0
41
1
10
6.98806511016243
20
-2.89900121590189
30
0
41
1
10
6.99136268706082
20
-2.91121026040891
30
0
41
1
10
6.99335990770589
20
-2.92299076060243
30
0
41
1
10
6.99380481226361
20
-2.93053937993265
30
0
41
1
10
6.9938073961995
20
-2.93423800246135
30
0
0
SPLINE
5
B3
100
AcDbEntity
8
1
62
256
6
ByLayer
370
18
48
1
60
0
100
AcDbSpline
70
4
71
3
72
92
73
88
40
0
40
0
40
0
40
0
40
0.0110187729822053
40
0.0220475474153727
40
0.033080069248731
40
0.0441095964432725
40
0.0551290013502306
40
0.0664870604103965
40
0.0778548942085599
40
0.0892264081990395
40
0.100595012512795
40
0.1119537183715
40
0.125716350299257
40
0.139489626560747
40
0.153263283231185
40
0.167026434296998
40
0.181134661346191
40
0.195253757327558
40
0.209372910743088
40
0.223481216171875
40
0.235306384184879
40
0.247141582994346
40
0.258979795447384
40
0.270814332517325
40
0.282638945054677
40
0.294833026021846
40
0.307040120625749
40
0.319250555057886
40
0.331455692637507
40
0.34364813049879
40
0.354832776517339
40
0.366025543302738
40
0.377217520271791
40
0.38840108847216
40
0.399883864735857
40
0.411377480821897
40
0.422870094450073
40
0.43435150241347
40
0.445554042310071
40
0.45676849118851
40
0.46798230090429
40
0.479183968279785
40
0.490806034821223
40
0.502442327072622
40
0.514078666559366
40
0.52570079759143
40
0.535616251238046
40
0.54554007117977
40
0.555464300554154
40
0.565380312984901
40
0.575559655111391
40
0.5857468834321
40
0.595934730418923
40
0.606114916825236
40
0.616552394007037
40
0.626996923331327
40
0.637442076876409
40
0.647880405834205
40
0.658532192837016
40
0.669190171544142
40
0.679848639390347
40
0.690501093783119
40
0.702965378080892
40
0.715438097097359
40
0.727911334280666
40
0.740376325642376
40
0.753106616428388
40
0.765845029428956
40
0.778583627896904
40
0.791314171753669
40
0.805825827213479
40
0.820349342050274
40
0.834872664408921
40
0.849384057183395
40
0.861318441465743
40
0.873263531370399
40
0.885211818426421
40
0.897156168903476
40
0.909089932467494
40
0.920338048201086
40
0.931592678784886
40
0.942847031150417
40
0.954094767274008
40
0.965567468199973
40
0.977047753795198
40
0.988527726299959
40
1
40
1
40
1
40
1
41
1
10
6.9938073961995
20
2.80792186992117
30
0
41
1
10
6.99380491671765
20
2.80436950847891
30
0
41
1
10
6.99339373268432
20
2.7971237700381
30
0
41
1
10
6.99154759187364
20
2.78582979660099
30
0
41
1
10
6.98849947430671
20
2.77413573775137
30
0
41
1
10
6.98426614798312
20
2.76206382199962
30
0
41
1
10
6.97880869078253
20
2.74950486851026
30
0
41
1
10
6.97209632645433
20
2.73645665361745
30
0
41
1
10
6.96411232572912
20
2.72292891051457
30
0
41
1
10
6.95494771547346
20
2.70907915114144
30
0
41
1
10
6.9446298004995
20
2.69494007383533
30
0
41
1
10
6.9323720284675
20
2.67952122113376
30
0
41
1
10
6.91789473598693
20
2.6627752021213
30
0
41
1
10
6.9009218306336
20
2.64468334581363
30
0
41
1
10
6.88238897836549
20
2.62633666946045
30
0
41
1
10
6.86216700188195
20
2.60763563641029
30
0
41
1
10
6.84023566387147
20
2.58862061805479
30
0
41
1
10
6.81658282241744
20
2.56934734544094
30
0
41
1
10
6.79142615229547
20
2.55004080299702
30
0
41
1
10
6.76623648309411
20
2.53180864548757
30
0
41
1
10
6.74129429512797
20
2.51469422050637
30
0
41
1
10
6.71684832210544
20
2.4987189453892
30
0
41
1
10
6.69140790129465
20
2.48289467354522
30
0
41
1
10
6.66500106612272
20
2.46727554597349
30
0
41
1
10
6.63735955404968
20
2.45174872151667
30
0
41
1
10
6.60844677386595
20
2.43636612614836
30
0
41
1
10
6.57823461145792
20
2.42119198508815
30
0
41
1
10
6.54703997842413
20
2.4064451024717
30
0
41
1
10
6.51490329217127
20
2.39219795129319
30
0
41
1
10
6.48275847624932
20
2.37889214571866
30
0
41
1
10
6.45070171980553
20
2.3665329586279
30
0
41
1
10
6.41882955723701
20
2.35511120150189
30
0
41
1
10
6.38624180129505
20
2.34432313065988
30
0
41
1
10
6.35267889777765
20
2.33413679269415
30
0
41
1
10
6.31813801237622
20
2.32463495324106
30
0
41
1
10
6.28263931095551
20
2.31589339383287
30
0
41
1
10
6.24654839290863
20
2.30805262789156
30
0
41
1
10
6.21022789082343
20
2.30122842399331
30
0
41
1
10
6.17373677901218
20
2.29545584584961
30
0
41
1
10
6.13714815220964
20
2.29073484035426
30
0
41
1
10
6.10024757183018
20
2.28705066606045
30
0
41
1
10
6.06265877886336
20
2.28440628992069
30
0
41
1
10
6.02443701270036
20
2.28289197093024
30
0
41
1
10
5.98565915754879
20
2.28255048256852
30
0
41
1
10
5.94690120185704
20
2.28339530746314
30
0
41
1
10
5.91016227037087
20
2.28532768697037
30
0
41
1
10
5.87549683171786
20
2.2881529956375
30
0
41
1
10
5.84290787298057
20
2.29165824457654
30
0
41
1
10
5.81057567799722
20
2.29597162156102
30
0
41
1
10
5.77827558677072
20
2.30111399923479
30
0
41
1
10
5.74605937196712
20
2.30708849533392
30
0
41
1
10
5.71397090406658
20
2.31387602578103
30
0
41
1
10
5.682337708367
20
2.32138322606161
30
0
41
1
10
5.65094303281384
20
2.3296393619904
30
0
41
1
10
5.61983121429111
20
2.33862830366603
30
0
41
1
10
5.58903694425332
20
2.34832127396661
30
0
41
1
10
5.55885030172683
20
2.35859614755696
30
0
41
1
10
5.52910045320217
20
2.36948035085574
30
0
41
1
10
5.49981985262297
20
2.38094485161472
30
0
41
1
10
5.47103355530865
20
2.39295636630936
30
0
41
1
10
5.44295950848414
20
2.40539128089695
30
0
41
1
10
5.41406795400246
20
2.41893037728182
30
0
41
1
10
5.38451956630983
20
2.43360556833097
30
0
41
1
10
5.35449148560439
20
2.44943061084606
30
0
41
1
10
5.32551113362251
20
2.46559488257713
30
0
41
1
10
5.29740366949234
20
2.48215255042129
30
0
41
1
10
5.27020802112556
20
2.49905502847022
30
0
41
1
10
5.24396136567626
20
2.51625691114131
30
0
41
1
10
5.21887739434732
20
2.5335833312698
30
0
41
1
10
5.19386620928725
20
2.55178910731015
30
0
41
1
10
5.16914695856486
20
2.57083050076879
30
0
41
1
10
5.1449613731326
20
2.59064703926568
30
0
41
1
10
5.12240347589458
20
2.61035542268323
30
0
41
1
10
5.1027520618183
20
2.62872823085017
30
0
41
1
10
5.08571175679712
20
2.64574837464197
30
0
41
1
10
5.07098577903162
20
2.66143663518165
30
0
41
1
10
5.0574541963388
20
2.67690261621662
30
0
41
1
10
5.04514934958905
20
2.69210533082838
30
0
41
1
10
5.03431014072318
20
2.7067251091177
30
0
41
1
10
5.02487843541779
20
2.72075406719818
30
0
41
1
10
5.01678529967142
20
2.73419728053009
30
0
41
1
10
5.00986484143187
20
2.74730895113498
30
0
41
1
10
5.00410190937886
20
2.76014852029606
30
0
41
1
10
4.99954968223658
20
2.77268508336171
30
0
41
1
10
4.99625210533817
20
2.78489412786872
30
0
41
1
10
4.99425488469313
20
2.79667462806226
30
0
41
1
10
4.99380998013539
20
2.80422324739245
30
0
41
1
10
4.9938073961995
20
2.80792186992117
30
0
0
LINE
5
70
100
AcDbEntity
8
SK1
62
256
6
ByLayer
370
18
48
1
60
0
100
AcDbLine
10
-73.206193
20
-6.063158
30
0
11
23.493807
21
-6.063158
31
0
39
0
210
0
220
0
230
1
0
LINE
5
72
100
AcDbEntity
8
SK1
62
256
6
ByLayer
370
18
48
1
60
0
100
AcDbLine
10
-74.006193
20
-5.263158
30
0
11
-74.006193
21
5.136842
31
0
39
0
210
0
220
0
230
1
0
LINE
5
73
100
AcDbEntity
8
1
62
256
6
ByLayer
370
18
48
1
60
0
100
AcDbLine
10
24.293807
20
5.136842
30
0
11
25.193807
21
4.236842
31
0
39
0
210
0
220
0
230
1
0
LINE
5
75
100
AcDbEntity
8
SK1
62
256
6
ByLayer
370
18
48
1
60
0
100
AcDbLine
10
-73.206193
20
5.136842
30
0
11
0
21
5.136842
31
0
39
0
210
0
220
0
230
1
0
LINE
5
76
100
AcDbEntity
8
1
62
256
6
ByLayer
370
18
48
1
60
0
100
AcDbLine
10
2.673299
20
3.936842
30
0
11
2.673299
21
-4.063158
31
0
39
0
210
0
220
0
230
1
0
LINE
5
77
100
AcDbEntity
8
1
62
256
6
ByLayer
370
18
48
1
60
0
100
AcDbLine
10
2.673299
20
-4.063158
30
0
11
2.137401
21
-6.063158
31
0
39
0
210
0
220
0
230
1
0
LINE
5
78
100
AcDbEntity
8
1
62
256
6
ByLayer
370
18
48
1
60
0
100
AcDbLine
10
-0.006193
20
-5.263158
30
0
11
-0.220552
21
-6.063158
31
0
39
0
210
0
220
0
230
1
0
LINE
5
79
100
AcDbEntity
8
1
62
256
6
ByLayer
370
18
48
1
60
0
100
AcDbLine
10
23.493807
20
5.936842
30
0
11
0
21
5.936842
31
0
39
0
210
0
220
0
230
1
0
LINE
5
7A
100
AcDbEntity
8
1
62
256
6
ByLayer
370
18
48
1
60
0
100
AcDbLine
10
-0.006193
20
-1.398879
30
0
11
-0.006193
21
-5.263158
31
0
39
0
210
0
220
0
230
1
0
LINE
5
7B
100
AcDbEntity
8
1
62
256
6
ByLayer
370
18
48
1
60
0
100
AcDbLine
10
2.137401
20
5.936842
30
0
11
2.673299
21
3.936842
31
0
39
0
210
0
220
0
230
1
0
LINE
5
7C
100
AcDbEntity
8
1
62
256
6
ByLayer
370
18
48
1
60
0
100
AcDbLine
10
2.673299
20
3.936842
30
0
11
22.993807
21
3.936842
31
0
39
0
210
0
220
0
230
1
0
LINE
5
7D
100
AcDbEntity
8
1
62
256
6
ByLayer
370
18
48
1
60
0
100
AcDbLine
10
2.673299
20
-4.063158
30
0
11
22.993807
21
-4.063158
31
0
39
0
210
0
220
0
230
1
0
LINE
5
7E
100
AcDbEntity
8
1
62
256
6
ByLayer
370
18
48
1
60
0
100
AcDbLine
10
24.243807
20
-5.313158
30
0
11
22.993807
21
-4.063158
31
0
39
0
210
0
220
0
230
1
0
LINE
5
7F
100
AcDbEntity
8
1
62
256
6
ByLayer
370
18
48
1
60
0
100
AcDbLine
10
25.993807
20
3.436842
30
0
11
24.243807
21
5.186842
31
0
39
0
210
0
220
0
230
1
0
LINE
5
80
100
AcDbEntity
8
1
62
256
6
ByLayer
370
18
48
1
60
0
100
AcDbLine
10
22.993807
20
3.936842
30
0
11
24.243807
21
5.186842
31
0
39
0
210
0
220
0
230
1
0
LINE
5
81
100
AcDbEntity
8
1
62
256
6
ByLayer
370
18
48
1
60
0
100
AcDbLine
10
22.993807
20
3.936842
30
0
11
22.993807
21
-4.063158
31
0
39
0
210
0
220
0
230
1
0
LINE
5
82
100
AcDbEntity
8
1
62
256
6
ByLayer
370
18
48
1
60
0
100
AcDbLine
10
25.193807
20
-4.363158
30
0
11
24.293807
21
-5.263158
31
0
39
0
210
0
220
0
230
1
0
LINE
5
83
100
AcDbEntity
8
SK1
62
256
6
ByLayer
370
18
48
1
60
0
100
AcDbLine
10
24.293807
20
-5.263158
30
0
11
-73.206193
21
-5.263158
31
0
39
0
210
0
220
0
230
1
0
LINE
5
84
100
AcDbEntity
8
1
62
256
6
ByLayer
370
18
48
1
60
0
100
AcDbLine
10
25.193807
20
4.236842
30
0
11
25.193807
21
-4.363158
31
0
39
0
210
0
220
0
230
1
0
LINE
5
85
100
AcDbEntity
8
1
62
256
6
ByLayer
370
18
48
1
60
0
100
AcDbLine
10
6.993807
20
-6.063158
30
0
11
6.993807
21
-2.934238
31
0
39
0
210
0
220
0
230
1
0
LINE
5
86
100
AcDbEntity
8
1
62
256
6
ByLayer
370
18
48
1
60
0
100
AcDbLine
10
4.993807
20
2.807922
30
0
11
4.993807
21
5.936842
31
0
39
0
210
0
220
0
230
1
0
LINE
5
87
100
AcDbEntity
8
1
62
256
6
ByLayer
370
18
48
1
60
0
100
AcDbLine
10
6.993807
20
2.807922
30
0
11
6.993807
21
5.936842
31
0
39
0
210
0
220
0
230
1
0
LINE
5
88
100
AcDbEntity
8
1
62
256
6
ByLayer
370
18
48
1
60
0
100
AcDbLine
10
-0.006193
20
5.136842
30
0
11
-0.006193
21
1.272562
31
0
39
0
210
0
220
0
230
1
0
LINE
5
89
100
AcDbEntity
8
1
62
256
6
ByLayer
370
18
48
1
60
0
100
AcDbLine
10
-0.006193
20
-1.398879
30
0
11
-0.808774
21
-0.063158
31
0
39
0
210
0
220
0
230
1
0
LINE
5
8A
100
AcDbEntity
8
1
62
256
6
ByLayer
370
18
48
1
60
0
100
AcDbLine
10
18.993807
20
2.436842
30
0
11
18.993807
21
3.061842
31
0
39
0
210
0
220
0
230
1
0
LINE
5
8B
100
AcDbEntity
8
1
62
256
6
ByLayer
370
18
48
1
60
0
100
AcDbLine
10
-0.220552
20
5.936842
30
0
11
-0.006193
21
5.136842
31
0
39
0
210
0
220
0
230
1
0
LINE
5
8C
100
AcDbEntity
8
1
62
256
6
ByLayer
370
18
48
1
60
0
100
AcDbLine
10
0.993807
20
2.936842
30
0
11
5.500756
21
2.936842
31
0
39
0
210
0
220
0
230
1
0
LINE
5
8D
100
AcDbEntity
8
1
62
256
6
ByLayer
370
18
48
1
60
0
100
AcDbLine
10
-0.808774
20
-0.063158
30
0
11
-0.006193
21
1.272562
31
0
39
0
210
0
220
0
230
1
0
LINE
5
8E
100
AcDbEntity
8
1
62
256
6
ByLayer
370
18
48
1
60
0
100
AcDbLine
10
0.993807
20
-3.063158
30
0
11
5.500756
21
-3.063158
31
0
39
0
210
0
220
0
230
1
0
LINE
5
8F
100
AcDbEntity
8
1
62
256
6
ByLayer
370
18
48
1
60
0
100
AcDbLine
10
6.486859
20
2.936842
30
0
11
25.993807
21
2.936842
31
0
39
0
210
0
220
0
230
1
0
LINE
5
90
100
AcDbEntity
8
1
62
256
6
ByLayer
370
18
48
1
60
0
100
AcDbLine
10
-0.006193
20
1.272562
30
0
11
0.993807
21
2.936842
31
0
39
0
210
0
220
0
230
1
0
LINE
5
91
100
AcDbEntity
8
1
62
256
6
ByLayer
370
18
48
1
60
0
100
AcDbLine
10
0.993807
20
-3.063158
30
0
11
0.993807
21
2.936842
31
0
39
0
210
0
220
0
230
1
0
LINE
5
92
100
AcDbEntity
8
1
62
256
6
ByLayer
370
18
48
1
60
0
100
AcDbLine
10
4.993807
20
-6.063158
30
0
11
4.993807
21
-2.934238
31
0
39
0
210
0
220
0
230
1
0
LINE
5
93
100
AcDbEntity
8
1
62
256
6
ByLayer
370
18
48
1
60
0
100
AcDbLine
10
6.486859
20
-3.063158
30
0
11
25.993807
21
-3.063158
31
0
39
0
210
0
220
0
230
1
0
LINE
5
94
100
AcDbEntity
8
1
62
256
6
ByLayer
370
18
48
1
60
0
100
AcDbLine
10
-0.006193
20
-1.398879
30
0
11
0.993807
21
-3.063158
31
0
39
0
210
0
220
0
230
1
0
LINE
5
95
100
AcDbEntity
8
1
62
256
6
ByLayer
370
18
48
1
60
0
100
AcDbLine
10
18.993807
20
-2.563158
30
0
11
18.993807
21
-3.188158
31
0
39
0
210
0
220
0
230
1
0
LINE
5
96
100
AcDbEntity
8
SK1
62
256
6
ByLayer
370
18
48
1
60
0
100
AcDbLine
10
-74.006193
20
-5.263158
30
0
11
-73.206193
21
-6.063158
31
0
39
0
210
0
220
0
230
1
0
LINE
5
97
100
AcDbEntity
8
SK1
62
256
6
ByLayer
370
18
48
1
60
0
100
AcDbLine
10
-74.006193
20
-5.263158
30
0
11
-73.206193
21
-5.263158
31
0
39
0
210
0
220
0
230
1
0
LINE
5
98
100
AcDbEntity
8
SK1
62
256
6
ByLayer
370
18
48
1
60
0
100
AcDbLine
10
-73.206193
20
-5.263158
30
0
11
-73.206193
21
-6.063158
31
0
39
0
210
0
220
0
230
1
0
LINE
5
99
100
AcDbEntity
8
SK1
62
256
6
ByLayer
370
18
48
1
60
0
100
AcDbLine
10
-74.006193
20
5.136842
30
0
11
-73.206193
21
5.136842
31
0
39
0
210
0
220
0
230
1
0
LINE
5
9A
100
AcDbEntity
8
SK1
62
256
6
ByLayer
370
18
48
1
60
0
100
AcDbLine
10
-73.206193
20
5.936842
30
0
11
-74.006193
21
5.136842
31
0
39
0
210
0
220
0
230
1
0
LINE
5
9B
100
AcDbEntity
8
SK1
62
256
6
ByLayer
370
18
48
1
60
0
100
AcDbLine
10
-73.206193
20
5.936842
30
0
11
-73.206193
21
5.136842
31
0
39
0
210
0
220
0
230
1
0
LINE
5
9C
100
AcDbEntity
8
1
62
256
6
ByLayer
370
18
48
1
60
0
100
AcDbLine
10
25.193807
20
-4.363158
30
0
11
25.993807
21
-3.563158
31
0
39
0
210
0
220
0
230
1
0
LINE
5
9D
100
AcDbEntity
8
1
62
256
6
ByLayer
370
18
48
1
60
0
100
AcDbLine
10
23.493807
20
-6.063158
30
0
11
24.293807
21
-5.263158
31
0
39
0
210
0
220
0
230
1
0
LINE
5
9E
100
AcDbEntity
8
1
62
256
6
ByLayer
370
18
48
1
60
0
100
AcDbLine
10
25.993807
20
-3.563158
30
0
11
25.993807
21
3.436842
31
0
39
0
210
0
220
0
230
1
0
LINE
5
9F
100
AcDbEntity
8
SK1
62
256
6
ByLayer
370
18
48
1
60
0
100
AcDbLine
10
-73.206193
20
5.136842
30
0
11
-73.206193
21
-5.263158
31
0
39
0
210
0
220
0
230
1
0
LINE
5
A0
100
AcDbEntity
8
1
62
256
6
ByLayer
370
18
48
1
60
0
100
AcDbLine
10
24.243807
20
5.186842
30
0
11
23.493807
21
5.936842
31
0
39
0
210
0
220
0
230
1
0
LINE
5
A1
100
AcDbEntity
8
80
62
256
6
ByLayer
370
18
48
1
60
0
100
AcDbLine
10
0
20
0
30
0
11
-10
21
0
31
0
39
0
210
0
220
0
230
1
0
LINE
5
A2
100
AcDbEntity
8
81
62
256
6
ByLayer
370
18
48
1
60
0
100
AcDbLine
10
25.993807
20
-0.063158
30
0
11
35.993807
21
-0.063158
31
0
39
0
210
0
220
0
230
1
0
LINE
5
A3
100
AcDbEntity
8
1
62
256
6
ByLayer
370
18
48
1
60
0
100
AcDbLine
10
0
20
5.136842
30
0
11
24.293807
21
5.136842
31
0
39
0
210
0
220
0
230
1
0
LINE
5
A4
100
AcDbEntity
8
SK1
62
256
6
ByLayer
370
18
48
1
60
0
100
AcDbLine
10
0
20
5.936842
30
0
11
-73.206193
21
5.936842
31
0
39
0
210
0
220
0
230
1
0
MTEXT
5
B4
100
AcDbEntity
8
SK6
62
256
6
ByLayer
370
18
48
1
60
0
100
AcDbMText
10
-37.107437
20
-14.108294
30
0
210
0
220
0
230
1
1
\W0.7160;CXS-1212-06FN
40
3.175
41
0
44
1.084337
50
0
71
7
72
5
7
iso_b_vert
0
DIMENSION
5
C6
100
AcDbEntity
8
SK2
62
256
6
ByLayer
370
13
48
1
60
0
100
AcDbDimension
2
DimnDraft3D1
10
25.993807
20
21.562559
30
0
11
-24.006193
21
21.562559
31
0
70
32
71
5
72
1
41
1
210
0
220
0
230
1
3
Standard
100
AcDbAlignedDimension
13
-74.006193
23
6.724342
33
0
14
25.993807
24
1.524342
34
0
50
0
100
AcDbRotatedDimension
1001
ACAD
1000
DSTYLE
1002
{
1070
   279
1070
     0
1070
   172
1070
     1
1070
   173
1070
     1
1070
   340
1005
B5
1070
   271
1070
     1
1070
   272
1070
     2
1070
    77
1070
     1
1070
    73
1070
     0
1070
   171
1070
     3
1070
   274
1070
     4
1070
   177
1070
     7
1070
   176
1070
     7
1070
   178
1070
     7
1070
    78
1070
     8
1070
    48
1040
-0.005
1070
    41
1041
3.175
1070
   147
1041
1.75006
1070
    42
1041
1.5875
1070
    44
1041
3.175
1070
   140
1041
3.50012
1070
   343
1005
0
1070
   344
1005
0
1002
}
0
DIMENSION
5
D5
100
AcDbEntity
8
2
62
256
6
ByLayer
370
13
48
1
60
0
100
AcDbDimension
2
DimnDraft3D2
10
25.993807
20
12.134462
30
0
11
12.993807
21
12.134462
31
0
70
32
71
5
72
1
41
1
210
0
220
0
230
1
3
Standard
100
AcDbAlignedDimension
13
-0.006193
23
6.724342
33
0
14
25.993807
24
-1.975658
34
0
50
0
100
AcDbRotatedDimension
1001
ACAD
1000
DSTYLE
1002
{
1070
   279
1070
     0
1070
   172
1070
     1
1070
   173
1070
     1
1070
   340
1005
B5
1070
   271
1070
     1
1070
   272
1070
     2
1070
    77
1070
     1
1070
    73
1070
     0
1070
   171
1070
     3
1070
   274
1070
     4
1070
   177
1070
     7
1070
   176
1070
     7
1070
   178
1070
     7
1070
    78
1070
     8
1070
    48
1040
-0.005
1070
    41
1041
3.175
1070
   147
1041
1.75006
1070
    42
1041
1.5875
1070
    44
1041
3.175
1070
   140
1041
3.50012
1070
   343
1005
0
1070
   344
1005
0
1002
}
0
DIMENSION
5
E3
100
AcDbEntity
8
SK2
62
256
6
ByLayer
370
13
48
1
60
0
100
AcDbDimension
2
DimnDraft3D3
10
-78.71021
20
-6.063158
30
0
11
-78.71021
21
-0.063158
31
0
70
32
71
5
72
1
41
1
210
0
220
0
230
1
3
Standard
100
AcDbAlignedDimension
13
-74.793693
23
5.936842
33
0
14
-74.793693
24
-6.063158
34
0
50
90
100
AcDbRotatedDimension
1001
ACAD
1000
DSTYLE
1002
{
1070
    74
1070
     0
1070
   279
1070
     0
1070
   172
1070
     1
1070
   173
1070
     1
1070
   340
1005
B5
1070
   271
1070
     1
1070
   272
1070
     2
1070
    77
1070
     1
1070
    73
1070
     0
1070
   171
1070
     3
1070
   274
1070
     4
1070
   177
1070
     7
1070
   176
1070
     7
1070
   178
1070
     7
1070
    78
1070
     8
1070
    48
1040
-0.005
1070
    41
1041
3.175
1070
   147
1041
1.75006
1070
    42
1041
1.5875
1070
    44
1041
3.175
1070
   140
1041
3.50012
1070
   343
1005
0
1070
   344
1005
0
1002
}
0
DIMENSION
5
F1
100
AcDbEntity
8
SK2
62
256
6
ByLayer
370
13
48
1
60
0
100
AcDbDimension
2
DimnDraft3D4
10
25.993807
20
3.436842
30
0
11
20.969286
21
-15.693426
31
0
70
34
71
5
72
1
41
1
210
0
220
0
230
1
3
Standard
100
AcDb2LineAngularDimension
13
25.193807
23
-4.363158
33
0
14
24.293807
24
-5.263158
34
0
15
25.993807
25
-3.563158
35
0
16
19.629848
26
-18.927115
36
0
40
0
0
ENDSEC
0
SECTION
2
OBJECTS
0
DICTIONARY
5
15b
330
0
100
AcDbDictionary
280
0
281
1
3
ACAD_GROUP
350
15c
3
ACAD_MLINESTYLE
350
15d
0
DICTIONARY
5
15c
330
0
100
AcDbDictionary
280
0
281
1
0
DICTIONARY
5
15d
330
0
100
AcDbDictionary
280
0
281
1
3
Standard
350
18
0
MLINESTYLE
5
18
330
15d
100
AcDbMlineStyle
2
Standard
70
0
3

62
256
51
90
52
90
71
2
49
-0.5
62
256
6
ByLayer
49
0.5
62
256
6
ByLayer
0
RASTERVARIABLES
5
14a
330

100
AcDbRasterVariables
90
0
70
1
71
1
72
1
0
ENDSEC
0
EOF
