0
SECTION
2
HEADER
9
$ACADVER
1
AC1015
9
$DWGCODEPAGE
3
ANSI_1252
9
$HANDSEED
5
175
9
$ANGBASE
50
0
9
$ANGDIR
70
0
9
$ATTMODE
70
1
9
$AUNITS
70
0
9
$AUPREC
70
0
9
$CECOLOR
62
256
9
$CELTSCALE
40
1
9
$CELTYPE
6
ByLayer
9
$CELWEIGHT
370
18
9
$CLAYER
8
0
9
$CMLJUST
70
0
9
$CMLSCALE
40
1
9
$CMLSTYLE
2
Standard
9
$DIMSTYLE
2
Standard
9
$TEXTSIZE
40
0.2
9
$TEXTSTYLE
7
Standard
9
$LUNITS
70
2
9
$LUPREC
70
4
9
$EXTNAMES
290
1
9
$INSUNITS
70
4
9
$LTSCALE
40
1
9
$LWDISPLAY
290
1
9
$PDMODE
70
0
9
$PDSIZE
40
0
9
$PLINEGEN
70
0
0
ENDSEC
0
SECTION
2
CLASSES
0
CLASS
1
RASTERVARIABLES
2
AcDbRasterVariables
3
ISM
90
0
280
0
281
0
0
ENDSEC
0
SECTION
2
TABLES
0
TABLE
2
VPORT
5
16b
100
AcDbSymbolTable
0
VPORT
5
1
100
AcDbSymbolTableRecord
100
AcDbViewportTableRecord
2
*Active
70
0
10
0
20
0
11
1
21
1
12
-1
22
1
13
0
23
0
14
0.5
24
0.5
15
10
25
10
16
0
26
0
36
1
17
0
27
0
37
0
0
ENDTAB
0
TABLE
2
LTYPE
5
16c
100
AcDbSymbolTable
0
LTYPE
5
14
100
AcDbSymbolTableRecord
100
AcDbLinetypeTableRecord
70
0
2
ByBlock
3

72
65
73
0
40
0
0
LTYPE
5
15
100
AcDbSymbolTableRecord
100
AcDbLinetypeTableRecord
70
0
2
ByLayer
3

72
65
73
0
40
0
0
LTYPE
5
16
100
AcDbSymbolTableRecord
100
AcDbLinetypeTableRecord
70
0
2
CONTINUOUS
3
Solid line
72
65
73
0
40
0
0
LTYPE
5
6A
100
AcDbSymbolTableRecord
100
AcDbLinetypeTableRecord
70
0
2
CENTER
3
____ _ ____ _ ____ _ ____
72
65
73
4
40
47.5
49
22
74
0
49
-8.5
74
0
49
8.5
74
0
49
-8.5
74
0
0
LTYPE
5
6B
100
AcDbSymbolTableRecord
100
AcDbLinetypeTableRecord
70
0
2
DASHED
3
__ __ __ __ __ __ __ __ __
72
65
73
2
40
25.72
49
12.86
74
0
49
-12.86
74
0
0
ENDTAB
0
TABLE
2
LAYER
5
16d
100
AcDbSymbolTable
0
LAYER
5
10
100
AcDbSymbolTableRecord
100
AcDbLayerTableRecord
2
0
70
0
62
7
6
CONTINUOUS
290
1
370
-3
390
0
0
LAYER
5
6D
100
AcDbSymbolTableRecord
100
AcDbLayerTableRecord
2
80
70
0
62
-6
6
CONTINUOUS
290
1
370
-3
390
0
0
LAYER
5
6F
100
AcDbSymbolTableRecord
100
AcDbLayerTableRecord
2
81
70
0
62
-3
6
CONTINUOUS
290
1
370
-3
390
0
0
LAYER
5
73
100
AcDbSymbolTableRecord
100
AcDbLayerTableRecord
2
1
70
0
62
4
6
CONTINUOUS
290
1
370
-3
390
0
0
LAYER
5
D6
100
AcDbSymbolTableRecord
100
AcDbLayerTableRecord
2
2
70
0
62
7
6
CONTINUOUS
290
1
370
-3
390
0
0
LAYER
5
158
100
AcDbSymbolTableRecord
100
AcDbLayerTableRecord
2
SK1
70
0
62
4
6
CONTINUOUS
290
1
370
-3
390
0
0
LAYER
5
159
100
AcDbSymbolTableRecord
100
AcDbLayerTableRecord
2
SK6
70
0
62
5
6
CONTINUOUS
290
1
370
-3
390
0
0
LAYER
5
15a
100
AcDbSymbolTableRecord
100
AcDbLayerTableRecord
2
SK2
70
0
62
7
6
CONTINUOUS
290
1
370
-3
390
0
0
ENDTAB
0
TABLE
2
STYLE
5
16e
100
AcDbSymbolTable
0
STYLE
5
11
100
AcDbSymbolTableRecord
100
AcDbTextStyleTableRecord
2
Standard
3
txt
70
0
71
0
40
0
41
1
42
0
50
0
0
STYLE
5
C2
100
AcDbSymbolTableRecord
100
AcDbTextStyleTableRecord
2
iso_b_vert
3
simplex.shx
70
0
71
0
40
0
41
1
42
0
50
0
0
STYLE
5
C3
100
AcDbSymbolTableRecord
100
AcDbTextStyleTableRecord
2
DWGDirectTextStyle
3
simplex
70
0
71
0
40
0
41
1
42
0
50
0
0
ENDTAB
0
TABLE
2
DIMSTYLE
5
16f
100
AcDbSymbolTable
100
AcDbDimStyleTable
0
DIMSTYLE
105
27
100
AcDbSymbolTableRecord
100
AcDbDimStyleTableRecord
2
Standard
70
0
3
<>
41
0.18
42
0.0625
44
0.18
140
0.18
147
0.09
73
0
74
0
77
1
271
2
275
0
278
52
280
0
340
11
0
ENDTAB
0
TABLE
2
VIEW
5
170
100
AcDbSymbolTable
0
ENDTAB
0
TABLE
2
UCS
5
171
100
AcDbSymbolTable
0
ENDTAB
0
TABLE
2
APPID
5
172
100
AcDbSymbolTable
0
APPID
5
12
100
AcDbSymbolTableRecord
100
AcDbRegAppTableRecord
2
ACAD
70
0
0
ENDTAB
0
TABLE
2
BLOCK_RECORD
5
173
100
AcDbSymbolTable
0
BLOCK_RECORD
5
1F
100
AcDbSymbolTableRecord
100
AcDbBlockTableRecord
2
*Model_Space
340
0
70
0
0
BLOCK_RECORD
5
1B
100
AcDbSymbolTableRecord
100
AcDbBlockTableRecord
2
*Paper_Space
340
0
70
0
0
BLOCK_RECORD
5
23
100
AcDbSymbolTableRecord
100
AcDbBlockTableRecord
2
*Paper_Space0
340
0
70
0
0
BLOCK_RECORD
5
C5
100
AcDbSymbolTableRecord
100
AcDbBlockTableRecord
2
DimnDraft3D11
340
0
70
0
0
BLOCK_RECORD
5
D4
100
AcDbSymbolTableRecord
100
AcDbBlockTableRecord
2
DimnDraft3D2
340
0
70
0
0
BLOCK_RECORD
5
E3
100
AcDbSymbolTableRecord
100
AcDbBlockTableRecord
2
DimnDraft3D3
340
0
70
0
0
BLOCK_RECORD
5
F1
100
AcDbSymbolTableRecord
100
AcDbBlockTableRecord
2
DimnDraft3D4
340
0
70
0
0
ENDTAB
0
ENDSEC
0
SECTION
2
BLOCKS
0
BLOCK
5
20
100
AcDbEntity
8
0
100
AcDbBlockBegin
2
*Model_Space
70
0
10
0
20
0
30
0
3
*Model_Space
0
ENDBLK
5
21
100
AcDbEntity
8
0
100
AcDbBlockEnd
0
BLOCK
5
1C
100
AcDbEntity
8
0
100
AcDbBlockBegin
2
*Paper_Space
70
0
10
0
20
0
30
0
3
*Paper_Space
0
ENDBLK
5
1D
100
AcDbEntity
8
0
100
AcDbBlockEnd
0
BLOCK
5
24
100
AcDbEntity
8
0
100
AcDbBlockBegin
2
*Paper_Space0
70
0
10
0
20
0
30
0
3
*Paper_Space0
0
ENDBLK
5
25
100
AcDbEntity
8
0
100
AcDbBlockEnd
0
BLOCK
5
C6
100
AcDbEntity
8
0
100
AcDbBlockBegin
2
DimnDraft3D11
70
0
10
0
20
0
30
0
3
DimnDraft3D11
0
LINE
5
C8
100
AcDbEntity
8
SK2
62
256
6
ByLayer
370
25
48
1
60
0
100
AcDbLine
10
25
20
4.5875
30
0
11
25
21
23.869568
31
0
39
0
210
0
220
0
230
1
0
LINE
5
CA
100
AcDbEntity
8
SK2
62
256
6
ByLayer
370
25
48
1
60
0
100
AcDbLine
10
-75
20
6.7875
30
0
11
-75
21
23.869568
31
0
39
0
210
0
220
0
230
1
0
LINE
5
CB
100
AcDbEntity
8
SK2
62
256
6
ByLayer
370
25
48
1
60
0
100
AcDbLine
10
25
20
20.694568
30
0
11
-75
21
20.694568
31
0
39
0
210
0
220
0
230
1
0
LINE
5
CC
100
AcDbEntity
8
SK2
62
256
6
ByLayer
370
25
48
1
60
0
100
AcDbLine
10
25
20
20.694568
30
0
11
21.825002
21
20.276571
31
0
39
0
210
0
220
0
230
1
0
LINE
5
CD
100
AcDbEntity
8
SK2
62
256
6
ByLayer
370
25
48
1
60
0
100
AcDbLine
10
25
20
20.694568
30
0
11
21.824998
21
21.112565
31
0
39
0
210
0
220
0
230
1
0
LINE
5
CE
100
AcDbEntity
8
SK2
62
256
6
ByLayer
370
25
48
1
60
0
100
AcDbLine
10
21.825002
20
20.276571
30
0
11
21.824998
21
21.112565
31
0
39
0
210
0
220
0
230
1
0
LINE
5
CF
100
AcDbEntity
8
SK2
62
256
6
ByLayer
370
25
48
1
60
0
100
AcDbLine
10
-75
20
20.694568
30
0
11
-71.825002
21
21.112565
31
0
39
0
210
0
220
0
230
1
0
LINE
5
D0
100
AcDbEntity
8
SK2
62
256
6
ByLayer
370
25
48
1
60
0
100
AcDbLine
10
-75
20
20.694568
30
0
11
-71.824998
21
20.276571
31
0
39
0
210
0
220
0
230
1
0
LINE
5
D1
100
AcDbEntity
8
SK2
62
256
6
ByLayer
370
25
48
1
60
0
100
AcDbLine
10
-71.825002
20
21.112565
30
0
11
-71.824998
21
20.276571
31
0
39
0
210
0
220
0
230
1
0
MTEXT
5
D2
100
AcDbEntity
8
SK2
62
256
6
ByLayer
370
18
48
1
60
0
100
AcDbMText
10
-27.017174
20
21.569598
30
0
210
0
220
0
230
1
1
\W0.6044;100
40
3.50012
41
0
44
1.084337
50
0
71
7
72
5
7
iso_b_vert
0
ENDBLK
5
C7
100
AcDbEntity
8
0
100
AcDbBlockEnd
0
BLOCK
5
E0
100
AcDbEntity
8
0
100
AcDbBlockBegin
2
DimnDraft3D2
70
0
10
0
20
0
30
0
3
DimnDraft3D2
0
MTEXT
5
D5
100
AcDbEntity
8
2
62
256
6
ByLayer
370
18
48
1
60
0
100
AcDbMText
10
11.330223
20
11.282093
30
0
210
0
220
0
230
1
1
\W0.6562;25
40
3.50012
41
0
44
1.084337
50
0
71
7
72
5
7
iso_b_vert
0
LINE
5
D7
100
AcDbEntity
8
2
62
256
6
ByLayer
370
13
48
1
60
0
100
AcDbLine
10
0
20
6.7875
30
0
11
0
21
13.582063
31
0
39
0
210
0
220
0
230
1
0
LINE
5
D8
100
AcDbEntity
8
2
62
256
6
ByLayer
370
13
48
1
60
0
100
AcDbLine
10
25
20
4.5875
30
0
11
25
21
13.582063
31
0
39
0
210
0
220
0
230
1
0
LINE
5
D9
100
AcDbEntity
8
2
62
256
6
ByLayer
370
13
48
1
60
0
100
AcDbLine
10
0
20
10.407063
30
0
11
25
21
10.407063
31
0
39
0
210
0
220
0
230
1
0
LINE
5
DA
100
AcDbEntity
8
2
62
256
6
ByLayer
370
13
48
1
60
0
100
AcDbLine
10
0
20
10.407063
30
0
11
3.174998
21
10.82506
31
0
39
0
210
0
220
0
230
1
0
LINE
5
DB
100
AcDbEntity
8
2
62
256
6
ByLayer
370
13
48
1
60
0
100
AcDbLine
10
0
20
10.407063
30
0
11
3.175002
21
9.989066
31
0
39
0
210
0
220
0
230
1
0
LINE
5
DC
100
AcDbEntity
8
2
62
256
6
ByLayer
370
13
48
1
60
0
100
AcDbLine
10
3.174998
20
10.82506
30
0
11
3.175002
21
9.989066
31
0
39
0
210
0
220
0
230
1
0
LINE
5
DD
100
AcDbEntity
8
2
62
256
6
ByLayer
370
13
48
1
60
0
100
AcDbLine
10
25
20
10.407063
30
0
11
21.825002
21
9.989066
31
0
39
0
210
0
220
0
230
1
0
LINE
5
DE
100
AcDbEntity
8
2
62
256
6
ByLayer
370
13
48
1
60
0
100
AcDbLine
10
25
20
10.407063
30
0
11
21.824998
21
10.82506
31
0
39
0
210
0
220
0
230
1
0
LINE
5
DF
100
AcDbEntity
8
2
62
256
6
ByLayer
370
13
48
1
60
0
100
AcDbLine
10
21.825002
20
9.989066
30
0
11
21.824998
21
10.82506
31
0
39
0
210
0
220
0
230
1
0
ENDBLK
5
E1
100
AcDbEntity
8
0
100
AcDbBlockEnd
0
BLOCK
5
EE
100
AcDbEntity
8
0
100
AcDbBlockBegin
2
DimnDraft3D3
70
0
10
0
20
0
30
0
3
DimnDraft3D3
0
MTEXT
5
E4
100
AcDbEntity
8
SK2
62
256
6
ByLayer
370
18
48
1
60
0
100
AcDbMText
10
-80.651791
20
-0.732262
30
0
210
0
220
0
230
1
1
\W0.5144;12
40
3.50012
41
0
44
1.084337
50
90
71
7
72
5
7
iso_b_vert
0
LINE
5
E5
100
AcDbEntity
8
SK2
62
256
6
ByLayer
370
13
48
1
60
0
100
AcDbLine
10
-75.7875
20
6
30
0
11
-82.951761
21
6
31
0
39
0
210
0
220
0
230
1
0
LINE
5
E6
100
AcDbEntity
8
SK2
62
256
6
ByLayer
370
13
48
1
60
0
100
AcDbLine
10
-75.7875
20
-6
30
0
11
-82.951761
21
-6
31
0
39
0
210
0
220
0
230
1
0
LINE
5
E7
100
AcDbEntity
8
SK2
62
256
6
ByLayer
370
13
48
1
60
0
100
AcDbLine
10
-79.776761
20
6
30
0
11
-79.776761
21
-6
31
0
39
0
210
0
220
0
230
1
0
LINE
5
E8
100
AcDbEntity
8
SK2
62
256
6
ByLayer
370
13
48
1
60
0
100
AcDbLine
10
-79.776761
20
6
30
0
11
-79.358765
21
2.825002
31
0
39
0
210
0
220
0
230
1
0
LINE
5
E9
100
AcDbEntity
8
SK2
62
256
6
ByLayer
370
13
48
1
60
0
100
AcDbLine
10
-79.776761
20
6
30
0
11
-80.194758
21
2.824998
31
0
39
0
210
0
220
0
230
1
0
LINE
5
EA
100
AcDbEntity
8
SK2
62
256
6
ByLayer
370
13
48
1
60
0
100
AcDbLine
10
-79.358765
20
2.825002
30
0
11
-80.194758
21
2.824998
31
0
39
0
210
0
220
0
230
1
0
LINE
5
EB
100
AcDbEntity
8
SK2
62
256
6
ByLayer
370
13
48
1
60
0
100
AcDbLine
10
-79.776761
20
-6
30
0
11
-80.194758
21
-2.825002
31
0
39
0
210
0
220
0
230
1
0
LINE
5
EC
100
AcDbEntity
8
SK2
62
256
6
ByLayer
370
13
48
1
60
0
100
AcDbLine
10
-79.776761
20
-6
30
0
11
-79.358765
21
-2.824998
31
0
39
0
210
0
220
0
230
1
0
LINE
5
ED
100
AcDbEntity
8
SK2
62
256
6
ByLayer
370
13
48
1
60
0
100
AcDbLine
10
-80.194758
20
-2.825002
30
0
11
-79.358765
21
-2.824998
31
0
39
0
210
0
220
0
230
1
0
ENDBLK
5
EF
100
AcDbEntity
8
0
100
AcDbBlockEnd
0
BLOCK
5
FC
100
AcDbEntity
8
0
100
AcDbBlockBegin
2
DimnDraft3D4
70
0
10
0
20
0
30
0
3
DimnDraft3D4
0
MTEXT
5
F2
100
AcDbEntity
8
SK2
62
256
6
ByLayer
370
18
48
1
60
0
100
AcDbMText
10
16.27379
20
-17.622435
30
0
210
0
220
0
230
1
1
\W0.8896;45%%d
40
3.50012
41
0
44
1.084337
50
337.5
71
7
72
5
7
iso_b_vert
0
LINE
5
F3
100
AcDbEntity
8
SK2
62
256
6
ByLayer
370
13
48
1
60
0
100
AcDbLine
10
21.877468
20
-6.122532
30
0
11
10.222335
21
-17.777665
31
0
39
0
210
0
220
0
230
1
0
LINE
5
F4
100
AcDbEntity
8
SK2
62
256
6
ByLayer
370
13
48
1
60
0
100
AcDbLine
10
25
20
-4.5875
30
0
11
25
21
-23.898774
31
0
39
0
210
0
220
0
230
1
0
ARC
5
F5
100
AcDbEntity
8
SK2
62
256
6
ByLayer
370
13
48
1
60
0
100
AcDbCircle
39
0
10
25
20
-3
30
0
40
17.723774180626
210
0
220
0
230
1
100
AcDbArc
50
225
51
270
0
LINE
5
F6
100
AcDbEntity
8
SK2
62
256
6
ByLayer
370
13
48
1
60
0
100
AcDbLine
10
12.467399
20
-15.532601
30
0
11
15.092542
21
-17.366711
31
0
39
0
210
0
220
0
230
1
0
LINE
5
F7
100
AcDbEntity
8
SK2
62
256
6
ByLayer
370
13
48
1
60
0
100
AcDbLine
10
12.467399
20
-15.532601
30
0
11
14.528392
21
-17.983655
31
0
39
0
210
0
220
0
230
1
0
LINE
5
F8
100
AcDbEntity
8
SK2
62
256
6
ByLayer
370
13
48
1
60
0
100
AcDbLine
10
15.092542
20
-17.366711
30
0
11
14.528392
21
-17.983655
31
0
39
0
210
0
220
0
230
1
0
LINE
5
F9
100
AcDbEntity
8
SK2
62
256
6
ByLayer
370
13
48
1
60
0
100
AcDbLine
10
25
20
-20.723774
30
0
11
21.809504
21
-20.999589
31
0
39
0
210
0
220
0
230
1
0
LINE
5
FA
100
AcDbEntity
8
SK2
62
256
6
ByLayer
370
13
48
1
60
0
100
AcDbLine
10
25
20
-20.723774
30
0
11
21.846829
21
-20.164429
31
0
39
0
210
0
220
0
230
1
0
LINE
5
FB
100
AcDbEntity
8
SK2
62
256
6
ByLayer
370
13
48
1
60
0
100
AcDbLine
10
21.809504
20
-20.999589
30
0
11
21.846829
21
-20.164429
31
0
39
0
210
0
220
0
230
1
0
ENDBLK
5
FD
100
AcDbEntity
8
0
100
AcDbBlockEnd
0
ENDSEC
0
SECTION
2
ENTITIES
0
ARC
5
AB
100
AcDbEntity
8
1
62
256
6
ByLayer
370
18
48
1
60
0
100
AcDbCircle
39
0
10
18
20
0
30
0
40
2.5
210
0
220
0
230
1
100
AcDbArc
50
270
51
90
0
ARC
5
AC
100
AcDbEntity
8
1
62
256
6
ByLayer
370
18
48
1
60
0
100
AcDbCircle
39
0
10
18
20
0
30
0
40
2.5
210
0
220
0
230
1
100
AcDbArc
50
90
51
270
0
ARC
5
AD
100
AcDbEntity
8
1
62
256
6
ByLayer
370
18
48
1
60
0
100
AcDbCircle
39
0
10
18
20
0
30
0
40
3.125
210
0
220
0
230
1
100
AcDbArc
50
90
51
270
0
ARC
5
AE
100
AcDbEntity
8
1
62
256
6
ByLayer
370
18
48
1
60
0
100
AcDbCircle
39
0
10
18
20
0
30
0
40
2.5
210
0
220
0
230
1
100
AcDbArc
50
53.130102
51
90
0
ARC
5
AF
100
AcDbEntity
8
1
62
256
6
ByLayer
370
18
48
1
60
0
100
AcDbCircle
39
0
10
18
20
0
30
0
40
3.125
210
0
220
0
230
1
100
AcDbArc
50
270
51
90
0
POINT
5
6C
100
AcDbEntity
8
80
62
256
6
ByLayer
370
18
48
1
60
0
100
AcDbPoint
10
0
20
0
30
0
39
0
210
0
220
0
230
1
50
360
0
POINT
5
6E
100
AcDbEntity
8
81
62
256
6
ByLayer
370
18
48
1
60
0
100
AcDbPoint
10
25
20
0
30
0
39
0
210
0
220
0
230
1
50
360
0
SPLINE
5
B0
100
AcDbEntity
8
1
62
256
6
ByLayer
370
18
48
1
60
0
100
AcDbSpline
70
4
71
3
72
150
73
146
40
0
40
0
40
0
40
0
40
0.0065585338475199
40
0.0132321772658184
40
0.0200217604599174
40
0.026927985532665
40
0.0339514145563454
40
0.0409639074825135
40
0.0480900847048644
40
0.0553300135788569
40
0.0626835834360773
40
0.0703040531831855
40
0.0780419970851603
40
0.0858966429489266
40
0.0938669706931103
40
0.101951698832543
40
0.110149271417587
40
0.11845784562529
40
0.126875280222465
40
0.135399125144403
40
0.144026612456607
40
0.15275464899022
40
0.161579810964134
40
0.170498340927282
40
0.179506147372634
40
0.187837982869364
40
0.196237476879123
40
0.204700758787205
40
0.213223743187829
40
0.221802141258437
40
0.230431474976645
40
0.237454718902115
40
0.244505785758058
40
0.25158207416664
40
0.258680934687744
40
0.265799679870696
40
0.272935595270008
40
0.279677032033104
40
0.286429017178579
40
0.293189269494042
40
0.299955527225277
40
0.306725559505514
40
0.313497178287542
40
0.320268250711654
40
0.327036711829375
40
0.333800577589182
40
0.340557957976248
40
0.347186638701513
40
0.353805767649907
40
0.360413892274471
40
0.367009694983016
40
0.373102924412656
40
0.379183781561071
40
0.385251576595524
40
0.391305746066176
40
0.397345857804823
40
0.403371614964451
40
0.409382859097718
40
0.414880427491217
40
0.420365875344604
40
0.425839392641922
40
0.431301267989436
40
0.436751886856656
40
0.442191728999597
40
0.44762136505482
40
0.453041452303651
40
0.458452729617618
40
0.463856011608446
40
0.469252182018592
40
0.474642186401003
40
0.479719459711968
40
0.484793014508865
40
0.489863754595525
40
0.494932605837182
40
0.500000508929978
40
0.505864198438448
40
0.511729355711595
40
0.51759743307649
40
0.523469852191378
40
0.529347989222217
40
0.535233160618596
40
0.54112660966648
40
0.546537233767988
40
0.551956606968382
40
0.557385474261246
40
0.562824499477613
40
0.568274260168424
40
0.573735243304391
40
0.580303699983755
40
0.586889374937564
40
0.593492558332888
40
0.600113333632405
40
0.606751577877612
40
0.613287978357126
40
0.619840417004117
40
0.626408216241142
40
0.63299052519914
40
0.640113779850694
40
0.647251286304936
40
0.654401364434268
40
0.661562153016337
40
0.668731626500026
40
0.675907612310541
40
0.682677458396235
40
0.689449026575014
40
0.696220220769847
40
0.702988882566156
40
0.70975280379145
40
0.717293437325286
40
0.724822210514658
40
0.732335943376084
40
0.739831453306061
40
0.747305572074019
40
0.754755161555838
40
0.76217712817417
40
0.769568436030935
40
0.777398272589807
40
0.785186543186597
40
0.792929886476563
40
0.800625067263156
40
0.808268985647098
40
0.815858684563525
40
0.824730226764425
40
0.833518242237505
40
0.842218710870584
40
0.850827919713166
40
0.859515217434009
40
0.868100660842458
40
0.876581290590194
40
0.884954469772348
40
0.893217875841644
40
0.901369490970522
40
0.909407591142481
40
0.917330734230354
40
0.925137747295525
40
0.932827713318667
40
0.940399957549773
40
0.947854033643377
40
0.95518970972408
40
0.962406954508079
40
0.970209313880832
40
0.977869012597707
40
0.985386731941156
40
0.992763365589161
40
1
40
1
40
1
40
1
41
1
10
18
20
-2.5
30
0
41
1
10
18.0147643145673
20
-2.50000002088782
30
0
41
1
10
18.0445493570163
20
-2.49973614733805
30
0
41
1
10
18.0896125296144
20
-2.49853135584987
30
0
41
1
10
18.1354427435171
20
-2.49647134391124
30
0
41
1
10
18.1820367453475
20
-2.49351198263224
30
0
41
1
10
18.2290995982185
20
-2.48963154636677
30
0
41
1
10
18.2766150243984
20
-2.48480351705952
30
0
41
1
10
18.3245651655995
20
-2.47900150577532
30
0
41
1
10
18.3732177584084
20
-2.47215027764249
30
0
41
1
10
18.422902419654
20
-2.4641465224678
30
0
41
1
10
18.4736111541764
20
-2.45491451735031
30
0
41
1
10
18.5253322771142
20
-2.4443753460741
30
0
41
1
10
18.5777103196501
20
-2.43253542843253
30
0
41
1
10
18.6307190500181
20
-2.41933984119707
30
0
41
1
10
18.6843288916806
20
-2.40473297749818
30
0
41
1
10
18.7385067391847
20
-2.388658709679
30
0
41
1
10
18.7932157824637
20
-2.37106057157142
30
0
41
1
10
18.8484153336803
20
-2.35188196257438
30
0
41
1
10
18.9040606604644
20
-2.3310663741964
30
0
41
1
10
18.9601028284931
20
-2.30855763924615
30
0
41
1
10
19.0164885512266
20
-2.28430020671996
30
0
41
1
10
19.0731600677875
20
-2.25823943317976
30
0
41
1
10
19.1300549823021
20
-2.23032192699838
30
0
41
1
10
19.1854998299074
20
-2.20133567761677
30
0
41
1
10
19.2394395127403
20
-2.17140566685776
30
0
41
1
10
19.2918254352344
20
-2.14066207870265
30
0
41
1
10
19.3441612061474
20
-2.1082012237325
30
0
41
1
10
19.3963811322801
20
-2.07399048527684
30
0
41
1
10
19.4484160250515
20
-2.03799980996216
30
0
41
1
10
19.4968882348947
20
-2.00261469860581
30
0
41
1
10
19.5418226836453
20
-1.96817488276086
30
0
41
1
10
19.5832581270629
20
-1.93500450102534
30
0
41
1
10
19.6243901765924
20
-1.90061160668269
30
0
41
1
10
19.6651745452238
20
-1.86498817641178
30
0
41
1
10
19.7055656815124
20
-1.82812803499693
30
0
41
1
10
19.7447537600706
20
-1.79075471743728
30
0
41
1
10
19.7827260918141
20
-1.75294481127819
30
0
41
1
10
19.8194744817308
20
-1.71477591426061
30
0
41
1
10
19.8557071923362
20
-1.67550307276971
30
0
41
1
10
19.8913821906834
20
-1.63512963732638
30
0
41
1
10
19.9264569165258
20
-1.5936608557625
30
0
41
1
10
19.9608883934254
20
-1.55110392000389
30
0
41
1
10
19.9946333233181
20
-1.50746803102201
30
0
41
1
10
20.027648195697
20
-1.46276444856372
30
0
41
1
10
20.0598893914674
20
-1.41700655159217
30
0
41
1
10
20.0911266306062
20
-1.37048786708894
30
0
41
1
10
20.1213339897874
20
-1.32324763453041
30
0
41
1
10
20.1504878598214
20
-1.27532637680251
30
0
41
1
10
20.1787299342389
20
-1.22646000968837
30
0
41
1
10
20.2053456465755
20
-1.17790209408349
30
0
41
1
10
20.2303775030352
20
-1.12975741281146
30
0
41
1
10
20.2538744719152
20
-1.08212513994021
30
0
41
1
10
20.2764612248618
20
-1.03376895779423
30
0
41
1
10
20.2981084040229
20
-0.984713365728816
30
0
41
1
10
20.3187874474696
20
-0.934984358413042
30
0
41
1
10
20.3384706776733
20
-0.884609427497468
30
0
41
1
10
20.3566149694262
20
-0.835028646813168
30
0
41
1
10
20.3732918184074
20
-0.786333530615721
30
0
41
1
10
20.3885770349689
20
-0.738606447715583
30
0
41
1
10
20.4029446696953
20
-0.690435806390495
30
0
41
1
10
20.4163776571069
20
-0.641847608768064
30
0
41
1
10
20.4288598849533
20
-0.59286872270216
30
0
41
1
10
20.4403762626263
20
-0.543526783102394
30
0
41
1
10
20.4509127604815
20
-0.493850159106337
30
0
41
1
10
20.4604564537236
20
-0.443867898523
30
0
41
1
10
20.4689955612306
20
-0.393609679009563
30
0
41
1
10
20.4765194828161
20
-0.34310573746785
30
0
41
1
10
20.4830188291662
20
-0.292386863249483
30
0
41
1
10
20.488381490091
20
-0.24245228698353
30
0
41
1
10
20.492668461426
20
-0.193345913076433
30
0
41
1
10
20.4959415813277
20
-0.145104621729251
30
0
41
1
10
20.4982821588395
20
-0.0967818161348161
30
0
41
1
10
20.4996875594994
20
-0.0484044920800961
30
0
41
1
10
20.500180739465
20
0.0025332663197144
30
0
41
1
10
20.4995816937978
20
0.0560070609784451
30
0
41
1
10
20.4977003314798
20
0.111971776520254
30
0
41
1
10
20.4945678889217
20
0.167852211843896
30
0
41
1
10
20.4901890853023
20
0.223606351161322
30
0
41
1
10
20.4845705045677
20
0.279192644549823
30
0
41
1
10
20.4777205812143
20
0.33456986281255
30
0
41
1
10
20.4698742069962
20
0.388162793331083
30
0
41
1
10
20.4611580755529
20
0.439961176594532
30
0
41
1
10
20.4516922502803
20
0.48996604390205
30
0
41
1
10
20.4412326637527
20
0.53966753124378
30
0
41
1
10
20.4297921546758
20
0.589036566633877
30
0
41
1
10
20.4173846420553
20
0.638044796868654
30
0
41
1
10
20.4031316469017
20
0.689916300533206
30
0
41
1
10
20.3868198209439
20
0.744512965916181
30
0
41
1
10
20.3682341266271
20
0.801664710722205
30
0
41
1
10
20.3483616901532
20
0.858129810533357
30
0
41
1
10
20.3272357800597
20
0.913866868639871
30
0
41
1
10
20.3050247371176
20
0.968508248324964
30
0
41
1
10
20.2817890142625
20
1.02203465114375
30
0
41
1
10
20.2575879965039
20
1.07443058800598
30
0
41
1
10
20.2323190919379
20
1.12598596479648
30
0
41
1
10
20.205317718419
20
1.17802532344078
30
0
41
1
10
20.1765301275679
20
1.23043131101908
30
0
41
1
10
20.1459109902861
20
1.28308002623146
30
0
41
1
10
20.114236168351
20
1.33462243623961
30
0
41
1
10
20.0815568656295
20
1.38503267673984
30
0
41
1
10
20.0479247322695
20
1.43428773444025
30
0
41
1
10
20.0140499513025
20
1.48145090864273
30
0
41
1
10
19.980039251823
20
1.52658438630417
30
0
41
1
10
19.9459902818758
20
1.56975213624397
30
0
41
1
10
19.9112736516847
20
1.6118366580658
30
0
41
1
10
19.8759324947403
20
1.65282967696082
30
0
41
1
10
19.8386221591528
20
1.69426573735517
30
0
41
1
10
19.7993087464947
20
1.73598752289517
30
0
41
1
10
19.7579674990354
20
1.777833686527
30
0
41
1
10
19.7160695653785
20
1.81830284010808
30
0
41
1
10
19.6736708806154
20
1.85739692538095
30
0
41
1
10
19.630826086201
20
1.89512042131279
30
0
41
1
10
19.5875884786065
20
1.93148014935856
30
0
41
1
10
19.5440098811217
20
1.96648516477778
30
0
41
1
10
19.4992064006562
20
2.00086340792974
30
0
41
1
10
19.453203027011
20
2.03453099614424
30
0
41
1
10
19.4060292940519
20
2.06740672723929
30
0
41
1
10
19.3586924872543
20
2.09881334229513
30
0
41
1
10
19.3112448129648
20
2.12877283685481
30
0
41
1
10
19.2637361311881
20
2.1573089852423
30
0
41
1
10
19.2134194183526
20
2.18604300035346
30
0
41
1
10
19.1603188890856
20
2.21472080827418
30
0
41
1
10
19.1044702797467
20
2.24308568055006
30
0
41
1
10
19.0488013043037
20
2.26963969137732
30
0
41
1
10
18.9930024106461
20
2.29459813491023
30
0
41
1
10
18.9371318343874
20
2.31797398407722
30
0
41
1
10
18.8812458238718
20
2.33978331080422
30
0
41
1
10
18.8257771862608
20
2.35992241212818
30
0
41
1
10
18.7707731242283
20
2.37844762407641
30
0
41
1
10
18.716276694377
20
2.39541552231031
30
0
41
1
10
18.6623269780576
20
2.4108826783424
30
0
41
1
10
18.6089592484763
20
2.42490544333274
30
0
41
1
10
18.5562051461197
20
2.43753975270825
30
0
41
1
10
18.5040928566567
20
2.44884095226023
30
0
41
1
10
18.4526472911489
20
2.45886364420169
30
0
41
1
10
18.4018902645867
20
2.46766155248105
30
0
41
1
10
18.3518406794474
20
2.47528740512024
30
0
41
1
10
18.3025146840422
20
2.4817928362599
30
0
41
1
10
18.2523474399462
20
2.4874048706942
30
0
41
1
10
18.2013998746983
20
2.49205731281385
30
0
41
1
10
18.1497335975894
20
2.4956876528801
30
0
41
1
10
18.098993519638
20
2.49820817784203
30
0
41
1
10
18.0491846252592
20
2.49967847870168
30
0
41
1
10
18.0162910386454
20
2.50000003101703
30
0
41
1
10
18
20
2.5
30
0
0
SPLINE
5
B1
100
AcDbEntity
8
1
62
256
6
ByLayer
370
18
48
1
60
0
100
AcDbSpline
70
4
71
3
72
32
73
28
40
0
40
0
40
0
40
0
40
0.0402800159474381
40
0.0805950057000459
40
0.120910138323776
40
0.161190349264501
40
0.202640553442205
40
0.244128706297432
40
0.285616842895555
40
0.327067024884186
40
0.367346680122405
40
0.407661217367015
40
0.44797572434958
40
0.488255338285619
40
0.529706621285963
40
0.571195943438659
40
0.612685293137313
40
0.654136613734788
40
0.696655720399198
40
0.739215805353259
40
0.781775917718787
40
0.824295061798491
40
0.859412991201428
40
0.894565641977635
40
0.929729818992628
40
0.964882252773234
40
1
40
1
40
1
40
1
41
1
10
5.49305172142484
20
-2.5
30
0
41
1
10
5.48099822833234
20
-2.49999626433444
30
0
41
1
10
5.45662191103115
20
-2.4999465143965
30
0
41
1
10
5.41924392590981
20
-2.499729487475
30
0
41
1
10
5.38115075428215
20
-2.49941648811838
30
0
41
1
10
5.34203522299557
20
-2.4990330338543
30
0
41
1
10
5.30192909820191
20
-2.49861263970188
30
0
41
1
10
5.26087885425421
20
-2.49817921700025
30
0
41
1
10
5.21935321415353
20
-2.49776096540371
30
0
41
1
10
5.17783337953319
20
-2.49738583151834
30
0
41
1
10
5.13639309429446
20
-2.49707645423072
30
0
41
1
10
5.09510304775554
20
-2.49683916324171
30
0
41
1
10
5.05364898319794
20
-2.49667938412505
30
0
41
1
10
5.01171126813392
20
-2.4966049605907
30
0
41
1
10
4.96934772566634
20
-2.49662823206955
30
0
41
1
10
4.92662489748241
20
-2.49674515082605
30
0
41
1
10
4.8840360423357
20
-2.49694813785831
30
0
41
1
10
4.84130837860602
20
-2.49723261189255
30
0
41
1
10
4.79851651115342
20
-2.49759372140816
30
0
41
1
10
4.75573774127244
20
-2.49800845615925
30
0
41
1
10
4.71342755489933
20
-2.49844895841878
30
0
41
1
10
4.67410188787264
20
-2.49886504090938
30
0
41
1
10
4.63771446121261
20
-2.49923586777714
30
0
41
1
10
4.60417481166503
20
-2.49954394011951
30
0
41
1
10
4.57114309960677
20
-2.49979157307949
30
0
41
1
10
4.53867907643778
20
-2.49995928033898
30
0
41
1
10
4.51745530218327
20
-2.49999754395475
30
0
41
1
10
4.50694827857515
20
-2.5
30
0
0
SPLINE
5
B2
100
AcDbEntity
8
1
62
256
6
ByLayer
370
18
48
1
60
0
100
AcDbSpline
70
4
71
3
72
150
73
146
40
0
40
0
40
0
40
0
40
0.0065585338475199
40
0.0132321772658184
40
0.0200217604599174
40
0.0269279855326651
40
0.0339514145563451
40
0.0409639074825135
40
0.0480900847048647
40
0.055330013578857
40
0.0626835834360774
40
0.0703040531831855
40
0.0780419970851603
40
0.0858966429489266
40
0.0938669706931104
40
0.101951698832543
40
0.110149271417587
40
0.11845784562529
40
0.126875280222465
40
0.135399125144403
40
0.144026612456607
40
0.152754648990221
40
0.161579810964134
40
0.170498340927282
40
0.179506147372634
40
0.187837982869365
40
0.196237476879123
40
0.204700758787206
40
0.213223743187829
40
0.221802141258437
40
0.230431474976645
40
0.237454718902115
40
0.244505785758058
40
0.25158207416664
40
0.258680934687744
40
0.265799679870696
40
0.272935595270008
40
0.279677032033105
40
0.286429017178579
40
0.293189269494042
40
0.299955527225277
40
0.306725559505514
40
0.313497178287542
40
0.320268250711655
40
0.327036711829376
40
0.333800577589182
40
0.340557957976249
40
0.347186638701513
40
0.353805767649907
40
0.360413892274471
40
0.367009694983016
40
0.373102924412656
40
0.379183781561071
40
0.385251576595524
40
0.391305746066177
40
0.397345857804823
40
0.403371614964451
40
0.409382859097718
40
0.414880427491217
40
0.420365875344604
40
0.425839392641923
40
0.431301267989436
40
0.436751886856656
40
0.442191728999597
40
0.447621365054821
40
0.453041452303651
40
0.458452729617618
40
0.463856011608447
40
0.469252182018593
40
0.474642186401003
40
0.479719459711968
40
0.484793014508866
40
0.489863754595526
40
0.494932605837182
40
0.500000508929978
40
0.505864198438449
40
0.511729355711595
40
0.51759743307649
40
0.523469852191378
40
0.529347989222217
40
0.535233160618596
40
0.54112660966648
40
0.546537233767989
40
0.551956606968383
40
0.557385474261247
40
0.562824499477614
40
0.568274260168425
40
0.573735243304391
40
0.580303699983755
40
0.586889374937564
40
0.593492558332888
40
0.600113333632405
40
0.606751577877613
40
0.613287978357126
40
0.619840417004117
40
0.626408216241142
40
0.63299052519914
40
0.640113779850694
40
0.647251286304937
40
0.654401364434268
40
0.661562153016337
40
0.668731626500026
40
0.675907612310541
40
0.682677458396235
40
0.689449026575014
40
0.696220220769847
40
0.702988882566156
40
0.70975280379145
40
0.717293437325286
40
0.724822210514658
40
0.732335943376084
40
0.739831453306061
40
0.74730557207402
40
0.754755161555838
40
0.76217712817417
40
0.769568436030935
40
0.777398272589807
40
0.785186543186597
40
0.792929886476563
40
0.800625067263156
40
0.808268985647099
40
0.815858684563525
40
0.824730226764425
40
0.833518242237505
40
0.842218710870584
40
0.850827919713167
40
0.859515217434009
40
0.868100660842458
40
0.876581290590195
40
0.884954469772348
40
0.893217875841644
40
0.901369490970522
40
0.909407591142481
40
0.917330734230354
40
0.925137747295525
40
0.932827713318666
40
0.940399957549774
40
0.947854033643377
40
0.955189709724081
40
0.962406954508079
40
0.970209313880832
40
0.977869012597707
40
0.985386731941156
40
0.992763365589161
40
1
40
1
40
1
40
1
41
1
10
18
20
2.5
30
0
41
1
10
17.9852356854327
20
2.50000002088782
30
0
41
1
10
17.9554506429837
20
2.49973614733805
30
0
41
1
10
17.9103874703856
20
2.49853135584987
30
0
41
1
10
17.8645572564829
20
2.49647134391124
30
0
41
1
10
17.8179632546526
20
2.49351198263224
30
0
41
1
10
17.7709004017815
20
2.48963154636677
30
0
41
1
10
17.7233849756016
20
2.48480351705952
30
0
41
1
10
17.6754348344005
20
2.47900150577533
30
0
41
1
10
17.6267822415916
20
2.47215027764249
30
0
41
1
10
17.577097580346
20
2.4641465224678
30
0
41
1
10
17.5263888458236
20
2.45491451735031
30
0
41
1
10
17.4746677228858
20
2.4443753460741
30
0
41
1
10
17.4222896803499
20
2.43253542843253
30
0
41
1
10
17.3692809499819
20
2.41933984119707
30
0
41
1
10
17.3156711083194
20
2.40473297749818
30
0
41
1
10
17.2614932608153
20
2.38865870967899
30
0
41
1
10
17.2067842175363
20
2.37106057157142
30
0
41
1
10
17.1515846663197
20
2.35188196257438
30
0
41
1
10
17.0959393395356
20
2.3310663741964
30
0
41
1
10
17.0398971715069
20
2.30855763924615
30
0
41
1
10
16.9835114487734
20
2.28430020671996
30
0
41
1
10
16.9268399322125
20
2.25823943317976
30
0
41
1
10
16.8699450176979
20
2.23032192699838
30
0
41
1
10
16.8145001700926
20
2.20133567761677
30
0
41
1
10
16.7605604872597
20
2.17140566685777
30
0
41
1
10
16.7081745647656
20
2.14066207870265
30
0
41
1
10
16.6558387938526
20
2.1082012237325
30
0
41
1
10
16.6036188677199
20
2.07399048527684
30
0
41
1
10
16.5515839749485
20
2.03799980996216
30
0
41
1
10
16.5031117651053
20
2.00261469860581
30
0
41
1
10
16.4581773163547
20
1.96817488276086
30
0
41
1
10
16.4167418729371
20
1.93500450102534
30
0
41
1
10
16.3756098234076
20
1.90061160668269
30
0
41
1
10
16.3348254547762
20
1.86498817641178
30
0
41
1
10
16.2944343184876
20
1.82812803499692
30
0
41
1
10
16.2552462399294
20
1.79075471743728
30
0
41
1
10
16.2172739081859
20
1.75294481127819
30
0
41
1
10
16.1805255182692
20
1.71477591426061
30
0
41
1
10
16.1442928076638
20
1.67550307276972
30
0
41
1
10
16.1086178093166
20
1.63512963732637
30
0
41
1
10
16.0735430834742
20
1.5936608557625
30
0
41
1
10
16.0391116065746
20
1.55110392000389
30
0
41
1
10
16.0053666766819
20
1.50746803102201
30
0
41
1
10
15.9723518043031
20
1.46276444856372
30
0
41
1
10
15.9401106085326
20
1.41700655159217
30
0
41
1
10
15.9088733693938
20
1.37048786708895
30
0
41
1
10
15.8786660102126
20
1.32324763453041
30
0
41
1
10
15.8495121401786
20
1.27532637680251
30
0
41
1
10
15.8212700657611
20
1.22646000968837
30
0
41
1
10
15.7946543534245
20
1.17790209408349
30
0
41
1
10
15.7696224969648
20
1.12975741281146
30
0
41
1
10
15.7461255280848
20
1.08212513994021
30
0
41
1
10
15.7235387751382
20
1.03376895779423
30
0
41
1
10
15.7018915959771
20
0.984713365728818
30
0
41
1
10
15.6812125525304
20
0.93498435841304
30
0
41
1
10
15.6615293223267
20
0.884609427497468
30
0
41
1
10
15.6433850305738
20
0.835028646813169
30
0
41
1
10
15.6267081815926
20
0.78633353061572
30
0
41
1
10
15.6114229650311
20
0.738606447715584
30
0
41
1
10
15.5970553303047
20
0.690435806390495
30
0
41
1
10
15.583622342893
20
0.641847608768065
30
0
41
1
10
15.5711401150467
20
0.592868722702158
30
0
41
1
10
15.5596237373737
20
0.543526783102396
30
0
41
1
10
15.5490872395186
20
0.493850159106335
30
0
41
1
10
15.5395435462764
20
0.443867898523001
30
0
41
1
10
15.5310044387694
20
0.393609679009562
30
0
41
1
10
15.5234805171839
20
0.343105737467851
30
0
41
1
10
15.5169811708338
20
0.292386863249483
30
0
41
1
10
15.511618509909
20
0.24245228698353
30
0
41
1
10
15.507331538574
20
0.193345913076433
30
0
41
1
10
15.5040584186723
20
0.14510462172925
30
0
41
1
10
15.5017178411605
20
0.0967818161348165
30
0
41
1
10
15.5003124405006
20
0.0484044920800957
30
0
41
1
10
15.499819260535
20
-0.002533266319714
30
0
41
1
10
15.5004183062022
20
-0.0560070609784451
30
0
41
1
10
15.5022996685202
20
-0.111971776520254
30
0
41
1
10
15.5054321110783
20
-0.167852211843896
30
0
41
1
10
15.5098109146977
20
-0.223606351161322
30
0
41
1
10
15.5154294954323
20
-0.279192644549822
30
0
41
1
10
15.5222794187857
20
-0.334569862812551
30
0
41
1
10
15.5301257930037
20
-0.388162793331084
30
0
41
1
10
15.5388419244471
20
-0.439961176594531
30
0
41
1
10
15.5483077497197
20
-0.48996604390205
30
0
41
1
10
15.5587673362473
20
-0.539667531243781
30
0
41
1
10
15.5702078453242
20
-0.589036566633876
30
0
41
1
10
15.5826153579447
20
-0.638044796868653
30
0
41
1
10
15.5968683530983
20
-0.689916300533207
30
0
41
1
10
15.6131801790561
20
-0.744512965916181
30
0
41
1
10
15.6317658733729
20
-0.801664710722205
30
0
41
1
10
15.6516383098468
20
-0.858129810533357
30
0
41
1
10
15.6727642199403
20
-0.91386686863987
30
0
41
1
10
15.6949752628824
20
-0.968508248324965
30
0
41
1
10
15.7182109857375
20
-1.02203465114375
30
0
41
1
10
15.7424120034961
20
-1.07443058800598
30
0
41
1
10
15.7676809080621
20
-1.12598596479648
30
0
41
1
10
15.794682281581
20
-1.17802532344078
30
0
41
1
10
15.8234698724321
20
-1.23043131101907
30
0
41
1
10
15.8540890097139
20
-1.28308002623146
30
0
41
1
10
15.885763831649
20
-1.33462243623961
30
0
41
1
10
15.9184431343705
20
-1.38503267673984
30
0
41
1
10
15.9520752677305
20
-1.43428773444025
30
0
41
1
10
15.9859500486975
20
-1.48145090864273
30
0
41
1
10
16.019960748177
20
-1.52658438630417
30
0
41
1
10
16.0540097181242
20
-1.56975213624397
30
0
41
1
10
16.0887263483153
20
-1.6118366580658
30
0
41
1
10
16.1240675052597
20
-1.65282967696082
30
0
41
1
10
16.1613778408472
20
-1.69426573735517
30
0
41
1
10
16.2006912535053
20
-1.73598752289517
30
0
41
1
10
16.2420325009646
20
-1.777833686527
30
0
41
1
10
16.2839304346215
20
-1.81830284010808
30
0
41
1
10
16.3263291193846
20
-1.85739692538095
30
0
41
1
10
16.369173913799
20
-1.89512042131279
30
0
41
1
10
16.4124115213935
20
-1.93148014935856
30
0
41
1
10
16.4559901188783
20
-1.96648516477778
30
0
41
1
10
16.5007935993438
20
-2.00086340792974
30
0
41
1
10
16.546796972989
20
-2.03453099614424
30
0
41
1
10
16.5939707059481
20
-2.06740672723929
30
0
41
1
10
16.6413075127457
20
-2.09881334229513
30
0
41
1
10
16.6887551870352
20
-2.12877283685481
30
0
41
1
10
16.7362638688119
20
-2.1573089852423
30
0
41
1
10
16.7865805816474
20
-2.18604300035346
30
0
41
1
10
16.8396811109144
20
-2.21472080827418
30
0
41
1
10
16.8955297202533
20
-2.24308568055006
30
0
41
1
10
16.9511986956964
20
-2.26963969137732
30
0
41
1
10
17.0069975893539
20
-2.29459813491023
30
0
41
1
10
17.0628681656126
20
-2.31797398407722
30
0
41
1
10
17.1187541761282
20
-2.33978331080422
30
0
41
1
10
17.1742228137392
20
-2.35992241212818
30
0
41
1
10
17.2292268757717
20
-2.37844762407641
30
0
41
1
10
17.283723305623
20
-2.39541552231032
30
0
41
1
10
17.3376730219424
20
-2.41088267834239
30
0
41
1
10
17.3910407515237
20
-2.42490544333275
30
0
41
1
10
17.4437948538804
20
-2.43753975270824
30
0
41
1
10
17.4959071433433
20
-2.44884095226023
30
0
41
1
10
17.5473527088511
20
-2.45886364420169
30
0
41
1
10
17.5981097354133
20
-2.46766155248105
30
0
41
1
10
17.6481593205526
20
-2.47528740512024
30
0
41
1
10
17.6974853159578
20
-2.4817928362599
30
0
41
1
10
17.7476525600538
20
-2.4874048706942
30
0
41
1
10
17.7986001253018
20
-2.49205731281385
30
0
41
1
10
17.8502664024106
20
-2.4956876528801
30
0
41
1
10
17.901006480362
20
-2.49820817784203
30
0
41
1
10
17.9508153747408
20
-2.49967847870168
30
0
41
1
10
17.9837089613546
20
-2.50000003101703
30
0
41
1
10
18
20
-2.5
30
0
0
SPLINE
5
B3
100
AcDbEntity
8
1
62
256
6
ByLayer
370
18
48
1
60
0
100
AcDbSpline
70
4
71
3
72
32
73
28
40
0
40
0
40
0
40
0
40
0.0402800159474381
40
0.080595005700046
40
0.120910138323777
40
0.161190349264501
40
0.202640553442205
40
0.244128706297429
40
0.285616842895555
40
0.327067024884186
40
0.367346680122405
40
0.407661217367015
40
0.447975724349581
40
0.48825533828562
40
0.52970662128596
40
0.571195943438652
40
0.612685293137313
40
0.654136613734788
40
0.696655720399195
40
0.739215805353255
40
0.781775917718787
40
0.824295061798491
40
0.859412991201416
40
0.894565641977638
40
0.929729818992621
40
0.964882252773234
40
1
40
1
40
1
40
1
41
1
10
4.50694827857516
20
2.5
30
0
41
1
10
4.51900177166766
20
2.49999626433444
30
0
41
1
10
4.54337808896886
20
2.4999465143965
30
0
41
1
10
4.58075607409017
20
2.499729487475
30
0
41
1
10
4.61884924571785
20
2.49941648811838
30
0
41
1
10
4.65796477700442
20
2.4990330338543
30
0
41
1
10
4.6980709017981
20
2.49861263970188
30
0
41
1
10
4.73912114574578
20
2.49817921700025
30
0
41
1
10
4.78064678584648
20
2.49776096540371
30
0
41
1
10
4.82216662046681
20
2.49738583151834
30
0
41
1
10
4.86360690570554
20
2.49707645423072
30
0
41
1
10
4.90489695224446
20
2.49683916324171
30
0
41
1
10
4.94635101680207
20
2.49667938412505
30
0
41
1
10
4.98828873186609
20
2.4966049605907
30
0
41
1
10
5.03065227433365
20
2.49662823206956
30
0
41
1
10
5.07337510251759
20
2.49674515082605
30
0
41
1
10
5.11596395766428
20
2.49694813785831
30
0
41
1
10
5.15869162139397
20
2.49723261189255
30
0
41
1
10
5.20148348884657
20
2.49759372140816
30
0
41
1
10
5.24426225872756
20
2.49800845615925
30
0
41
1
10
5.28657244510067
20
2.49844895841878
30
0
41
1
10
5.32589811212736
20
2.49886504090938
30
0
41
1
10
5.36228553878738
20
2.49923586777714
30
0
41
1
10
5.39582518833497
20
2.49954394011951
30
0
41
1
10
5.4288569003932
20
2.49979157307949
30
0
41
1
10
5.46132092356226
20
2.49995928033898
30
0
41
1
10
5.48254469781667
20
2.49999754395475
30
0
41
1
10
5.49305172142485
20
2.5
30
0
0
SPLINE
5
B4
100
AcDbEntity
8
1
62
256
6
ByLayer
370
18
48
1
60
0
100
AcDbSpline
70
4
71
3
72
137
73
133
40
0
40
0
40
0
40
0
40
0.0064091686571797
40
0.012944988356389
40
0.0196096956184322
40
0.0264054925630936
40
0.0333345384648629
40
0.0403989406873461
40
0.0476007449879964
40
0.0549419251901778
40
0.0616543594152652
40
0.0684820087637017
40
0.0754261094573046
40
0.0824878218267657
40
0.0896682226320811
40
0.096968297119437
40
0.104388930841102
40
0.111930901270102
40
0.119594869246912
40
0.127381370301057
40
0.135290805896292
40
0.143323434653774
40
0.151479363613336
40
0.159758539598421
40
0.167455900688688
40
0.175256339386358
40
0.183159424515532
40
0.191164590010484
40
0.199271130326172
40
0.207478196179921
40
0.21500904290635
40
0.222620937860492
40
0.230312925396958
40
0.238083944143667
40
0.245932825729934
40
0.253858293833025
40
0.261399804218018
40
0.269006919485904
40
0.276678304264545
40
0.284412537533536
40
0.292208113202255
40
0.300063440951521
40
0.30797684733855
40
0.315946577162893
40
0.323970795088937
40
0.332047587518583
40
0.340029409312377
40
0.34805807142691
40
0.356131553171681
40
0.364247770058685
40
0.372553235212309
40
0.380898452229551
40
0.389281035084918
40
0.397698541912468
40
0.406148478580739
40
0.414476639314854
40
0.422831178574363
40
0.431209607234072
40
0.439609401649668
40
0.448199982024839
40
0.456807405899858
40
0.46542890478683
40
0.474061689080192
40
0.482702952254484
40
0.491349875080037
40
0.499999629851175
40
0.507846010085748
40
0.515690276342576
40
0.523530317248338
40
0.531364026636645
40
0.539189306146601
40
0.547004067815149
40
0.554806236660636
40
0.56337157086608
40
0.571916461084251
40
0.58043822235566
40
0.588934204356129
40
0.597401795383428
40
0.605838426278522
40
0.6142415742686
40
0.622608766717974
40
0.630937584772084
40
0.639225666879153
40
0.647323878208718
40
0.655378455868159
40
0.663387342314919
40
0.671348544907242
40
0.67940350670058
40
0.68740508134004
40
0.695351387835107
40
0.703240624273803
40
0.711071069591253
40
0.718702880701131
40
0.726274926525664
40
0.733785811812987
40
0.741234220703241
40
0.748768946652656
40
0.756236106280549
40
0.763634558964641
40
0.770963250534974
40
0.778221212743801
40
0.78540756249972
40
0.792521500877114
40
0.799970447884768
40
0.807336745983788
40
0.814619746172679
40
0.821818897287819
40
0.828933743438123
40
0.835963921248057
40
0.844140364108674
40
0.852198532007821
40
0.860138290052428
40
0.867959655452659
40
0.875818760078384
40
0.883555077631215
40
0.891169065480879
40
0.898661311475476
40
0.906032525211667
40
0.913283529401904
40
0.920415251384977
40
0.927428714820456
40
0.934325031601997
40
0.941105394019122
40
0.947771067191961
40
0.95432338179867
40
0.960763727110784
40
0.967093544347678
40
0.973930438551099
40
0.980637428870055
40
0.987216598206527
40
0.993670069938906
40
1
40
1
40
1
40
1
41
1
10
0
20
2.5
30
0
41
1
10
0.0044201965401349
20
2.4999999764007
30
0
41
1
10
0.0133460398877716
20
2.49967030058152
30
0
41
1
10
0.0268638984867415
20
2.49816217401023
30
0
41
1
10
0.0406373774146793
20
2.49557595050872
30
0
41
1
10
0.0546653261885446
20
2.49184963690458
30
0
41
1
10
0.0689451278511193
20
2.48691912609105
30
0
41
1
10
0.0834735033734759
20
2.48071821337174
30
0
41
1
10
0.0982461837279232
20
2.47317869552602
30
0
41
1
10
0.112733144323922
20
2.46454325998061
30
0
41
1
10
0.12691556991058
20
2.4549060203974
30
0
41
1
10
0.14077591187942
20
2.44436451045455
30
0
41
1
10
0.154812369315401
20
2.43252185535297
30
0
41
1
10
0.169017922914623
20
2.41932308631437
30
0
41
1
10
0.183384644493561
20
2.40471255556106
30
0
41
1
10
0.1979036624641
20
2.38863409103116
30
0
41
1
10
0.212565110482377
20
2.37103118129742
30
0
41
1
10
0.22735808201411
20
2.35184717943775
30
0
41
1
10
0.242270585137088
20
2.33102553036781
30
0
41
1
10
0.257289500337947
20
2.30851002046276
30
0
41
1
10
0.272400539707775
20
2.28424505415814
30
0
41
1
10
0.287588215275765
20
2.25817594308842
30
0
41
1
10
0.302835790916816
20
2.23024926419402
30
0
41
1
10
0.317691428608214
20
2.20125977150397
30
0
41
1
10
0.332143426258931
20
2.17132774392658
30
0
41
1
10
0.346182237495508
20
2.14057509026085
30
0
41
1
10
0.360207582842033
20
2.10810451541836
30
0
41
1
10
0.374201843691175
20
2.07388340273066
30
0
41
1
10
0.388146467431721
20
2.03788169294306
30
0
41
1
10
0.401584860327141
20
2.00126329656523
30
0
41
1
10
0.414514359376643
20
1.96417801007191
30
0
41
1
10
0.426934806976174
20
1.92677349560411
30
0
41
1
10
0.439249648414954
20
1.88783262512509
30
0
41
1
10
0.451442056165924
20
1.84734492597024
30
0
41
1
10
0.46349468959399
20
1.80530287431003
30
0
41
1
10
0.475160051979096
20
1.7625439688184
30
0
41
1
10
0.486434946151331
20
1.71915818472883
30
0
41
1
10
0.49731775207032
20
1.67523491415457
30
0
41
1
10
0.50801291079485
20
1.62993121339909
30
0
41
1
10
0.518504387651824
20
1.58325467841084
30
0
41
1
10
0.528775970320563
20
1.53521601296952
30
0
41
1
10
0.538811325114995
20
1.48582910191018
30
0
41
1
10
0.54859404572159
20
1.43511111212222
30
0
41
1
10
0.558107708550974
20
1.38308256625607
30
0
41
1
10
0.567335927484628
20
1.32976742337182
30
0
41
1
10
0.576208794246838
20
1.27552093937442
30
0
41
1
10
0.58471735097935
20
1.22039647635911
30
0
41
1
10
0.592853457273783
20
1.1644488481904
30
0
41
1
10
0.600653093923086
20
1.10738496887522
30
0
41
1
10
0.608147270083283
20
1.04888902939895
30
0
41
1
10
0.615313710383653
20
0.988984061692015
30
0
41
1
10
0.622129940426188
20
0.927698644797113
30
0
41
1
10
0.628539553972963
20
0.865440166920053
30
0
41
1
10
0.6345293401939
20
0.802263340282833
30
0
41
1
10
0.640053524721672
20
0.738609077385501
30
0
41
1
10
0.64510976622509
20
0.674552560114762
30
0
41
1
10
0.64969689505919
20
0.610168556472431
30
0
41
1
10
0.653835605911361
20
0.545135866722843
30
0
41
1
10
0.657542275189741
20
0.479071558574495
30
0
41
1
10
0.660797784746546
20
0.412031884119816
30
0
41
1
10
0.663583535420681
20
0.344078770326354
30
0
41
1
10
0.665871477956319
20
0.275735334126055
30
0
41
1
10
0.667656424575835
20
0.207077866206121
30
0
41
1
10
0.668934310136905
20
0.138183802881266
30
0
41
1
10
0.669702214754871
20
0.069131571345482
30
0
41
1
10
0.669950445768492
20
0.0021403852065764
30
0
41
1
10
0.669732461802607
20
-0.0627115224161008
30
0
41
1
10
0.669100495961171
20
-0.125363936681276
30
0
41
1
10
0.668048543079721
20
-0.187898147971372
30
0
41
1
10
0.666578583096946
20
-0.250255602098399
30
0
41
1
10
0.664693375109191
20
-0.31237820785454
30
0
41
1
10
0.66239644046745
20
-0.374208692351713
30
0
41
1
10
0.65960218768608
20
-0.43773370202723
30
0
41
1
10
0.656267251924422
20
-0.50285432044127
30
0
41
1
10
0.652348484085557
20
-0.569455312611708
30
0
41
1
10
0.647959049155325
20
-0.63542579490323
30
0
41
1
10
0.643108534412729
20
-0.700698106570377
30
0
41
1
10
0.637807418713077
20
-0.76520716698165
30
0
41
1
10
0.632067021336756
20
-0.828890567596667
30
0
41
1
10
0.625899442576895
20
-0.891688774369818
30
0
41
1
10
0.61931750210297
20
-0.953545280413231
30
0
41
1
10
0.612334677472752
20
-1.014406727023
30
0
41
1
10
0.605008555631173
20
-1.07386980231634
30
0
41
1
10
0.597361709350849
20
-1.13190769417334
30
0
41
1
10
0.589416477672515
20
-1.18849910182497
30
0
41
1
10
0.581141064384369
20
-1.24395851240324
30
0
41
1
10
0.572498822087624
20
-1.29857733777835
30
0
41
1
10
0.563498109999539
20
-1.35230193056276
30
0
41
1
10
0.554148083584131
20
-1.40508014853712
30
0
41
1
10
0.544519482066598
20
-1.45656129678319
30
0
41
1
10
0.534628716660116
20
-1.50672285440382
30
0
41
1
10
0.524551843952107
20
-1.55525848752042
30
0
41
1
10
0.514310619626805
20
-1.60217700217028
30
0
41
1
10
0.503925980837185
20
-1.64749123262851
30
0
41
1
10
0.493350833196107
20
-1.69147804859168
30
0
41
1
10
0.482528120757191
20
-1.73441768715596
30
0
41
1
10
0.471468053024772
20
-1.77627864427288
30
0
41
1
10
0.460181260922027
20
-1.81703130009144
30
0
41
1
10
0.448758204896983
20
-1.8563929050385
30
0
41
1
10
0.437213804271242
20
-1.89436788694374
30
0
41
1
10
0.425562605585515
20
-1.93096310041356
30
0
41
1
10
0.41381875160527
20
-1.96618769241675
30
0
41
1
10
0.401769881376794
20
-2.00070054026038
30
0
41
1
10
0.389421383938874
20
-2.03443293727348
30
0
41
1
10
0.376779801363934
20
-2.06731696162608
30
0
41
1
10
0.364094477356961
20
-2.09873143617469
30
0
41
1
10
0.351379414872977
20
-2.12869834433861
30
0
41
1
10
0.338647979766279
20
-2.15724146727384
30
0
41
1
10
0.325169543108949
20
-2.1859706626715
30
0
41
1
10
0.310944808148967
20
-2.21464600470785
30
0
41
1
10
0.295977729793759
20
-2.24301994842977
30
0
41
1
10
0.281058810965096
20
-2.26958224821689
30
0
41
1
10
0.266105744451274
20
-2.29454721122649
30
0
41
1
10
0.251133424672336
20
-2.31792922696861
30
0
41
1
10
0.23615638344635
20
-2.33974502983452
30
0
41
1
10
0.221291258432473
20
-2.35988991329454
30
0
41
1
10
0.206550705245561
20
-2.37842025826089
30
0
41
1
10
0.191946265889261
20
-2.39539268738927
30
0
41
1
10
0.177488415958788
20
-2.41086381805034
30
0
41
1
10
0.163186609271399
20
-2.42489004629479
30
0
41
1
10
0.14904932512912
20
-2.43752735090069
30
0
41
1
10
0.135084116097534
20
-2.44883111922256
30
0
41
1
10
0.121297656529208
20
-2.45885599300903
30
0
41
1
10
0.107695790215384
20
-2.46765573362077
30
0
41
1
10
0.0942835808396119
20
-2.47528310411433
30
0
41
1
10
0.0810653503389034
20
-2.48178977184958
30
0
41
1
10
0.0676223341604718
20
-2.48740258593435
30
0
41
1
10
0.0539700313938276
20
-2.4920558028348
30
0
41
1
10
0.0401246380036184
20
-2.49568686132812
30
0
41
1
10
0.0265275881351208
20
-2.49820784882793
30
0
41
1
10
0.0131799756557029
20
-2.49967844149078
30
0
41
1
10
0.0043655333930808
20
-2.49999997754857
30
0
41
1
10
0
20
-2.5
30
0
0
SPLINE
5
B5
100
AcDbEntity
8
1
62
256
6
ByLayer
370
18
48
1
60
0
100
AcDbSpline
70
4
71
3
72
34
73
30
40
0
40
0
40
0
40
0
40
0.0377269580348689
40
0.0754841539277228
40
0.113239932392926
40
0.150964956009456
40
0.189745597468095
40
0.22856200707863
40
0.267377431328342
40
0.306156727867581
40
0.343902899702293
40
0.38168340433584
40
0.419463694331417
40
0.457209573211464
40
0.496110435652944
40
0.535048829604259
40
0.573987575862453
40
0.612888919185114
40
0.649738016644378
40
0.686618140549857
40
0.723498740621642
40
0.76034848794378
40
0.798219453467041
40
0.836122987101918
40
0.874026981317252
40
0.911898575443485
40
0.941263214116703
40
0.970635292552663
40
1
40
1
40
1
40
1
41
1
10
4
20
2.34373633329349
30
0
41
1
10
3.99999843195478
20
2.34843384418022
30
0
41
1
10
4.00048444866787
20
2.35762039698447
30
0
41
1
10
4.00267394928005
20
2.37077146415806
30
0
41
1
10
4.0063478564996
20
2.38327183128819
30
0
41
1
10
4.01157282729678
20
2.39521278276996
30
0
41
1
10
4.01842905629564
20
2.40655437948024
30
0
41
1
10
4.02696742453341
20
2.41727711383521
30
0
41
1
10
4.03712427951455
20
2.42727234328032
30
0
41
1
10
4.04879744648049
20
2.43645081848705
30
0
41
1
10
4.06195052469888
20
2.44483173164919
30
0
41
1
10
4.07651469675262
20
2.45245713789686
30
0
41
1
10
4.09258681869594
20
2.4594141169441
30
0
41
1
10
4.11032653098898
20
2.46577688786377
30
0
41
1
10
4.12978389532095
20
2.47153485725711
30
0
41
1
10
4.15097387902479
20
2.47669900230483
30
0
41
1
10
4.17365672809942
20
2.48123982925519
30
0
41
1
10
4.19736674525898
20
2.48511457054736
30
0
41
1
10
4.22199227774842
20
2.4883865493902
30
0
41
1
10
4.2474069934352
20
2.49112670161733
30
0
41
1
10
4.27400895072571
20
2.49342646021343
30
0
41
1
10
4.3020059344682
20
2.49533459761489
30
0
41
1
10
4.3314049011194
20
2.4968713494147
30
0
41
1
10
4.36219013934947
20
2.49806521416487
30
0
41
1
10
4.39403121588686
20
2.49893980623244
30
0
41
1
10
4.42441052591266
20
2.49948775937416
30
0
41
1
10
4.45304195106882
20
2.49980692751782
30
0
41
1
10
4.4796974980646
20
2.49996701837855
30
0
41
1
10
4.49780759672105
20
2.5000018449565
30
0
41
1
10
4.50694827857515
20
2.5
30
0
0
SPLINE
5
B6
100
AcDbEntity
8
1
62
256
6
ByLayer
370
18
48
1
60
0
100
AcDbSpline
70
4
71
3
72
34
73
30
40
0
40
0
40
0
40
0
40
0.0377865408435735
40
0.0756047714343282
40
0.113422660678419
40
0.151208735658131
40
0.19006925609739
40
0.228965270555381
40
0.267860711555214
40
0.306720449289706
40
0.344516970315797
40
0.382347294127472
40
0.420177146896188
40
0.457973025015044
40
0.496916874542563
40
0.535898527278686
40
0.574880064685343
40
0.613823756792656
40
0.650792617625029
40
0.687793509746367
40
0.724794878003035
40
0.761764388671887
40
0.799784243200643
40
0.837837187472148
40
0.875891313865112
40
0.913912781771456
40
0.942606176356221
40
0.971306286065963
40
1
40
1
40
1
40
1
41
1
10
5.49305172142485
20
2.5
30
0
41
1
10
5.50481639046882
20
2.50000396186814
30
0
41
1
10
5.52806326672575
20
2.49994498569327
30
0
41
1
10
5.5620858650175
20
2.49967241075519
30
0
41
1
10
5.59518051231145
20
2.49916548800497
30
0
41
1
10
5.62759057260949
20
2.49838446610421
30
0
41
1
10
5.65922737673439
20
2.49727886677813
30
0
41
1
10
5.69001443152048
20
2.49579818017484
30
0
41
1
10
5.71959525795864
20
2.49391332313782
30
0
41
1
10
5.7476465272743
20
2.49160553910215
30
0
41
1
10
5.77415544455581
20
2.48884587317811
30
0
41
1
10
5.79913680576762
20
2.48561768687891
30
0
41
1
10
5.82279013206614
20
2.48186505902922
30
0
41
1
10
5.84529157331176
20
2.47751330816219
30
0
41
1
10
5.86654861752201
20
2.4725037686624
30
0
41
1
10
5.88649347871606
20
2.4667923860571
30
0
41
1
10
5.9048826536388
20
2.46040902691384
30
0
41
1
10
5.92139582943277
20
2.45345164264658
30
0
41
1
10
5.93609606822848
20
2.44593422394833
30
0
41
1
10
5.94908117353291
20
2.43789274726374
30
0
41
1
10
5.96059890798734
20
2.42919325154349
30
0
41
1
10
5.97073284894463
20
2.41974331683663
30
0
41
1
10
5.9794235610505
20
2.40950862255009
30
0
41
1
10
5.98664117417303
20
2.39847627391953
30
0
41
1
10
5.99231613007368
20
2.38675498350988
30
0
41
1
10
5.99611723922488
20
2.37536879323522
30
0
41
1
10
5.99846056673588
20
2.36450595927554
30
0
41
1
10
5.99972124189967
20
2.35433255830559
30
0
41
1
10
6.00000098937034
20
2.34730874370535
30
0
41
1
10
6
20
2.34373633329347
30
0
0
SPLINE
5
B7
100
AcDbEntity
8
1
62
256
6
ByLayer
370
18
48
1
60
0
100
AcDbSpline
70
4
71
3
72
122
73
118
40
0
40
0
40
0
40
0
40
0.0132574563182638
40
0.0265164081790425
40
0.0397749797293875
40
0.0530319173813051
40
0.0663533324904354
40
0.0796776285239863
40
0.0930008361252056
40
0.10632076666536
40
0.115869346153475
40
0.125418800018999
40
0.134966891764664
40
0.144520546207792
40
0.154075754294153
40
0.163628299441444
40
0.170992964874122
40
0.17836145909136
40
0.185728477133118
40
0.193091128479053
40
0.198551551089482
40
0.204015111194083
40
0.20947783286268
40
0.214937111462283
40
0.22052905459799
40
0.22612650388773
40
0.231723006316856
40
0.237313656967578
40
0.242789084516853
40
0.248270829487994
40
0.253752708760172
40
0.259228319657702
40
0.264899918238377
40
0.270577040058724
40
0.27625542010385
40
0.281928736046776
40
0.28839215566598
40
0.294860232441717
40
0.301332150384111
40
0.30780444361547
40
0.314271402349466
40
0.322327014544833
40
0.330384615475632
40
0.338443095387929
40
0.34649990646652
40
0.357805412121264
40
0.369112357639188
40
0.380417619733456
40
0.389821219030558
40
0.399227432489386
40
0.408633006629001
40
0.418035733874022
40
0.427446114846529
40
0.436860524975337
40
0.446274329574647
40
0.455683884461877
40
0.465562985509332
40
0.475448003107973
40
0.485332671948888
40
0.495211297129738
40
0.504246942107909
40
0.513287321304513
40
0.522327836211283
40
0.531363666345225
40
0.540396436409484
40
0.54943334370129
40
0.55847069215933
40
0.56750406408409
40
0.577105841824267
40
0.586711221131939
40
0.596317324268533
40
0.605920089404816
40
0.616984380071288
40
0.628050611630408
40
0.639115460887019
40
0.650178761928805
40
0.661243357493483
40
0.672305950479358
40
0.680769681860186
40
0.689237496653557
40
0.697702506822332
40
0.706162411638551
40
0.711859475626707
40
0.717560204060867
40
0.723259656606792
40
0.728954979557046
40
0.73481199872838
40
0.740675927396491
40
0.746538881047242
40
0.752394569040352
40
0.758107226794788
40
0.763826856867199
40
0.769547122562735
40
0.775260648116167
40
0.781178781307333
40
0.787102351787254
40
0.793027210437412
40
0.798947101768253
40
0.806142949864237
40
0.813345026570078
40
0.820551524759337
40
0.827757954900458
40
0.83495745760167
40
0.844159107857292
40
0.853364596738721
40
0.86257148406613
40
0.871775042036223
40
0.882401563270955
40
0.893031609599109
40
0.903664792710607
40
0.914299535105975
40
0.924933180497984
40
0.935562102039785
40
0.951669442128006
40
0.967779960071272
40
0.983891401025405
40
1
40
1
40
1
40
1
41
1
10
16.5
20
-2
30
0
41
1
10
16.5195930737929
20
-1.99172414954643
30
0
41
1
10
16.5586333517559
20
-1.97485896339151
30
0
41
1
10
16.6167739523451
20
-1.9486486140168
30
0
41
1
10
16.6744216916119
20
-1.9214501037906
30
0
41
1
10
16.7316151929833
20
-1.89316839494268
30
0
41
1
10
16.7883023592452
20
-1.86374805824718
30
0
41
1
10
16.8443816141096
20
-1.83308530349794
30
0
41
1
10
16.8996406324799
20
-1.80112419060212
30
0
41
1
10
16.9488308364307
20
-1.77091705947246
30
0
41
1
10
16.992142592884
20
-1.74281542967088
30
0
41
1
10
17.0297759043894
20
-1.71714180504077
30
0
41
1
10
17.0666891223494
20
-1.69055957486787
30
0
41
1
10
17.1027916072963
20
-1.66300909071519
30
0
41
1
10
17.1379397565027
20
-1.63439669156221
30
0
41
1
10
17.169371981884
20
-1.60690705698743
30
0
41
1
10
17.1972430369913
20
-1.58076461711854
30
0
41
1
10
17.2217284151704
20
-1.55618382996935
30
0
41
1
10
17.2452079265749
20
-1.53075941680435
30
0
41
1
10
17.2656225346956
20
-1.50671419940717
30
0
41
1
10
17.2831829422021
20
-1.48426167408842
30
0
41
1
10
17.2981343394196
20
-1.46360605932796
30
0
41
1
10
17.3122247542843
20
-1.44240306303799
30
0
41
1
10
17.3254794561972
20
-1.42047218122034
30
0
41
1
10
17.3377767459922
20
-1.39777914807762
30
0
41
1
10
17.3490107478776
20
-1.37431555554048
30
0
41
1
10
17.359007059946
20
-1.3502905070451
30
0
41
1
10
17.3676235243507
20
-1.32590477981224
30
0
41
1
10
17.3748008834873
20
-1.30118837550426
30
0
41
1
10
17.3805724049236
20
-1.27620192913571
30
0
41
1
10
17.3849893997764
20
-1.25083925047353
30
0
41
1
10
17.3880807132534
20
-1.22485694891075
30
0
41
1
10
17.3897897081
20
-1.1982890890269
30
0
41
1
10
17.3901628323072
20
-1.17118101617113
30
0
41
1
10
17.3892711875939
20
-1.14390429412815
30
0
41
1
10
17.3871038408682
20
-1.11524137965381
30
0
41
1
10
17.3835797267258
20
-1.08520661410526
30
0
41
1
10
17.37868727788
20
-1.05380954341472
30
0
41
1
10
17.3727290264589
20
-1.02234823826453
30
0
41
1
10
17.3658657316399
20
-0.990849422928751
30
0
41
1
10
17.3576252305517
20
-0.956737934305218
30
0
41
1
10
17.3479760974327
20
-0.919985346437974
30
0
41
1
10
17.3369203446686
20
-0.880550252911347
30
0
41
1
10
17.325331068549
20
-0.84099628266512
30
0
41
1
10
17.3118022582444
20
-0.795958950183048
30
0
41
1
10
17.2964400775089
20
-0.745304290423294
30
0
41
1
10
17.2794718360711
20
-0.688864621662042
30
0
41
1
10
17.2637863128403
20
-0.635136128009791
30
0
41
1
10
17.2495817215565
20
-0.584164360036943
30
0
41
1
10
17.2368567808558
20
-0.53603018391662
30
0
41
1
10
17.2248377548372
20
-0.487514668056411
30
0
41
1
10
17.2136457727102
20
-0.438608966949285
30
0
41
1
10
17.2034043544292
20
-0.389310576085323
30
0
41
1
10
17.1941863973625
20
-0.339638929191201
30
0
41
1
10
17.1860732307314
20
-0.289642421361627
30
0
41
1
10
17.1790288468363
20
-0.23852463285752
30
0
41
1
10
17.1732104534774
20
-0.186296106794381
30
0
41
1
10
17.1687283927389
20
-0.132993173442814
30
0
41
1
10
17.1657121199424
20
-0.0795275855577308
30
0
41
1
10
17.164244071952
20
-0.0274957535435514
30
0
41
1
10
17.1642133928708
20
0.023040061365076
30
0
41
1
10
17.1654548739396
20
0.0720360705542289
30
0
41
1
10
17.1679515966251
20
0.120956812194155
30
0
41
1
10
17.1716881555129
20
0.169738646403687
30
0
41
1
10
17.1766517421466
20
0.218339487635273
30
0
41
1
10
17.1827836230595
20
0.266727161671896
30
0
41
1
10
17.190027948695
20
0.31486283584361
30
0
41
1
10
17.1985032049608
20
0.363708720146411
30
0
41
1
10
17.208235293351
20
0.41321601910143
30
0
41
1
10
17.2191892464077
20
0.463347586505454
30
0
41
1
10
17.2310554017357
20
0.513087787701904
30
0
41
1
10
17.2443648865416
20
0.564924835579971
30
0
41
1
10
17.2591394793044
20
0.61878386438128
30
0
41
1
10
17.2752585209673
20
0.674615887663528
30
0
41
1
10
17.2917825081908
20
0.729975116936092
30
0
41
1
10
17.3084685565519
20
0.784899672989059
30
0
41
1
10
17.3249241035841
20
0.839465608150794
30
0
41
1
10
17.3395021852033
20
0.88950072143215
30
0
41
1
10
17.3520663434874
20
0.935123088818078
30
0
41
1
10
17.3625663092513
20
0.976421720955896
30
0
41
1
10
17.3718635548
20
1.01764649676127
30
0
41
1
10
17.3788087965176
20
1.0543139428119
30
0
41
1
10
17.3836993986579
20
1.0864371551766
30
0
41
1
10
17.3869524908227
20
1.11403760872012
30
0
41
1
10
17.3891414301021
20
1.14155219165434
30
0
41
1
10
17.3901666779637
20
1.16919943062333
30
0
41
1
10
17.3898513136428
20
1.19693885004559
30
0
41
1
10
17.3880851295697
20
1.22471116095588
30
0
41
1
10
17.3848231825432
20
1.25218393381345
30
0
41
1
10
17.3800462063471
20
1.27905363732165
30
0
41
1
10
17.3737380850107
20
1.30526182628404
30
0
41
1
10
17.3660085253242
20
1.33078334610855
30
0
41
1
10
17.3568664971369
20
1.35577974578116
30
0
41
1
10
17.3462385857064
20
1.3804880718856
30
0
41
1
10
17.3341253433186
20
1.40485304005189
30
0
41
1
10
17.320597535512
20
1.42885564448336
30
0
41
1
10
17.3059052791892
20
1.45220306159178
30
0
41
1
10
17.2890201432153
20
1.47652158048162
30
0
41
1
10
17.2697852248293
20
1.50166648076783
30
0
41
1
10
17.248082399121
20
1.52750152671264
30
0
41
1
10
17.2252565274286
20
1.55248403634263
30
0
41
1
10
17.2014550007197
20
1.57664682767348
30
0
41
1
10
17.1745212277046
20
1.60220628839565
30
0
41
1
10
17.1443027353961
20
1.62897900513593
30
0
41
1
10
17.1106502874739
20
1.65676795152113
30
0
41
1
10
17.0760680799129
20
1.68355337823178
30
0
41
1
10
17.0388644931533
20
1.71074417069408
30
0
41
1
10
16.9990338271427
20
1.73827781766028
30
0
41
1
10
16.9565322828244
20
1.76605758046708
30
0
41
1
10
16.9133034289526
20
1.79285696744205
30
0
41
1
10
16.8694363699781
20
1.81873601273978
30
0
41
1
10
16.8250183877789
20
1.84375292222031
30
0
41
1
10
16.7724166598517
20
1.87213866628744
30
0
41
1
10
16.7113894673277
20
1.90344672432918
30
0
41
1
10
16.6416847791117
20
1.93716175667512
30
0
41
1
10
16.5712115244682
20
1.96937623378479
30
0
41
1
10
16.5238107318608
20
1.98994866737478
30
0
41
1
10
16.5
20
2
30
0
0
SPLINE
5
B8
100
AcDbEntity
8
1
62
256
6
ByLayer
370
18
48
1
60
0
100
AcDbSpline
70
4
71
3
72
32
73
28
40
0
40
0
40
0
40
0
40
0.0399059778597434
40
0.0799483580586944
40
0.120102838099366
40
0.160344675893463
40
0.200648767043422
40
0.240989725451362
40
0.281341966769972
40
0.321679794172012
40
0.363894927383457
40
0.406036514763008
40
0.448075249269347
40
0.489982125901011
40
0.531728553295241
40
0.573286463495168
40
0.614628419029276
40
0.655727716468844
40
0.696558485661232
40
0.737095783878897
40
0.777315684175247
40
0.817195357297914
40
0.854465176909134
40
0.891396135789814
40
0.927972114353851
40
0.964178056060421
40
1
40
1
40
1
40
1
41
1
10
18
20
-2.5
30
0
41
1
10
17.979298137082
20
-2.50000007960455
30
0
41
1
10
17.9378310535828
20
-2.49948493612908
30
0
41
1
10
17.8755501999191
20
-2.49716075514062
30
0
41
1
10
17.8131356545408
20
-2.4932688695971
30
0
41
1
10
17.7506438852552
20
-2.48779767481196
30
0
41
1
10
17.6881348156632
20
-2.48073835840476
30
0
41
1
10
17.6256683813066
20
-2.4720850944384
30
0
41
1
10
17.5633052042317
20
-2.46183506462679
30
0
41
1
10
17.500120503995
20
-2.44980077971046
30
0
41
1
10
17.4361883152336
20
-2.43589611016447
30
0
41
1
10
17.3715883747386
20
-2.42003625725599
30
0
41
1
10
17.3073755252156
20
-2.40244669823705
30
0
41
1
10
17.2436190041852
20
-2.38314239756601
30
0
41
1
10
17.1803872116385
20
-2.36214199886166
30
0
41
1
10
17.117747488217
20
-2.33946777046266
30
0
41
1
10
17.0557658708296
20
-2.31514552553036
30
0
41
1
10
16.9945068618744
20
-2.28920452471632
30
0
41
1
10
16.9340332093097
20
-2.26167736176164
30
0
41
1
10
16.8744056829421
20
-2.2325998272327
30
0
41
1
10
16.8156829170871
20
-2.2020107746106
30
0
41
1
10
16.759006584104
20
-2.17055438671384
30
0
41
1
10
16.7043779454805
20
-2.13837479896366
30
0
41
1
10
16.6517897663911
20
-2.10561290714376
30
0
41
1
10
16.6001879919438
20
-2.07166403620958
30
0
41
1
10
16.5496073653323
20
-2.03657267966124
30
0
41
1
10
16.5164194419691
20
-2.01231013200774
30
0
41
1
10
16.5
20
-2
30
0
0
SPLINE
5
B9
100
AcDbEntity
8
1
62
256
6
ByLayer
370
18
48
1
60
0
100
AcDbSpline
70
4
71
3
72
34
73
30
40
0
40
0
40
0
40
0
40
0.0377269580348692
40
0.0754841539277229
40
0.113239932392926
40
0.150964956009457
40
0.189745597468094
40
0.228562007078631
40
0.267377431328342
40
0.306156727867583
40
0.343902899702293
40
0.381683404335839
40
0.419463694331419
40
0.457209573211464
40
0.496110435652948
40
0.53504882960426
40
0.573987575862453
40
0.612888919185115
40
0.649738016644381
40
0.686618140549858
40
0.72349874062164
40
0.760348487943781
40
0.798219453467041
40
0.836122987101921
40
0.874026981317252
40
0.911898575443485
40
0.941263214116703
40
0.970635292552663
40
1
40
1
40
1
40
1
41
1
10
6
20
-2.34373633329348
30
0
41
1
10
6.00000156804522
20
-2.34843384418022
30
0
41
1
10
5.99951555133213
20
-2.35762039698447
30
0
41
1
10
5.99732605071996
20
-2.37077146415806
30
0
41
1
10
5.9936521435004
20
-2.38327183128818
30
0
41
1
10
5.98842717270322
20
-2.39521278276996
30
0
41
1
10
5.98157094370437
20
-2.40655437948024
30
0
41
1
10
5.97303257546659
20
-2.41727711383521
30
0
41
1
10
5.96287572048545
20
-2.42727234328032
30
0
41
1
10
5.9512025535195
20
-2.43645081848704
30
0
41
1
10
5.93804947530112
20
-2.44483173164919
30
0
41
1
10
5.92348530324739
20
-2.45245713789686
30
0
41
1
10
5.90741318130405
20
-2.4594141169441
30
0
41
1
10
5.88967346901102
20
-2.46577688786378
30
0
41
1
10
5.87021610467904
20
-2.47153485725711
30
0
41
1
10
5.84902612097521
20
-2.47669900230483
30
0
41
1
10
5.82634327190057
20
-2.48123982925519
30
0
41
1
10
5.80263325474102
20
-2.48511457054736
30
0
41
1
10
5.77800772225158
20
-2.4883865493902
30
0
41
1
10
5.7525930065648
20
-2.49112670161733
30
0
41
1
10
5.72599104927429
20
-2.49342646021343
30
0
41
1
10
5.69799406553181
20
-2.49533459761489
30
0
41
1
10
5.6685950988806
20
-2.4968713494147
30
0
41
1
10
5.63780986065053
20
-2.49806521416487
30
0
41
1
10
5.60596878411313
20
-2.49893980623244
30
0
41
1
10
5.57558947408735
20
-2.49948775937416
30
0
41
1
10
5.54695804893117
20
-2.49980692751782
30
0
41
1
10
5.52030250193541
20
-2.49996701837855
30
0
41
1
10
5.50219240327894
20
-2.5000018449565
30
0
41
1
10
5.49305172142484
20
-2.5
30
0
0
SPLINE
5
BA
100
AcDbEntity
8
1
62
256
6
ByLayer
370
18
48
1
60
0
100
AcDbSpline
70
4
71
3
72
34
73
30
40
0
40
0
40
0
40
0
40
0.0377865408435741
40
0.0756047714343323
40
0.113422660678424
40
0.151208735658134
40
0.190069256097389
40
0.228965270555388
40
0.267860711555216
40
0.306720449289712
40
0.344516970315803
40
0.382347294127477
40
0.420177146896194
40
0.457973025015052
40
0.496916874542571
40
0.535898527278697
40
0.574880064685353
40
0.613823756792667
40
0.650792617625044
40
0.687793509746385
40
0.724794878003056
40
0.761764388671912
40
0.799784243200668
40
0.837837187472174
40
0.875891313865137
40
0.913912781771482
40
0.942606176356238
40
0.971306286065972
40
1
40
1
40
1
40
1
41
1
10
4.50694827857515
20
-2.5
30
0
41
1
10
4.49518360953118
20
-2.50000396186814
30
0
41
1
10
4.47193673327425
20
-2.49994498569327
30
0
41
1
10
4.4379141349825
20
-2.49967241075519
30
0
41
1
10
4.40481948768855
20
-2.49916548800497
30
0
41
1
10
4.37240942739051
20
-2.49838446610421
30
0
41
1
10
4.34077262326562
20
-2.49727886677813
30
0
41
1
10
4.3099855684795
20
-2.49579818017483
30
0
41
1
10
4.28040474204136
20
-2.49391332313782
30
0
41
1
10
4.2523534727257
20
-2.49160553910215
30
0
41
1
10
4.22584455544418
20
-2.48884587317811
30
0
41
1
10
4.20086319423239
20
-2.48561768687891
30
0
41
1
10
4.17720986793386
20
-2.48186505902922
30
0
41
1
10
4.15470842668825
20
-2.47751330816219
30
0
41
1
10
4.13345138247799
20
-2.4725037686624
30
0
41
1
10
4.11350652128394
20
-2.4667923860571
30
0
41
1
10
4.09511734636119
20
-2.46040902691384
30
0
41
1
10
4.07860417056724
20
-2.45345164264658
30
0
41
1
10
4.06390393177151
20
-2.44593422394833
30
0
41
1
10
4.0509188264671
20
-2.43789274726374
30
0
41
1
10
4.03940109201266
20
-2.42919325154349
30
0
41
1
10
4.02926715105536
20
-2.41974331683662
30
0
41
1
10
4.02057643894949
20
-2.40950862255009
30
0
41
1
10
4.01335882582694
20
-2.39847627391953
30
0
41
1
10
4.00768386992627
20
-2.38675498350988
30
0
41
1
10
4.00388276077507
20
-2.37536879323522
30
0
41
1
10
4.00153943326408
20
-2.36450595927555
30
0
41
1
10
4.0002787581003
20
-2.3543325583056
30
0
41
1
10
3.99999901062971
20
-2.34730874370536
30
0
41
1
10
4
20
-2.34373633329349
30
0
0
SPLINE
5
BB
100
AcDbEntity
8
1
62
256
6
ByLayer
370
18
48
1
60
0
100
AcDbSpline
70
4
71
3
72
32
73
28
40
0
40
0
40
0
40
0
40
0.039905977859744
40
0.0799483580586947
40
0.120102838099366
40
0.160344675893462
40
0.20064876704342
40
0.240989725451362
40
0.28134196676997
40
0.32167979417201
40
0.363894927383455
40
0.406036514763005
40
0.448075249269343
40
0.489982125901009
40
0.53172855329524
40
0.573286463495167
40
0.614628419029274
40
0.655727716468842
40
0.696558485661229
40
0.737095783878895
40
0.777315684175246
40
0.817195357297914
40
0.854465176909132
40
0.891396135789814
40
0.92797211435385
40
0.964178056060421
40
1
40
1
40
1
40
1
41
1
10
18
20
2.5
30
0
41
1
10
18.020701862918
20
2.50000007960455
30
0
41
1
10
18.0621689464172
20
2.49948493612908
30
0
41
1
10
18.1244498000809
20
2.49716075514062
30
0
41
1
10
18.1868643454592
20
2.4932688695971
30
0
41
1
10
18.2493561147448
20
2.48779767481196
30
0
41
1
10
18.3118651843368
20
2.48073835840476
30
0
41
1
10
18.3743316186934
20
2.47208509443841
30
0
41
1
10
18.4366947957683
20
2.46183506462679
30
0
41
1
10
18.499879496005
20
2.44980077971047
30
0
41
1
10
18.5638116847664
20
2.43589611016447
30
0
41
1
10
18.6284116252614
20
2.42003625725599
30
0
41
1
10
18.6926244747844
20
2.40244669823705
30
0
41
1
10
18.7563809958148
20
2.38314239756601
30
0
41
1
10
18.8196127883615
20
2.36214199886167
30
0
41
1
10
18.882252511783
20
2.33946777046266
30
0
41
1
10
18.9442341291704
20
2.31514552553036
30
0
41
1
10
19.0054931381256
20
2.28920452471632
30
0
41
1
10
19.0659667906903
20
2.26167736176164
30
0
41
1
10
19.1255943170579
20
2.2325998272327
30
0
41
1
10
19.1843170829129
20
2.2020107746106
30
0
41
1
10
19.240993415896
20
2.17055438671384
30
0
41
1
10
19.2956220545195
20
2.13837479896366
30
0
41
1
10
19.3482102336089
20
2.10561290714377
30
0
41
1
10
19.3998120080562
20
2.07166403620958
30
0
41
1
10
19.4503926346677
20
2.03657267966124
30
0
41
1
10
19.4835805580309
20
2.01231013200773
30
0
41
1
10
19.5
20
2
30
0
0
SPLINE
5
BC
100
AcDbEntity
8
1
62
256
6
ByLayer
370
18
48
1
60
0
100
AcDbSpline
70
4
71
3
72
33
73
29
40
0
40
0
40
0
40
0
40
0.0324780377057688
40
0.0652730785431887
40
0.0983748171727567
40
0.131772202671052
40
0.165453457676737
40
0.198797515454285
40
0.232390895897717
40
0.266220533072658
40
0.300272785762896
40
0.341081525158128
40
0.382160770584678
40
0.423484720873725
40
0.465026734052871
40
0.506759426209844
40
0.548654774741209
40
0.590684225186888
40
0.632818800818335
40
0.675029214125608
40
0.717285979336675
40
0.759559525101199
40
0.801820306480719
40
0.841628134519695
40
0.881374017060903
40
0.921033773847917
40
0.960583572284789
40
1
40
1
40
1
40
1
41
1
10
19.5
20
-2
30
0
41
1
10
19.4851138948502
20
-2.01116125550683
30
0
41
1
10
19.45505326867
20
-2.0331899259561
30
0
41
1
10
19.4093032171832
20
-2.06516455765458
30
0
41
1
10
19.3627069332855
20
-2.09620570750572
30
0
41
1
10
19.3152899556151
20
-2.12627987241241
30
0
41
1
10
19.2673731427649
20
-2.15518108172388
30
0
41
1
10
19.2189996601023
20
-2.18290311475364
30
0
41
1
10
19.1702129689944
20
-2.20944152100273
30
0
41
1
10
19.1207574116978
20
-2.23493547830033
30
0
41
1
10
19.0674555417381
20
-2.26092625430339
30
0
41
1
10
19.010234354128
20
-2.2871161042473
30
0
41
1
10
18.9490343471784
20
-2.31318189901743
30
0
41
1
10
18.8871067314206
20
-2.33763138011444
30
0
41
1
10
18.8245159375362
20
-2.36043499670925
30
0
41
1
10
18.7613278758652
20
-2.38156667026916
30
0
41
1
10
18.6976097972061
20
-2.40100385145915
30
0
41
1
10
18.6334300300312
20
-2.41872761159482
30
0
41
1
10
18.5688577428594
20
-2.43472270051941
30
0
41
1
10
18.5039626973822
20
-2.44897758834077
30
0
41
1
10
18.4388149910218
20
-2.46148448746757
30
0
41
1
10
18.3734848400221
20
-2.47223935036351
30
0
41
1
10
18.3092868987727
20
-2.48107064129645
30
0
41
1
10
18.2462932968174
20
-2.48809625672411
30
0
41
1
10
18.1845684872864
20
-2.49343343483895
30
0
41
1
10
18.1229211467739
20
-2.49723009364446
30
0
41
1
10
18.0614056517297
20
-2.49949750390993
30
0
41
1
10
18.020447865845
20
-2.50000007576677
30
0
41
1
10
18
20
-2.5
30
0
0
SPLINE
5
BD
100
AcDbEntity
8
1
62
256
6
ByLayer
370
18
48
1
60
0
100
AcDbSpline
70
4
71
3
72
95
73
91
40
0
40
0
40
0
40
0
40
0.0110550023193469
40
0.0221203993832856
40
0.0331898788448801
40
0.0442564112768995
40
0.0553123667436238
40
0.0667148064917482
40
0.0781268869200169
40
0.0895428023971025
40
0.100956031044124
40
0.112359434636409
40
0.126161268931185
40
0.139973062746847
40
0.153785458861653
40
0.167588115059561
40
0.181704772582127
40
0.195831024824877
40
0.20995751331551
40
0.224074493212255
40
0.236530277326391
40
0.24899615133515
40
0.261465019875074
40
0.27393015482547
40
0.286385318585029
40
0.299218283386255
40
0.312065332976604
40
0.324915368223882
40
0.337759080947184
40
0.350589244072088
40
0.360576635053811
40
0.37057003226891
40
0.380562527959786
40
0.390548688830717
40
0.400767686758345
40
0.410995670543125
40
0.421222237039745
40
0.431439300553187
40
0.439762772497942
40
0.448092692162534
40
0.456421991133863
40
0.464744616011512
40
0.473301128413935
40
0.481865856401474
40
0.490430266381152
40
0.498986344717172
40
0.507315785180011
40
0.515652948977395
40
0.523990362076061
40
0.532320142808544
40
0.540895973442284
40
0.549479213381942
40
0.558063138253044
40
0.566639903677511
40
0.577108371843461
40
0.587587189359905
40
0.598067579625114
40
0.608538194509722
40
0.619304115606248
40
0.630077958767142
40
0.640853010330274
40
0.651620580426767
40
0.663247687880901
40
0.674884912150562
40
0.686526737309233
40
0.698166237428287
40
0.709795255350026
40
0.721751009945932
40
0.733715655987039
40
0.745683670576463
40
0.757649051856246
40
0.769605423565583
40
0.784488490365266
40
0.799382668723816
40
0.814276609124548
40
0.829159351193084
40
0.84137239001991
40
0.85359573988468
40
0.865821998185334
40
0.87804431163716
40
0.890256480486443
40
0.903775301338649
40
0.917304829588669
40
0.930833549186509
40
0.94435126644575
40
0.955474381962205
40
0.966608263960649
40
0.977745142109751
40
0.988877860961801
40
1
40
1
40
1
40
1
41
1
10
4
20
-2.34373633329349
30
0
41
1
10
4.00000343056588
20
-2.33930046688084
30
0
41
1
10
4.00042943563704
20
-2.33024940220261
30
0
41
1
10
4.00234058739739
20
-2.31613173007581
30
0
41
1
10
4.00548481415458
20
-2.30150556429567
30
0
41
1
10
4.00983784503758
20
-2.28639933613306
30
0
41
1
10
4.01543297488995
20
-2.27067334003313
30
0
41
1
10
4.02229371591378
20
-2.25432420018278
30
0
41
1
10
4.03042988620463
20
-2.23736227659898
30
0
41
1
10
4.03974052304706
20
-2.21998636789516
30
0
41
1
10
4.05019097006721
20
-2.20223546634478
30
0
41
1
10
4.06256365460116
20
-2.18287078562968
30
0
41
1
10
4.07712138694333
20
-2.1618269841305
30
0
41
1
10
4.0941233340631
20
-2.13906935611646
30
0
41
1
10
4.11262757815673
20
-2.11595372095341
30
0
41
1
10
4.1327411705044
20
-2.09236357255569
30
0
41
1
10
4.15447056898519
20
-2.06834014500601
30
0
41
1
10
4.17782318200409
20
-2.04394116220997
30
0
41
1
10
4.20260214157936
20
-2.01941973241016
30
0
41
1
10
4.22774913247267
20
-1.99581260311254
30
0
41
1
10
4.25306310917703
20
-1.97317893986139
30
0
41
1
10
4.2783695975222
20
-1.9515662822728
30
0
41
1
10
4.30473678840071
20
-1.93007265970987
30
0
41
1
10
4.33214422607687
20
-1.90876864556806
30
0
41
1
10
4.36087076207883
20
-1.88750373128771
30
0
41
1
10
4.39096210123787
20
-1.86633987698323
30
0
41
1
10
4.42246921068183
20
-1.84536840110736
30
0
41
1
10
4.45509292176109
20
-1.82489448073772
30
0
41
1
10
4.48881114199975
20
-1.80502874796007
30
0
41
1
10
4.52104868750283
20
-1.78728537063683
30
0
41
1
10
4.55154362529109
20
-1.77157313883747
30
0
41
1
10
4.58006759437732
20
-1.75777068460889
30
0
41
1
10
4.60925054498421
20
-1.74458090724367
30
0
41
1
10
4.63930925601425
20
-1.73197312299115
30
0
41
1
10
4.67026122506314
20
-1.72003532193567
30
0
41
1
10
4.70210671054827
20
-1.70886019446406
30
0
41
1
10
4.73457045959287
20
-1.69861778299709
30
0
41
1
10
4.76556929345172
20
-1.68996080389472
30
0
41
1
10
4.79495735396245
20
-1.6827504797994
30
0
41
1
10
4.82261130730407
20
-1.67681152750921
30
0
41
1
10
4.85055990127914
20
-1.6716726246606
30
0
41
1
10
4.87902275429196
20
-1.66733172343507
30
0
41
1
10
4.90797703187509
20
-1.66386018063081
30
0
41
1
10
4.93738298025987
20
-1.66130186897381
30
0
41
1
10
4.96691033815668
20
-1.65970445588371
30
0
41
1
10
4.99623272388306
20
-1.65909239347809
30
0
41
1
10
5.02529992757565
20
-1.65945618161956
30
0
41
1
10
5.05406714082507
20
-1.66074722229219
30
0
41
1
10
5.08273457578236
20
-1.66295364603165
30
0
41
1
10
5.11152282320622
20
-1.66609332653247
30
0
41
1
10
5.14038228579566
20
-1.67018685642041
30
0
41
1
10
5.1692690130978
20
-1.67522116363681
30
0
41
1
10
5.19785441754437
20
-1.68111572822057
30
0
41
1
10
5.22816600159168
20
-1.68832522979063
30
0
41
1
10
5.26007594429485
20
-1.69703163160075
30
0
41
1
10
5.29343359493387
20
-1.70737550527001
30
0
41
1
10
5.32614699337816
20
-1.71870979163965
30
0
41
1
10
5.35847432549665
20
-1.73106494380622
30
0
41
1
10
5.39037409002843
20
-1.74439142868187
30
0
41
1
10
5.42182029093083
20
-1.75863150614731
30
0
41
1
10
5.45250006442063
20
-1.77357918230399
30
0
41
1
10
5.48319439658948
20
-1.78956855834449
30
0
41
1
10
5.51383554028729
20
-1.8065820871265
30
0
41
1
10
5.54435523009544
20
-1.82459918426623
30
0
41
1
10
5.57397533897085
20
-1.84311555223297
30
0
41
1
10
5.60267949184645
20
-1.86204854236593
30
0
41
1
10
5.63072684904348
20
-1.88150710884016
30
0
41
1
10
5.65809942402897
20
-1.90144083836013
30
0
41
1
10
5.68477370508623
20
-1.92181068218417
30
0
41
1
10
5.71049123087606
20
-1.94237705695399
30
0
41
1
10
5.73523450212211
20
-1.96307601617611
30
0
41
1
10
5.76093470043032
20
-1.98554693310124
30
0
41
1
10
5.78729454221809
20
-2.00975688509192
30
0
41
1
10
5.81396329297187
20
-2.03564132785543
30
0
41
1
10
5.83905671871815
20
-2.06141575108589
30
0
41
1
10
5.86113275071693
20
-2.08546402515428
30
0
41
1
10
5.88048242591871
20
-2.10776218539371
30
0
41
1
10
5.897389484077
20
-2.12833245717004
30
0
41
1
10
5.9131392727666
20
-2.14864862415625
30
0
41
1
10
5.92769388498881
20
-2.16866038634485
30
0
41
1
10
5.94149678705041
20
-2.18902676651527
30
0
41
1
10
5.95435545742268
20
-2.20966447971961
30
0
41
1
10
5.96606193929586
20
-2.2304833104384
30
0
41
1
10
5.97613890250929
20
-2.25074395877406
30
0
41
1
10
5.98403837427152
20
-2.26923212760811
30
0
41
1
10
5.99004361748137
20
-2.28602674824586
30
0
41
1
10
5.99444877795255
20
-2.30123503877317
30
0
41
1
10
5.99763092928142
20
-2.31595787470035
30
0
41
1
10
5.99956530898676
20
-2.33016629623491
30
0
41
1
10
5.9999965016253
20
-2.33927348502221
30
0
41
1
10
6
20
-2.34373633329348
30
0
0
SPLINE
5
BE
100
AcDbEntity
8
1
62
256
6
ByLayer
370
18
48
1
60
0
100
AcDbSpline
70
4
71
3
72
95
73
91
40
0
40
0
40
0
40
0
40
0.0110550023193473
40
0.022120399383286
40
0.0331898788448809
40
0.0442564112769003
40
0.0553123667436248
40
0.06671480649175
40
0.0781268869200176
40
0.0895428023971041
40
0.100956031044126
40
0.112359434636411
40
0.126161268931186
40
0.139973062746849
40
0.153785458861656
40
0.167588115059564
40
0.181704772582129
40
0.195831024824879
40
0.209957513315511
40
0.224074493212256
40
0.236530277326394
40
0.24899615133515
40
0.261465019875076
40
0.273930154825471
40
0.28638531858503
40
0.299218283386258
40
0.312065332976605
40
0.324915368223883
40
0.337759080947183
40
0.350589244072087
40
0.360576635053813
40
0.370570032268913
40
0.380562527959789
40
0.390548688830722
40
0.400767686758352
40
0.410995670543132
40
0.421222237039754
40
0.431439300553198
40
0.439762772497954
40
0.448092692162545
40
0.456421991133874
40
0.464744616011523
40
0.473301128413946
40
0.481865856401485
40
0.490430266381163
40
0.498986344717183
40
0.50731578518002
40
0.515652948977404
40
0.523990362076066
40
0.532320142808548
40
0.540895973442285
40
0.549479213381942
40
0.558063138253044
40
0.566639903677509
40
0.57710837184346
40
0.587587189359904
40
0.598067579625115
40
0.608538194509723
40
0.619304115606246
40
0.630077958767142
40
0.640853010330276
40
0.651620580426768
40
0.663247687880908
40
0.674884912150568
40
0.686526737309241
40
0.698166237428295
40
0.709795255350036
40
0.721751009945946
40
0.733715655987053
40
0.745683670576477
40
0.757649051856262
40
0.7696054235656
40
0.784488490365282
40
0.799382668723833
40
0.814276609124563
40
0.829159351193099
40
0.841372390019927
40
0.853595739884695
40
0.86582199818535
40
0.878044311637176
40
0.890256480486459
40
0.903775301338664
40
0.917304829588681
40
0.93083354918652
40
0.944351266445758
40
0.955474381962212
40
0.966608263960654
40
0.977745142109754
40
0.988877860961802
40
1
40
1
40
1
40
1
41
1
10
6
20
2.34373633329347
30
0
41
1
10
5.99999656943411
20
2.33930046688083
30
0
41
1
10
5.99957056436294
20
2.3302494022026
30
0
41
1
10
5.99765941260262
20
2.3161317300758
30
0
41
1
10
5.9945151858454
20
2.30150556429566
30
0
41
1
10
5.99016215496243
20
2.28639933613305
30
0
41
1
10
5.98456702511005
20
2.27067334003312
30
0
41
1
10
5.97770628408619
20
2.25432420018277
30
0
41
1
10
5.96957011379538
20
2.23736227659897
30
0
41
1
10
5.96025947695292
20
2.21998636789515
30
0
41
1
10
5.94980902993279
20
2.20223546634476
30
0
41
1
10
5.93743634539883
20
2.18287078562966
30
0
41
1
10
5.92287861305667
20
2.16182698413048
30
0
41
1
10
5.90587666593688
20
2.13906935611644
30
0
41
1
10
5.88737242184326
20
2.1159537209534
30
0
41
1
10
5.86725882949558
20
2.09236357255568
30
0
41
1
10
5.84552943101479
20
2.06834014500599
30
0
41
1
10
5.8221768179959
20
2.04394116220996
30
0
41
1
10
5.79739785842064
20
2.01941973241014
30
0
41
1
10
5.77225086752732
20
1.99581260311252
30
0
41
1
10
5.74693689082296
20
1.97317893986137
30
0
41
1
10
5.7216304024778
20
1.95156628227278
30
0
41
1
10
5.69526321159927
20
1.93007265970986
30
0
41
1
10
5.66785577392312
20
1.90876864556805
30
0
41
1
10
5.63912923792116
20
1.8875037312877
30
0
41
1
10
5.60903789876209
20
1.86633987698323
30
0
41
1
10
5.57753078931816
20
1.84536840110734
30
0
41
1
10
5.5449070782389
20
1.8248944807377
30
0
41
1
10
5.51118885800025
20
1.80502874796006
30
0
41
1
10
5.47895131249716
20
1.78728537063682
30
0
41
1
10
5.44845637470891
20
1.77157313883746
30
0
41
1
10
5.41993240562267
20
1.75777068460887
30
0
41
1
10
5.39074945501577
20
1.74458090724365
30
0
41
1
10
5.36069074398573
20
1.73197312299114
30
0
41
1
10
5.32973877493682
20
1.72003532193565
30
0
41
1
10
5.2978932894517
20
1.70886019446405
30
0
41
1
10
5.26542954040708
20
1.69861778299708
30
0
41
1
10
5.23443070654822
20
1.68996080389471
30
0
41
1
10
5.2050426460375
20
1.68275047979939
30
0
41
1
10
5.17738869269589
20
1.6768115275092
30
0
41
1
10
5.14944009872081
20
1.67167262466059
30
0
41
1
10
5.120977245708
20
1.66733172343506
30
0
41
1
10
5.09202296812486
20
1.6638601806308
30
0
41
1
10
5.06261701974008
20
1.66130186897381
30
0
41
1
10
5.03308966184325
20
1.65970445588371
30
0
41
1
10
5.0037672761169
20
1.65909239347809
30
0
41
1
10
4.97470007242429
20
1.65945618161956
30
0
41
1
10
4.9459328591749
20
1.66074722229219
30
0
41
1
10
4.91726542421761
20
1.66295364603165
30
0
41
1
10
4.88847717679375
20
1.66609332653248
30
0
41
1
10
4.85961771420433
20
1.67018685642042
30
0
41
1
10
4.83073098690218
20
1.67522116363682
30
0
41
1
10
4.80214558245563
20
1.68111572822058
30
0
41
1
10
4.77183399840833
20
1.68832522979064
30
0
41
1
10
4.73992405570515
20
1.69703163160076
30
0
41
1
10
4.70656640506613
20
1.70737550527002
30
0
41
1
10
4.67385300662184
20
1.71870979163965
30
0
41
1
10
4.64152567450334
20
1.73106494380623
30
0
41
1
10
4.60962590997156
20
1.74439142868187
30
0
41
1
10
4.57817970906917
20
1.75863150614732
30
0
41
1
10
4.54749993557936
20
1.773579182304
30
0
41
1
10
4.51680560341052
20
1.78956855834452
30
0
41
1
10
4.48616445971269
20
1.80658208712651
30
0
41
1
10
4.45564476990454
20
1.82459918426625
30
0
41
1
10
4.42602466102912
20
1.84311555223298
30
0
41
1
10
4.39732050815353
20
1.86204854236595
30
0
41
1
10
4.36927315095649
20
1.88150710884019
30
0
41
1
10
4.34190057597099
20
1.90144083836015
30
0
41
1
10
4.31522629491372
20
1.9218106821842
30
0
41
1
10
4.28950876912391
20
1.94237705695401
30
0
41
1
10
4.26476549787784
20
1.96307601617614
30
0
41
1
10
4.23906529956963
20
1.98554693310127
30
0
41
1
10
4.21270545778185
20
2.00975688509195
30
0
41
1
10
4.18603670702809
20
2.03564132785546
30
0
41
1
10
4.16094328128181
20
2.06141575108592
30
0
41
1
10
4.13886724928304
20
2.08546402515431
30
0
41
1
10
4.11951757408126
20
2.10776218539374
30
0
41
1
10
4.10261051592298
20
2.12833245717008
30
0
41
1
10
4.08686072723339
20
2.14864862415628
30
0
41
1
10
4.07230611501119
20
2.16866038634488
30
0
41
1
10
4.05850321294959
20
2.1890267665153
30
0
41
1
10
4.04564454257733
20
2.20966447971963
30
0
41
1
10
4.03393806070414
20
2.23048331043842
30
0
41
1
10
4.02386109749069
20
2.25074395877408
30
0
41
1
10
4.01596162572848
20
2.26923212760813
30
0
41
1
10
4.00995638251859
20
2.28602674824587
30
0
41
1
10
4.00555122204746
20
2.30123503877318
30
0
41
1
10
4.00236907071855
20
2.31595787470037
30
0
41
1
10
4.0004346910133
20
2.3301662962349
30
0
41
1
10
4.00000349837457
20
2.33927348502224
30
0
41
1
10
4
20
2.34373633329349
30
0
0
SPLINE
5
BF
100
AcDbEntity
8
1
62
256
6
ByLayer
370
18
48
1
60
0
100
AcDbSpline
70
4
71
3
72
122
73
118
40
0
40
0
40
0
40
0
40
0.0132574563182637
40
0.0265164081790424
40
0.0397749797293876
40
0.053031917381305
40
0.0663533324904356
40
0.0796776285239859
40
0.0930008361252053
40
0.10632076666536
40
0.115869346153475
40
0.125418800018999
40
0.134966891764664
40
0.144520546207792
40
0.154075754294152
40
0.163628299441444
40
0.170992964874121
40
0.17836145909136
40
0.185728477133118
40
0.193091128479053
40
0.198551551089482
40
0.204015111194083
40
0.20947783286268
40
0.214937111462284
40
0.22052905459799
40
0.226126503887731
40
0.231723006316856
40
0.237313656967578
40
0.242789084516854
40
0.248270829487994
40
0.253752708760173
40
0.259228319657703
40
0.264899918238378
40
0.270577040058725
40
0.276255420103851
40
0.281928736046777
40
0.28839215566598
40
0.294860232441718
40
0.301332150384111
40
0.30780444361547
40
0.314271402349466
40
0.322327014544834
40
0.330384615475633
40
0.33844309538793
40
0.346499906466521
40
0.357805412121264
40
0.369112357639189
40
0.380417619733457
40
0.389821219030559
40
0.399227432489387
40
0.408633006629002
40
0.418035733874023
40
0.42744611484653
40
0.436860524975338
40
0.446274329574648
40
0.455683884461878
40
0.465562985509333
40
0.475448003107975
40
0.48533267194889
40
0.495211297129739
40
0.50424694210791
40
0.513287321304515
40
0.522327836211285
40
0.531363666345226
40
0.540396436409485
40
0.549433343701292
40
0.558470692159331
40
0.567504064084091
40
0.577105841824268
40
0.58671122113194
40
0.596317324268534
40
0.605920089404817
40
0.616984380071289
40
0.628050611630409
40
0.639115460887021
40
0.650178761928807
40
0.661243357493484
40
0.67230595047936
40
0.680769681860187
40
0.689237496653559
40
0.697702506822334
40
0.706162411638552
40
0.711859475626708
40
0.717560204060869
40
0.723259656606794
40
0.728954979557048
40
0.734811998728382
40
0.740675927396493
40
0.746538881047243
40
0.752394569040354
40
0.758107226794789
40
0.7638268568672
40
0.769547122562736
40
0.775260648116168
40
0.781178781307334
40
0.787102351787255
40
0.793027210437413
40
0.798947101768254
40
0.806142949864237
40
0.813345026570079
40
0.820551524759338
40
0.82775795490046
40
0.834957457601672
40
0.844159107857294
40
0.853364596738723
40
0.862571484066132
40
0.871775042036225
40
0.882401563270957
40
0.893031609599111
40
0.903664792710609
40
0.914299535105977
40
0.924933180497986
40
0.935562102039786
40
0.951669442128007
40
0.967779960071272
40
0.983891401025405
40
1
40
1
40
1
40
1
41
1
10
19.5
20
2
30
0
41
1
10
19.4804069262071
20
1.99172414954643
30
0
41
1
10
19.4413666482442
20
1.97485896339151
30
0
41
1
10
19.3832260476549
20
1.9486486140168
30
0
41
1
10
19.3255783083881
20
1.9214501037906
30
0
41
1
10
19.2683848070167
20
1.89316839494268
30
0
41
1
10
19.2116976407548
20
1.86374805824718
30
0
41
1
10
19.1556183858904
20
1.83308530349794
30
0
41
1
10
19.1003593675201
20
1.80112419060212
30
0
41
1
10
19.0511691635693
20
1.77091705947246
30
0
41
1
10
19.007857407116
20
1.74281542967088
30
0
41
1
10
18.9702240956107
20
1.71714180504077
30
0
41
1
10
18.9333108776506
20
1.69055957486787
30
0
41
1
10
18.8972083927037
20
1.66300909071519
30
0
41
1
10
18.8620602434973
20
1.63439669156221
30
0
41
1
10
18.830628018116
20
1.60690705698743
30
0
41
1
10
18.8027569630087
20
1.58076461711854
30
0
41
1
10
18.7782715848296
20
1.55618382996935
30
0
41
1
10
18.7547920734251
20
1.53075941680435
30
0
41
1
10
18.7343774653044
20
1.50671419940717
30
0
41
1
10
18.7168170577979
20
1.48426167408841
30
0
41
1
10
18.7018656605804
20
1.46360605932796
30
0
41
1
10
18.6877752457157
20
1.44240306303799
30
0
41
1
10
18.6745205438028
20
1.42047218122033
30
0
41
1
10
18.6622232540078
20
1.39777914807761
30
0
41
1
10
18.6509892521224
20
1.37431555554048
30
0
41
1
10
18.640992940054
20
1.3502905070451
30
0
41
1
10
18.6323764756493
20
1.32590477981224
30
0
41
1
10
18.6251991165127
20
1.30118837550426
30
0
41
1
10
18.6194275950763
20
1.27620192913571
30
0
41
1
10
18.6150106002236
20
1.25083925047352
30
0
41
1
10
18.6119192867466
20
1.22485694891075
30
0
41
1
10
18.6102102919
20
1.19828908902689
30
0
41
1
10
18.6098371676928
20
1.17118101617113
30
0
41
1
10
18.610728812406
20
1.14390429412815
30
0
41
1
10
18.6128961591317
20
1.11524137965381
30
0
41
1
10
18.6164202732742
20
1.08520661410526
30
0
41
1
10
18.62131272212
20
1.05380954341473
30
0
41
1
10
18.6272709735411
20
1.02234823826453
30
0
41
1
10
18.6341342683601
20
0.990849422928751
30
0
41
1
10
18.6423747694483
20
0.956737934305219
30
0
41
1
10
18.6520239025673
20
0.919985346437972
30
0
41
1
10
18.6630796553314
20
0.880550252911347
30
0
41
1
10
18.674668931451
20
0.840996282665119
30
0
41
1
10
18.6881977417556
20
0.795958950183047
30
0
41
1
10
18.7035599224911
20
0.745304290423293
30
0
41
1
10
18.7205281639289
20
0.688864621662041
30
0
41
1
10
18.7362136871597
20
0.635136128009789
30
0
41
1
10
18.7504182784435
20
0.584164360036941
30
0
41
1
10
18.7631432191442
20
0.536030183916618
30
0
41
1
10
18.7751622451628
20
0.487514668056409
30
0
41
1
10
18.7863542272898
20
0.438608966949283
30
0
41
1
10
18.7965956455708
20
0.38931057608532
30
0
41
1
10
18.8058136026375
20
0.339638929191199
30
0
41
1
10
18.8139267692686
20
0.289642421361625
30
0
41
1
10
18.8209711531637
20
0.238524632857517
30
0
41
1
10
18.8267895465226
20
0.186296106794379
30
0
41
1
10
18.8312716072611
20
0.132993173442811
30
0
41
1
10
18.8342878800576
20
0.0795275855577286
30
0
41
1
10
18.835755928048
20
0.0274957535435486
30
0
41
1
10
18.8357866071292
20
-0.0230400613650777
30
0
41
1
10
18.8345451260604
20
-0.0720360705542322
30
0
41
1
10
18.8320484033749
20
-0.120956812194157
30
0
41
1
10
18.8283118444872
20
-0.16973864640369
30
0
41
1
10
18.8233482578534
20
-0.218339487635276
30
0
41
1
10
18.8172163769405
20
-0.266727161671898
30
0
41
1
10
18.809972051305
20
-0.314862835843612
30
0
41
1
10
18.8014967950392
20
-0.363708720146413
30
0
41
1
10
18.791764706649
20
-0.413216019101432
30
0
41
1
10
18.7808107535923
20
-0.463347586505456
30
0
41
1
10
18.7689445982643
20
-0.513087787701906
30
0
41
1
10
18.7556351134584
20
-0.564924835579974
30
0
41
1
10
18.7408605206956
20
-0.618783864381281
30
0
41
1
10
18.7247414790327
20
-0.67461588766353
30
0
41
1
10
18.7082174918092
20
-0.729975116936095
30
0
41
1
10
18.6915314434481
20
-0.784899672989062
30
0
41
1
10
18.6750758964159
20
-0.839465608150799
30
0
41
1
10
18.6604978147967
20
-0.889500721432153
30
0
41
1
10
18.6479336565126
20
-0.935123088818084
30
0
41
1
10
18.6374336907487
20
-0.976421720955901
30
0
41
1
10
18.6281364452
20
-1.01764649676128
30
0
41
1
10
18.6211912034824
20
-1.0543139428119
30
0
41
1
10
18.6163006013421
20
-1.0864371551766
30
0
41
1
10
18.6130475091773
20
-1.11403760872013
30
0
41
1
10
18.6108585698979
20
-1.14155219165434
30
0
41
1
10
18.6098333220363
20
-1.16919943062333
30
0
41
1
10
18.6101486863572
20
-1.1969388500456
30
0
41
1
10
18.6119148704303
20
-1.22471116095589
30
0
41
1
10
18.6151768174568
20
-1.25218393381346
30
0
41
1
10
18.6199537936529
20
-1.27905363732166
30
0
41
1
10
18.6262619149893
20
-1.30526182628405
30
0
41
1
10
18.6339914746759
20
-1.33078334610855
30
0
41
1
10
18.6431335028631
20
-1.35577974578117
30
0
41
1
10
18.6537614142936
20
-1.3804880718856
30
0
41
1
10
18.6658746566814
20
-1.4048530400519
30
0
41
1
10
18.679402464488
20
-1.42885564448336
30
0
41
1
10
18.6940947208108
20
-1.45220306159179
30
0
41
1
10
18.7109798567847
20
-1.47652158048162
30
0
41
1
10
18.7302147751707
20
-1.50166648076783
30
0
41
1
10
18.751917600879
20
-1.52750152671265
30
0
41
1
10
18.7747434725714
20
-1.55248403634263
30
0
41
1
10
18.7985449992803
20
-1.57664682767348
30
0
41
1
10
18.8254787722954
20
-1.60220628839566
30
0
41
1
10
18.855697264604
20
-1.62897900513594
30
0
41
1
10
18.8893497125261
20
-1.65676795152113
30
0
41
1
10
18.9239319200871
20
-1.68355337823178
30
0
41
1
10
18.9611355068467
20
-1.71074417069409
30
0
41
1
10
19.0009661728573
20
-1.73827781766028
30
0
41
1
10
19.0434677171756
20
-1.76605758046708
30
0
41
1
10
19.0866965710474
20
-1.79285696744205
30
0
41
1
10
19.1305636300219
20
-1.81873601273978
30
0
41
1
10
19.1749816122211
20
-1.84375292222031
30
0
41
1
10
19.2275833401484
20
-1.87213866628744
30
0
41
1
10
19.2886105326723
20
-1.90344672432918
30
0
41
1
10
19.3583152208883
20
-1.93716175667512
30
0
41
1
10
19.4287884755318
20
-1.96937623378479
30
0
41
1
10
19.4761892681392
20
-1.98994866737478
30
0
41
1
10
19.5
20
-2
30
0
0
SPLINE
5
C0
100
AcDbEntity
8
1
62
256
6
ByLayer
370
18
48
1
60
0
100
AcDbSpline
70
4
71
3
72
33
73
29
40
0
40
0
40
0
40
0
40
0.0324780377057685
40
0.0652730785431874
40
0.098374817172756
40
0.131772202671052
40
0.165453457676736
40
0.198797515454284
40
0.232390895897716
40
0.266220533072656
40
0.300272785762895
40
0.341081525158127
40
0.382160770584676
40
0.423484720873723
40
0.46502673405287
40
0.506759426209844
40
0.548654774741209
40
0.590684225186887
40
0.632818800818334
40
0.675029214125608
40
0.717285979336675
40
0.759559525101199
40
0.801820306480719
40
0.841628134519694
40
0.881374017060904
40
0.921033773847916
40
0.960583572284789
40
1
40
1
40
1
40
1
41
1
10
16.5
20
2
30
0
41
1
10
16.5148861051498
20
2.01116125550683
30
0
41
1
10
16.54494673133
20
2.0331899259561
30
0
41
1
10
16.5906967828168
20
2.06516455765458
30
0
41
1
10
16.6372930667145
20
2.09620570750572
30
0
41
1
10
16.6847100443849
20
2.12627987241241
30
0
41
1
10
16.7326268572351
20
2.15518108172388
30
0
41
1
10
16.7810003398977
20
2.18290311475364
30
0
41
1
10
16.8297870310056
20
2.20944152100273
30
0
41
1
10
16.8792425883022
20
2.23493547830033
30
0
41
1
10
16.9325444582619
20
2.26092625430339
30
0
41
1
10
16.989765645872
20
2.2871161042473
30
0
41
1
10
17.0509656528216
20
2.31318189901743
30
0
41
1
10
17.1128932685794
20
2.33763138011444
30
0
41
1
10
17.1754840624638
20
2.36043499670925
30
0
41
1
10
17.2386721241349
20
2.38156667026916
30
0
41
1
10
17.3023902027939
20
2.40100385145915
30
0
41
1
10
17.3665699699688
20
2.41872761159482
30
0
41
1
10
17.4311422571406
20
2.43472270051941
30
0
41
1
10
17.4960373026178
20
2.44897758834077
30
0
41
1
10
17.5611850089782
20
2.46148448746757
30
0
41
1
10
17.6265151599779
20
2.47223935036351
30
0
41
1
10
17.6907131012273
20
2.48107064129645
30
0
41
1
10
17.7537067031826
20
2.48809625672411
30
0
41
1
10
17.8154315127136
20
2.49343343483895
30
0
41
1
10
17.8770788532261
20
2.49723009364446
30
0
41
1
10
17.9385943482703
20
2.49949750390993
30
0
41
1
10
17.979552134155
20
2.50000007576677
30
0
41
1
10
18
20
2.5
30
0
0
INSERT
5
D3
100
AcDbEntity
8
SK2
62
256
6
ByLayer
370
25
48
1
60
0
100
AcDbBlockReference
2
DimnDraft3D11
10
0
20
0
30
0
41
1
42
1
43
1
50
0
210
0
220
0
230
1
0
LINE
5
70
100
AcDbEntity
8
SK1
62
256
6
ByLayer
370
18
48
1
60
0
100
AcDbLine
10
-74.2
20
-5.2
30
0
11
0
21
-5.2
31
0
39
0
210
0
220
0
230
1
0
LINE
5
72
100
AcDbEntity
8
1
62
256
6
ByLayer
370
18
48
1
60
0
100
AcDbLine
10
22
20
-6
30
0
11
2.009619
21
-6
31
0
39
0
210
0
220
0
230
1
0
LINE
5
74
100
AcDbEntity
8
SK1
62
256
6
ByLayer
370
18
48
1
60
0
100
AcDbLine
10
-75
20
5.2
30
0
11
-75
21
-5.2
31
0
39
0
210
0
220
0
230
1
0
LINE
5
75
100
AcDbEntity
8
1
62
256
6
ByLayer
370
18
48
1
60
0
100
AcDbLine
10
24.2
20
3.8
30
0
11
24.2
21
-3.8
31
0
39
0
210
0
220
0
230
1
0
LINE
5
76
100
AcDbEntity
8
1
62
256
6
ByLayer
370
18
48
1
60
0
100
AcDbLine
10
2.545517
20
4
30
0
11
22
21
4
31
0
39
0
210
0
220
0
230
1
0
LINE
5
77
100
AcDbEntity
8
1
62
256
6
ByLayer
370
18
48
1
60
0
100
AcDbLine
10
2.009619
20
6
30
0
11
2.545517
21
4
31
0
39
0
210
0
220
0
230
1
0
LINE
5
78
100
AcDbEntity
8
1
62
256
6
ByLayer
370
18
48
1
60
0
100
AcDbLine
10
2.545517
20
4
30
0
11
2.545517
21
-4
31
0
39
0
210
0
220
0
230
1
0
LINE
5
79
100
AcDbEntity
8
1
62
256
6
ByLayer
370
18
48
1
60
0
100
AcDbLine
10
2.545517
20
-4
30
0
11
2.009619
21
-6
31
0
39
0
210
0
220
0
230
1
0
LINE
5
7A
100
AcDbEntity
8
SK1
62
256
6
ByLayer
370
18
48
1
60
0
100
AcDbLine
10
-0.214359
20
-6
30
0
11
-74.2
21
-6
31
0
39
0
210
0
220
0
230
1
0
LINE
5
7B
100
AcDbEntity
8
1
62
256
6
ByLayer
370
18
48
1
60
0
100
AcDbLine
10
22
20
6
30
0
11
0
21
6
31
0
39
0
210
0
220
0
230
1
0
LINE
5
7C
100
AcDbEntity
8
1
62
256
6
ByLayer
370
18
48
1
60
0
100
AcDbLine
10
2.545517
20
-4
30
0
11
22
21
-4
31
0
39
0
210
0
220
0
230
1
0
LINE
5
7D
100
AcDbEntity
8
1
62
256
6
ByLayer
370
18
48
1
60
0
100
AcDbLine
10
22
20
4
30
0
11
22
21
-4
31
0
39
0
210
0
220
0
230
1
0
LINE
5
7E
100
AcDbEntity
8
1
62
256
6
ByLayer
370
18
48
1
60
0
100
AcDbLine
10
23
20
-5
30
0
11
22
21
-4
31
0
39
0
210
0
220
0
230
1
0
LINE
5
7F
100
AcDbEntity
8
1
62
256
6
ByLayer
370
18
48
1
60
0
100
AcDbLine
10
25
20
3
30
0
11
23
21
5
31
0
39
0
210
0
220
0
230
1
0
LINE
5
80
100
AcDbEntity
8
1
62
256
6
ByLayer
370
18
48
1
60
0
100
AcDbLine
10
22
20
4
30
0
11
23
21
5
31
0
39
0
210
0
220
0
230
1
0
LINE
5
81
100
AcDbEntity
8
1
62
256
6
ByLayer
370
18
48
1
60
0
100
AcDbLine
10
23
20
-5
30
0
11
25
21
-3
31
0
39
0
210
0
220
0
230
1
0
LINE
5
82
100
AcDbEntity
8
SK1
62
256
6
ByLayer
370
18
48
1
60
0
100
AcDbLine
10
-74.2
20
-5.2
30
0
11
-74.2
21
5.2
31
0
39
0
210
0
220
0
230
1
0
LINE
5
83
100
AcDbEntity
8
1
62
256
6
ByLayer
370
18
48
1
60
0
100
AcDbLine
10
22.8
20
5.2
30
0
11
24.2
21
3.8
31
0
39
0
210
0
220
0
230
1
0
LINE
5
84
100
AcDbEntity
8
SK1
62
256
6
ByLayer
370
18
48
1
60
0
100
AcDbLine
10
-74.2
20
5.2
30
0
11
0
21
5.2
31
0
39
0
210
0
220
0
230
1
0
LINE
5
85
100
AcDbEntity
8
1
62
256
6
ByLayer
370
18
48
1
60
0
100
AcDbLine
10
6
20
-6
30
0
11
6
21
-2.343736
31
0
39
0
210
0
220
0
230
1
0
LINE
5
86
100
AcDbEntity
8
1
62
256
6
ByLayer
370
18
48
1
60
0
100
AcDbLine
10
4
20
2.343736
30
0
11
4
21
6
31
0
39
0
210
0
220
0
230
1
0
LINE
5
87
100
AcDbEntity
8
1
62
256
6
ByLayer
370
18
48
1
60
0
100
AcDbLine
10
6
20
2.343736
30
0
11
6
21
6
31
0
39
0
210
0
220
0
230
1
0
LINE
5
88
100
AcDbEntity
8
1
62
256
6
ByLayer
370
18
48
1
60
0
100
AcDbLine
10
0
20
-5.2
30
0
11
-0.214359
21
-6
31
0
39
0
210
0
220
0
230
1
0
LINE
5
89
100
AcDbEntity
8
1
62
256
6
ByLayer
370
18
48
1
60
0
100
AcDbLine
10
5.493052
20
2.5
30
0
11
18
21
2.5
31
0
39
0
210
0
220
0
230
1
0
LINE
5
8A
100
AcDbEntity
8
1
62
256
6
ByLayer
370
18
48
1
60
0
100
AcDbLine
10
0
20
5.2
30
0
11
0
21
2.5
31
0
39
0
210
0
220
0
230
1
0
LINE
5
8B
100
AcDbEntity
8
1
62
256
6
ByLayer
370
18
48
1
60
0
100
AcDbLine
10
18
20
0
30
0
11
18
21
-2.5
31
0
39
0
210
0
220
0
230
1
0
LINE
5
8C
100
AcDbEntity
8
1
62
256
6
ByLayer
370
18
48
1
60
0
100
AcDbLine
10
18
20
0
30
0
11
18
21
2.5
31
0
39
0
210
0
220
0
230
1
0
LINE
5
8D
100
AcDbEntity
8
1
62
256
6
ByLayer
370
18
48
1
60
0
100
AcDbLine
10
0
20
-2.5
30
0
11
0
21
-5.2
31
0
39
0
210
0
220
0
230
1
0
LINE
5
8E
100
AcDbEntity
8
1
62
256
6
ByLayer
370
18
48
1
60
0
100
AcDbLine
10
5.493052
20
-2.5
30
0
11
18
21
-2.5
31
0
39
0
210
0
220
0
230
1
0
LINE
5
8F
100
AcDbEntity
8
1
62
256
6
ByLayer
370
18
48
1
60
0
100
AcDbLine
10
-0.214359
20
6
30
0
11
0
21
5.2
31
0
39
0
210
0
220
0
230
1
0
LINE
5
90
100
AcDbEntity
8
1
62
256
6
ByLayer
370
18
48
1
60
0
100
AcDbLine
10
18
20
2.5
30
0
11
18
21
3.125
31
0
39
0
210
0
220
0
230
1
0
LINE
5
91
100
AcDbEntity
8
1
62
256
6
ByLayer
370
18
48
1
60
0
100
AcDbLine
10
18
20
-2.5
30
0
11
25
21
-2.5
31
0
39
0
210
0
220
0
230
1
0
LINE
5
92
100
AcDbEntity
8
1
62
256
6
ByLayer
370
18
48
1
60
0
100
AcDbLine
10
0
20
-2.5
30
0
11
4.506948
21
-2.5
31
0
39
0
210
0
220
0
230
1
0
LINE
5
93
100
AcDbEntity
8
1
62
256
6
ByLayer
370
18
48
1
60
0
100
AcDbLine
10
4
20
-6
30
0
11
4
21
-2.343736
31
0
39
0
210
0
220
0
230
1
0
LINE
5
94
100
AcDbEntity
8
1
62
256
6
ByLayer
370
18
48
1
60
0
100
AcDbLine
10
18
20
2.5
30
0
11
25
21
2.5
31
0
39
0
210
0
220
0
230
1
0
LINE
5
95
100
AcDbEntity
8
1
62
256
6
ByLayer
370
18
48
1
60
0
100
AcDbLine
10
0
20
2.5
30
0
11
4.506948
21
2.5
31
0
39
0
210
0
220
0
230
1
0
LINE
5
96
100
AcDbEntity
8
1
62
256
6
ByLayer
370
18
48
1
60
0
100
AcDbLine
10
0
20
-2.5
30
0
11
0
21
2.5
31
0
39
0
210
0
220
0
230
1
0
LINE
5
97
100
AcDbEntity
8
1
62
256
6
ByLayer
370
18
48
1
60
0
100
AcDbLine
10
18
20
-2.5
30
0
11
18
21
-3.125
31
0
39
0
210
0
220
0
230
1
0
LINE
5
98
100
AcDbEntity
8
SK1
62
256
6
ByLayer
370
18
48
1
60
0
100
AcDbLine
10
-75
20
-5.2
30
0
11
-74.2
21
-6
31
0
39
0
210
0
220
0
230
1
0
LINE
5
99
100
AcDbEntity
8
SK1
62
256
6
ByLayer
370
18
48
1
60
0
100
AcDbLine
10
-75
20
-5.2
30
0
11
-74.2
21
-5.2
31
0
39
0
210
0
220
0
230
1
0
LINE
5
9A
100
AcDbEntity
8
SK1
62
256
6
ByLayer
370
18
48
1
60
0
100
AcDbLine
10
-74.2
20
-5.2
30
0
11
-74.2
21
-6
31
0
39
0
210
0
220
0
230
1
0
LINE
5
9B
100
AcDbEntity
8
SK1
62
256
6
ByLayer
370
18
48
1
60
0
100
AcDbLine
10
-75
20
5.2
30
0
11
-74.2
21
5.2
31
0
39
0
210
0
220
0
230
1
0
LINE
5
9C
100
AcDbEntity
8
SK1
62
256
6
ByLayer
370
18
48
1
60
0
100
AcDbLine
10
-74.2
20
6
30
0
11
-75
21
5.2
31
0
39
0
210
0
220
0
230
1
0
LINE
5
9D
100
AcDbEntity
8
SK1
62
256
6
ByLayer
370
18
48
1
60
0
100
AcDbLine
10
-74.2
20
6
30
0
11
-74.2
21
5.2
31
0
39
0
210
0
220
0
230
1
0
LINE
5
9E
100
AcDbEntity
8
1
62
256
6
ByLayer
370
18
48
1
60
0
100
AcDbLine
10
22.8
20
5.2
30
0
11
22
21
6
31
0
39
0
210
0
220
0
230
1
0
LINE
5
9F
100
AcDbEntity
8
1
62
256
6
ByLayer
370
18
48
1
60
0
100
AcDbLine
10
22
20
-6
30
0
11
22.8
21
-5.2
31
0
39
0
210
0
220
0
230
1
0
LINE
5
A0
100
AcDbEntity
8
1
62
256
6
ByLayer
370
18
48
1
60
0
100
AcDbLine
10
25
20
-3
30
0
11
25
21
3
31
0
39
0
210
0
220
0
230
1
0
LINE
5
A1
100
AcDbEntity
8
1
62
256
6
ByLayer
370
18
48
1
60
0
100
AcDbLine
10
-1.502152
20
0
30
0
11
0
21
2.5
31
0
39
0
210
0
220
0
230
1
0
LINE
5
A2
100
AcDbEntity
8
1
62
256
6
ByLayer
370
18
48
1
60
0
100
AcDbLine
10
0
20
-2.5
30
0
11
-1.502152
21
0
31
0
39
0
210
0
220
0
230
1
0
LINE
5
A3
100
AcDbEntity
8
1
62
256
6
ByLayer
370
18
48
1
60
0
100
AcDbLine
10
0
20
-5.2
30
0
11
22.8
21
-5.2
31
0
39
0
210
0
220
0
230
1
0
LINE
5
A4
100
AcDbEntity
8
1
62
256
6
ByLayer
370
18
48
1
60
0
100
AcDbLine
10
-0.214359
20
-6
30
0
11
2.009619
21
-6
31
0
39
0
210
0
220
0
230
1
0
LINE
5
A5
100
AcDbEntity
8
1
62
256
6
ByLayer
370
18
48
1
60
0
100
AcDbLine
10
22.8
20
-5.2
30
0
11
23
21
-5
31
0
39
0
210
0
220
0
230
1
0
LINE
5
A6
100
AcDbEntity
8
1
62
256
6
ByLayer
370
18
48
1
60
0
100
AcDbLine
10
23
20
5
30
0
11
22.8
21
5.2
31
0
39
0
210
0
220
0
230
1
0
LINE
5
A7
100
AcDbEntity
8
80
62
256
6
ByLayer
370
18
48
1
60
0
100
AcDbLine
10
0
20
0
30
0
11
-10
21
0
31
0
39
0
210
0
220
0
230
1
0
LINE
5
A8
100
AcDbEntity
8
81
62
256
6
ByLayer
370
18
48
1
60
0
100
AcDbLine
10
25
20
0
30
0
11
35
21
0
31
0
39
0
210
0
220
0
230
1
0
LINE
5
A9
100
AcDbEntity
8
SK1
62
256
6
ByLayer
370
18
48
1
60
0
100
AcDbLine
10
0
20
6
30
0
11
-74.2
21
6
31
0
39
0
210
0
220
0
230
1
0
LINE
5
AA
100
AcDbEntity
8
1
62
256
6
ByLayer
370
18
48
1
60
0
100
AcDbLine
10
0
20
5.2
30
0
11
22.8
21
5.2
31
0
39
0
210
0
220
0
230
1
0
MTEXT
5
C1
100
AcDbEntity
8
SK6
62
256
6
ByLayer
370
18
48
1
60
0
100
AcDbMText
10
-41.228966
20
-14.616194
30
0
210
0
220
0
230
1
1
\W0.7160;CXS-1212-05FN
40
3.175
41
0
44
1.084337
50
0
71
7
72
5
7
iso_b_vert
0
DIMENSION
5
E2
100
AcDbEntity
8
2
62
256
6
ByLayer
370
13
48
1
60
0
100
AcDbDimension
2
DimnDraft3D2
10
25
20
10.407063
30
0
11
12.5
21
10.407063
31
0
70
32
71
5
72
1
41
1
210
0
220
0
230
1
3
Standard
100
AcDbAlignedDimension
13
0
23
6.7875
33
0
14
25
24
4.5875
34
0
50
0
100
AcDbRotatedDimension
1001
ACAD
1000
DSTYLE
1002
{
1070
   279
1070
     0
1070
   172
1070
     1
1070
   173
1070
     1
1070
   340
1005
C2
1070
   271
1070
     1
1070
   272
1070
     2
1070
    77
1070
     1
1070
    73
1070
     0
1070
   171
1070
     3
1070
   274
1070
     4
1070
   177
1070
     7
1070
   176
1070
     7
1070
   178
1070
     7
1070
    78
1070
     8
1070
    48
1040
-0.005
1070
    41
1041
3.175
1070
   147
1041
1.75006
1070
    42
1041
1.5875
1070
    44
1041
3.175
1070
   140
1041
3.50012
1070
   343
1005
0
1070
   344
1005
0
1002
}
0
DIMENSION
5
F0
100
AcDbEntity
8
SK2
62
256
6
ByLayer
370
13
48
1
60
0
100
AcDbDimension
2
DimnDraft3D3
10
-79.776761
20
-6
30
0
11
-79.776761
21
0
31
0
70
32
71
5
72
1
41
1
210
0
220
0
230
1
3
Standard
100
AcDbAlignedDimension
13
-75.7875
23
6
33
0
14
-75.7875
24
-6
34
0
50
90
100
AcDbRotatedDimension
1001
ACAD
1000
DSTYLE
1002
{
1070
    74
1070
     0
1070
   279
1070
     0
1070
   172
1070
     1
1070
   173
1070
     1
1070
   340
1005
C2
1070
   271
1070
     1
1070
   272
1070
     2
1070
    77
1070
     1
1070
    73
1070
     0
1070
   171
1070
     3
1070
   274
1070
     4
1070
   177
1070
     7
1070
   176
1070
     7
1070
   178
1070
     7
1070
    78
1070
     8
1070
    48
1040
-0.005
1070
    41
1041
3.175
1070
   147
1041
1.75006
1070
    42
1041
1.5875
1070
    44
1041
3.175
1070
   140
1041
3.50012
1070
   343
1005
0
1070
   344
1005
0
1002
}
0
DIMENSION
5
FE
100
AcDbEntity
8
SK2
62
256
6
ByLayer
370
13
48
1
60
0
100
AcDbDimension
2
DimnDraft3D4
10
25
20
3
30
0
11
19.556843
21
-16.140943
31
0
70
34
71
5
72
1
41
1
210
0
220
0
230
1
3
Standard
100
AcDb2LineAngularDimension
13
23
23
-5
33
0
14
25
24
-3
34
0
15
25
25
-3
35
0
16
18.217405
26
-19.374632
36
0
40
0
0
ENDSEC
0
SECTION
2
OBJECTS
0
DICTIONARY
5
168
330
0
100
AcDbDictionary
280
0
281
1
3
ACAD_GROUP
350
169
3
ACAD_MLINESTYLE
350
16a
0
DICTIONARY
5
169
330
0
100
AcDbDictionary
280
0
281
1
0
DICTIONARY
5
16a
330
0
100
AcDbDictionary
280
0
281
1
3
Standard
350
18
0
MLINESTYLE
5
18
330
16a
100
AcDbMlineStyle
2
Standard
70
0
3

62
256
51
90
52
90
71
2
49
-0.5
62
256
6
ByLayer
49
0.5
62
256
6
ByLayer
0
RASTERVARIABLES
5
157
330

100
AcDbRasterVariables
90
0
70
1
71
1
72
1
0
ENDSEC
0
EOF
