0
SECTION
2
HEADER
9
$ACADVER
1
AC1015
9
$DWGCODEPAGE
3
ANSI_1252
9
$HANDSEED
5
175
9
$ANGBASE
50
0
9
$ANGDIR
70
0
9
$ATTMODE
70
1
9
$AUNITS
70
0
9
$AUPREC
70
0
9
$CECOLOR
62
256
9
$CELTSCALE
40
1
9
$CELTYPE
6
ByLayer
9
$CELWEIGHT
370
18
9
$CLAYER
8
0
9
$CMLJUST
70
0
9
$CMLSCALE
40
1
9
$CMLSTYLE
2
Standard
9
$DIMSTYLE
2
Standard
9
$TEXTSIZE
40
0.2
9
$TEXTSTYLE
7
Standard
9
$LUNITS
70
2
9
$LUPREC
70
4
9
$EXTNAMES
290
1
9
$INSUNITS
70
4
9
$LTSCALE
40
1
9
$LWDISPLAY
290
1
9
$PDMODE
70
0
9
$PDSIZE
40
0
9
$PLINEGEN
70
0
0
ENDSEC
0
SECTION
2
CLASSES
0
CLASS
1
RASTERVARIABLES
2
AcDbRasterVariables
3
ISM
90
0
280
0
281
0
0
ENDSEC
0
SECTION
2
TABLES
0
TABLE
2
VPORT
5
16b
100
AcDbSymbolTable
0
VPORT
5
1
100
AcDbSymbolTableRecord
100
AcDbViewportTableRecord
2
*Active
70
0
10
0
20
0
11
1
21
1
12
-1
22
1
13
0
23
0
14
0.5
24
0.5
15
10
25
10
16
0
26
0
36
1
17
0
27
0
37
0
0
ENDTAB
0
TABLE
2
LTYPE
5
16c
100
AcDbSymbolTable
0
LTYPE
5
14
100
AcDbSymbolTableRecord
100
AcDbLinetypeTableRecord
70
0
2
ByBlock
3

72
65
73
0
40
0
0
LTYPE
5
15
100
AcDbSymbolTableRecord
100
AcDbLinetypeTableRecord
70
0
2
ByLayer
3

72
65
73
0
40
0
0
LTYPE
5
16
100
AcDbSymbolTableRecord
100
AcDbLinetypeTableRecord
70
0
2
CONTINUOUS
3
Solid line
72
65
73
0
40
0
0
LTYPE
5
6A
100
AcDbSymbolTableRecord
100
AcDbLinetypeTableRecord
70
0
2
CENTER
3
____ _ ____ _ ____ _ ____
72
65
73
4
40
47.5
49
22
74
0
49
-8.5
74
0
49
8.5
74
0
49
-8.5
74
0
0
LTYPE
5
6B
100
AcDbSymbolTableRecord
100
AcDbLinetypeTableRecord
70
0
2
DASHED
3
__ __ __ __ __ __ __ __ __
72
65
73
2
40
25.72
49
12.86
74
0
49
-12.86
74
0
0
ENDTAB
0
TABLE
2
LAYER
5
16d
100
AcDbSymbolTable
0
LAYER
5
10
100
AcDbSymbolTableRecord
100
AcDbLayerTableRecord
2
0
70
0
62
7
6
CONTINUOUS
290
1
370
-3
390
0
0
LAYER
5
6D
100
AcDbSymbolTableRecord
100
AcDbLayerTableRecord
2
80
70
0
62
-6
6
CONTINUOUS
290
1
370
-3
390
0
0
LAYER
5
6F
100
AcDbSymbolTableRecord
100
AcDbLayerTableRecord
2
81
70
0
62
-3
6
CONTINUOUS
290
1
370
-3
390
0
0
LAYER
5
73
100
AcDbSymbolTableRecord
100
AcDbLayerTableRecord
2
1
70
0
62
4
6
CONTINUOUS
290
1
370
-3
390
0
0
LAYER
5
D6
100
AcDbSymbolTableRecord
100
AcDbLayerTableRecord
2
2
70
0
62
7
6
CONTINUOUS
290
1
370
-3
390
0
0
LAYER
5
158
100
AcDbSymbolTableRecord
100
AcDbLayerTableRecord
2
SK1
70
0
62
4
6
CONTINUOUS
290
1
370
-3
390
0
0
LAYER
5
159
100
AcDbSymbolTableRecord
100
AcDbLayerTableRecord
2
SK6
70
0
62
5
6
CONTINUOUS
290
1
370
-3
390
0
0
LAYER
5
15a
100
AcDbSymbolTableRecord
100
AcDbLayerTableRecord
2
SK2
70
0
62
7
6
CONTINUOUS
290
1
370
-3
390
0
0
ENDTAB
0
TABLE
2
STYLE
5
16e
100
AcDbSymbolTable
0
STYLE
5
11
100
AcDbSymbolTableRecord
100
AcDbTextStyleTableRecord
2
Standard
3
txt
70
0
71
0
40
0
41
1
42
0
50
0
0
STYLE
5
C2
100
AcDbSymbolTableRecord
100
AcDbTextStyleTableRecord
2
iso_b_vert
3
simplex.shx
70
0
71
0
40
0
41
1
42
0
50
0
0
STYLE
5
C3
100
AcDbSymbolTableRecord
100
AcDbTextStyleTableRecord
2
DWGDirectTextStyle
3
simplex
70
0
71
0
40
0
41
1
42
0
50
0
0
ENDTAB
0
TABLE
2
DIMSTYLE
5
16f
100
AcDbSymbolTable
100
AcDbDimStyleTable
0
DIMSTYLE
105
27
100
AcDbSymbolTableRecord
100
AcDbDimStyleTableRecord
2
Standard
70
0
3
<>
41
0.18
42
0.0625
44
0.18
140
0.18
147
0.09
73
0
74
0
77
1
271
2
275
0
278
52
280
0
340
11
0
ENDTAB
0
TABLE
2
VIEW
5
170
100
AcDbSymbolTable
0
ENDTAB
0
TABLE
2
UCS
5
171
100
AcDbSymbolTable
0
ENDTAB
0
TABLE
2
APPID
5
172
100
AcDbSymbolTable
0
APPID
5
12
100
AcDbSymbolTableRecord
100
AcDbRegAppTableRecord
2
ACAD
70
0
0
ENDTAB
0
TABLE
2
BLOCK_RECORD
5
173
100
AcDbSymbolTable
0
BLOCK_RECORD
5
1F
100
AcDbSymbolTableRecord
100
AcDbBlockTableRecord
2
*Model_Space
340
0
70
0
0
BLOCK_RECORD
5
1B
100
AcDbSymbolTableRecord
100
AcDbBlockTableRecord
2
*Paper_Space
340
0
70
0
0
BLOCK_RECORD
5
23
100
AcDbSymbolTableRecord
100
AcDbBlockTableRecord
2
*Paper_Space0
340
0
70
0
0
BLOCK_RECORD
5
C5
100
AcDbSymbolTableRecord
100
AcDbBlockTableRecord
2
DimnDraft3D11
340
0
70
0
0
BLOCK_RECORD
5
D4
100
AcDbSymbolTableRecord
100
AcDbBlockTableRecord
2
DimnDraft3D2
340
0
70
0
0
BLOCK_RECORD
5
E3
100
AcDbSymbolTableRecord
100
AcDbBlockTableRecord
2
DimnDraft3D3
340
0
70
0
0
BLOCK_RECORD
5
F1
100
AcDbSymbolTableRecord
100
AcDbBlockTableRecord
2
DimnDraft3D4
340
0
70
0
0
ENDTAB
0
ENDSEC
0
SECTION
2
BLOCKS
0
BLOCK
5
20
100
AcDbEntity
8
0
100
AcDbBlockBegin
2
*Model_Space
70
0
10
0
20
0
30
0
3
*Model_Space
0
ENDBLK
5
21
100
AcDbEntity
8
0
100
AcDbBlockEnd
0
BLOCK
5
1C
100
AcDbEntity
8
0
100
AcDbBlockBegin
2
*Paper_Space
70
0
10
0
20
0
30
0
3
*Paper_Space
0
ENDBLK
5
1D
100
AcDbEntity
8
0
100
AcDbBlockEnd
0
BLOCK
5
24
100
AcDbEntity
8
0
100
AcDbBlockBegin
2
*Paper_Space0
70
0
10
0
20
0
30
0
3
*Paper_Space0
0
ENDBLK
5
25
100
AcDbEntity
8
0
100
AcDbBlockEnd
0
BLOCK
5
C6
100
AcDbEntity
8
0
100
AcDbBlockBegin
2
DimnDraft3D11
70
0
10
0
20
0
30
0
3
DimnDraft3D11
0
LINE
5
C8
100
AcDbEntity
8
SK2
62
256
6
ByLayer
370
25
48
1
60
0
100
AcDbLine
10
19
20
4.0875
30
0
11
19
21
22.345493
31
0
39
0
210
0
220
0
230
1
0
LINE
5
CA
100
AcDbEntity
8
SK2
62
256
6
ByLayer
370
25
48
1
60
0
100
AcDbLine
10
-81
20
6.7875
30
0
11
-81
21
22.345493
31
0
39
0
210
0
220
0
230
1
0
LINE
5
CB
100
AcDbEntity
8
SK2
62
256
6
ByLayer
370
25
48
1
60
0
100
AcDbLine
10
19
20
19.170493
30
0
11
-81
21
19.170493
31
0
39
0
210
0
220
0
230
1
0
LINE
5
CC
100
AcDbEntity
8
SK2
62
256
6
ByLayer
370
25
48
1
60
0
100
AcDbLine
10
19
20
19.170493
30
0
11
15.825002
21
18.752497
31
0
39
0
210
0
220
0
230
1
0
LINE
5
CD
100
AcDbEntity
8
SK2
62
256
6
ByLayer
370
25
48
1
60
0
100
AcDbLine
10
19
20
19.170493
30
0
11
15.824998
21
19.58849
31
0
39
0
210
0
220
0
230
1
0
LINE
5
CE
100
AcDbEntity
8
SK2
62
256
6
ByLayer
370
25
48
1
60
0
100
AcDbLine
10
15.825002
20
18.752497
30
0
11
15.824998
21
19.58849
31
0
39
0
210
0
220
0
230
1
0
LINE
5
CF
100
AcDbEntity
8
SK2
62
256
6
ByLayer
370
25
48
1
60
0
100
AcDbLine
10
-81
20
19.170493
30
0
11
-77.825002
21
19.58849
31
0
39
0
210
0
220
0
230
1
0
LINE
5
D0
100
AcDbEntity
8
SK2
62
256
6
ByLayer
370
25
48
1
60
0
100
AcDbLine
10
-81
20
19.170493
30
0
11
-77.824998
21
18.752497
31
0
39
0
210
0
220
0
230
1
0
LINE
5
D1
100
AcDbEntity
8
SK2
62
256
6
ByLayer
370
25
48
1
60
0
100
AcDbLine
10
-77.825002
20
19.58849
30
0
11
-77.824998
21
18.752497
31
0
39
0
210
0
220
0
230
1
0
MTEXT
5
D2
100
AcDbEntity
8
SK2
62
256
6
ByLayer
370
18
48
1
60
0
100
AcDbMText
10
-33.017174
20
20.045523
30
0
210
0
220
0
230
1
1
\W0.6044;100
40
3.50012
41
0
44
1.084337
50
0
71
7
72
5
7
iso_b_vert
0
ENDBLK
5
C7
100
AcDbEntity
8
0
100
AcDbBlockEnd
0
BLOCK
5
E0
100
AcDbEntity
8
0
100
AcDbBlockBegin
2
DimnDraft3D2
70
0
10
0
20
0
30
0
3
DimnDraft3D2
0
MTEXT
5
D5
100
AcDbEntity
8
2
62
256
6
ByLayer
370
18
48
1
60
0
100
AcDbMText
10
8.767738
20
10.901074
30
0
210
0
220
0
230
1
1
\W0.5286;19
40
3.50012
41
0
44
1.084337
50
0
71
7
72
5
7
iso_b_vert
0
LINE
5
D7
100
AcDbEntity
8
2
62
256
6
ByLayer
370
13
48
1
60
0
100
AcDbLine
10
0
20
6.7875
30
0
11
0
21
13.201044
31
0
39
0
210
0
220
0
230
1
0
LINE
5
D8
100
AcDbEntity
8
2
62
256
6
ByLayer
370
13
48
1
60
0
100
AcDbLine
10
19
20
4.0875
30
0
11
19
21
13.201044
31
0
39
0
210
0
220
0
230
1
0
LINE
5
D9
100
AcDbEntity
8
2
62
256
6
ByLayer
370
13
48
1
60
0
100
AcDbLine
10
0
20
10.026044
30
0
11
19
21
10.026044
31
0
39
0
210
0
220
0
230
1
0
LINE
5
DA
100
AcDbEntity
8
2
62
256
6
ByLayer
370
13
48
1
60
0
100
AcDbLine
10
0
20
10.026044
30
0
11
3.174998
21
10.444041
31
0
39
0
210
0
220
0
230
1
0
LINE
5
DB
100
AcDbEntity
8
2
62
256
6
ByLayer
370
13
48
1
60
0
100
AcDbLine
10
0
20
10.026044
30
0
11
3.175002
21
9.608048
31
0
39
0
210
0
220
0
230
1
0
LINE
5
DC
100
AcDbEntity
8
2
62
256
6
ByLayer
370
13
48
1
60
0
100
AcDbLine
10
3.174998
20
10.444041
30
0
11
3.175002
21
9.608048
31
0
39
0
210
0
220
0
230
1
0
LINE
5
DD
100
AcDbEntity
8
2
62
256
6
ByLayer
370
13
48
1
60
0
100
AcDbLine
10
19
20
10.026044
30
0
11
15.825002
21
9.608048
31
0
39
0
210
0
220
0
230
1
0
LINE
5
DE
100
AcDbEntity
8
2
62
256
6
ByLayer
370
13
48
1
60
0
100
AcDbLine
10
19
20
10.026044
30
0
11
15.824998
21
10.444041
31
0
39
0
210
0
220
0
230
1
0
LINE
5
DF
100
AcDbEntity
8
2
62
256
6
ByLayer
370
13
48
1
60
0
100
AcDbLine
10
15.825002
20
9.608048
30
0
11
15.824998
21
10.444041
31
0
39
0
210
0
220
0
230
1
0
ENDBLK
5
E1
100
AcDbEntity
8
0
100
AcDbBlockEnd
0
BLOCK
5
EE
100
AcDbEntity
8
0
100
AcDbBlockBegin
2
DimnDraft3D3
70
0
10
0
20
0
30
0
3
DimnDraft3D3
0
MTEXT
5
E4
100
AcDbEntity
8
SK2
62
256
6
ByLayer
370
18
48
1
60
0
100
AcDbMText
10
-86.651791
20
-0.732262
30
0
210
0
220
0
230
1
1
\W0.5144;12
40
3.50012
41
0
44
1.084337
50
90
71
7
72
5
7
iso_b_vert
0
LINE
5
E5
100
AcDbEntity
8
SK2
62
256
6
ByLayer
370
13
48
1
60
0
100
AcDbLine
10
-81.7875
20
6
30
0
11
-88.951761
21
6
31
0
39
0
210
0
220
0
230
1
0
LINE
5
E6
100
AcDbEntity
8
SK2
62
256
6
ByLayer
370
13
48
1
60
0
100
AcDbLine
10
-81.7875
20
-6
30
0
11
-88.951761
21
-6
31
0
39
0
210
0
220
0
230
1
0
LINE
5
E7
100
AcDbEntity
8
SK2
62
256
6
ByLayer
370
13
48
1
60
0
100
AcDbLine
10
-85.776761
20
6
30
0
11
-85.776761
21
-6
31
0
39
0
210
0
220
0
230
1
0
LINE
5
E8
100
AcDbEntity
8
SK2
62
256
6
ByLayer
370
13
48
1
60
0
100
AcDbLine
10
-85.776761
20
6
30
0
11
-85.358765
21
2.825002
31
0
39
0
210
0
220
0
230
1
0
LINE
5
E9
100
AcDbEntity
8
SK2
62
256
6
ByLayer
370
13
48
1
60
0
100
AcDbLine
10
-85.776761
20
6
30
0
11
-86.194758
21
2.824998
31
0
39
0
210
0
220
0
230
1
0
LINE
5
EA
100
AcDbEntity
8
SK2
62
256
6
ByLayer
370
13
48
1
60
0
100
AcDbLine
10
-85.358765
20
2.825002
30
0
11
-86.194758
21
2.824998
31
0
39
0
210
0
220
0
230
1
0
LINE
5
EB
100
AcDbEntity
8
SK2
62
256
6
ByLayer
370
13
48
1
60
0
100
AcDbLine
10
-85.776761
20
-6
30
0
11
-86.194758
21
-2.825002
31
0
39
0
210
0
220
0
230
1
0
LINE
5
EC
100
AcDbEntity
8
SK2
62
256
6
ByLayer
370
13
48
1
60
0
100
AcDbLine
10
-85.776761
20
-6
30
0
11
-85.358765
21
-2.824998
31
0
39
0
210
0
220
0
230
1
0
LINE
5
ED
100
AcDbEntity
8
SK2
62
256
6
ByLayer
370
13
48
1
60
0
100
AcDbLine
10
-86.194758
20
-2.825002
30
0
11
-85.358765
21
-2.824998
31
0
39
0
210
0
220
0
230
1
0
ENDBLK
5
EF
100
AcDbEntity
8
0
100
AcDbBlockEnd
0
BLOCK
5
FC
100
AcDbEntity
8
0
100
AcDbBlockBegin
2
DimnDraft3D4
70
0
10
0
20
0
30
0
3
DimnDraft3D4
0
MTEXT
5
F2
100
AcDbEntity
8
SK2
62
256
6
ByLayer
370
18
48
1
60
0
100
AcDbMText
10
10.830201
20
-15.77914
30
0
210
0
220
0
230
1
1
\W0.8896;45%%d
40
3.50012
41
0
44
1.084337
50
337.5
71
7
72
5
7
iso_b_vert
0
LINE
5
F3
100
AcDbEntity
8
SK2
62
256
6
ByLayer
370
13
48
1
60
0
100
AcDbLine
10
15.627468
20
-5.872532
30
0
11
5.250449
21
-16.249551
31
0
39
0
210
0
220
0
230
1
0
LINE
5
F4
100
AcDbEntity
8
SK2
62
256
6
ByLayer
370
13
48
1
60
0
100
AcDbLine
10
19
20
-4.0875
30
0
11
19
21
-21.944802
31
0
39
0
210
0
220
0
230
1
0
ARC
5
F5
100
AcDbEntity
8
SK2
62
256
6
ByLayer
370
13
48
1
60
0
100
AcDbCircle
39
0
10
19
20
-2.5
30
0
40
16.2698018625643
210
0
220
0
230
1
100
AcDbArc
50
225
51
270
0
LINE
5
F6
100
AcDbEntity
8
SK2
62
256
6
ByLayer
370
13
48
1
60
0
100
AcDbLine
10
7.495513
20
-14.004487
30
0
11
10.127912
21
-15.828168
31
0
39
0
210
0
220
0
230
1
0
LINE
5
F7
100
AcDbEntity
8
SK2
62
256
6
ByLayer
370
13
48
1
60
0
100
AcDbLine
10
7.495513
20
-14.004487
30
0
11
9.566214
21
-16.447345
31
0
39
0
210
0
220
0
230
1
0
LINE
5
F8
100
AcDbEntity
8
SK2
62
256
6
ByLayer
370
13
48
1
60
0
100
AcDbLine
10
10.127912
20
-15.828168
30
0
11
9.566214
21
-16.447345
31
0
39
0
210
0
220
0
230
1
0
LINE
5
F9
100
AcDbEntity
8
SK2
62
256
6
ByLayer
370
13
48
1
60
0
100
AcDbLine
10
19
20
-18.769802
30
0
11
15.808435
21
-19.032956
31
0
39
0
210
0
220
0
230
1
0
LINE
5
FA
100
AcDbEntity
8
SK2
62
256
6
ByLayer
370
13
48
1
60
0
100
AcDbLine
10
19
20
-18.769802
30
0
11
15.849073
21
-18.197951
31
0
39
0
210
0
220
0
230
1
0
LINE
5
FB
100
AcDbEntity
8
SK2
62
256
6
ByLayer
370
13
48
1
60
0
100
AcDbLine
10
15.808435
20
-19.032956
30
0
11
15.849073
21
-18.197951
31
0
39
0
210
0
220
0
230
1
0
ENDBLK
5
FD
100
AcDbEntity
8
0
100
AcDbBlockEnd
0
ENDSEC
0
SECTION
2
ENTITIES
0
ARC
5
AD
100
AcDbEntity
8
1
62
256
6
ByLayer
370
18
48
1
60
0
100
AcDbCircle
39
0
10
12
20
0
30
0
40
2.5
210
0
220
0
230
1
100
AcDbArc
50
270
51
90
0
ARC
5
AE
100
AcDbEntity
8
1
62
256
6
ByLayer
370
18
48
1
60
0
100
AcDbCircle
39
0
10
12
20
0
30
0
40
2.5
210
0
220
0
230
1
100
AcDbArc
50
90
51
270
0
ARC
5
AF
100
AcDbEntity
8
1
62
256
6
ByLayer
370
18
48
1
60
0
100
AcDbCircle
39
0
10
12
20
0
30
0
40
3.125
210
0
220
0
230
1
100
AcDbArc
50
90
51
270
0
ARC
5
B0
100
AcDbEntity
8
1
62
256
6
ByLayer
370
18
48
1
60
0
100
AcDbCircle
39
0
10
12
20
0
30
0
40
2.5
210
0
220
0
230
1
100
AcDbArc
50
0
51
90
0
ARC
5
B1
100
AcDbEntity
8
1
62
256
6
ByLayer
370
18
48
1
60
0
100
AcDbCircle
39
0
10
12
20
0
30
0
40
3.125
210
0
220
0
230
1
100
AcDbArc
50
270
51
90
0
POINT
5
6C
100
AcDbEntity
8
80
62
256
6
ByLayer
370
18
48
1
60
0
100
AcDbPoint
10
0
20
0
30
0
39
0
210
0
220
0
230
1
50
360
0
POINT
5
6E
100
AcDbEntity
8
81
62
256
6
ByLayer
370
18
48
1
60
0
100
AcDbPoint
10
19
20
0
30
0
39
0
210
0
220
0
230
1
50
360
0
SPLINE
5
B2
100
AcDbEntity
8
1
62
256
6
ByLayer
370
18
48
1
60
0
100
AcDbSpline
70
4
71
3
72
69
73
65
40
0
40
0
40
0
40
0
40
0.0133402231089959
40
0.0266935178263603
40
0.040051797012893
40
0.0534062358825303
40
0.0667474195499683
40
0.0805168140787191
40
0.0942974591532904
40
0.108083256287874
40
0.121866511361174
40
0.135638096742879
40
0.150673765722292
40
0.165716656298712
40
0.180760658991687
40
0.19579784520159
40
0.210823724040286
40
0.225854744806229
40
0.240886475115409
40
0.255913321835841
40
0.271706808234248
40
0.28750480440178
40
0.303303262714262
40
0.31909737948692
40
0.339581073796975
40
0.360072888814902
40
0.380565159418717
40
0.401049475226031
40
0.42153117944562
40
0.442020564428183
40
0.462509831455012
40
0.482991374765386
40
0.50022074339496
40
0.517457692760941
40
0.534696795965244
40
0.551933019121306
40
0.569161778405666
40
0.585609108118803
40
0.60206143168216
40
0.618513418487253
40
0.63496028884343
40
0.651411542773663
40
0.667868617079633
40
0.684325262920195
40
0.700775932369929
40
0.717976458219067
40
0.735184805668049
40
0.752392563145531
40
0.769592284117211
40
0.786138149061245
40
0.802696639879516
40
0.819258605048595
40
0.835815665364694
40
0.852360329625484
40
0.866531070186929
40
0.88071402864483
40
0.89490273032762
40
0.909090961903163
40
0.923272835035337
40
0.937442851431664
40
0.953077893803398
40
0.96872154296904
40
0.984365092951995
40
1
40
1
40
1
40
1
41
1
10
13.4999971147409
20
2.00000127582938
30
0
41
1
10
13.5000060545556
20
1.9999967805861
30
0
41
1
10
13.5004461281075
20
1.99966750112607
30
0
41
1
10
13.5024322015357
20
1.99818060729839
30
0
41
1
10
13.5057013833572
20
1.99571917744677
30
0
41
1
10
13.510229148914
20
1.99229284924893
30
0
41
1
10
13.5160541882494
20
1.98786268382642
30
0
41
1
10
13.5231985299671
20
1.98239848790848
30
0
41
1
10
13.5316358981938
20
1.97589106850185
30
0
41
1
10
13.5412282415097
20
1.96842090125209
30
0
41
1
10
13.5519065107553
20
1.96001464078596
30
0
41
1
10
13.5639690212191
20
1.95040737135691
30
0
41
1
10
13.5774613311614
20
1.93951804799471
30
0
41
1
10
13.5923994850807
20
1.92727659040537
30
0
41
1
10
13.6083077896888
20
1.91402628177242
30
0
41
1
10
13.625095950114
20
1.89979863411058
30
0
41
1
10
13.6426828443659
20
1.88461651284706
30
0
41
1
10
13.6609938760544
20
1.86850236065946
30
0
41
1
10
13.679959761227
20
1.85147441546044
30
0
41
1
10
13.6998404219454
20
1.83324846441197
30
0
41
1
10
13.7206000875051
20
1.81378624020788
30
0
41
1
10
13.7422049273232
20
1.79304865943867
30
0
41
1
10
13.7642461396332
20
1.77137224284737
30
0
41
1
10
13.788875337218
20
1.74653574741003
30
0
41
1
10
13.8161488227677
20
1.71820224864312
30
0
41
1
10
13.8460851101456
20
1.68600601795938
30
0
41
1
10
13.8763191926914
20
1.65230728336462
30
0
41
1
10
13.9067377538821
20
1.61712543638476
30
0
41
1
10
13.9372392093717
20
1.58046618928732
30
0
41
1
10
13.9677418888775
20
1.54233307877243
30
0
41
1
10
13.9981560491009
20
1.50273545939803
30
0
41
1
10
14.0267907666654
20
1.46385587868822
30
0
41
1
10
14.053608142048
20
1.42595051387801
30
0
41
1
10
14.0786120115375
20
1.38925395727781
30
0
41
1
10
14.103342038269
20
1.35152782391087
30
0
41
1
10
14.127744483827
20
1.31278600415964
30
0
41
1
10
14.1514074847089
20
1.27363447860281
30
0
41
1
10
14.1743085563891
20
1.23412378442606
30
0
41
1
10
14.1964350816273
20
1.19430622844095
30
0
41
1
10
14.2181021147244
20
1.15357611201081
30
0
41
1
10
14.2392690083686
20
1.11194072978214
30
0
41
1
10
14.2598960736157
20
1.06940138571382
30
0
41
1
10
14.2799468299035
20
1.025965755181
30
0
41
1
10
14.2993773990381
20
0.981655618578018
30
0
41
1
10
14.3184297569378
20
0.93580412860027
30
0
41
1
10
14.3370255959645
20
0.888371811946997
30
0
41
1
10
14.3550852349777
20
0.839332510712532
30
0
41
1
10
14.3722871898701
20
0.789419615120394
30
0
41
1
10
14.3883766518833
20
0.739312342536365
30
0
41
1
10
14.4033475804234
20
0.689061896415499
30
0
41
1
10
14.4172100226852
20
0.638728097355914
30
0
41
1
10
14.4301232539674
20
0.587701657335394
30
0
41
1
10
14.4420441160181
20
0.536048164387842
30
0
41
1
10
14.4524139474792
20
0.486311001315972
30
0
41
1
10
14.4613648551531
20
0.438606045544896
30
0
41
1
10
14.469047235197
20
0.393031122347965
30
0
41
1
10
14.4759204986451
20
0.347100104665636
30
0
41
1
10
14.4819663611267
20
0.300868648117441
30
0
41
1
10
14.4871669340997
20
0.25439252785414
30
0
41
1
10
14.4916545575509
20
0.206100672383826
30
0
41
1
10
14.495306189217
20
0.155991570613618
30
0
41
1
10
14.4980081723293
20
0.104088000863391
30
0
41
1
10
14.4996365712333
20
0.0520647896771119
30
0
41
1
10
14.4999989209446
20
0.0173591399064569
30
0
41
1
10
14.5
20
9E-16
30
0
0
SPLINE
5
B3
100
AcDbEntity
8
1
62
256
6
ByLayer
370
18
48
1
60
0
100
AcDbSpline
70
4
71
3
72
32
73
28
40
0
40
0
40
0
40
0
40
0.0402730641531907
40
0.0805811723318447
40
0.120889503595122
40
0.161162872219016
40
0.202606204448581
40
0.244087468464483
40
0.285568707168005
40
0.327012004849087
40
0.36728450548327
40
0.407591906762624
40
0.447899260647523
40
0.488171696596873
40
0.52961671518109
40
0.571099807101394
40
0.612582942101513
40
0.654028019484891
40
0.696560003397023
40
0.739133012171548
40
0.781706063878297
40
0.824238106390832
40
0.85936741191804
40
0.894531547002641
40
0.929707183670607
40
0.964870979386557
40
1
40
1
40
1
40
1
41
1
10
4.49305172142463
20
-2
30
0
41
1
10
4.48100010614481
20
-1.99999533395148
30
0
41
1
10
4.45662768558875
20
-1.99993316403625
30
0
41
1
10
4.41925595186918
20
-1.99966195236659
30
0
41
1
10
4.38116957060524
20
-1.99927077607835
30
0
41
1
10
4.34206132205753
20
-1.99879150352165
30
0
41
1
10
4.30196286510711
20
-1.99826598196358
30
0
41
1
10
4.26092050182448
20
-1.9977240948167
30
0
41
1
10
4.21940275345274
20
-1.9972010998304
30
0
41
1
10
4.17789073833741
20
-1.9967319349686
30
0
41
1
10
4.13645807288857
20
-1.99634491631077
30
0
41
1
10
4.09517544783055
20
-1.99604799202511
30
0
41
1
10
4.05372853356348
20
-1.99584796070481
30
0
41
1
10
4.01179741691275
20
-1.99575464805155
30
0
41
1
10
3.96943996522023
20
-1.99578351049858
30
0
41
1
10
3.92672279709776
20
-1.99592949254387
30
0
41
1
10
3.88413956082528
20
-1.99618311727116
30
0
41
1
10
3.84141100649699
20
-1.99653871178053
30
0
41
1
10
3.7986118944806
20
-1.99699025053243
30
0
41
1
10
3.7558196877628
20
-1.99750897227493
30
0
41
1
10
3.71349631621729
20
-1.99805994957961
30
0
41
1
10
3.67415818114669
20
-1.99858039038946
30
0
41
1
10
3.6377589020124
20
-1.99904422014534
30
0
41
1
10
3.60420794065796
20
-1.99942955861003
30
0
41
1
10
3.57116496874437
20
-1.99973929878261
30
0
41
1
10
3.53868982602525
20
-1.99994906771778
30
0
41
1
10
3.51745885332192
20
-1.99999692791649
30
0
41
1
10
3.50694827857516
20
-2
30
0
0
SPLINE
5
B4
100
AcDbEntity
8
1
62
256
6
ByLayer
370
18
48
1
60
0
100
AcDbSpline
70
4
71
3
72
133
73
129
40
0
40
0
40
0
40
0
40
0.0066701014700681
40
0.013346738734439
40
0.0200258682296261
40
0.0267030775692685
40
0.0333736593178315
40
0.0402583461733486
40
0.047148658293271
40
0.0540415464393048
40
0.0609331635566189
40
0.067818945836957
40
0.0753367689605756
40
0.0828582028772384
40
0.0903801928513376
40
0.0978987745890544
40
0.105411702649715
40
0.112927201670112
40
0.120443055461592
40
0.127956467462389
40
0.135853198722639
40
0.143752184864042
40
0.151651402077571
40
0.159548448524469
40
0.16979028019502
40
0.180036172213367
40
0.190282292024315
40
0.200524434443025
40
0.210765271069847
40
0.221009948072349
40
0.231254566097075
40
0.24149532226941
40
0.250109993559801
40
0.258728455212664
40
0.267347993783059
40
0.275966092331512
40
0.284580458949756
40
0.292804111373103
40
0.301030260717786
40
0.30925624168359
40
0.317479664428805
40
0.325705278957734
40
0.333933803670132
40
0.342162114150149
40
0.350387436439271
40
0.358987686361246
40
0.367591847077231
40
0.376195712807912
40
0.384795560291767
40
0.393068480256076
40
0.401347713147959
40
0.40962868321262
40
0.417907200854498
40
0.426179520478093
40
0.433264880046563
40
0.440356348554025
40
0.447450688669589
40
0.454544793731886
40
0.461635719577305
40
0.468720717063763
40
0.475603940437339
40
0.48249009720719
40
0.489376220654199
40
0.496259398568129
40
0.503142737469646
40
0.510029035129071
40
0.516915352067313
40
0.523798717269413
40
0.531079258999452
40
0.538363193882391
40
0.545647215182731
40
0.552927874809347
40
0.560788364788531
40
0.568654630380415
40
0.576523105945161
40
0.58438989628408
40
0.592250826699409
40
0.600302799877564
40
0.608360069370177
40
0.61641945754148
40
0.624477383219853
40
0.632529907112949
40
0.64116836676344
40
0.649812195805548
40
0.658458234020131
40
0.667102843887416
40
0.67574195883534
40
0.684554456715306
40
0.693371599908762
40
0.702190630944095
40
0.711008406062959
40
0.719821434227308
40
0.728494957506861
40
0.737171059856717
40
0.745847294300134
40
0.754520997760332
40
0.763193496167726
40
0.771868356328694
40
0.780543266575233
40
0.789215833299661
40
0.798211221736734
40
0.807209232519251
40
0.816207170737009
40
0.825202460193146
40
0.833031600845192
40
0.84086266812357
40
0.848693583554712
40
0.856522517090659
40
0.864353905691673
40
0.872187694812358
40
0.880021168406616
40
0.887852126609273
40
0.895987739575151
40
0.904127070814313
40
0.91226575887662
40
0.92040049436965
40
0.926885256450668
40
0.933372657644477
40
0.939859703366243
40
0.946343980510539
40
0.952832516641073
40
0.959324487771439
40
0.965816112376718
40
0.972304175718277
40
0.979225785148233
40
0.986152324571315
40
0.99307866378236
40
1
40
1
40
1
40
1
41
1
10
10.5000028852591
20
2.00000127582937
30
0
41
1
10
10.4999939454444
20
1.99999678058611
30
0
41
1
10
10.4995538718925
20
1.99966750112607
30
0
41
1
10
10.4975677984643
20
1.99818060729839
30
0
41
1
10
10.4942986166429
20
1.99571917744677
30
0
41
1
10
10.489770851086
20
1.99229284924893
30
0
41
1
10
10.4839458117506
20
1.98786268382642
30
0
41
1
10
10.4768014700329
20
1.98239848790848
30
0
41
1
10
10.4683641018062
20
1.97589106850185
30
0
41
1
10
10.4587717584903
20
1.96842090125209
30
0
41
1
10
10.4480934892447
20
1.96001464078596
30
0
41
1
10
10.4360309787809
20
1.95040737135692
30
0
41
1
10
10.4225386688386
20
1.93951804799471
30
0
41
1
10
10.4076005149194
20
1.92727659040537
30
0
41
1
10
10.3916922103112
20
1.91402628177242
30
0
41
1
10
10.3749040498861
20
1.89979863411058
30
0
41
1
10
10.3573171556341
20
1.88461651284705
30
0
41
1
10
10.3390061239456
20
1.86850236065946
30
0
41
1
10
10.320040238773
20
1.85147441546044
30
0
41
1
10
10.3001595780546
20
1.83324846441197
30
0
41
1
10
10.2793999124949
20
1.81378624020788
30
0
41
1
10
10.2577950726769
20
1.79304865943867
30
0
41
1
10
10.2357538603668
20
1.77137224284737
30
0
41
1
10
10.2111246627821
20
1.74653574741003
30
0
41
1
10
10.1838511772323
20
1.71820224864312
30
0
41
1
10
10.1539148898545
20
1.68600601795938
30
0
41
1
10
10.1236808073086
20
1.65230728336462
30
0
41
1
10
10.093262246118
20
1.61712543638476
30
0
41
1
10
10.0627607906283
20
1.58046618928732
30
0
41
1
10
10.0322581111225
20
1.54233307877243
30
0
41
1
10
10.0018439508992
20
1.50273545939803
30
0
41
1
10
9.9732092333346
20
1.46385587868821
30
0
41
1
10
9.94639185795203
20
1.42595051387801
30
0
41
1
10
9.92138798846248
20
1.38925395727781
30
0
41
1
10
9.896657961731
20
1.35152782391087
30
0
41
1
10
9.87225551617301
20
1.31278600415963
30
0
41
1
10
9.84859251529113
20
1.27363447860281
30
0
41
1
10
9.82569144361097
20
1.23412378442606
30
0
41
1
10
9.80356491837276
20
1.19430622844094
30
0
41
1
10
9.78189788527563
20
1.15357611201081
30
0
41
1
10
9.76073099163147
20
1.11194072978214
30
0
41
1
10
9.7401039263843
20
1.06940138571382
30
0
41
1
10
9.72005317009653
20
1.025965755181
30
0
41
1
10
9.7006226009619
20
0.981655618578015
30
0
41
1
10
9.68157024306219
20
0.935804128600266
30
0
41
1
10
9.66297440403548
20
0.888371811946992
30
0
41
1
10
9.64491476502237
20
0.839332510712538
30
0
41
1
10
9.62771281012996
20
0.789419615120359
30
0
41
1
10
9.61162334811668
20
0.739312342536497
30
0
41
1
10
9.59665241957682
20
0.689061896415021
30
0
41
1
10
9.5827899773142
20
0.638728097357703
30
0
41
1
10
9.56987674603513
20
0.587701657328708
30
0
41
1
10
9.55795588397265
20
0.536048164412769
30
0
41
1
10
9.54758605255326
20
0.486311001228644
30
0
41
1
10
9.53863514474511
20
0.438606045819312
30
0
41
1
10
9.53095276518552
20
0.393031121317348
30
0
41
1
10
9.52407949992645
20
0.347100108514938
30
0
41
1
10
9.51803364420339
20
0.30086863375474
30
0
41
1
10
9.51283304602527
20
0.254392581410895
30
0
41
1
10
9.5085361509228
20
0.208151924031515
30
0
41
1
10
9.50512798890508
20
0.162179338238185
30
0
41
1
10
9.5025790554417
20
0.11650710650368
30
0
41
1
10
9.50086230360109
20
0.0707352893205601
30
0
41
1
10
9.49998329015913
20
0.0249087794764843
30
0
41
1
10
9.49994899302669
20
-0.0209396855516915
30
0
41
1
10
9.50075462469376
20
-0.0667769362622068
30
0
41
1
10
9.5023966908972
20
-0.112556939945702
30
0
41
1
10
9.5049199892361
20
-0.159112446011322
30
0
41
1
10
9.50838098489547
20
-0.20640266704169
30
0
41
1
10
9.51282356011166
20
-0.254380365139748
30
0
41
1
10
9.51816973530122
20
-0.302119681863298
30
0
41
1
10
9.52457150434288
20
-0.350830424806754
30
0
41
1
10
9.53210574706783
20
-0.400451949261913
30
0
41
1
10
9.54083217099413
20
-0.450917000855506
30
0
41
1
10
9.55053186659593
20
-0.500927532827648
30
0
41
1
10
9.56117334227653
20
-0.550416268590848
30
0
41
1
10
9.57282404749635
20
-0.599733275495572
30
0
41
1
10
9.58548870614718
20
-0.648835608924801
30
0
41
1
10
9.59915612560657
20
-0.697689755330489
30
0
41
1
10
9.61368769814846
20
-0.745869587488453
30
0
41
1
10
9.62904095523963
20
-0.793324165767199
30
0
41
1
10
9.64557166088493
20
-0.841153066343269
30
0
41
1
10
9.66331711113105
20
-0.889275740959462
30
0
41
1
10
9.68229809320479
20
-0.937615430763781
30
0
41
1
10
9.70205516378365
20
-0.985035200467526
30
0
41
1
10
9.72253321345653
20
-1.03149610407169
30
0
41
1
10
9.74382708784612
20
-1.07728032284737
30
0
41
1
10
9.76591325141814
20
-1.12235887093753
30
0
41
1
10
9.78875958685907
20
-1.16671217154699
30
0
41
1
10
9.81216895228878
20
-1.21003086241433
30
0
41
1
10
9.83608376465951
20
-1.25229163684423
30
0
41
1
10
9.86032612602235
20
-1.29326666838739
30
0
41
1
10
9.8848448161379
20
-1.3329751040148
30
0
41
1
10
9.90958688785209
20
-1.37144207429254
30
0
41
1
10
9.93463286508433
20
-1.40887206696984
30
0
41
1
10
9.95993176387231
20
-1.44525677058937
30
0
41
1
10
9.98543963666456
20
-1.48059627690531
30
0
41
1
10
10.011107080859
20
-1.51489242291212
30
0
41
1
10
10.0368813261342
20
-1.54814091657067
30
0
41
1
10
10.0630289560167
20
-1.58073499573462
30
0
41
1
10
10.0895024006452
20
-1.61262767772763
30
0
41
1
10
10.116237594609
20
-1.64376959083844
30
0
41
1
10
10.142843794626
20
-1.67376482499847
30
0
41
1
10
10.1681097188171
20
-1.70135661732374
30
0
41
1
10
10.1920068743145
20
-1.72670656117955
30
0
41
1
10
10.2145195644655
20
-1.74996948443597
30
0
41
1
10
10.2367205070257
20
-1.77233281563361
30
0
41
1
10
10.2585536524158
20
-1.79378629693529
30
0
41
1
10
10.2799635501316
20
-1.81431925846558
30
0
41
1
10
10.300882431374
20
-1.83391827516181
30
0
41
1
10
10.3212346467411
20
-1.85256229221299
30
0
41
1
10
10.3412011883984
20
-1.87045995517958
30
0
41
1
10
10.3606762299114
20
-1.88754650029976
30
0
41
1
10
10.379530945316
20
-1.90375110577988
30
0
41
1
10
10.3974167826445
20
-1.91882645156151
30
0
41
1
10
10.4130924047497
20
-1.93179790464682
30
0
41
1
10
10.4267126232635
20
-1.94289694482592
30
0
41
1
10
10.4384643099628
20
-1.95235173106425
30
0
41
1
10
10.4493556728103
20
-1.96101043905194
30
0
41
1
10
10.4593311532521
20
-1.96885422338434
30
0
41
1
10
10.4683293219656
20
-1.97586086172959
30
0
41
1
10
10.4763039890199
20
-1.98201556487895
30
0
41
1
10
10.4832058910825
20
-1.98729974667299
30
0
41
1
10
10.4891150526288
20
-1.99179297614035
30
0
41
1
10
10.4938840527467
20
-1.99540235389873
30
0
41
1
10
10.4973933700125
20
-1.99804694962602
30
0
41
1
10
10.4995223766425
20
-1.99964328249029
30
0
41
1
10
10.4999940844076
20
-1.99999682670737
30
0
41
1
10
10.5000030151358
20
-2.00000133940539
30
0
0
SPLINE
5
B5
100
AcDbEntity
8
1
62
256
6
ByLayer
370
18
48
1
60
0
100
AcDbSpline
70
4
71
3
72
32
73
28
40
0
40
0
40
0
40
0
40
0.0402730641531837
40
0.0805811723318314
40
0.120889503595101
40
0.161162872218986
40
0.202606204448541
40
0.244087468464438
40
0.285568707167951
40
0.327012004849027
40
0.367284505483196
40
0.407591906762541
40
0.447899260647426
40
0.488171696596765
40
0.529616715180972
40
0.571099807101265
40
0.612582942101372
40
0.654028019484741
40
0.696560003396892
40
0.739133012171433
40
0.781706063878198
40
0.824238106390749
40
0.859367411917968
40
0.894531547002593
40
0.929707183670571
40
0.96487097938654
40
1
40
1
40
1
40
1
41
1
10
3.50694827857516
20
2
30
0
41
1
10
3.51899989385498
20
1.99999533395148
30
0
41
1
10
3.54337231441103
20
1.99993316403625
30
0
41
1
10
3.58074404813062
20
1.99966195236659
30
0
41
1
10
3.61883042939455
20
1.99927077607835
30
0
41
1
10
3.65793867794225
20
1.99879150352165
30
0
41
1
10
3.69803713489268
20
1.99826598196358
30
0
41
1
10
3.73907949817532
20
1.9977240948167
30
0
41
1
10
3.78059724654704
20
1.9972010998304
30
0
41
1
10
3.82210926166238
20
1.9967319349686
30
0
41
1
10
3.86354192711121
20
1.99634491631077
30
0
41
1
10
3.90482455216925
20
1.99604799202511
30
0
41
1
10
3.94627146643629
20
1.99584796070481
30
0
41
1
10
3.98820258308703
20
1.99575464805155
30
0
41
1
10
4.03056003477954
20
1.99578351049858
30
0
41
1
10
4.07327720290202
20
1.99592949254387
30
0
41
1
10
4.1158604391745
20
1.99618311727116
30
0
41
1
10
4.1585889935028
20
1.99653871178053
30
0
41
1
10
4.20138810551921
20
1.99699025053243
30
0
41
1
10
4.24418031223705
20
1.99750897227493
30
0
41
1
10
4.28650368378258
20
1.99805994957961
30
0
41
1
10
4.3258418188532
20
1.99858039038946
30
0
41
1
10
4.36224109798752
20
1.99904422014534
30
0
41
1
10
4.39579205934199
20
1.99942955861003
30
0
41
1
10
4.4288350312556
20
1.99973929878261
30
0
41
1
10
4.46131017397476
20
1.99994906771778
30
0
41
1
10
4.48254114667806
20
1.99999692791649
30
0
41
1
10
4.49305172142485
20
2
30
0
0
SPLINE
5
B6
100
AcDbEntity
8
1
62
256
6
ByLayer
370
18
48
1
60
0
100
AcDbSpline
70
4
71
3
72
127
73
123
40
0
40
0
40
0
40
0
40
0.0073350450979026
40
0.0148359289753578
40
0.0225059795137594
40
0.0303484618347111
40
0.0383665614044793
40
0.0465633657455878
40
0.0549418447410296
40
0.0627841682774468
40
0.070783594319611
40
0.0789420562234815
40
0.0872613420221082
40
0.0957430775873918
40
0.104388709160418
40
0.111930709239779
40
0.119594707346567
40
0.127381239012416
40
0.135290705702657
40
0.143323366039464
40
0.151479327063091
40
0.159758535596772
40
0.167455926948299
40
0.175256396312466
40
0.18315951251168
40
0.191164709477988
40
0.199271281663576
40
0.207478379782429
40
0.216525095767573
40
0.225688248910658
40
0.234966133065027
40
0.244356821772129
40
0.253858165492903
40
0.261399705526447
40
0.269006850700802
40
0.276678265638581
40
0.28441252931379
40
0.292208135629889
40
0.300063494261441
40
0.307976931759087
40
0.315946692915476
40
0.323970942387778
40
0.332047766570374
40
0.340029619743751
40
0.348058313422014
40
0.35613182690672
40
0.364248075701665
40
0.372553573507238
40
0.380898823332709
40
0.389281439143204
40
0.397698979063181
40
0.406148948951373
40
0.414477142426662
40
0.422831714531049
40
0.431210176129554
40
0.439610003567943
40
0.44820061771596
40
0.456808075430043
40
0.465429608211413
40
0.47406242644354
40
0.482703723589931
40
0.491350680409833
40
0.500000469186453
40
0.509154374089049
40
0.518304922569841
40
0.52744876383489
40
0.536582558340316
40
0.545702983402663
40
0.554806738790424
40
0.563372106669461
40
0.571917030480853
40
0.580438825254553
40
0.588934840655965
40
0.597402464972591
40
0.605839129035296
40
0.614242310061352
40
0.622609535405348
40
0.630938386203216
40
0.639226500893895
40
0.647324744060615
40
0.655379353385671
40
0.663388271318416
40
0.671349505209261
40
0.680335970350313
40
0.689255662096447
40
0.698105984543877
40
0.706884465133312
40
0.715588757586262
40
0.724216644348258
40
0.732766038528781
40
0.741234985332542
40
0.750018922480336
40
0.758710633313782
40
0.767308340873689
40
0.775810428054395
40
0.784215436245359
40
0.79252206339207
40
0.801450852697078
40
0.810260437886712
40
0.818949748299911
40
0.827517914041002
40
0.835964259356968
40
0.844140734362297
40
0.852198933941174
40
0.860138723199996
40
0.867960119348994
40
0.877117084626811
40
0.886107023428285
40
0.894930714292467
40
0.903589172094223
40
0.912083629258839
40
0.920415517280032
40
0.928586448667706
40
0.936598199432522
40
0.944452692195724
40
0.95215197999523
40
0.95969823084269
40
0.967093713071405
40
0.975619403425361
40
0.983942934398036
40
0.992068404156534
40
1
40
1
40
1
40
1
41
1
10
1.42E-14
20
2
30
0
41
1
10
0.004047152622622
20
1.9999999675729
30
0
41
1
10
0.0122306801780248
20
1.99965404352547
30
0
41
1
10
0.0246408791705051
20
1.9980678441528
30
0
41
1
10
0.0373176727534457
20
1.9953367668209
30
0
41
1
10
0.0502593640681006
20
1.99138585696942
30
0
41
1
10
0.0634623249007227
20
1.98613730422505
30
0
41
1
10
0.0769219226011515
20
1.97951050580512
30
0
41
1
10
0.0902391245346372
20
1.97165405905498
30
0
41
1
10
0.103395647838543
20
1.96262534478935
30
0
41
1
10
0.11637415336002
20
1.95248658565368
30
0
41
1
10
0.129541952580649
20
1.9409110950297
30
0
41
1
10
0.142889658505624
20
1.9278286612929
30
0
41
1
10
0.156406484976532
20
1.91316821120212
30
0
41
1
10
0.169411421270176
20
1.89765578703703
30
0
41
1
10
0.181886458987019
20
1.88147775104901
30
0
41
1
10
0.193816469927484
20
1.86482042223643
30
0
41
1
10
0.205831599771635
20
1.8468080169349
30
0
41
1
10
0.21792043190322
20
1.82739604317107
30
0
41
1
10
0.230070572182317
20
1.80654075451558
30
0
41
1
10
0.242268632746846
20
1.78419941133446
30
0
41
1
10
0.254153142872759
20
1.76100781723953
30
0
41
1
10
0.265714741046786
20
1.7370621950248
30
0
41
1
10
0.276945789847559
20
1.71246007265068
30
0
41
1
10
0.288166066839558
20
1.68648361065301
30
0
41
1
10
0.299361472800232
20
1.65910672858197
30
0
41
1
10
0.310517182131708
20
1.63030533002634
30
0
41
1
10
0.32195129772705
20
1.59914841669378
30
0
41
1
10
0.333633661406044
20
1.56547577125565
30
0
41
1
10
0.345528548520242
20
1.52912537293719
30
0
41
1
10
0.357294080300836
20
1.49099994473304
30
0
41
1
10
0.368906596880201
20
1.45108716723654
30
0
41
1
10
0.379512058114965
20
1.41240548911101
30
0
41
1
10
0.389147949871347
20
1.37532657243802
30
0
41
1
10
0.39785420356942
20
1.3401879246328
30
0
41
1
10
0.406410328116902
20
1.30394497253436
30
0
41
1
10
0.414803510262221
20
1.26660374223648
30
0
41
1
10
0.423020776218312
20
1.22817281050904
30
0
41
1
10
0.431049060102353
20
1.188663281492
30
0
41
1
10
0.438875236574486
20
1.14808888970758
30
0
41
1
10
0.446486166841552
20
1.10646605300221
30
0
41
1
10
0.453868741987517
20
1.06381393869818
30
0
41
1
10
0.460967035397545
20
1.02041675149935
30
0
41
1
10
0.467773880783469
20
0.976317181087348
30
0
41
1
10
0.474282765819055
20
0.931559078552319
30
0
41
1
10
0.480522475138475
20
0.885907975100191
30
0
41
1
10
0.486517816066648
20
0.839111223519166
30
0
41
1
10
0.492250968306944
20
0.791187249353622
30
0
41
1
10
0.497703952340945
20
0.7421589158377
30
0
41
1
10
0.502831643178411
20
0.692352133536046
30
0
41
1
10
0.507623472155124
20
0.641810672226298
30
0
41
1
10
0.512042819777349
20
0.59088726190833
30
0
41
1
10
0.516087812980103
20
0.539642048092115
30
0
41
1
10
0.51975751604736
20
0.48813484517684
30
0
41
1
10
0.523068484729137
20
0.436108693382463
30
0
41
1
10
0.526033820151671
20
0.38325724684381
30
0
41
1
10
0.528638227797806
20
0.329625507356345
30
0
41
1
10
0.530866828334503
20
0.275263016034884
30
0
41
1
10
0.532697182372765
20
0.220588268146973
30
0
41
1
10
0.534125139631922
20
0.165662289801421
30
0
41
1
10
0.535147448217028
20
0.11054705412692
30
0
41
1
10
0.535761771402441
20
0.0553052129197816
30
0
41
1
10
0.535970684953039
20
-0.001074462146505
30
0
41
1
10
0.535745384125526
20
-0.0585279525404744
30
0
41
1
10
0.535057427073536
20
-0.116980712206469
30
0
41
1
10
0.533912793566582
20
-0.175283521341271
30
0
41
1
10
0.53231441095209
20
-0.23336216256085
30
0
41
1
10
0.530266354922258
20
-0.291143371628561
30
0
41
1
10
0.527821131205084
20
-0.347465337157851
30
0
41
1
10
0.525013803157627
20
-0.402283413998199
30
0
41
1
10
0.521878786836599
20
-0.455564261393904
30
0
41
1
10
0.518367239439481
20
-0.50834063290687
30
0
41
1
10
0.51448682749951
20
-0.560558486060272
30
0
41
1
10
0.510245934978549
20
-0.612165733371601
30
0
41
1
10
0.505653617067633
20
-0.663112454132179
30
0
41
1
10
0.500719554060662
20
-0.713351019488967
30
0
41
1
10
0.495454001687662
20
-0.762836224303783
30
0
41
1
10
0.489867741958179
20
-0.811525381731624
30
0
41
1
10
0.484006844578818
20
-0.859095841433131
30
0
41
1
10
0.477889367212544
20
-0.905526156863725
30
0
41
1
10
0.471533183131207
20
-0.950799275811395
30
0
41
1
10
0.464912847832725
20
-0.995166830822608
30
0
41
1
10
0.457731019416645
20
-1.04055587654674
30
0
41
1
10
0.449957780660011
20
-1.08680176851294
30
0
41
1
10
0.44156524545566
20
-1.13372513240275
30
0
41
1
10
0.432898895386049
20
-1.17935057506327
30
0
41
1
10
0.423976998494752
20
-1.22365410457085
30
0
41
1
10
0.414817803970383
20
-1.26661600224626
30
0
41
1
10
0.405439484219098
20
-1.30822060419532
30
0
41
1
10
0.395860052245745
20
-1.34845622918289
30
0
41
1
10
0.385944663444995
20
-1.38792256488199
30
0
41
1
10
0.375699473040537
20
-1.42654719662011
30
0
41
1
10
0.365132042476393
20
-1.46425861160073
30
0
41
1
10
0.354421673309261
20
-1.50045672703059
30
0
41
1
10
0.34358712942209
20
-1.53514844615843
30
0
41
1
10
0.332646586222388
20
-1.56834420954397
30
0
41
1
10
0.321298230430507
20
-1.60097605443008
30
0
41
1
10
0.309545931966184
20
-1.63292413502563
30
0
41
1
10
0.297395892980866
20
-1.66406841965841
30
0
41
1
10
0.285201958367182
20
-1.69352975002973
30
0
41
1
10
0.272983062420988
20
-1.72133973573013
30
0
41
1
10
0.260828294542044
20
-1.74738021713949
30
0
41
1
10
0.248755854036237
20
-1.77171678684332
30
0
41
1
10
0.236782183749817
20
-1.79441596038805
30
0
41
1
10
0.224847041914856
20
-1.81566580832952
30
0
41
1
10
0.212227341874709
20
-1.83673509559448
30
0
41
1
10
0.198933392870575
20
-1.85737859517034
30
0
41
1
10
0.184979398547203
20
-1.87734666342728
30
0
41
1
10
0.171151936167394
20
-1.89551570889982
30
0
41
1
10
0.157466511540982
20
-1.91195747005287
30
0
41
1
10
0.14393698851935
20
-1.92674390418345
30
0
41
1
10
0.130575701537609
20
-1.93994673374595
30
0
41
1
10
0.11739352695966
20
-1.95163711459481
30
0
41
1
10
0.104399968714368
20
-1.96188532723839
30
0
41
1
10
0.0916032389540931
20
-1.97076051465297
30
0
41
1
10
0.0790103497240651
20
-1.97833045444293
30
0
41
1
10
0.0666271661394084
20
-1.98466137533882
30
0
41
1
10
0.053757383656059
20
-1.99011491056847
30
0
41
1
10
0.0404299509928485
20
-1.99452656910999
30
0
41
1
10
0.026676310486117
20
-1.99773592881697
30
0
41
1
10
0.0132333984559168
20
-1.99959511456899
30
0
41
1
10
0.0043764374136686
20
-1.99999995563132
30
0
41
1
10
1.42E-14
20
-2
30
0
0
SPLINE
5
B7
100
AcDbEntity
8
1
62
256
6
ByLayer
370
18
48
1
60
0
100
AcDbSpline
70
4
71
3
72
34
73
30
40
0
40
0
40
0
40
0
40
0.0368225808004859
40
0.0736736242652305
40
0.110522768454852
40
0.14734275730836
40
0.1851729270474
40
0.223037990909147
40
0.260901617699964
40
0.298729825975644
40
0.335579938763196
40
0.372464373788266
40
0.409348412469353
40
0.446197984283381
40
0.484206214942622
40
0.522252223970197
40
0.560298679290343
40
0.598307519133957
40
0.633824873633837
40
0.66937191187909
40
0.704919606012708
40
0.740437855650284
40
0.776924295013381
40
0.813441340996267
40
0.849959065055381
40
0.886446429840379
40
0.924291996502212
40
0.962154107296502
40
1
40
1
40
1
40
1
41
1
10
3.00000000000001
20
1.80086090523393
30
0
41
1
10
2.99999704191239
20
1.80665119678796
30
0
41
1
10
3.00043531815481
20
1.81798822754384
30
0
41
1
10
3.0024125273583
20
1.83425962346357
30
0
41
1
10
3.00575043902945
20
1.84976911898403
30
0
41
1
10
3.01052091050416
20
1.8646273298119
30
0
41
1
10
3.01681166414405
20
1.8787856791733
30
0
41
1
10
3.0246819438181
20
1.8922178033037
30
0
41
1
10
3.03408645819028
20
1.90478676247289
30
0
41
1
10
3.04494501549856
20
1.91637906413599
30
0
41
1
10
3.05723609334538
20
1.92701246234613
30
0
41
1
10
3.07090235052876
20
1.93673270551861
30
0
41
1
10
3.08603745566085
20
1.94564252494614
30
0
41
1
10
3.10280378322798
20
1.95383455971596
30
0
41
1
10
3.12125969303624
20
1.96129062300298
30
0
41
1
10
3.14142515771956
20
1.96801986709969
30
0
41
1
10
3.16306997771783
20
1.97397645338825
30
0
41
1
10
3.18565333592758
20
1.97907526300514
30
0
41
1
10
3.20904715190945
20
1.98340163045812
30
0
41
1
10
3.23310900560519
20
1.98705007747321
30
0
41
1
10
3.25832662109259
20
1.99015496263938
30
0
41
1
10
3.28489483218763
20
1.99277489262935
30
0
41
1
10
3.31282208791493
20
1.99493128946199
30
0
41
1
10
3.3420944613971
20
1.99665626268225
30
0
41
1
10
3.37240370920584
20
1.99797390661765
30
0
41
1
10
3.40408234083106
20
1.99893837958337
30
0
41
1
10
3.43712827410014
20
1.99958030484183
30
0
41
1
10
3.47152730290364
20
1.9999295723842
30
0
41
1
10
3.49504310898351
20
2.00000512445762
30
0
41
1
10
3.50694827857516
20
2
30
0
0
SPLINE
5
B8
100
AcDbEntity
8
1
62
256
6
ByLayer
370
18
48
1
60
0
100
AcDbSpline
70
4
71
3
72
34
73
30
40
0
40
0
40
0
40
0
40
0.0369063289134971
40
0.0738430922246649
40
0.110779356352653
40
0.147685003998797
40
0.185627795605064
40
0.223605155089646
40
0.261581672853702
40
0.299523315608889
40
0.336444346302162
40
0.373398924291628
40
0.41035279512885
40
0.447272860644041
40
0.485339262680886
40
0.523443709144844
40
0.561547940660209
40
0.599614049292091
40
0.635333886208089
40
0.671084843579694
40
0.706836389273554
40
0.742557029143711
40
0.779291037813739
40
0.816056707026968
40
0.852823852098479
40
0.889559875022309
40
0.926367921290103
40
0.963190714926055
40
1
40
1
40
1
40
1
41
1
10
4.49305172142485
20
2
30
0
41
1
10
4.50466077854003
20
2.00000476058112
30
0
41
1
10
4.52760394149072
20
1.99993307207928
30
0
41
1
10
4.56119347217424
20
1.99960184640992
30
0
41
1
10
4.59387991197541
20
1.9989865623841
30
0
41
1
10
4.62590106933031
20
1.9980394840141
30
0
41
1
10
4.65717072453027
20
1.99670004306092
30
0
41
1
10
4.68761436840838
20
1.99490756785324
30
0
41
1
10
4.71688326378665
20
1.99262701441976
30
0
41
1
10
4.74466169121757
20
1.98983557364537
30
0
41
1
10
4.77093536213843
20
1.98649810056413
30
0
41
1
10
4.79571797661044
20
1.98259432845166
30
0
41
1
10
4.81920342450571
20
1.97805746361928
30
0
41
1
10
4.84157196044075
20
1.97279638772653
30
0
41
1
10
4.86273136881255
20
1.96673977356555
30
0
41
1
10
4.88261651044244
20
1.9598345525426
30
0
41
1
10
4.90098296954336
20
1.95211909006362
30
0
41
1
10
4.9174513384877
20
1.94374366123774
30
0
41
1
10
4.93210454869026
20
1.9347367135628
30
0
41
1
10
4.94506203069481
20
1.92515299014228
30
0
41
1
10
4.95663349855113
20
1.91479775843159
30
0
41
1
10
4.96690912213539
20
1.90356238307649
30
0
41
1
10
4.97583877464626
20
1.89140783243658
30
0
41
1
10
4.98340340658521
20
1.8783197046887
30
0
41
1
10
4.9895389966911
20
1.86442692589865
30
0
41
1
10
4.99426389380625
20
1.8497325845514
30
0
41
1
10
4.99759445615367
20
1.83424308449794
30
0
41
1
10
4.9995664164299
20
1.81798090914985
30
0
41
1
10
5.00000337996394
20
1.80664944786914
30
0
41
1
10
5.00000000000001
20
1.80086090523349
30
0
0
SPLINE
5
B9
100
AcDbEntity
8
1
62
256
6
ByLayer
370
18
48
1
60
0
100
AcDbSpline
70
4
71
3
72
68
73
64
40
0
40
0
40
0
40
0
40
0.0141597096081529
40
0.0283258448597659
40
0.0424920407379735
40
0.0566518330562074
40
0.0708104134100696
40
0.0849751832840318
40
0.099140121664707
40
0.113298931900402
40
0.128300599587811
40
0.143309088909133
40
0.158317885791802
40
0.173319973070189
40
0.19033812138555
40
0.207369013201221
40
0.224405034252303
40
0.241437560335292
40
0.258457080363386
40
0.275892270334393
40
0.293338663123562
40
0.310789672665009
40
0.328237707962825
40
0.34567427641728
40
0.36473830200517
40
0.383810578859602
40
0.402883501176531
40
0.421948407316075
40
0.441006646655699
40
0.460071911475375
40
0.479137604901011
40
0.49819642891636
40
0.518248302290553
40
0.538307520968134
40
0.558366943459843
40
0.578419094863686
40
0.597780245725681
40
0.617147950369844
40
0.636515443190415
40
0.655876305103703
40
0.675242190637326
40
0.69461562950856
40
0.713988224508471
40
0.733352958850501
40
0.749638633069259
40
0.765934137670808
40
0.782231494830963
40
0.798524239747296
40
0.814807598025666
40
0.82853416099328
40
0.842269631337354
40
0.856006857488661
40
0.869739983712147
40
0.883464579394246
40
0.897536562292458
40
0.91162210878079
40
0.925710799868157
40
0.939793673476634
40
0.953863412477867
40
0.965394776296876
40
0.976931899427977
40
0.988468859138758
40
1
40
1
40
1
40
1
41
1
10
9.50000000000001
20
0
30
0
41
1
10
9.50000072741081
20
0.0157200818616973
30
0
41
1
10
9.50029776816035
20
0.0471508675286604
30
0
41
1
10
9.50163303594115
20
0.0942708552756953
30
0
41
1
10
9.50385024547989
20
0.141301917870146
30
0
41
1
10
9.50694567392741
20
0.188197968729093
30
0
41
1
10
9.51091677119058
20
0.23492212964286
30
0
41
1
10
9.51574894217125
20
0.28144234930041
30
0
41
1
10
9.52142831624514
20
0.327714519485248
30
0
41
1
10
9.52807092981481
20
0.374606014821949
30
0
41
1
10
9.53572512667398
20
0.422063551647176
30
0
41
1
10
9.54442583814775
20
0.470030791929789
30
0
41
1
10
9.55400219338127
20
0.517557151896621
30
0
41
1
10
9.56489684135705
20
0.566705446875039
30
0
41
1
10
9.57722962196834
20
0.617368395669205
30
0
41
1
10
9.59110163151979
20
0.669425631034649
30
0
41
1
10
9.60596123454648
20
0.720752314343973
30
0
41
1
10
9.62175918887067
20
0.771285373294659
30
0
41
1
10
9.63859016426731
20
0.821388585347825
30
0
41
1
10
9.65644520355679
20
0.871018044141798
30
0
41
1
10
9.67530120227463
20
0.920142549734486
30
0
41
1
10
9.69496489691877
20
0.968338491145629
30
0
41
1
10
9.71537960357651
20
1.01556438874341
30
0
41
1
10
9.73715448671421
20
1.06323421822645
30
0
41
1
10
9.76032324512742
20
1.11122936465455
30
0
41
1
10
9.78490001750782
20
1.15943190792479
30
0
41
1
10
9.81014007004374
20
1.20641673859616
30
0
41
1
10
9.83597537664831
20
1.25216051560785
30
0
41
1
10
9.86234952936387
20
1.296658431667
30
0
41
1
10
9.88920085150974
20
1.33991323312865
30
0
41
1
10
9.91646592710801
20
1.38191982026568
30
0
41
1
10
9.94455869878247
20
1.4233761121594
30
0
41
1
10
9.97344066277511
20
1.46420502276219
30
0
41
1
10
10.0030538449618
20
1.5043292006835
30
0
41
1
10
10.0328306883308
20
1.54305439980639
30
0
41
1
10
10.0623459520714
20
1.57994260494915
30
0
41
1
10
10.0915249558043
20
1.6150476557772
30
0
41
1
10
10.1202874267134
20
1.64842317433568
30
0
41
1
10
10.1488882388942
20
1.68046928628994
30
0
41
1
10
10.177241077509
20
1.71117484481092
30
0
41
1
10
10.2052641508916
20
1.74053058840606
30
0
41
1
10
10.2328531592923
20
1.76852293623318
30
0
41
1
10
10.2598912620407
20
1.79512527706721
30
0
41
1
10
10.2848650122319
20
1.81897656507963
30
0
41
1
10
10.3078000835306
20
1.84030717840843
30
0
41
1
10
10.3287439779099
20
1.8593390949953
30
0
41
1
10
10.3489661673997
20
1.87731281212961
30
0
41
1
10
10.3683676698045
20
1.89419609224761
30
0
41
1
10
10.3858885372864
20
1.90913657320155
30
0
41
1
10
10.4016082094053
20
1.92230583326056
30
0
41
1
10
10.4156301342389
20
1.93387539116232
30
0
41
1
10
10.4288090871749
20
1.94459445242941
30
0
41
1
10
10.4410727054457
20
1.95443644676079
30
0
41
1
10
10.4524501625606
20
1.96345411623843
30
0
41
1
10
10.4628353710359
20
1.97159407023306
30
0
41
1
10
10.4721377555886
20
1.97881127962077
30
0
41
1
10
10.480214697736
20
1.98501877533787
30
0
41
1
10
10.4870007917062
20
1.99019102574647
30
0
41
1
10
10.4921057065057
20
1.99405657732
30
0
41
1
10
10.4957514518444
20
1.99680852023754
30
0
41
1
10
10.4981933802507
20
1.99864599012411
30
0
41
1
10
10.4996696951644
20
1.99975301217984
30
0
41
1
10
10.4999950140555
20
1.99999698493391
30
0
41
1
10
10.5000038229291
20
2.00000172630052
30
0
0
SPLINE
5
BA
100
AcDbEntity
8
1
62
256
6
ByLayer
370
18
48
1
60
0
100
AcDbSpline
70
4
71
3
72
69
73
65
40
0
40
0
40
0
40
0
40
0.0133402231090491
40
0.0266935178264666
40
0.0400517970130527
40
0.0534062358827432
40
0.0667474195502344
40
0.0805168140790409
40
0.0942974591536676
40
0.108083256288306
40
0.121866511361662
40
0.135638096743423
40
0.150673765722928
40
0.165716656299439
40
0.180760658992505
40
0.1957978452025
40
0.210823724041288
40
0.225854744807322
40
0.240886475116595
40
0.255913321837118
40
0.27170680823562
40
0.287504804403248
40
0.303303262715827
40
0.319097379488581
40
0.339581073798667
40
0.360072888816624
40
0.38056515942047
40
0.401049475227815
40
0.421531179447435
40
0.44202056443003
40
0.46250983145689
40
0.482991374767295
40
0.500220743396896
40
0.517457692762902
40
0.534696795967231
40
0.551933019123318
40
0.569161778407705
40
0.585609108120815
40
0.602061431684144
40
0.618513418489209
40
0.634960288845359
40
0.651411542775564
40
0.667868617081507
40
0.684325262922041
40
0.700775932371748
40
0.717976458220857
40
0.735184805669809
40
0.752392563147263
40
0.769592284118913
40
0.786138149062948
40
0.802696639881219
40
0.819258605050298
40
0.835815665366396
40
0.852360329627186
40
0.866531070188632
40
0.880714028646532
40
0.894902730329322
40
0.909090961904865
40
0.92327283503704
40
0.937442851433367
40
0.953077893804675
40
0.968721542969892
40
0.98436509295242
40
1
40
1
40
1
40
1
41
1
10
10.5000028852591
20
-2.00000127582937
30
0
41
1
10
10.4999939454444
20
-1.99999678058608
30
0
41
1
10
10.4995538718924
20
-1.99966750112597
30
0
41
1
10
10.4975677984641
20
-1.9981806072982
30
0
41
1
10
10.4942986166425
20
-1.99571917744646
30
0
41
1
10
10.4897708510855
20
-1.99229284924852
30
0
41
1
10
10.48394581175
20
-1.9878626838259
30
0
41
1
10
10.4768014700321
20
-1.98239848790784
30
0
41
1
10
10.4683641018052
20
-1.97589106850108
30
0
41
1
10
10.4587717584892
20
-1.9684209012512
30
0
41
1
10
10.4480934892434
20
-1.96001464078494
30
0
41
1
10
10.4360309787794
20
-1.95040737135575
30
0
41
1
10
10.422538668837
20
-1.93951804799339
30
0
41
1
10
10.4076005149175
20
-1.92727659040387
30
0
41
1
10
10.3916922103092
20
-1.91402628177073
30
0
41
1
10
10.3749040498839
20
-1.8997986341087
30
0
41
1
10
10.3573171556318
20
-1.88461651284498
30
0
41
1
10
10.3390061239431
20
-1.86850236065718
30
0
41
1
10
10.3200402387703
20
-1.85147441545795
30
0
41
1
10
10.3001595780517
20
-1.83324846440927
30
0
41
1
10
10.2793999124918
20
-1.81378624020495
30
0
41
1
10
10.2577950726736
20
-1.7930486594355
30
0
41
1
10
10.2357538603634
20
-1.77137224284395
30
0
41
1
10
10.2111246627785
20
-1.74653574740638
30
0
41
1
10
10.1838511772286
20
-1.71820224863926
30
0
41
1
10
10.1539148898508
20
-1.68600601795532
30
0
41
1
10
10.1236808073049
20
-1.65230728336037
30
0
41
1
10
10.0932622461142
20
-1.61712543638031
30
0
41
1
10
10.0627607906246
20
-1.58046618928268
30
0
41
1
10
10.0322581111187
20
-1.5423330787676
30
0
41
1
10
10.0018439508954
20
-1.50273545939301
30
0
41
1
10
9.97320923333084
20
-1.46385587868301
30
0
41
1
10
9.94639185794829
20
-1.42595051387263
30
0
41
1
10
9.92138798845878
20
-1.38925395727227
30
0
41
1
10
9.89665796172734
20
-1.35152782390517
30
0
41
1
10
9.8722555161694
20
-1.31278600415377
30
0
41
1
10
9.8485925152876
20
-1.27363447859682
30
0
41
1
10
9.82569144360754
20
-1.23412378442
30
0
41
1
10
9.80356491836946
20
-1.19430622843486
30
0
41
1
10
9.78189788527246
20
-1.15357611200471
30
0
41
1
10
9.76073099162844
20
-1.11194072977603
30
0
41
1
10
9.74010392638141
20
-1.06940138570771
30
0
41
1
10
9.72005317009378
20
-1.02596575517489
30
0
41
1
10
9.7006226009593
20
-0.981655618571918
30
0
41
1
10
9.68157024305974
20
-0.935804128594187
30
0
41
1
10
9.66297440403318
20
-0.888371811940943
30
0
41
1
10
9.64491476502023
20
-0.839332510706509
30
0
41
1
10
9.62771281012796
20
-0.789419615114418
30
0
41
1
10
9.61162334811489
20
-0.739312342530411
30
0
41
1
10
9.59665241957494
20
-0.689061896409552
30
0
41
1
10
9.58278997731329
20
-0.638728097349944
30
0
41
1
10
9.5698767460312
20
-0.587701657329412
30
0
41
1
10
9.55795588398058
20
-0.536048164381852
30
0
41
1
10
9.54758605251967
20
-0.486311001309981
30
0
41
1
10
9.53863514484589
20
-0.438606045538911
30
0
41
1
10
9.5309527648021
20
-0.39303112234199
30
0
41
1
10
9.52407950135411
20
-0.347100104659677
30
0
41
1
10
9.51803363887263
20
-0.300868648111502
30
0
41
1
10
9.51283306589973
20
-0.254392527848228
30
0
41
1
10
9.50834544244873
20
-0.206100672378414
30
0
41
1
10
9.50469381078271
20
-0.155991570609189
30
0
41
1
10
9.50199182767066
20
-0.10408800086043
30
0
41
1
10
9.50036342876674
20
-0.0520647896756277
30
0
41
1
10
9.50000107905544
20
-0.0173591399059661
30
0
41
1
10
9.50000000000001
20
-7E-16
30
0
0
SPLINE
5
BB
100
AcDbEntity
8
1
62
256
6
ByLayer
370
18
48
1
60
0
100
AcDbSpline
70
4
71
3
72
34
73
30
40
0
40
0
40
0
40
0
40
0.0368225808004774
40
0.0736736242652136
40
0.110522768454827
40
0.147342757308326
40
0.185172927047358
40
0.223037990909099
40
0.260901617699907
40
0.298729825975579
40
0.335579938763122
40
0.372464373788182
40
0.40934841246926
40
0.446197984283278
40
0.48420621494251
40
0.522252223970074
40
0.560298679290211
40
0.598307519133815
40
0.633824873633687
40
0.669371911878932
40
0.704919606012542
40
0.740437855650109
40
0.776924295013196
40
0.813441340996073
40
0.84995906505518
40
0.88644642984017
40
0.924291996502074
40
0.96215410729643
40
1
40
1
40
1
40
1
41
1
10
5.00000000000001
20
-1.80086090523394
30
0
41
1
10
5.00000295808763
20
-1.80665119678797
30
0
41
1
10
4.99956468184522
20
-1.81798822754384
30
0
41
1
10
4.99758747264174
20
-1.83425962346358
30
0
41
1
10
4.99424956097058
20
-1.84976911898404
30
0
41
1
10
4.98947908949587
20
-1.86462732981191
30
0
41
1
10
4.98318833585599
20
-1.87878567917331
30
0
41
1
10
4.97531805618191
20
-1.89221780330371
30
0
41
1
10
4.96591354180973
20
-1.90478676247289
30
0
41
1
10
4.95505498450145
20
-1.91637906413599
30
0
41
1
10
4.94276390665463
20
-1.92701246234613
30
0
41
1
10
4.92909764947125
20
-1.93673270551862
30
0
41
1
10
4.91396254433917
20
-1.94564252494614
30
0
41
1
10
4.89719621677206
20
-1.95383455971596
30
0
41
1
10
4.87874030696378
20
-1.96129062300298
30
0
41
1
10
4.85857484228046
20
-1.96801986709969
30
0
41
1
10
4.8369300222822
20
-1.97397645338825
30
0
41
1
10
4.81434666407245
20
-1.97907526300514
30
0
41
1
10
4.79095284809058
20
-1.98340163045812
30
0
41
1
10
4.76689099439484
20
-1.98705007747321
30
0
41
1
10
4.74167337890743
20
-1.99015496263938
30
0
41
1
10
4.71510516781239
20
-1.99277489262935
30
0
41
1
10
4.68717791208509
20
-1.99493128946199
30
0
41
1
10
4.65790553860292
20
-1.99665626268225
30
0
41
1
10
4.62759629079419
20
-1.99797390661765
30
0
41
1
10
4.59591765916895
20
-1.99893837958337
30
0
41
1
10
4.5628717258998
20
-1.99958030484183
30
0
41
1
10
4.52847269709626
20
-1.99992957238421
30
0
41
1
10
4.50495689101626
20
-2.00000512445762
30
0
41
1
10
4.49305172142463
20
-2
30
0
0
SPLINE
5
BC
100
AcDbEntity
8
1
62
256
6
ByLayer
370
18
48
1
60
0
100
AcDbSpline
70
4
71
3
72
34
73
30
40
0
40
0
40
0
40
0
40
0.0369063289135291
40
0.0738430922247306
40
0.110779356352751
40
0.147685003998929
40
0.185627795605231
40
0.223605155089845
40
0.261581672853938
40
0.29952331560916
40
0.336444346302469
40
0.373398924291972
40
0.41035279512923
40
0.447272860644457
40
0.485339262681339
40
0.523443709145333
40
0.561547940660735
40
0.599614049292655
40
0.635333886208686
40
0.671084843580324
40
0.706836389274217
40
0.742557029144406
40
0.779291037814469
40
0.816056707027733
40
0.85282385209928
40
0.889559875023144
40
0.926367921290661
40
0.963190714926334
40
1
40
1
40
1
40
1
41
1
10
3.50694827857516
20
-2
30
0
41
1
10
3.49533922145999
20
-2.00000476058112
30
0
41
1
10
3.4723960585093
20
-1.99993307207928
30
0
41
1
10
3.43880652782578
20
-1.99960184640992
30
0
41
1
10
3.40612008802462
20
-1.99898656238409
30
0
41
1
10
3.37409893066971
20
-1.9980394840141
30
0
41
1
10
3.34282927546976
20
-1.99670004306092
30
0
41
1
10
3.31238563159165
20
-1.99490756785324
30
0
41
1
10
3.28311673621339
20
-1.99262701441976
30
0
41
1
10
3.25533830878247
20
-1.98983557364537
30
0
41
1
10
3.22906463786161
20
-1.98649810056413
30
0
41
1
10
3.20428202338959
20
-1.98259432845166
30
0
41
1
10
3.18079657549432
20
-1.97805746361928
30
0
41
1
10
3.15842803955928
20
-1.97279638772653
30
0
41
1
10
3.13726863118747
20
-1.96673977356555
30
0
41
1
10
3.1173834895576
20
-1.9598345525426
30
0
41
1
10
3.09901703045667
20
-1.95211909006361
30
0
41
1
10
3.08254866151232
20
-1.94374366123774
30
0
41
1
10
3.06789545130977
20
-1.93473671356279
30
0
41
1
10
3.05493796930523
20
-1.92515299014228
30
0
41
1
10
3.04336650144889
20
-1.91479775843158
30
0
41
1
10
3.03309087786463
20
-1.90356238307649
30
0
41
1
10
3.02416122535377
20
-1.89140783243658
30
0
41
1
10
3.01659659341482
20
-1.8783197046887
30
0
41
1
10
3.01046100330894
20
-1.86442692589865
30
0
41
1
10
3.00573610619381
20
-1.84973258455143
30
0
41
1
10
3.00240554384638
20
-1.83424308449807
30
0
41
1
10
3.00043358357017
20
-1.81798090915012
30
0
41
1
10
2.99999662003607
20
-1.80664944786953
30
0
41
1
10
3.00000000000001
20
-1.80086090523394
30
0
0
SPLINE
5
BD
100
AcDbEntity
8
1
62
256
6
ByLayer
370
18
48
1
60
0
100
AcDbSpline
70
4
71
3
72
99
73
95
40
0
40
0
40
0
40
0
40
0.0104857955694581
40
0.020981963490627
40
0.0314825227006418
40
0.0419804188527054
40
0.0524676653590072
40
0.063291276100764
40
0.0741236735611014
40
0.0849599000495305
40
0.0957939725627226
40
0.106618989345401
40
0.119770037022467
40
0.132932776427075
40
0.146100789223944
40
0.159266090167906
40
0.172419288176237
40
0.185946037914332
40
0.199482409536606
40
0.213022849754225
40
0.226560824375523
40
0.240088919533505
40
0.25356502261061
40
0.267049406152895
40
0.280536662597243
40
0.294021231193661
40
0.307497489572997
40
0.321274851822728
40
0.335063751797553
40
0.348854312404522
40
0.36263892210766
40
0.376412683141251
40
0.386360015682713
40
0.39631818920021
40
0.406276107092587
40
0.416226711328846
40
0.426167688907532
40
0.434446099490189
40
0.442728130529767
40
0.451003842958532
40
0.457394809484657
40
0.463794436534964
40
0.470191384764917
40
0.476578693122646
40
0.483025051485231
40
0.48949426850849
40
0.495969543477084
40
0.502435517851931
40
0.508879147036416
40
0.51530934656929
40
0.521756842846777
40
0.52821432821367
40
0.534669587444784
40
0.541106315971234
40
0.547881374470416
40
0.554663481286767
40
0.561447903167389
40
0.568226121659056
40
0.577485144131328
40
0.586749203346301
40
0.596010394088259
40
0.607659525412417
40
0.619318165966956
40
0.63098329620434
40
0.642648055106696
40
0.654302322352666
40
0.669205239452705
40
0.684116272749246
40
0.699028117836836
40
0.71393214251653
40
0.727130056294072
40
0.740335987099187
40
0.753544268642419
40
0.766749565507634
40
0.77994694727272
40
0.793439725126693
40
0.80694309418319
40
0.820448988485517
40
0.833950412105045
40
0.847441557040251
40
0.858207656452361
40
0.868980820966672
40
0.879755685752297
40
0.890527585974492
40
0.901292624326687
40
0.912325987322664
40
0.923369358108836
40
0.934415097882218
40
0.945456593061772
40
0.956488381562826
40
0.967362784385404
40
0.978245033477126
40
0.989126569820253
40
1
40
1
40
1
40
1
41
1
10
3.00000000000001
20
-1.80086090523394
30
0
41
1
10
3.0000054179937
20
-1.79497081805708
30
0
41
1
10
3.00044612493468
20
-1.78294806645421
30
0
41
1
10
3.00241989127438
20
-1.7641818692098
30
0
41
1
10
3.00564266699376
20
-1.74472840744158
30
0
41
1
10
3.01007436020586
20
-1.72462635863976
30
0
41
1
10
3.01573276029338
20
-1.70368436678661
30
0
41
1
10
3.02262334652997
20
-1.68189657923537
30
0
41
1
10
3.03073827208697
20
-1.65927157210072
30
0
41
1
10
3.0399584810575
20
-1.63607392466128
30
0
41
1
10
3.05023301838943
20
-1.61234941260589
30
0
41
1
10
3.06232580887003
20
-1.58639713110877
30
0
41
1
10
3.07645872319005
20
-1.55810685561044
30
0
41
1
10
3.09284341677251
20
-1.5273943934862
30
0
41
1
10
3.11052851363079
20
-1.49608995234255
30
0
41
1
10
3.1294401030255
20
-1.46426499488221
30
0
41
1
10
3.14970730903283
20
-1.43166651958019
30
0
41
1
10
3.17131675756396
20
-1.39831398820614
30
0
41
1
10
3.19426604248725
20
-1.36423899190131
30
0
41
1
10
3.21831293643689
20
-1.32980894838716
30
0
41
1
10
3.24340671853928
20
-1.29509304798475
30
0
41
1
10
3.26947694104421
20
-1.26019064344365
30
0
41
1
10
3.29648903287236
20
-1.22513817847478
30
0
41
1
10
3.32443801766951
20
-1.18998940321734
30
0
41
1
10
3.35335686295285
20
-1.1547688267142
30
0
41
1
10
3.38323156275237
20
-1.11955511638057
30
0
41
1
10
3.41429476497335
20
-1.0841588981759
30
0
41
1
10
3.44656691518771
20
-1.04862088608955
30
0
41
1
10
3.48014014172181
20
-1.01305642907749
30
0
41
1
10
3.51485400539478
20
-0.977877853480553
30
0
41
1
10
3.55075980237518
20
-0.943251084656597
30
0
41
1
10
3.58448400891976
20
-0.912474754334762
30
0
41
1
10
3.61569787986961
20
-0.885439784675914
30
0
41
1
10
3.64415035332934
20
-0.862049414465889
30
0
41
1
10
3.67346111569632
20
-0.839390215210678
30
0
41
1
10
3.70368086914481
20
-0.817640837141912
30
0
41
1
10
3.73312504582718
20
-0.798120467963443
30
0
41
1
10
3.76166732502065
20
-0.780794352901213
30
0
41
1
10
3.78919624080239
20
-0.765639363385242
30
0
41
1
10
3.81537906280664
20
-0.75280967559288
30
0
41
1
10
3.84003099807819
20
-0.742162624390644
30
0
41
1
10
3.86296997448386
20
-0.733475811972533
30
0
41
1
10
3.88636864261012
20
-0.725918832228304
30
0
41
1
10
3.91025233071974
20
-0.719588829445184
30
0
41
1
10
3.93461779416521
20
-0.714682962274085
30
0
41
1
10
3.95939148518342
20
-0.71128421068229
30
0
41
1
10
3.98437820402502
20
-0.70943086630406
30
0
41
1
10
4.00941002309184
20
-0.709172347202062
30
0
41
1
10
4.03434262425325
20
-0.71056511413791
30
0
41
1
10
4.05907615606288
20
-0.713642925485334
30
0
41
1
10
4.08355154129451
20
-0.718243200440975
30
0
41
1
10
4.10770309122933
20
-0.724254587732664
30
0
41
1
10
4.13142505140492
20
-0.731548166562577
30
0
41
1
10
4.15505922071568
20
-0.740174410740261
30
0
41
1
10
4.1785571905789
20
-0.750084548681575
30
0
41
1
10
4.20191595656207
20
-0.761187483421933
30
0
41
1
10
4.22473089222531
20
-0.773195712965396
30
0
41
1
10
4.24972648818097
20
-0.787546382067034
30
0
41
1
10
4.27669383737352
20
-0.804451973546733
30
0
41
1
10
4.30540997149784
20
-0.82407348371509
30
0
41
1
10
4.33568489478518
20
-0.846339041167086
30
0
41
1
10
4.36737011043712
20
-0.87129340965436
30
0
41
1
10
4.40028080038928
20
-0.89899315025892
30
0
41
1
10
4.43215930826674
20
-0.927448470517127
30
0
41
1
10
4.46306681424036
20
-0.956487413642453
30
0
41
1
10
4.49587688224344
20
-0.988690777506711
30
0
41
1
10
4.53039026644626
20
-1.02405622162801
30
0
41
1
10
4.56632497385013
20
-1.06259806997105
30
0
41
1
10
4.60102264760398
20
-1.10140117401693
30
0
41
1
10
4.63324680881411
20
-1.13884430092943
30
0
41
1
10
4.66319128805685
20
-1.17481064475471
30
0
41
1
10
4.69098959063258
20
-1.20926050543483
30
0
41
1
10
4.71786659840287
20
-1.24362139354527
30
0
41
1
10
4.7437979951612
20
-1.27782527692676
30
0
41
1
10
4.76895524442041
20
-1.31206722964926
30
0
41
1
10
4.793300771408
20
-1.34629592098145
30
0
41
1
10
4.81677124098852
20
-1.38046820913853
30
0
41
1
10
4.83914164456005
20
-1.4142789102438
30
0
41
1
10
4.86035238548769
20
-1.44765803411191
30
0
41
1
10
4.87900643811673
20
-1.47833388586809
30
0
41
1
10
4.89533111898506
20
-1.50637432583598
30
0
41
1
10
4.90955202164154
20
-1.53187352353815
30
0
41
1
10
4.92290265481439
20
-1.55698240070343
30
0
41
1
10
4.93533973903144
20
-1.58166044859544
30
0
41
1
10
4.94691984907838
20
-1.60607610443011
30
0
41
1
10
4.95757465457305
20
-1.63018868104878
30
0
41
1
10
4.96723250128414
20
-1.65395997327632
30
0
41
1
10
4.97575883825308
20
-1.67715808630359
30
0
41
1
10
4.98309919561846
20
-1.69973394821723
30
0
41
1
10
4.98917308736297
20
-1.72154347060296
30
0
41
1
10
4.9939485082367
20
-1.74256431895778
30
0
41
1
10
4.99740396934762
20
-1.76278640317157
30
0
41
1
10
4.99952127277921
20
-1.78227877117179
30
0
41
1
10
4.99999416844682
20
-1.79475298069106
30
0
41
1
10
5.00000000000001
20
-1.80086090523394
30
0
0
SPLINE
5
BE
100
AcDbEntity
8
1
62
256
6
ByLayer
370
18
48
1
60
0
100
AcDbSpline
70
4
71
3
72
99
73
95
40
0
40
0
40
0
40
0
40
0.0104857955694675
40
0.0209819634906456
40
0.0314825227006697
40
0.0419804188527426
40
0.0524676653590535
40
0.0632912761008201
40
0.0741236735611667
40
0.0849599000496054
40
0.0957939725628071
40
0.106618989345495
40
0.119770037022576
40
0.132932776427197
40
0.14610078922408
40
0.159266090168056
40
0.172419288176401
40
0.185946037914511
40
0.199482409536798
40
0.213022849754432
40
0.226560824375745
40
0.24008891953374
40
0.25356502261086
40
0.267049406153159
40
0.280536662597521
40
0.294021231193953
40
0.307497489573304
40
0.321274851823052
40
0.335063751797892
40
0.348854312404877
40
0.36263892210803
40
0.376412683141637
40
0.386360015683084
40
0.396318189200562
40
0.406276107092925
40
0.416226711329166
40
0.426167688907835
40
0.434446099490481
40
0.442728130530046
40
0.4510038429588
40
0.457394809484918
40
0.463794436535216
40
0.470191384765162
40
0.476578693122883
40
0.48302505148547
40
0.489494268508726
40
0.495969543477319
40
0.502435517852165
40
0.508879147036648
40
0.515309346569521
40
0.521756842847002
40
0.528214328213892
40
0.534669587445002
40
0.541106315971448
40
0.547881374470669
40
0.554663481287061
40
0.561447903167722
40
0.568226121659429
40
0.577485144131756
40
0.586749203346782
40
0.596010394088794
40
0.607659525413029
40
0.619318165967643
40
0.630983296205104
40
0.642648055107535
40
0.654302322353582
40
0.669205239453718
40
0.684116272750357
40
0.699028117838045
40
0.713932142517837
40
0.727130056295444
40
0.740335987100622
40
0.753544268643917
40
0.766749565509196
40
0.779946947274345
40
0.793439725128389
40
0.806943094184954
40
0.820448988487351
40
0.833950412106948
40
0.847441557042225
40
0.858207656454312
40
0.868980820968599
40
0.879755685754201
40
0.890527585976372
40
0.901292624328545
40
0.9123259873245
40
0.923369358110649
40
0.934415097884009
40
0.94545659306354
40
0.956488381564572
40
0.967362784386713
40
0.978245033477999
40
0.989126569820689
40
1
40
1
40
1
40
1
41
1
10
5.00000000000001
20
1.80086090523349
30
0
41
1
10
4.99999458200631
20
1.79497081805664
30
0
41
1
10
4.99955387506529
20
1.78294806645374
30
0
41
1
10
4.99758010872559
20
1.7641818692093
30
0
41
1
10
4.99435733300616
20
1.74472840744105
30
0
41
1
10
4.98992563979402
20
1.7246263586392
30
0
41
1
10
4.98426723970647
20
1.70368436678602
30
0
41
1
10
4.97737665346985
20
1.68189657923475
30
0
41
1
10
4.96926172791281
20
1.65927157210008
30
0
41
1
10
4.96004151894226
20
1.6360739246606
30
0
41
1
10
4.94976698161027
20
1.61234941260518
30
0
41
1
10
4.93767419112964
20
1.58639713110802
30
0
41
1
10
4.92354127680956
20
1.55810685560966
30
0
41
1
10
4.90715658322707
20
1.52739439348538
30
0
41
1
10
4.88947148636873
20
1.49608995234169
30
0
41
1
10
4.87055989697397
20
1.46426499488131
30
0
41
1
10
4.85029269096661
20
1.43166651957925
30
0
41
1
10
4.82868324243541
20
1.39831398820517
30
0
41
1
10
4.80573395751209
20
1.36423899190029
30
0
41
1
10
4.78168706356239
20
1.32980894838611
30
0
41
1
10
4.75659328145994
20
1.29509304798367
30
0
41
1
10
4.73052305895498
20
1.26019064344253
30
0
41
1
10
4.70351096712676
20
1.22513817847363
30
0
41
1
10
4.67556198232958
20
1.18998940321615
30
0
41
1
10
4.64664313704616
20
1.15476882671299
30
0
41
1
10
4.61676843724658
20
1.11955511637932
30
0
41
1
10
4.58570523502554
20
1.08415889817463
30
0
41
1
10
4.55343308481112
20
1.04862088608826
30
0
41
1
10
4.51985985827695
20
1.01305642907618
30
0
41
1
10
4.4851459946039
20
0.977877853479234
30
0
41
1
10
4.44924019762341
20
0.943251084655272
30
0
41
1
10
4.41551599107879
20
0.912474754333458
30
0
41
1
10
4.38430212012892
20
0.885439784674672
30
0
41
1
10
4.3558496466692
20
0.862049414464712
30
0
41
1
10
4.32653888430225
20
0.839390215209588
30
0
41
1
10
4.29631913085377
20
0.817640837140901
30
0
41
1
10
4.26687495417141
20
0.798120467962518
30
0
41
1
10
4.23833267497795
20
0.780794352900382
30
0
41
1
10
4.21080375919622
20
0.765639363384495
30
0
41
1
10
4.18462093719197
20
0.752809675592222
30
0
41
1
10
4.15996900192042
20
0.74216262439007
30
0
41
1
10
4.13703002551475
20
0.733475811972036
30
0
41
1
10
4.1136313573885
20
0.725918832227894
30
0
41
1
10
4.08974766927888
20
0.719588829444856
30
0
41
1
10
4.0653822058334
20
0.71468296227385
30
0
41
1
10
4.04060851481518
20
0.711284210682141
30
0
41
1
10
4.01562179597359
20
0.709430866304003
30
0
41
1
10
3.99058997690679
20
0.709172347202096
30
0
41
1
10
3.96565737574539
20
0.710565114138034
30
0
41
1
10
3.94092384393579
20
0.71364292548554
30
0
41
1
10
3.9164484587042
20
0.718243200441265
30
0
41
1
10
3.89229690876943
20
0.724254587733024
30
0
41
1
10
3.86857494859389
20
0.731548166563
30
0
41
1
10
3.84494077928313
20
0.740174410740757
30
0
41
1
10
3.82144280941985
20
0.750084548682161
30
0
41
1
10
3.79808404343658
20
0.761187483422631
30
0
41
1
10
3.77526910777324
20
0.773195712966213
30
0
41
1
10
3.75027351181748
20
0.787546382067987
30
0
41
1
10
3.72330616262482
20
0.804451973547837
30
0
41
1
10
3.6945900285004
20
0.824073483716369
30
0
41
1
10
3.66431510521294
20
0.846339041168555
30
0
41
1
10
3.63262988956087
20
0.871293409656029
30
0
41
1
10
3.59971919960857
20
0.898993150260816
30
0
41
1
10
3.56784069173098
20
0.927448470519241
30
0
41
1
10
3.53693318575723
20
0.956487413644788
30
0
41
1
10
3.50412311775402
20
0.988690777509281
30
0
41
1
10
3.46960973355107
20
1.02405622163084
30
0
41
1
10
3.43367502614706
20
1.06259806997414
30
0
41
1
10
3.39897735239311
20
1.10140117402028
30
0
41
1
10
3.36675319118289
20
1.138844300933
30
0
41
1
10
3.33680871194008
20
1.17481064475846
30
0
41
1
10
3.30901040936436
20
1.20926050543874
30
0
41
1
10
3.28213340159402
20
1.24362139354932
30
0
41
1
10
3.25620200483571
20
1.27782527693095
30
0
41
1
10
3.2310447555765
20
1.31206722965358
30
0
41
1
10
3.20669922858892
20
1.34629592098589
30
0
41
1
10
3.18322875900844
20
1.3804682091431
30
0
41
1
10
3.16085835543695
20
1.41427891024847
30
0
41
1
10
3.13964761450938
20
1.44765803411669
30
0
41
1
10
3.12099356188045
20
1.47833388587288
30
0
41
1
10
3.10466888101228
20
1.50637432584071
30
0
41
1
10
3.090447978356
20
1.53187352354275
30
0
41
1
10
3.07709734518332
20
1.5569824007079
30
0
41
1
10
3.06466026096647
20
1.58166044859977
30
0
41
1
10
3.05308015091972
20
1.60607610443429
30
0
41
1
10
3.04242534542524
20
1.63018868105282
30
0
41
1
10
3.0327674987144
20
1.65395997328021
30
0
41
1
10
3.02424116174565
20
1.67715808630733
30
0
41
1
10
3.01690080438048
20
1.69973394822082
30
0
41
1
10
3.01082691263627
20
1.72154347060611
30
0
41
1
10
3.00605149176286
20
1.74256431896026
30
0
41
1
10
3.0025960306522
20
1.76278640317316
30
0
41
1
10
3.00047872722078
20
1.78227877117255
30
0
41
1
10
3.00000583155322
20
1.7947529806913
30
0
41
1
10
3.00000000000001
20
1.80086090523393
30
0
0
SPLINE
5
BF
100
AcDbEntity
8
1
62
256
6
ByLayer
370
18
48
1
60
0
100
AcDbSpline
70
4
71
3
72
68
73
64
40
0
40
0
40
0
40
0
40
0.0141597096081351
40
0.0283258448597304
40
0.0424920407379202
40
0.0566518330561363
40
0.0708104134099807
40
0.0849751832839251
40
0.0991401216645826
40
0.11329893190026
40
0.12830059958765
40
0.143309088908954
40
0.158317885791604
40
0.173319973069972
40
0.190338121385312
40
0.207369013200961
40
0.224405034252022
40
0.241437560334989
40
0.258457080363062
40
0.275892270334048
40
0.293338663123195
40
0.31078967266462
40
0.328237707962414
40
0.345674276416847
40
0.364738302004713
40
0.383810578859121
40
0.402883501176026
40
0.421948407315547
40
0.441006646655146
40
0.460071911474799
40
0.47913760490041
40
0.498196428915735
40
0.518248302289903
40
0.538307520967459
40
0.558366943459143
40
0.578419094862961
40
0.597780245724931
40
0.617147950369071
40
0.636515443189617
40
0.655876305102881
40
0.675242190636479
40
0.69461562950769
40
0.713988224507576
40
0.733352958849582
40
0.74963863306832
40
0.765934137669848
40
0.782231494829983
40
0.798524239746295
40
0.814807598024644
40
0.828534160992229
40
0.842269631336273
40
0.856006857487549
40
0.869739983711006
40
0.883464579393075
40
0.897536562291256
40
0.911622108779556
40
0.925710799866891
40
0.939793673475337
40
0.953863412476539
40
0.965394776295879
40
0.976931899427312
40
0.988468859138426
40
1
40
1
40
1
40
1
41
1
10
14.5
20
0
30
0
41
1
10
14.4999992725892
20
-0.0157200818616973
30
0
41
1
10
14.4997022318397
20
-0.0471508675286604
30
0
41
1
10
14.4983669640589
20
-0.0942708552756953
30
0
41
1
10
14.4961497545201
20
-0.141301917870146
30
0
41
1
10
14.4930543260726
20
-0.188197968729093
30
0
41
1
10
14.4890832288095
20
-0.23492212964286
30
0
41
1
10
14.4842510578288
20
-0.28144234930041
30
0
41
1
10
14.4785716837549
20
-0.327714519485248
30
0
41
1
10
14.4719290701852
20
-0.374606014821949
30
0
41
1
10
14.464274873326
20
-0.422063551647176
30
0
41
1
10
14.4555741618523
20
-0.470030791929788
30
0
41
1
10
14.4459978066188
20
-0.517557151896621
30
0
41
1
10
14.435103158643
20
-0.566705446875039
30
0
41
1
10
14.4227703780317
20
-0.617368395669204
30
0
41
1
10
14.4088983684802
20
-0.669425631034651
30
0
41
1
10
14.3940387654535
20
-0.720752314343974
30
0
41
1
10
14.3782408111294
20
-0.771285373294661
30
0
41
1
10
14.3614098357327
20
-0.821388585347828
30
0
41
1
10
14.3435547964432
20
-0.871018044141798
30
0
41
1
10
14.3246987977254
20
-0.920142549734488
30
0
41
1
10
14.3050351030813
20
-0.968338491145629
30
0
41
1
10
14.2846203964235
20
-1.01556438874341
30
0
41
1
10
14.2628455132858
20
-1.06323421822645
30
0
41
1
10
14.2396767548726
20
-1.11122936465455
30
0
41
1
10
14.2150999824922
20
-1.15943190792479
30
0
41
1
10
14.1898599299563
20
-1.20641673859616
30
0
41
1
10
14.1640246233517
20
-1.25216051560785
30
0
41
1
10
14.1376504706362
20
-1.296658431667
30
0
41
1
10
14.1107991484903
20
-1.33991323312865
30
0
41
1
10
14.083534072892
20
-1.38191982026569
30
0
41
1
10
14.0554413012176
20
-1.4233761121594
30
0
41
1
10
14.0265593372249
20
-1.46420502276219
30
0
41
1
10
13.9969461550382
20
-1.5043292006835
30
0
41
1
10
13.9671693116693
20
-1.54305439980639
30
0
41
1
10
13.9376540479286
20
-1.57994260494915
30
0
41
1
10
13.9084750441958
20
-1.6150476557772
30
0
41
1
10
13.8797125732866
20
-1.64842317433568
30
0
41
1
10
13.8511117611058
20
-1.68046928628994
30
0
41
1
10
13.822758922491
20
-1.71117484481092
30
0
41
1
10
13.7947358491085
20
-1.74053058840606
30
0
41
1
10
13.7671468407077
20
-1.76852293623318
30
0
41
1
10
13.7401087379593
20
-1.79512527706721
30
0
41
1
10
13.7151349877682
20
-1.81897656507964
30
0
41
1
10
13.6921999164694
20
-1.84030717840844
30
0
41
1
10
13.6712560220901
20
-1.85933909499531
30
0
41
1
10
13.6510338326004
20
-1.87731281212961
30
0
41
1
10
13.6316323301955
20
-1.89419609224761
30
0
41
1
10
13.6141114627136
20
-1.90913657320155
30
0
41
1
10
13.5983917905947
20
-1.92230583326055
30
0
41
1
10
13.5843698657612
20
-1.9338753911623
30
0
41
1
10
13.5711909128251
20
-1.94459445242938
30
0
41
1
10
13.5589272945544
20
-1.95443644676076
30
0
41
1
10
13.5475498374394
20
-1.96345411623839
30
0
41
1
10
13.5371646289642
20
-1.97159407023302
30
0
41
1
10
13.5278622444115
20
-1.97881127962072
30
0
41
1
10
13.5197853022641
20
-1.98501877533783
30
0
41
1
10
13.5129992082939
20
-1.99019102574644
30
0
41
1
10
13.5078942934943
20
-1.99405657732
30
0
41
1
10
13.5042485481556
20
-1.99680852023759
30
0
41
1
10
13.5018066197492
20
-1.99864599012419
30
0
41
1
10
13.5003303048355
20
-1.99975301217991
30
0
41
1
10
13.5000049859445
20
-1.99999698493389
30
0
41
1
10
13.4999961770709
20
-2.00000172630057
30
0
0
SPLINE
5
C0
100
AcDbEntity
8
1
62
256
6
ByLayer
370
18
48
1
60
0
100
AcDbSpline
70
4
71
3
72
133
73
129
40
0
40
0
40
0
40
0
40
0.0066701014700946
40
0.0133467387344922
40
0.020025868229706
40
0.0267030775693751
40
0.0333736593179647
40
0.0402583461735094
40
0.0471486582934596
40
0.0540415464395211
40
0.0609331635568629
40
0.0678189458372286
40
0.0753367689608931
40
0.0828582028776019
40
0.090380192851747
40
0.0978987745895096
40
0.105411702650216
40
0.112927201670659
40
0.120443055462185
40
0.127956467463028
40
0.135853198723325
40
0.143752184864776
40
0.151651402078353
40
0.1595484485253
40
0.169790280195866
40
0.180036172214229
40
0.190282292025192
40
0.200524434443917
40
0.210765271070755
40
0.221009948073273
40
0.231254566098014
40
0.241495322270365
40
0.250109993560768
40
0.258728455213644
40
0.267347993784053
40
0.275966092332519
40
0.284580458950776
40
0.292804111374109
40
0.301030260718778
40
0.309256241684569
40
0.31747966442977
40
0.325705278958685
40
0.333933803671069
40
0.342162114151072
40
0.35038743644018
40
0.358987686362141
40
0.367591847078111
40
0.376195712808778
40
0.384795560292618
40
0.393068480256927
40
0.40134771314881
40
0.409628683213471
40
0.417907200855349
40
0.426179520478943
40
0.433264880047413
40
0.440356348554875
40
0.44745068867044
40
0.454544793732737
40
0.461635719578156
40
0.468720717064615
40
0.47560394043819
40
0.482490097208042
40
0.48937622065505
40
0.496259398568979
40
0.503142737470497
40
0.510029035129922
40
0.516915352068164
40
0.523798717270263
40
0.531079259000302
40
0.538363193883239
40
0.545647215183578
40
0.552927874810194
40
0.560788364789389
40
0.568654630381284
40
0.576523105946041
40
0.584389896284971
40
0.592250826700312
40
0.600302799878478
40
0.608360069371102
40
0.616419457542416
40
0.624477383220801
40
0.632529907113908
40
0.641168366764423
40
0.649812195806554
40
0.658458234021161
40
0.66710284388847
40
0.675741958836417
40
0.684554456716408
40
0.693371599909888
40
0.702190630945245
40
0.711008406064134
40
0.719821434228506
40
0.728494957508087
40
0.737171059857971
40
0.745847294301417
40
0.754520997761643
40
0.763193496169066
40
0.771868356330062
40
0.780543266576629
40
0.789215833301085
40
0.798211221738187
40
0.807209232520734
40
0.816207170738523
40
0.82520246019469
40
0.833031600846702
40
0.840862668125045
40
0.848693583556152
40
0.856522517092064
40
0.864353905693043
40
0.872187694813694
40
0.880021168407917
40
0.88785212661054
40
0.89598773957638
40
0.904127070815504
40
0.912265758877774
40
0.920400494370767
40
0.926885256451698
40
0.93337265764542
40
0.939859703367099
40
0.946343980511308
40
0.952832516641755
40
0.959324487772033
40
0.965816112377225
40
0.972304175718697
40
0.979225785148548
40
0.986152324571525
40
0.993078663782465
40
1
40
1
40
1
40
1
41
1
10
13.499997114741
20
-2.00000127582937
30
0
41
1
10
13.5000060545556
20
-1.99999678058608
30
0
41
1
10
13.5004461281076
20
-1.99966750112597
30
0
41
1
10
13.502432201536
20
-1.99818060729819
30
0
41
1
10
13.5057013833576
20
-1.99571917744647
30
0
41
1
10
13.5102291489145
20
-1.99229284924852
30
0
41
1
10
13.5160541882501
20
-1.9878626838259
30
0
41
1
10
13.5231985299679
20
-1.98239848790784
30
0
41
1
10
13.5316358981948
20
-1.97589106850108
30
0
41
1
10
13.5412282415108
20
-1.9684209012512
30
0
41
1
10
13.5519065107566
20
-1.96001464078494
30
0
41
1
10
13.5639690212206
20
-1.95040737135575
30
0
41
1
10
13.577461331163
20
-1.93951804799339
30
0
41
1
10
13.5923994850825
20
-1.92727659040387
30
0
41
1
10
13.6083077896909
20
-1.91402628177073
30
0
41
1
10
13.6250959501161
20
-1.8997986341087
30
0
41
1
10
13.6426828443683
20
-1.88461651284498
30
0
41
1
10
13.660993876057
20
-1.86850236065718
30
0
41
1
10
13.6799597612297
20
-1.85147441545795
30
0
41
1
10
13.6998404219483
20
-1.83324846440927
30
0
41
1
10
13.7206000875082
20
-1.81378624020495
30
0
41
1
10
13.7422049273264
20
-1.7930486594355
30
0
41
1
10
13.7642461396366
20
-1.77137224284395
30
0
41
1
10
13.7888753372215
20
-1.74653574740638
30
0
41
1
10
13.8161488227714
20
-1.71820224863926
30
0
41
1
10
13.8460851101493
20
-1.68600601795532
30
0
41
1
10
13.8763191926951
20
-1.65230728336037
30
0
41
1
10
13.9067377538858
20
-1.61712543638031
30
0
41
1
10
13.9372392093755
20
-1.58046618928268
30
0
41
1
10
13.9677418888813
20
-1.5423330787676
30
0
41
1
10
13.9981560491047
20
-1.50273545939301
30
0
41
1
10
14.0267907666692
20
-1.46385587868301
30
0
41
1
10
14.0536081420517
20
-1.42595051387262
30
0
41
1
10
14.0786120115412
20
-1.38925395727227
30
0
41
1
10
14.1033420382727
20
-1.35152782390517
30
0
41
1
10
14.1277444838306
20
-1.31278600415377
30
0
41
1
10
14.1514074847124
20
-1.27363447859682
30
0
41
1
10
14.1743085563925
20
-1.23412378442
30
0
41
1
10
14.1964350816306
20
-1.19430622843486
30
0
41
1
10
14.2181021147276
20
-1.15357611200471
30
0
41
1
10
14.2392690083716
20
-1.11194072977603
30
0
41
1
10
14.2598960736186
20
-1.06940138570771
30
0
41
1
10
14.2799468299062
20
-1.02596575517489
30
0
41
1
10
14.2993773990407
20
-0.981655618571919
30
0
41
1
10
14.3184297569403
20
-0.935804128594189
30
0
41
1
10
14.3370255959668
20
-0.88837181194094
30
0
41
1
10
14.3550852349798
20
-0.839332510706521
30
0
41
1
10
14.3722871898721
20
-0.789419615114382
30
0
41
1
10
14.3883766518852
20
-0.739312342530546
30
0
41
1
10
14.4033475804249
20
-0.68906189640907
30
0
41
1
10
14.4172100226874
20
-0.638728097351736
30
0
41
1
10
14.4301232539663
20
-0.587701657322728
30
0
41
1
10
14.4420441160287
20
-0.536048164406784
30
0
41
1
10
14.4524139474479
20
-0.486311001222658
30
0
41
1
10
14.461364855256
20
-0.43860604581333
30
0
41
1
10
14.4690472348155
20
-0.393031121311376
30
0
41
1
10
14.4759205000744
20
-0.34710010850898
30
0
41
1
10
14.4819663557974
20
-0.300868633748803
30
0
41
1
10
14.4871669539754
20
-0.254392581404983
30
0
41
1
10
14.4914638490777
20
-0.208151924025633
30
0
41
1
10
14.4948720110953
20
-0.162179338232342
30
0
41
1
10
14.4974209445586
20
-0.116507106497879
30
0
41
1
10
14.4991376963991
20
-0.0707352893148083
30
0
41
1
10
14.500016709841
20
-0.0249087794707856
30
0
41
1
10
14.5000510069733
20
0.0209396855573323
30
0
41
1
10
14.4992453753061
20
0.0667769362677834
30
0
41
1
10
14.4976033091026
20
0.112556939951212
30
0
41
1
10
14.4950800107636
20
0.159112446016757
30
0
41
1
10
14.4916190151041
20
0.206402667047038
30
0
41
1
10
14.4871764398878
20
0.254380365145007
30
0
41
1
10
14.4818302646982
20
0.302119681868459
30
0
41
1
10
14.4754284956564
20
0.350830424811841
30
0
41
1
10
14.4678942529314
20
0.400451949266944
30
0
41
1
10
14.459167829005
20
0.450917000860503
30
0
41
1
10
14.4494681334031
20
0.500927532832606
30
0
41
1
10
14.4388266577224
20
0.550416268595762
30
0
41
1
10
14.4271759525025
20
0.599733275500438
30
0
41
1
10
14.4145112938515
20
0.648835608929609
30
0
41
1
10
14.4008438743921
20
0.697689755335241
30
0
41
1
10
14.3863123018501
20
0.745869587493138
30
0
41
1
10
14.3709590447588
20
0.793324165771819
30
0
41
1
10
14.3544283391135
20
0.841153066347842
30
0
41
1
10
14.3366828888672
20
0.889275740964004
30
0
41
1
10
14.3177019067934
20
0.937615430768312
30
0
41
1
10
14.2979448362144
20
0.985035200472038
30
0
41
1
10
14.2774667865415
20
1.03149610407618
30
0
41
1
10
14.2561729121518
20
1.07728032285183
30
0
41
1
10
14.2340867485796
20
1.12235887094196
30
0
41
1
10
14.2112404131387
20
1.16671217155138
30
0
41
1
10
14.1878310477088
20
1.21003086241868
30
0
41
1
10
14.163916235338
20
1.25229163684853
30
0
41
1
10
14.1396738739751
20
1.29326666839165
30
0
41
1
10
14.1151551838595
20
1.33297510401902
30
0
41
1
10
14.0904131121452
20
1.37144207429673
30
0
41
1
10
14.0653671349129
20
1.40887206697399
30
0
41
1
10
14.0400682361248
20
1.44525677059347
30
0
41
1
10
14.0145603633325
20
1.48059627690936
30
0
41
1
10
13.9888929191379
20
1.51489242291612
30
0
41
1
10
13.9631186738627
20
1.5481409165746
30
0
41
1
10
13.9369710439802
20
1.5807349957385
30
0
41
1
10
13.9104975993516
20
1.61262767773144
30
0
41
1
10
13.8837624053877
20
1.64376959084217
30
0
41
1
10
13.8571562053707
20
1.67376482500212
30
0
41
1
10
13.8318902811797
20
1.70135661732724
30
0
41
1
10
13.8079931256823
20
1.72670656118285
30
0
41
1
10
13.7854804355316
20
1.74996948443901
30
0
41
1
10
13.7632794929715
20
1.77233281563641
30
0
41
1
10
13.7414463475816
20
1.79378629693785
30
0
41
1
10
13.720036449866
20
1.81431925846792
30
0
41
1
10
13.6991175686238
20
1.83391827516393
30
0
41
1
10
13.6787653532568
20
1.8525622922149
30
0
41
1
10
13.6587988115997
20
1.87045995518128
30
0
41
1
10
13.6393237700869
20
1.88754650030126
30
0
41
1
10
13.6204690546825
20
1.90375110578119
30
0
41
1
10
13.6025832173542
20
1.91882645156264
30
0
41
1
10
13.5869075952491
20
1.93179790464776
30
0
41
1
10
13.5732873767356
20
1.94289694482666
30
0
41
1
10
13.5615356900365
20
1.9523517310648
30
0
41
1
10
13.5506443271893
20
1.96101043905232
30
0
41
1
10
13.5406688467476
20
1.96885422338458
30
0
41
1
10
13.5316706780343
20
1.9758608617297
30
0
41
1
10
13.5236960109802
20
1.98201556487896
30
0
41
1
10
13.5167941089176
20
1.98729974667293
30
0
41
1
10
13.5108849473714
20
1.99179297614024
30
0
41
1
10
13.5061159472536
20
1.99540235389859
30
0
41
1
10
13.5026066299877
20
1.99804694962589
30
0
41
1
10
13.5004776233578
20
1.9996432824902
30
0
41
1
10
13.5000059155925
20
1.99999682670733
30
0
41
1
10
13.4999969848643
20
2.00000133940541
30
0
0
INSERT
5
D3
100
AcDbEntity
8
SK2
62
256
6
ByLayer
370
25
48
1
60
0
100
AcDbBlockReference
2
DimnDraft3D11
10
0
20
0
30
0
41
1
42
1
43
1
50
0
210
0
220
0
230
1
0
LINE
5
70
100
AcDbEntity
8
SK1
62
256
6
ByLayer
370
18
48
1
60
0
100
AcDbLine
10
-80.2
20
-5.2
30
0
11
0
21
-5.2
31
0
39
0
210
0
220
0
230
1
0
LINE
5
72
100
AcDbEntity
8
1
62
256
6
ByLayer
370
18
48
1
60
0
100
AcDbLine
10
15.5
20
-6
30
0
11
1.875644
21
-6
31
0
39
0
210
0
220
0
230
1
0
LINE
5
74
100
AcDbEntity
8
SK1
62
256
6
ByLayer
370
18
48
1
60
0
100
AcDbLine
10
-81
20
5.2
30
0
11
-81
21
-5.2
31
0
39
0
210
0
220
0
230
1
0
LINE
5
75
100
AcDbEntity
8
1
62
256
6
ByLayer
370
18
48
1
60
0
100
AcDbLine
10
18.2
20
3.3
30
0
11
18.2
21
-3.3
31
0
39
0
210
0
220
0
230
1
0
LINE
5
76
100
AcDbEntity
8
1
62
256
6
ByLayer
370
18
48
1
60
0
100
AcDbLine
10
0
20
-5.2
30
0
11
-0.214359
21
-6
31
0
39
0
210
0
220
0
230
1
0
LINE
5
77
100
AcDbEntity
8
1
62
256
6
ByLayer
370
18
48
1
60
0
100
AcDbLine
10
0
20
-2
30
0
11
0
21
-5.2
31
0
39
0
210
0
220
0
230
1
0
LINE
5
78
100
AcDbEntity
8
1
62
256
6
ByLayer
370
18
48
1
60
0
100
AcDbLine
10
0
20
5.2
30
0
11
0
21
2
31
0
39
0
210
0
220
0
230
1
0
LINE
5
79
100
AcDbEntity
8
1
62
256
6
ByLayer
370
18
48
1
60
0
100
AcDbLine
10
-0.214359
20
6
30
0
11
0
21
5.2
31
0
39
0
210
0
220
0
230
1
0
LINE
5
7A
100
AcDbEntity
8
SK1
62
256
6
ByLayer
370
18
48
1
60
0
100
AcDbLine
10
-0.214359
20
-6
30
0
11
-80.2
21
-6
31
0
39
0
210
0
220
0
230
1
0
LINE
5
7B
100
AcDbEntity
8
1
62
256
6
ByLayer
370
18
48
1
60
0
100
AcDbLine
10
16.75
20
-4.75
30
0
11
16
21
-4
31
0
39
0
210
0
220
0
230
1
0
LINE
5
7C
100
AcDbEntity
8
1
62
256
6
ByLayer
370
18
48
1
60
0
100
AcDbLine
10
-0.214359
20
-6
30
0
11
1.875644
21
-6
31
0
39
0
210
0
220
0
230
1
0
LINE
5
7D
100
AcDbEntity
8
1
62
256
6
ByLayer
370
18
48
1
60
0
100
AcDbLine
10
2.411543
20
-4
30
0
11
1.875644
21
-6
31
0
39
0
210
0
220
0
230
1
0
LINE
5
7E
100
AcDbEntity
8
1
62
256
6
ByLayer
370
18
48
1
60
0
100
AcDbLine
10
2.411543
20
4
30
0
11
2.411543
21
-4
31
0
39
0
210
0
220
0
230
1
0
LINE
5
7F
100
AcDbEntity
8
1
62
256
6
ByLayer
370
18
48
1
60
0
100
AcDbLine
10
2.411543
20
4
30
0
11
16
21
4
31
0
39
0
210
0
220
0
230
1
0
LINE
5
80
100
AcDbEntity
8
1
62
256
6
ByLayer
370
18
48
1
60
0
100
AcDbLine
10
2.411543
20
-4
30
0
11
16
21
-4
31
0
39
0
210
0
220
0
230
1
0
LINE
5
81
100
AcDbEntity
8
1
62
256
6
ByLayer
370
18
48
1
60
0
100
AcDbLine
10
16
20
4
30
0
11
16.75
21
4.75
31
0
39
0
210
0
220
0
230
1
0
LINE
5
82
100
AcDbEntity
8
1
62
256
6
ByLayer
370
18
48
1
60
0
100
AcDbLine
10
19
20
2.5
30
0
11
19
21
-2.5
31
0
39
0
210
0
220
0
230
1
0
LINE
5
83
100
AcDbEntity
8
1
62
256
6
ByLayer
370
18
48
1
60
0
100
AcDbLine
10
16
20
4
30
0
11
16
21
-4
31
0
39
0
210
0
220
0
230
1
0
LINE
5
84
100
AcDbEntity
8
1
62
256
6
ByLayer
370
18
48
1
60
0
100
AcDbLine
10
1.875644
20
6
30
0
11
2.411543
21
4
31
0
39
0
210
0
220
0
230
1
0
LINE
5
85
100
AcDbEntity
8
SK1
62
256
6
ByLayer
370
18
48
1
60
0
100
AcDbLine
10
-80.2
20
-5.2
30
0
11
-80.2
21
5.2
31
0
39
0
210
0
220
0
230
1
0
LINE
5
86
100
AcDbEntity
8
1
62
256
6
ByLayer
370
18
48
1
60
0
100
AcDbLine
10
16.3
20
5.2
30
0
11
18.2
21
3.3
31
0
39
0
210
0
220
0
230
1
0
LINE
5
87
100
AcDbEntity
8
SK1
62
256
6
ByLayer
370
18
48
1
60
0
100
AcDbLine
10
-80.2
20
5.2
30
0
11
0
21
5.2
31
0
39
0
210
0
220
0
230
1
0
LINE
5
88
100
AcDbEntity
8
1
62
256
6
ByLayer
370
18
48
1
60
0
100
AcDbLine
10
5
20
-6
30
0
11
5
21
-1.800861
31
0
39
0
210
0
220
0
230
1
0
LINE
5
89
100
AcDbEntity
8
1
62
256
6
ByLayer
370
18
48
1
60
0
100
AcDbLine
10
3
20
1.800861
30
0
11
3
21
6
31
0
39
0
210
0
220
0
230
1
0
LINE
5
8A
100
AcDbEntity
8
1
62
256
6
ByLayer
370
18
48
1
60
0
100
AcDbLine
10
5
20
1.800861
30
0
11
5
21
6
31
0
39
0
210
0
220
0
230
1
0
LINE
5
8B
100
AcDbEntity
8
1
62
256
6
ByLayer
370
18
48
1
60
0
100
AcDbLine
10
15.5
20
6
30
0
11
0
21
6
31
0
39
0
210
0
220
0
230
1
0
LINE
5
8C
100
AcDbEntity
8
1
62
256
6
ByLayer
370
18
48
1
60
0
100
AcDbLine
10
4.493052
20
2
30
0
11
10.5
21
2
31
0
39
0
210
0
220
0
230
1
0
LINE
5
8D
100
AcDbEntity
8
1
62
256
6
ByLayer
370
18
48
1
60
0
100
AcDbLine
10
12
20
0
30
0
11
12
21
-2.5
31
0
39
0
210
0
220
0
230
1
0
LINE
5
8E
100
AcDbEntity
8
1
62
256
6
ByLayer
370
18
48
1
60
0
100
AcDbLine
10
12
20
0
30
0
11
12
21
2.5
31
0
39
0
210
0
220
0
230
1
0
LINE
5
8F
100
AcDbEntity
8
1
62
256
6
ByLayer
370
18
48
1
60
0
100
AcDbLine
10
4.493052
20
-2
30
0
11
10.5
21
-2
31
0
39
0
210
0
220
0
230
1
0
LINE
5
90
100
AcDbEntity
8
1
62
256
6
ByLayer
370
18
48
1
60
0
100
AcDbLine
10
12
20
2.5
30
0
11
12
21
3.125
31
0
39
0
210
0
220
0
230
1
0
LINE
5
91
100
AcDbEntity
8
1
62
256
6
ByLayer
370
18
48
1
60
0
100
AcDbLine
10
13.5
20
-2
30
0
11
19
21
-2
31
0
39
0
210
0
220
0
230
1
0
LINE
5
92
100
AcDbEntity
8
1
62
256
6
ByLayer
370
18
48
1
60
0
100
AcDbLine
10
0
20
-2
30
0
11
3.506948
21
-2
31
0
39
0
210
0
220
0
230
1
0
LINE
5
93
100
AcDbEntity
8
1
62
256
6
ByLayer
370
18
48
1
60
0
100
AcDbLine
10
3
20
-6
30
0
11
3
21
-1.800861
31
0
39
0
210
0
220
0
230
1
0
LINE
5
94
100
AcDbEntity
8
1
62
256
6
ByLayer
370
18
48
1
60
0
100
AcDbLine
10
13.5
20
2
30
0
11
19
21
2
31
0
39
0
210
0
220
0
230
1
0
LINE
5
95
100
AcDbEntity
8
1
62
256
6
ByLayer
370
18
48
1
60
0
100
AcDbLine
10
0
20
2
30
0
11
3.506948
21
2
31
0
39
0
210
0
220
0
230
1
0
LINE
5
96
100
AcDbEntity
8
1
62
256
6
ByLayer
370
18
48
1
60
0
100
AcDbLine
10
0
20
-2
30
0
11
0
21
2
31
0
39
0
210
0
220
0
230
1
0
LINE
5
97
100
AcDbEntity
8
1
62
256
6
ByLayer
370
18
48
1
60
0
100
AcDbLine
10
12
20
-2.5
30
0
11
12
21
-3.125
31
0
39
0
210
0
220
0
230
1
0
LINE
5
98
100
AcDbEntity
8
SK1
62
256
6
ByLayer
370
18
48
1
60
0
100
AcDbLine
10
-81
20
-5.2
30
0
11
-80.2
21
-6
31
0
39
0
210
0
220
0
230
1
0
LINE
5
99
100
AcDbEntity
8
SK1
62
256
6
ByLayer
370
18
48
1
60
0
100
AcDbLine
10
-81
20
-5.2
30
0
11
-80.2
21
-5.2
31
0
39
0
210
0
220
0
230
1
0
LINE
5
9A
100
AcDbEntity
8
SK1
62
256
6
ByLayer
370
18
48
1
60
0
100
AcDbLine
10
-80.2
20
-5.2
30
0
11
-80.2
21
-6
31
0
39
0
210
0
220
0
230
1
0
LINE
5
9B
100
AcDbEntity
8
SK1
62
256
6
ByLayer
370
18
48
1
60
0
100
AcDbLine
10
-81
20
5.2
30
0
11
-80.2
21
5.2
31
0
39
0
210
0
220
0
230
1
0
LINE
5
9C
100
AcDbEntity
8
SK1
62
256
6
ByLayer
370
18
48
1
60
0
100
AcDbLine
10
-80.2
20
6
30
0
11
-81
21
5.2
31
0
39
0
210
0
220
0
230
1
0
LINE
5
9D
100
AcDbEntity
8
SK1
62
256
6
ByLayer
370
18
48
1
60
0
100
AcDbLine
10
-80.2
20
6
30
0
11
-80.2
21
5.2
31
0
39
0
210
0
220
0
230
1
0
LINE
5
9E
100
AcDbEntity
8
1
62
256
6
ByLayer
370
18
48
1
60
0
100
AcDbLine
10
18.2
20
-3.3
30
0
11
19
21
-2.5
31
0
39
0
210
0
220
0
230
1
0
LINE
5
9F
100
AcDbEntity
8
1
62
256
6
ByLayer
370
18
48
1
60
0
100
AcDbLine
10
15.5
20
-6
30
0
11
16.3
21
-5.2
31
0
39
0
210
0
220
0
230
1
0
LINE
5
A0
100
AcDbEntity
8
1
62
256
6
ByLayer
370
18
48
1
60
0
100
AcDbLine
10
19
20
2.5
30
0
11
18.2
21
3.3
31
0
39
0
210
0
220
0
230
1
0
LINE
5
A1
100
AcDbEntity
8
1
62
256
6
ByLayer
370
18
48
1
60
0
100
AcDbLine
10
16.3
20
5.2
30
0
11
15.5
21
6
31
0
39
0
210
0
220
0
230
1
0
LINE
5
A2
100
AcDbEntity
8
1
62
256
6
ByLayer
370
18
48
1
60
0
100
AcDbLine
10
-1.201721
20
0
30
0
11
0
21
2
31
0
39
0
210
0
220
0
230
1
0
LINE
5
A3
100
AcDbEntity
8
1
62
256
6
ByLayer
370
18
48
1
60
0
100
AcDbLine
10
0
20
-2
30
0
11
-1.201721
21
0
31
0
39
0
210
0
220
0
230
1
0
LINE
5
A4
100
AcDbEntity
8
1
62
256
6
ByLayer
370
18
48
1
60
0
100
AcDbLine
10
0
20
-5.2
30
0
11
16.3
21
-5.2
31
0
39
0
210
0
220
0
230
1
0
LINE
5
A5
100
AcDbEntity
8
1
62
256
6
ByLayer
370
18
48
1
60
0
100
AcDbLine
10
16.75
20
-4.75
30
0
11
18.2
21
-3.3
31
0
39
0
210
0
220
0
230
1
0
LINE
5
A6
100
AcDbEntity
8
1
62
256
6
ByLayer
370
18
48
1
60
0
100
AcDbLine
10
16.3
20
-5.2
30
0
11
16.75
21
-4.75
31
0
39
0
210
0
220
0
230
1
0
LINE
5
A7
100
AcDbEntity
8
1
62
256
6
ByLayer
370
18
48
1
60
0
100
AcDbLine
10
18.2
20
3.3
30
0
11
16.75
21
4.75
31
0
39
0
210
0
220
0
230
1
0
LINE
5
A8
100
AcDbEntity
8
1
62
256
6
ByLayer
370
18
48
1
60
0
100
AcDbLine
10
16.75
20
4.75
30
0
11
16.3
21
5.2
31
0
39
0
210
0
220
0
230
1
0
LINE
5
A9
100
AcDbEntity
8
80
62
256
6
ByLayer
370
18
48
1
60
0
100
AcDbLine
10
0
20
0
30
0
11
-10
21
0
31
0
39
0
210
0
220
0
230
1
0
LINE
5
AA
100
AcDbEntity
8
81
62
256
6
ByLayer
370
18
48
1
60
0
100
AcDbLine
10
19
20
0
30
0
11
29
21
0
31
0
39
0
210
0
220
0
230
1
0
LINE
5
AB
100
AcDbEntity
8
SK1
62
256
6
ByLayer
370
18
48
1
60
0
100
AcDbLine
10
0
20
6
30
0
11
-80.2
21
6
31
0
39
0
210
0
220
0
230
1
0
LINE
5
AC
100
AcDbEntity
8
1
62
256
6
ByLayer
370
18
48
1
60
0
100
AcDbLine
10
0
20
5.2
30
0
11
16.3
21
5.2
31
0
39
0
210
0
220
0
230
1
0
MTEXT
5
C1
100
AcDbEntity
8
SK6
62
256
6
ByLayer
370
18
48
1
60
0
100
AcDbMText
10
-45.694087
20
-13.047927
30
0
210
0
220
0
230
1
1
\W0.7246;CXS-1212-04FN
40
3.175
41
0
44
1.084337
50
0
71
7
72
5
7
iso_b_vert
0
DIMENSION
5
E2
100
AcDbEntity
8
2
62
256
6
ByLayer
370
13
48
1
60
0
100
AcDbDimension
2
DimnDraft3D2
10
19
20
10.026044
30
0
11
9.5
21
10.026044
31
0
70
32
71
5
72
1
41
1
210
0
220
0
230
1
3
Standard
100
AcDbAlignedDimension
13
0
23
6.7875
33
0
14
19
24
4.0875
34
0
50
0
100
AcDbRotatedDimension
1001
ACAD
1000
DSTYLE
1002
{
1070
   279
1070
     0
1070
   172
1070
     1
1070
   173
1070
     1
1070
   340
1005
C2
1070
   271
1070
     1
1070
   272
1070
     2
1070
    77
1070
     1
1070
    73
1070
     0
1070
   171
1070
     3
1070
   274
1070
     4
1070
   177
1070
     7
1070
   176
1070
     7
1070
   178
1070
     7
1070
    78
1070
     8
1070
    48
1040
-0.005
1070
    41
1041
3.175
1070
   147
1041
1.75006
1070
    42
1041
1.5875
1070
    44
1041
3.175
1070
   140
1041
3.50012
1070
   343
1005
0
1070
   344
1005
0
1002
}
0
DIMENSION
5
F0
100
AcDbEntity
8
SK2
62
256
6
ByLayer
370
13
48
1
60
0
100
AcDbDimension
2
DimnDraft3D3
10
-85.776761
20
-6
30
0
11
-85.776761
21
0
31
0
70
32
71
5
72
1
41
1
210
0
220
0
230
1
3
Standard
100
AcDbAlignedDimension
13
-81.7875
23
6
33
0
14
-81.7875
24
-6
34
0
50
90
100
AcDbRotatedDimension
1001
ACAD
1000
DSTYLE
1002
{
1070
    74
1070
     0
1070
   279
1070
     0
1070
   172
1070
     1
1070
   173
1070
     1
1070
   340
1005
C2
1070
   271
1070
     1
1070
   272
1070
     2
1070
    77
1070
     1
1070
    73
1070
     0
1070
   171
1070
     3
1070
   274
1070
     4
1070
   177
1070
     7
1070
   176
1070
     7
1070
   178
1070
     7
1070
    78
1070
     8
1070
    48
1040
-0.005
1070
    41
1041
3.175
1070
   147
1041
1.75006
1070
    42
1041
1.5875
1070
    44
1041
3.175
1070
   140
1041
3.50012
1070
   343
1005
0
1070
   344
1005
0
1002
}
0
DIMENSION
5
FE
100
AcDbEntity
8
SK2
62
256
6
ByLayer
370
13
48
1
60
0
100
AcDbDimension
2
DimnDraft3D4
10
19
20
-2.5
30
0
11
14.113254
21
-14.297648
31
0
70
34
71
5
72
1
41
1
210
0
220
0
230
1
3
Standard
100
AcDb2LineAngularDimension
13
16.75
23
-4.75
33
0
14
18.2
24
-3.3
34
0
15
19
25
2.5
35
0
16
12.773816
26
-17.531337
36
0
40
0
0
ENDSEC
0
SECTION
2
OBJECTS
0
DICTIONARY
5
168
330
0
100
AcDbDictionary
280
0
281
1
3
ACAD_GROUP
350
169
3
ACAD_MLINESTYLE
350
16a
0
DICTIONARY
5
169
330
0
100
AcDbDictionary
280
0
281
1
0
DICTIONARY
5
16a
330
0
100
AcDbDictionary
280
0
281
1
3
Standard
350
18
0
MLINESTYLE
5
18
330
16a
100
AcDbMlineStyle
2
Standard
70
0
3

62
256
51
90
52
90
71
2
49
-0.5
62
256
6
ByLayer
49
0.5
62
256
6
ByLayer
0
RASTERVARIABLES
5
157
330

100
AcDbRasterVariables
90
0
70
1
71
1
72
1
0
ENDSEC
0
EOF
