0
SECTION
2
HEADER
9
$ACADVER
1
AC1015
9
$DWGCODEPAGE
3
ANSI_1252
9
$HANDSEED
5
168
9
$ANGBASE
50
0
9
$ANGDIR
70
0
9
$ATTMODE
70
1
9
$AUNITS
70
0
9
$AUPREC
70
0
9
$CECOLOR
62
256
9
$CELTSCALE
40
1
9
$CELTYPE
6
ByLayer
9
$CELWEIGHT
370
18
9
$CLAYER
8
0
9
$CMLJUST
70
0
9
$CMLSCALE
40
1
9
$CMLSTYLE
2
Standard
9
$DIMSTYLE
2
Standard
9
$TEXTSIZE
40
0.2
9
$TEXTSTYLE
7
Standard
9
$LUNITS
70
2
9
$LUPREC
70
4
9
$EXTNAMES
290
1
9
$INSUNITS
70
4
9
$LTSCALE
40
1
9
$LWDISPLAY
290
1
9
$PDMODE
70
0
9
$PDSIZE
40
0
9
$PLINEGEN
70
0
0
ENDSEC
0
SECTION
2
CLASSES
0
CLASS
1
RASTERVARIABLES
2
AcDbRasterVariables
3
ISM
90
0
280
0
281
0
0
ENDSEC
0
SECTION
2
TABLES
0
TABLE
2
VPORT
5
15e
100
AcDbSymbolTable
0
VPORT
5
1
100
AcDbSymbolTableRecord
100
AcDbViewportTableRecord
2
*Active
70
0
10
0
20
0
11
1
21
1
12
-1
22
1
13
0
23
0
14
0.5
24
0.5
15
10
25
10
16
0
26
0
36
1
17
0
27
0
37
0
0
ENDTAB
0
TABLE
2
LTYPE
5
15f
100
AcDbSymbolTable
0
LTYPE
5
14
100
AcDbSymbolTableRecord
100
AcDbLinetypeTableRecord
70
0
2
ByBlock
3

72
65
73
0
40
0
0
LTYPE
5
15
100
AcDbSymbolTableRecord
100
AcDbLinetypeTableRecord
70
0
2
ByLayer
3

72
65
73
0
40
0
0
LTYPE
5
16
100
AcDbSymbolTableRecord
100
AcDbLinetypeTableRecord
70
0
2
CONTINUOUS
3
Solid line
72
65
73
0
40
0
0
LTYPE
5
6A
100
AcDbSymbolTableRecord
100
AcDbLinetypeTableRecord
70
0
2
CENTER
3
____ _ ____ _ ____ _ ____
72
65
73
4
40
47.5
49
22
74
0
49
-8.5
74
0
49
8.5
74
0
49
-8.5
74
0
0
LTYPE
5
6B
100
AcDbSymbolTableRecord
100
AcDbLinetypeTableRecord
70
0
2
DASHED
3
__ __ __ __ __ __ __ __ __
72
65
73
2
40
25.72
49
12.86
74
0
49
-12.86
74
0
0
ENDTAB
0
TABLE
2
LAYER
5
160
100
AcDbSymbolTable
0
LAYER
5
10
100
AcDbSymbolTableRecord
100
AcDbLayerTableRecord
2
0
70
0
62
7
6
CONTINUOUS
290
1
370
-3
390
0
0
LAYER
5
6D
100
AcDbSymbolTableRecord
100
AcDbLayerTableRecord
2
80
70
0
62
-6
6
CONTINUOUS
290
1
370
-3
390
0
0
LAYER
5
6F
100
AcDbSymbolTableRecord
100
AcDbLayerTableRecord
2
81
70
0
62
-3
6
CONTINUOUS
290
1
370
-3
390
0
0
LAYER
5
71
100
AcDbSymbolTableRecord
100
AcDbLayerTableRecord
2
1
70
0
62
4
6
CONTINUOUS
290
1
370
-3
390
0
0
LAYER
5
C9
100
AcDbSymbolTableRecord
100
AcDbLayerTableRecord
2
2
70
0
62
7
6
CONTINUOUS
290
1
370
-3
390
0
0
LAYER
5
14b
100
AcDbSymbolTableRecord
100
AcDbLayerTableRecord
2
SK1
70
0
62
4
6
CONTINUOUS
290
1
370
-3
390
0
0
LAYER
5
14c
100
AcDbSymbolTableRecord
100
AcDbLayerTableRecord
2
SK6
70
0
62
5
6
CONTINUOUS
290
1
370
-3
390
0
0
LAYER
5
14d
100
AcDbSymbolTableRecord
100
AcDbLayerTableRecord
2
SK2
70
0
62
7
6
CONTINUOUS
290
1
370
-3
390
0
0
ENDTAB
0
TABLE
2
STYLE
5
161
100
AcDbSymbolTable
0
STYLE
5
11
100
AcDbSymbolTableRecord
100
AcDbTextStyleTableRecord
2
Standard
3
txt
70
0
71
0
40
0
41
1
42
0
50
0
0
STYLE
5
B5
100
AcDbSymbolTableRecord
100
AcDbTextStyleTableRecord
2
iso_b_vert
3
simplex.shx
70
0
71
0
40
0
41
1
42
0
50
0
0
STYLE
5
B6
100
AcDbSymbolTableRecord
100
AcDbTextStyleTableRecord
2
DWGDirectTextStyle
3
simplex
70
0
71
0
40
0
41
1
42
0
50
0
0
ENDTAB
0
TABLE
2
DIMSTYLE
5
162
100
AcDbSymbolTable
100
AcDbDimStyleTable
0
DIMSTYLE
105
27
100
AcDbSymbolTableRecord
100
AcDbDimStyleTableRecord
2
Standard
70
0
3
<>
41
0.18
42
0.0625
44
0.18
140
0.18
147
0.09
73
0
74
0
77
1
271
2
275
0
278
52
280
0
340
11
0
ENDTAB
0
TABLE
2
VIEW
5
163
100
AcDbSymbolTable
0
ENDTAB
0
TABLE
2
UCS
5
164
100
AcDbSymbolTable
0
ENDTAB
0
TABLE
2
APPID
5
165
100
AcDbSymbolTable
0
APPID
5
12
100
AcDbSymbolTableRecord
100
AcDbRegAppTableRecord
2
ACAD
70
0
0
ENDTAB
0
TABLE
2
BLOCK_RECORD
5
166
100
AcDbSymbolTable
0
BLOCK_RECORD
5
1F
100
AcDbSymbolTableRecord
100
AcDbBlockTableRecord
2
*Model_Space
340
0
70
0
0
BLOCK_RECORD
5
1B
100
AcDbSymbolTableRecord
100
AcDbBlockTableRecord
2
*Paper_Space
340
0
70
0
0
BLOCK_RECORD
5
23
100
AcDbSymbolTableRecord
100
AcDbBlockTableRecord
2
*Paper_Space0
340
0
70
0
0
BLOCK_RECORD
5
B8
100
AcDbSymbolTableRecord
100
AcDbBlockTableRecord
2
DimnDraft3D1
340
0
70
0
0
BLOCK_RECORD
5
C7
100
AcDbSymbolTableRecord
100
AcDbBlockTableRecord
2
DimnDraft3D2
340
0
70
0
0
BLOCK_RECORD
5
D6
100
AcDbSymbolTableRecord
100
AcDbBlockTableRecord
2
DimnDraft3D3
340
0
70
0
0
BLOCK_RECORD
5
E4
100
AcDbSymbolTableRecord
100
AcDbBlockTableRecord
2
DimnDraft3D4
340
0
70
0
0
ENDTAB
0
ENDSEC
0
SECTION
2
BLOCKS
0
BLOCK
5
20
100
AcDbEntity
8
0
100
AcDbBlockBegin
2
*Model_Space
70
0
10
0
20
0
30
0
3
*Model_Space
0
ENDBLK
5
21
100
AcDbEntity
8
0
100
AcDbBlockEnd
0
BLOCK
5
1C
100
AcDbEntity
8
0
100
AcDbBlockBegin
2
*Paper_Space
70
0
10
0
20
0
30
0
3
*Paper_Space
0
ENDBLK
5
1D
100
AcDbEntity
8
0
100
AcDbBlockEnd
0
BLOCK
5
24
100
AcDbEntity
8
0
100
AcDbBlockBegin
2
*Paper_Space0
70
0
10
0
20
0
30
0
3
*Paper_Space0
0
ENDBLK
5
25
100
AcDbEntity
8
0
100
AcDbBlockEnd
0
BLOCK
5
C4
100
AcDbEntity
8
0
100
AcDbBlockBegin
2
DimnDraft3D1
70
0
10
0
20
0
30
0
3
DimnDraft3D1
0
MTEXT
5
B9
100
AcDbEntity
8
SK2
62
256
6
ByLayer
370
18
48
1
60
0
100
AcDbMText
10
-38.017174
20
26.816591
30
0
210
0
220
0
230
1
1
\W0.6044;125
40
3.50012
41
0
44
1.084337
50
0
71
7
72
5
7
iso_b_vert
0
LINE
5
BB
100
AcDbEntity
8
SK2
62
256
6
ByLayer
370
13
48
1
60
0
100
AcDbLine
10
-98.5
20
9.6125
30
0
11
-98.5
21
29.116561
31
0
39
0
210
0
220
0
230
1
0
LINE
5
BC
100
AcDbEntity
8
SK2
62
256
6
ByLayer
370
13
48
1
60
0
100
AcDbLine
10
26.5
20
5.1125
30
0
11
26.5
21
29.116561
31
0
39
0
210
0
220
0
230
1
0
LINE
5
BD
100
AcDbEntity
8
SK2
62
256
6
ByLayer
370
13
48
1
60
0
100
AcDbLine
10
-98.5
20
25.941561
30
0
11
26.5
21
25.941561
31
0
39
0
210
0
220
0
230
1
0
LINE
5
BE
100
AcDbEntity
8
SK2
62
256
6
ByLayer
370
13
48
1
60
0
100
AcDbLine
10
-98.5
20
25.941561
30
0
11
-95.325002
21
26.359557
31
0
39
0
210
0
220
0
230
1
0
LINE
5
BF
100
AcDbEntity
8
SK2
62
256
6
ByLayer
370
13
48
1
60
0
100
AcDbLine
10
-98.5
20
25.941561
30
0
11
-95.324998
21
25.523564
31
0
39
0
210
0
220
0
230
1
0
LINE
5
C0
100
AcDbEntity
8
SK2
62
256
6
ByLayer
370
13
48
1
60
0
100
AcDbLine
10
-95.325002
20
26.359557
30
0
11
-95.324998
21
25.523564
31
0
39
0
210
0
220
0
230
1
0
LINE
5
C1
100
AcDbEntity
8
SK2
62
256
6
ByLayer
370
13
48
1
60
0
100
AcDbLine
10
26.5
20
25.941561
30
0
11
23.325002
21
25.523564
31
0
39
0
210
0
220
0
230
1
0
LINE
5
C2
100
AcDbEntity
8
SK2
62
256
6
ByLayer
370
13
48
1
60
0
100
AcDbLine
10
26.5
20
25.941561
30
0
11
23.324998
21
26.359557
31
0
39
0
210
0
220
0
230
1
0
LINE
5
C3
100
AcDbEntity
8
SK2
62
256
6
ByLayer
370
13
48
1
60
0
100
AcDbLine
10
23.325002
20
25.523564
30
0
11
23.324998
21
26.359557
31
0
39
0
210
0
220
0
230
1
0
ENDBLK
5
C5
100
AcDbEntity
8
0
100
AcDbBlockEnd
0
BLOCK
5
D3
100
AcDbEntity
8
0
100
AcDbBlockBegin
2
DimnDraft3D2
70
0
10
0
20
0
30
0
3
DimnDraft3D2
0
MTEXT
5
C8
100
AcDbEntity
8
2
62
256
6
ByLayer
370
18
48
1
60
0
100
AcDbMText
10
7.331836
20
16.263469
30
0
210
0
220
0
230
1
1
\W0.7150;26.5
40
3.50012
41
0
44
1.084337
50
0
71
7
72
5
7
iso_b_vert
0
LINE
5
CA
100
AcDbEntity
8
2
62
256
6
ByLayer
370
13
48
1
60
0
100
AcDbLine
10
0
20
9.6125
30
0
11
0
21
18.563439
31
0
39
0
210
0
220
0
230
1
0
LINE
5
CB
100
AcDbEntity
8
2
62
256
6
ByLayer
370
13
48
1
60
0
100
AcDbLine
10
26.5
20
5.1125
30
0
11
26.5
21
18.563439
31
0
39
0
210
0
220
0
230
1
0
LINE
5
CC
100
AcDbEntity
8
2
62
256
6
ByLayer
370
13
48
1
60
0
100
AcDbLine
10
0
20
15.388439
30
0
11
26.5
21
15.388439
31
0
39
0
210
0
220
0
230
1
0
LINE
5
CD
100
AcDbEntity
8
2
62
256
6
ByLayer
370
13
48
1
60
0
100
AcDbLine
10
0
20
15.388439
30
0
11
3.174998
21
15.806436
31
0
39
0
210
0
220
0
230
1
0
LINE
5
CE
100
AcDbEntity
8
2
62
256
6
ByLayer
370
13
48
1
60
0
100
AcDbLine
10
0
20
15.388439
30
0
11
3.175002
21
14.970442
31
0
39
0
210
0
220
0
230
1
0
LINE
5
CF
100
AcDbEntity
8
2
62
256
6
ByLayer
370
13
48
1
60
0
100
AcDbLine
10
3.174998
20
15.806436
30
0
11
3.175002
21
14.970442
31
0
39
0
210
0
220
0
230
1
0
LINE
5
D0
100
AcDbEntity
8
2
62
256
6
ByLayer
370
13
48
1
60
0
100
AcDbLine
10
26.5
20
15.388439
30
0
11
23.325002
21
14.970442
31
0
39
0
210
0
220
0
230
1
0
LINE
5
D1
100
AcDbEntity
8
2
62
256
6
ByLayer
370
13
48
1
60
0
100
AcDbLine
10
26.5
20
15.388439
30
0
11
23.324998
21
15.806436
31
0
39
0
210
0
220
0
230
1
0
LINE
5
D2
100
AcDbEntity
8
2
62
256
6
ByLayer
370
13
48
1
60
0
100
AcDbLine
10
23.325002
20
14.970442
30
0
11
23.324998
21
15.806436
31
0
39
0
210
0
220
0
230
1
0
ENDBLK
5
D4
100
AcDbEntity
8
0
100
AcDbBlockEnd
0
BLOCK
5
E1
100
AcDbEntity
8
0
100
AcDbBlockBegin
2
DimnDraft3D3
70
0
10
0
20
0
30
0
3
DimnDraft3D3
0
MTEXT
5
D7
100
AcDbEntity
8
SK2
62
256
6
ByLayer
370
18
48
1
60
0
100
AcDbMText
10
-103.725551
20
-0.732262
30
0
210
0
220
0
230
1
1
\W0.5286;19
40
3.50012
41
0
44
1.084337
50
90
71
7
72
5
7
iso_b_vert
0
LINE
5
D8
100
AcDbEntity
8
SK2
62
256
6
ByLayer
370
13
48
1
60
0
100
AcDbLine
10
-98.5875
20
9.525
30
0
11
-106.025521
21
9.525
31
0
39
0
210
0
220
0
230
1
0
LINE
5
D9
100
AcDbEntity
8
SK2
62
256
6
ByLayer
370
13
48
1
60
0
100
AcDbLine
10
-98.5875
20
-9.525
30
0
11
-106.025521
21
-9.525
31
0
39
0
210
0
220
0
230
1
0
LINE
5
DA
100
AcDbEntity
8
SK2
62
256
6
ByLayer
370
13
48
1
60
0
100
AcDbLine
10
-102.850521
20
9.525
30
0
11
-102.850521
21
-9.525
31
0
39
0
210
0
220
0
230
1
0
LINE
5
DB
100
AcDbEntity
8
SK2
62
256
6
ByLayer
370
13
48
1
60
0
100
AcDbLine
10
-102.850521
20
9.525
30
0
11
-102.432524
21
6.350002
31
0
39
0
210
0
220
0
230
1
0
LINE
5
DC
100
AcDbEntity
8
SK2
62
256
6
ByLayer
370
13
48
1
60
0
100
AcDbLine
10
-102.850521
20
9.525
30
0
11
-103.268518
21
6.349998
31
0
39
0
210
0
220
0
230
1
0
LINE
5
DD
100
AcDbEntity
8
SK2
62
256
6
ByLayer
370
13
48
1
60
0
100
AcDbLine
10
-102.432524
20
6.350002
30
0
11
-103.268518
21
6.349998
31
0
39
0
210
0
220
0
230
1
0
LINE
5
DE
100
AcDbEntity
8
SK2
62
256
6
ByLayer
370
13
48
1
60
0
100
AcDbLine
10
-102.850521
20
-9.525
30
0
11
-103.268518
21
-6.350002
31
0
39
0
210
0
220
0
230
1
0
LINE
5
DF
100
AcDbEntity
8
SK2
62
256
6
ByLayer
370
13
48
1
60
0
100
AcDbLine
10
-102.850521
20
-9.525
30
0
11
-102.432524
21
-6.349998
31
0
39
0
210
0
220
0
230
1
0
LINE
5
E0
100
AcDbEntity
8
SK2
62
256
6
ByLayer
370
13
48
1
60
0
100
AcDbLine
10
-103.268518
20
-6.350002
30
0
11
-102.432524
21
-6.349998
31
0
39
0
210
0
220
0
230
1
0
ENDBLK
5
E2
100
AcDbEntity
8
0
100
AcDbBlockEnd
0
BLOCK
5
EF
100
AcDbEntity
8
0
100
AcDbBlockBegin
2
DimnDraft3D4
70
0
10
0
20
0
30
0
3
DimnDraft3D4
0
MTEXT
5
E5
100
AcDbEntity
8
SK2
62
256
6
ByLayer
370
18
48
1
60
0
100
AcDbMText
10
15.65818
20
-23.25497
30
0
210
0
220
0
230
1
1
\W0.8896;45%%d
40
3.50012
41
0
44
1.084337
50
337.5
71
7
72
5
7
iso_b_vert
0
LINE
5
E6
100
AcDbEntity
8
SK2
62
256
6
ByLayer
370
13
48
1
60
0
100
AcDbLine
10
20.877468
20
-9.147532
30
0
11
7.813197
21
-22.211803
31
0
39
0
210
0
220
0
230
1
0
LINE
5
E7
100
AcDbEntity
8
SK2
62
256
6
ByLayer
370
13
48
1
60
0
100
AcDbLine
10
26.5
20
-5.1125
30
0
11
26.5
21
-29.95213
31
0
39
0
210
0
220
0
230
1
0
ARC
5
E8
100
AcDbEntity
8
SK2
62
256
6
ByLayer
370
13
48
1
60
0
100
AcDbCircle
39
0
10
26.5
20
-3.525
30
0
40
23.2521300311353
210
0
220
0
230
1
100
AcDbArc
50
225
51
270
0
LINE
5
E9
100
AcDbEntity
8
SK2
62
256
6
ByLayer
370
13
48
1
60
0
100
AcDbLine
10
10.058261
20
-19.966739
30
0
11
12.66385
21
-21.828524
31
0
39
0
210
0
220
0
230
1
0
LINE
5
EA
100
AcDbEntity
8
SK2
62
256
6
ByLayer
370
13
48
1
60
0
100
AcDbLine
10
10.058261
20
-19.966739
30
0
11
12.093203
21
-22.439463
31
0
39
0
210
0
220
0
230
1
0
LINE
5
EB
100
AcDbEntity
8
SK2
62
256
6
ByLayer
370
13
48
1
60
0
100
AcDbLine
10
12.66385
20
-21.828524
30
0
11
12.093203
21
-22.439463
31
0
39
0
210
0
220
0
230
1
0
LINE
5
EC
100
AcDbEntity
8
SK2
62
256
6
ByLayer
370
13
48
1
60
0
100
AcDbLine
10
26.5
20
-26.77713
30
0
11
23.312601
21
-27.086689
31
0
39
0
210
0
220
0
230
1
0
LINE
5
ED
100
AcDbEntity
8
SK2
62
256
6
ByLayer
370
13
48
1
60
0
100
AcDbLine
10
26.5
20
-26.77713
30
0
11
23.341087
21
-26.251181
31
0
39
0
210
0
220
0
230
1
0
LINE
5
EE
100
AcDbEntity
8
SK2
62
256
6
ByLayer
370
13
48
1
60
0
100
AcDbLine
10
23.312601
20
-27.086689
30
0
11
23.341087
21
-26.251181
31
0
39
0
210
0
220
0
230
1
0
ENDBLK
5
F0
100
AcDbEntity
8
0
100
AcDbBlockEnd
0
ENDSEC
0
SECTION
2
ENTITIES
0
ARC
5
A5
100
AcDbEntity
8
1
62
256
6
ByLayer
370
18
48
1
60
0
100
AcDbCircle
39
0
10
19.5
20
0
30
0
40
2.5
210
0
220
0
230
1
100
AcDbArc
50
270
51
90
0
ARC
5
A6
100
AcDbEntity
8
1
62
256
6
ByLayer
370
18
48
1
60
0
100
AcDbCircle
39
0
10
19.5
20
0
30
0
40
2.5
210
0
220
0
230
1
100
AcDbArc
50
90
51
270
0
ARC
5
A7
100
AcDbEntity
8
1
62
256
6
ByLayer
370
18
48
1
60
0
100
AcDbCircle
39
0
10
19.5
20
0
30
0
40
3.125
210
0
220
0
230
1
100
AcDbArc
50
90
51
270
0
ARC
5
A8
100
AcDbEntity
8
1
62
256
6
ByLayer
370
18
48
1
60
0
100
AcDbCircle
39
0
10
19.5
20
0
30
0
40
3.125
210
0
220
0
230
1
100
AcDbArc
50
270
51
90
0
POINT
5
6C
100
AcDbEntity
8
80
62
256
6
ByLayer
370
18
48
1
60
0
100
AcDbPoint
10
0
20
0
30
0
39
0
210
0
220
0
230
1
50
360
0
POINT
5
6E
100
AcDbEntity
8
81
62
256
6
ByLayer
370
18
48
1
60
0
100
AcDbPoint
10
26.5
20
0
30
0
39
0
210
0
220
0
230
1
50
360
0
SPLINE
5
A9
100
AcDbEntity
8
1
62
256
6
ByLayer
370
18
48
1
60
0
100
AcDbSpline
70
4
71
3
72
140
73
136
40
0
40
0
40
0
40
0
40
0.0071144626146278
40
0.0142328234174986
40
0.0213512787315115
40
0.0284658702952726
40
0.0355786626093076
40
0.0426950041251012
40
0.0498115790354429
40
0.0569246897716762
40
0.0645298453421542
40
0.072138635219238
40
0.0797477794083909
40
0.0873534183584693
40
0.0944606707071134
40
0.101570303870504
40
0.108680166559182
40
0.115787731999857
40
0.122892884542444
40
0.129999973157107
40
0.13710722516916
40
0.144212600586152
40
0.151591326667805
40
0.158971883153216
40
0.166352555014329
40
0.173731438465065
40
0.182156154622836
40
0.190583297668303
40
0.199010525734159
40
0.207435357862008
40
0.215859605491845
40
0.224286178640702
40
0.232712747109008
40
0.241136988354514
40
0.249874662479881
40
0.258615019210171
40
0.267355288486366
40
0.276092843319318
40
0.283950595690798
40
0.291811631114712
40
0.29967360943507
40
0.307534350855496
40
0.315391856541121
40
0.323252026879344
40
0.33111600390514
40
0.338981040944336
40
0.346844613450706
40
0.354704444351662
40
0.361679763261023
40
0.36865930530055
40
0.375640762972333
40
0.382621978716268
40
0.38960096229486
40
0.396575908676479
40
0.403689697508656
40
0.41080595581343
40
0.417922108143134
40
0.425035752413295
40
0.432150566619606
40
0.439268066924174
40
0.446385481533647
40
0.453500178838637
40
0.460966413502191
40
0.468435937070791
40
0.475905400231992
40
0.483371552485413
40
0.490487456415871
40
0.497606277790458
40
0.504725095219957
40
0.511840993768543
40
0.518956733467893
40
0.526075356848694
40
0.533194021982172
40
0.540309818640003
40
0.547813952665469
40
0.555321315130148
40
0.562828776686312
40
0.570333045894337
40
0.577291902175816
40
0.584253142644721
40
0.591214477953061
40
0.598173463605028
40
0.605131291343805
40
0.612091286502478
40
0.619051383759739
40
0.626009350766861
40
0.633263587891531
40
0.640520026566182
40
0.647776581280422
40
0.655030976688455
40
0.662782626926128
40
0.670536661254063
40
0.678290827049376
40
0.686042656615329
40
0.693793065067012
40
0.701545595105998
40
0.709298226899595
40
0.717048774145217
40
0.725090726564891
40
0.733134834187161
40
0.741179017014469
40
0.749221072013775
40
0.758386344609063
40
0.767554630129447
40
0.776722947835747
40
0.785888264335321
40
0.795053746390083
40
0.804222284355957
40
0.813390724871439
40
0.822556073994736
40
0.830215627603805
40
0.837878263025188
40
0.845541728499613
40
0.853203980689647
40
0.860863212750843
40
0.867961264787457
40
0.875061251265653
40
0.882161063042717
40
0.889258876784522
40
0.896359037978863
40
0.903461577823595
40
0.910563878936422
40
0.917663714476199
40
0.925064545782206
40
0.932468715711078
40
0.939872567103643
40
0.947272963842599
40
0.953815467746346
40
0.960360713189413
40
0.966905798640469
40
0.973448084280897
40
0.980084530710766
40
0.986724121432839
40
0.993363645079757
40
1
40
1
40
1
40
1
41
1
10
19.5
20
-2.5
30
0
41
1
10
19.5194298785254
20
-2.49999876775103
30
0
41
1
10
19.5582755113534
20
-2.49954490529387
30
0
41
1
10
19.6165045349816
20
-2.497504899747
30
0
41
1
10
19.674600879299
20
-2.49411870963204
30
0
41
1
10
19.7324940242429
20
-2.48939239563445
30
0
41
1
10
19.7901301003867
20
-2.48333045954511
30
0
41
1
10
19.8474667873065
20
-2.47595580431156
30
0
41
1
10
19.904448676253
20
-2.46728881251166
30
0
41
1
10
19.962321975758
20
-2.45711952446513
30
0
41
1
10
20.0210131599058
20
-2.44535858349904
30
0
41
1
10
20.0804493456394
20
-2.4319321417572
30
0
41
1
10
20.1392877920515
20
-2.41713129225777
30
0
41
1
10
20.1962115719307
20
-2.40133810589059
30
0
41
1
10
20.2512427303775
20
-2.38467573484848
30
0
41
1
10
20.3044210208172
20
-2.367264143802
30
0
41
1
10
20.3569795399473
20
-2.34874716814091
30
0
41
1
10
20.4088912273574
20
-2.32915003433674
30
0
41
1
10
20.460147279014
20
-2.30849072328643
30
0
41
1
10
20.5107442022155
20
-2.2867881298521
30
0
41
1
10
20.560674473894
20
-2.26406001275228
30
0
41
1
10
20.6105577263919
20
-2.24002094547265
30
0
41
1
10
20.6603609852458
20
-2.21463906641817
30
0
41
1
10
20.7100510890689
20
-2.18788343933242
30
0
41
1
10
20.7589957440359
20
-2.16008850730028
30
0
41
1
10
20.8094624178645
20
-2.12990908008261
30
0
41
1
10
20.8613224861245
20
-2.09717952915483
30
0
41
1
10
20.9144335349056
20
-2.06173082188412
30
0
41
1
10
20.9665438975829
20
-2.02499423186419
30
0
41
1
10
21.0176391617986
20
-1.98698815944304
30
0
41
1
10
21.0677150481072
20
-1.94772125251458
30
0
41
1
10
21.1167646424743
20
-1.90720216724194
30
0
41
1
10
21.1647719765265
20
-1.86544451169805
30
0
41
1
10
21.2123015011348
20
-1.82192927592243
30
0
41
1
10
21.2592963722972
20
-1.77660677145571
30
0
41
1
10
21.3056932994425
20
-1.72943053260295
30
0
41
1
10
21.3508976274845
20
-1.68096475214431
30
0
41
1
10
21.3934060488796
20
-1.63289444366627
30
0
41
1
10
21.4333393662765
20
-1.58536795069211
30
0
41
1
10
21.4708196481671
20
-1.53852617316289
30
0
41
1
10
21.5072605698757
20
-1.49067244669084
30
0
41
1
10
21.542629628162
20
-1.44183055083152
30
0
41
1
10
21.5769058524949
20
-1.39200837132823
30
0
41
1
10
21.6100692364756
20
-1.34120548932264
30
0
41
1
10
21.6421006556368
20
-1.28942899645215
30
0
41
1
10
21.6729682719905
20
-1.23670524992923
30
0
41
1
10
21.702633967988
20
-1.1830691018527
30
0
41
1
10
21.7300009520224
20
-1.13058741963148
30
0
41
1
10
21.7552016707632
20
-1.0793787053616
30
0
41
1
10
21.778375943762
20
-1.02955485337189
30
0
41
1
10
21.8005258421977
20
-0.979060537224122
30
0
41
1
10
21.8216234627
20
-0.92793181083827
30
0
41
1
10
21.8416411324641
20
-0.876204946254888
30
0
41
1
10
21.8606812743341
20
-0.823554851645643
30
0
41
1
10
21.878698216524
20
-0.769980674561159
30
0
41
1
10
21.8956520254966
20
-0.715491409524066
30
0
41
1
10
21.9114020564002
20
-0.660475534131125
30
0
41
1
10
21.9259258174814
20
-0.604968933634065
30
0
41
1
10
21.9392006558877
20
-0.548997507775133
30
0
41
1
10
21.9512135419953
20
-0.492593678247705
30
0
41
1
10
21.9619463453908
20
-0.435806811894347
30
0
41
1
10
21.9715359076668
20
-0.377743387191644
30
0
41
1
10
21.9798864982452
20
-0.318416968303501
30
0
41
1
10
21.9869120256417
20
-0.257854793408816
30
0
41
1
10
21.9924683475411
20
-0.197063579576916
30
0
41
1
10
21.9964790037678
20
-0.137057771422939
30
0
41
1
10
21.9990110205036
20
-0.077890008329623
30
0
41
1
10
22.0001462375088
20
-0.0196054953232426
30
0
41
1
10
21.999925218833
20
0.0386950440260439
30
0
41
1
10
21.9983465859695
20
0.0969555930111727
30
0
41
1
10
21.9954066600121
20
0.155135815416304
30
0
41
1
10
21.9911160307161
20
0.213196763461603
30
0
41
1
10
21.9854838623679
20
0.271084900008903
30
0
41
1
10
21.9783915615433
20
0.329795279477376
30
0
41
1
10
21.9697571930002
20
0.389273780617294
30
0
41
1
10
21.959513408982
20
0.449460836304295
30
0
41
1
10
21.9478322865307
20
0.509255920975375
30
0
41
1
10
21.9350498594413
20
0.567165544153785
30
0
41
1
10
21.9212972970195
20
0.623188611043077
30
0
41
1
10
21.9067079348286
20
0.67734123758849
30
0
41
1
10
21.890952892676
20
0.731011677398182
30
0
41
1
10
21.8740533423096
20
0.784160032369884
30
0
41
1
10
21.8560248719417
20
0.836761258245521
30
0
41
1
10
21.8368896079353
20
0.888796602651959
30
0
41
1
10
21.8166701350204
20
0.940239208983997
30
0
41
1
10
21.7950869881006
20
0.991781260822834
30
0
41
1
10
21.7721043992434
20
1.04337269576975
30
0
41
1
10
21.7476933399944
20
1.09496530835953
30
0
41
1
10
21.7221977227877
20
1.14582205635927
30
0
41
1
10
21.6950364768471
20
1.197062964879
30
0
41
1
10
21.6661432227477
20
1.2486116470264
30
0
41
1
10
21.6354577140358
20
1.30039102270118
30
0
41
1
10
21.6036412629509
20
1.35125327949783
30
0
41
1
10
21.5707244920684
20
1.40117433565871
30
0
41
1
10
21.5367284721271
20
1.45014332601837
30
0
41
1
10
21.5016748444861
20
1.49815490255211
30
0
41
1
10
21.4655871700718
20
1.54519685796845
30
0
41
1
10
21.4280250164343
20
1.59183156863919
30
0
41
1
10
21.3889605922104
20
1.63800886722727
30
0
41
1
10
21.3483672426851
20
1.68367986168907
30
0
41
1
10
21.3067453094147
20
1.72826728522927
30
0
41
1
10
21.2621322254147
20
1.7737828479203
30
0
41
1
10
21.2143705270132
20
1.82003638602042
30
0
41
1
10
21.1633007144549
20
1.86682260569717
30
0
41
1
10
21.1109813004448
20
1.9121545144119
30
0
41
1
10
21.0574357292259
20
1.95601413238119
30
0
41
1
10
21.0026746415163
20
1.99839126849288
30
0
41
1
10
20.9467048246793
20
2.03927623811627
30
0
41
1
10
20.8895442596864
20
2.07864723089662
30
0
41
1
10
20.8344046722887
20
2.1144097517631
30
0
41
1
10
20.7815048814414
20
2.14682944592524
30
0
41
1
10
20.7310378317343
20
2.17616207954312
30
0
41
1
10
20.6797584688006
20
2.20438470899842
30
0
41
1
10
20.627686216366
20
2.23147354971055
30
0
41
1
10
20.5761208444984
20
2.25677669927148
30
0
41
1
10
20.5251288750758
20
2.28037528035092
30
0
41
1
10
20.4747738164898
20
2.30235150579649
30
0
41
1
10
20.4237596192474
20
2.32329152924699
30
0
41
1
10
20.3720952015887
20
2.3431766783241
30
0
41
1
10
20.319785029242
20
2.36198711212041
30
0
41
1
10
20.2668395921688
20
2.37970436800877
30
0
41
1
10
20.21328812883
20
2.39630292209641
30
0
41
1
10
20.158391765286
20
2.41197627393544
30
0
41
1
10
20.1021340903265
20
2.42664148839684
30
0
41
1
10
20.0445144952837
20
2.44021726966643
30
0
41
1
10
19.9863519848301
20
2.45247527383251
30
0
41
1
10
19.9299614225885
20
2.4629647644776
30
0
41
1
10
19.8754400386146
20
2.47183603045888
30
0
41
1
10
19.8228728556023
20
2.47924987035391
30
0
41
1
10
19.7700237229503
20
2.48556337693337
30
0
41
1
10
19.7166863490064
20
2.49078606692665
30
0
41
1
10
19.662890907181
20
2.49488226006293
30
0
41
1
10
19.6086784360997
20
2.49782958934274
30
0
41
1
10
19.5543580726294
20
2.49960428538748
30
0
41
1
10
19.5181231782205
20
2.49999906391143
30
0
41
1
10
19.5
20
2.5
30
0
0
SPLINE
5
AA
100
AcDbEntity
8
1
62
256
6
ByLayer
370
18
48
1
60
0
100
AcDbSpline
70
4
71
3
72
140
73
136
40
0
40
0
40
0
40
0
40
0.0071144626146278
40
0.0142328234174986
40
0.0213512787315115
40
0.0284658702952725
40
0.0355786626093077
40
0.0426950041251011
40
0.0498115790354428
40
0.0569246897716761
40
0.064529845342154
40
0.072138635219238
40
0.0797477794083911
40
0.0873534183584693
40
0.0944606707071134
40
0.101570303870504
40
0.108680166559182
40
0.115787731999857
40
0.122892884542444
40
0.129999973157107
40
0.13710722516916
40
0.144212600586152
40
0.151591326667805
40
0.158971883153216
40
0.166352555014329
40
0.173731438465065
40
0.182156154622836
40
0.190583297668303
40
0.199010525734159
40
0.207435357862008
40
0.215859605491845
40
0.224286178640701
40
0.232712747109008
40
0.241136988354514
40
0.249874662479881
40
0.258615019210171
40
0.267355288486366
40
0.276092843319318
40
0.283950595690799
40
0.291811631114712
40
0.29967360943507
40
0.307534350855496
40
0.315391856541122
40
0.323252026879344
40
0.33111600390514
40
0.338981040944336
40
0.346844613450707
40
0.354704444351662
40
0.361679763261023
40
0.36865930530055
40
0.375640762972334
40
0.382621978716268
40
0.389600962294861
40
0.396575908676479
40
0.403689697508657
40
0.41080595581343
40
0.417922108143134
40
0.425035752413295
40
0.432150566619606
40
0.439268066924174
40
0.446385481533648
40
0.453500178838637
40
0.460966413502191
40
0.468435937070792
40
0.475905400231992
40
0.483371552485413
40
0.490487456415871
40
0.497606277790458
40
0.504725095219957
40
0.511840993768543
40
0.518956733467894
40
0.526075356848695
40
0.533194021982172
40
0.540309818640003
40
0.54781395266547
40
0.555321315130149
40
0.562828776686312
40
0.570333045894338
40
0.577291902175816
40
0.584253142644722
40
0.591214477953061
40
0.598173463605028
40
0.605131291343805
40
0.612091286502478
40
0.619051383759739
40
0.626009350766861
40
0.633263587891532
40
0.640520026566183
40
0.647776581280422
40
0.655030976688456
40
0.662782626926128
40
0.670536661254063
40
0.678290827049376
40
0.68604265661533
40
0.693793065067013
40
0.701545595105999
40
0.709298226899596
40
0.717048774145218
40
0.725090726564891
40
0.733134834187162
40
0.74117901701447
40
0.749221072013776
40
0.758386344609064
40
0.767554630129447
40
0.776722947835747
40
0.785888264335321
40
0.795053746390083
40
0.804222284355958
40
0.813390724871439
40
0.822556073994736
40
0.830215627603805
40
0.837878263025188
40
0.845541728499614
40
0.853203980689647
40
0.860863212750843
40
0.867961264787457
40
0.875061251265653
40
0.882161063042717
40
0.889258876784522
40
0.896359037978864
40
0.903461577823596
40
0.910563878936422
40
0.917663714476199
40
0.925064545782207
40
0.932468715711078
40
0.939872567103643
40
0.947272963842599
40
0.953815467746346
40
0.960360713189413
40
0.966905798640469
40
0.973448084280898
40
0.980084530710766
40
0.986724121432839
40
0.993363645079757
40
1
40
1
40
1
40
1
41
1
10
19.5
20
2.5
30
0
41
1
10
19.4805701214746
20
2.49999876775103
30
0
41
1
10
19.4417244886466
20
2.49954490529387
30
0
41
1
10
19.3834954650184
20
2.497504899747
30
0
41
1
10
19.325399120701
20
2.49411870963204
30
0
41
1
10
19.2675059757571
20
2.48939239563445
30
0
41
1
10
19.2098698996133
20
2.48333045954511
30
0
41
1
10
19.1525332126935
20
2.47595580431156
30
0
41
1
10
19.095551323747
20
2.46728881251166
30
0
41
1
10
19.037678024242
20
2.45711952446513
30
0
41
1
10
18.9789868400942
20
2.44535858349904
30
0
41
1
10
18.9195506543606
20
2.4319321417572
30
0
41
1
10
18.8607122079485
20
2.41713129225776
30
0
41
1
10
18.8037884280693
20
2.40133810589058
30
0
41
1
10
18.7487572696225
20
2.38467573484848
30
0
41
1
10
18.6955789791828
20
2.367264143802
30
0
41
1
10
18.6430204600527
20
2.34874716814091
30
0
41
1
10
18.5911087726426
20
2.32915003433674
30
0
41
1
10
18.539852720986
20
2.30849072328643
30
0
41
1
10
18.4892557977845
20
2.2867881298521
30
0
41
1
10
18.439325526106
20
2.26406001275228
30
0
41
1
10
18.3894422736081
20
2.24002094547265
30
0
41
1
10
18.3396390147542
20
2.21463906641817
30
0
41
1
10
18.2899489109311
20
2.18788343933242
30
0
41
1
10
18.2410042559641
20
2.16008850730028
30
0
41
1
10
18.1905375821355
20
2.12990908008261
30
0
41
1
10
18.1386775138755
20
2.09717952915483
30
0
41
1
10
18.0855664650944
20
2.06173082188412
30
0
41
1
10
18.0334561024171
20
2.02499423186419
30
0
41
1
10
17.9823608382014
20
1.98698815944304
30
0
41
1
10
17.9322849518929
20
1.94772125251458
30
0
41
1
10
17.8832353575257
20
1.90720216724194
30
0
41
1
10
17.8352280234735
20
1.86544451169805
30
0
41
1
10
17.7876984988652
20
1.82192927592243
30
0
41
1
10
17.7407036277028
20
1.77660677145571
30
0
41
1
10
17.6943067005575
20
1.72943053260295
30
0
41
1
10
17.6491023725155
20
1.68096475214432
30
0
41
1
10
17.6065939511204
20
1.63289444366626
30
0
41
1
10
17.5666606337235
20
1.58536795069211
30
0
41
1
10
17.5291803518329
20
1.53852617316288
30
0
41
1
10
17.4927394301243
20
1.49067244669084
30
0
41
1
10
17.457370371838
20
1.44183055083152
30
0
41
1
10
17.4230941475051
20
1.39200837132823
30
0
41
1
10
17.3899307635245
20
1.34120548932265
30
0
41
1
10
17.3578993443632
20
1.28942899645215
30
0
41
1
10
17.3270317280095
20
1.23670524992923
30
0
41
1
10
17.297366032012
20
1.1830691018527
30
0
41
1
10
17.2699990479776
20
1.13058741963147
30
0
41
1
10
17.2447983292368
20
1.0793787053616
30
0
41
1
10
17.221624056238
20
1.02955485337189
30
0
41
1
10
17.1994741578023
20
0.979060537224117
30
0
41
1
10
17.1783765373
20
0.927931810838268
30
0
41
1
10
17.1583588675359
20
0.876204946254886
30
0
41
1
10
17.1393187256659
20
0.82355485164564
30
0
41
1
10
17.121301783476
20
0.769980674561156
30
0
41
1
10
17.1043479745034
20
0.715491409524063
30
0
41
1
10
17.0885979435998
20
0.660475534131121
30
0
41
1
10
17.0740741825186
20
0.604968933634062
30
0
41
1
10
17.0607993441123
20
0.54899750777513
30
0
41
1
10
17.0487864580047
20
0.492593678247702
30
0
41
1
10
17.0380536546093
20
0.435806811894344
30
0
41
1
10
17.0284640923332
20
0.377743387191641
30
0
41
1
10
17.0201135017548
20
0.318416968303498
30
0
41
1
10
17.0130879743583
20
0.257854793408813
30
0
41
1
10
17.0075316524589
20
0.197063579576912
30
0
41
1
10
17.0035209962321
20
0.137057771422936
30
0
41
1
10
17.0009889794964
20
0.0778900083296199
30
0
41
1
10
16.9998537624912
20
0.0196054953232388
30
0
41
1
10
17.000074781167
20
-0.0386950440260471
30
0
41
1
10
17.0016534140305
20
-0.0969555930111769
30
0
41
1
10
17.0045933399879
20
-0.155135815416307
30
0
41
1
10
17.0088839692839
20
-0.213196763461606
30
0
41
1
10
17.0145161376321
20
-0.271084900008908
30
0
41
1
10
17.0216084384567
20
-0.329795279477379
30
0
41
1
10
17.0302428069998
20
-0.389273780617298
30
0
41
1
10
17.040486591018
20
-0.449460836304299
30
0
41
1
10
17.0521677134693
20
-0.50925592097538
30
0
41
1
10
17.0649501405587
20
-0.567165544153789
30
0
41
1
10
17.0787027029805
20
-0.623188611043082
30
0
41
1
10
17.0932920651714
20
-0.677341237588493
30
0
41
1
10
17.109047107324
20
-0.731011677398186
30
0
41
1
10
17.1259466576904
20
-0.784160032369886
30
0
41
1
10
17.1439751280583
20
-0.836761258245526
30
0
41
1
10
17.1631103920648
20
-0.88879660265196
30
0
41
1
10
17.1833298649796
20
-0.940239208984001
30
0
41
1
10
17.2049130118994
20
-0.991781260822835
30
0
41
1
10
17.2278956007566
20
-1.04337269576976
30
0
41
1
10
17.2523066600056
20
-1.09496530835953
30
0
41
1
10
17.2778022772123
20
-1.14582205635927
30
0
41
1
10
17.3049635231529
20
-1.19706296487901
30
0
41
1
10
17.3338567772523
20
-1.2486116470264
30
0
41
1
10
17.3645422859642
20
-1.30039102270118
30
0
41
1
10
17.3963587370491
20
-1.35125327949783
30
0
41
1
10
17.4292755079316
20
-1.40117433565872
30
0
41
1
10
17.4632715278729
20
-1.45014332601837
30
0
41
1
10
17.4983251555139
20
-1.49815490255211
30
0
41
1
10
17.5344128299282
20
-1.54519685796846
30
0
41
1
10
17.5719749835657
20
-1.59183156863919
30
0
41
1
10
17.6110394077896
20
-1.63800886722727
30
0
41
1
10
17.6516327573149
20
-1.68367986168908
30
0
41
1
10
17.6932546905853
20
-1.72826728522927
30
0
41
1
10
17.7378677745853
20
-1.7737828479203
30
0
41
1
10
17.7856294729868
20
-1.82003638602042
30
0
41
1
10
17.8366992855451
20
-1.86682260569717
30
0
41
1
10
17.8890186995552
20
-1.91215451441189
30
0
41
1
10
17.9425642707741
20
-1.95601413238119
30
0
41
1
10
17.9973253584837
20
-1.99839126849288
30
0
41
1
10
18.0532951753207
20
-2.03927623811627
30
0
41
1
10
18.1104557403136
20
-2.07864723089662
30
0
41
1
10
18.1655953277113
20
-2.1144097517631
30
0
41
1
10
18.2184951185586
20
-2.14682944592524
30
0
41
1
10
18.2689621682657
20
-2.17616207954312
30
0
41
1
10
18.3202415311994
20
-2.20438470899842
30
0
41
1
10
18.372313783634
20
-2.23147354971055
30
0
41
1
10
18.4238791555016
20
-2.25677669927148
30
0
41
1
10
18.4748711249242
20
-2.28037528035093
30
0
41
1
10
18.5252261835102
20
-2.30235150579649
30
0
41
1
10
18.5762403807526
20
-2.32329152924699
30
0
41
1
10
18.6279047984113
20
-2.3431766783241
30
0
41
1
10
18.680214970758
20
-2.36198711212041
30
0
41
1
10
18.7331604078312
20
-2.37970436800877
30
0
41
1
10
18.78671187117
20
-2.39630292209641
30
0
41
1
10
18.841608234714
20
-2.41197627393544
30
0
41
1
10
18.8978659096735
20
-2.42664148839684
30
0
41
1
10
18.9554855047163
20
-2.44021726966643
30
0
41
1
10
19.0136480151699
20
-2.45247527383251
30
0
41
1
10
19.0700385774115
20
-2.4629647644776
30
0
41
1
10
19.1245599613854
20
-2.47183603045888
30
0
41
1
10
19.1771271443977
20
-2.47924987035391
30
0
41
1
10
19.2299762770497
20
-2.48556337693337
30
0
41
1
10
19.2833136509936
20
-2.49078606692665
30
0
41
1
10
19.337109092819
20
-2.49488226006293
30
0
41
1
10
19.3913215639003
20
-2.49782958934274
30
0
41
1
10
19.4456419273706
20
-2.49960428538748
30
0
41
1
10
19.4818768217795
20
-2.49999906391143
30
0
41
1
10
19.5
20
-2.5
30
0
0
SPLINE
5
AB
100
AcDbEntity
8
1
62
256
6
ByLayer
370
18
48
1
60
0
100
AcDbSpline
70
4
71
3
72
39
73
35
40
0
40
0
40
0
40
0
40
0.0318034637337754
40
0.0636333888155178
40
0.0954722809978749
40
0.127302401467327
40
0.159106029211091
40
0.191833380468537
40
0.224589463400243
40
0.25735516031941
40
0.290111223653291
40
0.322838558459412
40
0.354641653925388
40
0.38647117511313
40
0.418309521446319
40
0.450138999673882
40
0.481942059078801
40
0.514670340170581
40
0.54742742849398
40
0.58019418231364
40
0.612951304852031
40
0.645679614665515
40
0.674600548056442
40
0.703534704936658
40
0.73246887326641
40
0.761389822277472
40
0.790310708313343
40
0.819244808548323
40
0.848178899450355
40
0.877099772753665
40
0.907816916836992
40
0.938549970147091
40
0.969282952595858
40
1
40
1
40
1
40
1
41
1
10
7.24833147735475
20
-3.5
30
0
41
1
10
7.2339285023382
20
-3.49999688222125
30
0
41
1
10
7.2048539080431
20
-3.49994326397223
30
0
41
1
10
7.16043718413485
20
-3.49970766604513
30
0
41
1
10
7.11528537130873
20
-3.49935550048378
30
0
41
1
10
7.06946744932983
20
-3.4989115472347
30
0
41
1
10
7.02258885382983
20
-3.4983988320919
30
0
41
1
10
6.97465864673389
20
-3.49784402763738
30
0
41
1
10
6.92569968248183
20
-3.49726736122563
30
0
41
1
10
6.87622971124695
20
-3.4966942983981
30
0
41
1
10
6.8263349660582
20
-3.49614572016303
30
0
41
1
10
6.77655014836783
20
-3.49564678134087
30
0
41
1
10
6.72692481115182
20
-3.49521617632031
30
0
41
1
10
6.67750629446146
20
-3.49485918961093
30
0
41
1
10
6.6278781210194
20
-3.49457902136763
30
0
41
1
10
6.57812227642908
20
-3.49438333776906
30
0
41
1
10
6.52781499448246
20
-3.49427863260906
30
0
41
1
10
6.47699054983153
20
-3.49427637626635
30
0
41
1
10
6.42569009327916
20
-3.49437454707601
30
0
41
1
10
6.3744616657114
20
-3.4945676701391
30
0
41
1
10
6.32339504799075
20
-3.49485016072851
30
0
41
1
10
6.27452590913663
20
-3.4952030362985
30
0
41
1
10
6.22786932773689
20
-3.49560913982897
30
0
41
1
10
6.18341552298515
20
-3.49604566506274
30
0
41
1
10
6.13925070707251
20
-3.4965186645975
30
0
41
1
10
6.09542190976731
20
-3.49701663773496
30
0
41
1
10
6.05196383090634
20
-3.49752813100296
30
0
41
1
10
6.00890805491261
20
-3.49803611567012
30
0
41
1
10
5.96629963740748
20
-3.49852372476644
30
0
41
1
10
5.92331250012624
20
-3.4989833286095
30
0
41
1
10
5.88001754368664
20
-3.49939399574556
30
0
41
1
10
5.83649331927107
20
-3.49972542187264
30
0
41
1
10
5.7936467470975
20
-3.49994677012213
30
0
41
1
10
5.76557889848034
20
-3.4999971280571
30
0
41
1
10
5.7516685226452
20
-3.5
30
0
0
SPLINE
5
AC
100
AcDbEntity
8
1
62
256
6
ByLayer
370
18
48
1
60
0
100
AcDbSpline
70
4
71
3
72
39
73
35
40
0
40
0
40
0
40
0
40
0.0318034637337721
40
0.0636333888155164
40
0.0954722809978732
40
0.127302401467323
40
0.159106029211086
40
0.191833380468523
40
0.224589463400237
40
0.2573551603194
40
0.290111223653281
40
0.3228385584594
40
0.354641653925374
40
0.386471175113123
40
0.418309521446313
40
0.450138999673881
40
0.481942059078801
40
0.514670340170577
40
0.547427428493982
40
0.580194182313644
40
0.612951304852038
40
0.645679614665525
40
0.674600548056449
40
0.703534704936669
40
0.732468873266417
40
0.761389822277477
40
0.790310708313347
40
0.819244808548326
40
0.848178899450357
40
0.877099772753668
40
0.90781691683699
40
0.938549970147095
40
0.969282952595857
40
1
40
1
40
1
40
1
41
1
10
5.7516685226452
20
3.5
30
0
41
1
10
5.76607149766175
20
3.49999688222125
30
0
41
1
10
5.79514609195685
20
3.49994326397223
30
0
41
1
10
5.83956281586509
20
3.49970766604513
30
0
41
1
10
5.88471462869123
20
3.49935550048378
30
0
41
1
10
5.93053255067012
20
3.4989115472347
30
0
41
1
10
5.97741114617012
20
3.4983988320919
30
0
41
1
10
6.02534135326607
20
3.49784402763738
30
0
41
1
10
6.07430031751811
20
3.49726736122563
30
0
41
1
10
6.123770288753
20
3.4966942983981
30
0
41
1
10
6.17366503394174
20
3.49614572016303
30
0
41
1
10
6.22344985163212
20
3.49564678134086
30
0
41
1
10
6.27307518884814
20
3.49521617632031
30
0
41
1
10
6.3224937055385
20
3.49485918961093
30
0
41
1
10
6.37212187898057
20
3.49457902136763
30
0
41
1
10
6.42187772357089
20
3.49438333776906
30
0
41
1
10
6.47218500551752
20
3.49427863260906
30
0
41
1
10
6.52300945016843
20
3.49427637626635
30
0
41
1
10
6.57430990672082
20
3.49437454707602
30
0
41
1
10
6.62553833428858
20
3.4945676701391
30
0
41
1
10
6.67660495200924
20
3.49485016072851
30
0
41
1
10
6.72547409086336
20
3.4952030362985
30
0
41
1
10
6.77213067226312
20
3.49560913982897
30
0
41
1
10
6.81658447701485
20
3.49604566506274
30
0
41
1
10
6.8607492929275
20
3.4965186645975
30
0
41
1
10
6.90457809023268
20
3.49701663773496
30
0
41
1
10
6.94803616909365
20
3.49752813100296
30
0
41
1
10
6.99109194508739
20
3.49803611567012
30
0
41
1
10
7.03370036259252
20
3.49852372476644
30
0
41
1
10
7.07668749987376
20
3.4989833286095
30
0
41
1
10
7.11998245631335
20
3.49939399574556
30
0
41
1
10
7.16350668072894
20
3.49972542187264
30
0
41
1
10
7.20635325290247
20
3.49994677012212
30
0
41
1
10
7.2344211015197
20
3.4999971280571
30
0
41
1
10
7.2483314773548
20
3.5
30
0
0
SPLINE
5
AD
100
AcDbEntity
8
1
62
256
6
ByLayer
370
18
48
1
60
0
100
AcDbSpline
70
4
71
3
72
163
73
159
40
0
40
0
40
0
40
0
40
0.0057367255129921
40
0.0115749409309283
40
0.0175162585520219
40
0.0235622696005582
40
0.0297145394430783
40
0.0358618648208285
40
0.0421145878306033
40
0.0484740889126522
40
0.054941703843478
40
0.0608087866655567
40
0.0667639603697422
40
0.0728080622898352
40
0.0789418863820174
40
0.0851661793300703
40
0.0914816365282907
40
0.0978888979516545
40
0.104388543924532
40
0.110291142851568
40
0.116268650761662
40
0.122321346019775
40
0.128449457774439
40
0.134653163358023
40
0.140819792009055
40
0.147059520616861
40
0.153372356743177
40
0.159758250247287
40
0.166349658134586
40
0.173016836946366
40
0.179759533112939
40
0.186577420985154
40
0.193470100660099
40
0.20043709593025
40
0.207477852371775
40
0.213927869456286
40
0.220437528674424
40
0.227006242425732
40
0.233633366259635
40
0.240318198235693
40
0.247059978407214
40
0.253857888434037
40
0.260137885902061
40
0.266463593416105
40
0.272834250625255
40
0.279249055801785
40
0.285707166029298
40
0.292207697478986
40
0.298749725774268
40
0.305332286443585
40
0.311954375460645
40
0.318614949870941
40
0.325312928502899
40
0.332047192761556
40
0.338428853228878
40
0.34484074729428
40
0.351281850351546
40
0.357751111232835
40
0.364247453066966
40
0.371165860416679
40
0.378112147293119
40
0.385084941188144
40
0.392082842097309
40
0.399104423935744
40
0.406148235995431
40
0.412808598209766
40
0.419486159806254
40
0.426179651894622
40
0.432887790847914
40
0.439609279494619
40
0.44634280832401
40
0.453087056702702
40
0.459840694100624
40
0.466602381324773
40
0.473370771759313
40
0.480023518821032
40
0.486680140698176
40
0.493339347698563
40
0.499999847834581
40
0.506865494798871
40
0.513729725434602
40
0.520591124749245
40
0.527448280421578
40
0.534299784135436
40
0.541144232911068
40
0.547980230433159
40
0.554806388374433
40
0.56194553081337
40
0.569070787960111
40
0.576180601236981
40
0.583273428125724
40
0.590347743779613
40
0.59740204261568
40
0.604434839883672
40
0.611444673208059
40
0.618430104099202
40
0.62538971942956
40
0.632322132870657
40
0.639225986286433
40
0.645707995940047
40
0.652162346190797
40
0.65858797378968
40
0.664983841655237
40
0.671348939707115
40
0.678065068628521
40
0.684744343850075
40
0.691385665523113
40
0.697987971632315
40
0.704550238748098
40
0.711071482695367
40
0.717181673235292
40
0.723253796224897
40
0.729287125153707
40
0.735280965938705
40
0.741234657106425
40
0.74783119800929
40
0.754376120384593
40
0.760868649239906
40
0.767308060321561
40
0.773693679881245
40
0.780024884335057
40
0.786301099819126
40
0.792521801646377
40
0.798911645090153
40
0.805240838612466
40
0.811508960188982
40
0.817715640986249
40
0.823860564208375
40
0.829943463863745
40
0.835964123459717
40
0.842514743264229
40
0.848989691655274
40
0.855388875688602
40
0.861712265971594
40
0.867959894158396
40
0.874131850402005
40
0.880228280776396
40
0.886249384681105
40
0.89219541223989
40
0.898066661704355
40
0.903760615418316
40
0.909383135338064
40
0.914934625251524
40
0.920415524367437
40
0.926558713908025
40
0.932612101430572
40
0.938576476163312
40
0.944452671110809
40
0.950241559275541
40
0.955944050015448
40
0.961561085542518
40
0.967093637566134
40
0.972800112204562
40
0.978416136248993
40
0.983942908721134
40
0.98938164948029
40
0.99473359594399
40
1
40
1
40
1
40
1
41
1
10
-3.6E-15
20
3.5
30
0
41
1
10
0.0055388985241933
20
3.4999999788109
30
0
41
1
10
0.0167127845992212
20
3.4996305711556
30
0
41
1
10
0.0336186851271982
20
3.49794358955482
30
0
41
1
10
0.0508122378355758
20
3.49505914323422
30
0
41
1
10
0.0682924745849682
20
3.49091537378446
30
0
41
1
10
0.0859485648882412
20
3.48548188841164
30
0
41
1
10
0.103774479339425
20
3.47872154567632
30
0
41
1
10
0.121763699819844
20
3.47059728322893
30
0
41
1
10
0.140016543051736
20
3.46100378163519
30
0
41
1
10
0.157850594490068
20
3.45028100596849
30
0
41
1
10
0.175245626413247
20
3.43854832769215
30
0
41
1
10
0.192182770394307
20
3.42592740886981
30
0
41
1
10
0.209310446111616
20
3.4119264689294
30
0
41
1
10
0.226622326709038
20
3.39649417749153
30
0
41
1
10
0.244111351809028
20
3.37957860259479
30
0
41
1
10
0.261769710078205
20
3.3611273082568
30
0
41
1
10
0.279588786366741
20
3.34108749889874
30
0
41
1
10
0.296923339328337
20
3.32017323259825
30
0
41
1
10
0.31375981985866
20
3.29851777374414
30
0
41
1
10
0.330086293791862
20
3.27625491373951
30
0
41
1
10
0.346509369695795
20
3.25255532572464
30
0
41
1
10
0.363019845871826
20
3.22738123490948
30
0
41
1
10
0.379507360199309
20
3.20085697691156
30
0
41
1
10
0.395961878467226
20
3.17297528671373
30
0
41
1
10
0.412373229377121
20
3.14373026451476
30
0
41
1
10
0.428827618650935
20
3.11292332237718
30
0
41
1
10
0.445427342656021
20
3.08029749990844
30
0
41
1
10
0.462158476769915
20
3.04578539379812
30
0
41
1
10
0.479005708367254
20
3.00931969824248
30
0
41
1
10
0.495844136077256
20
2.97109694435255
30
0
41
1
10
0.512658501409241
20
2.93108767173996
30
0
41
1
10
0.52943286147725
20
2.88926419690936
30
0
41
1
10
0.546150577955682
20
2.84560085384275
30
0
41
1
10
0.562271259819902
20
2.80150495874128
30
0
41
1
10
0.577795024767106
20
2.75713399744809
30
0
41
1
10
0.592724126498048
20
2.71264235532758
30
0
41
1
10
0.607549474158898
20
2.66657398402658
30
0
41
1
10
0.622256391852336
20
2.61891878219604
30
0
41
1
10
0.636829811237206
20
2.5696687897805
30
0
41
1
10
0.651254295478296
20
2.51881831966526
30
0
41
1
10
0.665113312523083
20
2.46783821963089
30
0
41
1
10
0.678413093328668
20
2.41686303518366
30
0
41
1
10
0.691161581966181
20
2.36602320425466
30
0
41
1
10
0.703732798128627
20
2.31383939968541
30
0
41
1
10
0.716113819960547
20
2.26031675020303
30
0
41
1
10
0.728291586751432
20
2.20546245845243
30
0
41
1
10
0.740252934849853
20
2.14928582631789
30
0
41
1
10
0.751984622352726
20
2.09179832134643
30
0
41
1
10
0.763473358873515
20
2.03301362467747
30
0
41
1
10
0.774705835309828
20
1.97294767980361
30
0
41
1
10
0.785668757069288
20
1.91161872170779
30
0
41
1
10
0.796348871466655
20
1.84904734607527
30
0
41
1
10
0.806533717451302
20
1.7864807486155
30
0
41
1
10
0.816232253464158
20
1.72401308819542
30
0
41
1
10
0.825454629524266
20
1.66173472656442
30
0
41
1
10
0.834380793044929
20
1.59844292578036
30
0
41
1
10
0.843000253175099
20
1.53416455210282
30
0
41
1
10
0.851471449415694
20
1.46760257088522
30
0
41
1
10
0.859759600399101
20
1.39872894446417
30
0
41
1
10
0.867828057330893
20
1.32752240618631
30
0
41
1
10
0.875505601454886
20
1.25535272643079
30
0
41
1
10
0.882781311476375
20
1.18226315775202
30
0
41
1
10
0.889644707202269
20
1.1082990988861
30
0
41
1
10
0.895962578695741
20
1.03493860126023
30
0
41
1
10
0.90175443534865
20
0.962275461505277
30
0
41
1
10
0.907040704596614
20
0.890396714871147
30
0
41
1
10
0.911928525725607
20
0.817914020535618
30
0
41
1
10
0.916411318635191
20
0.744873072043904
30
0
41
1
10
0.920482999107204
20
0.67132084261156
30
0
41
1
10
0.924138002995946
20
0.597305447457655
30
0
41
1
10
0.927371303894713
20
0.522876056562262
30
0
41
1
10
0.930178430558733
20
0.448082783029367
30
0
41
1
10
0.932555481923984
20
0.372976588826726
30
0
41
1
10
0.934487558837542
20
0.298058245519043
30
0
41
1
10
0.935981004487797
20
0.223383695625708
30
0
41
1
10
0.937042775628768
20
0.149006850145108
30
0
41
1
10
0.937680415903426
20
0.0745287571597598
30
0
41
1
10
0.937895242681915
20
-0.0007651971632993
30
0
41
1
10
0.937671549203458
20
-0.0768240822742544
30
0
41
1
10
0.936994042712595
20
-0.153592641253804
30
0
41
1
10
0.935865952523919
20
-0.230250334207447
30
0
41
1
10
0.934288905184125
20
-0.306742039351066
30
0
41
1
10
0.932265169704607
20
-0.383013054914265
30
0
41
1
10
0.929797649805518
20
-0.459009193563213
30
0
41
1
10
0.926889871474966
20
-0.5346769541485
30
0
41
1
10
0.923493036176975
20
-0.611155474061457
30
0
41
1
10
0.919587531849889
20
-0.688371100936407
30
0
41
1
10
0.915154478074783
20
-0.766243988371821
30
0
41
1
10
0.910260911230566
20
-0.843526217808023
30
0
41
1
10
0.904914284578791
20
-0.920162198197485
30
0
41
1
10
0.899122671927628
20
-0.996097988271626
30
0
41
1
10
0.892894739513913
20
-1.07128137061042
30
0
41
1
10
0.886239714053051
20
-1.1456619698735
30
0
41
1
10
0.879167349674056
20
-1.21919134869974
30
0
41
1
10
0.871687893896333
20
-1.29182309409936
30
0
41
1
10
0.863812050602675
20
-1.36351290735995
30
0
41
1
10
0.855550949285291
20
-1.43421863156022
30
0
41
1
10
0.847079507602931
20
-1.50258168915411
30
0
41
1
10
0.838434196145716
20
-1.56862555978428
30
0
41
1
10
0.829649587400798
20
-1.63238034198117
30
0
41
1
10
0.820563859749171
20
-1.69513394226598
30
0
41
1
10
0.811187600778556
20
-1.75686049577029
30
0
41
1
10
0.801338003513823
20
-1.81875225436956
30
0
41
1
10
0.791005355703845
20
-1.88071913861445
30
0
41
1
10
0.780181137729713
20
-1.94266740454737
30
0
41
1
10
0.76908077849086
20
-2.00336259578118
30
0
41
1
10
0.757717557129567
20
-2.06278529986983
30
0
41
1
10
0.746104782981085
20
-2.12091842648685
30
0
41
1
10
0.734479297668269
20
-2.17667506792406
30
0
41
1
10
0.722870976665362
20
-2.23011826961857
30
0
41
1
10
0.711307455004903
20
-2.28131411115524
30
0
41
1
10
0.699567783225241
20
-2.33132340262619
30
0
41
1
10
0.687662860340986
20
-2.38014077824583
30
0
41
1
10
0.675141925983578
20
-2.42958510321487
30
0
41
1
10
0.661991112623195
20
-2.47950640571955
30
0
41
1
10
0.64819813846513
20
-2.52974788532862
30
0
41
1
10
0.634255055905019
20
-2.57849753264248
30
0
41
1
10
0.620175968774312
20
-2.62575874068207
30
0
41
1
10
0.605974673952417
20
-2.67153697489106
30
0
41
1
10
0.59166465503078
20
-2.71583961753358
30
0
41
1
10
0.577259057027234
20
-2.75867588865511
30
0
41
1
10
0.562595901721743
20
-2.80055590826272
30
0
41
1
10
0.54768229417591
20
-2.84143719454932
30
0
41
1
10
0.532525948257678
20
-2.88127841126133
30
0
41
1
10
0.517320405617433
20
-2.91960193066255
30
0
41
1
10
0.50207819783855
20
-2.95642656331501
30
0
41
1
10
0.486811394742091
20
-2.99177250319111
30
0
41
1
10
0.471531592502302
20
-3.02566121894928
30
0
41
1
10
0.455748762714471
20
-3.0591796472742
30
0
41
1
10
0.439466901997822
20
-3.09220094262608
30
0
41
1
10
0.422691649654439
20
-3.12459735982524
30
0
41
1
10
0.405953425412477
20
-3.15535314844036
30
0
41
1
10
0.389264414608778
20
-3.18450323260382
30
0
41
1
10
0.372636123321186
20
-3.21208342541536
30
0
41
1
10
0.35607940115402
20
-3.23813025516073
30
0
41
1
10
0.339604450194955
20
-3.262680833609
30
0
41
1
10
0.323220839078214
20
-3.28577272389945
30
0
41
1
10
0.306937519744714
20
-3.30744381597599
30
0
41
1
10
0.290857292579037
20
-3.32761374072044
30
0
41
1
10
0.274987344171567
20
-3.34634587435863
30
0
41
1
10
0.25933391148579
20
-3.36370235169621
30
0
41
1
10
0.243805897486809
20
-3.37983427849706
30
0
41
1
10
0.227723351350402
20
-3.39544320924563
30
0
41
1
10
0.211100618897088
20
-3.41039063395409
30
0
41
1
10
0.193953502504488
20
-3.42453788016714
30
0
41
1
10
0.176996291531232
20
-3.43729980764011
30
0
41
1
10
0.160234712811452
20
-3.4487271036181
30
0
41
1
10
0.143673824933973
20
-3.45886968195709
30
0
41
1
10
0.127318068283664
20
-3.46777659095389
30
0
41
1
10
0.111171290215715
20
-3.47549595155301
30
0
41
1
10
0.0949896880165291
20
-3.48217691837653
30
0
41
1
10
0.0787822603793202
20
-3.48780753958579
30
0
41
1
10
0.0625581255118135
20
-3.49237755939447
30
0
41
1
10
0.0465746423253748
20
-3.49584867127408
30
0
41
1
10
0.0308334662019547
20
-3.49826989739507
30
0
41
1
10
0.0153352437918777
20
-3.49968888703084
30
0
41
1
10
0.0050847072302851
20
-3.49999998495991
30
0
41
1
10
0
20
-3.5
30
0
0
SPLINE
5
AE
100
AcDbEntity
8
1
62
256
6
ByLayer
370
18
48
1
60
0
100
AcDbSpline
70
4
71
3
72
40
73
36
40
0
40
0
40
0
40
0
40
0.0301663745296367
40
0.060356084283423
40
0.0905526549834849
40
0.120740557336042
40
0.150905414815428
40
0.181909643689569
40
0.212941558671689
40
0.243982075459906
40
0.275012711231487
40
0.306015866264845
40
0.336199153395542
40
0.366408982158683
40
0.396627550014273
40
0.426837087687814
40
0.457020130464354
40
0.488132634176302
40
0.519274021156557
40
0.550425328433939
40
0.581567168144662
40
0.612680051918981
40
0.642057143581554
40
0.671457758504209
40
0.700866578966758
40
0.730267811021897
40
0.759645420694785
40
0.78983266377955
40
0.820044480525437
40
0.850264849192463
40
0.88047727067181
40
0.91066502136607
40
0.940440743521634
40
0.970224192963187
40
1
40
1
40
1
40
1
41
1
10
5
20
3.24961536185433
30
0
41
1
10
4.99999857388607
20
3.25560504169122
30
0
41
1
10
5.00045223075564
20
3.26737580143715
30
0
41
1
10
5.00249650283319
20
3.2844006103712
30
0
41
1
10
5.00592600422101
20
3.30077864456663
30
0
41
1
10
5.0107556081142
20
3.3164892226714
30
0
41
1
10
5.01706163480928
20
3.33165588499332
30
0
41
1
10
5.02491786284387
20
3.34624447210394
30
0
41
1
10
5.03437639481746
20
3.36023652714925
30
0
41
1
10
5.04536789863642
20
3.37349622976626
30
0
41
1
10
5.05789131069981
20
3.38601284036114
30
0
41
1
10
5.07182805375826
20
3.39767735611455
30
0
41
1
10
5.08714654068902
20
3.40851141370363
30
0
41
1
10
5.10378965597795
20
3.418555325588
30
0
41
1
10
5.12188069843472
20
3.4279158443613
30
0
41
1
10
5.14139835911699
20
3.43659759881729
30
0
41
1
10
5.16254600061533
20
3.44469091047298
30
0
41
1
10
5.18537828144858
20
3.45218327521493
30
0
41
1
10
5.20992237029141
20
3.45907993461904
30
0
41
1
10
5.23591704374336
20
3.46532855091758
30
0
41
1
10
5.26331892782307
20
3.47094870570738
30
0
41
1
10
5.29156510380092
20
3.47586868936018
30
0
41
1
10
5.32055456949267
20
3.48015018113154
30
0
41
1
10
5.35017559702117
20
3.48386083954083
30
0
41
1
10
5.38095232831396
20
3.48710902968783
30
0
41
1
10
5.41283645135562
20
3.48991932629055
30
0
41
1
10
5.44609734915271
20
3.49233884372879
30
0
41
1
10
5.48075347129378
20
3.49438179244768
30
0
41
1
10
5.51680596960712
20
3.49606918684943
30
0
41
1
10
5.55389764202249
20
3.4974129325446
30
0
41
1
10
5.59196788421514
20
3.49844297802321
30
0
41
1
10
5.63079796494986
20
3.49918557843363
30
0
41
1
10
5.67033936806862
20
3.49967600344469
30
0
41
1
10
5.71054306447803
20
3.49994462599959
30
0
41
1
10
5.73787164790792
20
3.50000307544895
30
0
41
1
10
5.7516685226452
20
3.5
30
0
0
SPLINE
5
AF
100
AcDbEntity
8
1
62
256
6
ByLayer
370
18
48
1
60
0
100
AcDbSpline
70
4
71
3
72
40
73
36
40
0
40
0
40
0
40
0
40
0.0302187759545444
40
0.0604618276928235
40
0.0907127712068477
40
0.120955366393911
40
0.151173759127394
40
0.182248300064465
40
0.213350191678099
40
0.244460851651133
40
0.275561986126266
40
0.306635891486267
40
0.336863582828003
40
0.367117434379583
40
0.397379728512775
40
0.427632965370138
40
0.457860140716553
40
0.489010500055615
40
0.520190091769602
40
0.551379407692125
40
0.582558858797668
40
0.613709100096444
40
0.64319068561609
40
0.672696633358551
40
0.702211066430746
40
0.731717632561759
40
0.761199737159328
40
0.79151690135371
40
0.821858898017675
40
0.852210002615705
40
0.882553500950767
40
0.912871925647835
40
0.941912188809554
40
0.970959367634799
40
1
40
1
40
1
40
1
41
1
10
7.2483314773548
20
3.5
30
0
41
1
10
7.26233347753498
20
3.50000322829639
30
0
41
1
10
7.29007142676326
20
3.49994294667494
30
0
41
1
10
7.33087376457127
20
3.49966572223001
30
0
41
1
10
7.37081644136094
20
3.49916077793831
30
0
41
1
10
7.40983970589368
20
3.49840157948279
30
0
41
1
10
7.44825460477578
20
3.49734785442752
30
0
41
1
10
7.48599520274712
20
3.49595672671035
30
0
41
1
10
7.52300303159201
20
3.49418409161962
30
0
41
1
10
7.55888501196271
20
3.49201098874863
30
0
41
1
10
7.59357853593322
20
3.4894056464482
30
0
41
1
10
7.62673347454862
20
3.48636327953588
30
0
41
1
10
7.65835421513465
20
3.48286265531005
30
0
41
1
10
7.68846643770525
20
3.47889272941951
30
0
41
1
10
7.71733025433339
20
3.47439663645673
30
0
41
1
10
7.74489819760323
20
3.46935092484123
30
0
41
1
10
7.77140235855589
20
3.46367299303646
30
0
41
1
10
7.79676718853734
20
3.457309175301
30
0
41
1
10
7.82093667568395
20
3.45021798629941
30
0
41
1
10
7.84363659869295
20
3.44244679623585
30
0
41
1
10
7.86483210987973
20
3.43398225806515
30
0
41
1
10
7.88414718806655
20
3.42497024761466
30
0
41
1
10
7.9016577874031
20
3.41543187345779
30
0
41
1
10
7.91746644796428
20
3.40540592898644
30
0
41
1
10
7.93189327811883
20
3.39471365521407
30
0
41
1
10
7.94492703215784
20
3.38335693613218
30
0
41
1
10
7.95667129810104
20
3.3712186861831
30
0
41
1
10
7.96707588622843
20
3.35826497579566
30
0
41
1
10
7.97611354395596
20
3.34447911278522
30
0
41
1
10
7.98369915485283
20
3.3299910747064
30
0
41
1
10
7.98984016283996
20
3.31481680984873
30
0
41
1
10
7.99447811131921
20
3.29918606870768
30
0
41
1
10
7.99769497537976
20
3.28313799543228
30
0
41
1
10
7.99958294004501
20
3.26671881036672
30
0
41
1
10
8.00000178009609
20
3.25538178973608
30
0
41
1
10
8
20
3.24961536185433
30
0
0
SPLINE
5
B0
100
AcDbEntity
8
1
62
256
6
ByLayer
370
18
48
1
60
0
100
AcDbSpline
70
4
71
3
72
40
73
36
40
0
40
0
40
0
40
0
40
0.0301663745296381
40
0.0603560842834258
40
0.0905526549834893
40
0.120740557336047
40
0.150905414815434
40
0.181909643689579
40
0.212941558671699
40
0.243982075459918
40
0.2750127112315
40
0.30601586626486
40
0.336199153395561
40
0.366408982158699
40
0.396627550014292
40
0.426837087687832
40
0.457020130464373
40
0.488132634176325
40
0.519274021156575
40
0.550425328433958
40
0.581567168144679
40
0.612680051918999
40
0.642057143581578
40
0.671457758504233
40
0.700866578966788
40
0.73026781102193
40
0.75964542069482
40
0.789832663779591
40
0.820044480525476
40
0.850264849192509
40
0.880477270671855
40
0.910665021366117
40
0.940440743521668
40
0.9702241929632
40
1
40
1
40
1
40
1
41
1
10
8
20
-3.24961536185438
30
0
41
1
10
8.00000142611392
20
-3.25560504169127
30
0
41
1
10
7.99954776924434
20
-3.2673758014372
30
0
41
1
10
7.99750349716683
20
-3.28440061037126
30
0
41
1
10
7.99407399577895
20
-3.30077864456668
30
0
41
1
10
7.9892443918858
20
-3.31648922267144
30
0
41
1
10
7.9829383651907
20
-3.33165588499337
30
0
41
1
10
7.97508213715606
20
-3.34624447210398
30
0
41
1
10
7.96562360518253
20
-3.36023652714929
30
0
41
1
10
7.95463210136353
20
-3.37349622976629
30
0
41
1
10
7.94210868930015
20
-3.38601284036117
30
0
41
1
10
7.92817194624169
20
-3.39767735611458
30
0
41
1
10
7.9128534593109
20
-3.40851141370365
30
0
41
1
10
7.896210344022
20
-3.41855532558803
30
0
41
1
10
7.87811930156521
20
-3.42791584436132
30
0
41
1
10
7.85860164088294
20
-3.43659759881731
30
0
41
1
10
7.83745399938463
20
-3.444690910473
30
0
41
1
10
7.81462171855133
20
-3.45218327521495
30
0
41
1
10
7.79007762970854
20
-3.45907993461906
30
0
41
1
10
7.76408295625658
20
-3.46532855091759
30
0
41
1
10
7.73668107217688
20
-3.47094870570739
30
0
41
1
10
7.70843489619904
20
-3.47586868936019
30
0
41
1
10
7.67944543050726
20
-3.48015018113155
30
0
41
1
10
7.64982440297877
20
-3.48386083954084
30
0
41
1
10
7.61904767168596
20
-3.48710902968784
30
0
41
1
10
7.58716354864429
20
-3.48991932629056
30
0
41
1
10
7.5539026508472
20
-3.4923388437288
30
0
41
1
10
7.51924652870611
20
-3.49438179244769
30
0
41
1
10
7.4831940303928
20
-3.49606918684944
30
0
41
1
10
7.4461023579774
20
-3.4974129325446
30
0
41
1
10
7.40803211578477
20
-3.49844297802321
30
0
41
1
10
7.36920203505004
20
-3.49918557843363
30
0
41
1
10
7.32966063193129
20
-3.49967600344469
30
0
41
1
10
7.28945693552192
20
-3.49994462599958
30
0
41
1
10
7.262128352092
20
-3.50000307544895
30
0
41
1
10
7.24833147735475
20
-3.5
30
0
0
SPLINE
5
B1
100
AcDbEntity
8
1
62
256
6
ByLayer
370
18
48
1
60
0
100
AcDbSpline
70
4
71
3
72
40
73
36
40
0
40
0
40
0
40
0
40
0.0302187759545529
40
0.0604618276928291
40
0.0907127712068562
40
0.120955366393922
40
0.151173759127408
40
0.182248300064488
40
0.213350191678117
40
0.244460851651159
40
0.275561986126292
40
0.306635891486295
40
0.336863582828039
40
0.367117434379616
40
0.397379728512812
40
0.427632965370177
40
0.457860140716594
40
0.489010500055663
40
0.520190091769648
40
0.551379407692176
40
0.582558858797722
40
0.6137091000965
40
0.643190685616152
40
0.672696633358612
40
0.70221106643081
40
0.731717632561825
40
0.761199737159397
40
0.791516901353783
40
0.821858898017749
40
0.852210002615781
40
0.882553500950846
40
0.912871925647917
40
0.941912188809609
40
0.970959367634826
40
1
40
1
40
1
40
1
41
1
10
5.7516685226452
20
-3.5
30
0
41
1
10
5.73766652246501
20
-3.50000322829639
30
0
41
1
10
5.70992857323674
20
-3.49994294667494
30
0
41
1
10
5.66912623542872
20
-3.49966572223001
30
0
41
1
10
5.62918355863906
20
-3.49916077793831
30
0
41
1
10
5.59016029410631
20
-3.49840157948279
30
0
41
1
10
5.55174539522422
20
-3.49734785442752
30
0
41
1
10
5.51400479725286
20
-3.49595672671035
30
0
41
1
10
5.476996968408
20
-3.49418409161962
30
0
41
1
10
5.44111498803728
20
-3.49201098874863
30
0
41
1
10
5.40642146406678
20
-3.4894056464482
30
0
41
1
10
5.37326652545139
20
-3.48636327953588
30
0
41
1
10
5.34164578486532
20
-3.48286265531005
30
0
41
1
10
5.31153356229476
20
-3.47889272941951
30
0
41
1
10
5.2826697456666
20
-3.47439663645673
30
0
41
1
10
5.25510180239676
20
-3.46935092484123
30
0
41
1
10
5.22859764144411
20
-3.46367299303646
30
0
41
1
10
5.20323281146264
20
-3.457309175301
30
0
41
1
10
5.17906332431605
20
-3.45021798629941
30
0
41
1
10
5.15636340130704
20
-3.44244679623586
30
0
41
1
10
5.13516789012026
20
-3.43398225806515
30
0
41
1
10
5.11585281193345
20
-3.42497024761466
30
0
41
1
10
5.09834221259688
20
-3.41543187345779
30
0
41
1
10
5.08253355203573
20
-3.40540592898644
30
0
41
1
10
5.06810672188117
20
-3.39471365521407
30
0
41
1
10
5.05507296784215
20
-3.38335693613218
30
0
41
1
10
5.04332870189898
20
-3.3712186861831
30
0
41
1
10
5.03292411377156
20
-3.35826497579566
30
0
41
1
10
5.02388645604405
20
-3.34447911278522
30
0
41
1
10
5.01630084514717
20
-3.3299910747064
30
0
41
1
10
5.01015983716004
20
-3.31481680984873
30
0
41
1
10
5.00552188868079
20
-3.29918606870768
30
0
41
1
10
5.00230502462024
20
-3.28313799543229
30
0
41
1
10
5.00041705995501
20
-3.26671881036676
30
0
41
1
10
4.99999821990388
20
-3.25538178973612
30
0
41
1
10
5
20
-3.24961536185438
30
0
0
SPLINE
5
B2
100
AcDbEntity
8
1
62
256
6
ByLayer
370
18
48
1
60
0
100
AcDbSpline
70
4
71
3
72
114
73
110
40
0
40
0
40
0
40
0
40
0.0091474983089169
40
0.0182992207618738
40
0.0274511650925089
40
0.0365989661002738
40
0.0457441609108416
40
0.054893093297408
40
0.064042241502378
40
0.0731877307297797
40
0.082855666845305
40
0.0925274746753932
40
0.102199518891571
40
0.111867777479417
40
0.122856177035296
40
0.133851751164703
40
0.144850157253085
40
0.155846548405581
40
0.166835633658126
40
0.178062266013075
40
0.189295642384813
40
0.200531489883582
40
0.21176527296427
40
0.222992246635854
40
0.233579535926246
40
0.244170503960697
40
0.254761421953986
40
0.265348642982656
40
0.275937363184371
40
0.286530062945001
40
0.297122487542543
40
0.307710832379067
40
0.316606919323005
40
0.32550759566796
40
0.334409302863655
40
0.343309014489476
40
0.352204291903763
40
0.361573557057204
40
0.370947655748546
40
0.380320909628197
40
0.389689022152419
40
0.397336295675493
40
0.404989785152734
40
0.412644445681208
40
0.420296192990106
40
0.427942004178667
40
0.435541864912072
40
0.443147251066308
40
0.450751911418331
40
0.458350781684587
40
0.466156876615916
40
0.473970536476113
40
0.481783650037553
40
0.489588999284543
40
0.497198553068071
40
0.504815692659558
40
0.512432934126515
40
0.520042626969285
40
0.527898260550282
40
0.535761411314806
40
0.543625261181135
40
0.551481848979491
40
0.55887779831478
40
0.566280489784093
40
0.573686389260368
40
0.581090868937888
40
0.58848831945687
40
0.596093403049947
40
0.603703378133718
40
0.611315738696577
40
0.618927122865812
40
0.62653338905017
40
0.635762265717772
40
0.644995352491311
40
0.654229054403203
40
0.663458770268297
40
0.672682686907917
40
0.681909755489034
40
0.691137138817073
40
0.700361484801036
40
0.710051241981026
40
0.719744049705847
40
0.729437021147731
40
0.739127001647857
40
0.750742800198357
40
0.762365892661937
40
0.773991434365359
40
0.785614540039751
40
0.797230349677246
40
0.809103280255288
40
0.820984632501085
40
0.832868401896698
40
0.844748989973817
40
0.856621279184886
40
0.865775098707461
40
0.874931800808664
40
0.88408834632442
40
0.893241952253482
40
0.90239757328354
40
0.91155645652348
40
0.920715145985735
40
0.929870502678322
40
0.939449781564751
40
0.949033321589579
40
0.958616599850773
40
0.968195521626232
40
0.978796048173268
40
0.989399727746369
40
1
40
1
40
1
40
1
41
1
10
5
20
-3.24961536185438
30
0
41
1
10
5.00000308209344
20
-3.24361622068443
30
0
41
1
10
5.00044955107943
20
-3.23141490852309
30
0
41
1
10
5.00245296013714
20
-3.21250064148347
30
0
41
1
10
5.00575341141857
20
-3.19300459368747
30
0
41
1
10
5.01032914804912
20
-3.17294823076793
30
0
41
1
10
5.01615730730423
20
-3.15234749129292
30
0
41
1
10
5.02320828156712
20
-3.13122466219105
30
0
41
1
10
5.03145448849304
20
-3.1096039243318
30
0
41
1
10
5.04104824216799
20
-3.08708967844281
30
0
41
1
10
5.05204427947588
20
-3.06366872587157
30
0
41
1
10
5.06448977154162
20
-3.03933784201678
30
0
41
1
10
5.07815090860937
20
-3.01455884416
30
0
41
1
10
5.09367238717494
20
-2.98821675782428
30
0
41
1
10
5.11122334187937
20
-2.96026499979707
30
0
41
1
10
5.13096837433826
20
-2.93067589073274
30
0
41
1
10
5.15213695877748
20
-2.90066251045836
30
0
41
1
10
5.17468412253014
20
-2.87028160201821
30
0
41
1
10
5.1987470769508
20
-2.83935671463145
30
0
41
1
10
5.22433427431216
20
-2.80791253953689
30
0
41
1
10
5.25145745667827
20
-2.77598574241674
30
0
41
1
10
5.27990941971159
20
-2.74385332749511
30
0
41
1
10
5.30965578752705
20
-2.71157918082798
30
0
41
1
10
5.34008439062943
20
-2.6798300645911
30
0
41
1
10
5.37109906895704
20
-2.6486543664708
30
0
41
1
10
5.40261769722017
20
-2.61810040808126
30
0
41
1
10
5.43524230549825
20
-2.58760732959121
30
0
41
1
10
5.46896499109396
20
-2.55722895002408
30
0
41
1
10
5.50378483722023
20
-2.52701286651175
30
0
41
1
10
5.53970986855973
20
-2.49701984190408
30
0
41
1
10
5.57673908778683
20
-2.46732131491824
30
0
41
1
10
5.61284155306392
20
-2.43955104562413
30
0
41
1
10
5.64782804019912
20
-2.41369718720823
30
0
41
1
10
5.68153066216155
20
-2.38973525504991
30
0
41
1
10
5.71604165678224
20
-2.36618055361767
30
0
41
1
10
5.75135705597143
20
-2.34309727779122
30
0
41
1
10
5.78812227869713
20
-2.32014355915001
30
0
41
1
10
5.82640429171338
20
-2.29741231874997
30
0
41
1
10
5.86627171385481
20
-2.27502690192226
30
0
41
1
10
5.90706721505851
20
-2.25347275335906
30
0
41
1
10
5.94623162925277
20
-2.23411101540097
30
0
41
1
10
5.9835842274852
20
-2.21683284439024
30
0
41
1
10
6.01895893283889
20
-2.20150357618988
30
0
41
1
10
6.0549480190154
20
-2.18698223385689
30
0
41
1
10
6.09152103783618
20
-2.1733428400122
30
0
41
1
10
6.128585040695
20
-2.16067910063694
30
0
41
1
10
6.1661302469555
20
-2.14905533443453
30
0
41
1
10
6.20412910506943
20
-2.13852397417654
30
0
41
1
10
6.2426104278542
20
-2.12912765618316
30
0
41
1
10
6.28187627608296
20
-2.12086022996543
30
0
41
1
10
6.32190734498813
20
-2.11383797018326
30
0
41
1
10
6.36265599863305
20
-2.10814266217087
30
0
41
1
10
6.40367893226211
20
-2.10387893096607
30
0
41
1
10
6.44454252294554
20
-2.10111709248833
30
0
41
1
10
6.48517494099099
20
-2.09986451474397
30
0
41
1
10
6.52550439485496
20
-2.10006290956329
30
0
41
1
10
6.56578332746687
20
-2.10169113403983
30
0
41
1
10
6.60635159153481
20
-2.10477600278616
30
0
41
1
10
6.64713447817012
20
-2.10936873186178
30
0
41
1
10
6.68806218303083
20
-2.11545794507907
30
0
41
1
10
6.72862337678536
20
-2.12293499018249
30
0
41
1
10
6.7679572850151
20
-2.13157163694499
30
0
41
1
10
6.80604660783933
20
-2.14123089223064
30
0
41
1
10
6.84290806208796
20
-2.15175967687444
30
0
41
1
10
6.87928338688062
20
-2.16328970603179
30
0
41
1
10
6.91512544906601
20
-2.17575062867482
30
0
41
1
10
6.95073746155936
20
-2.18920695753258
30
0
41
1
10
6.98609507419264
20
-2.20362925801532
30
0
41
1
10
7.02118633050384
20
-2.21898108740568
30
0
41
1
10
7.05567725674982
20
-2.23506932142996
30
0
41
1
10
7.08954948322866
20
-2.25182737302656
30
0
41
1
10
7.12516191595718
20
-2.27043190743134
30
0
41
1
10
7.16236363706967
20
-2.2909803794987
30
0
41
1
10
7.20099015841182
20
-2.31355218579473
30
0
41
1
10
7.23872630635692
20
-2.33678587175427
30
0
41
1
10
7.27556780566368
20
-2.36059610658582
30
0
41
1
10
7.31152997456691
20
-2.38491155634839
30
0
41
1
10
7.34662502390322
20
-2.40967608059591
30
0
41
1
10
7.38086345082444
20
-2.43483463032732
30
0
41
1
10
7.41481092233036
20
-2.46075722701261
30
0
41
1
10
7.44842918055397
20
-2.48740969036206
30
0
41
1
10
7.48167284995742
20
-2.51476181454413
30
0
41
1
10
7.51399419236436
20
-2.54232771825602
30
0
41
1
10
7.54747197390312
20
-2.57189302434644
30
0
41
1
10
7.58189254631809
20
-2.60344477751196
30
0
41
1
10
7.61700910158843
20
-2.63695180278209
30
0
41
1
10
7.65079467150035
20
-2.67050290382686
30
0
41
1
10
7.68322248906167
20
-2.70401984008696
30
0
41
1
10
7.71450629354352
20
-2.73768246765333
30
0
41
1
10
7.74460126919781
20
-2.77143298971321
30
0
41
1
10
7.77344937399189
20
-2.8052222669988
30
0
41
1
10
7.80079781828881
20
-2.83874578668655
30
0
41
1
10
7.8265990999789
20
-2.87193047314743
30
0
41
1
10
7.84896735975322
20
-2.90221314900002
30
0
41
1
10
7.86826845836479
20
-2.92965101911631
30
0
41
1
10
7.88484987429695
20
-2.95433108970839
30
0
41
1
10
7.90042648195665
20
-2.97869683484919
30
0
41
1
10
7.91497496286659
20
-3.00272228854088
30
0
41
1
10
7.92847171256223
20
-3.02638348665102
30
0
41
1
10
7.94089434073113
20
-3.04966016938188
30
0
41
1
10
7.95221545272413
20
-3.07252419902077
30
0
41
1
10
7.96256486668911
20
-3.09529425118104
30
0
41
1
10
7.97185177288629
20
-3.11792193768362
30
0
41
1
10
7.97998470157192
20
-3.14035989500198
30
0
41
1
10
7.98679394804547
20
-3.16224111605695
30
0
41
1
10
7.99244107448439
20
-3.18429256805306
30
0
41
1
10
7.99671384859155
20
-3.20640964629047
30
0
41
1
10
7.99939706110841
20
-3.22848747677762
30
0
41
1
10
7.99999539812983
20
-3.2426625574961
30
0
41
1
10
8
20
-3.24961536185439
30
0
0
SPLINE
5
B3
100
AcDbEntity
8
1
62
256
6
ByLayer
370
18
48
1
60
0
100
AcDbSpline
70
4
71
3
72
114
73
110
40
0
40
0
40
0
40
0
40
0.0091474983089178
40
0.0182992207618755
40
0.0274511650925115
40
0.0365989661002774
40
0.0457441609108461
40
0.0548930932974131
40
0.0640422415023841
40
0.0731877307297866
40
0.0828556668453127
40
0.0925274746754018
40
0.102199518891581
40
0.111867777479427
40
0.122856177035309
40
0.133851751164717
40
0.1448501572531
40
0.155846548405598
40
0.166835633658143
40
0.178062266013095
40
0.189295642384834
40
0.200531489883605
40
0.211765272964295
40
0.22299224663588
40
0.233579535926272
40
0.244170503960725
40
0.254761421954013
40
0.265348642982684
40
0.2759373631844
40
0.286530062945029
40
0.297122487542572
40
0.307710832379096
40
0.316606919323036
40
0.32550759566799
40
0.334409302863685
40
0.343309014489506
40
0.352204291903794
40
0.361573557057234
40
0.370947655748576
40
0.380320909628226
40
0.389689022152448
40
0.397336295675523
40
0.404989785152762
40
0.412644445681236
40
0.420296192990133
40
0.427942004178693
40
0.435541864912098
40
0.443147251066335
40
0.450751911418358
40
0.458350781684614
40
0.466156876615944
40
0.473970536476142
40
0.481783650037581
40
0.489588999284571
40
0.497198553068098
40
0.504815692659585
40
0.512432934126542
40
0.520042626969312
40
0.527898260550307
40
0.53576141131483
40
0.543625261181159
40
0.551481848979514
40
0.558877798314807
40
0.566280489784121
40
0.573686389260398
40
0.581090868937919
40
0.588488319456903
40
0.596093403049984
40
0.603703378133754
40
0.611315738696616
40
0.618927122865851
40
0.626533389050211
40
0.635762265717816
40
0.644995352491355
40
0.654229054403249
40
0.663458770268344
40
0.672682686907967
40
0.681909755489085
40
0.691137138817126
40
0.700361484801091
40
0.710051241981082
40
0.719744049705904
40
0.729437021147789
40
0.739127001647917
40
0.75074280019842
40
0.762365892662
40
0.773991434365425
40
0.785614540039818
40
0.797230349677315
40
0.80910328025536
40
0.820984632501158
40
0.832868401896772
40
0.844748989973894
40
0.856621279184964
40
0.865775098707539
40
0.874931800808742
40
0.884088346324499
40
0.893241952253561
40
0.902397573283619
40
0.91155645652356
40
0.920715145985815
40
0.929870502678402
40
0.939449781564832
40
0.94903332158966
40
0.958616599850855
40
0.968195521626314
40
0.978796048173323
40
0.989399727746397
40
1
40
1
40
1
40
1
41
1
10
8
20
3.24961536185433
30
0
41
1
10
7.99999691790656
20
3.24361622068438
30
0
41
1
10
7.99955044892057
20
3.23141490852303
30
0
41
1
10
7.99754703986285
20
3.21250064148342
30
0
41
1
10
7.99424658858142
20
3.19300459368741
30
0
41
1
10
7.98967085195086
20
3.17294823076787
30
0
41
1
10
7.98384269269575
20
3.15234749129285
30
0
41
1
10
7.97679171843285
20
3.13122466219099
30
0
41
1
10
7.96854551150693
20
3.10960392433173
30
0
41
1
10
7.95895175783199
20
3.08708967844273
30
0
41
1
10
7.94795572052409
20
3.06366872587149
30
0
41
1
10
7.93551022845833
20
3.0393378420167
30
0
41
1
10
7.92184909139058
20
3.01455884415992
30
0
41
1
10
7.90632761282501
20
2.9882167578242
30
0
41
1
10
7.88877665812056
20
2.960264999797
30
0
41
1
10
7.86903162566168
20
2.93067589073265
30
0
41
1
10
7.84786304122245
20
2.90066251045827
30
0
41
1
10
7.82531587746979
20
2.87028160201811
30
0
41
1
10
7.80125292304913
20
2.83935671463134
30
0
41
1
10
7.77566572568773
20
2.80791253953679
30
0
41
1
10
7.74854254332162
20
2.77598574241664
30
0
41
1
10
7.72009058028829
20
2.74385332749501
30
0
41
1
10
7.6903442124728
20
2.71157918082788
30
0
41
1
10
7.65991560937043
20
2.67983006459099
30
0
41
1
10
7.62890093104281
20
2.6486543664707
30
0
41
1
10
7.59738230277969
20
2.61810040808115
30
0
41
1
10
7.56475769450162
20
2.58760732959109
30
0
41
1
10
7.5310350089059
20
2.55722895002396
30
0
41
1
10
7.49621516277962
20
2.52701286651164
30
0
41
1
10
7.46029013144014
20
2.49701984190396
30
0
41
1
10
7.42326091221302
20
2.46732131491813
30
0
41
1
10
7.38715844693593
20
2.43955104562402
30
0
41
1
10
7.35217195980073
20
2.41369718720813
30
0
41
1
10
7.31846933783831
20
2.38973525504981
30
0
41
1
10
7.2839583432176
20
2.36618055361757
30
0
41
1
10
7.24864294402843
20
2.34309727779111
30
0
41
1
10
7.21187772130272
20
2.3201435591499
30
0
41
1
10
7.17359570828647
20
2.29741231874988
30
0
41
1
10
7.13372828614503
20
2.27502690192216
30
0
41
1
10
7.09293278494135
20
2.25347275335898
30
0
41
1
10
7.05376837074707
20
2.23411101540089
30
0
41
1
10
7.01641577251464
20
2.21683284439017
30
0
41
1
10
6.98104106716094
20
2.20150357618981
30
0
41
1
10
6.94505198098443
20
2.18698223385684
30
0
41
1
10
6.90847896216367
20
2.17334284001215
30
0
41
1
10
6.87141495930484
20
2.16067910063689
30
0
41
1
10
6.83386975304435
20
2.14905533443449
30
0
41
1
10
6.79587089493044
20
2.1385239741765
30
0
41
1
10
6.75738957214565
20
2.12912765618312
30
0
41
1
10
6.71812372391688
20
2.1208602299654
30
0
41
1
10
6.67809265501172
20
2.11383797018324
30
0
41
1
10
6.6373440013668
20
2.10814266217085
30
0
41
1
10
6.59632106773773
20
2.10387893096606
30
0
41
1
10
6.55545747705432
20
2.10111709248832
30
0
41
1
10
6.51482505900887
20
2.09986451474396
30
0
41
1
10
6.4744956051449
20
2.10006290956329
30
0
41
1
10
6.434216672533
20
2.10169113403984
30
0
41
1
10
6.39364840846506
20
2.10477600278617
30
0
41
1
10
6.35286552182977
20
2.10936873186179
30
0
41
1
10
6.31193781696905
20
2.11545794507909
30
0
41
1
10
6.27137662321453
20
2.12293499018251
30
0
41
1
10
6.23204271498478
20
2.13157163694502
30
0
41
1
10
6.19395339216057
20
2.14123089223066
30
0
41
1
10
6.15709193791193
20
2.15175967687448
30
0
41
1
10
6.12071661311925
20
2.16328970603183
30
0
41
1
10
6.08487455093386
20
2.17575062867486
30
0
41
1
10
6.04926253844051
20
2.18920695753263
30
0
41
1
10
6.0139049258072
20
2.20362925801537
30
0
41
1
10
5.97881366949603
20
2.21898108740574
30
0
41
1
10
5.94432274325003
20
2.23506932143002
30
0
41
1
10
5.9104505167712
20
2.25182737302663
30
0
41
1
10
5.87483808404267
20
2.27043190743141
30
0
41
1
10
5.83763636293017
20
2.29098037949877
30
0
41
1
10
5.79900984158804
20
2.31355218579482
30
0
41
1
10
5.76127369364293
20
2.33678587175436
30
0
41
1
10
5.72443219433617
20
2.36059610658591
30
0
41
1
10
5.68847002543293
20
2.38491155634849
30
0
41
1
10
5.65337497609663
20
2.40967608059601
30
0
41
1
10
5.6191365491754
20
2.43483463032744
30
0
41
1
10
5.58518907766949
20
2.46075722701273
30
0
41
1
10
5.5515708194459
20
2.48740969036218
30
0
41
1
10
5.51832715004244
20
2.51476181454425
30
0
41
1
10
5.48600580763548
20
2.54232771825614
30
0
41
1
10
5.45252802609673
20
2.57189302434657
30
0
41
1
10
5.41810745368175
20
2.60344477751208
30
0
41
1
10
5.38299089841142
20
2.63695180278222
30
0
41
1
10
5.34920532849951
20
2.67050290382699
30
0
41
1
10
5.31677751093819
20
2.7040198400871
30
0
41
1
10
5.28549370645635
20
2.73768246765348
30
0
41
1
10
5.25539873080204
20
2.77143298971336
30
0
41
1
10
5.22655062600799
20
2.80522226699896
30
0
41
1
10
5.19920218171108
20
2.8387457866867
30
0
41
1
10
5.17340090002099
20
2.87193047314758
30
0
41
1
10
5.15103264024669
20
2.90221314900018
30
0
41
1
10
5.13173154163512
20
2.92965101911647
30
0
41
1
10
5.11515012570295
20
2.95433108970854
30
0
41
1
10
5.09957351804326
20
2.97869683484934
30
0
41
1
10
5.08502503713332
20
3.00272228854102
30
0
41
1
10
5.07152828743769
20
3.02638348665116
30
0
41
1
10
5.05910565926879
20
3.04966016938202
30
0
41
1
10
5.0477845472758
20
3.07252419902091
30
0
41
1
10
5.03743513331084
20
3.09529425118118
30
0
41
1
10
5.02814822711366
20
3.11792193768375
30
0
41
1
10
5.02001529842806
20
3.14035989500211
30
0
41
1
10
5.01320605195451
20
3.16224111605708
30
0
41
1
10
5.00755892551562
20
3.18429256805316
30
0
41
1
10
5.00328615140845
20
3.20640964629053
30
0
41
1
10
5.00060293889164
20
3.22848747677761
30
0
41
1
10
5.00000460187011
20
3.24266255749608
30
0
41
1
10
5
20
3.24961536185433
30
0
0
LINE
5
70
100
AcDbEntity
8
1
62
256
6
ByLayer
370
18
48
1
60
0
100
AcDbLine
10
25
20
5.025
30
0
11
25
21
-5.025
31
0
39
0
210
0
220
0
230
1
0
LINE
5
72
100
AcDbEntity
8
SK1
62
256
6
ByLayer
370
18
48
1
60
0
100
AcDbLine
10
-98.5
20
8.025
30
0
11
-98.5
21
-8.025
31
0
39
0
210
0
220
0
230
1
0
LINE
5
74
100
AcDbEntity
8
SK1
62
256
6
ByLayer
370
18
48
1
60
0
100
AcDbLine
10
-97
20
8.025
30
0
11
0
21
8.025
31
0
39
0
210
0
220
0
230
1
0
LINE
5
75
100
AcDbEntity
8
1
62
256
6
ByLayer
370
18
48
1
60
0
100
AcDbLine
10
2.800069
20
3.525
30
0
11
23.5
21
3.525
31
0
39
0
210
0
220
0
230
1
0
LINE
5
76
100
AcDbEntity
8
1
62
256
6
ByLayer
370
18
48
1
60
0
100
AcDbLine
10
1.192374
20
9.525
30
0
11
2.800069
21
3.525
31
0
39
0
210
0
220
0
230
1
0
LINE
5
77
100
AcDbEntity
8
1
62
256
6
ByLayer
370
18
48
1
60
0
100
AcDbLine
10
2.800069
20
3.525
30
0
11
2.800069
21
-3.525
31
0
39
0
210
0
220
0
230
1
0
LINE
5
78
100
AcDbEntity
8
1
62
256
6
ByLayer
370
18
48
1
60
0
100
AcDbLine
10
2.800069
20
-3.525
30
0
11
1.192374
21
-9.525
31
0
39
0
210
0
220
0
230
1
0
LINE
5
79
100
AcDbEntity
8
1
62
256
6
ByLayer
370
18
48
1
60
0
100
AcDbLine
10
20.5
20
9.525
30
0
11
0
21
9.525
31
0
39
0
210
0
220
0
230
1
0
LINE
5
7A
100
AcDbEntity
8
SK1
62
256
6
ByLayer
370
18
48
1
60
0
100
AcDbLine
10
-97
20
-9.525
30
0
11
0
21
-9.525
31
0
39
0
210
0
220
0
230
1
0
LINE
5
7B
100
AcDbEntity
8
1
62
256
6
ByLayer
370
18
48
1
60
0
100
AcDbLine
10
2.800069
20
-3.525
30
0
11
23.5
21
-3.525
31
0
39
0
210
0
220
0
230
1
0
LINE
5
7C
100
AcDbEntity
8
1
62
256
6
ByLayer
370
18
48
1
60
0
100
AcDbLine
10
23.5
20
3.525
30
0
11
23.5
21
-3.525
31
0
39
0
210
0
220
0
230
1
0
LINE
5
7D
100
AcDbEntity
8
1
62
256
6
ByLayer
370
18
48
1
60
0
100
AcDbLine
10
23.5
20
3.525
30
0
11
25
21
5.025
31
0
39
0
210
0
220
0
230
1
0
LINE
5
7E
100
AcDbEntity
8
1
62
256
6
ByLayer
370
18
48
1
60
0
100
AcDbLine
10
25
20
-5.025
30
0
11
23.5
21
-3.525
31
0
39
0
210
0
220
0
230
1
0
LINE
5
7F
100
AcDbEntity
8
1
62
256
6
ByLayer
370
18
48
1
60
0
100
AcDbLine
10
26.5
20
-3.525
30
0
11
26.5
21
3.525
31
0
39
0
210
0
220
0
230
1
0
LINE
5
80
100
AcDbEntity
8
1
62
256
6
ByLayer
370
18
48
1
60
0
100
AcDbLine
10
26.5
20
3.525
30
0
11
25
21
5.025
31
0
39
0
210
0
220
0
230
1
0
LINE
5
81
100
AcDbEntity
8
1
62
256
6
ByLayer
370
18
48
1
60
0
100
AcDbLine
10
22
20
-8.025
30
0
11
0
21
-8.025
31
0
39
0
210
0
220
0
230
1
0
LINE
5
82
100
AcDbEntity
8
1
62
256
6
ByLayer
370
18
48
1
60
0
100
AcDbLine
10
25
20
-5.025
30
0
11
22
21
-8.025
31
0
39
0
210
0
220
0
230
1
0
LINE
5
83
100
AcDbEntity
8
1
62
256
6
ByLayer
370
18
48
1
60
0
100
AcDbLine
10
22
20
8.025
30
0
11
25
21
5.025
31
0
39
0
210
0
220
0
230
1
0
LINE
5
84
100
AcDbEntity
8
1
62
256
6
ByLayer
370
18
48
1
60
0
100
AcDbLine
10
8
20
3.249615
30
0
11
8
21
9.525
31
0
39
0
210
0
220
0
230
1
0
LINE
5
85
100
AcDbEntity
8
1
62
256
6
ByLayer
370
18
48
1
60
0
100
AcDbLine
10
0
20
-8.025
30
0
11
-0.401924
21
-9.525
31
0
39
0
210
0
220
0
230
1
0
LINE
5
86
100
AcDbEntity
8
1
62
256
6
ByLayer
370
18
48
1
60
0
100
AcDbLine
10
7.248331
20
3.5
30
0
11
26.5
21
3.5
31
0
39
0
210
0
220
0
230
1
0
LINE
5
87
100
AcDbEntity
8
1
62
256
6
ByLayer
370
18
48
1
60
0
100
AcDbLine
10
0
20
8.025
30
0
11
0
21
3.5
31
0
39
0
210
0
220
0
230
1
0
LINE
5
88
100
AcDbEntity
8
1
62
256
6
ByLayer
370
18
48
1
60
0
100
AcDbLine
10
19.5
20
2.5
30
0
11
19.5
21
3.125
31
0
39
0
210
0
220
0
230
1
0
LINE
5
89
100
AcDbEntity
8
1
62
256
6
ByLayer
370
18
48
1
60
0
100
AcDbLine
10
0
20
-3.5
30
0
11
0
21
-8.025
31
0
39
0
210
0
220
0
230
1
0
LINE
5
8A
100
AcDbEntity
8
1
62
256
6
ByLayer
370
18
48
1
60
0
100
AcDbLine
10
7.248331
20
-3.5
30
0
11
26.5
21
-3.5
31
0
39
0
210
0
220
0
230
1
0
LINE
5
8B
100
AcDbEntity
8
1
62
256
6
ByLayer
370
18
48
1
60
0
100
AcDbLine
10
-0.401924
20
9.525
30
0
11
0
21
8.025
31
0
39
0
210
0
220
0
230
1
0
LINE
5
8C
100
AcDbEntity
8
1
62
256
6
ByLayer
370
18
48
1
60
0
100
AcDbLine
10
8
20
-9.525
30
0
11
8
21
-3.249615
31
0
39
0
210
0
220
0
230
1
0
LINE
5
8D
100
AcDbEntity
8
1
62
256
6
ByLayer
370
18
48
1
60
0
100
AcDbLine
10
0
20
-3.5
30
0
11
5.751669
21
-3.5
31
0
39
0
210
0
220
0
230
1
0
LINE
5
8E
100
AcDbEntity
8
1
62
256
6
ByLayer
370
18
48
1
60
0
100
AcDbLine
10
0
20
-3.5
30
0
11
0
21
3.5
31
0
39
0
210
0
220
0
230
1
0
LINE
5
8F
100
AcDbEntity
8
1
62
256
6
ByLayer
370
18
48
1
60
0
100
AcDbLine
10
5
20
3.249615
30
0
11
5
21
9.525
31
0
39
0
210
0
220
0
230
1
0
LINE
5
90
100
AcDbEntity
8
1
62
256
6
ByLayer
370
18
48
1
60
0
100
AcDbLine
10
5
20
-9.525
30
0
11
5
21
-3.249615
31
0
39
0
210
0
220
0
230
1
0
LINE
5
91
100
AcDbEntity
8
1
62
256
6
ByLayer
370
18
48
1
60
0
100
AcDbLine
10
0
20
3.5
30
0
11
5.751669
21
3.5
31
0
39
0
210
0
220
0
230
1
0
LINE
5
92
100
AcDbEntity
8
1
62
256
6
ByLayer
370
18
48
1
60
0
100
AcDbLine
10
19.5
20
-2.5
30
0
11
19.5
21
-3.125
31
0
39
0
210
0
220
0
230
1
0
LINE
5
93
100
AcDbEntity
8
SK1
62
256
6
ByLayer
370
18
48
1
60
0
100
AcDbLine
10
-98.5
20
-8.025
30
0
11
-97
21
-9.525
31
0
39
0
210
0
220
0
230
1
0
LINE
5
94
100
AcDbEntity
8
SK1
62
256
6
ByLayer
370
18
48
1
60
0
100
AcDbLine
10
-98.5
20
-8.025
30
0
11
-97
21
-8.025
31
0
39
0
210
0
220
0
230
1
0
LINE
5
95
100
AcDbEntity
8
SK1
62
256
6
ByLayer
370
18
48
1
60
0
100
AcDbLine
10
-97
20
-8.025
30
0
11
-97
21
-9.525
31
0
39
0
210
0
220
0
230
1
0
LINE
5
96
100
AcDbEntity
8
SK1
62
256
6
ByLayer
370
18
48
1
60
0
100
AcDbLine
10
-98.5
20
8.025
30
0
11
-97
21
8.025
31
0
39
0
210
0
220
0
230
1
0
LINE
5
97
100
AcDbEntity
8
SK1
62
256
6
ByLayer
370
18
48
1
60
0
100
AcDbLine
10
-97
20
9.525
30
0
11
-98.5
21
8.025
31
0
39
0
210
0
220
0
230
1
0
LINE
5
98
100
AcDbEntity
8
SK1
62
256
6
ByLayer
370
18
48
1
60
0
100
AcDbLine
10
-97
20
9.525
30
0
11
-97
21
8.025
31
0
39
0
210
0
220
0
230
1
0
LINE
5
99
100
AcDbEntity
8
1
62
256
6
ByLayer
370
18
48
1
60
0
100
AcDbLine
10
25
20
-5.025
30
0
11
26.5
21
-3.525
31
0
39
0
210
0
220
0
230
1
0
LINE
5
9A
100
AcDbEntity
8
1
62
256
6
ByLayer
370
18
48
1
60
0
100
AcDbLine
10
25
20
5.025
30
0
11
20.5
21
9.525
31
0
39
0
210
0
220
0
230
1
0
LINE
5
9B
100
AcDbEntity
8
1
62
256
6
ByLayer
370
18
48
1
60
0
100
AcDbLine
10
-2.103012
20
0
30
0
11
0
21
3.5
31
0
39
0
210
0
220
0
230
1
0
LINE
5
9C
100
AcDbEntity
8
1
62
256
6
ByLayer
370
18
48
1
60
0
100
AcDbLine
10
0
20
-3.5
30
0
11
-2.103012
21
0
31
0
39
0
210
0
220
0
230
1
0
LINE
5
9D
100
AcDbEntity
8
SK1
62
256
6
ByLayer
370
18
48
1
60
0
100
AcDbLine
10
-97
20
8.025
30
0
11
-97
21
-8.025
31
0
39
0
210
0
220
0
230
1
0
LINE
5
9E
100
AcDbEntity
8
1
62
256
6
ByLayer
370
18
48
1
60
0
100
AcDbLine
10
20.5
20
-9.525
30
0
11
22
21
-8.025
31
0
39
0
210
0
220
0
230
1
0
LINE
5
9F
100
AcDbEntity
8
80
62
256
6
ByLayer
370
18
48
1
60
0
100
AcDbLine
10
0
20
0
30
0
11
-10
21
0
31
0
39
0
210
0
220
0
230
1
0
LINE
5
A0
100
AcDbEntity
8
81
62
256
6
ByLayer
370
18
48
1
60
0
100
AcDbLine
10
26.5
20
0
30
0
11
36.5
21
0
31
0
39
0
210
0
220
0
230
1
0
LINE
5
A1
100
AcDbEntity
8
SK1
62
256
6
ByLayer
370
18
48
1
60
0
100
AcDbLine
10
0
20
9.525
30
0
11
-97
21
9.525
31
0
39
0
210
0
220
0
230
1
0
LINE
5
A2
100
AcDbEntity
8
1
62
256
6
ByLayer
370
18
48
1
60
0
100
AcDbLine
10
0
20
8.025
30
0
11
22
21
8.025
31
0
39
0
210
0
220
0
230
1
0
LINE
5
A3
100
AcDbEntity
8
SK1
62
256
6
ByLayer
370
18
48
1
60
0
100
AcDbLine
10
0
20
-8.025
30
0
11
-97
21
-8.025
31
0
39
0
210
0
220
0
230
1
0
LINE
5
A4
100
AcDbEntity
8
1
62
256
6
ByLayer
370
18
48
1
60
0
100
AcDbLine
10
0
20
-9.525
30
0
11
20.5
21
-9.525
31
0
39
0
210
0
220
0
230
1
0
MTEXT
5
B4
100
AcDbEntity
8
SK6
62
256
6
ByLayer
370
18
48
1
60
0
100
AcDbMText
10
-48.990345
20
-18.91759
30
0
210
0
220
0
230
1
1
\W0.7293;CXS-12-07FN
40
3.175
41
0
44
1.084337
50
0
71
7
72
5
7
iso_b_vert
0
DIMENSION
5
C6
100
AcDbEntity
8
SK2
62
256
6
ByLayer
370
13
48
1
60
0
100
AcDbDimension
2
DimnDraft3D1
10
26.5
20
25.941561
30
0
11
-36
21
25.941561
31
0
70
32
71
5
72
1
41
1
210
0
220
0
230
1
3
Standard
100
AcDbAlignedDimension
13
-98.5
23
9.6125
33
0
14
26.5
24
5.1125
34
0
50
0
100
AcDbRotatedDimension
1001
ACAD
1000
DSTYLE
1002
{
1070
   279
1070
     0
1070
   172
1070
     1
1070
   173
1070
     1
1070
   340
1005
B5
1070
   271
1070
     1
1070
   272
1070
     2
1070
    77
1070
     1
1070
    73
1070
     0
1070
   171
1070
     3
1070
   274
1070
     4
1070
   177
1070
     7
1070
   176
1070
     7
1070
   178
1070
     7
1070
    78
1070
     8
1070
    48
1040
-0.005
1070
    41
1041
3.175
1070
   147
1041
1.75006
1070
    42
1041
1.5875
1070
    44
1041
3.175
1070
   140
1041
3.50012
1070
   343
1005
0
1070
   344
1005
0
1002
}
0
DIMENSION
5
D5
100
AcDbEntity
8
2
62
256
6
ByLayer
370
13
48
1
60
0
100
AcDbDimension
2
DimnDraft3D2
10
26.5
20
15.388439
30
0
11
10.472733
21
15.388439
31
0
70
32
71
5
72
1
41
1
210
0
220
0
230
1
3
Standard
100
AcDbAlignedDimension
13
0
23
9.6125
33
0
14
26.5
24
5.1125
34
0
50
0
100
AcDbRotatedDimension
1001
ACAD
1000
DSTYLE
1002
{
1070
   279
1070
     0
1070
   172
1070
     1
1070
   173
1070
     1
1070
   340
1005
B5
1070
   271
1070
     1
1070
   272
1070
     2
1070
    77
1070
     1
1070
    73
1070
     0
1070
   171
1070
     3
1070
   274
1070
     4
1070
   177
1070
     7
1070
   176
1070
     7
1070
   178
1070
     7
1070
    78
1070
     8
1070
    48
1040
-0.005
1070
    41
1041
3.175
1070
   147
1041
1.75006
1070
    42
1041
1.5875
1070
    44
1041
3.175
1070
   140
1041
3.50012
1070
   343
1005
0
1070
   344
1005
0
1002
}
0
DIMENSION
5
E3
100
AcDbEntity
8
SK2
62
256
6
ByLayer
370
13
48
1
60
0
100
AcDbDimension
2
DimnDraft3D3
10
-102.850521
20
-9.525
30
0
11
-102.850521
21
0
31
0
70
32
71
5
72
1
41
1
210
0
220
0
230
1
3
Standard
100
AcDbAlignedDimension
13
-98.5875
23
9.525
33
0
14
-98.5875
24
-9.525
34
0
50
90
100
AcDbRotatedDimension
1001
ACAD
1000
DSTYLE
1002
{
1070
    74
1070
     0
1070
   279
1070
     0
1070
   172
1070
     1
1070
   173
1070
     1
1070
   340
1005
B5
1070
   271
1070
     1
1070
   272
1070
     2
1070
    77
1070
     1
1070
    73
1070
     0
1070
   171
1070
     3
1070
   274
1070
     4
1070
   177
1070
     7
1070
   176
1070
     7
1070
   178
1070
     7
1070
    78
1070
     8
1070
    48
1040
-0.005
1070
    41
1041
3.175
1070
   147
1041
1.75006
1070
    42
1041
1.5875
1070
    44
1041
3.175
1070
   140
1041
3.50012
1070
   343
1005
0
1070
   344
1005
0
1002
}
0
DIMENSION
5
F1
100
AcDbEntity
8
SK2
62
256
6
ByLayer
370
13
48
1
60
0
100
AcDbDimension
2
DimnDraft3D4
10
26.5
20
3.525
30
0
11
18.941233
21
-21.773478
31
0
70
34
71
5
72
1
41
1
210
0
220
0
230
1
3
Standard
100
AcDb2LineAngularDimension
13
25
23
-5.025
33
0
14
22
24
-8.025
34
0
15
26.5
25
-3.525
35
0
16
17.601795
26
-25.007167
36
0
40
0
0
ENDSEC
0
SECTION
2
OBJECTS
0
DICTIONARY
5
15b
330
0
100
AcDbDictionary
280
0
281
1
3
ACAD_GROUP
350
15c
3
ACAD_MLINESTYLE
350
15d
0
DICTIONARY
5
15c
330
0
100
AcDbDictionary
280
0
281
1
0
DICTIONARY
5
15d
330
0
100
AcDbDictionary
280
0
281
1
3
Standard
350
18
0
MLINESTYLE
5
18
330
15d
100
AcDbMlineStyle
2
Standard
70
0
3

62
256
51
90
52
90
71
2
49
-0.5
62
256
6
ByLayer
49
0.5
62
256
6
ByLayer
0
RASTERVARIABLES
5
14a
330

100
AcDbRasterVariables
90
0
70
1
71
1
72
1
0
ENDSEC
0
EOF
