0
SECTION
2
HEADER
9
$ACADVER
1
AC1015
9
$DWGCODEPAGE
3
ANSI_1252
9
$HANDSEED
5
169
9
$ANGBASE
50
0
9
$ANGDIR
70
0
9
$ATTMODE
70
1
9
$AUNITS
70
0
9
$AUPREC
70
0
9
$CECOLOR
62
256
9
$CELTSCALE
40
1
9
$CELTYPE
6
ByLayer
9
$CELWEIGHT
370
18
9
$CLAYER
8
0
9
$CMLJUST
70
0
9
$CMLSCALE
40
1
9
$CMLSTYLE
2
Standard
9
$DIMSTYLE
2
Standard
9
$TEXTSIZE
40
0.2
9
$TEXTSTYLE
7
Standard
9
$LUNITS
70
2
9
$LUPREC
70
4
9
$EXTNAMES
290
1
9
$INSUNITS
70
4
9
$LTSCALE
40
1
9
$LWDISPLAY
290
1
9
$PDMODE
70
0
9
$PDSIZE
40
0
9
$PLINEGEN
70
0
0
ENDSEC
0
SECTION
2
CLASSES
0
CLASS
1
RASTERVARIABLES
2
AcDbRasterVariables
3
ISM
90
0
280
0
281
0
0
ENDSEC
0
SECTION
2
TABLES
0
TABLE
2
VPORT
5
15f
100
AcDbSymbolTable
0
VPORT
5
1
100
AcDbSymbolTableRecord
100
AcDbViewportTableRecord
2
*Active
70
0
10
0
20
0
11
1
21
1
12
-1
22
1
13
0
23
0
14
0.5
24
0.5
15
10
25
10
16
0
26
0
36
1
17
0
27
0
37
0
0
ENDTAB
0
TABLE
2
LTYPE
5
160
100
AcDbSymbolTable
0
LTYPE
5
14
100
AcDbSymbolTableRecord
100
AcDbLinetypeTableRecord
70
0
2
ByBlock
3

72
65
73
0
40
0
0
LTYPE
5
15
100
AcDbSymbolTableRecord
100
AcDbLinetypeTableRecord
70
0
2
ByLayer
3

72
65
73
0
40
0
0
LTYPE
5
16
100
AcDbSymbolTableRecord
100
AcDbLinetypeTableRecord
70
0
2
CONTINUOUS
3
Solid line
72
65
73
0
40
0
0
LTYPE
5
6A
100
AcDbSymbolTableRecord
100
AcDbLinetypeTableRecord
70
0
2
CENTER
3
____ _ ____ _ ____ _ ____
72
65
73
4
40
47.5
49
22
74
0
49
-8.5
74
0
49
8.5
74
0
49
-8.5
74
0
0
LTYPE
5
6B
100
AcDbSymbolTableRecord
100
AcDbLinetypeTableRecord
70
0
2
DASHED
3
__ __ __ __ __ __ __ __ __
72
65
73
2
40
25.72
49
12.86
74
0
49
-12.86
74
0
0
ENDTAB
0
TABLE
2
LAYER
5
161
100
AcDbSymbolTable
0
LAYER
5
10
100
AcDbSymbolTableRecord
100
AcDbLayerTableRecord
2
0
70
0
62
7
6
CONTINUOUS
290
1
370
-3
390
0
0
LAYER
5
6D
100
AcDbSymbolTableRecord
100
AcDbLayerTableRecord
2
80
70
0
62
-6
6
CONTINUOUS
290
1
370
-3
390
0
0
LAYER
5
6F
100
AcDbSymbolTableRecord
100
AcDbLayerTableRecord
2
81
70
0
62
-3
6
CONTINUOUS
290
1
370
-3
390
0
0
LAYER
5
71
100
AcDbSymbolTableRecord
100
AcDbLayerTableRecord
2
1
70
0
62
4
6
CONTINUOUS
290
1
370
-3
390
0
0
LAYER
5
D8
100
AcDbSymbolTableRecord
100
AcDbLayerTableRecord
2
2
70
0
62
7
6
CONTINUOUS
290
1
370
-3
390
0
0
LAYER
5
14c
100
AcDbSymbolTableRecord
100
AcDbLayerTableRecord
2
SK1
70
0
62
4
6
CONTINUOUS
290
1
370
-3
390
0
0
LAYER
5
14d
100
AcDbSymbolTableRecord
100
AcDbLayerTableRecord
2
SK6
70
0
62
5
6
CONTINUOUS
290
1
370
-3
390
0
0
LAYER
5
14e
100
AcDbSymbolTableRecord
100
AcDbLayerTableRecord
2
SK2
70
0
62
7
6
CONTINUOUS
290
1
370
-3
390
0
0
ENDTAB
0
TABLE
2
STYLE
5
162
100
AcDbSymbolTable
0
STYLE
5
11
100
AcDbSymbolTableRecord
100
AcDbTextStyleTableRecord
2
Standard
3
txt
70
0
71
0
40
0
41
1
42
0
50
0
0
STYLE
5
B6
100
AcDbSymbolTableRecord
100
AcDbTextStyleTableRecord
2
iso_b_vert
3
simplex.shx
70
0
71
0
40
0
41
1
42
0
50
0
0
STYLE
5
B7
100
AcDbSymbolTableRecord
100
AcDbTextStyleTableRecord
2
DWGDirectTextStyle
3
simplex
70
0
71
0
40
0
41
1
42
0
50
0
0
ENDTAB
0
TABLE
2
DIMSTYLE
5
163
100
AcDbSymbolTable
100
AcDbDimStyleTable
0
DIMSTYLE
105
27
100
AcDbSymbolTableRecord
100
AcDbDimStyleTableRecord
2
Standard
70
0
3
<>
41
0.18
42
0.0625
44
0.18
140
0.18
147
0.09
73
0
74
0
77
1
271
2
275
0
278
52
280
0
340
11
0
ENDTAB
0
TABLE
2
VIEW
5
164
100
AcDbSymbolTable
0
ENDTAB
0
TABLE
2
UCS
5
165
100
AcDbSymbolTable
0
ENDTAB
0
TABLE
2
APPID
5
166
100
AcDbSymbolTable
0
APPID
5
12
100
AcDbSymbolTableRecord
100
AcDbRegAppTableRecord
2
ACAD
70
0
0
ENDTAB
0
TABLE
2
BLOCK_RECORD
5
167
100
AcDbSymbolTable
0
BLOCK_RECORD
5
1F
100
AcDbSymbolTableRecord
100
AcDbBlockTableRecord
2
*Model_Space
340
0
70
0
0
BLOCK_RECORD
5
1B
100
AcDbSymbolTableRecord
100
AcDbBlockTableRecord
2
*Paper_Space
340
0
70
0
0
BLOCK_RECORD
5
23
100
AcDbSymbolTableRecord
100
AcDbBlockTableRecord
2
*Paper_Space0
340
0
70
0
0
BLOCK_RECORD
5
B9
100
AcDbSymbolTableRecord
100
AcDbBlockTableRecord
2
DimnDraft3D1
340
0
70
0
0
BLOCK_RECORD
5
C8
100
AcDbSymbolTableRecord
100
AcDbBlockTableRecord
2
DimnDraft3D2
340
0
70
0
0
BLOCK_RECORD
5
D6
100
AcDbSymbolTableRecord
100
AcDbBlockTableRecord
2
DimnDraft3D3
340
0
70
0
0
BLOCK_RECORD
5
E5
100
AcDbSymbolTableRecord
100
AcDbBlockTableRecord
2
DimnDraft3D4
340
0
70
0
0
ENDTAB
0
ENDSEC
0
SECTION
2
BLOCKS
0
BLOCK
5
20
100
AcDbEntity
8
0
100
AcDbBlockBegin
2
*Model_Space
70
0
10
0
20
0
30
0
3
*Model_Space
0
ENDBLK
5
21
100
AcDbEntity
8
0
100
AcDbBlockEnd
0
BLOCK
5
1C
100
AcDbEntity
8
0
100
AcDbBlockBegin
2
*Paper_Space
70
0
10
0
20
0
30
0
3
*Paper_Space
0
ENDBLK
5
1D
100
AcDbEntity
8
0
100
AcDbBlockEnd
0
BLOCK
5
24
100
AcDbEntity
8
0
100
AcDbBlockBegin
2
*Paper_Space0
70
0
10
0
20
0
30
0
3
*Paper_Space0
0
ENDBLK
5
25
100
AcDbEntity
8
0
100
AcDbBlockEnd
0
BLOCK
5
C5
100
AcDbEntity
8
0
100
AcDbBlockBegin
2
DimnDraft3D1
70
0
10
0
20
0
30
0
3
DimnDraft3D1
0
MTEXT
5
BA
100
AcDbEntity
8
SK2
62
256
6
ByLayer
370
18
48
1
60
0
100
AcDbMText
10
-104.263605
20
-0.732262
30
0
210
0
220
0
230
1
1
\W0.5286;19
40
3.50012
41
0
44
1.084337
50
90
71
7
72
5
7
iso_b_vert
0
LINE
5
BC
100
AcDbEntity
8
SK2
62
256
6
ByLayer
370
13
48
1
60
0
100
AcDbLine
10
-99.5875
20
9.525
30
0
11
-106.563575
21
9.525
31
0
39
0
210
0
220
0
230
1
0
LINE
5
BD
100
AcDbEntity
8
SK2
62
256
6
ByLayer
370
13
48
1
60
0
100
AcDbLine
10
-99.5875
20
-9.525
30
0
11
-106.563575
21
-9.525
31
0
39
0
210
0
220
0
230
1
0
LINE
5
BE
100
AcDbEntity
8
SK2
62
256
6
ByLayer
370
13
48
1
60
0
100
AcDbLine
10
-103.388575
20
9.525
30
0
11
-103.388575
21
-9.525
31
0
39
0
210
0
220
0
230
1
0
LINE
5
BF
100
AcDbEntity
8
SK2
62
256
6
ByLayer
370
13
48
1
60
0
100
AcDbLine
10
-103.388575
20
9.525
30
0
11
-102.970579
21
6.350002
31
0
39
0
210
0
220
0
230
1
0
LINE
5
C0
100
AcDbEntity
8
SK2
62
256
6
ByLayer
370
13
48
1
60
0
100
AcDbLine
10
-103.388575
20
9.525
30
0
11
-103.806572
21
6.349998
31
0
39
0
210
0
220
0
230
1
0
LINE
5
C1
100
AcDbEntity
8
SK2
62
256
6
ByLayer
370
13
48
1
60
0
100
AcDbLine
10
-102.970579
20
6.350002
30
0
11
-103.806572
21
6.349998
31
0
39
0
210
0
220
0
230
1
0
LINE
5
C2
100
AcDbEntity
8
SK2
62
256
6
ByLayer
370
13
48
1
60
0
100
AcDbLine
10
-103.388575
20
-9.525
30
0
11
-103.806572
21
-6.350002
31
0
39
0
210
0
220
0
230
1
0
LINE
5
C3
100
AcDbEntity
8
SK2
62
256
6
ByLayer
370
13
48
1
60
0
100
AcDbLine
10
-103.388575
20
-9.525
30
0
11
-102.970579
21
-6.349998
31
0
39
0
210
0
220
0
230
1
0
LINE
5
C4
100
AcDbEntity
8
SK2
62
256
6
ByLayer
370
13
48
1
60
0
100
AcDbLine
10
-103.806572
20
-6.350002
30
0
11
-102.970579
21
-6.349998
31
0
39
0
210
0
220
0
230
1
0
ENDBLK
5
C6
100
AcDbEntity
8
0
100
AcDbBlockEnd
0
BLOCK
5
D3
100
AcDbEntity
8
0
100
AcDbBlockBegin
2
DimnDraft3D2
70
0
10
0
20
0
30
0
3
DimnDraft3D2
0
MTEXT
5
C9
100
AcDbEntity
8
SK2
62
256
6
ByLayer
370
18
48
1
60
0
100
AcDbMText
10
-39.017174
20
25.278724
30
0
210
0
220
0
230
1
1
\W0.6044;125
40
3.50012
41
0
44
1.084337
50
0
71
7
72
5
7
iso_b_vert
0
LINE
5
CA
100
AcDbEntity
8
SK2
62
256
6
ByLayer
370
13
48
1
60
0
100
AcDbLine
10
-99.5
20
9.6125
30
0
11
-99.5
21
27.578694
31
0
39
0
210
0
220
0
230
1
0
LINE
5
CB
100
AcDbEntity
8
SK2
62
256
6
ByLayer
370
13
48
1
60
0
100
AcDbLine
10
25.5
20
-1.4125
30
0
11
25.5
21
27.578694
31
0
39
0
210
0
220
0
230
1
0
LINE
5
CC
100
AcDbEntity
8
SK2
62
256
6
ByLayer
370
13
48
1
60
0
100
AcDbLine
10
-99.5
20
24.403694
30
0
11
25.5
21
24.403694
31
0
39
0
210
0
220
0
230
1
0
LINE
5
CD
100
AcDbEntity
8
SK2
62
256
6
ByLayer
370
13
48
1
60
0
100
AcDbLine
10
-99.5
20
24.403694
30
0
11
-96.325002
21
24.82169
31
0
39
0
210
0
220
0
230
1
0
LINE
5
CE
100
AcDbEntity
8
SK2
62
256
6
ByLayer
370
13
48
1
60
0
100
AcDbLine
10
-99.5
20
24.403694
30
0
11
-96.324998
21
23.985697
31
0
39
0
210
0
220
0
230
1
0
LINE
5
CF
100
AcDbEntity
8
SK2
62
256
6
ByLayer
370
13
48
1
60
0
100
AcDbLine
10
-96.325002
20
24.82169
30
0
11
-96.324998
21
23.985697
31
0
39
0
210
0
220
0
230
1
0
LINE
5
D0
100
AcDbEntity
8
SK2
62
256
6
ByLayer
370
13
48
1
60
0
100
AcDbLine
10
25.5
20
24.403694
30
0
11
22.325002
21
23.985697
31
0
39
0
210
0
220
0
230
1
0
LINE
5
D1
100
AcDbEntity
8
SK2
62
256
6
ByLayer
370
13
48
1
60
0
100
AcDbLine
10
25.5
20
24.403694
30
0
11
22.324998
21
24.82169
31
0
39
0
210
0
220
0
230
1
0
LINE
5
D2
100
AcDbEntity
8
SK2
62
256
6
ByLayer
370
13
48
1
60
0
100
AcDbLine
10
22.325002
20
23.985697
30
0
11
22.324998
21
24.82169
31
0
39
0
210
0
220
0
230
1
0
ENDBLK
5
D4
100
AcDbEntity
8
0
100
AcDbBlockEnd
0
BLOCK
5
E2
100
AcDbEntity
8
0
100
AcDbBlockBegin
2
DimnDraft3D3
70
0
10
0
20
0
30
0
3
DimnDraft3D3
0
MTEXT
5
D7
100
AcDbEntity
8
2
62
256
6
ByLayer
370
18
48
1
60
0
100
AcDbMText
10
5.561
20
16.104867
30
0
210
0
220
0
230
1
1
\W0.7150;25.5
40
3.50012
41
0
44
1.084337
50
0
71
7
72
5
7
iso_b_vert
0
LINE
5
D9
100
AcDbEntity
8
2
62
256
6
ByLayer
370
13
48
1
60
0
100
AcDbLine
10
25.5
20
4.6125
30
0
11
25.5
21
18.404837
31
0
39
0
210
0
220
0
230
1
0
LINE
5
DA
100
AcDbEntity
8
2
62
256
6
ByLayer
370
13
48
1
60
0
100
AcDbLine
10
0
20
9.6125
30
0
11
0
21
18.404837
31
0
39
0
210
0
220
0
230
1
0
LINE
5
DB
100
AcDbEntity
8
2
62
256
6
ByLayer
370
13
48
1
60
0
100
AcDbLine
10
25.5
20
15.229837
30
0
11
0
21
15.229837
31
0
39
0
210
0
220
0
230
1
0
LINE
5
DC
100
AcDbEntity
8
2
62
256
6
ByLayer
370
13
48
1
60
0
100
AcDbLine
10
25.5
20
15.229837
30
0
11
22.325002
21
14.81184
31
0
39
0
210
0
220
0
230
1
0
LINE
5
DD
100
AcDbEntity
8
2
62
256
6
ByLayer
370
13
48
1
60
0
100
AcDbLine
10
25.5
20
15.229837
30
0
11
22.324998
21
15.647834
31
0
39
0
210
0
220
0
230
1
0
LINE
5
DE
100
AcDbEntity
8
2
62
256
6
ByLayer
370
13
48
1
60
0
100
AcDbLine
10
22.325002
20
14.81184
30
0
11
22.324998
21
15.647834
31
0
39
0
210
0
220
0
230
1
0
LINE
5
DF
100
AcDbEntity
8
2
62
256
6
ByLayer
370
13
48
1
60
0
100
AcDbLine
10
0
20
15.229837
30
0
11
3.174998
21
15.647834
31
0
39
0
210
0
220
0
230
1
0
LINE
5
E0
100
AcDbEntity
8
2
62
256
6
ByLayer
370
13
48
1
60
0
100
AcDbLine
10
0
20
15.229837
30
0
11
3.175002
21
14.81184
31
0
39
0
210
0
220
0
230
1
0
LINE
5
E1
100
AcDbEntity
8
2
62
256
6
ByLayer
370
13
48
1
60
0
100
AcDbLine
10
3.174998
20
15.647834
30
0
11
3.175002
21
14.81184
31
0
39
0
210
0
220
0
230
1
0
ENDBLK
5
E3
100
AcDbEntity
8
0
100
AcDbBlockEnd
0
BLOCK
5
F0
100
AcDbEntity
8
0
100
AcDbBlockBegin
2
DimnDraft3D4
70
0
10
0
20
0
30
0
3
DimnDraft3D4
0
MTEXT
5
E6
100
AcDbEntity
8
SK2
62
256
6
ByLayer
370
18
48
1
60
0
100
AcDbMText
10
13.804652
20
-24.815568
30
0
210
0
220
0
230
1
1
\W0.8896;45%%d
40
3.50012
41
0
44
1.084337
50
337.5
71
7
72
5
7
iso_b_vert
0
LINE
5
E7
100
AcDbEntity
8
SK2
62
256
6
ByLayer
370
13
48
1
60
0
100
AcDbLine
10
19.377468
20
-9.147532
30
0
11
5.236083
21
-23.288917
31
0
39
0
210
0
220
0
230
1
0
LINE
5
E8
100
AcDbEntity
8
SK2
62
256
6
ByLayer
370
13
48
1
60
0
100
AcDbLine
10
25.5
20
-4.6125
30
0
11
25.5
21
-31.682506
31
0
39
0
210
0
220
0
230
1
0
ARC
5
E9
100
AcDbEntity
8
SK2
62
256
6
ByLayer
370
13
48
1
60
0
100
AcDbCircle
39
0
10
25.5
20
-3.025
30
0
40
25.4825057174322
210
0
220
0
230
1
100
AcDbArc
50
225
51
270
0
LINE
5
EA
100
AcDbEntity
8
SK2
62
256
6
ByLayer
370
13
48
1
60
0
100
AcDbLine
10
7.481147
20
-21.043853
30
0
11
10.081186
21
-22.913381
31
0
39
0
210
0
220
0
230
1
0
LINE
5
EB
100
AcDbEntity
8
SK2
62
256
6
ByLayer
370
13
48
1
60
0
100
AcDbLine
10
7.481147
20
-21.043853
30
0
11
9.508724
21
-23.52262
31
0
39
0
210
0
220
0
230
1
0
LINE
5
EC
100
AcDbEntity
8
SK2
62
256
6
ByLayer
370
13
48
1
60
0
100
AcDbLine
10
10.081186
20
-22.913381
30
0
11
9.508724
21
-23.52262
31
0
39
0
210
0
220
0
230
1
0
LINE
5
ED
100
AcDbEntity
8
SK2
62
256
6
ByLayer
370
13
48
1
60
0
100
AcDbLine
10
25.5
20
-28.507506
30
0
11
22.313537
21
-28.826546
31
0
39
0
210
0
220
0
230
1
0
LINE
5
EE
100
AcDbEntity
8
SK2
62
256
6
ByLayer
370
13
48
1
60
0
100
AcDbLine
10
25.5
20
-28.507506
30
0
11
22.339536
21
-27.990957
31
0
39
0
210
0
220
0
230
1
0
LINE
5
EF
100
AcDbEntity
8
SK2
62
256
6
ByLayer
370
13
48
1
60
0
100
AcDbLine
10
22.313537
20
-28.826546
30
0
11
22.339536
21
-27.990957
31
0
39
0
210
0
220
0
230
1
0
ENDBLK
5
F1
100
AcDbEntity
8
0
100
AcDbBlockEnd
0
ENDSEC
0
SECTION
2
ENTITIES
0
ARC
5
A6
100
AcDbEntity
8
1
62
256
6
ByLayer
370
18
48
1
60
0
100
AcDbCircle
39
0
10
18.5
20
0
30
0
40
2.5
210
0
220
0
230
1
100
AcDbArc
50
270
51
90
0
ARC
5
A7
100
AcDbEntity
8
1
62
256
6
ByLayer
370
18
48
1
60
0
100
AcDbCircle
39
0
10
18.5
20
0
30
0
40
2.5
210
0
220
0
230
1
100
AcDbArc
50
90
51
270
0
ARC
5
A8
100
AcDbEntity
8
1
62
256
6
ByLayer
370
18
48
1
60
0
100
AcDbCircle
39
0
10
18.5
20
0
30
0
40
3.125
210
0
220
0
230
1
100
AcDbArc
50
90
51
270
0
ARC
5
A9
100
AcDbEntity
8
1
62
256
6
ByLayer
370
18
48
1
60
0
100
AcDbCircle
39
0
10
18.5
20
0
30
0
40
3.125
210
0
220
0
230
1
100
AcDbArc
50
270
51
90
0
POINT
5
6C
100
AcDbEntity
8
80
62
256
6
ByLayer
370
18
48
1
60
0
100
AcDbPoint
10
0
20
0
30
0
39
0
210
0
220
0
230
1
50
360
0
POINT
5
6E
100
AcDbEntity
8
81
62
256
6
ByLayer
370
18
48
1
60
0
100
AcDbPoint
10
25.5
20
0
30
0
39
0
210
0
220
0
230
1
50
360
0
SPLINE
5
AA
100
AcDbEntity
8
1
62
256
6
ByLayer
370
18
48
1
60
0
100
AcDbSpline
70
4
71
3
72
150
73
146
40
0
40
0
40
0
40
0
40
0.0051713715787505
40
0.0103452555061159
40
0.0155192132202472
40
0.0206906854659348
40
0.025860760384517
40
0.0310330769042962
40
0.0362055737186794
40
0.0413758945985724
40
0.0468553367179249
40
0.0523369233914634
40
0.0578187703421605
40
0.0632985675207472
40
0.0690776685191933
40
0.0748593441496904
40
0.0806422654149929
40
0.0864246654502678
40
0.0922043742907994
40
0.0994231693619818
40
0.106644362323616
40
0.11386593460516
40
0.121085247097629
40
0.128668504632166
40
0.136253773726517
40
0.143839279947415
40
0.151422860920266
40
0.15977963375714
40
0.168139552431387
40
0.176500701861546
40
0.18486095415199
40
0.193218006902226
40
0.201573737786496
40
0.209932476939255
40
0.218292185622564
40
0.226650853976315
40
0.235006525459433
40
0.243793574390891
40
0.252584507277612
40
0.261376526521227
40
0.270167054467683
40
0.278953763622961
40
0.287189435174323
40
0.295427552049279
40
0.30366549333211
40
0.31190092536764
40
0.320138652316362
40
0.328379257498691
40
0.336619636636636
40
0.344857055233776
40
0.351742507641978
40
0.358631029897819
40
0.365520385586602
40
0.372408541619644
40
0.379293686737607
40
0.386091590652181
40
0.392891737905978
40
0.399691755121285
40
0.406489481651507
40
0.41328871309141
40
0.420090468056255
40
0.426892101725029
40
0.433691167699269
40
0.440817521321288
40
0.447947066054214
40
0.455076497586875
40
0.462202696775326
40
0.469003919921982
40
0.47580808804832
40
0.482612207701476
40
0.48941336471963
40
0.496214854464822
40
0.503019346451646
40
0.50982384466822
40
0.516625342912275
40
0.52382917903419
40
0.53103650341731
40
0.538243904566643
40
0.545447845420242
40
0.551822042867119
40
0.558198513431991
40
0.564575062505611
40
0.570949367047809
40
0.577322662906484
40
0.58369804208148
40
0.590073516678397
40
0.596446942700051
40
0.603104699337483
40
0.60976458146912
40
0.616424583303924
40
0.623082503224526
40
0.63002365831196
40
0.636966924639307
40
0.643910325735277
40
0.650851664653354
40
0.65779148384303
40
0.66473313215191
40
0.671674899192363
40
0.678614880330901
40
0.685807486878802
40
0.693001857736142
40
0.700196341439571
40
0.70738910190581
40
0.715554272367981
40
0.723722684263333
40
0.731892377305889
40
0.740061163047055
40
0.748226647182953
40
0.756389760511617
40
0.764555730767146
40
0.772722745866878
40
0.780888885308537
40
0.789052140585144
40
0.797639868653344
40
0.806230899654105
40
0.814822956410606
40
0.823413833618411
40
0.832001432649545
40
0.839526740970139
40
0.847053717361076
40
0.854580546728797
40
0.862105654518033
40
0.86963317320612
40
0.877162826227195
40
0.884692162509296
40
0.892219249154824
40
0.89845573464698
40
0.904694999986013
40
0.910934786296851
40
0.917173269034478
40
0.923409097865301
40
0.930286713650478
40
0.937165870708049
40
0.944043109780445
40
0.949203167674292
40
0.954365084100818
40
0.959526795518602
40
0.964686573752356
40
0.970076921771467
40
0.975469868759809
40
0.980862632706407
40
0.986252731001247
40
0.990834870800101
40
0.995417879872535
40
1
40
1
40
1
40
1
41
1
10
18.5
20
-2.5
30
0
41
1
10
18.514471214788
20
-2.49999930520295
30
0
41
1
10
18.5434042833359
20
-2.499747550259
30
0
41
1
10
18.5867777863203
20
-2.49861597612031
30
0
41
1
10
18.6300636251098
20
-2.49673799511017
30
0
41
1
10
18.6732147873953
20
-2.49411730557201
30
0
41
1
10
18.7161960404593
20
-2.49075711896471
30
0
41
1
10
18.7589805202802
20
-2.48667082797768
30
0
41
1
10
18.8015338400242
20
-2.48187035187466
30
0
41
1
10
18.8446622833099
20
-2.47625737603458
30
0
41
1
10
18.8883229861779
20
-2.46979190104477
30
0
41
1
10
18.932476002611
20
-2.46244205893008
30
0
41
1
10
18.9762571116903
20
-2.45434961893192
30
0
41
1
10
19.020431090898
20
-2.44537091815464
30
0
41
1
10
19.0649618853874
20
-2.43547306819812
30
0
41
1
10
19.1098187161652
20
-2.42462777186753
30
0
41
1
10
19.1542084042272
20
-2.41302746633099
30
0
41
1
10
19.1981112557407
20
-2.40069301050024
30
0
41
1
10
19.2451221519307
20
-2.3865578881708
30
0
41
1
10
19.2950975460652
20
-2.3704150986634
30
0
41
1
10
19.3478779371468
20
-2.35204977297088
30
0
41
1
10
19.3999046667908
20
-2.33263659366817
30
0
41
1
10
19.4520408381529
20
-2.31185621913547
30
0
41
1
10
19.5042575011337
20
-2.28966618199235
30
0
41
1
10
19.5565226595918
20
-2.26602199606301
30
0
41
1
10
19.6079922186002
20
-2.24130261053856
30
0
41
1
10
19.6603947818635
20
-2.21464874200253
30
0
41
1
10
19.7136565666559
20
-2.18594083411406
30
0
41
1
10
19.7676918048131
20
-2.15505395089554
30
0
41
1
10
19.8208094254222
20
-2.12291226669992
30
0
41
1
10
19.8730026264827
20
-2.089532365177
30
0
41
1
10
19.9242737791578
20
-2.05492487888694
30
0
41
1
10
19.974636791381
20
-2.0190894189398
30
0
41
1
10
20.0240944530066
20
-1.98202328200037
30
0
41
1
10
20.0726421344455
20
-1.94372800744236
30
0
41
1
10
20.1202618959586
20
-1.90421409109616
30
0
41
1
10
20.1677485605424
20
-1.86278358195196
30
0
41
1
10
20.2150447005999
20
-1.81935295748537
30
0
41
1
10
20.2620792979276
20
-1.77383975237033
30
0
41
1
10
20.3080423284733
20
-1.72696929094062
30
0
41
1
10
20.352897348328
20
-1.67875583521479
30
0
41
1
10
20.3957044097639
20
-1.63023828128664
30
0
41
1
10
20.4365241203841
20
-1.58150759824756
30
0
41
1
10
20.4754162987984
20
-1.53265512168214
30
0
41
1
10
20.5132389108693
20
-1.48262726750531
30
0
41
1
10
20.5499610042997
20
-1.43142968116394
30
0
41
1
10
20.585552598164
20
-1.37906100678071
30
0
41
1
10
20.6199824824296
20
-1.3255275029997
30
0
41
1
10
20.6532066696309
20
-1.27085308420702
30
0
41
1
10
20.6834334694402
20
-1.21810998689151
30
0
41
1
10
20.7108579926286
20
-1.16750940083997
30
0
41
1
10
20.7356800961312
20
-1.11924340322175
30
0
41
1
10
20.7595587082539
20
-1.07022183738797
30
0
41
1
10
20.7824613020015
20
-1.02047457567047
30
0
41
1
10
20.8042677363723
20
-0.970233416507182
30
0
41
1
10
20.8249681455469
20
-0.919518224480842
30
0
41
1
10
20.8445582703577
20
-0.868355501976695
30
0
41
1
10
20.8630995526599
20
-0.816558604026828
30
0
41
1
10
20.8805655629626
20
-0.764154226839711
30
0
41
1
10
20.8969298313264
20
-0.711161002858438
30
0
41
1
10
20.9121731702564
20
-0.657605313483671
30
0
41
1
10
20.9262703650466
20
-0.603530659365794
30
0
41
1
10
20.9394036134326
20
-0.548102604529536
30
0
41
1
10
20.9514802849951
20
-0.491321075739611
30
0
41
1
10
20.9624147380855
20
-0.433201092009912
30
0
41
1
10
20.9719987288096
20
-0.374682055258989
30
0
41
1
10
20.9800851562771
20
-0.316716221089182
30
0
41
1
10
20.9867248015556
20
-0.259361899574948
30
0
41
1
10
20.9919845483827
20
-0.202673613112247
30
0
41
1
10
20.9959595478902
20
-0.145808740187882
30
0
41
1
10
20.9986397657946
20
-0.088823095612334
30
0
41
1
10
21.0000135924908
20
-0.0317576929505878
30
0
41
1
10
21.0000851088907
20
0.0253449042942056
30
0
41
1
10
20.998856106138
20
0.0824252087335773
30
0
41
1
10
20.9962774325652
20
0.140548309711863
30
0
41
1
10
20.9922551440418
20
0.199665096673123
30
0
41
1
10
20.9867116649374
20
0.259716923966181
30
0
41
1
10
20.9797384848018
20
0.319516636202217
30
0
41
1
10
20.971670754259
20
0.376715752383078
30
0
41
1
10
20.9627016232609
20
0.431311089498646
30
0
41
1
10
20.9530219292845
20
0.483323967037604
30
0
41
1
10
20.9422757022685
20
0.534984478448895
30
0
41
1
10
20.9304798153084
20
0.586250931293113
30
0
41
1
10
20.917646945385
20
0.637096211888392
30
0
41
1
10
20.903797625444
20
0.687498962766275
30
0
41
1
10
20.8889523979463
20
0.737429571047649
30
0
41
1
10
20.8728963348273
20
0.787591421840855
30
0
41
1
10
20.8555944791758
20
0.837936835116992
30
0
41
1
10
20.8370199439473
20
0.888419610876203
30
0
41
1
10
20.81744874065
20
0.938285132458869
30
0
41
1
10
20.796614668392
20
0.988204429167849
30
0
41
1
10
20.7744893578081
20
1.03812866967766
30
0
41
1
10
20.7510510788771
20
1.08801174894044
30
0
41
1
10
20.726634018944
20
1.13714365684931
30
0
41
1
10
20.7012678824517
20
1.18550008123188
30
0
41
1
10
20.6749748210775
20
1.23307017942238
30
0
41
1
10
20.6477786456556
20
1.27984910089211
30
0
41
1
10
20.6197038511132
20
1.32582655701044
30
0
41
1
10
20.5904247692749
20
1.37153750545561
30
0
41
1
10
20.5599247422381
20
1.41694212180527
30
0
41
1
10
20.5281892928831
20
1.46200321316324
30
0
41
1
10
20.4956046095751
20
1.50617419239593
30
0
41
1
10
20.4606890577593
20
1.55139674247296
30
0
41
1
10
20.4233249597808
20
1.59752569714322
30
0
41
1
10
20.3833953329059
20
1.64440815318152
30
0
41
1
10
20.3424699452167
20
1.69013362562753
30
0
41
1
10
20.3005824992512
20
1.7346883499241
30
0
41
1
10
20.2577601250709
20
1.77806463187225
30
0
41
1
10
20.2140164141827
20
1.82026849324341
30
0
41
1
10
20.169358430754
20
1.86130867460979
30
0
41
1
10
20.1237950804919
20
1.90118727557721
30
0
41
1
10
20.0773480532794
20
1.93989473311638
30
0
41
1
10
20.029208883744
20
1.97807935684932
30
0
41
1
10
19.9793257178948
20
2.01567461635356
30
0
41
1
10
19.9276371052498
20
2.05261050438446
30
0
41
1
10
19.8749787824871
20
2.08825138670475
30
0
41
1
10
19.8213625475726
20
2.12258300607117
30
0
41
1
10
19.7690390427701
20
2.15423679816544
30
0
41
1
10
19.7181350444103
20
2.18339149276283
30
0
41
1
10
19.6687604000028
20
2.21021702625414
30
0
41
1
10
19.6186229282742
20
2.23601174736307
30
0
41
1
10
19.5677130876249
20
2.26076546155765
30
0
41
1
10
19.516018992563
20
2.28446723632836
30
0
41
1
10
19.4635237323485
20
2.30710220861921
30
0
41
1
10
19.4102267778013
20
2.32864695340515
30
0
41
1
10
19.3592166834133
20
2.34791129482346
30
0
41
1
10
19.3106366318614
20
2.36508900974047
30
0
41
1
10
19.2646173641484
20
2.38036666685077
30
0
41
1
10
19.2180258318745
20
2.39483483682844
30
0
41
1
10
19.1708759390586
20
2.40847087539095
30
0
41
1
10
19.1215371218448
20
2.42169312403181
30
0
41
1
10
19.0699388713468
20
2.43437388217362
30
0
41
1
10
19.0160238777154
20
2.44637282722987
30
0
41
1
10
18.9660102768727
20
2.45634639340519
30
0
41
1
10
18.9200932250569
20
2.46457065301523
30
0
41
1
10
18.8784299747031
20
2.47131133596626
30
0
41
1
10
18.8364620521018
20
2.4773758221343
30
0
41
1
10
18.7935880515373
20
2.48282969894589
30
0
41
1
10
18.7498112489922
20
2.4876203257514
30
0
41
1
10
18.7051495935747
20
2.49170058849391
30
0
41
1
10
18.6602822773584
20
2.49499069053142
30
0
41
1
10
18.6175058107077
20
2.49735402249995
30
0
41
1
10
18.5768836266962
20
2.49891537804806
30
0
41
1
10
18.5384549276642
20
2.49980242782588
30
0
41
1
10
18.5128212821774
20
2.49999969223266
30
0
41
1
10
18.5
20
2.5
30
0
0
SPLINE
5
AB
100
AcDbEntity
8
1
62
256
6
ByLayer
370
18
48
1
60
0
100
AcDbSpline
70
4
71
3
72
150
73
146
40
0
40
0
40
0
40
0
40
0.0051713715787506
40
0.010345255506116
40
0.0155192132202472
40
0.0206906854659348
40
0.025860760384517
40
0.0310330769042962
40
0.0362055737186793
40
0.0413758945985725
40
0.0468553367179249
40
0.0523369233914636
40
0.0578187703421606
40
0.0632985675207472
40
0.0690776685191938
40
0.0748593441496904
40
0.0806422654149932
40
0.0864246654502678
40
0.0922043742907996
40
0.0994231693619819
40
0.106644362323616
40
0.11386593460516
40
0.121085247097629
40
0.128668504632167
40
0.136253773726517
40
0.143839279947415
40
0.151422860920266
40
0.15977963375714
40
0.168139552431387
40
0.176500701861546
40
0.18486095415199
40
0.193218006902226
40
0.201573737786496
40
0.209932476939255
40
0.218292185622563
40
0.226650853976315
40
0.235006525459433
40
0.243793574390891
40
0.252584507277611
40
0.261376526521227
40
0.270167054467683
40
0.278953763622961
40
0.287189435174323
40
0.295427552049278
40
0.30366549333211
40
0.31190092536764
40
0.320138652316362
40
0.328379257498691
40
0.336619636636636
40
0.344857055233775
40
0.351742507641978
40
0.358631029897819
40
0.365520385586602
40
0.372408541619644
40
0.379293686737607
40
0.386091590652181
40
0.392891737905978
40
0.399691755121285
40
0.406489481651507
40
0.41328871309141
40
0.420090468056255
40
0.426892101725029
40
0.433691167699269
40
0.440817521321288
40
0.447947066054214
40
0.455076497586875
40
0.462202696775326
40
0.469003919921982
40
0.47580808804832
40
0.482612207701476
40
0.48941336471963
40
0.496214854464822
40
0.503019346451646
40
0.50982384466822
40
0.516625342912275
40
0.523829179034189
40
0.531036503417309
40
0.538243904566642
40
0.545447845420242
40
0.551822042867119
40
0.558198513431991
40
0.564575062505611
40
0.570949367047808
40
0.577322662906483
40
0.58369804208148
40
0.590073516678396
40
0.596446942700051
40
0.603104699337483
40
0.60976458146912
40
0.616424583303924
40
0.623082503224525
40
0.63002365831196
40
0.636966924639306
40
0.643910325735276
40
0.650851664653353
40
0.65779148384303
40
0.664733132151909
40
0.671674899192362
40
0.6786148803309
40
0.685807486878802
40
0.693001857736141
40
0.70019634143957
40
0.707389101905809
40
0.71555427236798
40
0.723722684263332
40
0.731892377305889
40
0.740061163047054
40
0.748226647182952
40
0.756389760511616
40
0.764555730767145
40
0.772722745866878
40
0.780888885308537
40
0.789052140585144
40
0.797639868653343
40
0.806230899654105
40
0.814822956410606
40
0.82341383361841
40
0.832001432649545
40
0.839526740970139
40
0.847053717361076
40
0.854580546728797
40
0.862105654518033
40
0.86963317320612
40
0.877162826227195
40
0.884692162509296
40
0.892219249154824
40
0.89845573464698
40
0.904694999986014
40
0.910934786296851
40
0.917173269034478
40
0.923409097865301
40
0.930286713650478
40
0.937165870708049
40
0.944043109780445
40
0.949203167674291
40
0.954365084100818
40
0.959526795518601
40
0.964686573752356
40
0.970076921771467
40
0.975469868759808
40
0.980862632706406
40
0.986252731001246
40
0.9908348708001
40
0.995417879872535
40
1
40
1
40
1
40
1
41
1
10
18.5
20
2.5
30
0
41
1
10
18.485528785212
20
2.49999930520295
30
0
41
1
10
18.4565957166641
20
2.499747550259
30
0
41
1
10
18.4132222136797
20
2.49861597612031
30
0
41
1
10
18.3699363748902
20
2.49673799511017
30
0
41
1
10
18.3267852126047
20
2.49411730557201
30
0
41
1
10
18.2838039595407
20
2.49075711896471
30
0
41
1
10
18.2410194797198
20
2.48667082797768
30
0
41
1
10
18.1984661599758
20
2.48187035187466
30
0
41
1
10
18.1553377166901
20
2.47625737603458
30
0
41
1
10
18.1116770138221
20
2.46979190104477
30
0
41
1
10
18.067523997389
20
2.46244205893008
30
0
41
1
10
18.0237428883097
20
2.45434961893192
30
0
41
1
10
17.979568909102
20
2.44537091815464
30
0
41
1
10
17.9350381146126
20
2.43547306819812
30
0
41
1
10
17.8901812838348
20
2.42462777186752
30
0
41
1
10
17.8457915957728
20
2.41302746633099
30
0
41
1
10
17.8018887442593
20
2.40069301050024
30
0
41
1
10
17.7548778480693
20
2.3865578881708
30
0
41
1
10
17.7049024539348
20
2.3704150986634
30
0
41
1
10
17.6521220628532
20
2.35204977297088
30
0
41
1
10
17.6000953332092
20
2.33263659366817
30
0
41
1
10
17.5479591618471
20
2.31185621913547
30
0
41
1
10
17.4957424988663
20
2.28966618199235
30
0
41
1
10
17.4434773404082
20
2.26602199606301
30
0
41
1
10
17.3920077813998
20
2.24130261053856
30
0
41
1
10
17.3396052181365
20
2.21464874200253
30
0
41
1
10
17.2863434333441
20
2.18594083411406
30
0
41
1
10
17.2323081951869
20
2.15505395089554
30
0
41
1
10
17.1791905745778
20
2.12291226669992
30
0
41
1
10
17.1269973735173
20
2.089532365177
30
0
41
1
10
17.0757262208422
20
2.05492487888694
30
0
41
1
10
17.025363208619
20
2.0190894189398
30
0
41
1
10
16.9759055469934
20
1.98202328200037
30
0
41
1
10
16.9273578655545
20
1.94372800744236
30
0
41
1
10
16.8797381040414
20
1.90421409109616
30
0
41
1
10
16.8322514394576
20
1.86278358195196
30
0
41
1
10
16.7849552994001
20
1.81935295748537
30
0
41
1
10
16.7379207020724
20
1.77383975237033
30
0
41
1
10
16.6919576715267
20
1.72696929094063
30
0
41
1
10
16.6471026516721
20
1.67875583521479
30
0
41
1
10
16.6042955902361
20
1.63023828128664
30
0
41
1
10
16.5634758796159
20
1.58150759824756
30
0
41
1
10
16.5245837012016
20
1.53265512168214
30
0
41
1
10
16.4867610891307
20
1.48262726750531
30
0
41
1
10
16.4500389957003
20
1.43142968116394
30
0
41
1
10
16.414447401836
20
1.37906100678072
30
0
41
1
10
16.3800175175705
20
1.3255275029997
30
0
41
1
10
16.3467933303691
20
1.27085308420703
30
0
41
1
10
16.3165665305598
20
1.21810998689151
30
0
41
1
10
16.2891420073714
20
1.16750940083997
30
0
41
1
10
16.2643199038689
20
1.11924340322175
30
0
41
1
10
16.2404412917461
20
1.07022183738797
30
0
41
1
10
16.2175386979986
20
1.02047457567047
30
0
41
1
10
16.1957322636277
20
0.970233416507183
30
0
41
1
10
16.1750318544531
20
0.919518224480842
30
0
41
1
10
16.1554417296423
20
0.868355501976696
30
0
41
1
10
16.1369004473402
20
0.816558604026828
30
0
41
1
10
16.1194344370374
20
0.764154226839712
30
0
41
1
10
16.1030701686736
20
0.711161002858438
30
0
41
1
10
16.0878268297436
20
0.657605313483671
30
0
41
1
10
16.0737296349534
20
0.603530659365794
30
0
41
1
10
16.0605963865674
20
0.548102604529536
30
0
41
1
10
16.0485197150049
20
0.491321075739612
30
0
41
1
10
16.0375852619145
20
0.433201092009913
30
0
41
1
10
16.0280012711904
20
0.374682055258991
30
0
41
1
10
16.0199148437229
20
0.316716221089184
30
0
41
1
10
16.0132751984444
20
0.25936189957495
30
0
41
1
10
16.0080154516173
20
0.202673613112248
30
0
41
1
10
16.0040404521098
20
0.145808740187883
30
0
41
1
10
16.0013602342054
20
0.0888230956123354
30
0
41
1
10
15.9999864075091
20
0.0317576929505889
30
0
41
1
10
15.9999148911093
20
-0.025344904294204
30
0
41
1
10
16.001143893862
20
-0.0824252087335756
30
0
41
1
10
16.0037225674348
20
-0.140548309711861
30
0
41
1
10
16.0077448559582
20
-0.199665096673121
30
0
41
1
10
16.0132883350626
20
-0.259716923966179
30
0
41
1
10
16.0202615151982
20
-0.319516636202214
30
0
41
1
10
16.028329245741
20
-0.376715752383076
30
0
41
1
10
16.0372983767391
20
-0.431311089498643
30
0
41
1
10
16.0469780707155
20
-0.483323967037602
30
0
41
1
10
16.0577242977315
20
-0.534984478448892
30
0
41
1
10
16.0695201846915
20
-0.58625093129311
30
0
41
1
10
16.082353054615
20
-0.637096211888391
30
0
41
1
10
16.096202374556
20
-0.687498962766273
30
0
41
1
10
16.1110476020537
20
-0.737429571047646
30
0
41
1
10
16.1271036651727
20
-0.787591421840855
30
0
41
1
10
16.1444055208242
20
-0.837936835116989
30
0
41
1
10
16.1629800560527
20
-0.888419610876202
30
0
41
1
10
16.18255125935
20
-0.938285132458867
30
0
41
1
10
16.203385331608
20
-0.988204429167847
30
0
41
1
10
16.2255106421919
20
-1.03812866967766
30
0
41
1
10
16.2489489211229
20
-1.08801174894044
30
0
41
1
10
16.273365981056
20
-1.13714365684931
30
0
41
1
10
16.2987321175483
20
-1.18550008123187
30
0
41
1
10
16.3250251789225
20
-1.23307017942238
30
0
41
1
10
16.3522213543444
20
-1.27984910089211
30
0
41
1
10
16.3802961488868
20
-1.32582655701043
30
0
41
1
10
16.4095752307251
20
-1.37153750545561
30
0
41
1
10
16.4400752577619
20
-1.41694212180527
30
0
41
1
10
16.4718107071169
20
-1.46200321316323
30
0
41
1
10
16.5043953904249
20
-1.50617419239592
30
0
41
1
10
16.5393109422407
20
-1.55139674247295
30
0
41
1
10
16.5766750402192
20
-1.59752569714322
30
0
41
1
10
16.6166046670941
20
-1.64440815318151
30
0
41
1
10
16.6575300547833
20
-1.69013362562752
30
0
41
1
10
16.6994175007488
20
-1.73468834992409
30
0
41
1
10
16.7422398749291
20
-1.77806463187225
30
0
41
1
10
16.7859835858173
20
-1.82026849324341
30
0
41
1
10
16.830641569246
20
-1.86130867460978
30
0
41
1
10
16.8762049195081
20
-1.90118727557721
30
0
41
1
10
16.9226519467206
20
-1.93989473311638
30
0
41
1
10
16.970791116256
20
-1.97807935684931
30
0
41
1
10
17.0206742821052
20
-2.01567461635356
30
0
41
1
10
17.0723628947502
20
-2.05261050438446
30
0
41
1
10
17.1250212175129
20
-2.08825138670476
30
0
41
1
10
17.1786374524274
20
-2.12258300607117
30
0
41
1
10
17.2309609572299
20
-2.15423679816544
30
0
41
1
10
17.2818649555897
20
-2.18339149276283
30
0
41
1
10
17.3312395999972
20
-2.21021702625414
30
0
41
1
10
17.3813770717258
20
-2.23601174736307
30
0
41
1
10
17.4322869123751
20
-2.26076546155765
30
0
41
1
10
17.483981007437
20
-2.28446723632836
30
0
41
1
10
17.5364762676515
20
-2.30710220861922
30
0
41
1
10
17.5897732221987
20
-2.32864695340515
30
0
41
1
10
17.6407833165867
20
-2.34791129482346
30
0
41
1
10
17.6893633681386
20
-2.36508900974047
30
0
41
1
10
17.7353826358516
20
-2.38036666685077
30
0
41
1
10
17.7819741681255
20
-2.39483483682844
30
0
41
1
10
17.8291240609414
20
-2.40847087539095
30
0
41
1
10
17.8784628781552
20
-2.42169312403181
30
0
41
1
10
17.9300611286532
20
-2.43437388217362
30
0
41
1
10
17.9839761222846
20
-2.44637282722987
30
0
41
1
10
18.0339897231273
20
-2.45634639340519
30
0
41
1
10
18.0799067749431
20
-2.46457065301522
30
0
41
1
10
18.1215700252969
20
-2.47131133596626
30
0
41
1
10
18.1635379478982
20
-2.4773758221343
30
0
41
1
10
18.2064119484627
20
-2.48282969894589
30
0
41
1
10
18.2501887510078
20
-2.4876203257514
30
0
41
1
10
18.2948504064253
20
-2.49170058849391
30
0
41
1
10
18.3397177226416
20
-2.49499069053142
30
0
41
1
10
18.3824941892923
20
-2.49735402249995
30
0
41
1
10
18.4231163733038
20
-2.49891537804806
30
0
41
1
10
18.4615450723359
20
-2.49980242782588
30
0
41
1
10
18.4871787178224
20
-2.49999969223266
30
0
41
1
10
18.5
20
-2.5
30
0
0
SPLINE
5
AC
100
AcDbEntity
8
1
62
256
6
ByLayer
370
18
48
1
60
0
100
AcDbSpline
70
4
71
3
72
39
73
35
40
0
40
0
40
0
40
0
40
0.0317992163861956
40
0.0636249202293193
40
0.095459638754917
40
0.127285608401252
40
0.159085047905013
40
0.191808221034746
40
0.224560116608767
40
0.257321620265651
40
0.290073489249865
40
0.32279664005889
40
0.354595355235036
40
0.386420509392711
40
0.418254485051706
40
0.450079580635445
40
0.481878246644214
40
0.514602685676046
40
0.547355950117582
40
0.580118892762441
40
0.612872203803602
40
0.645596681953416
40
0.674524092720716
40
0.703464739839801
40
0.732405402573074
40
0.761332834642188
40
0.790260180823906
40
0.81920075068376
40
0.848141307829912
40
0.877068636666829
40
0.907793560070464
40
0.938534432437997
40
0.969275208284438
40
1
40
1
40
1
40
1
41
1
10
6.24833147735475
20
-3
30
0
41
1
10
6.23393024056115
20
-2.99999636472724
30
0
41
1
10
6.20485922558484
20
-2.99993382429463
30
0
41
1
10
6.16044814914749
20
-2.99965901956478
30
0
41
1
10
6.11530235658843
20
-2.99924823089182
30
0
41
1
10
6.0694908438365
20
-2.99873035033207
30
0
41
1
10
6.0226190192246
20
-2.9981322214264
30
0
41
1
10
5.97469587550087
20
-2.99748493305596
30
0
41
1
10
5.92574416082289
20
-2.99681207792064
30
0
41
1
10
5.87628151570995
20
-2.99614337029647
30
0
41
1
10
5.8263940592471
20
-2.9955031735773
30
0
41
1
10
5.77661649113898
20
-2.99492083899667
30
0
41
1
10
5.72699828760907
20
-2.99441818810139
30
0
41
1
10
5.67758678631428
20
-2.99400140982895
30
0
41
1
10
5.62796541560592
20
-2.99367424564654
30
0
41
1
10
5.57821618118253
20
-2.99344565526641
30
0
41
1
10
5.52791504502856
20
-2.99332322546909
30
0
41
1
10
5.47709630032505
20
-2.99332035988598
30
0
41
1
10
5.42580114001272
20
-2.99343470458496
30
0
41
1
10
5.37457794244279
20
-2.99365987229135
30
0
41
1
10
5.32351654066625
20
-2.99398934580833
30
0
41
1
10
5.27464732534748
20
-2.99440102398653
30
0
41
1
10
5.22798545927526
20
-2.99487490942661
30
0
41
1
10
5.18352123497959
20
-2.99538439556943
30
0
41
1
10
5.13934615686886
20
-2.9959364772936
30
0
41
1
10
5.0955072626316
20
-2.99651772122486
30
0
41
1
10
5.05203923073216
20
-2.99711474824009
30
0
41
1
10
5.00897360067012
20
-2.99770767987237
30
0
41
1
10
4.96635538656274
20
-2.99827682843935
30
0
41
1
10
4.92335783661785
20
-2.99881329212041
30
0
41
1
10
4.88005184194973
20
-2.99929263858649
30
0
41
1
10
4.83651599402498
20
-2.99967949672247
30
0
41
1
10
4.79365791134433
20
-2.99993786690039
30
0
41
1
10
4.76558258855779
20
-2.99999664756385
30
0
41
1
10
4.7516685226452
20
-3
30
0
0
SPLINE
5
AD
100
AcDbEntity
8
1
62
256
6
ByLayer
370
18
48
1
60
0
100
AcDbSpline
70
4
71
3
72
39
73
35
40
0
40
0
40
0
40
0
40
0.031799216386193
40
0.0636249202293234
40
0.0954596387549213
40
0.127285608401259
40
0.159085047905023
40
0.191808221034751
40
0.224560116608781
40
0.257321620265662
40
0.290073489249882
40
0.32279664005891
40
0.354595355235046
40
0.386420509392727
40
0.418254485051719
40
0.450079580635461
40
0.481878246644229
40
0.514602685676054
40
0.547355950117591
40
0.580118892762451
40
0.612872203803614
40
0.645596681953426
40
0.674524092720723
40
0.703464739839812
40
0.732405402573083
40
0.761332834642196
40
0.79026018082391
40
0.819200750683768
40
0.848141307829917
40
0.877068636666833
40
0.907793560070465
40
0.938534432437995
40
0.969275208284435
40
1
40
1
40
1
40
1
41
1
10
4.7516685226452
20
3
30
0
41
1
10
4.76606975943879
20
2.99999636472724
30
0
41
1
10
4.79514077441511
20
2.99993382429464
30
0
41
1
10
4.83955185085245
20
2.99965901956478
30
0
41
1
10
4.88469764341156
20
2.99924823089182
30
0
41
1
10
4.93050915616346
20
2.99873035033207
30
0
41
1
10
4.97738098077538
20
2.9981322214264
30
0
41
1
10
5.02530412449911
20
2.99748493305596
30
0
41
1
10
5.07425583917709
20
2.99681207792064
30
0
41
1
10
5.12371848429003
20
2.99614337029647
30
0
41
1
10
5.1736059407529
20
2.9955031735773
30
0
41
1
10
5.223383508861
20
2.99492083899667
30
0
41
1
10
5.27300171239093
20
2.99441818810139
30
0
41
1
10
5.32241321368571
20
2.99400140982895
30
0
41
1
10
5.37203458439408
20
2.99367424564653
30
0
41
1
10
5.42178381881746
20
2.99344565526641
30
0
41
1
10
5.47208495497144
20
2.99332322546909
30
0
41
1
10
5.52290369967494
20
2.99332035988598
30
0
41
1
10
5.57419885998727
20
2.99343470458496
30
0
41
1
10
5.6254220575572
20
2.99365987229135
30
0
41
1
10
5.67648345933376
20
2.99398934580833
30
0
41
1
10
5.72535267465251
20
2.99440102398653
30
0
41
1
10
5.77201454072473
20
2.99487490942661
30
0
41
1
10
5.81647876502041
20
2.99538439556943
30
0
41
1
10
5.86065384313114
20
2.9959364772936
30
0
41
1
10
5.90449273736841
20
2.99651772122486
30
0
41
1
10
5.94796076926783
20
2.99711474824009
30
0
41
1
10
5.99102639932988
20
2.99770767987236
30
0
41
1
10
6.03364461343727
20
2.99827682843935
30
0
41
1
10
6.07664216338216
20
2.99881329212041
30
0
41
1
10
6.11994815805026
20
2.99929263858649
30
0
41
1
10
6.16348400597503
20
2.99967949672247
30
0
41
1
10
6.20634208865564
20
2.9999378669004
30
0
41
1
10
6.23441741144226
20
2.99999664756385
30
0
41
1
10
6.2483314773548
20
3
30
0
0
SPLINE
5
AE
100
AcDbEntity
8
1
62
256
6
ByLayer
370
18
48
1
60
0
100
AcDbSpline
70
4
71
3
72
154
73
150
40
0
40
0
40
0
40
0
40
0.0057367378118916
40
0.0115749657463107
40
0.0175162961049263
40
0.0235623201154358
40
0.0297146031477363
40
0.0358619417046663
40
0.0421146781195818
40
0.0484741928356915
40
0.0549418216323622
40
0.0616542181997378
40
0.0684818292440889
40
0.0754258909802978
40
0.0824875637325467
40
0.0896679242547912
40
0.0969679577876894
40
0.104388549878542
40
0.110291161460092
40
0.116268682185296
40
0.122321390419713
40
0.128449515312365
40
0.134653234196001
40
0.140819876067597
40
0.147059618052686
40
0.153372467713018
40
0.159758374907772
40
0.166349796926314
40
0.173016990031781
40
0.179759700653942
40
0.186577603142948
40
0.19347029759503
40
0.200437307801641
40
0.207478079337762
40
0.213928110250391
40
0.220437783424513
40
0.22700651125841
40
0.233633649300127
40
0.24031849560772
40
0.247060290232865
40
0.253858214833649
40
0.261399682909694
40
0.26900675550058
40
0.27667809724166
40
0.2844122871205
40
0.29220781905493
40
0.298749861375592
40
0.305332436157185
40
0.311954539371264
40
0.318615128061089
40
0.325313121052766
40
0.332047399748934
40
0.338429073897825
40
0.344840981709612
40
0.351282098575885
40
0.357751373326547
40
0.36424772908811
40
0.371166151270117
40
0.378112453038622
40
0.385085261882539
40
0.392083177794422
40
0.399104774686346
40
0.40614860184718
40
0.412808978340588
40
0.419486554253024
40
0.426180060691492
40
0.432888214026286
40
0.439609717083113
40
0.446343260348438
40
0.453087523186047
40
0.459841175063014
40
0.466602876783466
40
0.473371281728681
40
0.480024043053147
40
0.486680679201346
40
0.49333990047833
40
0.500000414893717
40
0.50784675110898
40
0.515690973358357
40
0.523530970280373
40
0.531364635720454
40
0.539189871329477
40
0.5470045891561
40
0.554806714230308
40
0.561945871974771
40
0.569071144397268
40
0.576180972916785
40
0.583273815011757
40
0.59034814583219
40
0.597402459791887
40
0.604435272137411
40
0.611445120490099
40
0.618430566357227
40
0.625390196608223
40
0.632322624911642
40
0.639226493128509
40
0.645708516678829
40
0.652162880766985
40
0.658588522141697
40
0.664984403719281
40
0.67134951541722
40
0.678065658737258
40
0.684744948278432
40
0.691386284189723
40
0.697988604453533
40
0.704550885638084
40
0.711072143566173
40
0.718703911860504
40
0.726275915204781
40
0.733786758354968
40
0.741235125458587
40
0.748769809137117
40
0.756236926873181
40
0.763635338050899
40
0.770963988506229
40
0.778221909996854
40
0.785408219436327
40
0.792522117903514
40
0.799971023121514
40
0.807337279894553
40
0.814620239224775
40
0.821819349951652
40
0.828934156186656
40
0.835964294556292
40
0.842514928404602
40
0.848989890677214
40
0.855389088429678
40
0.861712492269314
40
0.867960133850334
40
0.874843572753312
40
0.881632963166466
40
0.888328594681143
40
0.894930834655158
40
0.901440123723517
40
0.907856971344419
40
0.914181951399676
40
0.920415697866751
40
0.927429121955701
40
0.934325400047923
40
0.94110572442625
40
0.947771360203712
40
0.954323638051003
40
0.960763947231863
40
0.967093728957581
40
0.973930584805052
40
0.980637537496837
40
0.987216669923231
40
0.993670105450714
40
1
40
1
40
1
40
1
41
1
10
0
20
3
30
0
41
1
10
0.0047476273064539
20
2.99999998183791
30
0
41
1
10
0.0143252439417338
20
2.99968334670512
30
0
41
1
10
0.0288160158249191
20
2.99823736247442
30
0
41
1
10
0.043553346710123
20
2.99576497991938
30
0
41
1
10
0.0585364068103864
20
2.99221317751293
30
0
41
1
10
0.0736701983872088
20
2.98755590441597
30
0
41
1
10
0.0889495540514247
20
2.98176132462845
30
0
41
1
10
0.10436888428832
20
2.97479767224682
30
0
41
1
10
0.120014184626406
20
2.96657466649797
30
0
41
1
10
0.135991695821023
20
2.95696814375634
30
0
41
1
10
0.152298689635057
20
2.94588722130493
30
0
41
1
10
0.168931092624483
20
2.93323741348714
30
0
41
1
10
0.18577484382805
20
2.91902622589715
30
0
41
1
10
0.202821506548148
20
2.90318770474621
30
0
41
1
10
0.220061576603044
20
2.88565506243256
30
0
41
1
10
0.237484382789642
20
2.86636092539697
30
0
41
1
10
0.25378264931085
20
2.84679280252382
30
0
41
1
10
0.26893698389571
20
2.82730095411308
30
0
41
1
10
0.282931110207983
20
2.80821849607412
30
0
41
1
10
0.297008030828348
20
2.78790456529363
30
0
41
1
10
0.311159867982859
20
2.76632677267392
30
0
41
1
10
0.325292023003172
20
2.74359169452387
30
0
41
1
10
0.339395895835761
20
2.71969310288984
30
0
41
1
10
0.353462768035715
20
2.69462594101473
30
0
41
1
10
0.367566530272725
20
2.66821999060844
30
0
41
1
10
0.381794865133621
20
2.64025499992168
30
0
41
1
10
0.39613583723138
20
2.61067319468405
30
0
41
1
10
0.410576321457626
20
2.57941688420787
30
0
41
1
10
0.425009259494818
20
2.54665452373071
30
0
41
1
10
0.439421572636455
20
2.51236086149158
30
0
41
1
10
0.453799595552091
20
2.47651216877876
30
0
41
1
10
0.468129066818495
20
2.43908644615356
30
0
41
1
10
0.481946794133766
20
2.40128996462579
30
0
41
1
10
0.495252878363569
20
2.36325771213095
30
0
41
1
10
0.508049251315338
20
2.32512201872853
30
0
41
1
10
0.520756692017784
20
2.28563484391932
30
0
41
1
10
0.533362622035497
20
2.24478752582689
30
0
41
1
10
0.545854122224746
20
2.2025732550739
30
0
41
1
10
0.558217973951049
20
2.15898710585415
30
0
41
1
10
0.57085316702122
20
2.1125088249876
30
0
41
1
10
0.583721943024397
20
2.06298979419849
30
0
41
1
10
0.596781299902531
20
2.0102819070033
30
0
41
1
10
0.609615495573014
20
1.95591744368188
30
0
41
1
10
0.622205257223548
20
1.89990565401962
30
0
41
1
10
0.633839001223095
20
1.84549634975247
30
0
41
1
10
0.64455824187306
20
1.79297001620538
30
0
41
1
10
0.654405737761209
20
1.74258309970655
30
0
41
1
10
0.664033572694542
20
1.69109801319565
30
0
41
1
10
0.673430363317976
20
1.63853033236931
30
0
41
1
10
0.682584746940098
20
1.58489772534897
30
0
41
1
10
0.691314614966178
20
1.53126921306319
30
0
41
1
10
0.699627645824336
20
1.47772550417692
30
0
41
1
10
0.707532539592794
20
1.42434405133839
30
0
41
1
10
0.715183536895498
20
1.37009393638385
30
0
41
1
10
0.722571645578707
20
1.31499818751651
30
0
41
1
10
0.729832670927731
20
1.25794506075881
30
0
41
1
10
0.7369368003421
20
1.19891052382642
30
0
41
1
10
0.743852620569328
20
1.1378763481597
30
0
41
1
10
0.750433372675616
20
1.07601662265496
30
0
41
1
10
0.756669695551182
20
1.01336842093031
30
0
41
1
10
0.762552606173369
20
0.949970656188086
30
0
41
1
10
0.767967924596352
20
0.887090229651626
30
0
41
1
10
0.772932373155989
20
0.824807538433091
30
0
41
1
10
0.777463461082807
20
0.763197184175285
30
0
41
1
10
0.781653022050538
20
0.701069160459045
30
0
41
1
10
0.785495415973006
20
0.638462633180702
30
0
41
1
10
0.788985427806189
20
0.575417865094829
30
0
41
1
10
0.792118288282278
20
0.51197609782382
30
0
41
1
10
0.794889689052507
20
0.448179477042247
30
0
41
1
10
0.797295797622148
20
0.384070956923901
30
0
41
1
10
0.799333270219183
20
0.319694218838873
30
0
41
1
10
0.800989336151545
20
0.255478496735801
30
0
41
1
10
0.802269432399559
20
0.191471736996217
30
0
41
1
10
0.803179522036729
20
0.127720165158501
30
0
41
1
10
0.803726070515939
20
0.0638817623848323
30
0
41
1
10
0.803919155057038
20
-0.0037912224515929
30
0
41
1
10
0.80367895483219
20
-0.0752539098877618
30
0
41
1
10
0.802920594989764
20
-0.150436701520956
30
0
41
1
10
0.801658251681719
20
-0.225477784612743
30
0
41
1
10
0.799894299935289
20
-0.300306716809736
30
0
41
1
10
0.79763204927065
20
-0.374853865194546
30
0
41
1
10
0.794875731777051
20
-0.449050373566553
30
0
41
1
10
0.791720361183582
20
-0.520785022649447
30
0
41
1
10
0.788217885737598
20
-0.590032339139178
30
0
41
1
10
0.78441812371824
20
-0.656780570300636
30
0
41
1
10
0.780223638289982
20
-0.723022470046695
30
0
41
1
10
0.775640815328597
20
-0.788710456227844
30
0
41
1
10
0.770676575944538
20
-0.853798275493284
30
0
41
1
10
0.76533834815303
20
-0.918241174853774
30
0
41
1
10
0.759634040617364
20
-0.98199597416533
30
0
41
1
10
0.753572014006199
20
-1.04502115603154
30
0
41
1
10
0.747161051911185
20
-1.1072769377986
30
0
41
1
10
0.740410329088007
20
-1.16872534916591
30
0
41
1
10
0.733329385101673
20
-1.22933025562297
30
0
41
1
10
0.726068149373948
20
-1.28792716213217
30
0
41
1
10
0.71865788241066
20
-1.34453619410059
30
0
41
1
10
0.71112821777194
20
-1.39918315027038
30
0
41
1
10
0.703340451214235
20
-1.45297195051075
30
0
41
1
10
0.695303657807745
20
-1.50588042495688
30
0
41
1
10
0.686861145878321
20
-1.55893050370386
30
0
41
1
10
0.67800459056641
20
-1.61204497611923
30
0
41
1
10
0.6687266896189
20
-1.66514348900629
30
0
41
1
10
0.659212095345115
20
-1.71716794148191
30
0
41
1
10
0.649472193690272
20
-1.76810167731393
30
0
41
1
10
0.63951837851609
20
-1.81793011049656
30
0
41
1
10
0.628763769411908
20
-1.86950998072626
30
0
41
1
10
0.617172736009273
20
-1.92261243987192
30
0
41
1
10
0.604711179001395
20
-1.97698946928857
30
0
41
1
10
0.592020999307259
20
-2.0297736609191
30
0
41
1
10
0.579033745051504
20
-2.0813012238813
30
0
41
1
10
0.565761663591626
20
-2.1315343733157
30
0
41
1
10
0.552217513116528
20
-2.18043756005994
30
0
41
1
10
0.538509845873648
20
-2.22767148605951
30
0
41
1
10
0.524656565126506
20
-2.27324146432843
30
0
41
1
10
0.510675126701319
20
-2.31715572049936
30
0
41
1
10
0.496582501930469
20
-2.35942523089189
30
0
41
1
10
0.482123857636733
20
-2.40084064834256
30
0
41
1
10
0.467305660786892
20
-2.44131952461067
30
0
41
1
10
0.452135761416116
20
-2.48078035438164
30
0
41
1
10
0.436913373637545
20
-2.51847772183107
30
0
41
1
10
0.421655294879898
20
-2.55443801899566
30
0
41
1
10
0.406377586600272
20
-2.58868973950246
30
0
41
1
10
0.39138144658774
20
-2.62065390020362
30
0
41
1
10
0.3766859216359
20
-2.65045793855861
30
0
41
1
10
0.36230712652447
20
-2.67822631205426
30
0
41
1
10
0.347960080362956
20
-2.70458841051174
30
0
41
1
10
0.33365520856141
20
-2.72957420544501
30
0
41
1
10
0.318861380911788
20
-2.75411170332801
30
0
41
1
10
0.303586569264517
20
-2.77806769733136
30
0
41
1
10
0.287840495419019
20
-2.80130871985962
30
0
41
1
10
0.272194195028881
20
-2.82300171522415
30
0
41
1
10
0.256658134034168
20
-2.84319190117588
30
0
41
1
10
0.241241973332549
20
-2.86192474964554
30
0
41
1
10
0.225954614107625
20
-2.87924580342493
30
0
41
1
10
0.210804205113373
20
-2.89520055468032
30
0
41
1
10
0.195099987098725
20
-2.91051518573016
30
0
41
1
10
0.17885918413284
20
-2.92503282720632
30
0
41
1
10
0.162100940890149
20
-2.93859734146695
30
0
41
1
10
0.145557187424192
20
-2.95062719202876
30
0
41
1
10
0.129234948365749
20
-2.96118688023579
30
0
41
1
10
0.113140296979534
20
-2.97033972496568
30
0
41
1
10
0.0972784204139749
20
-2.97814772621209
30
0
41
1
10
0.081146800990453
20
-2.98488310312337
30
0
41
1
10
0.0647640376731715
20
-2.99046696340118
30
0
41
1
10
0.0481495656041844
20
-2.99482423359389
30
0
41
1
10
0.0318331057622103
20
-2.99784941859348
30
0
41
1
10
0.0158159707868286
20
-2.99961412978893
30
0
41
1
10
0.0052386400717452
20
-2.99999997305832
30
0
41
1
10
0
20
-3
30
0
0
SPLINE
5
AF
100
AcDbEntity
8
1
62
256
6
ByLayer
370
18
48
1
60
0
100
AcDbSpline
70
4
71
3
72
41
73
37
40
0
40
0
40
0
40
0
40
0.029627265024441
40
0.0592769522494471
40
0.0889329917099582
40
0.118580483625338
40
0.148205906039809
40
0.178643861346222
40
0.209109071476981
40
0.2395825434905
40
0.270046099869591
40
0.300482666922532
40
0.330131505625186
40
0.359806892850423
40
0.389490941095571
40
0.41916588079161
40
0.448814343811554
40
0.479393890793014
40
0.510002430010132
40
0.540620967941469
40
0.571230034105815
40
0.60181002346264
40
0.630401715895793
40
0.659016151178878
40
0.687638609879522
40
0.716253810336324
40
0.74484614503993
40
0.774217372288133
40
0.803612044215951
40
0.833014987413871
40
0.86241044688149
40
0.891782335175603
40
0.918830760470015
40
0.945891010965592
40
0.972951393954304
40
1
40
1
40
1
40
1
41
1
10
4
20
2.70370116691913
30
0
41
1
10
3.99999780355262
20
2.71061650393839
30
0
41
1
10
4.00041771433
20
2.72421581683243
30
0
41
1
10
4.00231150534283
20
2.74391468046624
30
0
41
1
10
4.00549998852695
20
2.76289520500265
30
0
41
1
10
4.01000398277159
20
2.78113333751435
30
0
41
1
10
4.0159017695805
20
2.79877021227173
30
0
41
1
10
4.02327035049855
20
2.8157669845776
30
0
41
1
10
4.03216590344484
20
2.83210125906316
30
0
41
1
10
4.04253109218778
20
2.84761491560784
30
0
41
1
10
4.05437185087058
20
2.86229318199415
30
0
41
1
10
4.06758498395993
20
2.87600840668138
30
0
41
1
10
4.08214761575024
20
2.88878208369542
30
0
41
1
10
4.09800950565946
20
2.90065713910308
30
0
41
1
10
4.11528874295964
20
2.91175427503346
30
0
41
1
10
4.13396876644927
20
2.92207604125353
30
0
41
1
10
4.15425258580041
20
2.9317292381431
30
0
41
1
10
4.17619951672789
20
2.94069654165915
30
0
41
1
10
4.19983956893164
20
2.94898151675631
30
0
41
1
10
4.22491871245936
20
2.95651663124241
30
0
41
1
10
4.25139639539859
20
2.96332205049092
30
0
41
1
10
4.27864412391234
20
2.96928822050218
30
0
41
1
10
4.30654893338734
20
2.97449193183375
30
0
41
1
10
4.33498743904301
20
2.97901671142332
30
0
41
1
10
4.36455817396744
20
2.98300801864383
30
0
41
1
10
4.39521552811937
20
2.98649212260416
30
0
41
1
10
4.42721628670341
20
2.9895232669006
30
0
41
1
10
4.46057922127466
20
2.99211590127588
30
0
41
1
10
4.49530600091895
20
2.99429261550692
30
0
41
1
10
4.53105683479423
20
2.99606365150941
30
0
41
1
10
4.56777452651467
20
2.99746174721097
30
0
41
1
10
4.60442738922819
20
2.99849184258061
30
0
41
1
10
4.64090545949847
20
2.99921502701451
30
0
41
1
10
4.67710383885701
20
2.99968557700362
30
0
41
1
10
4.71400373972471
20
2.99994599525096
30
0
41
1
10
4.73904071761767
20
3.0000027562496
30
0
41
1
10
4.7516685226452
20
3
30
0
0
SPLINE
5
B0
100
AcDbEntity
8
1
62
256
6
ByLayer
370
18
48
1
60
0
100
AcDbSpline
70
4
71
3
72
41
73
37
40
0
40
0
40
0
40
0
40
0.0296931687186427
40
0.0594099235105271
40
0.0891342694110131
40
0.118850432741087
40
0.148543105001742
40
0.179069684221093
40
0.209623127360168
40
0.240185058752801
40
0.270737518239116
40
0.30126327173549
40
0.330968053006428
40
0.360698878092017
40
0.390438005074507
40
0.420168017804817
40
0.449872117149655
40
0.480497972829732
40
0.511153195167559
40
0.541818146476982
40
0.572473146269309
40
0.603098815119454
40
0.63184198913261
40
0.660608987477666
40
0.689384339862094
40
0.718152046790761
40
0.746895815593618
40
0.776452978500885
40
0.80603413050676
40
0.835624231235535
40
0.865207116173719
40
0.894765733694527
40
0.921068877440107
40
0.94738227757351
40
0.973696176212017
40
1
40
1
40
1
40
1
41
1
10
6.2483314773548
20
3
30
0
41
1
10
6.26219459827053
20
3.00000365661836
30
0
41
1
10
6.28966010111188
20
2.99993477167974
30
0
41
1
10
6.33006977479791
20
2.99961804337012
30
0
41
1
10
6.36963704339235
20
2.99904156793494
30
0
41
1
10
6.40830335475875
20
2.99817529003535
30
0
41
1
10
6.44637440557317
20
2.99697362134942
30
0
41
1
10
6.48378569290971
20
2.99538805332935
30
0
41
1
10
6.52047995809156
20
2.99336864674175
30
0
41
1
10
6.55607071826655
20
2.99089386544565
30
0
41
1
10
6.5904959490472
20
2.98792769555541
30
0
41
1
10
6.62341189597573
20
2.98446448255488
30
0
41
1
10
6.6548218144294
20
2.98047992249752
30
0
41
1
10
6.68475047458646
20
2.97596129497904
30
0
41
1
10
6.71345285958166
20
2.97084452237864
30
0
41
1
10
6.74088174113106
20
2.96510309459727
30
0
41
1
10
6.76727261792374
20
2.95864218481438
30
0
41
1
10
6.79255019685273
20
2.95140039050835
30
0
41
1
10
6.81666003010874
20
2.9433305007782
30
0
41
1
10
6.83932637681636
20
2.93448806613614
30
0
41
1
10
6.86051565172482
20
2.92485847481073
30
0
41
1
10
6.87980101060367
20
2.91463554573995
30
0
41
1
10
6.89727175397978
20
2.90385116036724
30
0
41
1
10
6.91304453424775
20
2.89255705726173
30
0
41
1
10
6.92749125375771
20
2.8805210441758
30
0
41
1
10
6.94060361695318
20
2.86774590013055
30
0
41
1
10
6.95248938401704
20
2.85410069101152
30
0
41
1
10
6.9631040219437
20
2.83954834560055
30
0
41
1
10
6.97242670113685
20
2.82407066360504
30
0
41
1
10
6.98037459555312
20
2.80781362178173
30
0
41
1
10
6.98695919694018
20
2.79079502324461
30
0
41
1
10
6.99200093102904
20
2.77367538384797
30
0
41
1
10
6.99568177005087
20
2.75655312805956
30
0
41
1
10
6.99818506116515
20
2.73952859955291
30
0
41
1
10
6.99967202473444
20
2.72193631365033
30
0
41
1
10
7.00000178603449
20
2.70984067375157
30
0
41
1
10
7
20
2.70370116691837
30
0
0
SPLINE
5
B1
100
AcDbEntity
8
1
62
256
6
ByLayer
370
18
48
1
60
0
100
AcDbSpline
70
4
71
3
72
41
73
37
40
0
40
0
40
0
40
0
40
0.0296272650244409
40
0.0592769522494467
40
0.088932991709958
40
0.118580483625338
40
0.148205906039809
40
0.178643861346223
40
0.209109071476979
40
0.239582543490498
40
0.270046099869589
40
0.300482666922529
40
0.330131505625186
40
0.359806892850422
40
0.38949094109557
40
0.419165880791611
40
0.448814343811554
40
0.479393890793019
40
0.510002430010134
40
0.540620967941475
40
0.571230034105821
40
0.601810023462648
40
0.630401715895804
40
0.659016151178887
40
0.687638609879531
40
0.716253810336333
40
0.744846145039938
40
0.774217372288142
40
0.803612044215956
40
0.833014987413879
40
0.862410446881497
40
0.89178233517561
40
0.91883076047002
40
0.945891010965595
40
0.972951393954305
40
1
40
1
40
1
40
1
41
1
10
7
20
-2.70370116691915
30
0
41
1
10
7.00000219644737
20
-2.71061650393841
30
0
41
1
10
6.99958228566998
20
-2.72421581683244
30
0
41
1
10
6.99768849465718
20
-2.74391468046626
30
0
41
1
10
6.99450001147304
20
-2.76289520500267
30
0
41
1
10
6.9899960172284
20
-2.78113333751437
30
0
41
1
10
6.9840982304195
20
-2.79877021227175
30
0
41
1
10
6.97672964950141
20
-2.81576698457761
30
0
41
1
10
6.96783409655517
20
-2.83210125906317
30
0
41
1
10
6.9574689078122
20
-2.84761491560785
30
0
41
1
10
6.94562814912942
20
-2.86229318199416
30
0
41
1
10
6.93241501604007
20
-2.87600840668139
30
0
41
1
10
6.91785238424973
20
-2.88878208369543
30
0
41
1
10
6.90199049434053
20
-2.90065713910309
30
0
41
1
10
6.88471125704034
20
-2.91175427503347
30
0
41
1
10
6.86603123355071
20
-2.92207604125354
30
0
41
1
10
6.84574741419959
20
-2.93172923814311
30
0
41
1
10
6.82380048327208
20
-2.94069654165916
30
0
41
1
10
6.80016043106833
20
-2.94898151675631
30
0
41
1
10
6.77508128754059
20
-2.95651663124242
30
0
41
1
10
6.74860360460136
20
-2.96332205049092
30
0
41
1
10
6.72135587608761
20
-2.96928822050218
30
0
41
1
10
6.69345106661259
20
-2.97449193183375
30
0
41
1
10
6.66501256095696
20
-2.97901671142332
30
0
41
1
10
6.6354418260325
20
-2.98300801864383
30
0
41
1
10
6.60478447188059
20
-2.98649212260417
30
0
41
1
10
6.57278371329656
20
-2.9895232669006
30
0
41
1
10
6.53942077872528
20
-2.99211590127588
30
0
41
1
10
6.50469399908101
20
-2.99429261550692
30
0
41
1
10
6.46894316520571
20
-2.99606365150941
30
0
41
1
10
6.43222547348529
20
-2.99746174721098
30
0
41
1
10
6.39557261077176
20
-2.99849184258061
30
0
41
1
10
6.35909454050148
20
-2.99921502701452
30
0
41
1
10
6.32289616114293
20
-2.99968557700362
30
0
41
1
10
6.28599626027528
20
-2.99994599525096
30
0
41
1
10
6.26095928238218
20
-3.0000027562496
30
0
41
1
10
6.24833147735475
20
-3
30
0
0
SPLINE
5
B2
100
AcDbEntity
8
1
62
256
6
ByLayer
370
18
48
1
60
0
100
AcDbSpline
70
4
71
3
72
41
73
37
40
0
40
0
40
0
40
0
40
0.0296931687186814
40
0.0594099235105932
40
0.0891342694111158
40
0.118850432741219
40
0.148543105001907
40
0.179069684221298
40
0.209623127360402
40
0.240185058753073
40
0.270737518239419
40
0.301263271735829
40
0.330968053006805
40
0.360698878092419
40
0.390438005074944
40
0.420168017805285
40
0.449872117150156
40
0.48049797283027
40
0.511153195168128
40
0.541818146477588
40
0.572473146269948
40
0.603098815120126
40
0.631841989133319
40
0.660608987478404
40
0.689384339862865
40
0.718152046791564
40
0.746895815594453
40
0.776452978501755
40
0.80603413050766
40
0.835624231236469
40
0.865207116174686
40
0.894765733695527
40
0.921068877440857
40
0.947382277574009
40
0.973696176212266
40
1
40
1
40
1
40
1
41
1
10
4.7516685226452
20
-3
30
0
41
1
10
4.73780540172946
20
-3.00000365661836
30
0
41
1
10
4.7103398988881
20
-2.99993477167975
30
0
41
1
10
4.66993022520209
20
-2.99961804337011
30
0
41
1
10
4.63036295660764
20
-2.99904156793494
30
0
41
1
10
4.59169664524125
20
-2.99817529003535
30
0
41
1
10
4.55362559442682
20
-2.99697362134941
30
0
41
1
10
4.51621430709027
20
-2.99538805332935
30
0
41
1
10
4.47952004190844
20
-2.99336864674175
30
0
41
1
10
4.44392928173345
20
-2.99089386544565
30
0
41
1
10
4.40950405095279
20
-2.98792769555541
30
0
41
1
10
4.37658810402429
20
-2.98446448255488
30
0
41
1
10
4.34517818557058
20
-2.98047992249752
30
0
41
1
10
4.31524952541355
20
-2.97596129497904
30
0
41
1
10
4.28654714041833
20
-2.97084452237864
30
0
41
1
10
4.25911825886894
20
-2.96510309459727
30
0
41
1
10
4.23272738207626
20
-2.95864218481438
30
0
41
1
10
4.20744980314726
20
-2.95140039050835
30
0
41
1
10
4.18333996989127
20
-2.9433305007782
30
0
41
1
10
4.16067362318364
20
-2.93448806613614
30
0
41
1
10
4.13948434827518
20
-2.92485847481073
30
0
41
1
10
4.12019898939634
20
-2.91463554573995
30
0
41
1
10
4.1027282460202
20
-2.90385116036724
30
0
41
1
10
4.08695546575226
20
-2.89255705726172
30
0
41
1
10
4.07250874624228
20
-2.8805210441758
30
0
41
1
10
4.0593963830468
20
-2.86774590013055
30
0
41
1
10
4.04751061598296
20
-2.85410069101152
30
0
41
1
10
4.03689597805628
20
-2.83954834560054
30
0
41
1
10
4.02757329886315
20
-2.82407066360504
30
0
41
1
10
4.01962540444687
20
-2.80781362178173
30
0
41
1
10
4.01304080305982
20
-2.79079502324461
30
0
41
1
10
4.00799906897098
20
-2.77367538384803
30
0
41
1
10
4.00431822994915
20
-2.75655312805974
30
0
41
1
10
4.0018149388349
20
-2.73952859955328
30
0
41
1
10
4.00032797526559
20
-2.72193631365089
30
0
41
1
10
3.99999821396553
20
-2.70984067375228
30
0
41
1
10
4
20
-2.70370116691915
30
0
0
SPLINE
5
B3
100
AcDbEntity
8
1
62
256
6
ByLayer
370
18
48
1
60
0
100
AcDbSpline
70
4
71
3
72
121
73
117
40
0
40
0
40
0
40
0
40
0.0087189385383906
40
0.0174421142978457
40
0.0261655837976403
40
0.0348849230832379
40
0.0436008530440413
40
0.0523203844173382
40
0.0610401927341947
40
0.0697565004991631
40
0.078982251501107
40
0.0882115777266326
40
0.0974412040732173
40
0.106667364487321
40
0.117591899966832
40
0.128521304951258
40
0.139451175331873
40
0.150376345720499
40
0.161296620999679
40
0.172220862629931
40
0.183145438898895
40
0.194066170666785
40
0.205555916006786
40
0.217049546198854
40
0.228543434743284
40
0.240033532499633
40
0.251232952993362
40
0.262435588931162
40
0.273638304277198
40
0.284837833085835
40
0.296037423914582
40
0.307240265865028
40
0.318442928776836
40
0.329642275390402
40
0.338955375805679
40
0.348272358973368
40
0.357589996376265
40
0.3669057369696
40
0.37621779480242
40
0.384531294273993
40
0.392853962521581
40
0.401178736391695
40
0.409500412767548
40
0.417815929400508
40
0.426124656551698
40
0.432351273201991
40
0.43858186206697
40
0.444811116978012
40
0.451035913368561
40
0.456163086634488
40
0.461297474609914
40
0.466432715541194
40
0.471564088953105
40
0.476688730435866
40
0.482131026748692
40
0.487591414508049
40
0.493059967957254
40
0.49852727362723
40
0.50398477715721
40
0.509425144426191
40
0.514853739053114
40
0.520294930628123
40
0.525745273860107
40
0.531198791086464
40
0.536647316776817
40
0.542080813249483
40
0.547601640434102
40
0.553127407767371
40
0.558656286491061
40
0.564184777208597
40
0.569707890655825
40
0.57678142838908
40
0.583858555794073
40
0.590936775651843
40
0.598011803807447
40
0.607814637273126
40
0.617622141400484
40
0.627430998981882
40
0.637235678899581
40
0.647029565353639
40
0.656826180693613
40
0.666623187948869
40
0.676417608977868
40
0.6866528894323
40
0.696890664312029
40
0.70712853977765
40
0.717363957427844
40
0.728415430248728
40
0.739469970569534
40
0.750524428363455
40
0.761575788616287
40
0.772628768853738
40
0.783685131637375
40
0.794741271030872
40
0.805793946551058
40
0.817289884854249
40
0.828790325011871
40
0.840290350753022
40
0.85178572371783
40
0.860695060678438
40
0.869606928882046
40
0.878518593745639
40
0.887427653344476
40
0.896339324451667
40
0.905254018790088
40
0.914168460556825
40
0.923079787129462
40
0.932377815621174
40
0.941679966287688
40
0.950981765314455
40
0.960279314081527
40
0.968220563046828
40
0.976166546273033
40
0.984113814033725
40
0.992059228413442
40
1
40
1
40
1
40
1
41
1
10
4
20
-2.70370116691915
30
0
41
1
10
4.00000435695344
20
-2.6964003650397
30
0
41
1
10
4.0004603531867
20
-2.68154880894268
30
0
41
1
10
4.00250432557262
20
-2.65851761780729
30
0
41
1
10
4.00585573874458
20
-2.63477109505975
30
0
41
1
10
4.01048270533963
20
-2.61033669121669
30
0
41
1
10
4.01635062135358
20
-2.58523409903456
30
0
41
1
10
4.02341897489234
20
-2.55948948840348
30
0
41
1
10
4.0316498286313
20
-2.53313010266185
30
0
41
1
10
4.04118800312282
20
-2.50565991629918
30
0
41
1
10
4.05207565999219
20
-2.47705940962496
30
0
41
1
10
4.06434682817764
20
-2.447318858004
30
0
41
1
10
4.07775420579285
20
-2.41700927224511
30
0
41
1
10
4.09314569822441
20
-2.38427150426102
30
0
41
1
10
4.11072488852499
20
-2.34901054133714
30
0
41
1
10
4.13068751946942
20
-2.31115012528557
30
0
41
1
10
4.1520118375989
20
-2.27267018647936
30
0
41
1
10
4.17463574518708
20
-2.23362685527427
30
0
41
1
10
4.19850815159197
20
-2.19405775086842
30
0
41
1
10
4.22358443892488
20
-2.15400409053876
30
0
41
1
10
4.24982171833818
20
-2.11350826450422
30
0
41
1
10
4.27765057466885
20
-2.07190658813412
30
0
41
1
10
4.30710116783715
20
-2.0292106681114
30
0
41
1
10
4.33820975036306
20
-1.98544482191552
30
0
41
1
10
4.3704475065618
20
-1.94138044229945
30
0
41
1
10
4.40350072325356
20
-1.89744449806628
30
0
41
1
10
4.43731263046287
20
-1.85368489353414
30
0
41
1
10
4.47184576704058
20
-1.81015548723034
30
0
41
1
10
4.50737960675183
20
-1.76653815094263
30
0
41
1
10
4.54390524879415
20
-1.72289000703961
30
0
41
1
10
4.58141828184068
20
-1.67925647023039
30
0
41
1
10
4.61994115359501
20
-1.63570537111136
30
0
41
1
10
4.65949259700837
20
-1.59231637892596
30
0
41
1
10
4.69781376512783
20
-1.55159351431684
30
0
41
1
10
4.73472371443752
20
-1.51354505376221
30
0
41
1
10
4.77008077248104
20
-1.47818076259164
30
0
41
1
10
4.80626096985656
20
-1.44317711699432
30
0
41
1
10
4.843293560695
20
-1.40862271425701
30
0
41
1
10
4.87986414780375
20
-1.37582228061501
30
0
41
1
10
4.91589672285485
20
-1.34476092295225
30
0
41
1
10
4.95135496698584
20
-1.3154691956716
30
0
41
1
10
4.9876949382405
20
-1.28688941539983
30
0
41
1
10
5.02495702806974
20
-1.25917495774213
30
0
41
1
10
5.06318403624767
20
-1.23248294031171
30
0
41
1
10
5.09914497875511
20
-1.2090887991671
30
0
41
1
10
5.13260887235025
20
-1.18880606328493
30
0
41
1
10
5.16336906257326
20
-1.17143465649054
30
0
41
1
10
5.1947933654041
20
-1.155061654392
30
0
41
1
10
5.22500209894714
20
-1.1407113095303
30
0
41
1
10
5.2538820514815
20
-1.12827804282461
30
0
41
1
10
5.2813168741664
20
-1.11761788985571
30
0
41
1
10
5.30920656354556
20
-1.10798785322734
30
0
41
1
10
5.33750559718749
20
-1.09949245782174
30
0
41
1
10
5.36676949075681
20
-1.09206421390815
30
0
41
1
10
5.39703766924862
20
-1.08594829618845
30
0
41
1
10
5.42828026179966
20
-1.08131085990266
30
0
41
1
10
5.45979865030373
20
-1.07828639396156
30
0
41
1
10
5.49144454550969
20
-1.07691865632806
30
0
41
1
10
5.52306873082027
20
-1.07724359169753
30
0
41
1
10
5.55454356532915
20
-1.07931118778416
30
0
41
1
10
5.58579493229948
20
-1.08314234127883
30
0
41
1
10
5.61678574513309
20
-1.08858905476884
30
0
41
1
10
5.64747074117692
20
-1.09555586635849
30
0
41
1
10
5.6777570442416
20
-1.10393169854517
30
0
41
1
10
5.70755283057504
20
-1.11360560627331
30
0
41
1
10
5.73696580649699
20
-1.12455345464982
30
0
41
1
10
5.76598248795226
20
-1.13669357020888
30
0
41
1
10
5.79463090061843
20
-1.14992060597475
30
0
41
1
10
5.82275238618846
20
-1.16407937915406
30
0
41
1
10
5.85033867861205
20
-1.17906390430847
30
0
41
1
10
5.87992923405336
20
-1.19625370725281
30
0
41
1
10
5.91137770556564
20
-1.21579862774442
30
0
41
1
10
5.94452798692673
20
-1.23782989487261
30
0
41
1
10
5.97693281183121
20
-1.26068485437417
30
0
41
1
10
6.01270207716616
20
-1.28727377100081
30
0
41
1
10
6.05156757805429
20
-1.31779190445682
30
0
41
1
10
6.09322582321016
20
-1.35240991204174
30
0
41
1
10
6.13377065523981
20
-1.38784285264419
30
0
41
1
10
6.17326414002855
20
-1.42391581655144
30
0
41
1
10
6.21178970419013
20
-1.46049157556598
30
0
41
1
10
6.24938395706298
20
-1.49749721402174
30
0
41
1
10
6.28609676532441
20
-1.53485963062291
30
0
41
1
10
6.32250250377195
20
-1.5730607723057
30
0
41
1
10
6.3585987800214
20
-1.61204035530508
30
0
41
1
10
6.3943565433807
20
-1.65175896264498
30
0
41
1
10
6.42926233285856
20
-1.69158944777706
30
0
41
1
10
6.46423317524692
20
-1.73253336444343
30
0
41
1
10
6.49920674991856
20
-1.77454197471187
30
0
41
1
10
6.53409707255955
20
-1.8175702954517
30
0
41
1
10
6.56801181321962
20
-1.86050429860115
30
0
41
1
10
6.60094159839395
20
-1.90329155208028
30
0
41
1
10
6.63287872988169
20
-1.94588602924928
30
0
41
1
10
6.66380028102708
20
-1.988250845828
30
0
41
1
10
6.69367532974006
20
-2.03033640310867
30
0
41
1
10
6.72285765300362
20
-2.07265209758165
30
0
41
1
10
6.75126774703352
20
-2.11514010486988
30
0
41
1
10
6.77880883463957
20
-2.15774098698508
30
0
41
1
10
6.80505882910137
20
-2.19984763676184
30
0
41
1
10
6.8280959668076
20
-2.23828786860971
30
0
41
1
10
6.84820908559754
20
-2.273156899395
30
0
41
1
10
6.86568083905888
20
-2.30457078580516
30
0
41
1
10
6.88225366944611
20
-2.33557765882361
30
0
41
1
10
6.89789635415186
20
-2.36615202452217
30
0
41
1
10
6.91257695746453
20
-2.39626963173182
30
0
41
1
10
6.92626258369591
20
-2.42590858043778
30
0
41
1
10
6.93891487606234
20
-2.45503647384629
30
0
41
1
10
6.95066326197064
20
-2.4840357606637
30
0
41
1
10
6.9614129727621
20
-2.51285141547972
30
0
41
1
10
6.9710651547459
20
-2.54142797617281
30
0
41
1
10
6.97942349414477
20
-2.56932557423987
30
0
41
1
10
6.98610023727652
20
-2.59518599956106
30
0
41
1
10
6.9912726193138
20
-2.61909818238394
30
0
41
1
10
6.99512817718049
20
-2.64116558961871
30
0
41
1
10
6.99791831659995
20
-2.66265640982517
30
0
41
1
10
6.99961766982806
20
-2.68354573587032
30
0
41
1
10
6.99999662397512
20
-2.69705240190232
30
0
41
1
10
7
20
-2.70370116691915
30
0
0
SPLINE
5
B4
100
AcDbEntity
8
1
62
256
6
ByLayer
370
18
48
1
60
0
100
AcDbSpline
70
4
71
3
72
121
73
117
40
0
40
0
40
0
40
0
40
0.0087189385383998
40
0.0174421142978642
40
0.0261655837976679
40
0.0348849230832748
40
0.0436008530440874
40
0.0523203844173934
40
0.0610401927342591
40
0.0697565004992367
40
0.0789822515011898
40
0.0882115777267246
40
0.0974412040733188
40
0.106667364487432
40
0.117591899966956
40
0.128521304951396
40
0.139451175332025
40
0.150376345720666
40
0.16129662099986
40
0.172220862630125
40
0.183145438899103
40
0.194066170667007
40
0.205555916007022
40
0.217049546199104
40
0.228543434743549
40
0.240033532499912
40
0.251232952993656
40
0.26243558893147
40
0.273638304277521
40
0.284837833086171
40
0.296037423914933
40
0.307240265865393
40
0.318442928777216
40
0.329642275390796
40
0.338955375806087
40
0.348272358973788
40
0.357589996376699
40
0.366905736970047
40
0.37621779480288
40
0.384531294274437
40
0.392853962522008
40
0.401178736392104
40
0.40950041276794
40
0.417815929400883
40
0.426124656552055
40
0.432351273202335
40
0.438581862067302
40
0.444811116978331
40
0.451035913368867
40
0.456163086634787
40
0.4612974746102
40
0.466432715541472
40
0.471564088953375
40
0.476688730436125
40
0.48213102674895
40
0.487591414508308
40
0.493059967957513
40
0.498527273627489
40
0.503984777157469
40
0.50942514442645
40
0.514853739053373
40
0.520294930628378
40
0.525745273860359
40
0.531198791086715
40
0.536647316777066
40
0.54208081324973
40
0.547601640434389
40
0.553127407767693
40
0.55865628649142
40
0.564184777208993
40
0.569707890656259
40
0.576781428389561
40
0.5838585557946
40
0.590936775652418
40
0.598011803808068
40
0.607814637273817
40
0.617622141401247
40
0.627430998982714
40
0.637235678900484
40
0.647029565354612
40
0.656826180694656
40
0.666623187949982
40
0.676417608979052
40
0.686652889433558
40
0.696890664313362
40
0.707128539779056
40
0.717363957429325
40
0.728415430250266
40
0.739469970571131
40
0.750524428365109
40
0.761575788617999
40
0.772628768855508
40
0.783685131639204
40
0.794741271032758
40
0.805793946553003
40
0.81728988485626
40
0.828790325013949
40
0.840290350755167
40
0.851785723720042
40
0.860695060680629
40
0.869606928884216
40
0.878518593747788
40
0.887427653346604
40
0.896339324453774
40
0.905254018792174
40
0.914168460558889
40
0.923079787131505
40
0.932377815623197
40
0.941679966289691
40
0.950981765316437
40
0.960279314083489
40
0.968220563048398
40
0.976166546274211
40
0.984113814034509
40
0.992059228413834
40
1
40
1
40
1
40
1
41
1
10
7
20
2.70370116691837
30
0
41
1
10
6.99999564304654
20
2.69640036503891
30
0
41
1
10
6.99953964681326
20
2.68154880894185
30
0
41
1
10
6.99749567442727
20
2.65851761780642
30
0
41
1
10
6.99414426125528
20
2.63477109505884
30
0
41
1
10
6.98951729466017
20
2.61033669121574
30
0
41
1
10
6.98364937864615
20
2.58523409903357
30
0
41
1
10
6.97658102510735
20
2.55948948840244
30
0
41
1
10
6.96835017136835
20
2.53313010266076
30
0
41
1
10
6.95881199687676
20
2.50565991629805
30
0
41
1
10
6.94792434000735
20
2.47705940962379
30
0
41
1
10
6.93565317182186
20
2.44731885800278
30
0
41
1
10
6.9222457942066
20
2.41700927224385
30
0
41
1
10
6.90685430177499
20
2.3842715042597
30
0
41
1
10
6.88927511147435
20
2.34901054133577
30
0
41
1
10
6.86931248052983
20
2.31115012528414
30
0
41
1
10
6.84798816240027
20
2.27267018647787
30
0
41
1
10
6.82536425481201
20
2.23362685527273
30
0
41
1
10
6.80149184840702
20
2.19405775086682
30
0
41
1
10
6.77641556107408
20
2.1540040905371
30
0
41
1
10
6.75017828166068
20
2.11350826450251
30
0
41
1
10
6.72234942532994
20
2.07190658813235
30
0
41
1
10
6.69289883216157
20
2.02921066810958
30
0
41
1
10
6.66179024963559
20
1.98544482191364
30
0
41
1
10
6.62955249343679
20
1.94138044229751
30
0
41
1
10
6.59649927674493
20
1.89744449806429
30
0
41
1
10
6.56268736953556
20
1.8536848935321
30
0
41
1
10
6.52815423295776
20
1.81015548722825
30
0
41
1
10
6.49262039324641
20
1.76653815094051
30
0
41
1
10
6.45609475120402
20
1.72289000703744
30
0
41
1
10
6.4185817181574
20
1.67925647022819
30
0
41
1
10
6.38005884640296
20
1.63570537110911
30
0
41
1
10
6.34050740298953
20
1.59231637892369
30
0
41
1
10
6.30218623486997
20
1.55159351431454
30
0
41
1
10
6.26527628556018
20
1.5135450537599
30
0
41
1
10
6.22991922751658
20
1.4781807625893
30
0
41
1
10
6.19373903014094
20
1.44317711699198
30
0
41
1
10
6.15670643930241
20
1.40862271425467
30
0
41
1
10
6.1201358521936
20
1.3758222806127
30
0
41
1
10
6.08410327714245
20
1.34476092295003
30
0
41
1
10
6.04864503301151
20
1.31546919566949
30
0
41
1
10
6.01230506175688
20
1.28688941539784
30
0
41
1
10
5.97504297192766
20
1.25917495774027
30
0
41
1
10
5.93681596374976
20
1.23248294030998
30
0
41
1
10
5.90085502124232
20
1.2090887991655
30
0
41
1
10
5.86739112764723
20
1.18880606328345
30
0
41
1
10
5.83663093742422
20
1.17143465648918
30
0
41
1
10
5.8052066345934
20
1.15506165439076
30
0
41
1
10
5.77499790105039
20
1.14071130952918
30
0
41
1
10
5.74611794851603
20
1.12827804282361
30
0
41
1
10
5.71868312583118
20
1.11761788985481
30
0
41
1
10
5.69079343645202
20
1.10798785322656
30
0
41
1
10
5.66249440281013
20
1.09949245782108
30
0
41
1
10
5.63323050924081
20
1.09206421390761
30
0
41
1
10
5.602962330749
20
1.08594829618803
30
0
41
1
10
5.57171973819796
20
1.08131085990236
30
0
41
1
10
5.54020134969388
20
1.07828639396139
30
0
41
1
10
5.50855545448792
20
1.07691865632802
30
0
41
1
10
5.47693126917736
20
1.07724359169763
30
0
41
1
10
5.4454564346685
20
1.07931118778438
30
0
41
1
10
5.41420506769821
20
1.08314234127917
30
0
41
1
10
5.38321425486462
20
1.08858905476929
30
0
41
1
10
5.35252925882087
20
1.09555586635905
30
0
41
1
10
5.32224295575622
20
1.10393169854583
30
0
41
1
10
5.29244716942287
20
1.11360560627406
30
0
41
1
10
5.26303419350088
20
1.12455345465067
30
0
41
1
10
5.23401751204554
20
1.13669357020985
30
0
41
1
10
5.20536909937922
20
1.14992060597589
30
0
41
1
10
5.17724761380906
20
1.16407937915536
30
0
41
1
10
5.14966132138534
20
1.17906390430994
30
0
41
1
10
5.1200707659439
20
1.19625370725447
30
0
41
1
10
5.08862229443147
20
1.21579862774627
30
0
41
1
10
5.05547201307024
20
1.23782989487468
30
0
41
1
10
5.02306718816562
20
1.26068485437645
30
0
41
1
10
4.98729792283051
20
1.28727377100333
30
0
41
1
10
4.94843242194221
20
1.31779190445963
30
0
41
1
10
4.90677417678616
20
1.35240991204486
30
0
41
1
10
4.86622934475633
20
1.38784285264763
30
0
41
1
10
4.82673585996744
20
1.42391581655519
30
0
41
1
10
4.78821029580567
20
1.46049157557003
30
0
41
1
10
4.75061604293269
20
1.49749721402609
30
0
41
1
10
4.7139032346711
20
1.53485963062756
30
0
41
1
10
4.6774974962234
20
1.57306077231064
30
0
41
1
10
4.64140121997383
20
1.61204035531031
30
0
41
1
10
4.60564345661438
20
1.6517589626505
30
0
41
1
10
4.57073766713641
20
1.69158944778287
30
0
41
1
10
4.53576682474795
20
1.73253336444949
30
0
41
1
10
4.50079325007626
20
1.77454197471817
30
0
41
1
10
4.46590292743524
20
1.8175702954582
30
0
41
1
10
4.43198818677516
20
1.86050429860785
30
0
41
1
10
4.39905840160082
20
1.90329155208716
30
0
41
1
10
4.36712127011309
20
1.94588602925633
30
0
41
1
10
4.33619971896772
20
1.98825084583522
30
0
41
1
10
4.30632467025478
20
2.03033640311605
30
0
41
1
10
4.27714234699126
20
2.07265209758917
30
0
41
1
10
4.24873225296143
20
2.11514010487756
30
0
41
1
10
4.22119116535545
20
2.15774098699291
30
0
41
1
10
4.19494117089375
20
2.1998476367698
30
0
41
1
10
4.17190403318769
20
2.23828786861769
30
0
41
1
10
4.15179091439798
20
2.2731568994029
30
0
41
1
10
4.13431916093691
20
2.30457078581288
30
0
41
1
10
4.11774633054995
20
2.33557765883114
30
0
41
1
10
4.10210364584448
20
2.36615202452952
30
0
41
1
10
4.08742304253208
20
2.39626963173897
30
0
41
1
10
4.07373741630098
20
2.42590858044473
30
0
41
1
10
4.06108512393483
20
2.45503647385304
30
0
41
1
10
4.04933673802681
20
2.48403576067024
30
0
41
1
10
4.03858702723564
20
2.51285141548605
30
0
41
1
10
4.02893484525214
20
2.54142797617892
30
0
41
1
10
4.02057650585357
20
2.56932557424576
30
0
41
1
10
4.0138997627222
20
2.59518599956638
30
0
41
1
10
4.00872738068534
20
2.61909818238835
30
0
41
1
10
4.00487182281903
20
2.64116558962193
30
0
41
1
10
4.00208168339984
20
2.66265640982724
30
0
41
1
10
4.00038233017191
20
2.68354573587132
30
0
41
1
10
4.00000337602485
20
2.69705240190262
30
0
41
1
10
4
20
2.70370116691913
30
0
0
LINE
5
70
100
AcDbEntity
8
1
62
256
6
ByLayer
370
18
48
1
60
0
100
AcDbLine
10
24
20
4.525
30
0
11
24
21
-4.525
31
0
39
0
210
0
220
0
230
1
0
LINE
5
72
100
AcDbEntity
8
SK1
62
256
6
ByLayer
370
18
48
1
60
0
100
AcDbLine
10
-99.5
20
8.025
30
0
11
-99.5
21
-8.025
31
0
39
0
210
0
220
0
230
1
0
LINE
5
74
100
AcDbEntity
8
SK1
62
256
6
ByLayer
370
18
48
1
60
0
100
AcDbLine
10
-98
20
8.025
30
0
11
0
21
8.025
31
0
39
0
210
0
220
0
230
1
0
LINE
5
75
100
AcDbEntity
8
1
62
256
6
ByLayer
370
18
48
1
60
0
100
AcDbLine
10
2.666094
20
3.525
30
0
11
22.5
21
3.525
31
0
39
0
210
0
220
0
230
1
0
LINE
5
76
100
AcDbEntity
8
1
62
256
6
ByLayer
370
18
48
1
60
0
100
AcDbLine
10
1.058399
20
9.525
30
0
11
2.666094
21
3.525
31
0
39
0
210
0
220
0
230
1
0
LINE
5
77
100
AcDbEntity
8
1
62
256
6
ByLayer
370
18
48
1
60
0
100
AcDbLine
10
2.666094
20
3.525
30
0
11
2.666094
21
-3.525
31
0
39
0
210
0
220
0
230
1
0
LINE
5
78
100
AcDbEntity
8
1
62
256
6
ByLayer
370
18
48
1
60
0
100
AcDbLine
10
2.666094
20
-3.525
30
0
11
1.058399
21
-9.525
31
0
39
0
210
0
220
0
230
1
0
LINE
5
79
100
AcDbEntity
8
1
62
256
6
ByLayer
370
18
48
1
60
0
100
AcDbLine
10
19
20
9.525
30
0
11
0
21
9.525
31
0
39
0
210
0
220
0
230
1
0
LINE
5
7A
100
AcDbEntity
8
SK1
62
256
6
ByLayer
370
18
48
1
60
0
100
AcDbLine
10
-98
20
-9.525
30
0
11
0
21
-9.525
31
0
39
0
210
0
220
0
230
1
0
LINE
5
7B
100
AcDbEntity
8
1
62
256
6
ByLayer
370
18
48
1
60
0
100
AcDbLine
10
2.666094
20
-3.525
30
0
11
22.5
21
-3.525
31
0
39
0
210
0
220
0
230
1
0
LINE
5
7C
100
AcDbEntity
8
1
62
256
6
ByLayer
370
18
48
1
60
0
100
AcDbLine
10
22.5
20
3.525
30
0
11
22.5
21
-3.525
31
0
39
0
210
0
220
0
230
1
0
LINE
5
7D
100
AcDbEntity
8
1
62
256
6
ByLayer
370
18
48
1
60
0
100
AcDbLine
10
22.5
20
3.525
30
0
11
23.75
21
4.775
31
0
39
0
210
0
220
0
230
1
0
LINE
5
7E
100
AcDbEntity
8
1
62
256
6
ByLayer
370
18
48
1
60
0
100
AcDbLine
10
23.75
20
-4.775
30
0
11
22.5
21
-3.525
31
0
39
0
210
0
220
0
230
1
0
LINE
5
7F
100
AcDbEntity
8
1
62
256
6
ByLayer
370
18
48
1
60
0
100
AcDbLine
10
23.75
20
-4.775
30
0
11
25.5
21
-3.025
31
0
39
0
210
0
220
0
230
1
0
LINE
5
80
100
AcDbEntity
8
1
62
256
6
ByLayer
370
18
48
1
60
0
100
AcDbLine
10
25.5
20
-3.025
30
0
11
25.5
21
3.025
31
0
39
0
210
0
220
0
230
1
0
LINE
5
81
100
AcDbEntity
8
1
62
256
6
ByLayer
370
18
48
1
60
0
100
AcDbLine
10
20.5
20
-8.025
30
0
11
0
21
-8.025
31
0
39
0
210
0
220
0
230
1
0
LINE
5
82
100
AcDbEntity
8
1
62
256
6
ByLayer
370
18
48
1
60
0
100
AcDbLine
10
20.5
20
8.025
30
0
11
24
21
4.525
31
0
39
0
210
0
220
0
230
1
0
LINE
5
83
100
AcDbEntity
8
1
62
256
6
ByLayer
370
18
48
1
60
0
100
AcDbLine
10
7
20
2.703701
30
0
11
7
21
9.525
31
0
39
0
210
0
220
0
230
1
0
LINE
5
84
100
AcDbEntity
8
1
62
256
6
ByLayer
370
18
48
1
60
0
100
AcDbLine
10
0
20
-8.025
30
0
11
-0.401924
21
-9.525
31
0
39
0
210
0
220
0
230
1
0
LINE
5
85
100
AcDbEntity
8
1
62
256
6
ByLayer
370
18
48
1
60
0
100
AcDbLine
10
6.248331
20
3
30
0
11
25.5
21
3
31
0
39
0
210
0
220
0
230
1
0
LINE
5
86
100
AcDbEntity
8
1
62
256
6
ByLayer
370
18
48
1
60
0
100
AcDbLine
10
0
20
8.025
30
0
11
0
21
3
31
0
39
0
210
0
220
0
230
1
0
LINE
5
87
100
AcDbEntity
8
1
62
256
6
ByLayer
370
18
48
1
60
0
100
AcDbLine
10
18.5
20
2.5
30
0
11
18.5
21
3.125
31
0
39
0
210
0
220
0
230
1
0
LINE
5
88
100
AcDbEntity
8
1
62
256
6
ByLayer
370
18
48
1
60
0
100
AcDbLine
10
0
20
-3
30
0
11
0
21
-8.025
31
0
39
0
210
0
220
0
230
1
0
LINE
5
89
100
AcDbEntity
8
1
62
256
6
ByLayer
370
18
48
1
60
0
100
AcDbLine
10
6.248331
20
-3
30
0
11
25.5
21
-3
31
0
39
0
210
0
220
0
230
1
0
LINE
5
8A
100
AcDbEntity
8
1
62
256
6
ByLayer
370
18
48
1
60
0
100
AcDbLine
10
-0.401924
20
9.525
30
0
11
0
21
8.025
31
0
39
0
210
0
220
0
230
1
0
LINE
5
8B
100
AcDbEntity
8
1
62
256
6
ByLayer
370
18
48
1
60
0
100
AcDbLine
10
7
20
-9.525
30
0
11
7
21
-2.703701
31
0
39
0
210
0
220
0
230
1
0
LINE
5
8C
100
AcDbEntity
8
1
62
256
6
ByLayer
370
18
48
1
60
0
100
AcDbLine
10
0
20
-3
30
0
11
4.751669
21
-3
31
0
39
0
210
0
220
0
230
1
0
LINE
5
8D
100
AcDbEntity
8
1
62
256
6
ByLayer
370
18
48
1
60
0
100
AcDbLine
10
0
20
-3
30
0
11
0
21
3
31
0
39
0
210
0
220
0
230
1
0
LINE
5
8E
100
AcDbEntity
8
1
62
256
6
ByLayer
370
18
48
1
60
0
100
AcDbLine
10
4
20
2.703701
30
0
11
4
21
9.525
31
0
39
0
210
0
220
0
230
1
0
LINE
5
8F
100
AcDbEntity
8
1
62
256
6
ByLayer
370
18
48
1
60
0
100
AcDbLine
10
4
20
-9.525
30
0
11
4
21
-2.703701
31
0
39
0
210
0
220
0
230
1
0
LINE
5
90
100
AcDbEntity
8
1
62
256
6
ByLayer
370
18
48
1
60
0
100
AcDbLine
10
0
20
3
30
0
11
4.751669
21
3
31
0
39
0
210
0
220
0
230
1
0
LINE
5
91
100
AcDbEntity
8
1
62
256
6
ByLayer
370
18
48
1
60
0
100
AcDbLine
10
18.5
20
-2.5
30
0
11
18.5
21
-3.125
31
0
39
0
210
0
220
0
230
1
0
LINE
5
92
100
AcDbEntity
8
SK1
62
256
6
ByLayer
370
18
48
1
60
0
100
AcDbLine
10
-99.5
20
-8.025
30
0
11
-98
21
-9.525
31
0
39
0
210
0
220
0
230
1
0
LINE
5
93
100
AcDbEntity
8
SK1
62
256
6
ByLayer
370
18
48
1
60
0
100
AcDbLine
10
-99.5
20
-8.025
30
0
11
-98
21
-8.025
31
0
39
0
210
0
220
0
230
1
0
LINE
5
94
100
AcDbEntity
8
SK1
62
256
6
ByLayer
370
18
48
1
60
0
100
AcDbLine
10
-98
20
-8.025
30
0
11
-98
21
-9.525
31
0
39
0
210
0
220
0
230
1
0
LINE
5
95
100
AcDbEntity
8
SK1
62
256
6
ByLayer
370
18
48
1
60
0
100
AcDbLine
10
-99.5
20
8.025
30
0
11
-98
21
8.025
31
0
39
0
210
0
220
0
230
1
0
LINE
5
96
100
AcDbEntity
8
SK1
62
256
6
ByLayer
370
18
48
1
60
0
100
AcDbLine
10
-98
20
9.525
30
0
11
-99.5
21
8.025
31
0
39
0
210
0
220
0
230
1
0
LINE
5
97
100
AcDbEntity
8
SK1
62
256
6
ByLayer
370
18
48
1
60
0
100
AcDbLine
10
-98
20
9.525
30
0
11
-98
21
8.025
31
0
39
0
210
0
220
0
230
1
0
LINE
5
98
100
AcDbEntity
8
1
62
256
6
ByLayer
370
18
48
1
60
0
100
AcDbLine
10
25.5
20
3.025
30
0
11
24
21
4.525
31
0
39
0
210
0
220
0
230
1
0
LINE
5
99
100
AcDbEntity
8
1
62
256
6
ByLayer
370
18
48
1
60
0
100
AcDbLine
10
23.75
20
4.775
30
0
11
19
21
9.525
31
0
39
0
210
0
220
0
230
1
0
LINE
5
9A
100
AcDbEntity
8
1
62
256
6
ByLayer
370
18
48
1
60
0
100
AcDbLine
10
-1.802582
20
0
30
0
11
0
21
3
31
0
39
0
210
0
220
0
230
1
0
LINE
5
9B
100
AcDbEntity
8
1
62
256
6
ByLayer
370
18
48
1
60
0
100
AcDbLine
10
0
20
-3
30
0
11
-1.802582
21
0
31
0
39
0
210
0
220
0
230
1
0
LINE
5
9C
100
AcDbEntity
8
SK1
62
256
6
ByLayer
370
18
48
1
60
0
100
AcDbLine
10
-98
20
8.025
30
0
11
-98
21
-8.025
31
0
39
0
210
0
220
0
230
1
0
LINE
5
9D
100
AcDbEntity
8
1
62
256
6
ByLayer
370
18
48
1
60
0
100
AcDbLine
10
20.5
20
-8.025
30
0
11
23.75
21
-4.775
31
0
39
0
210
0
220
0
230
1
0
LINE
5
9E
100
AcDbEntity
8
1
62
256
6
ByLayer
370
18
48
1
60
0
100
AcDbLine
10
19
20
-9.525
30
0
11
20.5
21
-8.025
31
0
39
0
210
0
220
0
230
1
0
LINE
5
9F
100
AcDbEntity
8
1
62
256
6
ByLayer
370
18
48
1
60
0
100
AcDbLine
10
24
20
4.525
30
0
11
23.75
21
4.775
31
0
39
0
210
0
220
0
230
1
0
LINE
5
A0
100
AcDbEntity
8
80
62
256
6
ByLayer
370
18
48
1
60
0
100
AcDbLine
10
0
20
0
30
0
11
-10
21
0
31
0
39
0
210
0
220
0
230
1
0
LINE
5
A1
100
AcDbEntity
8
81
62
256
6
ByLayer
370
18
48
1
60
0
100
AcDbLine
10
25.5
20
0
30
0
11
35.5
21
0
31
0
39
0
210
0
220
0
230
1
0
LINE
5
A2
100
AcDbEntity
8
SK1
62
256
6
ByLayer
370
18
48
1
60
0
100
AcDbLine
10
0
20
9.525
30
0
11
-98
21
9.525
31
0
39
0
210
0
220
0
230
1
0
LINE
5
A3
100
AcDbEntity
8
1
62
256
6
ByLayer
370
18
48
1
60
0
100
AcDbLine
10
0
20
8.025
30
0
11
20.5
21
8.025
31
0
39
0
210
0
220
0
230
1
0
LINE
5
A4
100
AcDbEntity
8
SK1
62
256
6
ByLayer
370
18
48
1
60
0
100
AcDbLine
10
0
20
-8.025
30
0
11
-98
21
-8.025
31
0
39
0
210
0
220
0
230
1
0
LINE
5
A5
100
AcDbEntity
8
1
62
256
6
ByLayer
370
18
48
1
60
0
100
AcDbLine
10
0
20
-9.525
30
0
11
19
21
-9.525
31
0
39
0
210
0
220
0
230
1
0
MTEXT
5
B5
100
AcDbEntity
8
SK6
62
256
6
ByLayer
370
18
48
1
60
0
100
AcDbMText
10
-50.211974
20
-19.392769
30
0
210
0
220
0
230
1
1
\W0.7293;CXS-12-06FN
40
3.175
41
0
44
1.084337
50
0
71
7
72
5
7
iso_b_vert
0
DIMENSION
5
C7
100
AcDbEntity
8
SK2
62
256
6
ByLayer
370
13
48
1
60
0
100
AcDbDimension
2
DimnDraft3D1
10
-103.388575
20
-9.525
30
0
11
-103.388575
21
0
31
0
70
32
71
5
72
1
41
1
210
0
220
0
230
1
3
Standard
100
AcDbAlignedDimension
13
-99.5875
23
9.525
33
0
14
-99.5875
24
-9.525
34
0
50
90
100
AcDbRotatedDimension
1001
ACAD
1000
DSTYLE
1002
{
1070
    74
1070
     0
1070
   279
1070
     0
1070
   172
1070
     1
1070
   173
1070
     1
1070
   340
1005
B6
1070
   271
1070
     1
1070
   272
1070
     2
1070
    77
1070
     1
1070
    73
1070
     0
1070
   171
1070
     3
1070
   274
1070
     4
1070
   177
1070
     7
1070
   176
1070
     7
1070
   178
1070
     7
1070
    78
1070
     8
1070
    48
1040
-0.005
1070
    41
1041
3.175
1070
   147
1041
1.75006
1070
    42
1041
1.5875
1070
    44
1041
3.175
1070
   140
1041
3.50012
1070
   343
1005
0
1070
   344
1005
0
1002
}
0
DIMENSION
5
D5
100
AcDbEntity
8
SK2
62
256
6
ByLayer
370
13
48
1
60
0
100
AcDbDimension
2
DimnDraft3D2
10
25.5
20
24.403694
30
0
11
-37
21
24.403694
31
0
70
32
71
5
72
1
41
1
210
0
220
0
230
1
3
Standard
100
AcDbAlignedDimension
13
-99.5
23
9.6125
33
0
14
25.5
24
-1.4125
34
0
50
0
100
AcDbRotatedDimension
1001
ACAD
1000
DSTYLE
1002
{
1070
   279
1070
     0
1070
   172
1070
     1
1070
   173
1070
     1
1070
   340
1005
B6
1070
   271
1070
     1
1070
   272
1070
     2
1070
    77
1070
     1
1070
    73
1070
     0
1070
   171
1070
     3
1070
   274
1070
     4
1070
   177
1070
     7
1070
   176
1070
     7
1070
   178
1070
     7
1070
    78
1070
     8
1070
    48
1040
-0.005
1070
    41
1041
3.175
1070
   147
1041
1.75006
1070
    42
1041
1.5875
1070
    44
1041
3.175
1070
   140
1041
3.50012
1070
   343
1005
0
1070
   344
1005
0
1002
}
0
DIMENSION
5
E4
100
AcDbEntity
8
2
62
256
6
ByLayer
370
13
48
1
60
0
100
AcDbDimension
2
DimnDraft3D3
10
0
20
15.229837
30
0
11
8.701897
21
15.229837
31
0
70
32
71
5
72
1
41
1
210
0
220
0
230
1
3
Standard
100
AcDbAlignedDimension
13
25.5
23
4.6125
33
0
14
0
24
9.6125
34
0
50
0
100
AcDbRotatedDimension
1001
ACAD
1000
DSTYLE
1002
{
1070
   279
1070
     0
1070
   172
1070
     1
1070
   173
1070
     1
1070
   340
1005
B6
1070
   271
1070
     1
1070
   272
1070
     2
1070
    77
1070
     1
1070
    73
1070
     0
1070
   171
1070
     3
1070
   274
1070
     4
1070
   177
1070
     7
1070
   176
1070
     7
1070
   178
1070
     7
1070
    78
1070
     8
1070
    48
1040
-0.005
1070
    41
1041
3.175
1070
   147
1041
1.75006
1070
    42
1041
1.5875
1070
    44
1041
3.175
1070
   140
1041
3.50012
1070
   343
1005
0
1070
   344
1005
0
1002
}
0
DIMENSION
5
F2
100
AcDbEntity
8
SK2
62
256
6
ByLayer
370
13
48
1
60
0
100
AcDbDimension
2
DimnDraft3D4
10
25.5
20
3.025
30
0
11
17.087705
21
-23.334076
31
0
70
34
71
5
72
1
41
1
210
0
220
0
230
1
3
Standard
100
AcDb2LineAngularDimension
13
20.5
23
-8.025
33
0
14
23.75
24
-4.775
34
0
15
25.5
25
-3.025
35
0
16
15.748267
26
-26.567765
36
0
40
0
0
ENDSEC
0
SECTION
2
OBJECTS
0
DICTIONARY
5
15c
330
0
100
AcDbDictionary
280
0
281
1
3
ACAD_GROUP
350
15d
3
ACAD_MLINESTYLE
350
15e
0
DICTIONARY
5
15d
330
0
100
AcDbDictionary
280
0
281
1
0
DICTIONARY
5
15e
330
0
100
AcDbDictionary
280
0
281
1
3
Standard
350
18
0
MLINESTYLE
5
18
330
15e
100
AcDbMlineStyle
2
Standard
70
0
3

62
256
51
90
52
90
71
2
49
-0.5
62
256
6
ByLayer
49
0.5
62
256
6
ByLayer
0
RASTERVARIABLES
5
14b
330

100
AcDbRasterVariables
90
0
70
1
71
1
72
1
0
ENDSEC
0
EOF
