0
SECTION
2
HEADER
9
$ACADVER
1
AC1015
9
$DWGCODEPAGE
3
ANSI_1252
9
$HANDSEED
5
1fb
9
$ANGBASE
50
0
9
$ANGDIR
70
0
9
$ATTMODE
70
1
9
$AUNITS
70
0
9
$AUPREC
70
0
9
$CECOLOR
62
256
9
$CELTSCALE
40
1
9
$CELTYPE
6
ByLayer
9
$CELWEIGHT
370
18
9
$CLAYER
8
0
9
$CMLJUST
70
0
9
$CMLSCALE
40
1
9
$CMLSTYLE
2
Standard
9
$DIMSTYLE
2
Standard
9
$TEXTSIZE
40
0.2
9
$TEXTSTYLE
7
Standard
9
$LUNITS
70
2
9
$LUPREC
70
4
9
$EXTNAMES
290
1
9
$INSUNITS
70
4
9
$LTSCALE
40
1
9
$LWDISPLAY
290
1
9
$PDMODE
70
0
9
$PDSIZE
40
0
9
$PLINEGEN
70
0
0
ENDSEC
0
SECTION
2
CLASSES
0
CLASS
1
RASTERVARIABLES
2
AcDbRasterVariables
3
ISM
90
0
280
0
281
0
0
ENDSEC
0
SECTION
2
TABLES
0
TABLE
2
VPORT
5
1f1
100
AcDbSymbolTable
0
VPORT
5
1
100
AcDbSymbolTableRecord
100
AcDbViewportTableRecord
2
*Active
70
0
10
0
20
0
11
1
21
1
12
-1
22
1
13
0
23
0
14
0.5
24
0.5
15
10
25
10
16
0
26
0
36
1
17
0
27
0
37
0
0
ENDTAB
0
TABLE
2
LTYPE
5
1f2
100
AcDbSymbolTable
0
LTYPE
5
14
100
AcDbSymbolTableRecord
100
AcDbLinetypeTableRecord
70
0
2
ByBlock
3

72
65
73
0
40
0
0
LTYPE
5
15
100
AcDbSymbolTableRecord
100
AcDbLinetypeTableRecord
70
0
2
ByLayer
3

72
65
73
0
40
0
0
LTYPE
5
16
100
AcDbSymbolTableRecord
100
AcDbLinetypeTableRecord
70
0
2
CONTINUOUS
3
Solid line
72
65
73
0
40
0
0
LTYPE
5
6A
100
AcDbSymbolTableRecord
100
AcDbLinetypeTableRecord
70
0
2
CENTER
3
____ _ ____ _ ____ _ ____
72
65
73
4
40
47.5
49
22
74
0
49
-8.5
74
0
49
8.5
74
0
49
-8.5
74
0
0
LTYPE
5
6B
100
AcDbSymbolTableRecord
100
AcDbLinetypeTableRecord
70
0
2
DASHED
3
__ __ __ __ __ __ __ __ __
72
65
73
2
40
25.72
49
12.86
74
0
49
-12.86
74
0
0
ENDTAB
0
TABLE
2
LAYER
5
1f3
100
AcDbSymbolTable
0
LAYER
5
10
100
AcDbSymbolTableRecord
100
AcDbLayerTableRecord
2
0
70
0
62
7
6
CONTINUOUS
290
1
370
-3
390
0
0
LAYER
5
6D
100
AcDbSymbolTableRecord
100
AcDbLayerTableRecord
2
80
70
0
62
-6
6
CONTINUOUS
290
1
370
-3
390
0
0
LAYER
5
6F
100
AcDbSymbolTableRecord
100
AcDbLayerTableRecord
2
81
70
0
62
-3
6
CONTINUOUS
290
1
370
-3
390
0
0
LAYER
5
71
100
AcDbSymbolTableRecord
100
AcDbLayerTableRecord
2
1
70
0
62
4
6
CONTINUOUS
290
1
370
-3
390
0
0
LAYER
5
B8
100
AcDbSymbolTableRecord
100
AcDbLayerTableRecord
2
4
70
0
62
-2
6
CENTER
290
1
370
-3
390
0
0
LAYER
5
148
100
AcDbSymbolTableRecord
100
AcDbLayerTableRecord
2
2
70
0
62
7
6
CONTINUOUS
290
1
370
-3
390
0
0
LAYER
5
1dd
100
AcDbSymbolTableRecord
100
AcDbLayerTableRecord
2
SK1
70
0
62
4
6
CONTINUOUS
290
1
370
-3
390
0
0
LAYER
5
1de
100
AcDbSymbolTableRecord
100
AcDbLayerTableRecord
2
SK4
70
0
62
2
6
CENTER
290
1
370
-3
390
0
0
LAYER
5
1df
100
AcDbSymbolTableRecord
100
AcDbLayerTableRecord
2
SK6
70
0
62
5
6
CONTINUOUS
290
1
370
-3
390
0
0
LAYER
5
1e0
100
AcDbSymbolTableRecord
100
AcDbLayerTableRecord
2
SK2
70
0
62
7
6
CONTINUOUS
290
1
370
-3
390
0
0
ENDTAB
0
TABLE
2
STYLE
5
1f4
100
AcDbSymbolTable
0
STYLE
5
11
100
AcDbSymbolTableRecord
100
AcDbTextStyleTableRecord
2
Standard
3
txt
70
0
71
0
40
0
41
1
42
0
50
0
0
STYLE
5
141
100
AcDbSymbolTableRecord
100
AcDbTextStyleTableRecord
2
iso_b_vert
3
simplex.shx
70
0
71
0
40
0
41
1
42
0
50
0
0
STYLE
5
142
100
AcDbSymbolTableRecord
100
AcDbTextStyleTableRecord
2
DWGDirectTextStyle
3
simplex
70
0
71
0
40
0
41
1
42
0
50
0
0
ENDTAB
0
TABLE
2
DIMSTYLE
5
1f5
100
AcDbSymbolTable
100
AcDbDimStyleTable
0
DIMSTYLE
105
27
100
AcDbSymbolTableRecord
100
AcDbDimStyleTableRecord
2
Standard
70
0
3
<>
41
0.18
42
0.0625
44
0.18
140
0.18
147
0.09
73
0
74
0
77
1
271
2
275
0
278
52
280
0
340
11
0
ENDTAB
0
TABLE
2
VIEW
5
1f6
100
AcDbSymbolTable
0
ENDTAB
0
TABLE
2
UCS
5
1f7
100
AcDbSymbolTable
0
ENDTAB
0
TABLE
2
APPID
5
1f8
100
AcDbSymbolTable
0
APPID
5
12
100
AcDbSymbolTableRecord
100
AcDbRegAppTableRecord
2
ACAD
70
0
0
ENDTAB
0
TABLE
2
BLOCK_RECORD
5
1f9
100
AcDbSymbolTable
0
BLOCK_RECORD
5
1F
100
AcDbSymbolTableRecord
100
AcDbBlockTableRecord
2
*Model_Space
340
0
70
0
0
BLOCK_RECORD
5
1B
100
AcDbSymbolTableRecord
100
AcDbBlockTableRecord
2
*Paper_Space
340
0
70
0
0
BLOCK_RECORD
5
23
100
AcDbSymbolTableRecord
100
AcDbBlockTableRecord
2
*Paper_Space0
340
0
70
0
0
BLOCK_RECORD
5
144
100
AcDbSymbolTableRecord
100
AcDbBlockTableRecord
2
DimnDraft3D11
340
0
70
0
0
BLOCK_RECORD
5
153
100
AcDbSymbolTableRecord
100
AcDbBlockTableRecord
2
DimnDraft3D2
340
0
70
0
0
BLOCK_RECORD
5
162
100
AcDbSymbolTableRecord
100
AcDbBlockTableRecord
2
_CLOSED
340
0
70
0
0
BLOCK_RECORD
5
169
100
AcDbSymbolTableRecord
100
AcDbBlockTableRecord
2
DimnDraft3D3
340
0
70
0
0
BLOCK_RECORD
5
177
100
AcDbSymbolTableRecord
100
AcDbBlockTableRecord
2
DimnDraft3D4
340
0
70
0
0
ENDTAB
0
ENDSEC
0
SECTION
2
BLOCKS
0
BLOCK
5
20
100
AcDbEntity
8
0
100
AcDbBlockBegin
2
*Model_Space
70
0
10
0
20
0
30
0
3
*Model_Space
0
ENDBLK
5
21
100
AcDbEntity
8
0
100
AcDbBlockEnd
0
BLOCK
5
1C
100
AcDbEntity
8
0
100
AcDbBlockBegin
2
*Paper_Space
70
0
10
0
20
0
30
0
3
*Paper_Space
0
ENDBLK
5
1D
100
AcDbEntity
8
0
100
AcDbBlockEnd
0
BLOCK
5
24
100
AcDbEntity
8
0
100
AcDbBlockBegin
2
*Paper_Space0
70
0
10
0
20
0
30
0
3
*Paper_Space0
0
ENDBLK
5
25
100
AcDbEntity
8
0
100
AcDbBlockEnd
0
BLOCK
5
145
100
AcDbEntity
8
0
100
AcDbBlockBegin
2
DimnDraft3D11
70
0
10
0
20
0
30
0
3
DimnDraft3D11
0
LINE
5
147
100
AcDbEntity
8
2
62
256
6
ByLayer
370
25
48
1
60
0
100
AcDbLine
10
51.5875
20
0
30
0
11
97.425
21
0
31
0
39
0
210
0
220
0
230
1
0
LINE
5
149
100
AcDbEntity
8
2
62
256
6
ByLayer
370
25
48
1
60
0
100
AcDbLine
10
81.5875
20
55
30
0
11
97.425
21
55
31
0
39
0
210
0
220
0
230
1
0
LINE
5
14A
100
AcDbEntity
8
2
62
256
6
ByLayer
370
25
48
1
60
0
100
AcDbLine
10
94.25
20
0
30
0
11
94.25
21
55
31
0
39
0
210
0
220
0
230
1
0
LINE
5
14B
100
AcDbEntity
8
2
62
256
6
ByLayer
370
25
48
1
60
0
100
AcDbLine
10
94.25
20
0
30
0
11
93.399261
21
3.174997
31
0
39
0
210
0
220
0
230
1
0
LINE
5
14C
100
AcDbEntity
8
2
62
256
6
ByLayer
370
25
48
1
60
0
100
AcDbLine
10
94.25
20
0
30
0
11
95.100739
21
3.175003
31
0
39
0
210
0
220
0
230
1
0
LINE
5
14D
100
AcDbEntity
8
2
62
256
6
ByLayer
370
25
48
1
60
0
100
AcDbLine
10
93.399261
20
3.174997
30
0
11
95.100739
21
3.175003
31
0
39
0
210
0
220
0
230
1
0
LINE
5
14E
100
AcDbEntity
8
2
62
256
6
ByLayer
370
25
48
1
60
0
100
AcDbLine
10
94.25
20
55
30
0
11
95.100739
21
51.825003
31
0
39
0
210
0
220
0
230
1
0
LINE
5
14F
100
AcDbEntity
8
2
62
256
6
ByLayer
370
25
48
1
60
0
100
AcDbLine
10
94.25
20
55
30
0
11
93.399261
21
51.824997
31
0
39
0
210
0
220
0
230
1
0
LINE
5
150
100
AcDbEntity
8
2
62
256
6
ByLayer
370
25
48
1
60
0
100
AcDbLine
10
95.100739
20
51.825003
30
0
11
93.399261
21
51.824997
31
0
39
0
210
0
220
0
230
1
0
MTEXT
5
151
100
AcDbEntity
8
2
62
256
6
ByLayer
370
13
48
1
60
0
100
AcDbMText
10
93.125
20
25.936842
30
0
210
0
220
0
230
1
1
\W0.6740;55
40
4.5
41
0
44
1.084337
50
90
71
7
72
5
7
iso_b_vert
0
ENDBLK
5
146
100
AcDbEntity
8
0
100
AcDbBlockEnd
0
BLOCK
5
15F
100
AcDbEntity
8
0
100
AcDbBlockBegin
2
DimnDraft3D2
70
0
10
0
20
0
30
0
3
DimnDraft3D2
0
MTEXT
5
154
100
AcDbEntity
8
SK2
62
256
6
ByLayer
370
13
48
1
60
0
100
AcDbMText
10
-58.875
20
-1.563158
30
0
210
0
220
0
230
1
1
\W0.6740;80
40
4.5
41
0
44
1.084337
50
90
71
7
72
5
7
iso_b_vert
0
LINE
5
156
100
AcDbEntity
8
SK2
62
256
6
ByLayer
370
13
48
1
60
0
100
AcDbLine
10
-1.5875
20
40
30
0
11
-60.925
21
40
31
0
39
0
210
0
220
0
230
1
0
LINE
5
157
100
AcDbEntity
8
SK2
62
256
6
ByLayer
370
13
48
1
60
0
100
AcDbLine
10
-1.5875
20
-40
30
0
11
-60.925
21
-40
31
0
39
0
210
0
220
0
230
1
0
LINE
5
158
100
AcDbEntity
8
SK2
62
256
6
ByLayer
370
13
48
1
60
0
100
AcDbLine
10
-57.75
20
40
30
0
11
-57.75
21
-40
31
0
39
0
210
0
220
0
230
1
0
LINE
5
159
100
AcDbEntity
8
SK2
62
256
6
ByLayer
370
13
48
1
60
0
100
AcDbLine
10
-57.75
20
40
30
0
11
-56.899261
21
36.825003
31
0
39
0
210
0
220
0
230
1
0
LINE
5
15A
100
AcDbEntity
8
SK2
62
256
6
ByLayer
370
13
48
1
60
0
100
AcDbLine
10
-57.75
20
40
30
0
11
-58.600739
21
36.824997
31
0
39
0
210
0
220
0
230
1
0
LINE
5
15B
100
AcDbEntity
8
SK2
62
256
6
ByLayer
370
13
48
1
60
0
100
AcDbLine
10
-56.899261
20
36.825003
30
0
11
-58.600739
21
36.824997
31
0
39
0
210
0
220
0
230
1
0
LINE
5
15C
100
AcDbEntity
8
SK2
62
256
6
ByLayer
370
13
48
1
60
0
100
AcDbLine
10
-57.75
20
-40
30
0
11
-58.600739
21
-36.825003
31
0
39
0
210
0
220
0
230
1
0
LINE
5
15D
100
AcDbEntity
8
SK2
62
256
6
ByLayer
370
13
48
1
60
0
100
AcDbLine
10
-57.75
20
-40
30
0
11
-56.899261
21
-36.824997
31
0
39
0
210
0
220
0
230
1
0
LINE
5
15E
100
AcDbEntity
8
SK2
62
256
6
ByLayer
370
13
48
1
60
0
100
AcDbLine
10
-58.600739
20
-36.825003
30
0
11
-56.899261
21
-36.824997
31
0
39
0
210
0
220
0
230
1
0
ENDBLK
5
160
100
AcDbEntity
8
0
100
AcDbBlockEnd
0
BLOCK
5
163
100
AcDbEntity
8
0
100
AcDbBlockBegin
2
_CLOSED
70
0
10
0
20
0
30
0
3
_CLOSED
0
LINE
5
165
100
AcDbEntity
8
0
62
256
6
ByLayer
370
-2
48
1
60
0
100
AcDbLine
10
-1
20
0.166667
30
0
11
0
21
0
31
0
39
0
210
0
220
0
230
1
0
LINE
5
166
100
AcDbEntity
8
0
62
256
6
ByLayer
370
-2
48
1
60
0
100
AcDbLine
10
0
20
0
30
0
11
-1
21
-0.166667
31
0
39
0
210
0
220
0
230
1
0
LINE
5
167
100
AcDbEntity
8
0
62
256
6
ByLayer
370
-2
48
1
60
0
100
AcDbLine
10
-1
20
0.166667
30
0
11
-1
21
-0.166667
31
0
39
0
210
0
220
0
230
1
0
LINE
5
168
100
AcDbEntity
8
0
62
256
6
ByLayer
370
-2
48
1
60
0
100
AcDbLine
10
0
20
0
30
0
11
-1
21
0
31
0
39
0
210
0
220
0
230
1
0
ENDBLK
5
164
100
AcDbEntity
8
0
100
AcDbBlockEnd
0
BLOCK
5
174
100
AcDbEntity
8
0
100
AcDbBlockBegin
2
DimnDraft3D3
70
0
10
0
20
0
30
0
3
DimnDraft3D3
0
MTEXT
5
16A
100
AcDbEntity
8
2
62
256
6
ByLayer
370
13
48
1
60
0
100
AcDbMText
10
38.436842
20
73.625
30
0
210
0
220
0
230
1
1
\W0.6740;80
40
4.5
41
0
44
1.084337
50
0
71
7
72
5
7
iso_b_vert
0
LINE
5
16B
100
AcDbEntity
8
2
62
256
6
ByLayer
370
13
48
1
60
0
100
AcDbLine
10
80
20
56.5875
30
0
11
80
21
75.675
31
0
39
0
210
0
220
0
230
1
0
LINE
5
16C
100
AcDbEntity
8
2
62
256
6
ByLayer
370
13
48
1
60
0
100
AcDbLine
10
0
20
41.5875
30
0
11
0
21
75.675
31
0
39
0
210
0
220
0
230
1
0
LINE
5
16D
100
AcDbEntity
8
2
62
256
6
ByLayer
370
13
48
1
60
0
100
AcDbLine
10
80
20
72.5
30
0
11
0
21
72.5
31
0
39
0
210
0
220
0
230
1
0
LINE
5
16E
100
AcDbEntity
8
2
62
256
6
ByLayer
370
13
48
1
60
0
100
AcDbLine
10
80
20
72.5
30
0
11
76.825003
21
71.649261
31
0
39
0
210
0
220
0
230
1
0
LINE
5
16F
100
AcDbEntity
8
2
62
256
6
ByLayer
370
13
48
1
60
0
100
AcDbLine
10
80
20
72.5
30
0
11
76.824997
21
73.350739
31
0
39
0
210
0
220
0
230
1
0
LINE
5
170
100
AcDbEntity
8
2
62
256
6
ByLayer
370
13
48
1
60
0
100
AcDbLine
10
76.825003
20
71.649261
30
0
11
76.824997
21
73.350739
31
0
39
0
210
0
220
0
230
1
0
LINE
5
171
100
AcDbEntity
8
2
62
256
6
ByLayer
370
13
48
1
60
0
100
AcDbLine
10
0
20
72.5
30
0
11
3.174997
21
73.350739
31
0
39
0
210
0
220
0
230
1
0
LINE
5
172
100
AcDbEntity
8
2
62
256
6
ByLayer
370
13
48
1
60
0
100
AcDbLine
10
0
20
72.5
30
0
11
3.175003
21
71.649261
31
0
39
0
210
0
220
0
230
1
0
LINE
5
173
100
AcDbEntity
8
2
62
256
6
ByLayer
370
13
48
1
60
0
100
AcDbLine
10
3.174997
20
73.350739
30
0
11
3.175003
21
71.649261
31
0
39
0
210
0
220
0
230
1
0
ENDBLK
5
175
100
AcDbEntity
8
0
100
AcDbBlockEnd
0
BLOCK
5
181
100
AcDbEntity
8
0
100
AcDbBlockBegin
2
DimnDraft3D4
70
0
10
0
20
0
30
0
3
DimnDraft3D4
0
MTEXT
5
178
100
AcDbEntity
8
2
62
256
6
ByLayer
370
13
48
1
60
0
100
AcDbMText
10
66.338658
20
60.210427
30
0
210
0
220
0
230
1
1
\W0.8292;95%%d0'
40
4.5
41
0
44
1.084337
50
47.5
71
7
72
5
7
iso_b_vert
0
LINE
5
179
100
AcDbEntity
8
2
62
256
6
ByLayer
370
13
48
1
60
0
100
AcDbLine
10
80
20
56.5875
30
0
11
80
21
70.677579
31
0
39
0
210
0
220
0
230
1
0
ARC
5
17A
100
AcDbEntity
8
2
62
256
6
ByLayer
370
13
48
1
60
0
100
AcDbCircle
39
0
10
80
20
55.108714
30
0
40
12.3938651100264
210
0
220
0
230
1
100
AcDbArc
50
90
51
185
0
LINE
5
17B
100
AcDbEntity
8
2
62
256
6
ByLayer
370
13
48
1
60
0
100
AcDbLine
10
80
20
67.502579
30
0
11
76.885595
21
66.451465
31
0
39
0
210
0
220
0
230
1
0
LINE
5
17C
100
AcDbEntity
8
2
62
256
6
ByLayer
370
13
48
1
60
0
100
AcDbLine
10
80
20
67.502579
30
0
11
76.777283
21
68.149491
31
0
39
0
210
0
220
0
230
1
0
LINE
5
17D
100
AcDbEntity
8
2
62
256
6
ByLayer
370
13
48
1
60
0
100
AcDbLine
10
76.885595
20
66.451465
30
0
11
76.777283
21
68.149491
31
0
39
0
210
0
220
0
230
1
0
LINE
5
17E
100
AcDbEntity
8
2
62
256
6
ByLayer
370
13
48
1
60
0
100
AcDbLine
10
67.653297
20
54.028518
30
0
11
66.727969
21
57.182583
31
0
39
0
210
0
220
0
230
1
0
LINE
5
17F
100
AcDbEntity
8
2
62
256
6
ByLayer
370
13
48
1
60
0
100
AcDbLine
10
67.653297
20
54.028518
30
0
11
68.428973
21
57.222689
31
0
39
0
210
0
220
0
230
1
0
LINE
5
180
100
AcDbEntity
8
2
62
256
6
ByLayer
370
13
48
1
60
0
100
AcDbLine
10
66.727969
20
57.182583
30
0
11
68.428973
21
57.222689
31
0
39
0
210
0
220
0
230
1
0
ENDBLK
5
182
100
AcDbEntity
8
0
100
AcDbBlockEnd
0
ENDSEC
0
SECTION
2
ENTITIES
0
ARC
5
CD
100
AcDbEntity
8
SK1
62
256
6
ByLayer
370
18
48
1
60
0
100
AcDbCircle
39
0
10
0.6
20
-29.6
30
0
40
1.00000000000001
210
0
220
0
230
-1
100
AcDbArc
50
113.578178
51
126.869898
0
ARC
5
CE
100
AcDbEntity
8
SK1
62
256
6
ByLayer
370
18
48
1
60
0
100
AcDbCircle
39
0
10
0.6
20
29.6
30
0
40
1.00000000000001
210
0
220
0
230
-1
100
AcDbArc
50
233.130102
51
246.421822
0
ARC
5
CF
100
AcDbEntity
8
1
62
256
6
ByLayer
370
18
48
1
60
0
100
AcDbCircle
39
0
10
-30.186138
20
40.8
30
0
40
0.8
210
0
220
0
230
-1
100
AcDbArc
50
195
51
270
0
ARC
5
D0
100
AcDbEntity
8
1
62
256
6
ByLayer
370
18
48
1
60
0
100
AcDbCircle
39
0
10
-30.186138
20
-40.8
30
0
40
0.8
210
0
220
0
230
-1
100
AcDbArc
50
90
51
125.659088
0
ELLIPSE
5
D1
100
AcDbEntity
8
1
62
256
6
ByLayer
370
18
48
1
60
0
100
AcDbEllipse
10
65.889226
20
35.753065
30
0
11
-2.4629619937508
21
2.46296199375078
31
0
210
0
220
0
230
1
40
0.989133
41
-2.93202769941748
42
-2.44346095279206
0
ELLIPSE
5
D2
100
AcDbEntity
8
1
62
256
6
ByLayer
370
18
48
1
60
0
100
AcDbEllipse
10
19.397702
20
4.063324
30
0
11
0.038169384824185
21
7.02575195461385
31
0
210
0
220
0
230
-1
40
0.081697
41
1.93186019911018
42
-2.76806060147071
0
ELLIPSE
5
D3
100
AcDbEntity
8
1
62
256
6
ByLayer
370
18
48
1
60
0
100
AcDbEllipse
10
19.397702
20
4.063324
30
0
11
0.038169384824185
21
7.02575195461385
31
0
210
0
220
0
230
-1
40
0.081697
41
-2.76806060147071
42
1.14233869045328
0
ELLIPSE
5
D4
100
AcDbEntity
8
1
62
256
6
ByLayer
370
18
48
1
60
0
100
AcDbEllipse
10
56.834298
20
0
30
0
11
25.5097722407957
21
40.1439368352582
31
0
210
0
220
0
230
-1
40
0.027352
41
2.92361817566802
42
3.12422700602563
0
ELLIPSE
5
D5
100
AcDbEntity
8
1
62
256
6
ByLayer
370
18
48
1
60
0
100
AcDbEllipse
10
65.905001
20
35.768841
30
0
11
2.56902083039036
21
-2.56902083039033
31
0
210
0
220
0
230
1
40
0.989133
41
0.294927802169947
42
0.698131700797727
0
ELLIPSE
5
D6
100
AcDbEntity
8
1
62
256
6
ByLayer
370
18
48
1
60
0
100
AcDbEllipse
10
66.687346
20
43.4976
30
0
11
-2.54558441227158
21
2.54558441227156
31
0
210
0
220
0
230
1
40
0.989133
41
0.69813170079773
42
0.987818694794842
0
ELLIPSE
5
D7
100
AcDbEntity
8
1
62
256
6
ByLayer
370
18
48
1
60
0
100
AcDbEllipse
10
69.944087
20
37.706069
30
0
11
0.0138248253326014
21
0.151738984042724
31
0
210
0
220
0
230
-1
40
0.08174
41
3.02056666818273
42
-1.68018678387204
0
ELLIPSE
5
D8
100
AcDbEntity
8
1
62
256
6
ByLayer
370
18
48
1
60
0
100
AcDbEllipse
10
30.763884
20
0
30
0
11
18.7348357595638
21
39.4834983055002
31
0
210
0
220
0
230
-1
40
0.341999
41
-2.98049364836085
42
-2.05364588642049
0
ELLIPSE
5
D9
100
AcDbEntity
8
1
62
256
6
ByLayer
370
18
48
1
60
0
100
AcDbEllipse
10
-6.763884
20
0
30
0
11
18.7348357595671
21
-39.4834983055043
31
0
210
0
220
0
230
-1
40
0.341999
41
-1.08794676716922
42
-0.161099005228935
0
ELLIPSE
5
DA
100
AcDbEntity
8
1
62
256
6
ByLayer
370
18
48
1
60
0
100
AcDbEllipse
10
21.499909
20
0
30
0
11
-2.44921270764475E-15
21
40
31
0
210
0
220
0
230
-1
40
0.087489
41
-2.84602344214365
42
-0.295569211446143
0
ELLIPSE
5
DB
100
AcDbEntity
8
1
62
256
6
ByLayer
370
18
48
1
60
0
100
AcDbEllipse
10
66.991219
20
36.855059
30
0
11
-2.48304899978685
21
2.48304899978683
31
0
210
0
220
0
230
1
40
0.989133
41
2.15643392726701
42
-2.44346095279207
0
ELLIPSE
5
DC
100
AcDbEntity
8
1
62
256
6
ByLayer
370
18
48
1
60
0
100
AcDbEllipse
10
-6.763884
20
0
30
0
11
18.7348357595643
21
39.4834983055008
31
0
210
0
220
0
230
-1
40
0.341999
41
0.161099005228947
42
1.08794676716929
0
ELLIPSE
5
DD
100
AcDbEntity
8
1
62
256
6
ByLayer
370
18
48
1
60
0
100
AcDbEllipse
10
69.357515
20
35.447878
30
0
11
0.149497441244717
21
-0.0122684579830764
31
0
210
0
220
0
230
1
40
0.112627
41
-1.66605064319162
42
-0.0836182062737215
0
ELLIPSE
5
DE
100
AcDbEntity
8
1
62
256
6
ByLayer
370
18
48
1
60
0
100
AcDbEllipse
10
66.932815
20
46.488763
30
0
11
-2.54558441227158
21
2.54558441227156
31
0
210
0
220
0
230
1
40
0.989133
41
0.408444706800609
42
0.698131700797724
0
ELLIPSE
5
DF
100
AcDbEntity
8
1
62
256
6
ByLayer
370
18
48
1
60
0
100
AcDbEllipse
10
32.962863
20
59.540083
30
0
11
0.422680526576837
21
-38.6853540521158
31
0
210
-1.24884919051635E-16
220
-4.03844374948056E-16
230
1
40
0.103392
41
-1.01804348649584
42
-0.105285673579038
0
ELLIPSE
5
E0
100
AcDbEntity
8
1
62
256
6
ByLayer
370
18
48
1
60
0
100
AcDbEllipse
10
66.20968
20
36.92767
30
0
11
2.48305212668336
21
-2.48305212668334
31
0
210
0
220
0
230
1
40
0.989133
41
-2.44346095279206
42
-0.760159379157103
0
ELLIPSE
5
E1
100
AcDbEntity
8
1
62
256
6
ByLayer
370
18
48
1
60
0
100
AcDbEllipse
10
30.763884
20
0
30
0
11
18.734835759563
21
-39.4834983054992
31
0
210
0
220
0
230
-1
40
0.341999
41
2.05364588642047
42
2.98049364836084
0
ELLIPSE
5
E2
100
AcDbEntity
8
1
62
256
6
ByLayer
370
18
48
1
60
0
100
AcDbEllipse
10
22.106961
20
5.162116
30
0
11
0.939589342090287
21
-2.31671575041703
31
0
210
0
220
0
230
1
40
0.080809
41
0
42
3.14159060918654
0
ELLIPSE
5
E3
100
AcDbEntity
8
1
62
256
6
ByLayer
370
18
48
1
60
0
100
AcDbEllipse
10
22.245509
20
5.218307
30
0
11
-0.883213981564867
21
2.17771280539201
31
0
210
0
220
0
230
1
40
0.080809
41
-3.0604986176253
42
-0.0811896384395187
0
ELLIPSE
5
E4
100
AcDbEntity
8
1
62
256
6
ByLayer
370
18
48
1
60
0
100
AcDbEllipse
10
63.473007
20
38.473007
30
0
11
0.841899011350236
21
-0.841899011350229
31
0
210
0
220
0
230
1
40
0.989133
41
-1.44485970503469
42
-0.698131700797739
0
ELLIPSE
5
E5
100
AcDbEntity
8
1
62
256
6
ByLayer
370
18
48
1
60
0
100
AcDbEllipse
10
70.814339
20
45.814339
30
0
11
-2.2450640302673
21
2.24506403026728
31
0
210
0
220
0
230
1
40
0.989133
41
-2.99230345281071
42
-2.54138678230454
0
ELLIPSE
5
E6
100
AcDbEntity
8
1
62
256
6
ByLayer
370
18
48
1
60
0
100
AcDbEllipse
10
70.814339
20
45.814339
30
0
11
-2.2450640302673
21
2.24506403026728
31
0
210
0
220
0
230
1
40
0.989133
41
-0.842864959066894
42
-0.149260359456587
0
ELLIPSE
5
E7
100
AcDbEntity
8
1
62
256
6
ByLayer
370
18
48
1
60
0
100
AcDbEllipse
10
77.042125
20
39.586553
30
0
11
0.841899011350236
21
-0.841899011350229
31
0
210
0
220
0
230
1
40
0.989133
41
-0.181340094449403
42
-3.81915090257117E-07
0
ELLIPSE
5
E8
100
AcDbEntity
8
1
62
256
6
ByLayer
370
18
48
1
60
0
100
AcDbEllipse
10
64.586553
20
52.042125
30
0
11
0.841899011350236
21
-0.841899011350229
31
0
210
0
220
0
230
1
40
0.989133
41
3.1415922716747
42
-2.96025332269628
0
ELLIPSE
5
E9
100
AcDbEntity
8
1
62
256
6
ByLayer
370
18
48
1
60
0
100
AcDbEllipse
10
71.338825
20
46.338825
30
0
11
2.11071374184185
21
-2.11071374184184
31
0
210
0
220
0
230
1
40
0.989133
41
-2.42007288082355
42
-1.78002222116909
0
ELLIPSE
5
EA
100
AcDbEntity
8
1
62
256
6
ByLayer
370
18
48
1
60
0
100
AcDbEllipse
10
70.490631
20
46.323745
30
0
11
2.33345237791562
21
-2.3334523779156
31
0
210
0
220
0
230
1
40
0.989133
41
-0.350373520213942
42
-1.34791595503622E-05
0
ELLIPSE
5
EB
100
AcDbEntity
8
1
62
256
6
ByLayer
370
18
48
1
60
0
100
AcDbEllipse
10
70.939479
20
45.106366
30
0
11
-2.33345237791562
21
2.3334523779156
31
0
210
0
220
0
230
1
40
0.989133
41
-7.39099485890817E-06
42
0.0962089000921046
0
ELLIPSE
5
EC
100
AcDbEntity
8
1
62
256
6
ByLayer
370
18
48
1
60
0
100
AcDbEllipse
10
71.27764
20
45.829386
30
0
11
-2.39355645431647
21
2.39355645431645
31
0
210
0
220
0
230
1
40
0.989133
41
-0.0183152737560478
42
0.073618790577961
0
ELLIPSE
5
ED
100
AcDbEntity
8
1
62
256
6
ByLayer
370
18
48
1
60
0
100
AcDbEllipse
10
57.061682
20
41.026769
30
0
11
-1.09955104474509
21
1.09955104474508
31
0
210
0
220
0
230
1
40
0.989133
41
-0.214803610393484
42
-0.0627299301801474
0
ELLIPSE
5
EE
100
AcDbEntity
8
1
62
256
6
ByLayer
370
18
48
1
60
0
100
AcDbEllipse
10
57.061682
20
41.026769
30
0
11
-1.09955104474509
21
1.09955104474508
31
0
210
0
220
0
230
1
40
0.989133
41
-2.98014910794614
42
-2.75225611799688
0
ELLIPSE
5
EF
100
AcDbEntity
8
1
62
256
6
ByLayer
370
18
48
1
60
0
100
AcDbEllipse
10
56.95772
20
40.922807
30
0
11
1.09955104474509
21
-1.09955104474508
31
0
210
0
220
0
230
1
40
0.989133
41
0.246481968554636
42
0.790861299489181
0
ELLIPSE
5
F0
100
AcDbEntity
8
1
62
256
6
ByLayer
370
18
48
1
60
0
100
AcDbEllipse
10
56.95772
20
40.922807
30
0
11
1.09955104474509
21
-1.09955104474508
31
0
210
0
220
0
230
1
40
0.989133
41
0.790861299489181
42
2.98683432075609
0
ELLIPSE
5
F1
100
AcDbEntity
8
1
62
256
6
ByLayer
370
18
48
1
60
0
100
AcDbEllipse
10
64.133164
20
39.133164
30
0
11
-0.841899011350236
21
0.84189901135023
31
0
210
0
220
0
230
1
40
0.989133
41
0.698131700797731
42
2.44346095279206
0
ELLIPSE
5
F2
100
AcDbEntity
8
1
62
256
6
ByLayer
370
18
48
1
60
0
100
AcDbEllipse
10
71.474495
20
46.474495
30
0
11
-2.2450640302673
21
2.24506403026728
31
0
210
0
220
0
230
1
40
0.989133
41
0
42
6.28318530717959
0
ELLIPSE
5
F3
100
AcDbEntity
8
1
62
256
6
ByLayer
370
18
48
1
60
0
100
AcDbEllipse
10
77.702281
20
40.246709
30
0
11
-0.841899011350236
21
0.84189901135023
31
0
210
0
220
0
230
1
40
0.989133
41
2.44346095279206
42
-2.44346095279206
0
ELLIPSE
5
F4
100
AcDbEntity
8
1
62
256
6
ByLayer
370
18
48
1
60
0
100
AcDbEllipse
10
78.815827
20
53.815827
30
0
11
-0.841899011350236
21
0.84189901135023
31
0
210
0
220
0
230
1
40
0.989133
41
-2.44346095279206
42
-0.698131700797735
0
ELLIPSE
5
F5
100
AcDbEntity
8
1
62
256
6
ByLayer
370
18
48
1
60
0
100
AcDbEllipse
10
65.246709
20
52.702281
30
0
11
-0.841899011350236
21
0.84189901135023
31
0
210
0
220
0
230
1
40
0.989133
41
-0.698131700797747
42
0.698131700797731
0
ELLIPSE
5
F6
100
AcDbEntity
8
1
62
256
6
ByLayer
370
18
48
1
60
0
100
AcDbEllipse
10
71.563249
20
45.730136
30
0
11
2.33345237791562
21
-2.3334523779156
31
0
210
0
220
0
230
1
40
0.989133
41
1.72881464488629
42
-2.60147927088347
0
ELLIPSE
5
F7
100
AcDbEntity
8
1
62
256
6
ByLayer
370
18
48
1
60
0
100
AcDbEllipse
10
71.114401
20
46.947515
30
0
11
-2.33345237791562
21
2.3334523779156
31
0
210
0
220
0
230
1
40
0.989133
41
1.72881464488629
42
-2.60147927088348
0
ELLIPSE
5
F8
100
AcDbEntity
8
1
62
256
6
ByLayer
370
18
48
1
60
0
100
AcDbEllipse
10
71.61523
20
45.782117
30
0
11
-1.97989898732234
21
1.97989898732233
31
0
210
0
220
0
230
1
40
0.989133
41
-1.39644557660542
42
0.523780950608246
0
ELLIPSE
5
F9
100
AcDbEntity
8
1
62
256
6
ByLayer
370
18
48
1
60
0
100
AcDbEllipse
10
71.390806
20
46.390806
30
0
11
-1.75716035124858
21
1.75716035124856
31
0
210
0
220
0
230
1
40
0.989133
41
0.739748345626888
42
1.52917968196572
0
ELLIPSE
5
FA
100
AcDbEntity
8
1
62
256
6
ByLayer
370
18
48
1
60
0
100
AcDbEllipse
10
71.390806
20
46.390806
30
0
11
-1.75716035124858
21
1.75716035124856
31
0
210
0
220
0
230
1
40
0.989133
41
-2.40184430796291
42
-1.61241297162406
0
ELLIPSE
5
FB
100
AcDbEntity
8
1
62
256
6
ByLayer
370
18
48
1
60
0
100
AcDbEllipse
10
71.338825
20
46.338825
30
0
11
2.11071374184185
21
-2.11071374184184
31
0
210
0
220
0
230
1
40
0.989133
41
0.721519772766245
42
1.54740825482636
0
ELLIPSE
5
FC
100
AcDbEntity
8
1
62
256
6
ByLayer
370
18
48
1
60
0
100
AcDbEllipse
10
71.166382
20
46.999495
30
0
11
1.97989898732234
21
-1.97989898732232
31
0
210
0
220
0
230
1
40
0.989133
41
-1.39644557660542
42
0.523780950608237
0
ELLIPSE
5
FD
100
AcDbEntity
8
1
62
256
6
ByLayer
370
18
48
1
60
0
100
AcDbEllipse
10
57.455177
20
41.420264
30
0
11
-1.09955104474509
21
1.09955104474508
31
0
210
0
220
0
230
1
40
0.989133
41
-1.70505856680028
42
-1.26200116159009
0
ELLIPSE
5
FE
100
AcDbEntity
8
1
62
256
6
ByLayer
370
18
48
1
60
0
100
AcDbEllipse
10
57.061682
20
41.026769
30
0
11
-1.09955104474509
21
1.09955104474508
31
0
210
0
220
0
230
1
40
0.989133
41
-2.30919871278669
42
-1.70505856680028
0
ELLIPSE
5
FF
100
AcDbEntity
8
1
62
256
6
ByLayer
370
18
48
1
60
0
100
AcDbEllipse
10
57.455177
20
41.420264
30
0
11
-1.09955104474509
21
1.09955104474508
31
0
210
0
220
0
230
1
40
0.989133
41
-0.657861015603721
42
-0.214803610393502
0
ELLIPSE
5
100
100
AcDbEntity
8
1
62
256
6
ByLayer
370
18
48
1
60
0
100
AcDbEllipse
10
57.455177
20
41.420264
30
0
11
-1.09955104474509
21
1.09955104474508
31
0
210
0
220
0
230
1
40
0.989133
41
-2.75225611799687
42
-2.30919871278669
0
ELLIPSE
5
101
100
AcDbEntity
8
1
62
256
6
ByLayer
370
18
48
1
60
0
100
AcDbEllipse
10
57.455177
20
41.420264
30
0
11
-1.09955104474509
21
1.09955104474508
31
0
210
0
220
0
230
1
40
0.989133
41
1.43653408678951
42
1.87959149199971
0
ELLIPSE
5
102
100
AcDbEntity
8
1
62
256
6
ByLayer
370
18
48
1
60
0
100
AcDbEllipse
10
57.455177
20
41.420264
30
0
11
-1.09955104474509
21
1.09955104474508
31
0
210
0
220
0
230
1
40
0.989133
41
2.48373163798612
42
2.9267890431963
0
ELLIPSE
5
103
100
AcDbEntity
8
1
62
256
6
ByLayer
370
18
48
1
60
0
100
AcDbEllipse
10
57.477528
20
41.442615
30
0
11
1.36287119209428
21
-1.36287119209427
31
0
210
0
220
0
230
1
40
0.989133
41
0
42
6.28318530717959
0
ELLIPSE
5
104
100
AcDbEntity
8
1
62
256
6
ByLayer
370
18
48
1
60
0
100
AcDbEllipse
10
57.061682
20
41.026769
30
0
11
-1.09955104474509
21
1.09955104474508
31
0
210
0
220
0
230
1
40
0.989133
41
-1.26200116159009
42
-0.657861015603712
0
ELLIPSE
5
105
100
AcDbEntity
8
1
62
256
6
ByLayer
370
18
48
1
60
0
100
AcDbEllipse
10
57.477528
20
41.442615
30
0
11
2.28749043713849
21
-2.28749043713847
31
0
210
0
220
0
230
1
40
0.989133
41
0
42
6.28318530717959
0
ELLIPSE
5
106
100
AcDbEntity
8
1
62
256
6
ByLayer
370
18
48
1
60
0
100
AcDbEllipse
10
57.455177
20
41.420264
30
0
11
-1.09955104474509
21
1.09955104474508
31
0
210
0
220
0
230
1
40
0.989133
41
0.389336535592904
42
0.832393940803102
0
POINT
5
6C
100
AcDbEntity
8
80
62
256
6
ByLayer
370
18
48
1
60
0
100
AcDbPoint
10
0
20
0
30
0
39
0
210
0
220
0
230
1
50
360
0
POINT
5
6E
100
AcDbEntity
8
81
62
256
6
ByLayer
370
18
48
1
60
0
100
AcDbPoint
10
80
20
55
30
0
39
0
210
0
220
0
230
1
50
360
0
POINT
5
70
100
AcDbEntity
8
1
62
256
6
ByLayer
370
18
48
1
60
0
100
AcDbPoint
10
0
20
0
30
0
39
0
210
0
220
0
230
1
50
360
0
SPLINE
5
107
100
AcDbEntity
8
SK1
62
256
6
ByLayer
370
18
48
1
60
0
100
AcDbSpline
70
4
71
3
72
13
73
9
40
0
40
0
40
0
40
0
40
0.239456135589009
40
0.368359721696198
40
0.499998983754881
40
0.631638415029938
40
0.760542467577528
40
1
40
1
40
1
40
1
41
1
10
-2.20000000000002
20
-27.520098663655
30
0
41
1
10
-2.19909198642051
20
-27.4940411875707
30
0
41
1
10
-2.19103284106734
20
-27.4566686032802
30
0
41
1
10
-2.16563592203033
20
-27.4104494295045
30
0
41
1
10
-2.13886378678811
20
-27.3791678756855
30
0
41
1
10
-2.10627712749329
20
-27.3540005055177
30
0
41
1
10
-2.05884064232893
20
-27.3309567030813
30
0
41
1
10
-2.02111030872433
20
-27.3247844480698
30
0
41
1
10
-1.99503997793931
20
-27.3251860880175
30
0
0
SPLINE
5
108
100
AcDbEntity
8
SK1
62
256
6
ByLayer
370
18
48
1
60
0
100
AcDbSpline
70
4
71
3
72
13
73
9
40
0
40
0
40
0
40
0
40
0.239457532427214
40
0.368361584976596
40
0.500001016252412
40
0.631640278310617
40
0.76054386441619
40
1
40
1
40
1
40
1
41
1
10
-1.99503997793931
20
27.3251860847967
30
0
41
1
10
-2.02111030872425
20
27.3247844448489
30
0
41
1
10
-2.05884064232879
20
27.3309566998601
30
0
41
1
10
-2.10627712749314
20
27.3540005022953
30
0
41
1
10
-2.13886378678799
20
27.3791678724619
30
0
41
1
10
-2.16563592203025
20
27.4104494262793
30
0
41
1
10
-2.19103284106728
20
27.4566686000527
30
0
41
1
10
-2.19909198642046
20
27.4940411843415
30
0
41
1
10
-2.20000000000002
20
27.5200986604247
30
0
0
SPLINE
5
109
100
AcDbEntity
8
SK1
62
256
6
ByLayer
370
18
48
1
60
0
100
AcDbSpline
70
4
71
2
72
6
73
3
40
0
40
0
40
0
40
1
40
1
40
1
41
1
10
-46.5
20
-26.3937603074471
30
0
41
1
10
-24.349999999999
20
-26.9499706126624
30
0
41
1
10
-2.19999999999999
20
-27.506180857905
30
0
0
SPLINE
5
10A
100
AcDbEntity
8
SK1
62
256
6
ByLayer
370
18
48
1
60
0
100
AcDbSpline
70
4
71
2
72
6
73
3
40
0
40
0
40
0
40
1
40
1
40
1
41
1
10
-2.20000000000002
20
27.5061808177903
30
0
41
1
10
-24.3499999999991
20
26.9499705725249
30
0
41
1
10
-46.5
20
26.3937602673102
30
0
0
SPLINE
5
10B
100
AcDbEntity
8
SK1
62
256
6
ByLayer
370
18
48
1
60
0
100
AcDbSpline
70
4
71
2
72
6
73
3
40
0
40
0
40
0
40
1
40
1
40
1
41
1
10
-1.99503997793931
20
-27.3251858139979
30
0
41
1
10
-1.19500843340731
20
-27.3452852646243
30
0
41
1
10
-0.394976888875306
20
-27.3653847152514
30
0
0
SPLINE
5
10C
100
AcDbEntity
8
SK1
62
256
6
ByLayer
370
18
48
1
60
0
100
AcDbSpline
70
4
71
2
72
6
73
3
40
0
40
0
40
0
40
1
40
1
40
1
41
1
10
-0.394976888875306
20
27.3653847121227
30
0
41
1
10
-1.19500843340731
20
27.3452852614966
30
0
41
1
10
-1.99503997793931
20
27.3251858108711
30
0
0
SPLINE
5
10D
100
AcDbEntity
8
SK1
62
256
6
ByLayer
370
18
48
1
60
0
100
AcDbSpline
70
4
71
2
72
6
73
3
40
0
40
0
40
0
40
1
40
1
40
1
41
1
10
-48
20
-25.5410840926423
30
0
41
1
10
-47.2499999994058
20
-25.9740938984544
30
0
41
1
10
-46.5
20
-26.4071037202261
30
0
0
SPLINE
5
10E
100
AcDbEntity
8
SK1
62
256
6
ByLayer
370
18
48
1
60
0
100
AcDbSpline
70
4
71
2
72
6
73
3
40
0
40
0
40
0
40
1
40
1
40
1
41
1
10
-46.5
20
26.4071037337151
30
0
41
1
10
-47.2499999994061
20
25.9740939119354
30
0
41
1
10
-48
20
25.5410841061086
30
0
0
SPLINE
5
10F
100
AcDbEntity
8
SK1
62
256
6
ByLayer
370
18
48
1
60
0
100
AcDbSpline
70
4
71
3
72
13
73
9
40
0
40
0
40
0
40
0
40
0.0857295369826618
40
0.198005380474991
40
0.371732843458553
40
0.570089085336024
40
0.789979779219624
40
1
40
1
40
1
40
1
41
1
10
-0.233446867549645
20
16.1821519646047
30
0
41
1
10
-0.235638695390236
20
16.4228801214887
30
0
41
1
10
-0.24062033081907
20
16.970903583193
30
0
41
1
10
-0.2494938396961
20
17.9644901706249
30
0
41
1
10
-0.260824969299563
20
19.1963091683615
30
0
41
1
10
-0.274501291063501
20
20.5964900939605
30
0
41
1
10
-0.288956431483456
20
21.9591679243641
30
0
41
1
10
-0.298799224575049
20
22.7888899650986
30
0
41
1
10
-0.303596570943938
20
23.1709990401761
30
0
0
SPLINE
5
110
100
AcDbEntity
8
SK1
62
256
6
ByLayer
370
18
48
1
60
0
100
AcDbSpline
70
4
71
2
72
6
73
3
40
0
40
0
40
0
40
1
40
1
40
1
41
1
10
-0.394976888875306
20
-27.3653849898141
30
0
41
1
10
-0.253753488684396
20
-27.3875086692794
30
0
41
1
10
-0.231121643653495
20
-27.369275914062
30
0
0
SPLINE
5
111
100
AcDbEntity
8
SK1
62
256
6
ByLayer
370
18
48
1
60
0
100
AcDbSpline
70
4
71
3
72
299
73
295
40
0
40
0
40
0
40
0
40
0.0016934324891266
40
0.0052026320465295
40
0.0087118316039324
40
0.0122210311613354
40
0.0157302307187383
40
0.0192394302761412
40
0.0227486298335441
40
0.0297670289483499
40
0.0367854280631558
40
0.0402946276205587
40
0.0438038271779616
40
0.0473130267353645
40
0.0508222262927674
40
0.0543314258501703
40
0.0578406254075732
40
0.0613498249649762
40
0.0648590245223791
40
0.0718774236371849
40
0.0753866231945878
40
0.0788958227519907
40
0.0824050223093936
40
0.0859142218667965
40
0.0894234214241994
40
0.0929326209816024
40
0.0964418205390053
40
0.0999510200964081
40
0.103460219653811
40
0.106969419211214
40
0.110478618768617
40
0.112233218547318
40
0.11398781832602
40
0.117497017883423
40
0.121006217440826
40
0.128024616555631
40
0.135043015670437
40
0.13855221522784
40
0.142061414785243
40
0.149079813900049
40
0.156098213014855
40
0.163116612129661
40
0.166625811687064
40
0.170135011244467
40
0.177153410359272
40
0.184171809474078
40
0.191190208588884
40
0.19820860770369
40
0.205227006818496
40
0.212245405933301
40
0.215754605490704
40
0.219263805048107
40
0.226282204162913
40
0.233300603277719
40
0.240319002392525
40
0.243828201949928
40
0.247337401507331
40
0.254355800622136
40
0.261374199736942
40
0.264883399294345
40
0.268392598851748
40
0.275410997966554
40
0.28242939708136
40
0.285938596638762
40
0.289447796196166
40
0.296466195310971
40
0.299975394868374
40
0.303484594425777
40
0.305239194204479
40
0.30699379398318
40
0.310502993540583
40
0.314012193097986
40
0.317521392655389
40
0.321030592212792
40
0.324539791770195
40
0.328048991327598
40
0.331558190885
40
0.335067390442403
40
0.338576589999806
40
0.345594989114612
40
0.349104188672015
40
0.352613388229418
40
0.356122587786821
40
0.359631787344224
40
0.363140986901627
40
0.36665018645903
40
0.373668585573835
40
0.380686984688641
40
0.384196184246044
40
0.387705383803447
40
0.39121458336085
40
0.394723782918253
40
0.398232982475656
40
0.401742182033059
40
0.405251381590462
40
0.408760581147865
40
0.412269780705267
40
0.41577898026267
40
0.419288179820073
40
0.422797379377476
40
0.426306578934879
40
0.429815778492282
40
0.433324978049685
40
0.436834177607088
40
0.438588777385789
40
0.440343377164491
40
0.443852576721894
40
0.447361776279297
40
0.449116376057998
40
0.450870975836699
40
0.454380175394102
40
0.456134775172804
40
0.457889374951505
40
0.458766674840856
40
0.459643974730207
40
0.461398574508908
40
0.46315317428761
40
0.464907774066311
40
0.466662373845013
40
0.468416973623714
40
0.470171573402416
40
0.471048873291766
40
0.471926173181117
40
0.472803473070468
40
0.473680772959818
40
0.474558072849169
40
0.47543537273852
40
0.477189972517221
40
0.478067272406572
40
0.478944572295923
40
0.480699172074624
40
0.481576471963975
40
0.482453771853326
40
0.484208371632027
40
0.485085671521378
40
0.485962971410729
40
0.48771757118943
40
0.489472170968132
40
0.491226770746833
40
0.492104070636184
40
0.492981370525534
40
0.493858670414885
40
0.494735970304236
40
0.495613270193587
40
0.496490570082937
40
0.497367869972288
40
0.498245169861639
40
0.49912246975099
40
0.49999976964034
40
0.500877069529691
40
0.501754369419042
40
0.502631669308393
40
0.503508969197743
40
0.504386269087094
40
0.505263568976445
40
0.506140868865795
40
0.507018168755146
40
0.507895468644497
40
0.508772768533848
40
0.510527368312549
40
0.51228196809125
40
0.514036567869952
40
0.514913867759303
40
0.515791167648654
40
0.517545767427355
40
0.518423067316706
40
0.519300367206056
40
0.521054966984758
40
0.521932266874109
40
0.522809566763459
40
0.524564166542161
40
0.525441466431512
40
0.526318766320862
40
0.527196066210213
40
0.528073366099564
40
0.528950665988914
40
0.529827965878265
40
0.531582565656966
40
0.533337165435668
40
0.53509176521437
40
0.536846364993071
40
0.538600964771772
40
0.540355564550474
40
0.541232864439825
40
0.542110164329175
40
0.543864764107877
40
0.545619363886578
40
0.549128563443981
40
0.550883163222683
40
0.552637763001384
40
0.556146962558787
40
0.55965616211619
40
0.561410761894891
40
0.563165361673593
40
0.566674561230996
40
0.570183760788399
40
0.573692960345801
40
0.577202159903204
40
0.580711359460607
40
0.58422055901801
40
0.587729758575413
40
0.591238958132816
40
0.594748157690219
40
0.598257357247622
40
0.601766556805025
40
0.605275756362428
40
0.608784955919831
40
0.612294155477234
40
0.615803355034637
40
0.619312554592039
40
0.622821754149442
40
0.626330953706845
40
0.633349352821651
40
0.636858552379054
40
0.640367751936457
40
0.64387695149386
40
0.647386151051263
40
0.650895350608666
40
0.654404550166068
40
0.661422949280874
40
0.664932148838277
40
0.66844134839568
40
0.671950547953083
40
0.675459747510486
40
0.678968947067889
40
0.682478146625292
40
0.685987346182695
40
0.689496545740098
40
0.6930057452975
40
0.696514944854903
40
0.700024144412306
40
0.703533343969709
40
0.710551743084515
40
0.714060942641918
40
0.717570142199321
40
0.724588541314127
40
0.731606940428932
40
0.735116139986336
40
0.738625339543738
40
0.745643738658544
40
0.75266213777335
40
0.756171337330753
40
0.759680536888156
40
0.766698936002962
40
0.773717335117768
40
0.780735734232573
40
0.784244933789976
40
0.787754133347379
40
0.794772532462185
40
0.801790931576991
40
0.808809330691797
40
0.815827729806603
40
0.822846128921408
40
0.829864528036214
40
0.833373727593617
40
0.83688292715102
40
0.843901326265826
40
0.850919725380632
40
0.857938124495437
40
0.861447324052841
40
0.864956523610243
40
0.871974922725049
40
0.878993321839855
40
0.882502521397258
40
0.886011720954661
40
0.893030120069467
40
0.89653931962687
40
0.900048519184273
40
0.903557718741675
40
0.907066918299078
40
0.910576117856481
40
0.914085317413884
40
0.917594516971287
40
0.92110371652869
40
0.924612916086093
40
0.928122115643496
40
0.935140514758302
40
0.938649714315705
40
0.942158913873108
40
0.94566811343051
40
0.949177312987913
40
0.952686512545316
40
0.956195712102719
40
0.959704911660122
40
0.963214111217525
40
0.970232510332331
40
0.977250909447137
40
0.98076010900454
40
0.984269308561943
40
0.987778508119345
40
0.991287707676748
40
0.994796907234151
40
0.998306106791554
40
1
40
1
40
1
40
1
41
1
10
-48
20
25.5377836792283
30
0
41
1
10
-48
20
25.536975715312
30
0
41
1
10
-48
20
25.5340454800281
30
0
41
1
10
-48
20
25.526853527344
30
0
41
1
10
-48
20
25.5145008149315
30
0
41
1
10
-48
20
25.498546052428
30
0
41
1
10
-48
20
25.4790475285131
30
0
41
1
10
-48
20
25.4560605539616
30
0
41
1
10
-48
20
25.4206809385044
30
0
41
1
10
-48
20
25.3683435244347
30
0
41
1
10
-48
20
25.3050935983469
30
0
41
1
10
-48
20
25.2477155824513
30
0
41
1
10
-48
20
25.2016868330385
30
0
41
1
10
-48
20
25.152540227847
30
0
41
1
10
-48
20
25.1003164469937
30
0
41
1
10
-48.0000000000001
20
25.0450517289096
30
0
41
1
10
-48.0000000000001
20
24.9867824066374
30
0
41
1
10
-48.0000000000001
20
24.9255447176865
30
0
41
1
10
-48
20
24.839671739525
30
0
41
1
10
-48
20
24.7489365887333
30
0
41
1
10
-48
20
24.6515544180899
30
0
41
1
10
-48.0000000000001
20
24.5759533043403
30
0
41
1
10
-48
20
24.4975687629489
30
0
41
1
10
-48
20
24.4164276140701
30
0
41
1
10
-48
20
24.3325592473395
30
0
41
1
10
-48
20
24.2459871695686
30
0
41
1
10
-48
20
24.1567364141525
30
0
41
1
10
-48
20
24.0648340874221
30
0
41
1
10
-48
20
23.9703007183102
30
0
41
1
10
-48
20
23.8731600668768
30
0
41
1
10
-48
20
23.7902703050809
30
0
41
1
10
-48
20
23.7222924438482
30
0
41
1
10
-48.0000000000001
20
23.653458955013
30
0
41
1
10
-48.0000000000001
20
23.5663193127548
30
0
41
1
10
-48.0000000000001
20
23.4227344317565
30
0
41
1
10
-48
20
23.2380159335195
30
0
41
1
10
-48
20
23.0451147378601
30
0
41
1
10
-48
20
22.8850691532134
30
0
41
1
10
-48
20
22.7217969969802
30
0
41
1
10
-48.0000000000001
20
22.5128489113235
30
0
41
1
10
-48.0000000000001
20
22.2520665958364
30
0
41
1
10
-48.0000000000001
20
22.0275248400849
30
0
41
1
10
-48.0000000000001
20
21.8423074664778
30
0
41
1
10
-48.0000000000001
20
21.6540306628311
30
0
41
1
10
-48
20
21.4142718291048
30
0
41
1
10
-48
20
21.1168973606635
30
0
41
1
10
-48
20
20.8106419723679
30
0
41
1
10
-48
20
20.4956027387563
30
0
41
1
10
-48.0000000000001
20
20.1718725887445
30
0
41
1
10
-48.0000000000001
20
19.8955820016259
30
0
41
1
10
-48
20
19.6691006662323
30
0
41
1
10
-48.0000000000001
20
19.4397871520623
30
0
41
1
10
-48.0000000000001
20
19.1494103682019
30
0
41
1
10
-48
20
18.7917723606453
30
0
41
1
10
-48.0000000000001
20
18.4875640285875
30
0
41
1
10
-48
20
18.2387699032321
30
0
41
1
10
-48.0000000000001
20
17.9872478599777
30
0
41
1
10
-48.0000000000001
20
17.6694739204115
30
0
41
1
10
-48.0000000000001
20
17.3449849911693
30
0
41
1
10
-48.0000000000001
20
17.0799573159189
30
0
41
1
10
-48.0000000000001
20
16.8122724002143
30
0
41
1
10
-48.0000000000001
20
16.4745711156787
30
0
41
1
10
-48
20
16.1303137979014
30
0
41
1
10
-48.0000000000001
20
15.8494407221551
30
0
41
1
10
-48.0000000000001
20
15.5659773316764
30
0
41
1
10
-48.0000000000001
20
15.2813516937416
30
0
41
1
10
-48.0000000000001
20
14.9901200233614
30
0
41
1
10
-48.0000000000001
20
14.8075644243928
30
0
41
1
10
-48.0000000000001
20
14.6597110063681
30
0
41
1
10
-48.0000000000001
20
14.5112241351638
30
0
41
1
10
-48.0000000000001
20
14.3255230325429
30
0
41
1
10
-48.0000000000001
20
14.100206062781
30
0
41
1
10
-48.0000000000001
20
13.873009791985
30
0
41
1
10
-48.0000000000001
20
13.6439374060173
30
0
41
1
10
-48.0000000000001
20
13.4130051173935
30
0
41
1
10
-48
20
13.180217534584
30
0
41
1
10
-48.0000000000001
20
12.9455817705228
30
0
41
1
10
-48.0000000000001
20
12.7091124446062
30
0
41
1
10
-48
20
12.3902773743984
30
0
41
1
10
-48.0000000000001
20
12.0712141126493
30
0
41
1
10
-48.0000000000001
20
11.7450471308309
30
0
41
1
10
-48.0000000000001
20
11.499537429511
30
0
41
1
10
-48.0000000000001
20
11.2522509655355
30
0
41
1
10
-48
20
11.0031990533661
30
0
41
1
10
-48.0000000000001
20
10.7523971889996
30
0
41
1
10
-48.0000000000001
20
10.4143930662711
30
0
41
1
10
-48.0000000000001
20
9.99059437973423
30
0
41
1
10
-48.0000000000001
20
9.56108850247722
30
0
41
1
10
-48.0000000000001
20
9.21157829691109
30
0
41
1
10
-48.0000000000001
20
8.94892889623648
30
0
41
1
10
-48.0000000000001
20
8.68465969448138
30
0
41
1
10
-48.0000000000001
20
8.4187948937645
30
0
41
1
10
-48.0000000000001
20
8.15135843047148
30
0
41
1
10
-48.0000000000001
20
7.88237762223329
30
0
41
1
10
-48.0000000000001
20
7.61188258574538
30
0
41
1
10
-48.0000000000001
20
7.33990573648222
30
0
41
1
10
-48.0000000000001
20
7.06648317582798
30
0
41
1
10
-48.0000000000001
20
6.79165403169529
30
0
41
1
10
-48.0000000000001
20
6.51546273390827
30
0
41
1
10
-48.0000000000001
20
6.23795844891293
30
0
41
1
10
-48.0000000000001
20
5.95919386675249
30
0
41
1
10
-48.0000000000001
20
5.67923124039953
30
0
41
1
10
-48.0000000000001
20
5.39813608998185
30
0
41
1
10
-48.0000000000001
20
5.16409942590653
30
0
41
1
10
-48.0000000000001
20
4.97430334712459
30
0
41
1
10
-48.0000000000001
20
4.78423355976418
30
0
41
1
10
-48.0000000000001
20
4.54886462907325
30
0
41
1
10
-48.0000000000001
20
4.3127753468687
30
0
41
1
10
-48.0000000000001
20
4.12122851639978
30
0
41
1
10
-48.0000000000001
20
3.92953181194156
30
0
41
1
10
-48.0000000000001
20
3.74171250564348
30
0
41
1
10
-48.0000000000001
20
3.54939053469454
30
0
41
1
10
-48.0000000000001
20
3.43078723702681
30
0
41
1
10
-48.0000000000001
20
3.33452834177098
30
0
41
1
10
-48.0000000000001
20
3.2382707123468
30
0
41
1
10
-48.0000000000001
20
3.11968323888183
30
0
41
1
10
-48.0000000000001
20
2.97639725762417
30
0
41
1
10
-48.0000000000001
20
2.83312966280692
30
0
41
1
10
-48.0000000000001
20
2.68989995735709
30
0
41
1
10
-48.0000000000001
20
2.54673093615278
30
0
41
1
10
-48
20
2.42835340498931
30
0
41
1
10
-48.0000000000001
20
2.33210483961736
30
0
41
1
10
-48.0000000000001
20
2.2606353669438
30
0
41
1
10
-48.0000000000001
20
2.18920496049068
30
0
41
1
10
-48.0000000000001
20
2.11781396766753
30
0
41
1
10
-48.0000000000001
20
2.0464531873636
30
0
41
1
10
-48.0000000000001
20
1.95042373572568
30
0
41
1
10
-48.0000000000001
20
1.85738517673585
30
0
41
1
10
-48.0000000000001
20
1.76148268994552
30
0
41
1
10
-48
20
1.66566845968208
30
0
41
1
10
-48.0000000000001
20
1.5730056803805
30
0
41
1
10
-48.0000000000001
20
1.47735113591224
30
0
41
1
10
-48.0000000000001
20
1.38179732051373
30
0
41
1
10
-48.0000000000001
20
1.28954369165811
30
0
41
1
10
-48.0000000000001
20
1.19416572492486
30
0
41
1
10
-48.0000000000001
20
1.0989000573677
30
0
41
1
10
-48.0000000000001
20
0.982452212115362
30
0
41
1
10
-48.0000000000001
20
0.841586183466262
30
0
41
1
10
-48.0000000000001
20
0.725505983440314
30
0
41
1
10
-48.0000000000001
20
0.630667457966041
30
0
41
1
10
-48.0000000000001
20
0.560480352627536
30
0
41
1
10
-48.0000000000001
20
0.490320947144539
30
0
41
1
10
-48.0000000000001
20
0.420191796768421
30
0
41
1
10
-48.0000000000001
20
0.350113667187799
30
0
41
1
10
-48.0000000000001
20
0.280062256420109
30
0
41
1
10
-48.0000000000001
20
0.210017157782488
30
0
41
1
10
-48.0000000000001
20
0.139999797921973
30
0
41
1
10
-48.0000000000001
20
0.0700069276307715
30
0
41
1
10
-48.0000000000001
20
4.76035211E-08
30
0
41
1
10
-48.0000000000001
20
-0.0700068522659194
30
0
41
1
10
-48.0000000000001
20
-0.139999771278383
30
0
41
1
10
-48.0000000000001
20
-0.210017192178896
30
0
41
1
10
-48.0000000000001
20
-0.280062327764455
30
0
41
1
10
-48.0000000000001
20
-0.350113717602767
30
0
41
1
10
-48.0000000000001
20
-0.420191773133013
30
0
41
1
10
-48.0000000000001
20
-0.490320831948765
30
0
41
1
10
-48.0000000000001
20
-0.560480204117312
30
0
41
1
10
-48.0000000000001
20
-0.630667364061679
30
0
41
1
10
-48.0000000000001
20
-0.725506055183985
30
0
41
1
10
-48.0000000000001
20
-0.841586301072937
30
0
41
1
10
-48.0000000000001
20
-0.982452087600763
30
0
41
1
10
-48.0000000000001
20
-1.09889985434643
30
0
41
1
10
-48.0000000000001
20
-1.19416572065762
30
0
41
1
10
-48.0000000000001
20
-1.28954388060521
30
0
41
1
10
-48.0000000000001
20
-1.38179747741998
30
0
41
1
10
-48.0000000000001
20
-1.47735105462408
30
0
41
1
10
-48.0000000000001
20
-1.57300541448595
30
0
41
1
10
-48.0000000000001
20
-1.6656682660828
30
0
41
1
10
-48.0000000000001
20
-1.76148275667023
30
0
41
1
10
-48.0000000000001
20
-1.85738542747046
30
0
41
1
10
-48.0000000000001
20
-1.95042391104272
30
0
41
1
10
-48.0000000000001
20
-2.04645309751422
30
0
41
1
10
-48.0000000000001
20
-2.11781369872008
30
0
41
1
10
-48.0000000000001
20
-2.18920465457333
30
0
41
1
10
-48.0000000000001
20
-2.26063516689575
30
0
41
1
10
-48.0000000000001
20
-2.33210483720987
30
0
41
1
10
-48
20
-2.42835363712965
30
0
41
1
10
-48.0000000000001
20
-2.54673116818748
30
0
41
1
10
-48.0000000000001
20
-2.6898998235452
30
0
41
1
10
-48.0000000000001
20
-2.83312933609363
30
0
41
1
10
-48.0000000000001
20
-2.97639722386975
30
0
41
1
10
-48.0000000000001
20
-3.11968351915573
30
0
41
1
10
-48.0000000000001
20
-3.23827092858161
30
0
41
1
10
-48.0000000000001
20
-3.33452833265795
30
0
41
1
10
-48.0000000000001
20
-3.43078700052172
30
0
41
1
10
-48.0000000000001
20
-3.54939021067568
30
0
41
1
10
-48.0000000000001
20
-3.74171256557347
30
0
41
1
10
-48.0000000000001
20
-3.92953209444406
30
0
41
1
10
-48.0000000000001
20
-4.12122845571994
30
0
41
1
10
-48.0000000000001
20
-4.31277503954939
30
0
41
1
10
-48.0000000000001
20
-4.54886466434416
30
0
41
1
10
-48.0000000000001
20
-4.78423382727127
30
0
41
1
10
-48.0000000000001
20
-4.97430327353661
30
0
41
1
10
-48.0000000000001
20
-5.16409912297945
30
0
41
1
10
-48.0000000000001
20
-5.39813607390269
30
0
41
1
10
-48.0000000000001
20
-5.67923146024089
30
0
41
1
10
-48.0000000000001
20
-5.95919374753976
30
0
41
1
10
-48.0000000000001
20
-6.237958552018
30
0
41
1
10
-48.0000000000001
20
-6.51546317325878
30
0
41
1
10
-48.0000000000001
20
-6.7916534025982
30
0
41
1
10
-48.0000000000001
20
-7.06648207689204
30
0
41
1
10
-48.0000000000001
20
-7.33990643048307
30
0
41
1
10
-48.0000000000001
20
-7.61188395990189
30
0
41
1
10
-48.0000000000001
20
-7.88237631719022
30
0
41
1
10
-48.0000000000001
20
-8.15135709229654
30
0
41
1
10
-48.0000000000001
20
-8.41879605362203
30
0
41
1
10
-48.0000000000001
20
-8.68466042952301
30
0
41
1
10
-48
20
-8.94892880419638
30
0
41
1
10
-48
20
-9.21157805391903
30
0
41
1
10
-48.0000000000001
20
-9.47258829745542
30
0
41
1
10
-48.0000000000001
20
-9.73193781693988
30
0
41
1
10
-48.0000000000001
20
-10.0769274508059
30
0
41
1
10
-48.0000000000001
20
-10.414392862813
30
0
41
1
10
-48
20
-10.7523970809122
30
0
41
1
10
-48.0000000000001
20
-11.0031992619306
30
0
41
1
10
-48
20
-11.2522511703231
30
0
41
1
10
-48.0000000000001
20
-11.4995374559565
30
0
41
1
10
-48
20
-11.7450470242589
30
0
41
1
10
-48.0000000000001
20
-12.071214092427
30
0
41
1
10
-48.0000000000001
20
-12.3902774266109
30
0
41
1
10
-48.0000000000001
20
-12.7091123929266
30
0
41
1
10
-48.0000000000001
20
-12.9455818593716
30
0
41
1
10
-48.0000000000001
20
-13.180217502072
30
0
41
1
10
-48.0000000000001
20
-13.4130051102497
30
0
41
1
10
-48
20
-13.6439372705323
30
0
41
1
10
-48
20
-13.8730093523109
30
0
41
1
10
-48.0000000000001
20
-14.1002065298018
30
0
41
1
10
-48
20
-14.3255243550819
30
0
41
1
10
-48
20
-14.5489565829083
30
0
41
1
10
-48.0000000000001
20
-14.770489234737
30
0
41
1
10
-48.0000000000001
20
-14.9901189866895
30
0
41
1
10
-48
20
-15.2813524796291
30
0
41
1
10
-48
20
-15.5659774253293
30
0
41
1
10
-48
20
-15.849440649361
30
0
41
1
10
-48.0000000000001
20
-16.1303138068004
30
0
41
1
10
-48
20
-16.4745711051771
30
0
41
1
10
-48.0000000000001
20
-16.8122723965627
30
0
41
1
10
-48
20
-17.0799573317746
30
0
41
1
10
-48.0000000000001
20
-17.3449849938593
30
0
41
1
10
-48
20
-17.6694739164695
30
0
41
1
10
-48
20
-17.9872478593116
30
0
41
1
10
-48
20
-18.2387699128343
30
0
41
1
10
-48.0000000000001
20
-18.4875640333771
30
0
41
1
10
-48
20
-18.7917723547731
30
0
41
1
10
-48
20
-19.1494103733366
30
0
41
1
10
-48
20
-19.4397871566124
30
0
41
1
10
-48
20
-19.669100665748
30
0
41
1
10
-48.0000000000001
20
-19.895582003726
30
0
41
1
10
-48.0000000000001
20
-20.1718725940103
30
0
41
1
10
-48
20
-20.4956027399135
30
0
41
1
10
-48
20
-20.8106419777063
30
0
41
1
10
-48
20
-21.1168973616587
30
0
41
1
10
-48.0000000000001
20
-21.4142718340937
30
0
41
1
10
-48
20
-21.6540306704864
30
0
41
1
10
-48
20
-21.8423074648877
30
0
41
1
10
-48.0000000000001
20
-22.0275248431941
30
0
41
1
10
-48
20
-22.2520666060929
30
0
41
1
10
-48
20
-22.512848914255
30
0
41
1
10
-48
20
-22.7217969951794
30
0
41
1
10
-48
20
-22.8850691676056
30
0
41
1
10
-48
20
-23.0451147420465
30
0
41
1
10
-48
20
-23.2380159650749
30
0
41
1
10
-48
20
-23.4227343577602
30
0
41
1
10
-48
20
-23.56631942935
30
0
41
1
10
-48
20
-23.706527651766
30
0
41
1
10
-48
20
-23.8403627529258
30
0
41
1
10
-48
20
-23.9703009446161
30
0
41
1
10
-48
20
-24.0648335402233
30
0
41
1
10
-48
20
-24.1567363770153
30
0
41
1
10
-48
20
-24.245987247992
30
0
41
1
10
-48
20
-24.332559240169
30
0
41
1
10
-48
20
-24.4164275727652
30
0
41
1
10
-48
20
-24.4975687788098
30
0
41
1
10
-48
20
-24.5759532931461
30
0
41
1
10
-48
20
-24.6515543847243
30
0
41
1
10
-48
20
-24.7489365992493
30
0
41
1
10
-48
20
-24.8396716901457
30
0
41
1
10
-48
20
-24.9255447336429
30
0
41
1
10
-48
20
-24.9867823634066
30
0
41
1
10
-48
20
-25.0450517307762
30
0
41
1
10
-48
20
-25.100316444055
30
0
41
1
10
-48
20
-25.1525401455548
30
0
41
1
10
-48
20
-25.2016867590414
30
0
41
1
10
-48
20
-25.2477155324425
30
0
41
1
10
-48
20
-25.3050936187466
30
0
41
1
10
-48
20
-25.3683434953549
30
0
41
1
10
-48
20
-25.4206808727754
30
0
41
1
10
-48
20
-25.4560606117695
30
0
41
1
10
-48
20
-25.479047573671
30
0
41
1
10
-48
20
-25.498546049579
30
0
41
1
10
-48
20
-25.5145008161446
30
0
41
1
10
-48
20
-25.5268535709615
30
0
41
1
10
-48
20
-25.5340458818144
30
0
41
1
10
-48
20
-25.5369762250856
30
0
41
1
10
-48
20
-25.5377843212046
30
0
0
SPLINE
5
112
100
AcDbEntity
8
SK1
62
256
6
ByLayer
370
18
48
1
60
0
100
AcDbSpline
70
4
71
3
72
301
73
297
40
0
40
0
40
0
40
0
40
0.0031404641874811
40
0.0066149924094229
40
0.0100895206313647
40
0.0135640488533066
40
0.0170385770752484
40
0.0205131052971902
40
0.023987633519132
40
0.0274621617410738
40
0.0344112181849574
40
0.041360274628841
40
0.0448348028507828
40
0.0483093310727246
40
0.0517838592946664
40
0.0552583875166082
40
0.05873291573855
40
0.0622074439604918
40
0.0656819721824337
40
0.0691565004043755
40
0.0761055568482591
40
0.0795800850702009
40
0.0830546132921427
40
0.0865291415140845
40
0.0900036697360263
40
0.0934781979579681
40
0.0969527261799099
40
0.100427254401852
40
0.103901782623794
40
0.107376310845735
40
0.110850839067677
40
0.117799895511561
40
0.121274423733503
40
0.124748951955444
40
0.131698008399328
40
0.138647064843212
40
0.142121593065153
40
0.145596121287095
40
0.152545177730979
40
0.159494234174862
40
0.166443290618746
40
0.169917818840688
40
0.17339234706263
40
0.180341403506513
40
0.187290459950397
40
0.19423951639428
40
0.201188572838164
40
0.208137629282048
40
0.215086685725931
40
0.218561213947873
40
0.222035742169815
40
0.228984798613699
40
0.235933855057582
40
0.242882911501466
40
0.246357439723408
40
0.249831967945349
40
0.256781024389233
40
0.263730080833117
40
0.267204609055058
40
0.270679137277
40
0.277628193720884
40
0.284577250164767
40
0.288051778386709
40
0.291526306608651
40
0.298475363052535
40
0.301949891274477
40
0.305424419496418
40
0.30889894771836
40
0.312373475940302
40
0.315848004162244
40
0.319322532384186
40
0.322797060606127
40
0.326271588828069
40
0.329746117050011
40
0.333220645271953
40
0.336695173493895
40
0.340169701715836
40
0.34711875815972
40
0.350593286381662
40
0.354067814603603
40
0.357542342825545
40
0.361016871047487
40
0.364491399269429
40
0.367965927491371
40
0.374914983935254
40
0.378389512157196
40
0.381864040379138
40
0.38533856860108
40
0.388813096823022
40
0.392287625044963
40
0.395762153266905
40
0.399236681488847
40
0.402711209710789
40
0.406185737932731
40
0.409660266154672
40
0.413134794376614
40
0.416609322598556
40
0.420083850820498
40
0.42355837904244
40
0.427032907264381
40
0.430507435486323
40
0.433981963708265
40
0.437456491930207
40
0.439193756041178
40
0.440931020152149
40
0.444405548374091
40
0.447880076596032
40
0.449617340707003
40
0.451354604817974
40
0.454829133039916
40
0.456566397150887
40
0.458303661261858
40
0.459172293317343
40
0.460040925372829
40
0.4617781894838
40
0.46351545359477
40
0.465252717705741
40
0.466989981816712
40
0.468727245927683
40
0.470464510038654
40
0.47133314209414
40
0.472201774149625
40
0.47307040620511
40
0.473939038260596
40
0.474807670316081
40
0.475676302371567
40
0.477413566482538
40
0.478282198538023
40
0.479150830593509
40
0.48088809470448
40
0.481756726759965
40
0.48262535881545
40
0.484362622926421
40
0.485231254981907
40
0.486099887037392
40
0.487837151148363
40
0.489574415259334
40
0.491311679370305
40
0.49218031142579
40
0.493048943481276
40
0.493917575536761
40
0.494786207592247
40
0.495654839647732
40
0.496523471703218
40
0.497392103758703
40
0.498260735814189
40
0.499129367869674
40
0.499997999925159
40
0.500866631980645
40
0.50173526403613
40
0.502603896091616
40
0.503472528147101
40
0.504341160202587
40
0.505209792258072
40
0.506078424313558
40
0.506947056369043
40
0.507815688424529
40
0.508684320480014
40
0.510421584590985
40
0.512158848701956
40
0.513896112812927
40
0.514764744868412
40
0.515633376923898
40
0.517370641034869
40
0.518239273090354
40
0.519107905145839
40
0.52084516925681
40
0.521713801312296
40
0.522582433367781
40
0.524319697478752
40
0.525188329534238
40
0.526056961589723
40
0.526925593645208
40
0.527794225700694
40
0.528662857756179
40
0.529531489811665
40
0.531268753922636
40
0.533006018033607
40
0.534743282144577
40
0.536480546255548
40
0.538217810366519
40
0.53995507447749
40
0.540823706532976
40
0.541692338588461
40
0.543429602699432
40
0.545166866810403
40
0.548641395032345
40
0.550378659143316
40
0.552115923254287
40
0.555590451476228
40
0.55906497969817
40
0.560802243809141
40
0.562539507920112
40
0.566014036142054
40
0.569488564363996
40
0.572963092585937
40
0.576437620807879
40
0.579912149029821
40
0.583386677251763
40
0.586861205473705
40
0.590335733695646
40
0.593810261917588
40
0.59728479013953
40
0.600759318361472
40
0.604233846583414
40
0.607708374805355
40
0.611182903027297
40
0.614657431249239
40
0.618131959471181
40
0.625081015915064
40
0.632030072358948
40
0.63550460058089
40
0.638979128802832
40
0.642453657024774
40
0.645928185246715
40
0.649402713468657
40
0.652877241690599
40
0.659826298134483
40
0.663300826356424
40
0.666775354578366
40
0.670249882800308
40
0.67372441102225
40
0.677198939244192
40
0.680673467466133
40
0.684147995688075
40
0.687622523910017
40
0.691097052131959
40
0.69283431624293
40
0.694571580353901
40
0.698046108575842
40
0.701520636797784
40
0.708469693241668
40
0.71194422146361
40
0.715418749685552
40
0.722367806129435
40
0.729316862573319
40
0.73279139079526
40
0.736265919017202
40
0.743214975461086
40
0.75016403190497
40
0.753638560126911
40
0.757113088348853
40
0.764062144792737
40
0.77101120123662
40
0.777960257680504
40
0.781434785902446
40
0.784909314124387
40
0.791858370568271
40
0.798807427012155
40
0.805756483456038
40
0.812705539899922
40
0.819654596343806
40
0.826603652787689
40
0.830078181009631
40
0.833552709231573
40
0.840501765675456
40
0.84745082211934
40
0.854399878563224
40
0.857874406785165
40
0.861348935007107
40
0.868297991450991
40
0.875247047894875
40
0.878721576116816
40
0.882196104338758
40
0.883933368449729
40
0.8856706325607
40
0.889145160782642
40
0.892619689004584
40
0.896094217226525
40
0.899568745448467
40
0.903043273670409
40
0.906517801892351
40
0.909992330114293
40
0.913466858336234
40
0.916941386558176
40
0.920415914780118
40
0.92389044300206
40
0.930839499445943
40
0.934314027667885
40
0.937788555889827
40
0.941263084111769
40
0.944737612333711
40
0.948212140555653
40
0.951686668777594
40
0.955161196999536
40
0.958635725221478
40
0.965584781665362
40
0.972533838109245
40
0.976008366331187
40
0.979482894553129
40
0.98295742277507
40
0.986431950997012
40
0.989906479218954
40
0.993381007440896
40
0.996855535662838
40
1
40
1
40
1
40
1
41
1
10
-1.99503997793931
20
-27.325165419756
30
0
41
1
10
-1.99503997793931
20
-27.3252897682388
30
0
41
1
10
-1.99503997793931
20
-27.3243689938521
30
0
41
1
10
-1.99503997793928
20
-27.319236569139
30
0
41
1
10
-1.99503997793931
20
-27.3099684620727
30
0
41
1
10
-1.99503997793931
20
-27.2968118938473
30
0
41
1
10
-1.99503997793931
20
-27.2798390261951
30
0
41
1
10
-1.99503997793931
20
-27.2591194581005
30
0
41
1
10
-1.99503997793928
20
-27.2347185022954
30
0
41
1
10
-1.99503997793928
20
-27.197345231477
30
0
41
1
10
-1.99503997793931
20
-27.1417627098538
30
0
41
1
10
-1.99503997793931
20
-27.0746927526657
30
0
41
1
10
-1.99503997793931
20
-27.0143096332649
30
0
41
1
10
-1.99503997793931
20
-26.965737488626
30
0
41
1
10
-1.99503997793928
20
-26.9139106605824
30
0
41
1
10
-1.99503997793928
20
-26.8588742790416
30
0
41
1
10
-1.99503997793931
20
-26.8006684388868
30
0
41
1
10
-1.99503997793931
20
-26.7393343627507
30
0
41
1
10
-1.99503997793931
20
-26.6749108160321
30
0
41
1
10
-1.99503997793931
20
-26.5849135103433
30
0
41
1
10
-1.99503997793931
20
-26.4889678259812
30
0
41
1
10
-1.99503997793931
20
-26.3870356638969
30
0
41
1
10
-1.99503997793931
20
-26.307691573879
30
0
41
1
10
-1.99503997793931
20
-26.2254595012835
30
0
41
1
10
-1.99503997793931
20
-26.1403699560892
30
0
41
1
10
-1.99503997793931
20
-26.0524524072106
30
0
41
1
10
-1.99503997793931
20
-25.961732550658
30
0
41
1
10
-1.99503997793931
20
-25.8682384460152
30
0
41
1
10
-1.99503997793931
20
-25.7719963599905
30
0
41
1
10
-1.99503997793931
20
-25.6730299792935
30
0
41
1
10
-1.99503997793928
20
-25.5374379046987
30
0
41
1
10
-1.99503997793931
20
-25.396607276112
30
0
41
1
10
-1.99503997793934
20
-25.2503982620474
30
0
41
1
10
-1.99503997793931
20
-25.1007072668634
30
0
41
1
10
-1.99503997793931
20
-24.9072094682151
30
0
41
1
10
-1.99503997793931
20
-24.7052121640854
30
0
41
1
10
-1.99503997793931
20
-24.5385089830443
30
0
41
1
10
-1.99503997793931
20
-24.3684762369579
30
0
41
1
10
-1.99503997793931
20
-24.1498376513416
30
0
41
1
10
-1.99503997793931
20
-23.8776317176071
30
0
41
1
10
-1.99503997793931
20
-23.6427893382923
30
0
41
1
10
-1.99503997793931
20
-23.4500539432774
30
0
41
1
10
-1.99503997793934
20
-23.2541536051906
30
0
41
1
10
-1.99503997793931
20
-23.0034924093454
30
0
41
1
10
-1.99503997793931
20
-22.6933032821098
30
0
41
1
10
-1.99503997793931
20
-22.3738761877812
30
0
41
1
10
-1.99503997793934
20
-22.0453025545601
30
0
41
1
10
-1.99503997793931
20
-21.7076686178739
30
0
41
1
10
-1.99503997793931
20
-21.4188827033322
30
0
41
1
10
-1.99503997793934
20
-21.183296231241
30
0
41
1
10
-1.99503997793931
20
-20.9447536987916
30
0
41
1
10
-1.99503997793931
20
-20.641193176551
30
0
41
1
10
-1.99503997793931
20
-20.2680830241604
30
0
41
1
10
-1.99503997793934
20
-19.9499723474757
30
0
41
1
10
-1.99503997793934
20
-19.6910450149659
30
0
41
1
10
-1.99503997793934
20
-19.4292463860981
30
0
41
1
10
-1.99503997793934
20
-19.0967848636163
30
0
41
1
10
-1.99503997793934
20
-18.7572123771119
30
0
41
1
10
-1.99503997793934
20
-18.4811831142103
30
0
41
1
10
-1.99503997793934
20
-18.2023325900281
30
0
41
1
10
-1.99503997793934
20
-17.8486596771386
30
0
41
1
10
-1.99503997793934
20
-17.4879867114631
30
0
41
1
10
-1.99503997793934
20
-17.1951273582894
30
0
41
1
10
-1.99503997793934
20
-16.8994865286446
30
0
41
1
10
-1.99503997793934
20
-16.599923296746
30
0
41
1
10
-1.99503997793934
20
-16.2959645253135
30
0
41
1
10
-1.99503997793934
20
-16.0659886092784
30
0
41
1
10
-1.99503997793934
20
-15.8339451945693
30
0
41
1
10
-1.99503997793934
20
-15.5998376412757
30
0
41
1
10
-1.99503997793934
20
-15.3636701740732
30
0
41
1
10
-1.99503997793931
20
-15.1254443246959
30
0
41
1
10
-1.99503997793934
20
-14.8851633083158
30
0
41
1
10
-1.99503997793934
20
-14.6428305016925
30
0
41
1
10
-1.99503997793934
20
-14.3984468746313
30
0
41
1
10
-1.99503997793934
20
-14.1520156345789
30
0
41
1
10
-1.99503997793931
20
-13.903538977374
30
0
41
1
10
-1.99503997793934
20
-13.5694124056226
30
0
41
1
10
-1.99503997793934
20
-13.2315065874855
30
0
41
1
10
-1.99503997793934
20
-12.8892094092454
30
0
41
1
10
-1.99503997793934
20
-12.630529996325
30
0
41
1
10
-1.99503997793934
20
-12.3698136542137
30
0
41
1
10
-1.99503997793934
20
-12.1070624597528
30
0
41
1
10
-1.99503997793934
20
-11.8422771763273
30
0
41
1
10
-1.99503997793934
20
-11.4864047926357
30
0
41
1
10
-1.99503997793934
20
-11.126824066847
30
0
41
1
10
-1.99503997793934
20
-10.7628135122141
30
0
41
1
10
-1.99503997793934
20
-10.4878712580384
30
0
41
1
10
-1.99503997793934
20
-10.2109002476074
30
0
41
1
10
-1.99503997793934
20
-9.93190148567106
30
0
41
1
10
-1.99503997793934
20
-9.65087577167404
30
0
41
1
10
-1.99503997793934
20
-9.36782442184722
30
0
41
1
10
-1.99503997793934
20
-9.08274836934052
30
0
41
1
10
-1.99503997793934
20
-8.79565051892371
30
0
41
1
10
-1.99503997793934
20
-8.50653184364376
30
0
41
1
10
-1.99503997793934
20
-8.21539468387994
30
0
41
1
10
-1.99503997793934
20
-7.92224242464161
30
0
41
1
10
-1.99503997793934
20
-7.62707899667751
30
0
41
1
10
-1.99503997793934
20
-7.32990848936905
30
0
41
1
10
-1.99503997793934
20
-7.03073643509245
30
0
41
1
10
-1.99503997793934
20
-6.72956956222453
30
0
41
1
10
-1.99503997793934
20
-6.42641644899933
30
0
41
1
10
-1.99503997793934
20
-6.12128654405475
30
0
41
1
10
-1.99503997793934
20
-5.86547224264385
30
0
41
1
10
-1.99503997793934
20
-5.65966031194296
30
0
41
1
10
-1.99503997793934
20
-5.45320486068491
30
0
41
1
10
-1.99503997793934
20
-5.19417516976088
30
0
41
1
10
-1.99503997793934
20
-4.93354783719798
30
0
41
1
10
-1.99503997793934
20
-4.7238949146082
30
0
41
1
10
-1.99503997793934
20
-4.51362418453468
30
0
41
1
10
-1.99503997793937
20
-4.30279737234505
30
0
41
1
10
-1.99503997793934
20
-4.09068017699948
30
0
41
1
10
-1.99503997793934
20
-3.95788264175957
30
0
41
1
10
-1.99503997793934
20
-3.85130375742838
30
0
41
1
10
-1.99503997793934
20
-3.74458054435993
30
0
41
1
10
-1.99503997793934
20
-3.61106188513386
30
0
41
1
10
-1.99503997793937
20
-3.45032619783549
30
0
41
1
10
-1.99503997793934
20
-3.28917309238065
30
0
41
1
10
-1.99503997793937
20
-3.12761066714143
30
0
41
1
10
-1.99503997793937
20
-2.96564924759372
30
0
41
1
10
-1.99503997793937
20
-2.83043415716216
30
0
41
1
10
-1.99503997793937
20
-2.72193088426974
30
0
41
1
10
-1.99503997793934
20
-2.64052218961081
30
0
41
1
10
-1.99503997793934
20
-2.55902307088405
30
0
41
1
10
-1.99503997793934
20
-2.47743501265126
30
0
41
1
10
-1.99503997793937
20
-2.39575870345573
30
0
41
1
10
-1.99503997793934
20
-2.28665935771656
30
0
41
1
10
-1.99503997793937
20
-2.17765163493269
30
0
41
1
10
-1.99503997793934
20
-2.06822032104492
30
0
41
1
10
-1.99503997793934
20
-1.95868775414539
30
0
41
1
10
-1.99503997793934
20
-1.84927659960155
30
0
41
1
10
-1.99503997793934
20
-1.73944749852942
30
0
41
1
10
-1.99503997793934
20
-1.62953014673872
30
0
41
1
10
-1.99503997793937
20
-1.5197660469552
30
0
41
1
10
-1.99503997793934
20
-1.40959256793394
30
0
41
1
10
-1.99503997793934
20
-1.29934600948991
30
0
41
1
10
-1.99503997793934
20
-1.16162399896865
30
0
41
1
10
-1.99503997793934
20
-0.99604387184678
30
0
41
1
10
-1.99503997793934
20
-0.858021465650324
30
0
41
1
10
-1.99503997793934
20
-0.747348246925952
30
0
41
1
10
-1.99503997793934
20
-0.664391443726487
30
0
41
1
10
-1.99503997793937
20
-0.581404932400346
30
0
41
1
10
-1.99503997793934
20
-0.498392839537757
30
0
41
1
10
-1.99503997793937
20
-0.415360877837145
30
0
41
1
10
-1.99503997793934
20
-0.332310822055149
30
0
41
1
10
-1.99503997793937
20
-0.249244906780348
30
0
41
1
10
-1.99503997793934
20
-0.166169118100839
30
0
41
1
10
-1.99503997793934
20
-0.0830872457044336
30
0
41
1
10
-1.99503997793934
20
7.3694082E-09
30
0
41
1
10
-1.99503997793934
20
0.083087258687442
30
0
41
1
10
-1.99503997793937
20
0.16616912676011
30
0
41
1
10
-1.99503997793934
20
0.249244909992626
30
0
41
1
10
-1.99503997793937
20
0.332310821896385
30
0
41
1
10
-1.99503997793937
20
0.415360879438566
30
0
41
1
10
-1.99503997793934
20
0.498392847694362
30
0
41
1
10
-1.99503997793934
20
0.581404948836564
30
0
41
1
10
-1.99503997793934
20
0.664391463462891
30
0
41
1
10
-1.99503997793934
20
0.747348262111132
30
0
41
1
10
-1.99503997793934
20
0.858021466226461
30
0
41
1
10
-1.99503997793937
20
0.996043867302774
30
0
41
1
10
-1.99503997793934
20
1.16162401558282
30
0
41
1
10
-1.99503997793934
20
1.29934603509315
30
0
41
1
10
-1.99503997793934
20
1.40959257647995
30
0
41
1
10
-1.99503997793937
20
1.51976603752371
30
0
41
1
10
-1.99503997793937
20
1.62953013818887
30
0
41
1
10
-1.99503997793934
20
1.73944751085296
30
0
41
1
10
-1.99503997793934
20
1.84927662995435
30
0
41
1
10
-1.99503997793934
20
1.95868778076368
30
0
41
1
10
-1.99503997793934
20
2.06822032488085
30
0
41
1
10
-1.99503997793937
20
2.17765162048642
30
0
41
1
10
-1.99503997793934
20
2.28665934688649
30
0
41
1
10
-1.99503997793934
20
2.39575871579828
30
0
41
1
10
-1.99503997793934
20
2.47743504267538
30
0
41
1
10
-1.99503997793937
20
2.55902310675026
30
0
41
1
10
-1.99503997793937
20
2.64052221841842
30
0
41
1
10
-1.99503997793934
20
2.72193089625395
30
0
41
1
10
-1.99503997793934
20
2.83043414688214
30
0
41
1
10
-1.99503997793937
20
2.96564923158397
30
0
41
1
10
-1.99503997793937
20
3.12761068170508
30
0
41
1
10
-1.99503997793937
20
3.28917313145487
30
0
41
1
10
-1.99503997793934
20
3.45032621656426
30
0
41
1
10
-1.99503997793937
20
3.61106187073099
30
0
41
1
10
-1.99503997793934
20
3.74458052899689
30
0
41
1
10
-1.99503997793934
20
3.85130376069884
30
0
41
1
10
-1.99503997793934
20
3.95788266698418
30
0
41
1
10
-1.99503997793934
20
4.0906802174616
30
0
41
1
10
-1.99503997793934
20
4.30279738744869
30
0
41
1
10
-1.99503997793934
20
4.51362416489164
30
0
41
1
10
-1.99503997793937
20
4.72389491984225
30
0
41
1
10
-1.99503997793934
20
4.93354787471688
30
0
41
1
10
-1.99503997793934
20
5.194175192833
30
0
41
1
10
-1.99503997793934
20
5.45320484016275
30
0
41
1
10
-1.99503997793937
20
5.65966031743471
30
0
41
1
10
-1.99503997793934
20
5.86547227949208
30
0
41
1
10
-1.99503997793934
20
6.12128657453565
30
0
41
1
10
-1.99503997793934
20
6.4264164329453
30
0
41
1
10
-1.99503997793937
20
6.72956956969853
30
0
41
1
10
-1.99503997793934
20
7.03073644813685
30
0
41
1
10
-1.99503997793934
20
7.32990842680402
30
0
41
1
10
-1.99503997793937
20
7.62707900817011
30
0
41
1
10
-1.99503997793937
20
7.92224261249632
30
0
41
1
10
-1.99503997793934
20
8.21539474907743
30
0
41
1
10
-1.99503997793934
20
8.5065316633322
30
0
41
1
10
-1.99503997793934
20
8.79565052315382
30
0
41
1
10
-1.99503997793934
20
9.08274869992735
30
0
41
1
10
-1.99503997793934
20
9.36782441803413
30
0
41
1
10
-1.99503997793934
20
9.65087566691977
30
0
41
1
10
-1.99503997793934
20
9.93190145357084
30
0
41
1
10
-1.99503997793934
20
10.2109002581502
30
0
41
1
10
-1.99503997793934
20
10.5803285804451
30
0
41
1
10
-1.99503997793934
20
11.0367533786719
30
0
41
1
10
-1.99503997793934
20
11.4864047694406
30
0
41
1
10
-1.99503997793934
20
11.8422771919954
30
0
41
1
10
-1.99503997793934
20
12.1070624362612
30
0
41
1
10
-1.99503997793934
20
12.3698135917844
30
0
41
1
10
-1.99503997793934
20
12.6305299496176
30
0
41
1
10
-1.99503997793934
20
12.8892093803249
30
0
41
1
10
-1.99503997793934
20
13.2315065950277
30
0
41
1
10
-1.99503997793934
20
13.5694123671834
30
0
41
1
10
-1.99503997793934
20
13.9035389822172
30
0
41
1
10
-1.99503997793934
20
14.1520156158997
30
0
41
1
10
-1.99503997793934
20
14.3984468555777
30
0
41
1
10
-1.99503997793934
20
14.6428305081908
30
0
41
1
10
-1.99503997793934
20
14.8851632986275
30
0
41
1
10
-1.99503997793937
20
15.1254444180464
30
0
41
1
10
-1.99503997793934
20
15.3636702284228
30
0
41
1
10
-1.99503997793934
20
15.5998373978987
30
0
41
1
10
-1.99503997793934
20
15.7948829493702
30
0
41
1
10
-1.99503997793934
20
15.9499656619051
30
0
41
1
10
-1.99503997793934
20
16.1043598435705
30
0
41
1
10
-1.99503997793934
20
16.2959649333064
30
0
41
1
10
-1.99503997793934
20
16.5999232615433
30
0
41
1
10
-1.99503997793934
20
16.8994864797488
30
0
41
1
10
-1.99503997793934
20
17.195127364891
30
0
41
1
10
-1.99503997793934
20
17.487986707193
30
0
41
1
10
-1.99503997793934
20
17.8486596758477
30
0
41
1
10
-1.99503997793934
20
18.2023325950151
30
0
41
1
10
-1.99503997793934
20
18.4811831112867
30
0
41
1
10
-1.99503997793934
20
18.7572123739995
30
0
41
1
10
-1.99503997793934
20
19.096784863067
30
0
41
1
10
-1.99503997793934
20
19.4292463867236
30
0
41
1
10
-1.99503997793934
20
19.6910450135594
30
0
41
1
10
-1.99503997793934
20
19.9499723423375
30
0
41
1
10
-1.99503997793934
20
20.2680830253803
30
0
41
1
10
-1.99503997793934
20
20.6411931750868
30
0
41
1
10
-1.99503997793934
20
20.9447536956121
30
0
41
1
10
-1.99503997793934
20
21.1832962289191
30
0
41
1
10
-1.99503997793934
20
21.4188827024374
30
0
41
1
10
-1.99503997793934
20
21.7076686135251
30
0
41
1
10
-1.99503997793934
20
22.0453025532577
30
0
41
1
10
-1.99503997793934
20
22.3738761836524
30
0
41
1
10
-1.99503997793934
20
22.6933032792698
30
0
41
1
10
-1.99503997793934
20
23.003492407652
30
0
41
1
10
-1.99503997793934
20
23.2541535983722
30
0
41
1
10
-1.99503997793934
20
23.4500539403358
30
0
41
1
10
-1.99503997793934
20
23.6427893362144
30
0
41
1
10
-1.99503997793934
20
23.8776317120835
30
0
41
1
10
-1.99503997793934
20
24.1498376426061
30
0
41
1
10
-1.99503997793934
20
24.3684762393368
30
0
41
1
10
-1.99503997793934
20
24.5385089750245
30
0
41
1
10
-1.99503997793934
20
24.7052121586235
30
0
41
1
10
-1.99503997793934
20
24.9072094601534
30
0
41
1
10
-1.99503997793931
20
25.1007072283818
30
0
41
1
10
-1.99503997793934
20
25.2503983881991
30
0
41
1
10
-1.99503997793931
20
25.3417349423789
30
0
41
1
10
-1.99503997793934
20
25.4135236324805
30
0
41
1
10
-1.99503997793934
20
25.4844312429181
30
0
41
1
10
-1.99503997793934
20
25.5713637005868
30
0
41
1
10
-1.99503997793934
20
25.6730295553062
30
0
41
1
10
-1.99503997793934
20
25.7719964787433
30
0
41
1
10
-1.99503997793931
20
25.8682385377286
30
0
41
1
10
-1.99503997793934
20
25.9617325512637
30
0
41
1
10
-1.99503997793931
20
26.0524523997801
30
0
41
1
10
-1.99503997793931
20
26.1403699848692
30
0
41
1
10
-1.99503997793934
20
26.2254595087626
30
0
41
1
10
-1.99503997793931
20
26.3076915686753
30
0
41
1
10
-1.99503997793934
20
26.387035697685
30
0
41
1
10
-1.99503997793931
20
26.4889678074055
30
0
41
1
10
-1.99503997793931
20
26.5849135587966
30
0
41
1
10
-1.99503997793931
20
26.674910802648
30
0
41
1
10
-1.99503997793931
20
26.7393343904956
30
0
41
1
10
-1.99503997793934
20
26.8006684557748
30
0
41
1
10
-1.99503997793934
20
26.8588742679961
30
0
41
1
10
-1.99503997793931
20
26.9139107109326
30
0
41
1
10
-1.99503997793931
20
26.9657375531884
30
0
41
1
10
-1.99503997793931
20
27.0143097024856
30
0
41
1
10
-1.99503997793931
20
27.074692746873
30
0
41
1
10
-1.99503997793931
20
27.1417627231677
30
0
41
1
10
-1.99503997793931
20
27.1973453109891
30
0
41
1
10
-1.99503997793931
20
27.2347184649703
30
0
41
1
10
-1.99503997793931
20
27.2591194067692
30
0
41
1
10
-1.99503997793931
20
27.2798390211927
30
0
41
1
10
-1.99503997793931
20
27.2968118977756
30
0
41
1
10
-1.99503997793931
20
27.309968420024
30
0
41
1
10
-1.99503997793931
20
27.319236545434
30
0
41
1
10
-1.99503997793931
20
27.3243710856212
30
0
41
1
10
-1.99503997793931
20
27.3252908975284
30
0
41
1
10
-1.99503997793934
20
27.3251649292149
30
0
0
SPLINE
5
113
100
AcDbEntity
8
SK1
62
256
6
ByLayer
370
18
48
1
60
0
100
AcDbSpline
70
4
71
3
72
297
73
293
40
0
40
0
40
0
40
0
40
0.0006234325719468
40
0.0041651107475723
40
0.0077067889231978
40
0.0112484670988233
40
0.0147901452744488
40
0.0183318234500743
40
0.0254151798013253
40
0.0324985361525763
40
0.0360402143282018
40
0.0395818925038273
40
0.0431235706794528
40
0.0466652488550783
40
0.0502069270307038
40
0.0537486052063293
40
0.0572902833819548
40
0.0608319615575803
40
0.0679153179088313
40
0.0714569960844568
40
0.0749986742600823
40
0.0785403524357078
40
0.0820820306113333
40
0.0856237087869588
40
0.0891653869625843
40
0.0927070651382098
40
0.0962487433138353
40
0.0997904214894608
40
0.103332099665086
40
0.110415456016337
40
0.113957134191963
40
0.117498812367588
40
0.124582168718839
40
0.13166552507009
40
0.135207203245716
40
0.138748881421341
40
0.145832237772592
40
0.152915594123843
40
0.159998950475094
40
0.16354062865072
40
0.167082306826345
40
0.174165663177596
40
0.181249019528847
40
0.188332375880098
40
0.195415732231349
40
0.2024990885826
40
0.209582444933851
40
0.213124123109477
40
0.216665801285102
40
0.223749157636353
40
0.230832513987604
40
0.237915870338855
40
0.241457548514481
40
0.244999226690106
40
0.252082583041357
40
0.259165939392608
40
0.262707617568234
40
0.266249295743859
40
0.27333265209511
40
0.280416008446361
40
0.283957686621987
40
0.287499364797612
40
0.294582721148863
40
0.298124399324489
40
0.301666077500114
40
0.30520775567574
40
0.308749433851365
40
0.312291112026991
40
0.315832790202616
40
0.319374468378242
40
0.322916146553867
40
0.326457824729493
40
0.329999502905118
40
0.333541181080744
40
0.337082859256369
40
0.34416621560762
40
0.347707893783246
40
0.351249571958871
40
0.354791250134497
40
0.358332928310122
40
0.361874606485748
40
0.365416284661373
40
0.372499641012624
40
0.37604131918825
40
0.379582997363875
40
0.383124675539501
40
0.386666353715126
40
0.390208031890752
40
0.393749710066377
40
0.397291388242003
40
0.400833066417628
40
0.404374744593254
40
0.407916422768879
40
0.411458100944505
40
0.41499977912013
40
0.418541457295756
40
0.422083135471381
40
0.425624813647007
40
0.429166491822632
40
0.432708169998258
40
0.436249848173883
40
0.438020687261696
40
0.439791526349509
40
0.443333204525134
40
0.44687488270076
40
0.448645721788572
40
0.450416560876385
40
0.453958239052011
40
0.455729078139823
40
0.457499917227636
40
0.458385336771542
40
0.459270756315449
40
0.461041595403262
40
0.462812434491075
40
0.464583273578887
40
0.4663541126667
40
0.468124951754513
40
0.469895790842325
40
0.470781210386232
40
0.471666629930138
40
0.472552049474045
40
0.473437469017951
40
0.474322888561857
40
0.475208308105764
40
0.476979147193576
40
0.477864566737483
40
0.478749986281389
40
0.480520825369202
40
0.481406244913108
40
0.482291664457015
40
0.484062503544827
40
0.484947923088734
40
0.48583334263264
40
0.487604181720453
40
0.489375020808266
40
0.491145859896079
40
0.492031279439985
40
0.492916698983891
40
0.493802118527798
40
0.494687538071704
40
0.49557295761561
40
0.496458377159517
40
0.497343796703423
40
0.498229216247329
40
0.499114635791236
40
0.500000055335142
40
0.500885474879049
40
0.501770894422955
40
0.502656313966861
40
0.503541733510768
40
0.504427153054674
40
0.50531257259858
40
0.506197992142487
40
0.507083411686393
40
0.5079688312303
40
0.508854250774206
40
0.510625089862019
40
0.512395928949831
40
0.514166768037644
40
0.515052187581551
40
0.515937607125457
40
0.51770844621327
40
0.518593865757176
40
0.519479285301082
40
0.521250124388895
40
0.522135543932802
40
0.523020963476708
40
0.524791802564521
40
0.525677222108427
40
0.526562641652333
40
0.52744806119624
40
0.528333480740146
40
0.529218900284053
40
0.530104319827959
40
0.531875158915772
40
0.533645998003584
40
0.535416837091397
40
0.53718767617921
40
0.538958515267023
40
0.540729354354835
40
0.541614773898742
40
0.542500193442648
40
0.544271032530461
40
0.546041871618274
40
0.549583549793899
40
0.551354388881712
40
0.553125227969525
40
0.55666690614515
40
0.560208584320776
40
0.561979423408588
40
0.563750262496401
40
0.567291940672027
40
0.570833618847652
40
0.574375297023278
40
0.577916975198903
40
0.581458653374529
40
0.585000331550154
40
0.58854200972578
40
0.592083687901405
40
0.595625366077031
40
0.599167044252656
40
0.602708722428282
40
0.606250400603907
40
0.609792078779533
40
0.613333756955158
40
0.616875435130784
40
0.620417113306409
40
0.62750046965766
40
0.634583826008911
40
0.638125504184537
40
0.641667182360162
40
0.645208860535788
40
0.648750538711413
40
0.652292216887039
40
0.655833895062664
40
0.662917251413915
40
0.666458929589541
40
0.670000607765166
40
0.673542285940792
40
0.677083964116417
40
0.680625642292043
40
0.684167320467668
40
0.687708998643294
40
0.691250676818919
40
0.694792354994545
40
0.696563194082357
40
0.69833403317017
40
0.701875711345796
40
0.705417389521421
40
0.712500745872672
40
0.716042424048298
40
0.719584102223923
40
0.726667458575174
40
0.733750814926425
40
0.737292493102051
40
0.740834171277676
40
0.747917527628927
40
0.755000883980178
40
0.758542562155804
40
0.762084240331429
40
0.76916759668268
40
0.776250953033931
40
0.783334309385182
40
0.786875987560807
40
0.790417665736433
40
0.797501022087684
40
0.804584378438935
40
0.811667734790186
40
0.818751091141437
40
0.825834447492688
40
0.832917803843939
40
0.836459482019565
40
0.84000116019519
40
0.847084516546441
40
0.854167872897692
40
0.861251229248943
40
0.864792907424569
40
0.868334585600194
40
0.875417941951445
40
0.882501298302696
40
0.886042976478322
40
0.889584654653947
40
0.89135549374176
40
0.893126332829573
40
0.896668011005198
40
0.900209689180823
40
0.903751367356449
40
0.907293045532074
40
0.9108347237077
40
0.914376401883326
40
0.917918080058951
40
0.921459758234577
40
0.925001436410202
40
0.928543114585828
40
0.932084792761453
40
0.939168149112704
40
0.94270982728833
40
0.946251505463955
40
0.949793183639581
40
0.953334861815206
40
0.956876539990831
40
0.960418218166457
40
0.963959896342082
40
0.967501574517708
40
0.974584930868959
40
0.98166828722021
40
0.985209965395836
40
0.988751643571461
40
0.992293321747087
40
0.995834999922712
40
0.999376678098338
40
1
40
1
40
1
40
1
41
1
10
-2.19999999999999
20
-27.5060506823555
30
0
41
1
10
-2.19999999999999
20
-27.505428852384
30
0
41
1
10
-2.19999999999999
20
-27.5011389553969
30
0
41
1
10
-2.19999999999999
20
-27.4915322394785
30
0
41
1
10
-2.19999999999999
20
-27.4744481426487
30
0
41
1
10
-2.19999999999999
20
-27.4535951682729
30
0
41
1
10
-2.19999999999999
20
-27.4290397313646
30
0
41
1
10
-2.20000000000002
20
-27.391448663995
30
0
41
1
10
-2.19999999999999
20
-27.3355116051596
30
0
41
1
10
-2.19999999999999
20
-27.2680242980374
30
0
41
1
10
-2.20000000000002
20
-27.2073128739481
30
0
41
1
10
-2.20000000000002
20
-27.1584628619196
30
0
41
1
10
-2.19999999999999
20
-27.1063432161342
30
0
41
1
10
-2.20000000000002
20
-27.0509995447849
30
0
41
1
10
-2.19999999999999
20
-26.9924723817988
30
0
41
1
10
-2.20000000000002
20
-26.9308034813115
30
0
41
1
10
-2.19999999999999
20
-26.8660318680525
30
0
41
1
10
-2.20000000000002
20
-26.7755839801004
30
0
41
1
10
-2.20000000000002
20
-26.6790690300398
30
0
41
1
10
-2.20000000000002
20
-26.5766397788825
30
0
41
1
10
-2.19999999999999
20
-26.496886760278
30
0
41
1
10
-2.20000000000002
20
-26.4142343357678
30
0
41
1
10
-2.20000000000002
20
-26.3287134281848
30
0
41
1
10
-2.20000000000002
20
-26.2403534959289
30
0
41
1
10
-2.20000000000002
20
-26.1491804785364
30
0
41
1
10
-2.19999999999999
20
-26.0552227938057
30
0
41
1
10
-2.20000000000002
20
-25.9585066378384
30
0
41
1
10
-2.20000000000002
20
-25.8590558590047
30
0
41
1
10
-2.20000000000002
20
-25.7228460886287
30
0
41
1
10
-2.20000000000002
20
-25.5812511874436
30
0
41
1
10
-2.20000000000002
20
-25.4343865772609
30
0
41
1
10
-2.20000000000002
20
-25.2840285001251
30
0
41
1
10
-2.20000000000005
20
-25.0895715372854
30
0
41
1
10
-2.20000000000002
20
-24.8865804716972
30
0
41
1
10
-2.20000000000002
20
-24.7191499364504
30
0
41
1
10
-2.20000000000002
20
-24.5483785868417
30
0
41
1
10
-2.20000000000002
20
-24.3286812980358
30
0
41
1
10
-2.20000000000002
20
-24.055227314874
30
0
41
1
10
-2.20000000000002
20
-23.8192595766845
30
0
41
1
10
-2.20000000000002
20
-23.6257028262786
30
0
41
1
10
-2.20000000000002
20
-23.4289696038095
30
0
41
1
10
-2.20000000000002
20
-23.1771173076971
30
0
41
1
10
-2.20000000000002
20
-22.8655281588585
30
0
41
1
10
-2.20000000000002
20
-22.5446620340323
30
0
41
1
10
-2.20000000000002
20
-22.2146097463897
30
0
41
1
10
-2.20000000000002
20
-21.8754567982465
30
0
41
1
10
-2.20000000000002
20
-21.5853057494763
30
0
41
1
10
-2.20000000000002
20
-21.3487245268705
30
0
41
1
10
-2.20000000000002
20
-21.1091737088127
30
0
41
1
10
-2.20000000000002
20
-20.8041728419318
30
0
41
1
10
-2.20000000000005
20
-20.4293723340896
30
0
41
1
10
-2.20000000000005
20
-20.1097428027781
30
0
41
1
10
-2.20000000000002
20
-19.8497084005984
30
0
41
1
10
-2.20000000000002
20
-19.5867870393815
30
0
41
1
10
-2.20000000000002
20
-19.2527208752522
30
0
41
1
10
-2.20000000000005
20
-18.9115004851851
30
0
41
1
10
-2.20000000000002
20
-18.634269279738
30
0
41
1
10
-2.20000000000005
20
-18.3541988970415
30
0
41
1
10
-2.20000000000005
20
-17.9987810588702
30
0
41
1
10
-2.20000000000005
20
-17.636314655197
30
0
41
1
10
-2.20000000000002
20
-17.342145790903
30
0
41
1
10
-2.20000000000005
20
-17.0451745383014
30
0
41
1
10
-2.20000000000005
20
-16.7439792746615
30
0
41
1
10
-2.20000000000002
20
-16.4386302461312
30
0
41
1
10
-2.20000000000005
20
-16.2075239950657
30
0
41
1
10
-2.20000000000005
20
-15.9743322626435
30
0
41
1
10
-2.20000000000005
20
-15.73905841291
30
0
41
1
10
-2.20000000000005
20
-15.5017056049151
30
0
41
1
10
-2.20000000000005
20
-15.2622748554345
30
0
41
1
10
-2.20000000000005
20
-15.0207692449601
30
0
41
1
10
-2.20000000000005
20
-14.7771908994275
30
0
41
1
10
-2.20000000000002
20
-14.5315403886931
30
0
41
1
10
-2.20000000000005
20
-14.2838204606995
30
0
41
1
10
-2.20000000000005
20
-14.034031998634
30
0
41
1
10
-2.20000000000005
20
-13.6982347944475
30
0
41
1
10
-2.20000000000005
20
-13.3582704046987
30
0
41
1
10
-2.20000000000005
20
-13.0142109860464
30
0
41
1
10
-2.20000000000005
20
-12.7540927464655
30
0
41
1
10
-2.20000000000005
20
-12.4919091491304
30
0
41
1
10
-2.20000000000005
20
-12.2276612856809
30
0
41
1
10
-2.20000000000005
20
-11.9613483258762
30
0
41
1
10
-2.20000000000005
20
-11.6035238164174
30
0
41
1
10
-2.20000000000005
20
-11.2415269571056
30
0
41
1
10
-2.20000000000005
20
-10.8754383363527
30
0
41
1
10
-2.20000000000005
20
-10.5987925508876
30
0
41
1
10
-2.20000000000005
20
-10.3200778010583
30
0
41
1
10
-2.20000000000005
20
-10.0392928286736
30
0
41
1
10
-2.20000000000002
20
-9.75643634846193
30
0
41
1
10
-2.20000000000005
20
-9.47150729415071
30
0
41
1
10
-2.20000000000005
20
-9.18450436112713
30
0
41
1
10
-2.20000000000002
20
-8.89542719115693
30
0
41
1
10
-2.20000000000005
20
-8.60427356074339
30
0
41
1
10
-2.20000000000005
20
-8.31104318061554
30
0
41
1
10
-2.20000000000005
20
-8.01573561602436
30
0
41
1
10
-2.20000000000005
20
-7.71835058358698
30
0
41
1
10
-2.20000000000005
20
-7.41888794723957
30
0
41
1
10
-2.20000000000005
20
-7.11734869113025
30
0
41
1
10
-2.20000000000005
20
-6.81373435633816
30
0
41
1
10
-2.20000000000005
20
-6.50804760816206
30
0
41
1
10
-2.20000000000005
20
-6.20029189348728
30
0
41
1
10
-2.20000000000005
20
-5.94209838158559
30
0
41
1
10
-2.20000000000005
20
-5.73453666830341
30
0
41
1
10
-2.20000000000005
20
-5.52629101970234
30
0
41
1
10
-2.20000000000005
20
-5.2646763781224
30
0
41
1
10
-2.20000000000005
20
-5.00136826160579
30
0
41
1
10
-2.20000000000005
20
-4.78973719244797
30
0
41
1
10
-2.20000000000005
20
-4.57743718277373
30
0
41
1
10
-2.20000000000005
20
-4.36409678795764
30
0
41
1
10
-2.20000000000005
20
-4.14981697452481
30
0
41
1
10
-2.20000000000005
20
-4.0154686864891
30
0
41
1
10
-2.20000000000005
20
-3.90776230194615
30
0
41
1
10
-2.20000000000005
20
-3.79989568244898
30
0
41
1
10
-2.20000000000007
20
-3.66474576021937
30
0
41
1
10
-2.20000000000005
20
-3.50210369883953
30
0
41
1
10
-2.20000000000005
20
-3.33899660464965
30
0
41
1
10
-2.20000000000005
20
-3.17543127927689
30
0
41
1
10
-2.20000000000005
20
-3.01141672008134
30
0
41
1
10
-2.20000000000005
20
-2.87436209926597
30
0
41
1
10
-2.20000000000005
20
-2.76452000553434
30
0
41
1
10
-2.20000000000005
20
-2.68202545651482
30
0
41
1
10
-2.20000000000007
20
-2.5994263263795
30
0
41
1
10
-2.20000000000007
20
-2.51672421834664
30
0
41
1
10
-2.20000000000007
20
-2.4339209014978
30
0
41
1
10
-2.20000000000007
20
-2.32339361988261
30
0
41
1
10
-2.20000000000007
20
-2.21264123208619
30
0
41
1
10
-2.20000000000005
20
-2.10173189222928
30
0
41
1
10
-2.20000000000005
20
-1.9907006034768
30
0
41
1
10
-2.20000000000005
20
-1.87945966995704
30
0
41
1
10
-2.20000000000005
20
-1.76808195565894
30
0
41
1
10
-2.20000000000005
20
-1.65659533844251
30
0
41
1
10
-2.20000000000005
20
-1.54491818810746
30
0
41
1
10
-2.20000000000005
20
-1.43312829673272
30
0
41
1
10
-2.20000000000005
20
-1.32124507363099
30
0
41
1
10
-2.20000000000005
20
-1.18119881783471
30
0
41
1
10
-2.20000000000005
20
-1.01291860933941
30
0
41
1
10
-2.20000000000005
20
-0.872498986914849
30
0
41
1
10
-2.20000000000005
20
-0.760095820637474
30
0
41
1
10
-2.20000000000005
20
-0.675743913418643
30
0
41
1
10
-2.20000000000005
20
-0.591356016553533
30
0
41
1
10
-2.20000000000005
20
-0.506936431545654
30
0
41
1
10
-2.20000000000005
20
-0.422489234806477
30
0
41
1
10
-2.20000000000005
20
-0.338019053908852
30
0
41
1
10
-2.20000000000005
20
-0.253530597556278
30
0
41
1
10
-2.20000000000005
20
-0.169028161239794
30
0
41
1
10
-2.20000000000005
20
-0.0845162996800468
30
0
41
1
10
-2.20000000000005
20
2.9737635E-09
30
0
41
1
10
-2.20000000000005
20
0.0845163058477283
30
0
41
1
10
-2.20000000000005
20
0.169028167934272
30
0
41
1
10
-2.20000000000005
20
0.253530604877341
30
0
41
1
10
-2.20000000000005
20
0.338019061527263
30
0
41
1
10
-2.20000000000005
20
0.422489242090791
30
0
41
1
10
-2.20000000000007
20
0.506936438011167
30
0
41
1
10
-2.20000000000005
20
0.591356022200131
30
0
41
1
10
-2.20000000000007
20
0.675743919086329
30
0
41
1
10
-2.20000000000005
20
0.760095827222472
30
0
41
1
10
-2.20000000000007
20
0.87249899539205
30
0
41
1
10
-2.20000000000007
20
1.0129186171477
30
0
41
1
10
-2.20000000000005
20
1.18119882266055
30
0
41
1
10
-2.20000000000005
20
1.32124507985105
30
0
41
1
10
-2.20000000000005
20
1.43312830574621
30
0
41
1
10
-2.20000000000005
20
1.54491819828834
30
0
41
1
10
-2.20000000000005
20
1.65659534610086
30
0
41
1
10
-2.20000000000005
20
1.76808196044797
30
0
41
1
10
-2.20000000000005
20
1.87945967457651
30
0
41
1
10
-2.20000000000005
20
1.99070061185216
30
0
41
1
10
-2.20000000000005
20
2.10173190377407
30
0
41
1
10
-2.20000000000005
20
2.21264124345481
30
0
41
1
10
-2.20000000000005
20
2.323393627023
30
0
41
1
10
-2.20000000000005
20
2.43392090537259
30
0
41
1
10
-2.20000000000005
20
2.51672422226798
30
0
41
1
10
-2.20000000000005
20
2.59942633274221
30
0
41
1
10
-2.20000000000005
20
2.68202546661414
30
0
41
1
10
-2.20000000000005
20
2.76452001856481
30
0
41
1
10
-2.20000000000007
20
2.87436211322455
30
0
41
1
10
-2.20000000000005
20
3.01141672767264
30
0
41
1
10
-2.20000000000007
20
3.17543128081249
30
0
41
1
10
-2.20000000000005
20
3.33899661229887
30
0
41
1
10
-2.20000000000007
20
3.50210371592672
30
0
41
1
10
-2.20000000000005
20
3.66474577486338
30
0
41
1
10
-2.20000000000005
20
3.7998956890315
30
0
41
1
10
-2.20000000000005
20
3.90776230457828
30
0
41
1
10
-2.20000000000005
20
4.01546868863096
30
0
41
1
10
-2.20000000000005
20
4.14981698400788
30
0
41
1
10
-2.20000000000005
20
4.3640968112588
30
0
41
1
10
-2.20000000000005
20
4.57743719184847
30
0
41
1
10
-2.20000000000007
20
4.78973719162451
30
0
41
1
10
-2.20000000000005
20
5.00136826964859
30
0
41
1
10
-2.20000000000005
20
5.26467640756857
30
0
41
1
10
-2.20000000000005
20
5.5262910261637
30
0
41
1
10
-2.20000000000005
20
5.73453666635552
30
0
41
1
10
-2.20000000000005
20
5.9420983893643
30
0
41
1
10
-2.20000000000005
20
6.20029192554159
30
0
41
1
10
-2.20000000000005
20
6.50804761437215
30
0
41
1
10
-2.20000000000005
20
6.81373435160455
30
0
41
1
10
-2.20000000000005
20
7.11734871686417
30
0
41
1
10
-2.20000000000005
20
7.41888792583902
30
0
41
1
10
-2.20000000000005
20
7.71835052760531
30
0
41
1
10
-2.20000000000005
20
8.01573570434201
30
0
41
1
10
-2.20000000000005
20
8.31104332875665
30
0
41
1
10
-2.20000000000005
20
8.60427351086133
30
0
41
1
10
-2.20000000000005
20
8.89542705327116
30
0
41
1
10
-2.20000000000005
20
9.18450458163332
30
0
41
1
10
-2.20000000000007
20
9.47150741663737
30
0
41
1
10
-2.20000000000005
20
9.75643631256762
30
0
41
1
10
-2.20000000000005
20
10.0392927830108
30
0
41
1
10
-2.20000000000005
20
10.3200777862056
30
0
41
1
10
-2.20000000000005
20
10.6916821947193
30
0
41
1
10
-2.20000000000005
20
11.1510479282636
30
0
41
1
10
-2.20000000000005
20
11.6035237684601
30
0
41
1
10
-2.20000000000005
20
11.9613483314474
30
0
41
1
10
-2.20000000000005
20
12.2276612824087
30
0
41
1
10
-2.20000000000005
20
12.491909102254
30
0
41
1
10
-2.20000000000005
20
12.7540926975445
30
0
41
1
10
-2.20000000000005
20
13.0142109423231
30
0
41
1
10
-2.20000000000005
20
13.3582704108556
30
0
41
1
10
-2.20000000000005
20
13.6982347575132
30
0
41
1
10
-2.20000000000005
20
14.0340319983603
30
0
41
1
10
-2.20000000000005
20
14.2838204496865
30
0
41
1
10
-2.20000000000005
20
14.5315403640059
30
0
41
1
10
-2.20000000000005
20
14.7771909058554
30
0
41
1
10
-2.20000000000005
20
15.0207692194115
30
0
41
1
10
-2.20000000000005
20
15.2622749109486
30
0
41
1
10
-2.20000000000005
20
15.5017057162253
30
0
41
1
10
-2.20000000000002
20
15.7390582874331
30
0
41
1
10
-2.20000000000005
20
15.9351247349383
30
0
41
1
10
-2.20000000000005
20
16.0909280537241
30
0
41
1
10
-2.20000000000007
20
16.2460368243143
30
0
41
1
10
-2.20000000000005
20
16.4386305854399
30
0
41
1
10
-2.20000000000005
20
16.7439793214723
30
0
41
1
10
-2.20000000000005
20
17.0451744942955
30
0
41
1
10
-2.20000000000005
20
17.342145790273
30
0
41
1
10
-2.20000000000005
20
17.6363146514327
30
0
41
1
10
-2.20000000000005
20
17.9987810562909
30
0
41
1
10
-2.20000000000005
20
18.3541989021743
30
0
41
1
10
-2.20000000000005
20
18.6342692782274
30
0
41
1
10
-2.20000000000005
20
18.9115004820266
30
0
41
1
10
-2.20000000000005
20
19.2527208742123
30
0
41
1
10
-2.20000000000005
20
19.5867870400026
30
0
41
1
10
-2.20000000000005
20
19.8497084000872
30
0
41
1
10
-2.20000000000005
20
20.1097427976019
30
0
41
1
10
-2.20000000000005
20
20.4293723348014
30
0
41
1
10
-2.20000000000005
20
20.8041728408687
30
0
41
1
10
-2.20000000000005
20
21.1091737057829
30
0
41
1
10
-2.20000000000005
20
21.348724524242
30
0
41
1
10
-2.20000000000005
20
21.5853057487131
30
0
41
1
10
-2.20000000000005
20
21.8754567939979
30
0
41
1
10
-2.20000000000005
20
22.2146097450714
30
0
41
1
10
-2.20000000000005
20
22.5446620300357
30
0
41
1
10
-2.20000000000005
20
22.865528155817
30
0
41
1
10
-2.20000000000005
20
23.1771173063638
30
0
41
1
10
-2.20000000000005
20
23.4289695970825
30
0
41
1
10
-2.20000000000005
20
23.625702822842
30
0
41
1
10
-2.20000000000005
20
23.8192595747193
30
0
41
1
10
-2.20000000000005
20
24.0552273098675
30
0
41
1
10
-2.20000000000002
20
24.3286812886663
30
0
41
1
10
-2.20000000000005
20
24.5483785892839
30
0
41
1
10
-2.20000000000005
20
24.7191499291268
30
0
41
1
10
-2.20000000000005
20
24.8865804660961
30
0
41
1
10
-2.20000000000002
20
25.0895715317904
30
0
41
1
10
-2.20000000000005
20
25.284028449355
30
0
41
1
10
-2.20000000000002
20
25.4343867299332
30
0
41
1
10
-2.20000000000002
20
25.5261818034759
30
0
41
1
10
-2.20000000000002
20
25.5982933540586
30
0
41
1
10
-2.20000000000002
20
25.6695210442988
30
0
41
1
10
-2.20000000000002
20
25.7568951729796
30
0
41
1
10
-2.20000000000002
20
25.8590554134204
30
0
41
1
10
-2.20000000000005
20
25.9585067097828
30
0
41
1
10
-2.20000000000002
20
26.0552228914818
30
0
41
1
10
-2.20000000000002
20
26.1491804877762
30
0
41
1
10
-2.20000000000002
20
26.2403534869032
30
0
41
1
10
-2.20000000000002
20
26.3287134555965
30
0
41
1
10
-2.20000000000002
20
26.414234345797
30
0
41
1
10
-2.20000000000002
20
26.4968867532828
30
0
41
1
10
-2.20000000000002
20
26.5766398127168
30
0
41
1
10
-2.20000000000002
20
26.6790690105836
30
0
41
1
10
-2.20000000000002
20
26.7755840284526
30
0
41
1
10
-2.20000000000002
20
26.8660318549495
30
0
41
1
10
-2.20000000000005
20
26.9308035073645
30
0
41
1
10
-2.20000000000002
20
26.9924724007358
30
0
41
1
10
-2.20000000000005
20
27.0509995322117
30
0
41
1
10
-2.20000000000002
20
27.1063432629947
30
0
41
1
10
-2.20000000000002
20
27.1584629254513
30
0
41
1
10
-2.20000000000002
20
27.2073129452677
30
0
41
1
10
-2.20000000000002
20
27.2680242938405
30
0
41
1
10
-2.20000000000002
20
27.335511616751
30
0
41
1
10
-2.20000000000002
20
27.3914487450129
30
0
41
1
10
-2.20000000000002
20
27.4290396962773
30
0
41
1
10
-2.20000000000002
20
27.4535951162672
30
0
41
1
10
-2.20000000000002
20
27.4744481367885
30
0
41
1
10
-2.20000000000002
20
27.4915322439685
30
0
41
1
10
-2.20000000000002
20
27.5011387883018
30
0
41
1
10
-2.20000000000005
20
27.5054285917968
30
0
41
1
10
-2.20000000000005
20
27.5060503183938
30
0
0
SPLINE
5
114
100
AcDbEntity
8
SK1
62
256
6
ByLayer
370
18
48
1
60
0
100
AcDbSpline
70
4
71
3
72
297
73
293
40
0
40
0
40
0
40
0
40
0.0034181019760168
40
0.0069399576587975
40
0.0104618133415781
40
0.0139836690243588
40
0.0175055247071394
40
0.02102738038992
40
0.0280710917554813
40
0.0351148031210426
40
0.0386366588038233
40
0.0421585144866039
40
0.0456803701693846
40
0.0492022258521652
40
0.0527240815349459
40
0.0562459372177265
40
0.0597677929005072
40
0.0632896485832878
40
0.0703333599488491
40
0.0738552156316298
40
0.0773770713144104
40
0.080898926997191
40
0.0844207826799717
40
0.0879426383627523
40
0.091464494045533
40
0.0949863497283136
40
0.0985082054110942
40
0.102030061093875
40
0.105551916776656
40
0.112595628142217
40
0.116117483824997
40
0.119639339507778
40
0.126683050873339
40
0.133726762238901
40
0.137248617921681
40
0.140770473604462
40
0.147814184970023
40
0.154857896335585
40
0.161901607701146
40
0.165423463383926
40
0.168945319066707
40
0.175989030432268
40
0.18303274179783
40
0.190076453163391
40
0.197120164528952
40
0.204163875894514
40
0.211207587260075
40
0.214729442942856
40
0.218251298625636
40
0.225295009991198
40
0.232338721356759
40
0.23938243272232
40
0.242904288405101
40
0.246426144087881
40
0.253469855453443
40
0.260513566819004
40
0.264035422501785
40
0.267557278184565
40
0.274600989550127
40
0.281644700915688
40
0.285166556598469
40
0.288688412281249
40
0.29573212364681
40
0.299253979329591
40
0.302775835012372
40
0.306297690695152
40
0.309819546377933
40
0.313341402060714
40
0.316863257743494
40
0.320385113426275
40
0.323906969109055
40
0.327428824791836
40
0.330950680474617
40
0.334472536157398
40
0.337994391840178
40
0.34503810320574
40
0.34855995888852
40
0.352081814571301
40
0.355603670254081
40
0.359125525936862
40
0.362647381619643
40
0.366169237302423
40
0.373212948667985
40
0.376734804350765
40
0.380256660033546
40
0.383778515716326
40
0.387300371399107
40
0.390822227081888
40
0.394344082764668
40
0.397865938447449
40
0.40138779413023
40
0.40490964981301
40
0.408431505495791
40
0.411953361178572
40
0.415475216861352
40
0.418997072544133
40
0.422518928226914
40
0.426040783909694
40
0.429562639592475
40
0.433084495275256
40
0.436606350958036
40
0.438367278799427
40
0.440128206640817
40
0.443650062323598
40
0.447171918006378
40
0.448932845847768
40
0.450693773689159
40
0.454215629371939
40
0.45597655721333
40
0.45773748505472
40
0.458617948975415
40
0.45949841289611
40
0.461259340737501
40
0.463020268578891
40
0.464781196420281
40
0.466542124261672
40
0.468303052103062
40
0.470063979944452
40
0.470944443865148
40
0.471824907785843
40
0.472705371706538
40
0.473585835627233
40
0.474466299547928
40
0.475346763468623
40
0.477107691310014
40
0.477988155230709
40
0.478868619151404
40
0.480629546992794
40
0.481510010913489
40
0.482390474834185
40
0.484151402675575
40
0.48503186659627
40
0.485912330516965
40
0.487673258358356
40
0.489434186199746
40
0.491195114041136
40
0.492075577961831
40
0.492956041882527
40
0.493836505803222
40
0.494716969723917
40
0.495597433644612
40
0.496477897565307
40
0.497358361486002
40
0.498238825406698
40
0.499119289327393
40
0.499999753248088
40
0.500880217168783
40
0.501760681089478
40
0.502641145010173
40
0.503521608930869
40
0.504402072851564
40
0.505282536772259
40
0.506163000692954
40
0.507043464613649
40
0.507923928534344
40
0.50880439245504
40
0.51056532029643
40
0.51232624813782
40
0.51408717597921
40
0.514967639899906
40
0.515848103820601
40
0.517609031661991
40
0.518489495582686
40
0.519369959503381
40
0.521130887344772
40
0.522011351265467
40
0.522891815186162
40
0.524652743027553
40
0.525533206948248
40
0.526413670868943
40
0.527294134789638
40
0.528174598710333
40
0.529055062631028
40
0.529935526551723
40
0.531696454393114
40
0.533457382234504
40
0.535218310075894
40
0.536979237917285
40
0.538740165758675
40
0.540501093600065
40
0.54138155752076
40
0.542262021441456
40
0.544022949282846
40
0.545783877124236
40
0.549305732807017
40
0.551066660648407
40
0.552827588489798
40
0.556349444172578
40
0.559871299855359
40
0.561632227696749
40
0.56339315553814
40
0.56691501122092
40
0.570436866903701
40
0.573958722586482
40
0.577480578269262
40
0.581002433952043
40
0.584524289634824
40
0.588046145317604
40
0.591568001000385
40
0.595089856683165
40
0.598611712365946
40
0.602133568048727
40
0.605655423731507
40
0.609177279414288
40
0.612699135097069
40
0.616220990779849
40
0.61974284646263
40
0.626786557828191
40
0.633830269193752
40
0.637352124876533
40
0.640873980559314
40
0.644395836242094
40
0.647917691924875
40
0.651439547607656
40
0.654961403290436
40
0.662005114655998
40
0.665526970338778
40
0.669048826021559
40
0.67257068170434
40
0.67609253738712
40
0.679614393069901
40
0.683136248752682
40
0.686658104435462
40
0.690179960118243
40
0.693701815801023
40
0.695462743642414
40
0.697223671483804
40
0.700745527166585
40
0.704267382849365
40
0.711311094214927
40
0.714832949897708
40
0.718354805580488
40
0.725398516946049
40
0.732442228311611
40
0.735964083994391
40
0.739485939677172
40
0.746529651042733
40
0.753573362408294
40
0.757095218091075
40
0.760617073773856
40
0.767660785139417
40
0.774704496504978
40
0.78174820787054
40
0.78527006355332
40
0.788791919236101
40
0.795835630601662
40
0.802879341967223
40
0.809923053332785
40
0.816966764698346
40
0.824010476063907
40
0.831054187429469
40
0.834576043112249
40
0.83809789879503
40
0.845141610160591
40
0.852185321526152
40
0.859229032891714
40
0.862750888574494
40
0.866272744257275
40
0.873316455622836
40
0.880360166988398
40
0.883882022671178
40
0.887403878353959
40
0.889164806195349
40
0.890925734036739
40
0.89444758971952
40
0.897969445402301
40
0.901491301085082
40
0.905013156767862
40
0.908535012450643
40
0.912056868133423
40
0.915578723816204
40
0.919100579498985
40
0.922622435181765
40
0.926144290864546
40
0.929666146547327
40
0.936709857912888
40
0.940231713595669
40
0.943753569278449
40
0.94727542496123
40
0.950797280644011
40
0.954319136326791
40
0.957840992009572
40
0.961362847692352
40
0.964884703375133
40
0.971928414740694
40
0.978972126106256
40
0.982493981789036
40
0.986015837471817
40
0.989537693154598
40
0.993059548837378
40
0.996581404520159
40
1
40
1
40
1
40
1
41
1
10
-46.5000000000001
20
-26.4005310045097
30
0
41
1
10
-46.5
20
-26.3982136109557
30
0
41
1
10
-46.5
20
-26.3922844846192
30
0
41
1
10
-46.5
20
-26.3796666797908
30
0
41
1
10
-46.5
20
-26.3632177086406
30
0
41
1
10
-46.5
20
-26.3431264926158
30
0
41
1
10
-46.5
20
-26.3194531526336
30
0
41
1
10
-46.5
20
-26.2831057174253
30
0
41
1
10
-46.5
20
-26.2291930886236
30
0
41
1
10
-46.5
20
-26.1640888761727
30
0
41
1
10
-46.5
20
-26.1052520927384
30
0
41
1
10
-46.5
20
-26.0579887211792
30
0
41
1
10
-46.5
20
-26.0075410833254
30
0
41
1
10
-46.5
20
-25.9539520563293
30
0
41
1
10
-46.5
20
-25.8972596671495
30
0
41
1
10
-46.5
20
-25.8375026350058
30
0
41
1
10
-46.5
20
-25.7747185038326
30
0
41
1
10
-46.5
20
-25.6868434692657
30
0
41
1
10
-46.5
20
-25.5935790625544
30
0
41
1
10
-46.5
20
-25.4939882216236
30
0
41
1
10
-46.5
20
-25.4165702112604
30
0
41
1
10
-46.5
20
-25.3363180229216
30
0
41
1
10
-46.5
20
-25.253260222017
30
0
41
1
10
-46.5
20
-25.1674263269857
30
0
41
1
10
-46.5
20
-25.0788408868142
30
0
41
1
10
-46.5
20
-24.9875302738737
30
0
41
1
10
-46.5
20
-24.8935210874344
30
0
41
1
10
-46.5
20
-24.796836252774
30
0
41
1
10
-46.5
20
-24.6641535645997
30
0
41
1
10
-46.5
20
-24.5269227085665
30
0
41
1
10
-46.5
20
-24.3838015939209
30
0
41
1
10
-46.5
20
-24.2372525971634
30
0
41
1
10
-46.5
20
-24.0482725228686
30
0
41
1
10
-46.5
20
-23.850955898421
30
0
41
1
10
-46.5
20
-23.6876786019558
30
0
41
1
10
-46.5
20
-23.5211247254417
30
0
41
1
10
-46.5
20
-23.3074726991927
30
0
41
1
10
-46.5
20
-23.0411451576492
30
0
41
1
10
-46.5
20
-22.8116032902181
30
0
41
1
10
-46.5
20
-22.6227365313406
30
0
41
1
10
-46.5
20
-22.4307591316751
30
0
41
1
10
-46.5000000000001
20
-22.1857080938538
30
0
41
1
10
-46.5
20
-21.8821131574232
30
0
41
1
10
-46.5
20
-21.5694639882747
30
0
41
1
10
-46.5
20
-21.2478549114363
30
0
41
1
10
-46.5
20
-20.9173756153364
30
0
41
1
10
-46.5
20
-20.6350195698474
30
0
41
1
10
-46.5
20
-20.4041184359554
30
0
41
1
10
-46.5
20
-20.1703249928589
30
0
41
1
10
-46.5
20
-19.8735485854937
30
0
41
1
10
-46.5
20
-19.5084001148029
30
0
41
1
10
-46.5
20
-19.197443340025
30
0
41
1
10
-46.5000000000001
20
-18.9437303760813
30
0
41
1
10
-46.5
20
-18.6872198879946
30
0
41
1
10
-46.5
20
-18.3623163297432
30
0
41
1
10
-46.5
20
-18.0305055738421
30
0
41
1
10
-46.5
20
-17.7601375367851
30
0
41
1
10
-46.5000000000001
20
-17.4870326238008
30
0
41
1
10
-46.5
20
-17.1415784199831
30
0
41
1
10
-46.5
20
-16.7893526613563
30
0
41
1
10
-46.5
20
-16.5026611888573
30
0
41
1
10
-46.5000000000001
20
-16.2132867359671
30
0
41
1
10
-46.5
20
-15.9214104773833
30
0
41
1
10
-46.5000000000001
20
-15.6239999053159
30
0
41
1
10
-46.5000000000001
20
-15.3993479391742
30
0
41
1
10
-46.5
20
-15.1727131739386
30
0
41
1
10
-46.5
20
-14.9440989510648
30
0
41
1
10
-46.5000000000001
20
-14.7135145143937
30
0
41
1
10
-46.5
20
-14.4809638211463
30
0
41
1
10
-46.5
20
-14.2464507208461
30
0
41
1
10
-46.5
20
-14.0099844817145
30
0
41
1
10
-46.5000000000001
20
-13.7715679573404
30
0
41
1
10
-46.5
20
-13.5312065194643
30
0
41
1
10
-46.5
20
-13.2889085465966
30
0
41
1
10
-46.5000000000001
20
-12.9626507598827
30
0
41
1
10
-46.5000000000001
20
-12.6344409449826
30
0
41
1
10
-46.5
20
-12.30044403118
30
0
41
1
10
-46.5000000000001
20
-12.0485415833542
30
0
41
1
10
-46.5000000000001
20
-11.7947361066789
30
0
41
1
10
-46.5
20
-11.5390343183575
30
0
41
1
10
-46.5
20
-11.2814444878531
30
0
41
1
10
-46.5
20
-10.9347667406994
30
0
41
1
10
-46.5000000000001
20
-10.586566157494
30
0
41
1
10
-46.5000000000001
20
-10.2323434264721
30
0
41
1
10
-46.5000000000001
20
-9.96542491303111
30
0
41
1
10
-46.5000000000001
20
-9.69666702608524
30
0
41
1
10
-46.5000000000001
20
-9.42608142898109
30
0
41
1
10
-46.5000000000001
20
-9.15367874030957
30
0
41
1
10
-46.5000000000001
20
-8.87947149804481
30
0
41
1
10
-46.5000000000001
20
-8.60347117534144
30
0
41
1
10
-46.5000000000001
20
-8.32569604592524
30
0
41
1
10
-46.5000000000001
20
-8.04616213876753
30
0
41
1
10
-46.5
20
-7.7648841800679
30
0
41
1
10
-46.5000000000001
20
-7.48188354614018
30
0
41
1
10
-46.5000000000001
20
-7.19718401656118
30
0
41
1
10
-46.5
20
-6.91080958282797
30
0
41
1
10
-46.5000000000001
20
-6.62278719976104
30
0
41
1
10
-46.5000000000001
20
-6.33314802823861
30
0
41
1
10
-46.5000000000001
20
-6.04192849679629
30
0
41
1
10
-46.5000000000001
20
-5.74916632270848
30
0
41
1
10
-46.5000000000001
20
-5.50455825405032
30
0
41
1
10
-46.5000000000001
20
-5.30698791061081
30
0
41
1
10
-46.5000000000001
20
-5.10896440271247
30
0
41
1
10
-46.5000000000001
20
-4.8621099938062
30
0
41
1
10
-46.5000000000001
20
-4.61410932418951
30
0
41
1
10
-46.5000000000001
20
-4.41377359776479
30
0
41
1
10
-46.5000000000001
20
-4.21306090369296
30
0
41
1
10
-46.5000000000001
20
-4.01407322556278
30
0
41
1
10
-46.5000000000001
20
-3.81214209897186
30
0
41
1
10
-46.5000000000001
20
-3.68664870804332
30
0
41
1
10
-46.5000000000001
20
-3.58538042142965
30
0
41
1
10
-46.5000000000001
20
-3.48404272537246
30
0
41
1
10
-46.5
20
-3.35820741865732
30
0
41
1
10
-46.5000000000001
20
-3.20645087454702
30
0
41
1
10
-46.5000000000001
20
-3.05450118032695
30
0
41
1
10
-46.5000000000001
20
-2.90237254212099
30
0
41
1
10
-46.5000000000001
20
-2.75008154091461
30
0
41
1
10
-46.5000000000001
20
-2.62353075560307
30
0
41
1
10
-46.5000000000001
20
-2.52133341402544
30
0
41
1
10
-46.5000000000001
20
-2.44503916247598
30
0
41
1
10
-46.5000000000001
20
-2.36872116745511
30
0
41
1
10
-46.5000000000001
20
-2.29238035464522
30
0
41
1
10
-46.5000000000001
20
-2.21601232318565
30
0
41
1
10
-46.5000000000001
20
-2.11363864625326
30
0
41
1
10
-46.5000000000001
20
-2.01284840665639
30
0
41
1
10
-46.5000000000001
20
-1.9103786891003
30
0
41
1
10
-46.5000000000001
20
-1.80790519746156
30
0
41
1
10
-46.5000000000001
20
-1.70711241828641
30
0
41
1
10
-46.5000000000001
20
-1.60457738401561
30
0
41
1
10
-46.5000000000001
20
-1.50205137220067
30
0
41
1
10
-46.5000000000001
20
-1.40129786220385
30
0
41
1
10
-46.5000000000001
20
-1.29873778818728
30
0
41
1
10
-46.5000000000001
20
-1.19620002438901
30
0
41
1
10
-46.5000000000001
20
-1.06942535695819
30
0
41
1
10
-46.5000000000001
20
-0.916562784856836
30
0
41
1
10
-46.5
20
-0.789831419581276
30
0
41
1
10
-46.5000000000001
20
-0.687306363873319
30
0
41
1
10
-46.5000000000001
20
-0.61092058934733
30
0
41
1
10
-46.5000000000001
20
-0.534534693051597
30
0
41
1
10
-46.5000000000001
20
-0.458151977723873
30
0
41
1
10
-46.5000000000001
20
-0.381785863077738
30
0
41
1
10
-46.5000000000001
20
-0.305424686924283
30
0
41
1
10
-46.5000000000001
20
-0.229059030613627
30
0
41
1
10
-46.5000000000001
20
-0.152702843052964
30
0
41
1
10
-46.5000000000001
20
-0.0763563105774665
30
0
41
1
10
-46.5000000000001
20
2.80731456E-08
30
0
41
1
10
-46.5000000000001
20
0.0763563556610336
30
0
41
1
10
-46.5000000000001
20
0.152702860966656
30
0
41
1
10
-46.5000000000001
20
0.229059014473137
30
0
41
1
10
-46.5000000000001
20
0.305424650134683
30
0
41
1
10
-46.5000000000001
20
0.381785837912446
30
0
41
1
10
-46.5000000000001
20
0.458151993845576
30
0
41
1
10
-46.5000000000001
20
0.534534760307707
30
0
41
1
10
-46.5
20
0.61092067534841
30
0
41
1
10
-46.5000000000001
20
0.687306419565971
30
0
41
1
10
-46.5000000000001
20
0.789831382942936
30
0
41
1
10
-46.5000000000001
20
0.916562722132824
30
0
41
1
10
-46.5000000000001
20
1.06942542909596
30
0
41
1
10
-46.5000000000001
20
1.19620014128839
30
0
41
1
10
-46.5000000000001
20
1.29873779453152
30
0
41
1
10
-46.5000000000001
20
1.40129776039689
30
0
41
1
10
-46.5000000000001
20
1.50205128730929
30
0
41
1
10
-46.5000000000001
20
1.60457743182707
30
0
41
1
10
-46.5000000000001
20
1.70711256984478
30
0
41
1
10
-46.5000000000001
20
1.80790531000528
30
0
41
1
10
-46.5000000000001
20
1.91037865662699
30
0
41
1
10
-46.5
20
2.0128482706204
30
0
41
1
10
-46.5000000000001
20
2.11363855078113
30
0
41
1
10
-46.5000000000001
20
2.21601237541179
30
0
41
1
10
-46.5000000000001
20
2.29238050761495
30
0
41
1
10
-46.5000000000001
20
2.36872134228477
30
0
41
1
10
-46.5000000000001
20
2.44503927940085
30
0
41
1
10
-46.5000000000001
20
2.52133342108164
30
0
41
1
10
-46.5000000000001
20
2.62353063115771
30
0
41
1
10
-46.5000000000001
20
2.75008141374229
30
0
41
1
10
-46.5000000000001
20
2.90237261804762
30
0
41
1
10
-46.5000000000001
20
3.05450136741504
30
0
41
1
10
-46.5000000000001
20
3.20645090100771
30
0
41
1
10
-46.5000000000001
20
3.358207267442
30
0
41
1
10
-46.5000000000001
20
3.48404260664441
30
0
41
1
10
-46.5000000000001
20
3.58538042770658
30
0
41
1
10
-46.5000000000001
20
3.68664884198907
30
0
41
1
10
-46.5000000000001
20
3.81214228534714
30
0
41
1
10
-46.5000000000001
20
4.01407320205541
30
0
41
1
10
-46.5000000000001
20
4.21306074878714
30
0
41
1
10
-46.5000000000001
20
4.41377363153026
30
0
41
1
10
-46.5000000000001
20
4.61410950054287
30
0
41
1
10
-46.5000000000001
20
4.86210998685604
30
0
41
1
10
-46.5000000000001
20
5.10896425509628
30
0
41
1
10
-46.5000000000001
20
5.30698795114364
30
0
41
1
10
-46.5000000000001
20
5.50455842781795
30
0
41
1
10
-46.5000000000001
20
5.74916634577849
30
0
41
1
10
-46.5000000000001
20
6.04192837587698
30
0
41
1
10
-46.5000000000001
20
6.33314809321135
30
0
41
1
10
-46.5000000000001
20
6.62278715303697
30
0
41
1
10
-46.5000000000001
20
6.9108093263759
30
0
41
1
10
-46.5000000000001
20
7.1971843458619
30
0
41
1
10
-46.5000000000001
20
7.48188420282091
30
0
41
1
10
-46.5000000000001
20
7.76488385459558
30
0
41
1
10
-46.5000000000001
20
8.04616134412484
30
0
41
1
10
-46.5000000000001
20
8.32569671953027
30
0
41
1
10
-46.5000000000001
20
8.60347202441494
30
0
41
1
10
-46.5
20
8.87947089935204
30
0
41
1
10
-46.5000000000001
20
9.15367831122074
30
0
41
1
10
-46.5000000000001
20
9.42608146076122
30
0
41
1
10
-46.5000000000001
20
9.69666715624223
30
0
41
1
10
-46.5000000000001
20
10.0558459740262
30
0
41
1
10
-46.5000000000001
20
10.4984187798349
30
0
41
1
10
-46.5000000000001
20
10.934766834136
30
0
41
1
10
-46.5000000000001
20
11.2814445510785
30
0
41
1
10
-46.5000000000001
20
11.5390341996307
30
0
41
1
10
-46.5000000000001
20
11.7947359709946
30
0
41
1
10
-46.5000000000001
20
12.0485415470732
30
0
41
1
10
-46.5000000000001
20
12.3004440719815
30
0
41
1
10
-46.5000000000001
20
12.6344409590497
30
0
41
1
10
-46.5000000000001
20
12.9626507143561
30
0
41
1
10
-46.5000000000001
20
13.2889085755409
30
0
41
1
10
-46.5000000000001
20
13.5312064646771
30
0
41
1
10
-46.5000000000001
20
13.7715679648215
30
0
41
1
10
-46.5
20
14.0099844885449
30
0
41
1
10
-46.5000000000001
20
14.2464507858614
30
0
41
1
10
-46.5000000000001
20
14.4809640927087
30
0
41
1
10
-46.5000000000001
20
14.7135143004554
30
0
41
1
10
-46.5
20
14.9440981523704
30
0
41
1
10
-46.5000000000001
20
15.1343352185844
30
0
41
1
10
-46.5000000000001
20
15.28602382984
30
0
41
1
10
-46.5000000000001
20
15.4370522522143
30
0
41
1
10
-46.5000000000001
20
15.6240006368156
30
0
41
1
10
-46.5000000000001
20
15.9214100558917
30
0
41
1
10
-46.5000000000001
20
16.2132866640401
30
0
41
1
10
-46.5000000000001
20
16.5026612295204
30
0
41
1
10
-46.5000000000001
20
16.7893526547042
30
0
41
1
10
-46.5000000000001
20
17.1415784247604
30
0
41
1
10
-46.5000000000001
20
17.4870326281006
30
0
41
1
10
-46.5000000000001
20
17.7601375272069
30
0
41
1
10
-46.5
20
18.0305055709471
30
0
41
1
10
-46.5000000000001
20
18.362316331505
30
0
41
1
10
-46.5
20
18.687219888641
30
0
41
1
10
-46.5
20
18.9437303704574
30
0
41
1
10
-46.5000000000001
20
19.1974433350662
30
0
41
1
10
-46.5000000000001
20
19.5084001184169
30
0
41
1
10
-46.5
20
19.8735485821408
30
0
41
1
10
-46.5000000000001
20
20.1703249889741
30
0
41
1
10
-46.5
20
20.4041184350775
30
0
41
1
10
-46.5
20
20.6350195683323
30
0
41
1
10
-46.5
20
20.9173756105157
30
0
41
1
10
-46.5
20
21.2478549102086
30
0
41
1
10
-46.5000000000001
20
21.5694639835234
30
0
41
1
10
-46.5000000000001
20
21.8821131555324
30
0
41
1
10
-46.5000000000001
20
22.1857080904646
30
0
41
1
10
-46.5000000000001
20
22.430759124426
30
0
41
1
10
-46.5000000000001
20
22.6227365307309
30
0
41
1
10
-46.5000000000001
20
22.8116032876094
30
0
41
1
10
-46.5
20
23.0411451496901
30
0
41
1
10
-46.5
20
23.3074726934439
30
0
41
1
10
-46.5
20
23.5211247275232
30
0
41
1
10
-46.5
20
23.6876785906568
30
0
41
1
10
-46.5
20
23.8509558936155
30
0
41
1
10
-46.5000000000001
20
24.0482725027174
30
0
41
1
10
-46.5
20
24.2372526165609
30
0
41
1
10
-46.5
20
24.3838015951593
30
0
41
1
10
-46.5000000000001
20
24.4729784939732
30
0
41
1
10
-46.5000000000001
20
24.5432464906717
30
0
41
1
10
-46.5
20
24.6126465048792
30
0
41
1
10
-46.5
20
24.6974986639861
30
0
41
1
10
-46.5
20
24.7968359305099
30
0
41
1
10
-46.5000000000001
20
24.8935214266578
30
0
41
1
10
-46.5
20
24.9875303375032
30
0
41
1
10
-46.5
20
25.078840846753
30
0
41
1
10
-46.5
20
25.1674263270685
30
0
41
1
10
-46.5
20
25.2532602572421
30
0
41
1
10
-46.5
20
25.3363180183904
30
0
41
1
10
-46.5
20
25.4165702144947
30
0
41
1
10
-46.5
20
25.4939882551942
30
0
41
1
10
-46.5
20
25.5935790481261
30
0
41
1
10
-46.5000000000001
20
25.6868435181955
30
0
41
1
10
-46.5
20
25.7747184891248
30
0
41
1
10
-46.5
20
25.8375026707194
30
0
41
1
10
-46.5
20
25.8972596743866
30
0
41
1
10
-46.5000000000001
20
25.9539520524798
30
0
41
1
10
-46.5
20
26.0075411501124
30
0
41
1
10
-46.5
20
26.0579887905965
30
0
41
1
10
-46.5
20
26.1052521520729
30
0
41
1
10
-46.5
20
26.1640888628635
30
0
41
1
10
-46.5
20
26.2291931100503
30
0
41
1
10
-46.5
20
26.2831057898448
30
0
41
1
10
-46.5
20
26.3194531047684
30
0
41
1
10
-46.5
20
26.3431264444613
30
0
41
1
10
-46.5
20
26.3632177076783
30
0
41
1
10
-46.5
20
26.3796666810734
30
0
41
1
10
-46.5
20
26.3922850374007
30
0
41
1
10
-46.5
20
26.3982144260273
30
0
41
1
10
-46.5
20
26.4005319959231
30
0
0
SPLINE
5
115
100
AcDbEntity
8
SK1
62
256
6
ByLayer
370
18
48
1
60
0
100
AcDbSpline
70
4
71
3
72
108
73
104
40
0
40
0
40
0
40
0
40
0.0066450642145935
40
0.0146028056902813
40
0.022560547165969
40
0.0305182886416568
40
0.0384760301173446
40
0.0464337715930324
40
0.0543915130687202
40
0.0623492545444079
40
0.0782647374957835
40
0.0941802204471591
40
0.102137961922847
40
0.110095703398535
40
0.118053444874222
40
0.12601118634991
40
0.133968927825598
40
0.141926669301286
40
0.149884410776974
40
0.157842152252661
40
0.173757635204037
40
0.181715376679725
40
0.189673118155412
40
0.1976308596311
40
0.205588601106788
40
0.213546342582476
40
0.221504084058164
40
0.229461825533851
40
0.237419567009539
40
0.245377308485227
40
0.253335049960915
40
0.26925053291229
40
0.277208274387978
40
0.285166015863666
40
0.301081498815041
40
0.316996981766417
40
0.324954723242105
40
0.332912464717793
40
0.348827947669168
40
0.364743430620544
40
0.380658913571919
40
0.388616655047607
40
0.396574396523295
40
0.41248987947467
40
0.428405362426046
40
0.444320845377422
40
0.460236328328797
40
0.476151811280173
40
0.492067294231548
40
0.500025035707236
40
0.507982777182924
40
0.523898260134299
40
0.539813743085675
40
0.55572922603705
40
0.563686967512738
40
0.571644708988426
40
0.587560191939802
40
0.603475674891177
40
0.611433416366865
40
0.619391157842553
40
0.635306640793928
40
0.651222123745304
40
0.659179865220992
40
0.667137606696679
40
0.683053089648055
40
0.691010831123743
40
0.69896857259943
40
0.706926314075118
40
0.714884055550806
40
0.722841797026494
40
0.730799538502182
40
0.738757279977869
40
0.746715021453557
40
0.754672762929245
40
0.762630504404933
40
0.770588245880621
40
0.778545987356308
40
0.794461470307684
40
0.802419211783372
40
0.810376953259059
40
0.818334694734747
40
0.826292436210435
40
0.834250177686123
40
0.842207919161811
40
0.858123402113186
40
0.866081143588874
40
0.874038885064562
40
0.881996626540249
40
0.889954368015937
40
0.897912109491625
40
0.905869850967313
40
0.913827592443001
40
0.921785333918688
40
0.929743075394376
40
0.937700816870064
40
0.945658558345752
40
0.953616299821439
40
0.961574041297127
40
0.969531782772815
40
0.977489524248503
40
0.985447265724191
40
0.993405007199878
40
1
40
1
40
1
40
1
41
1
10
-0.394976888875306
20
-27.3653829591805
30
0
41
1
10
-0.394976888875306
20
-27.365418977702
30
0
41
1
10
-0.394976888875306
20
-27.3644449226438
30
0
41
1
10
-0.394976888875306
20
-27.3594269422325
30
0
41
1
10
-0.394976888875277
20
-27.3501458297253
30
0
41
1
10
-0.394976888875277
20
-27.3369711498757
30
0
41
1
10
-0.394976888875277
20
-27.3199753422425
30
0
41
1
10
-0.394976888875306
20
-27.299228260346
30
0
41
1
10
-0.394976888875306
20
-27.2747954442536
30
0
41
1
10
-0.394976888875306
20
-27.2373772549269
30
0
41
1
10
-0.394976888875306
20
-27.1817216133088
30
0
41
1
10
-0.394976888875306
20
-27.1145655815875
30
0
41
1
10
-0.394976888875306
20
-27.0541147524053
30
0
41
1
10
-0.394976888875306
20
-27.0054853002076
30
0
41
1
10
-0.394976888875277
20
-26.9535980812345
30
0
41
1
10
-0.394976888875306
20
-26.8984983240354
30
0
41
1
10
-0.394976888875306
20
-26.8402262140422
30
0
41
1
10
-0.394976888875306
20
-26.778823083505
30
0
41
1
10
-0.394976888875306
20
-26.7143277513072
30
0
41
1
10
-0.394976888875306
20
-26.6242375172272
30
0
41
1
10
-0.394976888875306
20
-26.5281744271217
30
0
41
1
10
-0.394976888875306
20
-26.4261397450501
30
0
41
1
10
-0.394976888875306
20
-26.3467113173234
30
0
41
1
10
-0.394976888875277
20
-26.2643925510642
30
0
41
1
10
-0.394976888875306
20
-26.1792140413985
30
0
41
1
10
-0.394976888875306
20
-26.0912052550724
30
0
41
1
10
-0.394976888875306
20
-26.0003919383211
30
0
41
1
10
-0.394976888875306
20
-25.9068022246069
30
0
41
1
10
-0.394976888875306
20
-25.810462366076
30
0
41
1
10
-0.394976888875306
20
-25.7113960827791
30
0
41
1
10
-0.394976888875306
20
-25.5756766141878
30
0
41
1
10
-0.394976888875306
20
-25.4346883615025
30
0
41
1
10
-0.394976888875306
20
-25.2883441368503
30
0
41
1
10
-0.394976888875306
20
-25.1385155622326
30
0
41
1
10
-0.394976888875306
20
-24.9448199449114
30
0
41
1
10
-0.394976888875306
20
-24.7426176867451
30
0
41
1
10
-0.394976888875306
20
-24.5757644956798
30
0
41
1
10
-0.394976888875306
20
-24.4055794195024
30
0
41
1
10
-0.394976888875306
20
-24.1867224862229
30
0
41
1
10
-0.394976888875306
20
-23.9142591539289
30
0
41
1
10
-0.394976888875306
20
-23.6791846798372
30
0
41
1
10
-0.394976888875306
20
-23.4862798879298
30
0
41
1
10
-0.394976888875306
20
-23.2902077752037
30
0
41
1
10
-0.394976888875306
20
-23.0393009260323
30
0
41
1
10
-0.394976888875306
20
-22.7288230573926
30
0
41
1
10
-0.394976888875306
20
-22.4090991764391
30
0
41
1
10
-0.394976888875334
20
-22.0802205845281
30
0
41
1
10
-0.394976888875306
20
-21.7422733658897
30
0
41
1
10
-0.394976888875306
20
-21.4532059051397
30
0
41
1
10
-0.394976888875306
20
-21.2174142750283
30
0
41
1
10
-0.394976888875334
20
-20.9786637930718
30
0
41
1
10
-0.394976888875334
20
-20.6748062131765
30
0
41
1
10
-0.394976888875334
20
-20.3013474407322
30
0
41
1
10
-0.394976888875334
20
-19.9829235144401
30
0
41
1
10
-0.394976888875334
20
-19.7237678591314
30
0
41
1
10
-0.394976888875306
20
-19.4617376771832
30
0
41
1
10
-0.394976888875334
20
-19.1289452123206
30
0
41
1
10
-0.394976888875306
20
-18.7890328610689
30
0
41
1
10
-0.394976888875334
20
-18.5127557087222
30
0
41
1
10
-0.394976888875334
20
-18.2336536000934
30
0
41
1
10
-0.394976888875306
20
-17.8796208126314
30
0
41
1
10
-0.394976888875334
20
-17.518577967088
30
0
41
1
10
-0.394976888875334
20
-17.2254485394535
30
0
41
1
10
-0.394976888875306
20
-16.9295333224765
30
0
41
1
10
-0.394976888875334
20
-16.6296334992457
30
0
41
1
10
-0.394976888875306
20
-16.3253880002474
30
0
41
1
10
-0.394976888875334
20
-16.0951789631496
30
0
41
1
10
-0.394976888875334
20
-15.8628987186173
30
0
41
1
10
-0.394976888875334
20
-15.6285506275557
30
0
41
1
10
-0.394976888875334
20
-15.3921386948649
30
0
41
1
10
-0.394976888875334
20
-15.1536643460738
30
0
41
1
10
-0.394976888875334
20
-14.9131307685779
30
0
41
1
10
-0.394976888875334
20
-14.670541081166
30
0
41
1
10
-0.394976888875334
20
-14.4258961711575
30
0
41
1
10
-0.394976888875334
20
-14.1791991512309
30
0
41
1
10
-0.394976888875334
20
-13.9304519465027
30
0
41
1
10
-0.394976888875334
20
-13.5959808223858
30
0
41
1
10
-0.394976888875334
20
-13.2576504430446
30
0
41
1
10
-0.394976888875334
20
-12.9149898191478
30
0
41
1
10
-0.394976888875334
20
-12.6560136616419
30
0
41
1
10
-0.394976888875334
20
-12.3949947118191
30
0
41
1
10
-0.394976888875334
20
-12.1319348433318
30
0
41
1
10
-0.394976888875334
20
-11.8668344908947
30
0
41
1
10
-0.394976888875334
20
-11.510559499462
30
0
41
1
10
-0.394976888875334
20
-11.1504804686583
30
0
41
1
10
-0.394976888875334
20
-10.7860413322607
30
0
41
1
10
-0.394976888875334
20
-10.5107477406376
30
0
41
1
10
-0.394976888875334
20
-10.2334171002115
30
0
41
1
10
-0.394976888875334
20
-9.95404994902188
30
0
41
1
10
-0.394976888875334
20
-9.67264665656018
30
0
41
1
10
-0.394976888875334
20
-9.38920804768813
30
0
41
1
10
-0.394976888875334
20
-9.10373459403797
30
0
41
1
10
-0.394976888875362
20
-8.81622852741523
30
0
41
1
10
-0.394976888875334
20
-8.52669016160962
30
0
41
1
10
-0.394976888875334
20
-8.23512129465951
30
0
41
1
10
-0.394976888875334
20
-7.94152452378475
30
0
41
1
10
-0.394976888875334
20
-7.6459029106087
30
0
41
1
10
-0.394976888875334
20
-7.34825967305406
30
0
41
1
10
-0.394976888875362
20
-7.04859940546746
30
0
41
1
10
-0.394976888875334
20
-6.74692776639384
30
0
41
1
10
-0.394976888875334
20
-6.44325211457954
30
0
41
1
10
-0.394976888875362
20
-6.15502922001539
30
0
41
1
10
-0.394976888875334
20
-5.96764081676275
30
0
41
1
10
-0.394976888875334
20
-5.88246902087042
30
0
0
SPLINE
5
116
100
AcDbEntity
8
SK1
62
256
6
ByLayer
370
18
48
1
60
0
100
AcDbSpline
70
4
71
3
72
110
73
106
40
0
40
0
40
0
40
0
40
0.0065953836005163
40
0.014553600302795
40
0.0225118170050736
40
0.0304700337073522
40
0.0384282504096309
40
0.0463864671119095
40
0.0543446838141881
40
0.0623029005164667
40
0.0702611172187454
40
0.078219333921024
40
0.0861775506233026
40
0.0941357673255813
40
0.10209398402786
40
0.110052200730138
40
0.118010417432417
40
0.125968634134696
40
0.141885067539253
40
0.15780150094381
40
0.165759717646089
40
0.173717934348367
40
0.181676151050646
40
0.189634367752925
40
0.197592584455203
40
0.205550801157482
40
0.221467234562039
40
0.229425451264318
40
0.237383667966596
40
0.245341884668875
40
0.253300101371154
40
0.261258318073433
40
0.269216534775711
40
0.27717475147799
40
0.285132968180268
40
0.293091184882547
40
0.297070293233686
40
0.301049401584826
40
0.309007618287104
40
0.316965834989383
40
0.33288226839394
40
0.340840485096219
40
0.348798701798497
40
0.364715135203055
40
0.380631568607612
40
0.388589785309891
40
0.396548002012169
40
0.412464435416726
40
0.428380868821284
40
0.436339085523562
40
0.444297302225841
40
0.460213735630398
40
0.476130169034955
40
0.492046602439513
40
0.500004819141791
40
0.50796303584407
40
0.523879469248627
40
0.539795902653184
40
0.555712336057742
40
0.571628769462299
40
0.587545202866856
40
0.603461636271413
40
0.611419852973692
40
0.619378069675971
40
0.635294503080528
40
0.651210936485085
40
0.667127369889643
40
0.675085586591921
40
0.6830438032942
40
0.698960236698757
40
0.714876670103314
40
0.722834886805593
40
0.730793103507872
40
0.734772211859011
40
0.73875132021015
40
0.746709536912429
40
0.754667753614707
40
0.762625970316986
40
0.770584187019265
40
0.778542403721543
40
0.786500620423822
40
0.794458837126101
40
0.802417053828379
40
0.810375270530658
40
0.818333487232936
40
0.826291703935215
40
0.842208137339772
40
0.850166354042051
40
0.85812457074433
40
0.866082787446608
40
0.874041004148887
40
0.881999220851165
40
0.889957437553444
40
0.897915654255723
40
0.905873870958001
40
0.921790304362559
40
0.937706737767116
40
0.945664954469394
40
0.953623171171673
40
0.961581387873952
40
0.96953960457623
40
0.977497821278509
40
0.985456037980788
40
0.993414254683066
40
1
40
1
40
1
40
1
41
1
10
-0.394976888875362
20
5.8824691645265
30
0
41
1
10
-0.394976888875362
20
5.96764092579403
30
0
41
1
10
-0.394976888875362
20
6.15502928738746
30
0
41
1
10
-0.394976888875334
20
6.44325210311729
30
0
41
1
10
-0.394976888875334
20
6.74692777135013
30
0
41
1
10
-0.394976888875334
20
7.04859942112893
30
0
41
1
10
-0.394976888875334
20
7.3482596189788
30
0
41
1
10
-0.394976888875334
20
7.64590290818538
30
0
41
1
10
-0.394976888875334
20
7.94152469111089
30
0
41
1
10
-0.394976888875334
20
8.23512137696338
30
0
41
1
10
-0.394976888875334
20
8.52669000819793
30
0
41
1
10
-0.394976888875334
20
8.81622850233529
30
0
41
1
10
-0.394976888875334
20
9.10373490192168
30
0
41
1
10
-0.394976888875334
20
9.3892080699232
30
0
41
1
10
-0.394976888875334
20
9.67264656600767
30
0
41
1
10
-0.394976888875334
20
9.95404991412451
30
0
41
1
10
-0.394976888875334
20
10.2334171055167
30
0
41
1
10
-0.394976888875362
20
10.6032942253079
30
0
41
1
10
-0.394976888875334
20
11.0603255640274
30
0
41
1
10
-0.394976888875334
20
11.51055947116
30
0
41
1
10
-0.394976888875334
20
11.8668345044804
30
0
41
1
10
-0.394976888875334
20
12.1319348240102
30
0
41
1
10
-0.394976888875334
20
12.3949946525974
30
0
41
1
10
-0.394976888875334
20
12.656013614478
30
0
41
1
10
-0.394976888875334
20
12.9149897871743
30
0
41
1
10
-0.394976888875334
20
13.2576504503011
30
0
41
1
10
-0.394976888875334
20
13.595980784257
30
0
41
1
10
-0.394976888875334
20
13.9304519502905
30
0
41
1
10
-0.394976888875334
20
14.1791991341328
30
0
41
1
10
-0.394976888875334
20
14.4258961509421
30
0
41
1
10
-0.394976888875334
20
14.6705410876498
30
0
41
1
10
-0.394976888875334
20
14.9131307556186
30
0
41
1
10
-0.394976888875334
20
15.1536644316209
30
0
41
1
10
-0.394976888875334
20
15.3921387609621
30
0
41
1
10
-0.394976888875334
20
15.6285504084944
30
0
41
1
10
-0.394976888875334
20
15.8238065102557
30
0
41
1
10
-0.394976888875334
20
15.9790378411121
30
0
41
1
10
-0.394976888875334
20
16.1335794000815
30
0
41
1
10
-0.394976888875334
20
16.3253883940748
30
0
41
1
10
-0.394976888875334
20
16.6296334809576
30
0
41
1
10
-0.394976888875334
20
16.9295332745893
30
0
41
1
10
-0.394976888875334
20
17.2254485445636
30
0
41
1
10
-0.394976888875334
20
17.5185779629222
30
0
41
1
10
-0.394976888875334
20
17.8796208110748
30
0
41
1
10
-0.394976888875334
20
18.2336536051105
30
0
41
1
10
-0.394976888875334
20
18.51275570609
30
0
41
1
10
-0.394976888875334
20
18.789032857947
30
0
41
1
10
-0.394976888875334
20
19.1289452116702
30
0
41
1
10
-0.394976888875334
20
19.4617376778078
30
0
41
1
10
-0.394976888875334
20
19.7237678579095
30
0
41
1
10
-0.394976888875334
20
19.9829235092941
30
0
41
1
10
-0.394976888875334
20
20.3013474418474
30
0
41
1
10
-0.394976888875334
20
20.6748062117951
30
0
41
1
10
-0.394976888875334
20
20.9786637899232
30
0
41
1
10
-0.394976888875334
20
21.2174142726431
30
0
41
1
10
-0.394976888875334
20
21.453205904272
30
0
41
1
10
-0.394976888875334
20
21.7422733615616
30
0
41
1
10
-0.394976888875334
20
22.0802205832225
30
0
41
1
10
-0.394976888875334
20
22.4090991723375
30
0
41
1
10
-0.394976888875334
20
22.728823054511
30
0
41
1
10
-0.394976888875334
20
23.0393009244131
30
0
41
1
10
-0.394976888875334
20
23.2902077684041
30
0
41
1
10
-0.394976888875334
20
23.4862798848862
30
0
41
1
10
-0.394976888875306
20
23.6791846777825
30
0
41
1
10
-0.394976888875334
20
23.9142591485119
30
0
41
1
10
-0.394976888875334
20
24.1867224773567
30
0
41
1
10
-0.394976888875334
20
24.4055794218944
30
0
41
1
10
-0.394976888875334
20
24.5757644878036
30
0
41
1
10
-0.394976888875306
20
24.7426176812545
30
0
41
1
10
-0.394976888875306
20
24.9448199373791
30
0
41
1
10
-0.394976888875306
20
25.1385155212165
30
0
41
1
10
-0.394976888875306
20
25.2883442684716
30
0
41
1
10
-0.394976888875306
20
25.3797753879955
30
0
41
1
10
-0.394976888875306
20
25.4516306650615
30
0
41
1
10
-0.394976888875334
20
25.5226042889745
30
0
41
1
10
-0.394976888875306
20
25.609627837172
30
0
41
1
10
-0.394976888875306
20
25.7113956543375
30
0
41
1
10
-0.394976888875334
20
25.810462475175
30
0
41
1
10
-0.394976888875334
20
25.9068023175501
30
0
41
1
10
-0.394976888875334
20
26.0003919407076
30
0
41
1
10
-0.394976888875306
20
26.0912052473129
30
0
41
1
10
-0.394976888875306
20
26.1792140698964
30
0
41
1
10
-0.394976888875306
20
26.2643925590692
30
0
41
1
10
-0.394976888875306
20
26.3467113117502
30
0
41
1
10
-0.394976888875306
20
26.4261397788477
30
0
41
1
10
-0.394976888875306
20
26.5281744083644
30
0
41
1
10
-0.394976888875306
20
26.6242375656596
30
0
41
1
10
-0.394976888875306
20
26.7143277379811
30
0
41
1
10
-0.394976888875306
20
26.7788231109009
30
0
41
1
10
-0.394976888875306
20
26.8402262313527
30
0
41
1
10
-0.394976888875334
20
26.8984983126749
30
0
41
1
10
-0.394976888875306
20
26.953598130865
30
0
41
1
10
-0.394976888875306
20
27.0054853645575
30
0
41
1
10
-0.394976888875306
20
27.0541148220588
30
0
41
1
10
-0.394976888875306
20
27.1145655761239
30
0
41
1
10
-0.394976888875306
20
27.1817216262675
30
0
41
1
10
-0.394976888875306
20
27.2373773347495
30
0
41
1
10
-0.394976888875306
20
27.27479540739
30
0
41
1
10
-0.394976888875306
20
27.2992282088757
30
0
41
1
10
-0.394976888875306
20
27.3199753370632
30
0
41
1
10
-0.394976888875306
20
27.3369711539198
30
0
41
1
10
-0.394976888875306
20
27.3501457877119
30
0
41
1
10
-0.394976888875306
20
27.3594269183726
30
0
41
1
10
-0.394976888875306
20
27.36443169612
30
0
41
1
10
-0.394976888875277
20
27.3654109934115
30
0
41
1
10
-0.394976888875277
20
27.3653838086982
30
0
0
SPLINE
5
117
100
AcDbEntity
8
SK1
62
256
6
ByLayer
370
18
48
1
60
0
100
AcDbSpline
70
4
71
3
72
22
73
18
40
0
40
0
40
0
40
0
40
0.14750772199888
40
0.14750772199888
40
0.360630791499156
40
0.360630791499156
40
0.573753860999431
40
0.573753860999431
40
0.680315395749569
40
0.680315395749569
40
0.786876930499707
40
0.786876930499707
40
0.840157697874779
40
0.840157697874779
40
0.893438465249851
40
0.893438465249851
40
1
40
1
40
1
40
1
41
1
10
-0.213863237039646
20
27.3627555380491
30
0
41
1
10
-0.21605532957048
20
27.3548849693432
30
0
41
1
10
-0.218588400567
20
27.3468679367275
30
0
41
1
10
-0.225773716901415
20
27.3268678454447
30
0
41
1
10
-0.23086581853525
20
27.3147403187155
30
0
41
1
10
-0.243817167560223
20
27.2896495476071
30
0
41
1
10
-0.25160900675067
20
27.276675083279
30
0
41
1
10
-0.267310756234366
20
27.2565651682759
30
0
41
1
10
-0.273218934106438
20
27.2497441426328
30
0
41
1
10
-0.287581776151427
20
27.2357375224533
30
0
41
1
10
-0.296059131080398
20
27.2284328994368
30
0
41
1
10
-0.312820518203694
20
27.2176202393924
30
0
41
1
10
-0.319036303829932
20
27.2140876538149
30
0
41
1
10
-0.333385409606109
20
27.2075198335421
30
0
41
1
10
-0.341627525584727
20
27.2045217689256
30
0
41
1
10
-0.366640769985992
20
27.1981793002157
30
0
41
1
10
-0.382346753396291
20
27.1976982552739
30
0
41
1
10
-0.394976888875504
20
27.1987923911108
30
0
0
SPLINE
5
118
100
AcDbEntity
8
SK1
62
256
6
ByLayer
370
18
48
1
60
0
100
AcDbSpline
70
4
71
3
72
24
73
20
40
0
40
0
40
0
40
0
40
0.0752939423200362
40
0.0752939423200362
40
0.112940913480054
40
0.112940913480054
40
0.150587884640073
40
0.150587884640073
40
0.225881826960109
40
0.225881826960109
40
0.301175769280145
40
0.301175769280145
40
0.45176365392023
40
0.45176365392023
40
0.602351538560315
40
0.602351538560315
40
0.903527307840494
40
0.903527307840494
40
1
40
1
40
1
40
1
41
1
10
-0.394976888875277
20
21.3163207485064
30
0
41
1
10
-0.382349965515232
20
21.3260228518101
30
0
41
1
10
-0.366613785015886
20
21.3349047707578
30
0
41
1
10
-0.341634362270099
20
21.3392717772514
30
0
41
1
10
-0.333397050192815
20
21.3391210512548
30
0
41
1
10
-0.318988537079122
20
21.3364012870415
30
0
41
1
10
-0.312743268224239
20
21.333964955833
30
0
41
1
10
-0.296018017563938
20
21.325056304476
30
0
41
1
10
-0.287604805032601
20
21.3171963488633
30
0
41
1
10
-0.273096778868705
20
21.3003253911432
30
0
41
1
10
-0.267166824035058
20
21.2913089199107
30
0
41
1
10
-0.251432168957734
20
21.2633000291641
30
0
41
1
10
-0.243675296395338
20
21.2433169025036
30
0
41
1
10
-0.230717856606447
20
21.2021501855168
30
0
41
1
10
-0.225652972908108
20
21.1810894553263
30
0
41
1
10
-0.21299724078554
20
21.1169238357482
30
0
41
1
10
-0.207912783550967
20
21.0728446192844
30
0
41
1
10
-0.203593604068459
20
21.0135059896808
30
0
41
1
10
-0.202740804493971
20
20.9990190862192
30
0
41
1
10
-0.20206562090604
20
20.9844471039211
30
0
0
SPLINE
5
119
100
AcDbEntity
8
1
62
256
6
ByLayer
370
18
48
1
60
0
100
AcDbSpline
70
4
71
3
72
8
73
4
40
0
40
0
40
0
40
0
40
1
40
1
40
1
40
1
41
1
10
33.4190458089378
20
49.7742490130174
30
0
41
1
10
33.4614881933467
20
49.9334229507273
30
0
41
1
10
33.5258905530482
20
50.0948122474425
30
0
41
1
10
33.6116221968744
20
50.2583532779841
30
0
0
SPLINE
5
11A
100
AcDbEntity
8
1
62
256
6
ByLayer
370
18
48
1
60
0
100
AcDbSpline
70
4
71
3
72
16
73
12
40
0
40
0
40
0
40
0
40
0.124999999999996
40
0.124999999999996
40
0.249999999999992
40
0.249999999999992
40
0.499999999999995
40
0.499999999999995
40
0.749999999999997
40
0.749999999999997
40
1
40
1
40
1
40
1
41
1
10
10.5386751345948
20
-12.1330899674707
30
0
41
1
10
10.5070097812326
20
-12.1330899674707
30
0
41
1
10
10.4761852218639
20
-12.1393880305614
30
0
41
1
10
10.4179414896383
20
-12.1619255694048
30
0
41
1
10
10.3914602024633
20
-12.177616249759
30
0
41
1
10
10.3176492454753
20
-12.2338002045595
30
0
41
1
10
10.2787320432277
20
-12.2806309384213
30
0
41
1
10
10.2123318812524
20
-12.3811715645304
30
0
41
1
10
10.1856242795051
20
-12.4342400380054
30
0
41
1
10
10.1400321601287
20
-12.543705389465
30
0
41
1
10
10.1212495620848
20
-12.6003080708704
30
0
41
1
10
10.1056624327025
20
-12.6576002058704
30
0
0
SPLINE
5
11B
100
AcDbEntity
8
1
62
256
6
ByLayer
370
18
48
1
60
0
100
AcDbSpline
70
4
71
3
72
30
73
26
40
0
40
0
40
0
40
0
40
0.125000000000002
40
0.125000000000002
40
0.187500000000002
40
0.187500000000002
40
0.250000000000002
40
0.250000000000002
40
0.375000000000001
40
0.375000000000001
40
0.437500000000001
40
0.437500000000001
40
0.5
40
0.5
40
0.625
40
0.625
40
0.6875
40
0.6875
40
0.75
40
0.75
40
0.875
40
0.875
40
0.9375
40
0.9375
40
1
40
1
40
1
40
1
41
1
10
24.4653246960696
20
-39.1918358845308
30
0
41
1
10
24.2118923737686
20
-39.1918358845308
30
0
41
1
10
23.9626183588543
20
-39.1869855171437
30
0
41
1
10
23.5946796305451
20
-39.1725572490045
30
0
41
1
10
23.473035772613
20
-39.1665438063029
30
0
41
1
10
23.2317909903879
20
-39.1519858554741
30
0
41
1
10
23.1116801197567
20
-39.1433884519945
30
0
41
1
10
22.7615799119937
20
-39.1141094738598
30
0
41
1
10
22.5398622975803
20
-39.0899144224053
30
0
41
1
10
22.22441869854
20
-39.0459651804958
30
0
41
1
10
22.1221448987063
20
-39.030029737175
30
0
41
1
10
21.9235075280331
20
-38.9953542397525
30
0
41
1
10
21.8284737114696
20
-38.9768402765848
30
0
41
1
10
21.5568819248845
20
-38.9178741886774
30
0
41
1
10
21.3932054876488
20
-38.8739349060156
30
0
41
1
10
21.1735886658227
20
-38.800156253796
30
0
41
1
10
21.1044428846566
20
-38.7741074043792
30
0
41
1
10
20.9772824206187
20
-38.7201053720555
30
0
41
1
10
20.9190511033745
20
-38.6921086387554
30
0
41
1
10
20.7598835036903
20
-38.6050250074084
30
0
41
1
10
20.6743541562003
20
-38.5428610917073
30
0
41
1
10
20.5771259078672
20
-38.4427540501652
30
0
41
1
10
20.5500810950681
20
-38.4083539310089
30
0
41
1
10
20.5071217731224
20
-38.3381330421777
30
0
41
1
10
20.4911062424808
20
-38.3022130991788
30
0
41
1
10
20.4805459037026
20
-38.2654597950668
30
0
0
SPLINE
5
11C
100
AcDbEntity
8
1
62
256
6
ByLayer
370
18
48
1
60
0
100
AcDbSpline
70
4
71
3
72
10
73
6
40
0
40
0
40
0
40
0
40
0.5
40
0.5
40
1
40
1
40
1
40
1
41
1
10
30.1861384096169
20
-39.1918358845309
30
0
41
1
10
30.2701432882343
20
-39.1918358845308
30
0
41
1
10
30.3519109943143
20
-39.2050147489803
30
0
41
1
10
30.5110383166808
20
-39.2573399063633
30
0
41
1
10
30.5851220218254
20
-39.2955794118315
30
0
41
1
10
30.6525073622715
20
-39.3449170795924
30
0
0
SPLINE
5
11D
100
AcDbEntity
8
1
62
256
6
ByLayer
370
18
48
1
60
0
100
AcDbSpline
70
4
71
3
72
16
73
12
40
0
40
0
40
0
40
0
40
0.125000000000002
40
0.125000000000002
40
0.250000000000005
40
0.250000000000005
40
0.500000000000003
40
0.500000000000003
40
0.750000000000002
40
0.750000000000002
40
1
40
1
40
1
40
1
41
1
10
13.4613248654052
20
-38.1154578595255
30
0
41
1
10
13.4929902187673
20
-38.1154578595255
30
0
41
1
10
13.5238147781361
20
-38.1134542929028
30
0
41
1
10
13.5820585103617
20
-38.1062685963607
30
0
41
1
10
13.6085397975367
20
-38.1012604668281
30
0
41
1
10
13.6823507545246
20
-38.0832729594606
30
0
41
1
10
13.7212679567723
20
-38.0682137252776
30
0
41
1
10
13.7876681187475
20
-38.0356330717498
30
0
41
1
10
13.8143757204949
20
-38.0183244490836
30
0
41
1
10
13.8599678398713
20
-37.9823481941392
30
0
41
1
10
13.8787504379152
20
-37.9636126331777
30
0
41
1
10
13.8943375672975
20
-37.9445010117191
30
0
0
SPLINE
5
11E
100
AcDbEntity
8
1
62
256
6
ByLayer
370
18
48
1
60
0
100
AcDbSpline
70
4
71
3
72
10
73
6
40
0
40
0
40
0
40
0
40
0.5
40
0.5
40
1
40
1
40
1
40
1
41
1
10
32.6825215740532
20
46.7223226394184
30
0
41
1
10
32.3875649777025
20
45.5973490496099
30
0
41
1
10
32.095708981079
20
44.4777328137418
30
0
41
1
10
31.5201611215548
20
42.2497850470752
30
0
41
1
10
31.2364023103021
20
41.1413998615653
30
0
41
1
10
30.9588790706479
20
40.0400033795711
30
0
0
SPLINE
5
11F
100
AcDbEntity
8
1
62
256
6
ByLayer
370
18
48
1
60
0
100
AcDbSpline
70
4
71
3
72
8
73
4
40
0
40
0
40
0
40
0
40
1
40
1
40
1
40
1
41
1
10
33.6116221968744
20
50.2583532779841
30
0
41
1
10
33.3013427420284
20
49.0798232614871
30
0
41
1
10
32.9915999610823
20
47.9011571760595
30
0
41
1
10
32.6825215740532
20
46.7223226394184
30
0
0
SPLINE
5
120
100
AcDbEntity
8
1
62
256
6
ByLayer
370
18
48
1
60
0
100
AcDbSpline
70
4
71
3
72
18
73
14
40
0
40
0
40
0
40
0
40
0.249999999999994
40
0.249999999999994
40
0.499999999999987
40
0.499999999999987
40
0.62499999999999
40
0.62499999999999
40
0.749999999999994
40
0.749999999999994
40
0.874999999999997
40
0.874999999999997
40
1
40
1
40
1
40
1
41
1
10
30.1861384096169
20
39.3024167387118
30
0
41
1
10
30.2596509871789
20
39.3185874640623
30
0
41
1
10
30.3351041265111
20
39.343888748945
30
0
41
1
10
30.4880717116915
20
39.4180674269919
30
0
41
1
10
30.5632126411416
20
39.465838531087
30
0
41
1
10
30.6701402047686
20
39.5567766593539
30
0
41
1
10
30.7050898447274
20
39.5906549236568
30
0
41
1
10
30.7707272825771
20
39.6643750839064
30
0
41
1
10
30.8014276819004
20
39.7041306335547
30
0
41
1
10
30.8576775198297
20
39.7900189561576
30
0
41
1
10
30.8834384852073
20
39.8366201428056
30
0
41
1
10
30.9272849617356
20
39.9348891314968
30
0
41
1
10
30.9453293096826
20
39.9862289314266
30
0
41
1
10
30.9588790706485
20
40.0400033795708
30
0
0
SPLINE
5
121
100
AcDbEntity
8
1
62
256
6
ByLayer
370
18
48
1
60
0
100
AcDbSpline
70
4
71
3
72
16
73
12
40
0
40
0
40
0
40
0
40
0.124999999999999
40
0.124999999999999
40
0.249999999999997
40
0.249999999999997
40
0.499999999999998
40
0.499999999999998
40
0.749999999999999
40
0.749999999999999
40
1
40
1
40
1
40
1
41
1
10
13.4613248654051
20
12.1330899674707
30
0
41
1
10
13.4929902187673
20
12.1330899674707
30
0
41
1
10
13.523814778136
20
12.1393880305614
30
0
41
1
10
13.5820585103617
20
12.1619255694047
30
0
41
1
10
13.6085397975366
20
12.177616249759
30
0
41
1
10
13.6823507545246
20
12.2338002045595
30
0
41
1
10
13.7212679567722
20
12.2806309384212
30
0
41
1
10
13.7876681187475
20
12.3811715645304
30
0
41
1
10
13.8143757204948
20
12.4342400380054
30
0
41
1
10
13.8599678398712
20
12.543705389465
30
0
41
1
10
13.8787504379151
20
12.6003080708704
30
0
41
1
10
13.8943375672974
20
12.6576002058703
30
0
0
SPLINE
5
122
100
AcDbEntity
8
1
62
256
6
ByLayer
370
18
48
1
60
0
100
AcDbSpline
70
4
71
3
72
10
73
6
40
0
40
0
40
0
40
0
40
0.5
40
0.5
40
1
40
1
40
1
40
1
41
1
10
29.7806577939568
20
39.1918358845308
30
0
41
1
10
29.8395803864779
20
39.2119220244736
30
0
41
1
10
29.9032677160988
20
39.2313109633581
30
0
41
1
10
30.0386483041198
20
39.2682117491493
30
0
41
1
10
30.1103528712264
20
39.2857460251075
30
0
41
1
10
30.1861384096167
20
39.3024167387118
30
0
0
SPLINE
5
123
100
AcDbEntity
8
1
62
256
6
ByLayer
370
18
48
1
60
0
100
AcDbSpline
70
4
71
3
72
16
73
12
40
0
40
0
40
0
40
0
40
0.249999999999999
40
0.249999999999999
40
0.499999999999997
40
0.499999999999997
40
0.749999999999996
40
0.749999999999996
40
0.874999999999998
40
0.874999999999998
40
1
40
1
40
1
40
1
41
1
10
13.8943375672974
20
-12.6576002058704
30
0
41
1
10
13.8787561873888
20
-12.6003292036663
30
0
41
1
10
13.8601238798743
20
-12.5441499637055
30
0
41
1
10
13.8146289914013
20
-12.4347788334234
30
0
41
1
10
13.7876921654473
20
-12.3812044282565
30
0
41
1
10
13.7212171221611
20
-12.280557514874
30
0
41
1
10
13.6816031920018
20
-12.2332416215828
30
0
41
1
10
13.6089776935098
20
-12.1779443514617
30
0
41
1
10
13.581955464097
20
-12.1619018862399
30
0
41
1
10
13.5241733156582
20
-12.1395106480537
30
0
41
1
10
13.4929397308715
20
-12.1330899674705
30
0
41
1
10
13.4613248654052
20
-12.1330899674705
30
0
0
SPLINE
5
124
100
AcDbEntity
8
1
62
256
6
ByLayer
370
18
48
1
60
0
100
AcDbSpline
70
4
71
3
72
16
73
12
40
0
40
0
40
0
40
0
40
0.249999999999996
40
0.249999999999996
40
0.499999999999993
40
0.499999999999993
40
0.749999999999989
40
0.749999999999989
40
0.874999999999994
40
0.874999999999994
40
1
40
1
40
1
40
1
41
1
10
13.8943375672974
20
37.9445010117191
30
0
41
1
10
13.8787561873888
20
37.9636055836586
30
0
41
1
10
13.8601238798743
20
37.9822012953861
30
0
41
1
10
13.8146289914013
20
38.0181481521524
30
0
41
1
10
13.7876921654473
20
38.0356224517383
30
0
41
1
10
13.7212171221611
20
38.0682374888742
30
0
41
1
10
13.6816031920018
20
38.0834517571985
30
0
41
1
10
13.6089776935098
20
38.1011554411599
30
0
41
1
10
13.581955464097
20
38.1062761312752
30
0
41
1
10
13.5241733156582
20
38.1134152144531
30
0
41
1
10
13.4929397308715
20
38.1154578595255
30
0
41
1
10
13.4613248654052
20
38.1154578595255
30
0
0
SPLINE
5
125
100
AcDbEntity
8
1
62
256
6
ByLayer
370
18
48
1
60
0
100
AcDbSpline
70
4
71
3
72
30
73
26
40
0
40
0
40
0
40
0
40
0.125
40
0.125
40
0.1875
40
0.1875
40
0.25
40
0.25
40
0.374999999999999
40
0.374999999999999
40
0.437499999999999
40
0.437499999999999
40
0.499999999999999
40
0.499999999999999
40
0.624999999999997
40
0.624999999999997
40
0.687499999999998
40
0.687499999999998
40
0.749999999999998
40
0.749999999999998
40
0.874999999999999
40
0.874999999999999
40
0.9375
40
0.9375
40
1
40
1
40
1
40
1
41
1
10
20.4805459037026
20
38.2654597950668
30
0
41
1
10
20.5016779454708
20
38.3390059543265
30
0
41
1
10
20.5443621314963
20
38.4086611764937
30
0
41
1
10
20.640119205181
20
38.5077864347346
30
0
41
1
10
20.6773580611244
20
38.5399325895081
30
0
41
1
10
20.762760294311
20
38.6024848031821
30
0
41
1
10
20.8111889478451
20
38.6330303476416
30
0
41
1
10
20.9716977159304
20
38.7210399607214
30
0
41
1
10
21.0978863683363
20
38.7745323276772
30
0
41
1
10
21.3156019258845
20
38.8479570220429
30
0
41
1
10
21.3929405577785
20
38.8712902220847
30
0
41
1
10
21.5574478870579
20
38.9157649970789
30
0
41
1
10
21.6450799512848
20
38.9369924216721
30
0
41
1
10
21.9178585319067
20
38.9963073038282
30
0
41
1
10
22.1137785992571
20
39.0304216230889
30
0
41
1
10
22.4285891123544
20
39.074472887222
30
0
41
1
10
22.5370358577719
20
39.0879607877763
30
0
41
1
10
22.7611974429781
20
39.1126077247555
30
0
41
1
10
22.8763438487794
20
39.1236883786971
30
0
41
1
10
23.2253789798008
20
39.1529342390317
30
0
41
1
10
23.464917205822
20
39.1673861154434
30
0
41
1
10
23.8345447132047
20
39.1820031060508
30
0
41
1
10
23.9599212145631
20
39.1856945435374
30
0
41
1
10
24.2120723806663
20
39.1906091659732
30
0
41
1
10
24.3385145732977
20
39.1918358845308
30
0
41
1
10
24.4653246960696
20
39.1918358845308
30
0
0
SPLINE
5
126
100
AcDbEntity
8
1
62
256
6
ByLayer
370
18
48
1
60
0
100
AcDbSpline
70
4
71
3
72
16
73
12
40
0
40
0
40
0
40
0
40
0.249999999999999
40
0.249999999999999
40
0.499999999999997
40
0.499999999999997
40
0.749999999999996
40
0.749999999999996
40
0.874999999999998
40
0.874999999999998
40
1
40
1
40
1
40
1
41
1
10
10.1056624327026
20
-37.9445010117191
30
0
41
1
10
10.1212438126112
20
-37.9636055836587
30
0
41
1
10
10.1398761201257
20
-37.9822012953861
30
0
41
1
10
10.1853710085986
20
-38.0181481521524
30
0
41
1
10
10.2123078345526
20
-38.0356224517383
30
0
41
1
10
10.2787828778388
20
-38.0682374888743
30
0
41
1
10
10.3183968079981
20
-38.0834517571985
30
0
41
1
10
10.3910223064901
20
-38.1011554411599
30
0
41
1
10
10.4180445359029
20
-38.1062761312752
30
0
41
1
10
10.4758266843417
20
-38.1134152144531
30
0
41
1
10
10.5070602691284
20
-38.1154578595255
30
0
41
1
10
10.5386751345948
20
-38.1154578595255
30
0
0
SPLINE
5
127
100
AcDbEntity
8
1
62
256
6
ByLayer
370
18
48
1
60
0
100
AcDbSpline
70
4
71
3
72
16
73
12
40
0
40
0
40
0
40
0
40
0.125000000000002
40
0.125000000000002
40
0.250000000000004
40
0.250000000000004
40
0.500000000000003
40
0.500000000000003
40
0.750000000000001
40
0.750000000000001
40
1
40
1
40
1
40
1
41
1
10
10.5386751345948
20
38.1154578595255
30
0
41
1
10
10.5070097812326
20
38.1154578595255
30
0
41
1
10
10.4761852218639
20
38.1134542929027
30
0
41
1
10
10.4179414896383
20
38.1062685963607
30
0
41
1
10
10.3914602024633
20
38.101260466828
30
0
41
1
10
10.3176492454754
20
38.0832729594606
30
0
41
1
10
10.2787320432277
20
38.0682137252776
30
0
41
1
10
10.2123318812525
20
38.0356330717497
30
0
41
1
10
10.1856242795051
20
38.0183244490836
30
0
41
1
10
10.1400321601287
20
37.9823481941392
30
0
41
1
10
10.1212495620848
20
37.9636126331776
30
0
41
1
10
10.1056624327025
20
37.9445010117191
30
0
0
SPLINE
5
128
100
AcDbEntity
8
1
62
256
6
ByLayer
370
18
48
1
60
0
100
AcDbSpline
70
4
71
3
72
16
73
12
40
0
40
0
40
0
40
0
40
0.250000000000001
40
0.250000000000001
40
0.500000000000002
40
0.500000000000002
40
0.750000000000003
40
0.750000000000003
40
0.875000000000001
40
0.875000000000001
40
1
40
1
40
1
40
1
41
1
10
10.1056624327025
20
12.6576002058704
30
0
41
1
10
10.1212438126111
20
12.6003292036662
30
0
41
1
10
10.1398761201257
20
12.5441499637055
30
0
41
1
10
10.1853710085986
20
12.4347788334234
30
0
41
1
10
10.2123078345526
20
12.3812044282565
30
0
41
1
10
10.2787828778388
20
12.280557514874
30
0
41
1
10
10.3183968079981
20
12.2332416215828
30
0
41
1
10
10.3910223064901
20
12.1779443514617
30
0
41
1
10
10.4180445359028
20
12.1619018862399
30
0
41
1
10
10.4758266843416
20
12.1395106480538
30
0
41
1
10
10.5070602691284
20
12.1330899674706
30
0
41
1
10
10.5386751345947
20
12.1330899674706
30
0
0
SPLINE
5
129
100
AcDbEntity
8
SK1
62
256
6
ByLayer
370
18
48
1
60
0
100
AcDbSpline
70
4
71
3
72
28
73
24
40
0
40
0
40
0
40
0
40
0.250000000000001
40
0.250000000000001
40
0.500000000000001
40
0.500000000000001
40
0.625000000000001
40
0.625000000000001
40
0.687500000000001
40
0.687500000000001
40
0.750000000000002
40
0.750000000000002
40
0.812500000000002
40
0.812500000000002
40
0.843750000000002
40
0.843750000000002
40
0.875000000000001
40
0.875000000000001
40
0.906250000000001
40
0.906250000000001
40
0.9375
40
0.9375
40
1
40
1
40
1
40
1
41
1
10
-1.3071067811866
20
4.39323937970204
30
0
41
1
10
-1.27807156294222
20
4.55728578669129
30
0
41
1
10
-1.24496336974443
20
4.71973533160028
30
0
41
1
10
-1.16607860111958
20
5.04073195502608
30
0
41
1
10
-1.12051611802929
20
5.19963508727909
30
0
41
1
10
-1.03498128866937
20
5.4303821990006
30
0
41
1
10
-1.00356748257133
20
5.50611038118015
30
0
41
1
10
-0.948836683011251
20
5.61682998569376
30
0
41
1
10
-0.929306813344226
20
5.65325165428479
30
0
41
1
10
-0.886407011675374
20
5.72469636556377
30
0
41
1
10
-0.863046539494945
20
5.7597079963254
30
0
41
1
10
-0.811378570729715
20
5.8256603007051
30
0
41
1
10
-0.783095962941871
20
5.85688967768854
30
0
41
1
10
-0.733309570496772
20
5.89841079112162
30
0
41
1
10
-0.715777016447703
20
5.91105263131411
30
0
41
1
10
-0.678015781761758
20
5.93289970518876
30
0
41
1
10
-0.657793110825452
20
5.94201442298743
30
0
41
1
10
-0.615790388270653
20
5.9544386474501
30
0
41
1
10
-0.593299286563109
20
5.95781478621092
30
0
41
1
10
-0.549231954733813
20
5.95741118630215
30
0
41
1
10
-0.527157757150746
20
5.95370558688927
30
0
41
1
10
-0.464334375972754
20
5.93399527965417
30
0
41
1
10
-0.427479743260051
20
5.91025974760836
30
0
41
1
10
-0.394976888875334
20
5.88246916452647
30
0
0
SPLINE
5
12A
100
AcDbEntity
8
SK1
62
256
6
ByLayer
370
18
48
1
60
0
100
AcDbSpline
70
4
71
3
72
26
73
22
40
0
40
0
40
0
40
0
40
0.0312500000000004
40
0.0312500000000004
40
0.0625000000000007
40
0.0625000000000007
40
0.0937500000000011
40
0.0937500000000011
40
0.125000000000001
40
0.125000000000001
40
0.187500000000002
40
0.187500000000002
40
0.250000000000002
40
0.250000000000002
40
0.375000000000001
40
0.375000000000001
40
0.500000000000001
40
0.500000000000001
40
0.75
40
0.75
40
1
40
1
40
1
40
1
41
1
10
-0.394976888875334
20
-5.88246902087488
30
0
41
1
10
-0.411243448014147
20
-5.89637723850254
30
0
41
1
10
-0.428449793960198
20
-5.90912350803345
30
0
41
1
10
-0.465564082935259
20
-5.93128976964653
30
0
41
1
10
-0.485501260594106
20
-5.94064321807934
30
0
41
1
10
-0.527078862046892
20
-5.95367340640226
30
0
41
1
10
-0.549438320144958
20
-5.95743908997463
30
0
41
1
10
-0.593606088483824
20
-5.95779086324151
30
0
41
1
10
-0.615789294920688
20
-5.95446545286373
30
0
41
1
10
-0.679608123678179
20
-5.93550756082422
30
0
41
1
10
-0.717332651323062
20
-5.9117781616246
30
0
41
1
10
-0.783015012079545
20
-5.85691368285362
30
0
41
1
10
-0.811905746604083
20
-5.82506288928457
30
0
41
1
10
-0.889505535911837
20
-5.72578032377578
30
0
41
1
10
-0.930486085809861
20
-5.65396988322576
30
0
41
1
10
-1.00381992840025
20
-5.5055827239178
30
0
41
1
10
-1.03559750467304
20
-5.42886588385059
30
0
41
1
10
-1.12127825547449
20
-5.19728125876009
30
0
41
1
10
-1.16642207539601
20
-5.03942758364951
30
0
41
1
10
-1.24501063644416
20
-4.71944904321029
30
0
41
1
10
-1.27807953909777
20
-4.55724063340097
30
0
41
1
10
-1.3071067811866
20
-4.39323915389232
30
0
0
SPLINE
5
12B
100
AcDbEntity
8
SK1
62
256
6
ByLayer
370
18
48
1
60
0
100
AcDbSpline
70
4
71
3
72
22
73
18
40
0
40
0
40
0
40
0
40
0.25
40
0.25
40
0.3125
40
0.3125
40
0.375
40
0.375
40
0.5
40
0.5
40
0.625
40
0.625
40
0.6875
40
0.6875
40
0.75
40
0.75
40
1
40
1
40
1
40
1
41
1
10
-1.3071067811866
20
4.39323937970207
30
0
41
1
10
-1.43200052969667
20
3.68760078156763
30
0
41
1
10
-1.54096915123307
20
2.97036065166395
30
0
41
1
10
-1.63962286912505
20
2.05292564755391
30
0
41
1
10
-1.65743175171491
20
1.86837655684931
30
0
41
1
10
-1.68862850343615
20
1.49693538310112
30
0
41
1
10
-1.70203107558444
20
1.30957156780738
30
0
41
1
10
-1.7344822794887
20
0.747398775749048
30
0
41
1
10
-1.74566524731256
20
0.373309638071703
30
0
41
1
10
-1.74566298261823
20
-0.37342389783953
30
0
41
1
10
-1.73448345443993
20
-0.74606857769578
30
0
41
1
10
-1.70238872850294
20
-1.30401975761961
30
0
41
1
10
-1.68916426022983
20
-1.48983541056805
30
0
41
1
10
-1.6580969611363
20
-1.8611500472378
30
0
41
1
10
-1.64022877292871
20
-2.04692746231265
30
0
41
1
10
-1.5413159825917
20
-2.96856392861622
30
0
41
1
10
-1.43205802899388
20
-3.68727509970668
30
0
41
1
10
-1.30710678118663
20
-4.3932391538923
30
0
0
SPLINE
5
12C
100
AcDbEntity
8
SK1
62
256
6
ByLayer
370
18
48
1
60
0
100
AcDbSpline
70
4
71
3
72
24
73
20
40
0
40
0
40
0
40
0
40
0.250000000000001
40
0.250000000000001
40
0.500000000000001
40
0.500000000000001
40
0.625000000000003
40
0.625000000000003
40
0.750000000000004
40
0.750000000000004
40
0.812500000000004
40
0.812500000000004
40
0.875000000000003
40
0.875000000000003
40
0.906250000000002
40
0.906250000000002
40
0.937500000000001
40
0.937500000000001
40
1
40
1
40
1
40
1
41
1
10
-0.200000000000046
20
-6.57657332251966
30
0
41
1
10
-0.200000000000046
20
-6.51045005265192
30
0
41
1
10
-0.201370223899374
20
-6.44422604141064
30
0
41
1
10
-0.20793156568115
20
-6.31154981196997
30
0
41
1
10
-0.21303474486092
20
-6.24506994782288
30
0
41
1
10
-0.225773826026682
20
-6.14523693213604
30
0
41
1
10
-0.230865993702309
20
-6.11204321968501
30
0
41
1
10
-0.243817490224131
20
-6.04595778475252
30
0
41
1
10
-0.251609411491216
20
-6.01299451379089
30
0
41
1
10
-0.267311184438967
20
-5.96503123140516
30
0
41
1
10
-0.273219353624228
20
-5.94926493252876
30
0
41
1
10
-0.287582091984007
20
-5.91857610087368
30
0
41
1
10
-0.296059368926251
20
-5.90333821711977
30
0
41
1
10
-0.312820576486104
20
-5.88361899214851
30
0
41
1
10
-0.319036350199667
20
-5.87767263152898
30
0
41
1
10
-0.33338536989865
20
-5.86840030244358
30
0
41
1
10
-0.341627499784693
20
-5.86524528836296
30
0
41
1
10
-0.366640861536723
20
-5.86327716887263
30
0
41
1
10
-0.382346845143957
20
-5.87167009312168
30
0
41
1
10
-0.394976888875533
20
-5.88246902087076
30
0
0
SPLINE
5
12D
100
AcDbEntity
8
SK1
62
256
6
ByLayer
370
18
48
1
60
0
100
AcDbSpline
70
4
71
3
72
24
73
20
40
0
40
0
40
0
40
0
40
0.0624999999999981
40
0.0624999999999981
40
0.0937499999999974
40
0.0937499999999974
40
0.124999999999997
40
0.124999999999997
40
0.187499999999998
40
0.187499999999998
40
0.249999999999999
40
0.249999999999999
40
0.375
40
0.375
40
0.500000000000001
40
0.500000000000001
40
0.750000000000001
40
0.750000000000001
40
1
40
1
40
1
40
1
41
1
10
-0.394976888875362
20
5.8824691645265
30
0
41
1
10
-0.382350069157553
20
5.87167298403494
30
0
41
1
10
-0.366613896349861
20
5.86327777511377
30
0
41
1
10
-0.341634356786074
20
5.86524569625416
30
0
41
1
10
-0.333397011620406
20
5.86838955924898
30
0
41
1
10
-0.318988631583153
20
5.87770695780827
30
0
41
1
10
-0.312743382214649
20
5.88369895138621
30
0
41
1
10
-0.296018369933222
20
5.90340879022776
30
0
41
1
10
-0.287605201972013
20
5.91851163137147
30
0
41
1
10
-0.273097316105861
20
5.94954123300337
30
0
41
1
10
-0.267167369392354
20
5.96542317564118
30
0
41
1
10
-0.251432668896882
20
6.01363187356228
30
0
41
1
10
-0.243675661568005
20
6.04657147511205
30
0
41
1
10
-0.230718056341772
20
6.11291108254429
30
0
41
1
10
-0.225653098735961
20
6.14608265895731
30
0
41
1
10
-0.212997246629726
20
6.24556878217331
30
0
41
1
10
-0.207912798923019
20
6.31185420825216
30
0
41
1
10
-0.20137015898041
20
6.44430304126931
30
0
41
1
10
-0.200000000000188
20
6.51046842154435
30
0
41
1
10
-0.200000000000188
20
6.57657338511737
30
0
0
SPLINE
5
12E
100
AcDbEntity
8
1
62
256
6
ByLayer
370
18
48
1
60
0
100
AcDbSpline
70
4
71
3
72
10
73
6
40
0
40
0
40
0
40
0
40
0.185271425676736
40
0.185271425676736
40
1
40
1
40
1
40
1
41
1
10
68.4488180582461
20
47.161064404197
30
0
41
1
10
68.4503527488611
20
47.1644421107837
30
0
41
1
10
68.4516500513388
20
47.1674188153993
30
0
41
1
10
68.4571863109585
20
47.1810605507977
30
0
41
1
10
68.4565979211164
20
47.1838459213367
30
0
41
1
10
68.4496243823824
20
47.1768723826028
30
0
0
SPLINE
5
12F
100
AcDbEntity
8
1
62
256
6
ByLayer
370
18
48
1
60
0
100
AcDbSpline
70
4
71
3
72
8
73
4
40
0
40
0
40
0
40
0
40
1
40
1
40
1
40
1
41
1
10
68.8147554301597
20
48.15115658284
30
0
41
1
10
68.8511576975022
20
48.1901214027378
30
0
41
1
10
68.8888541356018
20
48.2283893428608
30
0
41
1
10
68.9278449624325
20
48.2659006186938
30
0
0
SPLINE
5
130
100
AcDbEntity
8
1
62
256
6
ByLayer
370
18
48
1
60
0
100
AcDbSpline
70
4
71
3
72
8
73
4
40
0
40
0
40
0
40
0
40
1
40
1
40
1
40
1
41
1
10
73.2004723734421
20
48.0542603506801
30
0
41
1
10
73.2922360030421
20
48.1617395444712
30
0
41
1
10
73.3838559862808
20
48.2692078622114
30
0
41
1
10
73.4753917841779
20
48.3766697351455
30
0
0
SPLINE
5
131
100
AcDbEntity
8
1
62
256
6
ByLayer
370
18
48
1
60
0
100
AcDbSpline
70
4
71
3
72
8
73
4
40
0
40
0
40
0
40
0
40
1
40
1
40
1
40
1
41
1
10
69.5811398141524
20
44.7273518369143
30
0
41
1
10
69.4547386115948
20
44.5852350701657
30
0
41
1
10
69.3284621250681
20
44.4431102491375
30
0
41
1
10
69.2022587624856
20
44.3009808115179
30
0
0
SPLINE
5
132
100
AcDbEntity
8
1
62
256
6
ByLayer
370
18
48
1
60
0
100
AcDbSpline
70
4
71
3
72
8
73
4
40
0
40
0
40
0
40
0
40
1
40
1
40
1
40
1
41
1
10
73.8603451880388
20
46.2645335898358
30
0
41
1
10
74.0078565713676
20
46.2208120605509
30
0
41
1
10
74.155254775926
20
46.1769970201048
30
0
41
1
10
74.3025865980083
20
46.1331272493885
30
0
0
SPLINE
5
133
100
AcDbEntity
8
1
62
256
6
ByLayer
370
18
48
1
60
0
100
AcDbSpline
70
4
71
3
72
8
73
4
40
0
40
0
40
0
40
0
40
1
40
1
40
1
40
1
41
1
10
68.9212669995555
20
46.5170785977586
30
0
41
1
10
68.7391180432693
20
46.5261625540859
30
0
41
1
10
68.557063335423
20
46.535321091244
30
0
41
1
10
68.3750639486552
20
46.5445232972749
30
0
0
SPLINE
5
134
100
AcDbEntity
8
1
62
256
6
ByLayer
370
18
48
1
60
0
100
AcDbSpline
70
4
71
3
72
8
73
4
40
0
40
0
40
0
40
0
40
1
40
1
40
1
40
1
41
1
10
55.910730134689
20
41.3560488870858
30
0
41
1
10
55.8826083840859
20
41.1799612973655
30
0
41
1
10
55.8570868240436
20
41.010541335275
30
0
41
1
10
55.8331394065821
20
40.8451579221679
30
0
0
SPLINE
5
135
100
AcDbEntity
8
1
62
256
6
ByLayer
370
18
48
1
60
0
100
AcDbSpline
70
4
71
3
72
10
73
6
40
0
40
0
40
0
40
0
40
0.5
40
0.5
40
1
40
1
40
1
40
1
41
1
10
58.807673884376
20
40.3049371062812
30
0
41
1
10
58.8197159452889
20
40.3881008602777
30
0
41
1
10
58.8322341151494
20
40.4727906206172
30
0
41
1
10
58.8580857923439
20
40.6433016619606
30
0
41
1
10
58.8714281996521
20
40.7291897740269
30
0
41
1
10
58.8852646124829
20
40.8158280711991
30
0
0
SPLINE
5
136
100
AcDbEntity
8
1
62
256
6
ByLayer
370
18
48
1
60
0
100
AcDbSpline
70
4
71
3
72
10
73
6
40
0
40
0
40
0
40
0
40
0.5
40
0.5
40
1
40
1
40
1
40
1
41
1
10
58.807673884376
20
40.3049371062812
30
0
41
1
10
58.7236358330245
20
40.2730702068875
30
0
41
1
10
58.6390187357745
20
40.2411650948863
30
0
41
1
10
58.4682537710054
20
40.1772538517359
30
0
41
1
10
58.3826450904996
20
40.1454526881161
30
0
41
1
10
58.297629539949
20
40.1141537727457
30
0
0
SPLINE
5
137
100
AcDbEntity
8
1
62
256
6
ByLayer
370
18
48
1
60
0
100
AcDbSpline
70
4
71
3
72
10
73
6
40
0
40
0
40
0
40
0
40
0.5
40
0.5
40
1
40
1
40
1
40
1
41
1
10
57.6602654434303
20
39.8851990081264
30
0
41
1
10
57.577100748098
20
39.8560887721522
30
0
41
1
10
57.4941758782505
20
39.8273602150558
30
0
41
1
10
57.3320524994646
20
39.7716842598679
30
0
41
1
10
57.2524051436181
20
39.7445775886788
30
0
41
1
10
57.1738315496443
20
39.7180261252317
30
0
0
SPLINE
5
138
100
AcDbEntity
8
1
62
256
6
ByLayer
370
18
48
1
60
0
100
AcDbSpline
70
4
71
3
72
10
73
6
40
0
40
0
40
0
40
0
40
0.5
40
0.5
40
1
40
1
40
1
40
1
41
1
10
59.1008240760455
20
42.0189798842669
30
0
41
1
10
59.0310854068759
20
42.0727662574089
30
0
41
1
10
58.96061560071
20
42.1276449684264
30
0
41
1
10
58.8201277561573
20
42.2384033091446
30
0
41
1
10
58.7500520045009
20
42.2943258410111
30
0
41
1
10
58.680175685046
20
42.3508927409697
30
0
0
SPLINE
5
139
100
AcDbEntity
8
1
62
256
6
ByLayer
370
18
48
1
60
0
100
AcDbSpline
70
4
71
3
72
10
73
6
40
0
40
0
40
0
40
0
40
0.5
40
0.5
40
1
40
1
40
1
40
1
41
1
10
55.8331394065821
20
40.8451579221679
30
0
41
1
10
55.897615379725
20
40.7861088529991
30
0
41
1
10
55.9633414904627
20
40.7264864465534
30
0
41
1
10
56.0958421529972
20
40.6077409238169
30
0
41
1
10
56.1626683140101
20
40.548568801307
30
0
41
1
10
56.2301773469408
20
40.4896346148241
30
0
0
SPLINE
5
13A
100
AcDbEntity
8
1
62
256
6
ByLayer
370
18
48
1
60
0
100
AcDbSpline
70
4
71
3
72
10
73
6
40
0
40
0
40
0
40
0
40
0.5
40
0.5
40
1
40
1
40
1
40
1
41
1
10
56.1262895982517
20
42.5592007001536
30
0
41
1
10
56.108984841312
20
42.4707742501303
30
0
41
1
10
56.0917229760232
20
42.3813407943626
30
0
41
1
10
56.0578841168106
20
42.202842571001
30
0
41
1
10
56.041292118859
20
42.1137048682913
30
0
41
1
10
56.0250884195039
20
42.0246992845947
30
0
0
SPLINE
5
13B
100
AcDbEntity
8
1
62
256
6
ByLayer
370
18
48
1
60
0
100
AcDbSpline
70
4
71
3
72
10
73
6
40
0
40
0
40
0
40
0
40
0.5
40
0.5
40
1
40
1
40
1
40
1
41
1
10
56.6127234920377
20
42.7263735830482
30
0
41
1
10
56.5295587967053
20
42.697263347074
30
0
41
1
10
56.4466339268578
20
42.6685347899777
30
0
41
1
10
56.284510548072
20
42.6128588347898
30
0
41
1
10
56.2048631922254
20
42.5857521636007
30
0
41
1
10
56.1262895982517
20
42.5592007001536
30
0
0
SPLINE
5
13C
100
AcDbEntity
8
1
62
256
6
ByLayer
370
18
48
1
60
0
100
AcDbSpline
70
4
71
3
72
8
73
4
40
0
40
0
40
0
40
0
40
1
40
1
40
1
40
1
41
1
10
58.9996228972977
20
41.4844784687081
30
0
41
1
10
59.0325560279931
20
41.6653774385205
30
0
41
1
10
59.0664110099183
20
41.843130822494
30
0
41
1
10
59.1008240760455
20
42.0189798842669
30
0
0
SPLINE
5
13D
100
AcDbEntity
8
1
62
256
6
ByLayer
370
18
48
1
60
0
100
AcDbSpline
70
4
71
3
72
10
73
6
40
0
40
0
40
0
40
0
40
0.5
40
0.5
40
1
40
1
40
1
40
1
41
1
10
57.7601319329833
20
43.1461116812031
30
0
41
1
10
57.6760938816318
20
43.1142447818093
30
0
41
1
10
57.5914767843819
20
43.0823396698082
30
0
41
1
10
57.4207118196127
20
43.0184284266578
30
0
41
1
10
57.335103139107
20
42.986627263038
30
0
41
1
10
57.2500875885564
20
42.9553283476675
30
0
0
SPLINE
5
13E
100
AcDbEntity
8
1
62
256
6
ByLayer
370
18
48
1
60
0
100
AcDbSpline
70
4
71
3
72
8
73
4
40
0
40
0
40
0
40
0
40
1
40
1
40
1
40
1
41
1
10
58.157169873342
20
42.7905883738594
30
0
41
1
10
58.0199614645771
20
42.9103688772695
30
0
41
1
10
57.8883519325546
20
43.0286838820644
30
0
41
1
10
57.7601319329833
20
43.1461116812031
30
0
0
SPLINE
5
13F
100
AcDbEntity
8
1
62
256
6
ByLayer
370
18
48
1
60
0
100
AcDbSpline
70
4
71
3
72
8
73
4
40
0
40
0
40
0
40
0
40
1
40
1
40
1
40
1
41
1
10
56.7531831586447
20
40.0499389819345
30
0
41
1
10
56.8952029475019
20
39.9349698586165
30
0
41
1
10
57.0351459014073
20
39.8249882757046
30
0
41
1
10
57.1738315496443
20
39.7180261252317
30
0
0
INSERT
5
152
100
AcDbEntity
8
2
62
256
6
ByLayer
370
25
48
1
60
0
100
AcDbBlockReference
2
DimnDraft3D11
10
0
20
0
30
0
41
1
42
1
43
1
50
0
210
0
220
0
230
1
0
LINE
5
72
100
AcDbEntity
8
1
62
256
6
ByLayer
370
18
48
1
60
0
100
AcDbLine
10
21.167371
20
7.478832
30
0
11
18.874252
21
6.548813
31
0
39
0
210
0
220
0
230
1
0
LINE
5
73
100
AcDbEntity
8
1
62
256
6
ByLayer
370
18
48
1
60
0
100
AcDbLine
10
18.859776
20
1.147372
30
0
11
23.04655
21
2.845401
31
0
39
0
210
0
220
0
230
1
0
LINE
5
74
100
AcDbEntity
8
1
62
256
6
ByLayer
370
18
48
1
60
0
100
AcDbLine
10
64.40481
20
53.54418
30
0
11
63.744654
21
52.884024
31
0
39
0
210
0
220
0
230
1
0
LINE
5
75
100
AcDbEntity
8
1
62
256
6
ByLayer
370
18
48
1
60
0
100
AcDbLine
10
30.186138
20
40
30
0
11
0.3
21
40
31
0
39
0
210
0
220
0
230
1
0
LINE
5
76
100
AcDbEntity
8
1
62
256
6
ByLayer
370
18
48
1
60
0
100
AcDbLine
10
0.3
20
-40
30
0
11
30.186138
21
-40
31
0
39
0
210
0
220
0
230
1
0
LINE
5
77
100
AcDbEntity
8
1
62
256
6
ByLayer
370
18
48
1
60
0
100
AcDbLine
10
69.229797
20
48.063588
30
0
11
68.606027
21
47.439818
31
0
39
0
210
0
220
0
230
1
0
LINE
5
78
100
AcDbEntity
8
1
62
256
6
ByLayer
370
18
48
1
60
0
100
AcDbLine
10
68.886178
20
48.225037
30
0
11
68.884084
21
48.222942
31
0
39
0
210
0
220
0
230
1
0
LINE
5
79
100
AcDbEntity
8
1
62
256
6
ByLayer
370
18
48
1
60
0
100
AcDbLine
10
72.824084
20
43.990292
30
0
11
73.447854
21
44.614062
31
0
39
0
210
0
220
0
230
1
0
LINE
5
7A
100
AcDbEntity
8
1
62
256
6
ByLayer
370
18
48
1
60
0
100
AcDbLine
10
0.3
20
40
30
0
11
0
21
39.7
31
0
39
0
210
0
220
0
230
1
0
LINE
5
7B
100
AcDbEntity
8
1
62
256
6
ByLayer
370
18
48
1
60
0
100
AcDbLine
10
0
20
-39.7
30
0
11
0.3
21
-40
31
0
39
0
210
0
220
0
230
1
0
LINE
5
7C
100
AcDbEntity
8
1
62
256
6
ByLayer
370
18
48
1
60
0
100
AcDbLine
10
30.652507
20
-40.15
30
0
11
31.34746
21
-40.15
31
0
39
0
210
0
220
0
230
1
0
LINE
5
7D
100
AcDbEntity
8
1
62
256
6
ByLayer
370
18
48
1
60
0
100
AcDbLine
10
33.422819
20
49.788494
30
0
11
30.958879
21
40.592945
31
0
39
0
210
0
220
0
230
1
0
LINE
5
7E
100
AcDbEntity
8
1
62
256
6
ByLayer
370
18
48
1
60
0
100
AcDbLine
10
77.884024
20
38.744654
30
0
11
78.54418
21
39.40481
31
0
39
0
210
0
220
0
230
1
0
LINE
5
7F
100
AcDbEntity
8
1
62
256
6
ByLayer
370
18
48
1
60
0
100
AcDbLine
10
23.058635
20
2.859183
30
0
11
23.140083
21
3.05355
31
0
39
0
210
0
220
0
230
1
0
LINE
5
80
100
AcDbEntity
8
1
62
256
6
ByLayer
370
18
48
1
60
0
100
AcDbLine
10
21.37947
20
7.394638
30
0
11
21.185643
21
7.477361
31
0
39
0
210
0
220
0
230
1
0
LINE
5
81
100
AcDbEntity
8
1
62
256
6
ByLayer
370
18
48
1
60
0
100
AcDbLine
10
69.341921
20
35.432284
30
0
11
69.534687
21
37.781234
31
0
39
0
210
0
220
0
230
1
0
LINE
5
82
100
AcDbEntity
8
SK1
62
256
6
ByLayer
370
18
48
1
60
0
100
AcDbLine
10
-0.2
20
6.576573
30
0
11
-0.2
21
28.683485
31
0
39
0
210
0
220
0
230
1
0
LINE
5
84
100
AcDbEntity
8
SK1
62
256
6
ByLayer
370
18
48
1
60
0
100
AcDbLine
10
-0.2
20
-28.683485
30
0
11
-0.2
21
-6.576573
31
0
39
0
210
0
220
0
230
1
0
LINE
5
85
100
AcDbEntity
8
1
62
256
6
ByLayer
370
18
48
1
60
0
100
AcDbLine
10
20.480546
20
-38.26546
30
0
11
20.480546
21
1.804456
31
0
39
0
210
0
220
0
230
1
0
LINE
5
86
100
AcDbEntity
8
1
62
256
6
ByLayer
370
18
48
1
60
0
100
AcDbLine
10
20.480546
20
7.199885
30
0
11
20.480546
21
38.26546
31
0
39
0
210
0
220
0
230
1
0
LINE
5
87
100
AcDbEntity
8
1
62
256
6
ByLayer
370
18
48
1
60
0
100
AcDbLine
10
30.186138
20
-39.191836
30
0
11
30.186138
21
-40
31
0
39
0
210
0
220
0
230
1
0
LINE
5
88
100
AcDbEntity
8
1
62
256
6
ByLayer
370
18
48
1
60
0
100
AcDbLine
10
30.186138
20
40
30
0
11
30.186138
21
39.302417
31
0
39
0
210
0
220
0
230
1
0
LINE
5
89
100
AcDbEntity
8
1
62
256
6
ByLayer
370
18
48
1
60
0
100
AcDbLine
10
0.3
20
-40
30
0
11
0.3
21
40
31
0
39
0
210
0
220
0
230
1
0
LINE
5
8A
100
AcDbEntity
8
1
62
256
6
ByLayer
370
18
48
1
60
0
100
AcDbLine
10
0
20
-39.7
30
0
11
0
21
39.7
31
0
39
0
210
0
220
0
230
1
0
LINE
5
8B
100
AcDbEntity
8
1
62
256
6
ByLayer
370
18
48
1
60
0
100
AcDbLine
10
30.958879
20
40.040003
30
0
11
30.958879
21
40.592945
31
0
39
0
210
0
220
0
230
1
0
LINE
5
8C
100
AcDbEntity
8
1
62
256
6
ByLayer
370
18
48
1
60
0
100
AcDbLine
10
30.652507
20
-39.344917
30
0
11
30.652507
21
-40.15
31
0
39
0
210
0
220
0
230
1
0
LINE
5
8D
100
AcDbEntity
8
1
62
256
6
ByLayer
370
18
48
1
60
0
100
AcDbLine
10
70.626163
20
38.409318
30
0
11
75.007165
21
38.788131
31
0
39
0
210
0
220
0
230
1
0
LINE
5
8E
100
AcDbEntity
8
1
62
256
6
ByLayer
370
18
48
1
60
0
100
AcDbLine
10
77.169562
20
31.900683
30
0
11
77.753267
21
39.01342
31
0
39
0
210
0
220
0
230
1
0
LINE
5
8F
100
AcDbEntity
8
1
62
256
6
ByLayer
370
18
48
1
60
0
100
AcDbLine
10
69.700093
20
37.7948
30
0
11
69.506375
21
35.434246
31
0
39
0
210
0
220
0
230
1
0
LINE
5
90
100
AcDbEntity
8
1
62
256
6
ByLayer
370
18
48
1
60
0
100
AcDbLine
10
69.930249
20
37.690627
30
0
11
69.940418
21
37.814548
31
0
39
0
210
0
220
0
230
1
0
LINE
5
91
100
AcDbEntity
8
1
62
256
6
ByLayer
370
18
48
1
60
0
100
AcDbLine
10
69.930249
20
37.690627
30
0
11
70.050354
21
37.701012
31
0
39
0
210
0
220
0
230
1
0
LINE
5
92
100
AcDbEntity
8
1
62
256
6
ByLayer
370
18
48
1
60
0
100
AcDbLine
10
32.962863
20
21.064353
30
0
11
55.932146
21
-1.90493
31
0
39
0
210
0
220
0
230
1
0
LINE
5
93
100
AcDbEntity
8
1
62
256
6
ByLayer
370
18
48
1
60
0
100
AcDbLine
10
63.364295
20
46.820305
30
0
11
63.118826
21
43.829142
31
0
39
0
210
0
220
0
230
1
0
LINE
5
94
100
AcDbEntity
8
1
62
256
6
ByLayer
370
18
48
1
60
0
100
AcDbLine
10
10.105662
20
-12.6576
30
0
11
10.105662
21
-37.944501
31
0
39
0
210
0
220
0
230
1
0
LINE
5
95
100
AcDbEntity
8
1
62
256
6
ByLayer
370
18
48
1
60
0
100
AcDbLine
10
13.461325
20
38.115458
30
0
11
10.538675
21
38.115458
31
0
39
0
210
0
220
0
230
1
0
LINE
5
96
100
AcDbEntity
8
1
62
256
6
ByLayer
370
18
48
1
60
0
100
AcDbLine
10
69.506375
20
35.434246
30
0
11
70.472074
21
36.531661
31
0
39
0
210
0
220
0
230
1
0
LINE
5
97
100
AcDbEntity
8
1
62
256
6
ByLayer
370
18
48
1
60
0
100
AcDbLine
10
13.894338
20
-12.6576
30
0
11
13.894338
21
-37.944501
31
0
39
0
210
0
220
0
230
1
0
LINE
5
98
100
AcDbEntity
8
1
62
256
6
ByLayer
370
18
48
1
60
0
100
AcDbLine
10
24.465325
20
39.191836
30
0
11
24.465325
21
-39.191836
31
0
39
0
210
0
220
0
230
1
0
LINE
5
99
100
AcDbEntity
8
1
62
256
6
ByLayer
370
18
48
1
60
0
100
AcDbLine
10
63.183942
20
42.796946
30
0
11
62.728821
21
37.251067
31
0
39
0
210
0
220
0
230
1
0
LINE
5
9A
100
AcDbEntity
8
1
62
256
6
ByLayer
370
18
48
1
60
0
100
AcDbLine
10
77.169562
20
31.900683
30
0
11
55.932146
21
-1.90493
31
0
39
0
210
0
220
0
230
1
0
LINE
5
9B
100
AcDbEntity
8
1
62
256
6
ByLayer
370
18
48
1
60
0
100
AcDbLine
10
24.465325
20
-39.191836
30
0
11
30.186138
21
-39.191836
31
0
39
0
210
0
220
0
230
1
0
LINE
5
9C
100
AcDbEntity
8
1
62
256
6
ByLayer
370
18
48
1
60
0
100
AcDbLine
10
32.682522
20
46.722323
30
0
11
32.962863
21
21.064353
31
0
39
0
210
0
220
0
230
1
0
LINE
5
9D
100
AcDbEntity
8
1
62
256
6
ByLayer
370
18
48
1
60
0
100
AcDbLine
10
70.626163
20
38.409318
30
0
11
69.931861
21
37.555303
31
0
39
0
210
0
220
0
230
1
0
LINE
5
9E
100
AcDbEntity
8
1
62
256
6
ByLayer
370
18
48
1
60
0
100
AcDbLine
10
10.538675
20
38.115458
30
0
11
10.538675
21
12.13309
31
0
39
0
210
0
220
0
230
1
0
LINE
5
9F
100
AcDbEntity
8
1
62
256
6
ByLayer
370
18
48
1
60
0
100
AcDbLine
10
10.538675
20
-38.115458
30
0
11
13.461325
21
-38.115458
31
0
39
0
210
0
220
0
230
1
0
LINE
5
A0
100
AcDbEntity
8
1
62
256
6
ByLayer
370
18
48
1
60
0
100
AcDbLine
10
64.00092
20
52.752241
30
0
11
63.596557
21
47.824873
31
0
39
0
210
0
220
0
230
1
0
LINE
5
A1
100
AcDbEntity
8
1
62
256
6
ByLayer
370
18
48
1
60
0
100
AcDbLine
10
13.461325
20
-12.13309
30
0
11
10.538675
21
-12.13309
31
0
39
0
210
0
220
0
230
1
0
LINE
5
A2
100
AcDbEntity
8
1
62
256
6
ByLayer
370
18
48
1
60
0
100
AcDbLine
10
13.461325
20
38.115458
30
0
11
13.461325
21
12.13309
31
0
39
0
210
0
220
0
230
1
0
LINE
5
A3
100
AcDbEntity
8
1
62
256
6
ByLayer
370
18
48
1
60
0
100
AcDbLine
10
32.165598
20
-39.344917
30
0
11
55.932146
21
-1.90493
31
0
39
0
210
0
220
0
230
1
0
LINE
5
A4
100
AcDbEntity
8
1
62
256
6
ByLayer
370
18
48
1
60
0
100
AcDbLine
10
13.461325
20
-12.13309
30
0
11
13.461325
21
-38.115458
31
0
39
0
210
0
220
0
230
1
0
LINE
5
A5
100
AcDbEntity
8
1
62
256
6
ByLayer
370
18
48
1
60
0
100
AcDbLine
10
10.538675
20
12.13309
30
0
11
13.461325
21
12.13309
31
0
39
0
210
0
220
0
230
1
0
LINE
5
A6
100
AcDbEntity
8
1
62
256
6
ByLayer
370
18
48
1
60
0
100
AcDbLine
10
32.165598
20
-39.344917
30
0
11
30.652507
21
-39.344917
31
0
39
0
210
0
220
0
230
1
0
LINE
5
A7
100
AcDbEntity
8
1
62
256
6
ByLayer
370
18
48
1
60
0
100
AcDbLine
10
29.780658
20
39.191836
30
0
11
24.465325
21
39.191836
31
0
39
0
210
0
220
0
230
1
0
LINE
5
A8
100
AcDbEntity
8
1
62
256
6
ByLayer
370
18
48
1
60
0
100
AcDbLine
10
10.538675
20
-12.13309
30
0
11
10.538675
21
-38.115458
31
0
39
0
210
0
220
0
230
1
0
LINE
5
A9
100
AcDbEntity
8
1
62
256
6
ByLayer
370
18
48
1
60
0
100
AcDbLine
10
64.00092
20
52.752241
30
0
11
33.611622
21
50.258353
31
0
39
0
210
0
220
0
230
1
0
LINE
5
AA
100
AcDbEntity
8
1
62
256
6
ByLayer
370
18
48
1
60
0
100
AcDbLine
10
70.472074
20
36.531661
30
0
11
70.626163
21
38.409318
31
0
39
0
210
0
220
0
230
1
0
LINE
5
AB
100
AcDbEntity
8
1
62
256
6
ByLayer
370
18
48
1
60
0
100
AcDbLine
10
13.894338
20
37.944501
30
0
11
13.894338
21
12.6576
31
0
39
0
210
0
220
0
230
1
0
LINE
5
AC
100
AcDbEntity
8
1
62
256
6
ByLayer
370
18
48
1
60
0
100
AcDbLine
10
10.105662
20
37.944501
30
0
11
10.105662
21
12.6576
31
0
39
0
210
0
220
0
230
1
0
LINE
5
AD
100
AcDbEntity
8
SK1
62
256
6
ByLayer
370
18
48
1
60
0
100
AcDbLine
10
-1.307107
20
-4.393239
30
0
11
-1.307107
21
4.393239
31
0
39
0
210
0
220
0
230
1
0
LINE
5
AE
100
AcDbEntity
8
1
62
256
6
ByLayer
370
18
48
1
60
0
100
AcDbLine
10
62.886842
20
39.176706
30
0
11
62.95295
21
39.242814
31
0
39
0
210
0
220
0
230
1
0
LINE
5
AF
100
AcDbEntity
8
1
62
256
6
ByLayer
370
18
48
1
60
0
100
AcDbLine
10
77.752766
20
39.007329
30
0
11
77.811932
21
39.066495
31
0
39
0
210
0
220
0
230
1
0
LINE
5
B0
100
AcDbEntity
8
1
62
256
6
ByLayer
370
18
48
1
60
0
100
AcDbLine
10
70.157108
20
37.832324
30
0
11
63.582658
21
37.292794
31
0
39
0
210
0
220
0
230
1
0
LINE
5
B1
100
AcDbEntity
8
1
62
256
6
ByLayer
370
18
48
1
60
0
100
AcDbLine
10
64.066495
20
52.811932
30
0
11
64.000387
21
52.745824
31
0
39
0
210
0
220
0
230
1
0
LINE
5
B2
100
AcDbEntity
8
1
62
256
6
ByLayer
370
18
48
1
60
0
100
AcDbLine
10
68.375064
20
46.544523
30
0
11
68.316779
21
46.486238
31
0
39
0
210
0
220
0
230
1
0
LINE
5
B3
100
AcDbEntity
8
1
62
256
6
ByLayer
370
18
48
1
60
0
100
AcDbLine
10
68.372586
20
47.099834
30
0
11
68.449624
21
47.176872
31
0
39
0
210
0
220
0
230
1
0
LINE
5
B4
100
AcDbEntity
8
1
62
256
6
ByLayer
370
18
48
1
60
0
100
AcDbLine
10
56.07298
20
42.280343
30
0
11
56.219229
21
42.332879
31
0
39
0
210
0
220
0
230
1
0
LINE
5
B5
100
AcDbEntity
8
1
62
256
6
ByLayer
370
18
48
1
60
0
100
AcDbLine
10
58.49177
20
40.422333
30
0
11
58.44864
21
40.170157
31
0
39
0
210
0
220
0
230
1
0
LINE
5
B6
100
AcDbEntity
8
80
62
256
6
ByLayer
370
18
48
1
60
0
100
AcDbLine
10
0
20
0
30
0
11
-5
21
0
31
0
39
0
210
0
220
0
230
1
0
LINE
5
B7
100
AcDbEntity
8
4
62
256
6
ByLayer
370
18
48
0.05
60
0
100
AcDbLine
10
0
20
0
30
0
11
80
21
0
31
0
39
0
210
0
220
0
230
1
0
LINE
5
B9
100
AcDbEntity
8
81
62
256
6
ByLayer
370
18
48
1
60
0
100
AcDbLine
10
80
20
55
30
0
11
90
21
55
31
0
39
0
210
0
220
0
230
1
0
LINE
5
BA
100
AcDbEntity
8
SK4
62
256
6
ByLayer
370
18
48
0.05
60
0
100
AcDbLine
10
-53
20
0
30
0
11
80
21
0
31
0
39
0
210
0
220
0
230
1
0
LINE
5
BC
100
AcDbEntity
8
1
62
256
6
ByLayer
370
18
48
1
60
0
100
AcDbLine
10
64.242814
20
37.95295
30
0
11
63.582658
21
37.292794
31
0
39
0
210
0
220
0
230
1
0
LINE
5
BD
100
AcDbEntity
8
1
62
256
6
ByLayer
370
18
48
1
60
0
100
AcDbLine
10
77.811932
20
39.066495
30
0
11
64.242814
21
37.95295
31
0
39
0
210
0
220
0
230
1
0
LINE
5
BE
100
AcDbEntity
8
1
62
256
6
ByLayer
370
18
48
1
60
0
100
AcDbLine
10
79.99604
20
53.706176
30
0
11
78.882495
21
40.137058
31
0
39
0
210
0
220
0
230
1
0
LINE
5
BF
100
AcDbEntity
8
1
62
256
6
ByLayer
370
18
48
1
60
0
100
AcDbLine
10
62.95295
20
39.242814
30
0
11
64.066495
21
52.811932
31
0
39
0
210
0
220
0
230
1
0
LINE
5
C0
100
AcDbEntity
8
1
62
256
6
ByLayer
370
18
48
1
60
0
100
AcDbLine
10
65.137058
20
53.882495
30
0
11
78.706176
21
54.99604
31
0
39
0
210
0
220
0
230
1
0
LINE
5
C1
100
AcDbEntity
8
1
62
256
6
ByLayer
370
18
48
1
60
0
100
AcDbLine
10
58.695524
20
41.61368
30
0
11
58.606128
21
41.090984
31
0
39
0
210
0
220
0
230
1
0
LINE
5
C2
100
AcDbEntity
8
1
62
256
6
ByLayer
370
18
48
1
60
0
100
AcDbLine
10
58.49177
20
40.422333
30
0
11
58.885265
21
40.815828
31
0
39
0
210
0
220
0
230
1
0
LINE
5
C3
100
AcDbEntity
8
1
62
256
6
ByLayer
370
18
48
1
60
0
100
AcDbLine
10
56.856593
20
42.561834
30
0
11
57.250088
21
42.955328
31
0
39
0
210
0
220
0
230
1
0
LINE
5
C4
100
AcDbEntity
8
1
62
256
6
ByLayer
370
18
48
1
60
0
100
AcDbLine
10
56.856593
20
42.561834
30
0
11
57.354832
21
42.740812
31
0
39
0
210
0
220
0
230
1
0
LINE
5
C5
100
AcDbEntity
8
1
62
256
6
ByLayer
370
18
48
1
60
0
100
AcDbLine
10
58.286681
20
41.957398
30
0
11
58.695524
21
41.61368
31
0
39
0
210
0
220
0
230
1
0
LINE
5
C6
100
AcDbEntity
8
1
62
256
6
ByLayer
370
18
48
1
60
0
100
AcDbLine
10
56.612723
20
42.726374
30
0
11
56.219229
21
42.332879
31
0
39
0
210
0
220
0
230
1
0
LINE
5
C7
100
AcDbEntity
8
1
62
256
6
ByLayer
370
18
48
1
60
0
100
AcDbLine
10
57.354832
20
42.740812
30
0
11
57.763675
21
42.397094
31
0
39
0
210
0
220
0
230
1
0
LINE
5
C8
100
AcDbEntity
8
1
62
256
6
ByLayer
370
18
48
1
60
0
100
AcDbLine
10
58.15717
20
42.790588
30
0
11
57.763675
21
42.397094
31
0
39
0
210
0
220
0
230
1
0
LINE
5
C9
100
AcDbEntity
8
1
62
256
6
ByLayer
370
18
48
1
60
0
100
AcDbLine
10
58.286681
20
41.957398
30
0
11
58.680176
21
42.350893
31
0
39
0
210
0
220
0
230
1
0
LINE
5
CA
100
AcDbEntity
8
1
62
256
6
ByLayer
370
18
48
1
60
0
100
AcDbLine
10
57.760132
20
43.146112
30
0
11
57.354832
21
42.740812
31
0
39
0
210
0
220
0
230
1
0
LINE
5
CB
100
AcDbEntity
8
1
62
256
6
ByLayer
370
18
48
1
60
0
100
AcDbLine
10
59.100824
20
42.01898
30
0
11
58.695524
21
41.61368
31
0
39
0
210
0
220
0
230
1
0
LINE
5
CC
100
AcDbEntity
8
1
62
256
6
ByLayer
370
18
48
1
60
0
100
AcDbLine
10
58.999623
20
41.484478
30
0
11
58.606128
21
41.090984
31
0
39
0
210
0
220
0
230
1
0
MTEXT
5
140
100
AcDbEntity
8
SK6
62
256
6
ByLayer
370
13
48
1
60
0
100
AcDbMText
10
-7.359793
20
-55.297905
30
0
210
0
220
0
230
1
1
\W0.7314;C8-PCLNR-55080-16
40
3.5
41
0
44
1.084337
50
0
71
7
72
5
7
iso_b_vert
0
DIMENSION
5
161
100
AcDbEntity
8
SK2
62
256
6
ByLayer
370
13
48
1
60
0
100
AcDbDimension
2
DimnDraft3D2
10
-57.75
20
-40
30
0
11
-57.75
21
0
31
0
70
32
71
5
72
1
41
1
210
0
220
0
230
1
3
Standard
100
AcDbAlignedDimension
13
-1.5875
23
40
33
0
14
-1.5875
24
-40
34
0
50
90
100
AcDbRotatedDimension
1001
ACAD
1000
DSTYLE
1002
{
1070
    74
1070
     0
1070
   279
1070
     0
1070
   172
1070
     1
1070
   173
1070
     1
1070
   340
1005
141
1070
   271
1070
     1
1070
   272
1070
     2
1070
    77
1070
     1
1070
    73
1070
     0
1070
   171
1070
     3
1070
   274
1070
     4
1070
   177
1070
   150
1070
   176
1070
     9
1070
   178
1070
    43
1070
    78
1070
     8
1070
    48
1040
-0.005
1070
    41
1041
3.175
1070
   147
1041
2.25
1070
    42
1041
1.5875
1070
    44
1041
3.175
1070
   140
1041
4.5
1070
   343
1005
162
1070
   344
1005
162
1002
}
0
DIMENSION
5
176
100
AcDbEntity
8
2
62
256
6
ByLayer
370
13
48
1
60
0
100
AcDbDimension
2
DimnDraft3D3
10
0
20
72.5
30
0
11
40
21
72.5
31
0
70
32
71
5
72
1
41
1
210
0
220
0
230
1
3
Standard
100
AcDbAlignedDimension
13
80
23
56.5875
33
0
14
0
24
41.5875
34
0
50
0
100
AcDbRotatedDimension
1001
ACAD
1000
DSTYLE
1002
{
1070
   279
1070
     0
1070
   172
1070
     1
1070
   173
1070
     1
1070
   340
1005
141
1070
   271
1070
     1
1070
   272
1070
     2
1070
    77
1070
     1
1070
    73
1070
     0
1070
   171
1070
     3
1070
   274
1070
     4
1070
   177
1070
   150
1070
   176
1070
     9
1070
   178
1070
    43
1070
    78
1070
     8
1070
    48
1040
-0.005
1070
    41
1041
3.175
1070
   147
1041
2.25
1070
    42
1041
1.5875
1070
    44
1041
3.175
1070
   140
1041
4.5
1070
   343
1005
162
1070
   344
1005
162
1002
}
0
DIMENSION
5
183
100
AcDbEntity
8
2
62
256
6
ByLayer
370
13
48
1
60
0
100
AcDbDimension
2
DimnDraft3D4
10
62.76649
20
53.600977
30
0
11
67.544536
21
66.522044
31
0
70
34
71
5
72
1
41
1
210
0
220
0
230
1
3
Standard
100
AcDb2LineAngularDimension
13
80
23
55
33
0
14
80
24
52.61875
34
0
15
78.705605
25
54.995469
35
0
16
70.862284
26
63.481888
36
0
40
0
0
ENDSEC
0
SECTION
2
OBJECTS
0
DICTIONARY
5
1ee
330
0
100
AcDbDictionary
280
0
281
1
3
ACAD_GROUP
350
1ef
3
ACAD_MLINESTYLE
350
1f0
0
DICTIONARY
5
1ef
330
0
100
AcDbDictionary
280
0
281
1
0
DICTIONARY
5
1f0
330
0
100
AcDbDictionary
280
0
281
1
3
Standard
350
18
0
MLINESTYLE
5
18
330
1f0
100
AcDbMlineStyle
2
Standard
70
0
3

62
256
51
90
52
90
71
2
49
-0.5
62
256
6
ByLayer
49
0.5
62
256
6
ByLayer
0
RASTERVARIABLES
5
1dc
330

100
AcDbRasterVariables
90
0
70
1
71
1
72
1
0
ENDSEC
0
EOF
