0
SECTION
2
HEADER
9
$ACADVER
1
AC1015
9
$DWGCODEPAGE
3
ANSI_1252
9
$HANDSEED
5
271
9
$ANGBASE
50
0
9
$ANGDIR
70
0
9
$ATTMODE
70
1
9
$AUNITS
70
0
9
$AUPREC
70
0
9
$CECOLOR
62
256
9
$CELTSCALE
40
1
9
$CELTYPE
6
ByLayer
9
$CELWEIGHT
370
18
9
$CLAYER
8
0
9
$CMLJUST
70
0
9
$CMLSCALE
40
1
9
$CMLSTYLE
2
Standard
9
$DIMSTYLE
2
Standard
9
$TEXTSIZE
40
0.2
9
$TEXTSTYLE
7
Standard
9
$LUNITS
70
2
9
$LUPREC
70
4
9
$EXTNAMES
290
1
9
$INSUNITS
70
4
9
$LTSCALE
40
1
9
$LWDISPLAY
290
1
9
$PDMODE
70
0
9
$PDSIZE
40
0
9
$PLINEGEN
70
0
0
ENDSEC
0
SECTION
2
CLASSES
0
CLASS
1
RASTERVARIABLES
2
AcDbRasterVariables
3
ISM
90
0
280
0
281
0
0
ENDSEC
0
SECTION
2
TABLES
0
TABLE
2
VPORT
5
267
100
AcDbSymbolTable
0
VPORT
5
1
100
AcDbSymbolTableRecord
100
AcDbViewportTableRecord
2
*Active
70
0
10
0
20
0
11
1
21
1
12
-1
22
1
13
0
23
0
14
0.5
24
0.5
15
10
25
10
16
0
26
0
36
1
17
0
27
0
37
0
0
ENDTAB
0
TABLE
2
LTYPE
5
268
100
AcDbSymbolTable
0
LTYPE
5
14
100
AcDbSymbolTableRecord
100
AcDbLinetypeTableRecord
70
0
2
ByBlock
3

72
65
73
0
40
0
0
LTYPE
5
15
100
AcDbSymbolTableRecord
100
AcDbLinetypeTableRecord
70
0
2
ByLayer
3

72
65
73
0
40
0
0
LTYPE
5
16
100
AcDbSymbolTableRecord
100
AcDbLinetypeTableRecord
70
0
2
CONTINUOUS
3
Solid line
72
65
73
0
40
0
0
LTYPE
5
6A
100
AcDbSymbolTableRecord
100
AcDbLinetypeTableRecord
70
0
2
CENTER
3
____ _ ____ _ ____ _ ____
72
65
73
4
40
47.5
49
22
74
0
49
-8.5
74
0
49
8.5
74
0
49
-8.5
74
0
0
LTYPE
5
6B
100
AcDbSymbolTableRecord
100
AcDbLinetypeTableRecord
70
0
2
DASHED
3
__ __ __ __ __ __ __ __ __
72
65
73
2
40
25.72
49
12.86
74
0
49
-12.86
74
0
0
ENDTAB
0
TABLE
2
LAYER
5
269
100
AcDbSymbolTable
0
LAYER
5
10
100
AcDbSymbolTableRecord
100
AcDbLayerTableRecord
2
0
70
0
62
7
6
CONTINUOUS
290
1
370
-3
390
0
0
LAYER
5
6D
100
AcDbSymbolTableRecord
100
AcDbLayerTableRecord
2
80
70
0
62
-6
6
CONTINUOUS
290
1
370
-3
390
0
0
LAYER
5
6F
100
AcDbSymbolTableRecord
100
AcDbLayerTableRecord
2
81
70
0
62
-3
6
CONTINUOUS
290
1
370
-3
390
0
0
LAYER
5
71
100
AcDbSymbolTableRecord
100
AcDbLayerTableRecord
2
1
70
0
62
4
6
CONTINUOUS
290
1
370
-3
390
0
0
LAYER
5
E8
100
AcDbSymbolTableRecord
100
AcDbLayerTableRecord
2
4
70
0
62
-2
6
CENTER
290
1
370
-3
390
0
0
LAYER
5
1D6
100
AcDbSymbolTableRecord
100
AcDbLayerTableRecord
2
2
70
0
62
7
6
CONTINUOUS
290
1
370
-3
390
0
0
LAYER
5
253
100
AcDbSymbolTableRecord
100
AcDbLayerTableRecord
2
SK1
70
0
62
4
6
CONTINUOUS
290
1
370
-3
390
0
0
LAYER
5
254
100
AcDbSymbolTableRecord
100
AcDbLayerTableRecord
2
SK4
70
0
62
2
6
CENTER
290
1
370
-3
390
0
0
LAYER
5
255
100
AcDbSymbolTableRecord
100
AcDbLayerTableRecord
2
SK6
70
0
62
5
6
CONTINUOUS
290
1
370
-3
390
0
0
LAYER
5
256
100
AcDbSymbolTableRecord
100
AcDbLayerTableRecord
2
SK2
70
0
62
7
6
CONTINUOUS
290
1
370
-3
390
0
0
ENDTAB
0
TABLE
2
STYLE
5
26a
100
AcDbSymbolTable
0
STYLE
5
11
100
AcDbSymbolTableRecord
100
AcDbTextStyleTableRecord
2
Standard
3
txt
70
0
71
0
40
0
41
1
42
0
50
0
0
STYLE
5
1D0
100
AcDbSymbolTableRecord
100
AcDbTextStyleTableRecord
2
iso_b_vert
3
simplex.shx
70
0
71
0
40
0
41
1
42
0
50
0
0
STYLE
5
1D1
100
AcDbSymbolTableRecord
100
AcDbTextStyleTableRecord
2
DWGDirectTextStyle
3
simplex
70
0
71
0
40
0
41
1
42
0
50
0
0
STYLE
5
1D5
100
AcDbSymbolTableRecord
100
AcDbTextStyleTableRecord
2
blockfont
3
simplex.shx
70
0
71
0
40
0
41
1
42
0
50
0
0
ENDTAB
0
TABLE
2
DIMSTYLE
5
26b
100
AcDbSymbolTable
100
AcDbDimStyleTable
0
DIMSTYLE
105
27
100
AcDbSymbolTableRecord
100
AcDbDimStyleTableRecord
2
Standard
70
0
3
<>
41
0.18
42
0.0625
44
0.18
140
0.18
147
0.09
73
0
74
0
77
1
271
2
275
0
278
52
280
0
340
11
0
ENDTAB
0
TABLE
2
VIEW
5
26c
100
AcDbSymbolTable
0
ENDTAB
0
TABLE
2
UCS
5
26d
100
AcDbSymbolTable
0
ENDTAB
0
TABLE
2
APPID
5
26e
100
AcDbSymbolTable
0
APPID
5
12
100
AcDbSymbolTableRecord
100
AcDbRegAppTableRecord
2
ACAD
70
0
0
ENDTAB
0
TABLE
2
BLOCK_RECORD
5
26f
100
AcDbSymbolTable
0
BLOCK_RECORD
5
1F
100
AcDbSymbolTableRecord
100
AcDbBlockTableRecord
2
*Model_Space
340
0
70
0
0
BLOCK_RECORD
5
1B
100
AcDbSymbolTableRecord
100
AcDbBlockTableRecord
2
*Paper_Space
340
0
70
0
0
BLOCK_RECORD
5
23
100
AcDbSymbolTableRecord
100
AcDbBlockTableRecord
2
*Paper_Space0
340
0
70
0
0
BLOCK_RECORD
5
1D3
100
AcDbSymbolTableRecord
100
AcDbBlockTableRecord
2
DimnDraft3D1
340
0
70
0
0
BLOCK_RECORD
5
1E3
100
AcDbSymbolTableRecord
100
AcDbBlockTableRecord
2
_CLOSED
340
0
70
0
0
BLOCK_RECORD
5
1EA
100
AcDbSymbolTableRecord
100
AcDbBlockTableRecord
2
DimnDraft3D2
340
0
70
0
0
ENDTAB
0
ENDSEC
0
SECTION
2
BLOCKS
0
BLOCK
5
20
100
AcDbEntity
8
0
100
AcDbBlockBegin
2
*Model_Space
70
0
10
0
20
0
30
0
3
*Model_Space
0
ENDBLK
5
21
100
AcDbEntity
8
0
100
AcDbBlockEnd
0
BLOCK
5
1C
100
AcDbEntity
8
0
100
AcDbBlockBegin
2
*Paper_Space
70
0
10
0
20
0
30
0
3
*Paper_Space
0
ENDBLK
5
1D
100
AcDbEntity
8
0
100
AcDbBlockEnd
0
BLOCK
5
24
100
AcDbEntity
8
0
100
AcDbBlockBegin
2
*Paper_Space0
70
0
10
0
20
0
30
0
3
*Paper_Space0
0
ENDBLK
5
25
100
AcDbEntity
8
0
100
AcDbBlockEnd
0
BLOCK
5
1E0
100
AcDbEntity
8
0
100
AcDbBlockBegin
2
DimnDraft3D1
70
0
10
0
20
0
30
0
3
DimnDraft3D1
0
MTEXT
5
1D4
100
AcDbEntity
8
2
62
256
6
ByLayer
370
18
48
1
60
0
100
AcDbMText
10
56.732554
20
-57.532795
30
0
210
0
220
0
230
1
1
\W1.1628;150
40
3
41
0
44
0.903614
50
0
71
7
72
5
7
blockfont
0
LINE
5
1D7
100
AcDbEntity
8
2
62
256
6
ByLayer
370
18
48
1
60
0
100
AcDbLine
10
0
20
-41.7
30
0
11
0
21
-60.064045
31
0
39
0
210
0
220
0
230
1
0
LINE
5
1D8
100
AcDbEntity
8
2
62
256
6
ByLayer
370
18
48
1
60
0
100
AcDbLine
10
149.999794
20
-2
30
0
11
149.999794
21
-60.064045
31
0
39
0
210
0
220
0
230
1
0
LINE
5
1D9
100
AcDbEntity
8
2
62
256
6
ByLayer
370
18
48
1
60
0
100
AcDbLine
10
0
20
-58.064045
30
0
11
149.999794
21
-58.064045
31
0
39
0
210
0
220
0
230
1
0
LINE
5
1DA
100
AcDbEntity
8
2
62
256
6
ByLayer
370
18
48
1
60
0
100
AcDbLine
10
0
20
-58.064045
30
0
11
3.174998
21
-57.646049
31
0
39
0
210
0
220
0
230
1
0
LINE
5
1DB
100
AcDbEntity
8
2
62
256
6
ByLayer
370
18
48
1
60
0
100
AcDbLine
10
0
20
-58.064045
30
0
11
3.175002
21
-58.482042
31
0
39
0
210
0
220
0
230
1
0
LINE
5
1DC
100
AcDbEntity
8
2
62
256
6
ByLayer
370
18
48
1
60
0
100
AcDbLine
10
3.174998
20
-57.646049
30
0
11
3.175002
21
-58.482042
31
0
39
0
210
0
220
0
230
1
0
LINE
5
1DD
100
AcDbEntity
8
2
62
256
6
ByLayer
370
18
48
1
60
0
100
AcDbLine
10
149.999794
20
-58.064045
30
0
11
146.824795
21
-58.482042
31
0
39
0
210
0
220
0
230
1
0
LINE
5
1DE
100
AcDbEntity
8
2
62
256
6
ByLayer
370
18
48
1
60
0
100
AcDbLine
10
149.999794
20
-58.064045
30
0
11
146.824792
21
-57.646049
31
0
39
0
210
0
220
0
230
1
0
LINE
5
1DF
100
AcDbEntity
8
2
62
256
6
ByLayer
370
18
48
1
60
0
100
AcDbLine
10
146.824795
20
-58.482042
30
0
11
146.824792
21
-57.646049
31
0
39
0
210
0
220
0
230
1
0
ENDBLK
5
1E1
100
AcDbEntity
8
0
100
AcDbBlockEnd
0
BLOCK
5
1E4
100
AcDbEntity
8
0
100
AcDbBlockBegin
2
_CLOSED
70
0
10
0
20
0
30
0
3
_CLOSED
0
LINE
5
1E6
100
AcDbEntity
8
0
62
256
6
ByLayer
370
-2
48
1
60
0
100
AcDbLine
10
-1
20
0.166667
30
0
11
0
21
0
31
0
39
0
210
0
220
0
230
1
0
LINE
5
1E7
100
AcDbEntity
8
0
62
256
6
ByLayer
370
-2
48
1
60
0
100
AcDbLine
10
0
20
0
30
0
11
-1
21
-0.166667
31
0
39
0
210
0
220
0
230
1
0
LINE
5
1E8
100
AcDbEntity
8
0
62
256
6
ByLayer
370
-2
48
1
60
0
100
AcDbLine
10
-1
20
0.166667
30
0
11
-1
21
-0.166667
31
0
39
0
210
0
220
0
230
1
0
LINE
5
1E9
100
AcDbEntity
8
0
62
256
6
ByLayer
370
-2
48
1
60
0
100
AcDbLine
10
0
20
0
30
0
11
-1
21
0
31
0
39
0
210
0
220
0
230
1
0
ENDBLK
5
1E5
100
AcDbEntity
8
0
100
AcDbBlockEnd
0
BLOCK
5
1F7
100
AcDbEntity
8
0
100
AcDbBlockBegin
2
DimnDraft3D2
70
0
10
0
20
0
30
0
3
DimnDraft3D2
0
MTEXT
5
1EB
100
AcDbEntity
8
SK2
62
256
6
ByLayer
370
18
48
1
60
0
100
AcDbMText
10
-75.484669
20
-4.445435
30
0
210
0
220
0
230
1
1
%%c
40
3
41
0
44
1.084337
50
90
71
7
72
5
7
iso_b_vert
0
MTEXT
5
1ED
100
AcDbEntity
8
SK2
62
256
6
ByLayer
370
18
48
1
60
0
100
AcDbMText
10
-75.265919
20
3.031127
30
0
210
0
220
0
230
1
1
\W1.1795;80
40
3
41
0
44
0.903614
50
90
71
7
72
5
7
blockfont
0
LINE
5
1EE
100
AcDbEntity
8
SK2
62
256
6
ByLayer
370
18
48
1
60
0
100
AcDbLine
10
-1.7
20
-40
30
0
11
-75.984669
21
-40
31
0
39
0
210
0
220
0
230
1
0
LINE
5
1EF
100
AcDbEntity
8
SK2
62
256
6
ByLayer
370
18
48
1
60
0
100
AcDbLine
10
-1.7
20
40
30
0
11
-75.984669
21
40
31
0
39
0
210
0
220
0
230
1
0
LINE
5
1F0
100
AcDbEntity
8
SK2
62
256
6
ByLayer
370
18
48
1
60
0
100
AcDbLine
10
-73.984669
20
-40
30
0
11
-73.984669
21
40
31
0
39
0
210
0
220
0
230
1
0
LINE
5
1F1
100
AcDbEntity
8
SK2
62
256
6
ByLayer
370
18
48
1
60
0
100
AcDbLine
10
-73.984669
20
-40
30
0
11
-74.402665
21
-36.825002
31
0
39
0
210
0
220
0
230
1
0
LINE
5
1F2
100
AcDbEntity
8
SK2
62
256
6
ByLayer
370
18
48
1
60
0
100
AcDbLine
10
-73.984669
20
-40
30
0
11
-73.566672
21
-36.824998
31
0
39
0
210
0
220
0
230
1
0
LINE
5
1F3
100
AcDbEntity
8
SK2
62
256
6
ByLayer
370
18
48
1
60
0
100
AcDbLine
10
-74.402665
20
-36.825002
30
0
11
-73.566672
21
-36.824998
31
0
39
0
210
0
220
0
230
1
0
LINE
5
1F4
100
AcDbEntity
8
SK2
62
256
6
ByLayer
370
18
48
1
60
0
100
AcDbLine
10
-73.984669
20
40
30
0
11
-73.566672
21
36.825002
31
0
39
0
210
0
220
0
230
1
0
LINE
5
1F5
100
AcDbEntity
8
SK2
62
256
6
ByLayer
370
18
48
1
60
0
100
AcDbLine
10
-73.984669
20
40
30
0
11
-74.402665
21
36.824998
31
0
39
0
210
0
220
0
230
1
0
LINE
5
1F6
100
AcDbEntity
8
SK2
62
256
6
ByLayer
370
18
48
1
60
0
100
AcDbLine
10
-73.566672
20
36.825002
30
0
11
-74.402665
21
36.824998
31
0
39
0
210
0
220
0
230
1
0
ENDBLK
5
1F8
100
AcDbEntity
8
0
100
AcDbBlockEnd
0
ENDSEC
0
SECTION
2
ENTITIES
0
ARC
5
ED
100
AcDbEntity
8
SK1
62
256
6
ByLayer
370
18
48
1
60
0
100
AcDbCircle
39
0
10
0.6
20
29.6
30
0
40
1
210
0
220
0
230
-1
100
AcDbArc
50
233.130102
51
246.421822
0
ARC
5
EE
100
AcDbEntity
8
SK1
62
256
6
ByLayer
370
18
48
1
60
0
100
AcDbCircle
39
0
10
0.6
20
-29.6
30
0
40
1
210
0
220
0
230
-1
100
AcDbArc
50
113.578178
51
126.869898
0
ARC
5
EF
100
AcDbEntity
8
1
62
256
6
ByLayer
370
18
48
1
60
0
100
AcDbCircle
39
0
10
-78.012177
20
-16.778898
30
0
40
5.00000000030387
210
0
220
0
230
-1
100
AcDbArc
50
205
51
220.288616
0
ELLIPSE
5
F0
100
AcDbEntity
8
1
62
256
6
ByLayer
370
18
48
1
60
0
100
AcDbEllipse
10
122.78905
20
4.632861
30
0
11
-1.53075794227797E-16
21
2.5
31
0
210
0
220
0
230
-1
40
0.989133
41
0
42
6.28318530717959
0
ELLIPSE
5
F1
100
AcDbEntity
8
1
62
256
6
ByLayer
370
18
48
1
60
0
100
AcDbEllipse
10
122.78905
20
4.632861
30
0
11
1.34881244168361E-08
21
-1.42500000043937
31
0
210
0
220
0
230
-1
40
0.989133
41
-0.915595058160509
42
-0.655201249698616
0
ELLIPSE
5
F2
100
AcDbEntity
8
1
62
256
6
ByLayer
370
18
48
1
60
0
100
AcDbEllipse
10
124.582822
20
5.118781
30
0
11
-3.0615158844638E-17
21
0.499999999984952
31
0
210
0
220
0
230
-1
40
0.989133
41
-2.72558117820719
42
-2.21161952616582
0
ELLIPSE
5
F3
100
AcDbEntity
8
1
62
256
6
ByLayer
370
18
48
1
60
0
100
AcDbEllipse
10
122.78905
20
4.632861
30
0
11
-8.72532027205615E-17
21
1.42500000017503
31
0
210
0
220
0
230
-1
40
0.989133
41
1.17880003478655
42
1.43919384326802
0
ELLIPSE
5
F4
100
AcDbEntity
8
1
62
256
6
ByLayer
370
18
48
1
60
0
100
AcDbEllipse
10
124.582822
20
5.118781
30
0
11
3.46306459452986E-09
21
-0.500000000123407
31
0
210
0
220
0
230
-1
40
0.989133
41
1.68802075756265
42
2.20198240947494
0
ELLIPSE
5
F5
100
AcDbEntity
8
1
62
256
6
ByLayer
370
18
48
1
60
0
100
AcDbEllipse
10
123.824195
20
5.679379
30
0
11
-2.75536429610054E-17
21
0.450000000000031
31
0
210
0
220
0
230
-1
40
0.989133
41
0
42
2.20198240260718
0
ELLIPSE
5
F6
100
AcDbEntity
8
1
62
256
6
ByLayer
370
18
48
1
60
0
100
AcDbEllipse
10
123.26969
20
6.446341
30
0
11
-3.06151588449883E-17
21
0.499999999990673
31
0
210
0
220
0
230
-1
40
0.989133
41
2.51040657777597
42
3.024368229808
0
ELLIPSE
5
F7
100
AcDbEntity
8
1
62
256
6
ByLayer
370
18
48
1
60
0
100
AcDbEllipse
10
122.78905
20
4.632861
30
0
11
-8.72532027051805E-17
21
1.42499999992383
31
0
210
0
220
0
230
-1
40
0.989133
41
0.131602483546267
42
0.391996292069573
0
ELLIPSE
5
F8
100
AcDbEntity
8
1
62
256
6
ByLayer
370
18
48
1
60
0
100
AcDbEllipse
10
123.26969
20
6.446341
30
0
11
-3.06151588466116E-17
21
0.500000000017184
31
0
210
0
220
0
230
-1
40
0.989133
41
-2.50076945419205
42
-1.98680780218451
0
ELLIPSE
5
F9
100
AcDbEntity
8
1
62
256
6
ByLayer
370
18
48
1
60
0
100
AcDbEllipse
10
122.41016
20
6.062431
30
0
11
-2.75536429610783E-17
21
0.450000000001221
31
0
210
0
220
0
230
-1
40
0.989133
41
0
42
1.15478485140896
0
ELLIPSE
5
FA
100
AcDbEntity
8
1
62
256
6
ByLayer
370
18
48
1
60
0
100
AcDbEllipse
10
121.475917
20
5.96042
30
0
11
-3.06151588459208E-17
21
0.500000000005902
31
0
210
0
220
0
230
-1
40
0.989133
41
1.46320902658671
42
1.97717067860715
0
ELLIPSE
5
FB
100
AcDbEntity
8
1
62
256
6
ByLayer
370
18
48
1
60
0
100
AcDbEllipse
10
122.78905
20
4.632861
30
0
11
1.38066250429054E-08
21
-1.42500000044947
31
0
210
0
220
0
230
-1
40
0.989133
41
2.22599759565331
42
2.48639140411393
0
ELLIPSE
5
FC
100
AcDbEntity
8
1
62
256
6
ByLayer
370
18
48
1
60
0
100
AcDbEllipse
10
120.995277
20
4.14694
30
0
11
-3.06151588437438E-17
21
0.499999999970348
31
0
210
0
220
0
230
-1
40
0.989133
41
0.416011475381033
42
0.929973127434461
0
ELLIPSE
5
FD
100
AcDbEntity
8
1
62
256
6
ByLayer
370
18
48
1
60
0
100
AcDbEllipse
10
122.78905
20
4.632861
30
0
11
-8.72532027132947E-17
21
1.42500000005635
31
0
210
0
220
0
230
-1
40
0.989133
41
-1.96279261883496
42
-1.7023988103303
0
ELLIPSE
5
FE
100
AcDbEntity
8
1
62
256
6
ByLayer
370
18
48
1
60
0
100
AcDbEllipse
10
120.995277
20
4.14694
30
0
11
-3.06151588482496E-17
21
0.500000000043936
31
0
210
0
220
0
230
-1
40
0.989133
41
1.68802075058083
42
2.20198240255723
0
ELLIPSE
5
FF
100
AcDbEntity
8
1
62
256
6
ByLayer
370
18
48
1
60
0
100
AcDbEllipse
10
121.753904
20
3.586343
30
0
11
-2.75536429610055E-17
21
0.450000000000033
31
0
210
0
220
0
230
-1
40
0.989133
41
3.14159265358979
42
-0.93961025098262
0
ELLIPSE
5
100
100
AcDbEntity
8
1
62
256
6
ByLayer
370
18
48
1
60
0
100
AcDbEllipse
10
122.30841
20
2.819381
30
0
11
-3.06151588431299E-17
21
0.499999999960321
31
0
210
0
220
0
230
-1
40
0.989133
41
-0.631186075832961
42
-0.117224423781527
0
ELLIPSE
5
101
100
AcDbEntity
8
1
62
256
6
ByLayer
370
18
48
1
60
0
100
AcDbEllipse
10
122.78905
20
4.632861
30
0
11
-8.72532027104702E-17
21
1.42500000001022
31
0
210
0
220
0
230
-1
40
0.989133
41
-3.00999017004627
42
-2.74959636153187
0
ELLIPSE
5
102
100
AcDbEntity
8
1
62
256
6
ByLayer
370
18
48
1
60
0
100
AcDbEllipse
10
122.30841
20
2.819381
30
0
11
3.28436220680082E-09
21
-0.499999999900708
31
0
210
0
220
0
230
-1
40
0.989133
41
-2.50076944767573
42
-1.9868077955741
0
ELLIPSE
5
103
100
AcDbEntity
8
1
62
256
6
ByLayer
370
18
48
1
60
0
100
AcDbEllipse
10
123.167939
20
3.203291
30
0
11
-2.75536429610693E-17
21
0.450000000001075
31
0
210
0
220
0
230
-1
40
0.989133
41
3.14159265358979
42
-1.9868078021806
0
ELLIPSE
5
104
100
AcDbEntity
8
1
62
256
6
ByLayer
370
18
48
1
60
0
100
AcDbEllipse
10
124.102182
20
3.305302
30
0
11
-3.06151588479554E-17
21
0.50000000003913
31
0
210
0
220
0
230
-1
40
0.989133
41
-1.67838362699519
42
-1.16442197501037
0
ELLIPSE
5
105
100
AcDbEntity
8
1
62
256
6
ByLayer
370
18
48
1
60
0
100
AcDbEllipse
10
122.589929
20
4.632861
30
0
11
-3.06151588454323E-16
21
4.99999999997923
31
0
210
0
220
0
230
-1
40
0.989133
41
3.14159265358979
42
-2.87979326578783
0
ELLIPSE
5
106
100
AcDbEntity
8
1
62
256
6
ByLayer
370
18
48
1
60
0
100
AcDbEllipse
10
121.375015
20
5.015913
30
0
11
-2.75536429610037E-17
21
0.450000000000004
31
0
210
0
220
0
230
-1
40
0.989133
41
-2.72558117820098
42
0
0
ELLIPSE
5
107
100
AcDbEntity
8
1
62
256
6
ByLayer
370
18
48
1
60
0
100
AcDbEllipse
10
121.753904
20
3.586343
30
0
11
-2.75536429623401E-17
21
0.450000000021829
31
0
210
0
220
0
230
-1
40
0.989133
41
2.51040657779796
42
3.14159265358979
0
ELLIPSE
5
108
100
AcDbEntity
8
1
62
256
6
ByLayer
370
18
48
1
60
0
100
AcDbEllipse
10
122.782683
20
4.632861
30
0
11
7.37578454212739E-08
21
-1.39999999661447
31
0
210
0
220
0
230
-1
40
0.989133
41
1.2173958323115
42
1.40059815107789
0
ELLIPSE
5
109
100
AcDbEntity
8
1
62
256
6
ByLayer
370
18
48
1
60
0
100
AcDbEllipse
10
122.782683
20
4.632861
30
0
11
7.38879292270332E-08
21
-1.40000000242279
31
0
210
0
220
0
230
-1
40
0.989133
41
2.26459338391059
42
2.4477957020498
0
ELLIPSE
5
10A
100
AcDbEntity
8
1
62
256
6
ByLayer
370
18
48
1
60
0
100
AcDbEllipse
10
122.406787
20
4.632861
30
0
11
-8.57224447675664E-17
21
1.4
31
0
210
0
220
0
230
-1
40
0.989133
41
0.0292011424954635
42
3.03347893310323
0
ELLIPSE
5
10B
100
AcDbEntity
8
1
62
256
6
ByLayer
370
18
48
1
60
0
100
AcDbEllipse
10
122.487651
20
4.632861
30
0
11
-8.5722444767665E-17
21
1.40000000000161
31
0
210
0
220
0
230
-1
40
0.989133
41
1.40059809817338
42
2.26459333101864
0
ELLIPSE
5
10C
100
AcDbEntity
8
1
62
256
6
ByLayer
370
18
48
1
60
0
100
AcDbEllipse
10
122.782683
20
4.632861
30
0
11
6.79307328702191E-08
21
-1.40000000221095
31
0
210
0
220
0
230
-1
40
0.989133
41
-0.876999273955351
42
-0.693796955799116
0
ELLIPSE
5
10D
100
AcDbEntity
8
1
62
256
6
ByLayer
370
18
48
1
60
0
100
AcDbEllipse
10
122.487651
20
4.632861
30
0
11
-8.57224447667802E-17
21
1.39999999998716
31
0
210
0
220
0
230
-1
40
0.989133
41
2.44779564936644
42
3.07301436819198
0
ELLIPSE
5
10E
100
AcDbEntity
8
1
62
256
6
ByLayer
370
18
48
1
60
0
100
AcDbEllipse
10
122.782683
20
4.632861
30
0
11
-8.57224447839504E-17
21
1.40000000026758
31
0
210
0
220
0
230
-1
40
0.989133
41
-2.97139442497763
42
-2.78819210664593
0
ELLIPSE
5
10F
100
AcDbEntity
8
1
62
256
6
ByLayer
370
18
48
1
60
0
100
AcDbEllipse
10
122.487651
20
4.632861
30
0
11
-8.57224447677238E-17
21
1.40000000000257
31
0
210
0
220
0
230
-1
40
0.989133
41
-2.7881921066132
42
-2.1993258440888
0
ELLIPSE
5
110
100
AcDbEntity
8
1
62
256
6
ByLayer
370
18
48
1
60
0
100
AcDbEllipse
10
122.487651
20
4.632861
30
0
11
-8.57224447690555E-17
21
1.40000000002432
31
0
210
0
220
0
230
-1
40
0.989133
41
-1.55167536784368
42
-0.938357278653561
0
ELLIPSE
5
111
100
AcDbEntity
8
1
62
256
6
ByLayer
370
18
48
1
60
0
100
AcDbEllipse
10
122.487651
20
4.632861
30
0
11
-8.57224447651325E-17
21
1.39999999996025
31
0
210
0
220
0
230
-1
40
0.989133
41
-0.383397054180261
42
0
0
ELLIPSE
5
112
100
AcDbEntity
8
1
62
256
6
ByLayer
370
18
48
1
60
0
100
AcDbEllipse
10
122.782683
20
4.632861
30
0
11
1.262526475734E-08
21
1.40000000105063
31
0
210
0
220
0
230
-1
40
0.989133
41
0.170198219644249
42
0.353400537924097
0
ELLIPSE
5
113
100
AcDbEntity
8
1
62
256
6
ByLayer
370
18
48
1
60
0
100
AcDbEllipse
10
122.487651
20
4.632861
30
0
11
-8.57224447674342E-17
21
1.39999999999784
31
0
210
0
220
0
230
-1
40
0.989133
41
0.353400546975894
42
1.21739577982355
0
ELLIPSE
5
114
100
AcDbEntity
8
1
62
256
6
ByLayer
370
18
48
1
60
0
100
AcDbEllipse
10
122.782683
20
4.632861
30
0
11
1.20325044898163E-08
21
-1.39999999944433
31
0
210
0
220
0
230
-1
40
0.989133
41
-1.92419686520489
42
-1.74099454678643
0
ELLIPSE
5
115
100
AcDbEntity
8
1
62
256
6
ByLayer
370
18
48
1
60
0
100
AcDbEllipse
10
122.41016
20
6.062431
30
0
11
-2.7553642960968E-17
21
0.44999999999942
31
0
210
0
220
0
230
-1
40
0.989133
41
-1.67838362700532
42
0
0
ELLIPSE
5
116
100
AcDbEntity
8
1
62
256
6
ByLayer
370
18
48
1
60
0
100
AcDbEllipse
10
122.108761
20
6.062431
30
0
11
-2.75536429609433E-17
21
0.449999999999017
31
0
210
0
220
0
230
-1
40
0.989133
41
0.345393694683406
42
1.15478485141166
0
ELLIPSE
5
117
100
AcDbEntity
8
1
62
256
6
ByLayer
370
18
48
1
60
0
100
AcDbEllipse
10
122.007011
20
2.819381
30
0
11
-3.06151588450483E-17
21
0.499999999991652
31
0
210
0
220
0
230
-1
40
0.989133
41
-0.631186075813305
42
0.00278833874422537
0
ELLIPSE
5
118
100
AcDbEntity
8
1
62
256
6
ByLayer
370
18
48
1
60
0
100
AcDbEllipse
10
122.86654
20
3.203291
30
0
11
-2.75536429609846E-17
21
0.449999999999692
31
0
210
0
220
0
230
-1
40
0.989133
41
1.46320902658508
42
2.79619895893718
0
ELLIPSE
5
119
100
AcDbEntity
8
1
62
256
6
ByLayer
370
18
48
1
60
0
100
AcDbEllipse
10
123.167939
20
3.203291
30
0
11
-2.75536429610126E-17
21
0.450000000000149
31
0
210
0
220
0
230
-1
40
0.989133
41
1.4632090265856
42
3.14159265358979
0
ELLIPSE
5
11A
100
AcDbEntity
8
1
62
256
6
ByLayer
370
18
48
1
60
0
100
AcDbEllipse
10
122.968291
20
6.446341
30
0
11
-3.06151588451972E-17
21
0.499999999994084
31
0
210
0
220
0
230
-1
40
0.989133
41
-2.62078221673558
42
-1.98680780217618
0
ELLIPSE
5
11B
100
AcDbEntity
8
1
62
256
6
ByLayer
370
18
48
1
60
0
100
AcDbEllipse
10
123.824195
20
5.679379
30
0
11
-2.75536429618251E-17
21
0.450000000013418
31
0
210
0
220
0
230
-1
40
0.989133
41
-0.631186075797976
42
0
0
ELLIPSE
5
11C
100
AcDbEntity
8
1
62
256
6
ByLayer
370
18
48
1
60
0
100
AcDbEllipse
10
123.522796
20
5.679379
30
0
11
-2.75536429610135E-17
21
0.450000000000164
31
0
210
0
220
0
230
-1
40
0.989133
41
0.345393694695886
42
2.20198240260696
0
ELLIPSE
5
11D
100
AcDbEntity
8
1
62
256
6
ByLayer
370
18
48
1
60
0
100
AcDbEllipse
10
123.800783
20
3.305302
30
0
11
-3.06151588448555E-17
21
0.499999999988504
31
0
210
0
220
0
230
-1
40
0.989133
41
-1.67838362700721
42
-1.04440921244013
0
ELLIPSE
5
11E
100
AcDbEntity
8
1
62
256
6
ByLayer
370
18
48
1
60
0
100
AcDbEllipse
10
123.800783
20
3.305302
30
0
11
-3.0615158844786E-17
21
0.499999999987368
31
0
210
0
220
0
230
-1
40
0.989133
41
-0.526387114344255
42
0
0
ELLIPSE
5
11F
100
AcDbEntity
8
1
62
256
6
ByLayer
370
18
48
1
60
0
100
AcDbEllipse
10
124.281423
20
5.118781
30
0
11
-3.06151588457618E-17
21
0.500000000003305
31
0
210
0
220
0
230
-1
40
0.989133
41
-1.57358466553389
42
-0.939610250987143
0
ELLIPSE
5
120
100
AcDbEntity
8
1
62
256
6
ByLayer
370
18
48
1
60
0
100
AcDbEllipse
10
124.203085
20
4.249809
30
0
11
-2.75536429610041E-17
21
0.45000000000001
31
0
210
0
220
0
230
-1
40
0.989133
41
0.416011475388893
42
3.14159265358979
0
ELLIPSE
5
121
100
AcDbEntity
8
1
62
256
6
ByLayer
370
18
48
1
60
0
100
AcDbEllipse
10
123.901686
20
4.249809
30
0
11
-2.75536429610035E-17
21
0.450000000000001
31
0
210
0
220
0
230
-1
40
0.989133
41
0.416011475388807
42
2.98518794237797
0
ELLIPSE
5
122
100
AcDbEntity
8
1
62
256
6
ByLayer
370
18
48
1
60
0
100
AcDbEllipse
10
124.281423
20
5.118781
30
0
11
-3.06151588461829E-17
21
0.500000000010183
31
0
210
0
220
0
230
-1
40
0.989133
41
-2.72558117819629
42
-2.09160676365666
0
ELLIPSE
5
123
100
AcDbEntity
8
1
62
256
6
ByLayer
370
18
48
1
60
0
100
AcDbEllipse
10
122.347978
20
4.632861
30
0
11
-3.0615158845207E-16
21
4.99999999994245
31
0
210
0
220
0
230
-1
40
0.989133
41
3.14159265358979
42
-2.87979326578686
0
ELLIPSE
5
124
100
AcDbEntity
8
1
62
256
6
ByLayer
370
18
48
1
60
0
100
AcDbEllipse
10
122.589929
20
4.632861
30
0
11
-3.06151588455594E-16
21
5
31
0
210
0
220
0
230
-1
40
0.989133
41
-2.87979326578838
42
-1.79587258680102E-16
0
ELLIPSE
5
125
100
AcDbEntity
8
1
62
256
6
ByLayer
370
18
48
1
60
0
100
AcDbEllipse
10
122.589929
20
4.632861
30
0
11
-3.06151588455594E-16
21
5
31
0
210
0
220
0
230
-1
40
0.989133
41
0
42
3.14159265358979
0
ELLIPSE
5
126
100
AcDbEntity
8
1
62
256
6
ByLayer
370
18
48
1
60
0
100
AcDbEllipse
10
122.347978
20
4.632861
30
0
11
-3.06151588455594E-16
21
4.99999999999999
31
0
210
0
220
0
230
-1
40
0.989133
41
-2.87979326578839
42
-1.79587258680102E-16
0
ELLIPSE
5
127
100
AcDbEntity
8
1
62
256
6
ByLayer
370
18
48
1
60
0
100
AcDbEllipse
10
118.803958
20
8.568503
30
0
11
5.31644254575203
21
-1.4090559499447
31
0
210
0
220
0
230
-1
40
0.038053
41
-2.32982390190008
42
-1.92440472995063
0
ELLIPSE
5
128
100
AcDbEntity
8
1
62
256
6
ByLayer
370
18
48
1
60
0
100
AcDbEllipse
10
117.26792
20
2.772948
30
0
11
5.31644254527791
21
-1.4090559498049
31
0
210
0
220
0
230
-1
40
0.038053
41
-2.32982390187369
42
-1.92440472989745
0
ELLIPSE
5
129
100
AcDbEntity
8
1
62
256
6
ByLayer
370
18
48
1
60
0
100
AcDbEllipse
10
117.39764
20
12.190124
30
0
11
0.0827603202186261
21
2.99885823646455
31
0
210
0
220
0
230
-1
40
0.986504
41
-3.05077074617948
42
-2.90704943704159
0
ELLIPSE
5
12A
100
AcDbEntity
8
1
62
256
6
ByLayer
370
18
48
1
60
0
100
AcDbEllipse
10
121.116467
20
4.967229
30
0
11
0.142071912691865
21
5.14803997625646
31
0
210
0
220
0
230
-1
40
0.986504
41
0.115900401306975
42
0.234543210788173
0
ELLIPSE
5
12B
100
AcDbEntity
8
1
62
256
6
ByLayer
370
18
48
1
60
0
100
AcDbEllipse
10
123.202919
20
4.400502
30
0
11
0.142071895588239
21
5.14803997425078
31
0
210
0
220
0
230
-1
40
0.986504
41
0.234543214108975
42
-3.08331723149298
0
ELLIPSE
5
12C
100
AcDbEntity
8
1
62
256
6
ByLayer
370
18
48
1
60
0
100
AcDbEllipse
10
128.184106
20
-3.190475
30
0
11
-2.05150753549079E-16
21
3.35047671292476
31
0
210
0
220
0
230
-1
40
0.989133
41
2.44346095279442
42
3.06322861112967
0
ELLIPSE
5
12D
100
AcDbEntity
8
1
62
256
6
ByLayer
370
18
48
1
60
0
100
AcDbEllipse
10
128.184106
20
-3.190475
30
0
11
-2.05150753548725E-16
21
3.35047671291899
31
0
210
0
220
0
230
-1
40
0.989133
41
3.06322861112962
42
-2.26892802759168
0
ELLIPSE
5
12E
100
AcDbEntity
8
1
62
256
6
ByLayer
370
18
48
1
60
0
100
AcDbEllipse
10
126.316901
20
-3.190475
30
0
11
-2.14199240031801E-16
21
3.49825459198736
31
0
210
0
220
0
230
-1
40
0.989133
41
2.44346095279501
42
2.78782033837942
0
ELLIPSE
5
12F
100
AcDbEntity
8
1
62
256
6
ByLayer
370
18
48
1
60
0
100
AcDbEllipse
10
126.294848
20
-3.190475
30
0
11
-2.05014692372172E-16
21
3.34825459189
31
0
210
0
220
0
230
-1
40
0.989133
41
2.4434609527857
42
2.853565128094
0
ELLIPSE
5
130
100
AcDbEntity
8
1
62
256
6
ByLayer
370
18
48
1
60
0
100
AcDbEllipse
10
78.012177
20
-16.778898
30
0
11
3.53553391370892
21
3.53553391370892
31
0
210
0
220
0
230
-1
40
1
41
0.082229158258452
42
0.174532925008341
0
ELLIPSE
5
131
100
AcDbEntity
8
1
62
256
6
ByLayer
370
18
48
1
60
0
100
AcDbEllipse
10
138.440103
20
8.80693
30
0
11
-7.29253083700417E-17
21
1.19099999999868
31
0
210
0
220
0
230
-1
40
0.989133
41
0
42
0.698131700800409
0
ELLIPSE
5
132
100
AcDbEntity
8
1
62
256
6
ByLayer
370
18
48
1
60
0
100
AcDbEllipse
10
148.821737
20
0
30
0
11
-7.29253083701287E-17
21
1.1910000000001
31
0
210
0
220
0
230
-1
40
0.989133
41
0.698131700800088
42
2.44346095279423
0
ELLIPSE
5
133
100
AcDbEntity
8
1
62
256
6
ByLayer
370
18
48
1
60
0
100
AcDbEllipse
10
138.440103
20
0
30
0
11
-1.94406258669299E-16
21
3.17499999999994
31
0
210
0
220
0
230
-1
40
0.989133
41
0.538680683624317
42
3.12946770047724
0
ELLIPSE
5
134
100
AcDbEntity
8
1
62
256
6
ByLayer
370
18
48
1
60
0
100
AcDbEllipse
10
138.440103
20
8.80693
30
0
11
-7.29253083696976E-17
21
1.19099999999306
31
0
210
0
220
0
230
-1
40
0.989133
41
-0.69813170079761
42
0
0
ELLIPSE
5
135
100
AcDbEntity
8
1
62
256
6
ByLayer
370
18
48
1
60
0
100
AcDbEllipse
10
138.440103
20
-8.80693
30
0
11
-7.29253083704312E-17
21
1.19100000000504
31
0
210
0
220
0
230
-1
40
0.989133
41
2.44346095279587
42
3.14159265358979
0
ELLIPSE
5
136
100
AcDbEntity
8
1
62
256
6
ByLayer
370
18
48
1
60
0
100
AcDbEllipse
10
116.616698
20
0.711315
30
0
11
4.36237834181881
21
2.13702508686489
31
0
210
0
220
0
230
-1
40
0.56306
41
2.57093121244482
42
-2.59428142056425
0
ELLIPSE
5
137
100
AcDbEntity
8
1
62
256
6
ByLayer
370
18
48
1
60
0
100
AcDbEllipse
10
113.348897
20
1.104176
30
0
11
1.20049625146824
21
-3.2920865207898
31
0
210
0
220
0
230
-1
40
0.994205
41
1.01004696372892
42
2.18228179444112
0
ELLIPSE
5
138
100
AcDbEntity
8
1
62
256
6
ByLayer
370
18
48
1
60
0
100
AcDbEllipse
10
119.366207
20
11.085358
30
0
11
3.1119174359129
21
-3.3677942629019
31
0
210
0
220
0
230
-1
40
0.5293
41
-2.58530317132635
42
-2.44080115008445
0
ELLIPSE
5
139
100
AcDbEntity
8
1
62
256
6
ByLayer
370
18
48
1
60
0
100
AcDbEllipse
10
116.098406
20
11.47822
30
0
11
1.20049625147601
21
-3.29208652078938
31
0
210
0
220
0
230
-1
40
0.994205
41
2.18228179444306
42
-2.92866868202499
0
ELLIPSE
5
13A
100
AcDbEntity
8
1
62
256
6
ByLayer
370
18
48
1
60
0
100
AcDbEllipse
10
119.366207
20
11.085358
30
0
11
3.11191743513325
21
-3.36779426077181
31
0
210
0
220
0
230
-1
40
0.5293
41
2.72441148317762
42
-2.58530317111252
0
ELLIPSE
5
13B
100
AcDbEntity
8
1
62
256
6
ByLayer
370
18
48
1
60
0
100
AcDbEllipse
10
139.116808
20
-0.036235
30
0
11
1.44968362508642
21
2.55078300361103
31
0
210
0
220
0
230
-1
40
0.796571
41
1.4074870669469
42
1.85719704299007
0
ELLIPSE
5
13C
100
AcDbEntity
8
1
62
256
6
ByLayer
370
18
48
1
60
0
100
AcDbEllipse
10
139.116808
20
-0.036235
30
0
11
0.686189791209211
21
-2.74760348204859
31
0
210
0
220
0
230
-1
40
0.785705
41
-1.56494573162664
42
-1.11523575558969
0
ELLIPSE
5
13D
100
AcDbEntity
8
1
62
256
6
ByLayer
370
18
48
1
60
0
100
AcDbEllipse
10
-6.763884
20
0
30
0
11
18.7348357595638
21
39.4834983054999
31
0
210
0
220
0
230
-1
40
0.341999
41
0.161099005228942
42
1.08794676716931
0
ELLIPSE
5
13E
100
AcDbEntity
8
1
62
256
6
ByLayer
370
18
48
1
60
0
100
AcDbEllipse
10
30.763884
20
0
30
0
11
18.7348357595623
21
-39.4834983054985
31
0
210
0
220
0
230
-1
40
0.341999
41
2.05364588642046
42
2.98049364836084
0
ELLIPSE
5
13F
100
AcDbEntity
8
1
62
256
6
ByLayer
370
18
48
1
60
0
100
AcDbEllipse
10
-6.763884
20
0
30
0
11
18.7348357595632
21
-39.4834983054991
31
0
210
0
220
0
230
-1
40
0.341999
41
-1.08794676716932
42
-0.161099005228945
0
ELLIPSE
5
140
100
AcDbEntity
8
1
62
256
6
ByLayer
370
18
48
1
60
0
100
AcDbEllipse
10
30.763884
20
0
30
0
11
18.7348357595628
21
39.4834983054992
31
0
210
0
220
0
230
-1
40
0.341999
41
-2.98049364836084
42
-2.05364588642047
0
ELLIPSE
5
141
100
AcDbEntity
8
1
62
256
6
ByLayer
370
18
48
1
60
0
100
AcDbEllipse
10
114.658928
20
16.80089
30
0
11
5.39641008453764
21
-1.49477524235386
31
0
210
0
220
0
230
-1
40
0.713797
41
-0.273592072389793
42
-0.00795098041831569
0
ELLIPSE
5
142
100
AcDbEntity
8
1
62
256
6
ByLayer
370
18
48
1
60
0
100
AcDbEllipse
10
109.538799
20
-2.517627
30
0
11
5.39641008351196
21
-1.49477524229329
31
0
210
0
220
0
230
-1
40
0.713797
41
-0.00795098044633063
42
1.26820760734701
0
ELLIPSE
5
143
100
AcDbEntity
8
1
62
256
6
ByLayer
370
18
48
1
60
0
100
AcDbEllipse
10
124.335739
20
4.412382
30
0
11
0.374913502469286
21
-0.00805392241137082
31
0
210
0
220
0
230
-1
40
0.045283
41
0
42
6.28318530717959
0
POINT
5
6C
100
AcDbEntity
8
80
62
256
6
ByLayer
370
18
48
1
60
0
100
AcDbPoint
10
0
20
0
30
0
39
0
210
0
220
0
230
1
50
360
0
POINT
5
6E
100
AcDbEntity
8
81
62
256
6
ByLayer
370
18
48
1
60
0
100
AcDbPoint
10
149.999794
20
0
30
0
39
0
210
0
220
0
230
1
50
360
0
SPLINE
5
144
100
AcDbEntity
8
1
62
256
6
ByLayer
370
18
48
1
60
0
100
AcDbSpline
70
4
71
2
72
6
73
3
40
0
40
0
40
0
40
1
40
1
40
1
41
1
10
121.486449494659
20
4.08846239334841
30
0
41
1
10
121.486236814379
20
4.11652273412048
30
0
41
1
10
121.483475417055
20
4.14833462774711
30
0
0
SPLINE
5
145
100
AcDbEntity
8
1
62
256
6
ByLayer
370
18
48
1
60
0
100
AcDbSpline
70
4
71
2
72
6
73
3
40
0
40
0
40
0
40
1
40
1
40
1
41
1
10
121.417905840665
20
4.39573210380299
30
0
41
1
10
121.405003961592
20
4.42328880569595
30
0
41
1
10
121.391723593818
20
4.44586822201964
30
0
0
SPLINE
5
146
100
AcDbEntity
8
1
62
256
6
ByLayer
370
18
48
1
60
0
100
AcDbSpline
70
4
71
2
72
6
73
3
40
0
40
0
40
0
40
1
40
1
40
1
41
1
10
121.671410117554
20
5.50114025316429
30
0
41
1
10
121.69358345532
20
5.51224456376147
30
0
41
1
10
121.718027325492
20
5.52810632281261
30
0
0
SPLINE
5
147
100
AcDbEntity
8
1
62
256
6
ByLayer
370
18
48
1
60
0
100
AcDbSpline
70
4
71
2
72
6
73
3
40
0
40
0
40
0
40
1
40
1
40
1
41
1
10
121.89716673962
20
5.70921384494855
30
0
41
1
10
121.915699581564
20
5.73677809911959
30
0
41
1
10
121.930206091446
20
5.76277947867212
30
0
0
SPLINE
5
148
100
AcDbEntity
8
1
62
256
6
ByLayer
370
18
48
1
60
0
100
AcDbSpline
70
4
71
2
72
6
73
3
40
0
40
0
40
0
40
1
40
1
40
1
41
1
10
122.303422562034
20
3.31937916624834
30
0
41
1
10
122.274766514732
20
3.3194167338133
30
0
41
1
10
122.250567287688
20
3.31594965074191
30
0
0
SPLINE
5
149
100
AcDbEntity
8
1
62
256
6
ByLayer
370
18
48
1
60
0
100
AcDbSpline
70
4
71
2
72
6
73
3
40
0
40
0
40
0
40
1
40
1
40
1
41
1
10
122.604089162421
20
3.22018304757853
30
0
41
1
10
122.578191764272
20
3.23722095601538
30
0
41
1
10
122.548131552551
20
3.25308921232893
30
0
0
SPLINE
5
14A
100
AcDbEntity
8
1
62
256
6
ByLayer
370
18
48
1
60
0
100
AcDbSpline
70
4
71
2
72
6
73
3
40
0
40
0
40
0
40
1
40
1
40
1
41
1
10
122.974010408211
20
6.04553876721026
30
0
41
1
10
122.992775046234
20
6.02850085877361
30
0
41
1
10
123.017235369425
20
6.01263260245969
30
0
0
SPLINE
5
14B
100
AcDbEntity
8
1
62
256
6
ByLayer
370
18
48
1
60
0
100
AcDbSpline
70
4
71
2
72
6
73
3
40
0
40
0
40
0
40
1
40
1
40
1
41
1
10
123.261944359943
20
5.94634264854048
30
0
41
1
10
123.296200295773
20
5.94630508097551
30
0
41
1
10
123.327532282943
20
5.94977216404688
30
0
0
SPLINE
5
14C
100
AcDbEntity
8
1
62
256
6
ByLayer
370
18
48
1
60
0
100
AcDbSpline
70
4
71
2
72
6
73
3
40
0
40
0
40
0
40
1
40
1
40
1
41
1
10
123.668200182357
20
3.55650796984026
30
0
41
1
10
123.655316606469
20
3.52894371566921
30
0
41
1
10
123.647893479186
20
3.50294233611666
30
0
0
SPLINE
5
14D
100
AcDbEntity
8
1
62
256
6
ByLayer
370
18
48
1
60
0
100
AcDbSpline
70
4
71
2
72
6
73
3
40
0
40
0
40
0
40
1
40
1
40
1
41
1
10
123.906689453078
20
3.76458156162451
30
0
41
1
10
123.87744891826
20
3.75347725102735
30
0
41
1
10
123.847339596485
20
3.73761549197623
30
0
0
SPLINE
5
14E
100
AcDbEntity
8
1
62
256
6
ByLayer
370
18
48
1
60
0
100
AcDbSpline
70
4
71
2
72
6
73
3
40
0
40
0
40
0
40
1
40
1
40
1
41
1
10
124.091650075973
20
5.17725942144037
30
0
41
1
10
124.084818313035
20
5.1491990806683
30
0
41
1
10
124.081891504922
20
5.11738718704169
30
0
0
SPLINE
5
14F
100
AcDbEntity
8
1
62
256
6
ByLayer
370
18
48
1
60
0
100
AcDbSpline
70
4
71
2
72
6
73
3
40
0
40
0
40
0
40
1
40
1
40
1
41
1
10
124.147461081311
20
4.86998971098683
30
0
41
1
10
124.165970542853
20
4.84243300909132
30
0
41
1
10
124.186375976813
20
4.81985359276916
30
0
0
SPLINE
5
150
100
AcDbEntity
8
1
62
256
6
ByLayer
370
18
48
1
60
0
100
AcDbSpline
70
4
71
1
72
4
73
2
40
0
40
0
40
1
40
1
41
1
10
115.310754952946
20
12.0805405432813
30
0
41
1
10
115.447794124629
20
12.4590618677017
30
0
0
SPLINE
5
151
100
AcDbEntity
8
1
62
256
6
ByLayer
370
18
48
1
60
0
100
AcDbSpline
70
4
71
3
72
13
73
9
40
0
40
0
40
0
40
0
40
0.143989328737499
40
0.288755724250736
40
0.436195026747185
40
0.584683918495911
40
0.790246240600678
40
1
40
1
40
1
40
1
41
1
10
117.829940247558
20
9.13296418163953
30
0
41
1
10
117.707950808269
20
9.31447582770087
30
0
41
1
10
117.464242474479
20
9.67403115311187
30
0
41
1
10
117.097820444281
20
10.2053183601218
30
0
41
1
10
116.73271754221
20
10.7250172179811
30
0
41
1
10
116.326782445152
20
11.291401156473
30
0
41
1
10
115.887141413985
20
11.888677496981
30
0
41
1
10
115.591244543
20
12.2755886417411
30
0
41
1
10
115.447794124629
20
12.4590618677017
30
0
0
SPLINE
5
152
100
AcDbEntity
8
1
62
256
6
ByLayer
370
18
48
1
60
0
100
AcDbSpline
70
4
71
2
72
6
73
3
40
0
40
0
40
0
40
1
40
1
40
1
41
1
10
117.829940247558
20
9.13296418163953
30
0
41
1
10
117.655815179404
20
9.13738899198266
30
0
41
1
10
117.485470421089
20
9.15830946489947
30
0
0
SPLINE
5
153
100
AcDbEntity
8
1
62
256
6
ByLayer
370
18
48
1
60
0
100
AcDbSpline
70
4
71
2
72
6
73
3
40
0
40
0
40
0
40
1
40
1
40
1
41
1
10
116.247315910764
20
3.16163894179101
30
0
41
1
10
115.873940047213
20
3.35469942991668
30
0
41
1
10
115.477215213844
20
3.45067077325675
30
0
0
SPLINE
5
154
100
AcDbEntity
8
1
62
256
6
ByLayer
370
18
48
1
60
0
100
AcDbSpline
70
4
71
3
72
13
73
9
40
0
40
0
40
0
40
0
40
0.124733683706789
40
0.250547603494644
40
0.379375370562011
40
0.509084806798512
40
0.752371970764249
40
1
40
1
40
1
40
1
41
1
10
112.493667311482
20
1.31298532195802
30
0
41
1
10
112.623231743488
20
1.37469713592513
30
0
41
1
10
112.892433352656
20
1.50350086824687
30
0
41
1
10
113.329850351097
20
1.71441953851571
30
0
41
1
10
113.795760089705
20
1.94092578381492
30
0
41
1
10
114.428235479142
20
2.25090410920857
30
0
41
1
10
115.245847603808
20
2.65618381723553
30
0
41
1
10
115.907749823703
20
2.98944985770933
30
0
41
1
10
116.247315910764
20
3.161638941791
30
0
0
SPLINE
5
155
100
AcDbEntity
8
1
62
256
6
ByLayer
370
18
48
1
60
0
100
AcDbSpline
70
4
71
1
72
4
73
2
40
0
40
0
40
1
40
1
41
1
10
112.561245781076
20
1.70649716894289
30
0
41
1
10
112.493667311482
20
1.31298532195802
30
0
0
SPLINE
5
156
100
AcDbEntity
8
1
62
256
6
ByLayer
370
18
48
1
60
0
100
AcDbSpline
70
4
71
2
72
6
73
3
40
0
40
0
40
0
40
1
40
1
40
1
41
1
10
116.247315910764
20
3.16163894179101
30
0
41
1
10
116.406996743132
20
3.07960847313394
30
0
41
1
10
116.547055448501
20
2.97516732278987
30
0
0
SPLINE
5
157
100
AcDbEntity
8
1
62
256
6
ByLayer
370
18
48
1
60
0
100
AcDbSpline
70
4
71
3
72
14
73
10
40
0
40
0
40
0
40
0
40
0.206608115477176
40
0.413087833777793
40
0.597846296601819
40
0.692591077764109
40
0.787318522147101
40
0.893678262409798
40
1
40
1
40
1
40
1
41
1
10
116.547055448501
20
2.97516732278992
30
0
41
1
10
116.211365952066
20
2.74710311848209
30
0
41
1
10
115.550877644665
20
2.30237330144718
30
0
41
1
10
114.615034780134
20
1.68428622034691
30
0
41
1
10
113.894812047755
20
1.21773971160091
30
0
41
1
10
113.375171778372
20
0.886185976793088
30
0
41
1
10
112.987588792819
20
0.641642879493267
30
0
41
1
10
112.61547791204
20
0.410064325850184
30
0
41
1
10
112.387957464034
20
0.270669242772263
30
0
41
1
10
112.281070936934
20
0.205826995826122
30
0
0
SPLINE
5
158
100
AcDbEntity
8
1
62
256
6
ByLayer
370
18
48
1
60
0
100
AcDbSpline
70
4
71
3
72
13
73
9
40
0
40
0
40
0
40
0
40
0.236322744745059
40
0.471915530049522
40
0.657506231940605
40
0.844171875648268
40
0.95715843714835
40
1
40
1
40
1
40
1
41
1
10
112.281070936934
20
0.205826995826122
30
0
41
1
10
112.299548084464
20
0.254868389046345
30
0
41
1
10
112.335612370544
20
0.370701233739282
30
0
41
1
10
112.382416931147
20
0.57874242801561
30
0
41
1
10
112.425634450934
20
0.81737547448223
30
0
41
1
10
112.461393144766
20
1.04153135839173
30
0
41
1
10
112.484595086993
20
1.21514639617535
30
0
41
1
10
112.491836884061
20
1.29187411902863
30
0
41
1
10
112.493667311482
20
1.31298532195802
30
0
0
SPLINE
5
159
100
AcDbEntity
8
1
62
256
6
ByLayer
370
18
48
1
60
0
100
AcDbSpline
70
4
71
3
72
13
73
9
40
0
40
0
40
0
40
0
40
0.110370609553681
40
0.291589189013803
40
0.472931792514703
40
0.657295776210515
40
0.841748782765048
40
1
40
1
40
1
40
1
41
1
10
120.034522803829
20
-0.0357200594849321
30
0
41
1
10
119.898564161697
20
0.001062948314369
30
0
41
1
10
119.547862155367
20
0.112425742644673
30
0
41
1
10
119.010348102624
20
0.357112968205782
30
0
41
1
10
118.452789166073
20
0.719890262600516
30
0
41
1
10
117.965225913152
20
1.15888020350636
30
0
41
1
10
117.568233166167
20
1.64114559985947
30
0
41
1
10
117.352679520969
20
1.98728515072831
30
0
41
1
10
117.262204900912
20
2.15441849475425
30
0
0
SPLINE
5
15A
100
AcDbEntity
8
1
62
256
6
ByLayer
370
18
48
1
60
0
100
AcDbSpline
70
4
71
1
72
4
73
2
40
0
40
0
40
1
40
1
41
1
10
122.350485446004
20
-0.657768715732061
30
0
41
1
10
122.131077480135
20
-0.603662056986756
30
0
0
SPLINE
5
15B
100
AcDbEntity
8
1
62
256
6
ByLayer
370
18
48
1
60
0
100
AcDbSpline
70
4
71
3
72
12
73
8
40
0
40
0
40
0
40
0
40
0.158767531158603
40
0.369075648368953
40
0.5793837655793
40
0.789691882789651
40
1
40
1
40
1
40
1
41
1
10
122.350485421235
20
-0.657768779796176
30
0
41
1
10
122.305353392713
20
-0.77448840725139
30
0
41
1
10
122.201460274022
20
-1.03647677048018
30
0
41
1
10
122.041371108425
20
-1.41539545428313
30
0
41
1
10
121.873249274709
20
-1.78194222061876
30
0
41
1
10
121.712759060989
20
-2.09929670185235
30
0
41
1
10
121.612418600271
20
-2.27503045296949
30
0
41
1
10
121.56378118465
20
-2.35419177329374
30
0
0
SPLINE
5
15C
100
AcDbEntity
8
1
62
256
6
ByLayer
370
18
48
1
60
0
100
AcDbSpline
70
4
71
2
72
6
73
3
40
0
40
0
40
0
40
1
40
1
40
1
41
1
10
112.265371467446
20
0.164682381556541
30
0
41
1
10
112.273189760523
20
0.184883427525602
30
0
41
1
10
112.281070936934
20
0.205826995826119
30
0
0
SPLINE
5
15D
100
AcDbEntity
8
1
62
256
6
ByLayer
370
18
48
1
60
0
100
AcDbSpline
70
4
71
3
72
11
73
7
40
0
40
0
40
0
40
0
40
0.0078578168666739
40
0.417986723929735
40
0.841480154300538
40
1
40
1
40
1
40
1
41
1
10
116.547055448501
20
2.97516732278992
30
0
41
1
10
116.549393269324
20
2.97341553715225
30
0
41
1
10
116.673568497261
20
2.88005166382418
30
0
41
1
10
116.906368416577
20
2.67106763448372
30
0
41
1
10
117.12938630341
20
2.38362058613037
30
0
41
1
10
117.235137345748
20
2.20425716538112
30
0
41
1
10
117.262204900912
20
2.15441849475425
30
0
0
SPLINE
5
15E
100
AcDbEntity
8
1
62
256
6
ByLayer
370
18
48
1
60
0
100
AcDbSpline
70
4
71
3
72
15
73
11
40
0
40
0
40
0
40
0
40
0.0867053084987763
40
0.173427834034996
40
0.352575907354719
40
0.459359020107298
40
0.566162424072926
40
0.676001668014178
40
0.785854580879623
40
1
40
1
40
1
40
1
41
1
10
115.793944848771
20
13.4600858660297
30
0
41
1
10
115.846044518346
20
13.3815528596738
30
0
41
1
10
115.955026174382
20
13.2131725293894
30
0
41
1
10
116.197492693652
20
12.8224291297802
30
0
41
1
10
116.480335110462
20
12.3430381886077
30
0
41
1
10
116.796584407162
20
11.7840520558808
30
0
41
1
10
117.065489401987
20
11.2959451529513
30
0
41
1
10
117.342736330213
20
10.7802241785877
30
0
41
1
10
117.716290994836
20
10.0693194815939
30
0
41
1
10
117.996427129136
20
9.51915210683161
30
0
41
1
10
118.182588158198
20
9.14611864898759
30
0
0
SPLINE
5
15F
100
AcDbEntity
8
1
62
256
6
ByLayer
370
18
48
1
60
0
100
AcDbSpline
70
4
71
2
72
6
73
3
40
0
40
0
40
0
40
1
40
1
40
1
41
1
10
118.182588158198
20
9.14611864898759
30
0
41
1
10
118.005608530714
20
9.12826359865931
30
0
41
1
10
117.829940247558
20
9.13296418163953
30
0
0
SPLINE
5
160
100
AcDbEntity
8
1
62
256
6
ByLayer
370
18
48
1
60
0
100
AcDbSpline
70
4
71
3
72
13
73
9
40
0
40
0
40
0
40
0
40
0.108097845296606
40
0.261062704054109
40
0.501857223970365
40
0.690308849357437
40
0.879123452890371
40
1
40
1
40
1
40
1
41
1
10
115.447794124629
20
12.4590618677017
30
0
41
1
10
115.470522155631
20
12.5099286751791
30
0
41
1
10
115.522623189909
20
12.6299301148504
30
0
41
1
10
115.609386731615
20
12.8546266232977
30
0
41
1
10
115.688726040382
20
13.0706332976504
30
0
41
1
10
115.748313035104
20
13.2544070017757
30
0
41
1
10
115.779475123406
20
13.3742712032725
30
0
41
1
10
115.790788487131
20
13.4373702348582
30
0
41
1
10
115.79394484878
20
13.4600858660387
30
0
0
SPLINE
5
161
100
AcDbEntity
8
1
62
256
6
ByLayer
370
18
48
1
60
0
100
AcDbSpline
70
4
71
3
72
12
73
8
40
0
40
0
40
0
40
0
40
0.158767555627573
40
0.36907566672068
40
0.579383777813787
40
0.789691888906893
40
1
40
1
40
1
40
1
41
1
10
124.984794704432
20
9.28161929866259
30
0
41
1
10
125.001532805757
20
9.39833894890083
30
0
41
1
10
125.036513104032
20
9.66032733435693
30
0
41
1
10
125.07727916326
20
10.0392460372108
30
0
41
1
10
125.103454511383
20
10.4057928035435
30
0
41
1
10
125.111185891771
20
10.7231472847824
30
0
41
1
10
125.103997453475
20
10.8988810359008
30
0
41
1
10
125.097321454138
20
10.9780423562258
30
0
0
SPLINE
5
162
100
AcDbEntity
8
1
62
256
6
ByLayer
370
18
48
1
60
0
100
AcDbSpline
70
4
71
1
72
4
73
2
40
0
40
0
40
1
40
1
41
1
10
124.984794704581
20
9.2816192986156
30
0
41
1
10
124.767943818149
20
9.34537395378461
30
0
0
SPLINE
5
163
100
AcDbEntity
8
1
62
256
6
ByLayer
370
18
48
1
60
0
100
AcDbSpline
70
4
71
3
72
11
73
7
40
0
40
0
40
0
40
0
40
0.256527644779141
40
0.539129692901649
40
0.831181895808383
40
1
40
1
40
1
40
1
41
1
10
119.203456192701
20
9.47886218366569
30
0
41
1
10
119.413102205663
20
9.60304405203823
30
0
41
1
10
119.868766364359
20
9.8241545122079
30
0
41
1
10
120.621499436906
20
10.0400369391919
30
0
41
1
10
121.338741538844
20
10.1023236146855
30
0
41
1
10
121.794150071813
20
10.072074946972
30
0
41
1
10
121.962991319953
20
10.0519544398511
30
0
0
SPLINE
5
164
100
AcDbEntity
8
1
62
256
6
ByLayer
370
18
48
1
60
0
100
AcDbSpline
70
4
71
3
72
10
73
6
40
0
40
0
40
0
40
0
40
0.34016085464236
40
0.688236432610498
40
1
40
1
40
1
40
1
41
1
10
119.203456192701
20
9.47886218366569
30
0
41
1
10
119.100247848521
20
9.4179828925245
30
0
41
1
10
118.882794164128
20
9.31074013038267
30
0
41
1
10
118.536002113135
20
9.19967628617224
30
0
41
1
10
118.297929033585
20
9.15862256392543
30
0
41
1
10
118.182588158198
20
9.14611864898761
30
0
0
SPLINE
5
165
100
AcDbEntity
8
1
62
256
6
ByLayer
370
18
48
1
60
0
100
AcDbSpline
70
4
71
1
72
4
73
2
40
0
40
0
40
1
40
1
41
1
10
115.793944848771
20
13.4600858660297
30
0
41
1
10
115.798911736934
20
13.4969165110761
30
0
0
SPLINE
5
166
100
AcDbEntity
8
1
62
256
6
ByLayer
370
18
48
1
60
0
100
AcDbSpline
70
4
71
1
72
4
73
2
40
0
40
0
40
1
40
1
41
1
10
117.485470421089
20
9.15830946489947
30
0
41
1
10
117.013253857347
20
9.24622573098764
30
0
0
SPLINE
5
167
100
AcDbEntity
8
1
62
256
6
ByLayer
370
18
48
1
60
0
100
AcDbSpline
70
4
71
2
72
6
73
3
40
0
40
0
40
0
40
1
40
1
40
1
41
1
10
121.962991319953
20
10.0519544398511
30
0
41
1
10
122.316898740949
20
10.0093694136423
30
0
41
1
10
122.671389141842
20
9.91331595128643
30
0
0
SPLINE
5
168
100
AcDbEntity
8
1
62
256
6
ByLayer
370
18
48
1
60
0
100
AcDbSpline
70
4
71
3
72
15
73
11
40
0
40
0
40
0
40
0
40
0.228435565827119
40
0.45526847185039
40
0.597059656971087
40
0.693578837374159
40
0.768481282605452
40
0.843713841304808
40
0.913294020400121
40
1
40
1
40
1
40
1
41
1
10
136.937303432321
20
-0.112379523226102
30
0
41
1
10
136.76857195348
20
-0.15413777919234
30
0
41
1
10
136.427958250389
20
-0.26500809421941
30
0
41
1
10
135.962222565415
20
-0.466323777125893
30
0
41
1
10
135.602003395661
20
-0.689434117516341
30
0
41
1
10
135.380487166885
20
-0.877420655320069
30
0
41
1
10
135.242519255187
20
-1.04393659819737
30
0
41
1
10
135.171822863297
20
-1.19211773852506
30
0
41
1
10
135.159015228983
20
-1.32693413529711
30
0
41
1
10
135.178530180211
20
-1.40086755873659
30
0
41
1
10
135.199615560052
20
-1.43677563733789
30
0
0
SPLINE
5
169
100
AcDbEntity
8
1
62
256
6
ByLayer
370
18
48
1
60
0
100
AcDbSpline
70
4
71
3
72
22
73
18
40
0
40
0
40
0
40
0
40
0.0398593159906946
40
0.0886431353209835
40
0.145182137757599
40
0.208222486434422
40
0.276480167276714
40
0.348665814083665
40
0.423501122463803
40
0.512388740508842
40
0.6006072383481
40
0.68554026058172
40
0.764545249694693
40
0.835054174448038
40
0.896263553347136
40
0.951870103079795
40
1
40
1
40
1
40
1
41
1
10
121.56378118465
20
-2.35419177329374
30
0
41
1
10
121.747358216051
20
-2.38193438359711
30
0
41
1
10
122.156641358146
20
-2.43232759404236
30
0
41
1
10
122.832808710387
20
-2.46234868481526
30
0
41
1
10
123.616844616318
20
-2.46883162224187
30
0
41
1
10
124.491447283138
20
-2.44861125429263
30
0
41
1
10
125.437590997511
20
-2.40479874159451
30
0
41
1
10
126.436520253897
20
-2.33869690311331
30
0
41
1
10
127.527758547468
20
-2.24736147592763
30
0
41
1
10
128.68717310328
20
-2.12966052884928
30
0
41
1
10
129.885704210017
20
-1.99133569929969
30
0
41
1
10
131.031449786676
20
-1.84763387456127
30
0
41
1
10
132.088668722578
20
-1.70893141310674
30
0
41
1
10
133.029761689195
20
-1.58193846536017
30
0
41
1
10
133.854583366642
20
-1.4790121951169
30
0
41
1
10
134.569652321062
20
-1.41464453627793
30
0
41
1
10
135.001954232234
20
-1.42421756502978
30
0
41
1
10
135.199615560052
20
-1.43677563733789
30
0
0
SPLINE
5
16A
100
AcDbEntity
8
1
62
256
6
ByLayer
370
18
48
1
60
0
100
AcDbSpline
70
4
71
3
72
15
73
11
40
0
40
0
40
0
40
0
40
0.0981974468047929
40
0.196458180102227
40
0.330100916639876
40
0.463890453377329
40
0.599927611739926
40
0.735931956327786
40
0.888086410001815
40
1
40
1
40
1
40
1
41
1
10
128.150693850783
20
1.82338725059728
30
0
41
1
10
128.052446911922
20
1.64374966061227
30
0
41
1
10
127.833896898938
20
1.30078797655918
30
0
41
1
10
127.387311883223
20
0.77534880723445
30
0
41
1
10
126.810100402321
20
0.276989808399295
30
0
41
1
10
126.097252883048
20
-0.164053557979509
30
0
41
1
10
125.32142922892
20
-0.493866956599707
30
0
41
1
10
124.46745506662
20
-0.718232149797245
30
0
41
1
10
123.633223042535
20
-0.799800863047174
30
0
41
1
10
123.087697943181
20
-0.77104375808643
30
0
41
1
10
122.855938846291
20
-0.74427981227234
30
0
0
SPLINE
5
16B
100
AcDbEntity
8
1
62
256
6
ByLayer
370
18
48
1
60
0
100
AcDbSpline
70
4
71
3
72
18
73
14
40
0
40
0
40
0
40
0
40
0.0759799328441196
40
0.216950636843263
40
0.356423101488994
40
0.488469120205418
40
0.607076641018375
40
0.708907296935521
40
0.773319164813559
40
0.830732578780722
40
0.883746847658009
40
0.938130719748053
40
1
40
1
40
1
40
1
41
1
10
128.150693850702
20
1.82338725061612
30
0
41
1
10
128.389096427939
20
1.76808695633936
30
0
41
1
10
129.066811776031
20
1.61194058800562
30
0
41
1
10
130.165824090534
20
1.36412263026103
30
0
41
1
10
131.417183044827
20
1.08856001927707
30
0
41
1
10
132.582234322856
20
0.837750993794451
30
0
41
1
10
133.617201917127
20
0.620662529175842
30
0
41
1
10
134.436212869157
20
0.453595242877637
30
0
41
1
10
135.067232123515
20
0.322881020295556
30
0
41
1
10
135.554091451009
20
0.216697177997757
30
0
41
1
10
136.007550667904
20
0.10960318373517
30
0
41
1
10
136.464683794429
20
-0.0015680509450689
30
0
41
1
10
136.77409233575
20
-0.0742949692587065
30
0
41
1
10
136.937303432147
20
-0.112379523186119
30
0
0
SPLINE
5
16C
100
AcDbEntity
8
1
62
256
6
ByLayer
370
18
48
1
60
0
100
AcDbSpline
70
4
71
3
72
22
73
18
40
0
40
0
40
0
40
0
40
0.0398593159879891
40
0.0886431353159074
40
0.145182137750538
40
0.208222486425829
40
0.276480167267103
40
0.348665814073607
40
0.423501122453942
40
0.512388740500028
40
0.600607238340984
40
0.685540260576635
40
0.764545249691687
40
0.835054174446872
40
0.896263553347474
40
0.95187010307989
40
1
40
1
40
1
40
1
41
1
10
125.097321454138
20
10.9780423562258
30
0
41
1
10
125.270342863244
20
10.9104728253587
30
0
41
1
10
125.650486602464
20
10.7501351083992
30
0
41
1
10
126.252529101623
20
10.4404370307429
30
0
41
1
10
126.936612226477
20
10.0568269694899
30
0
41
1
10
127.686053036289
20
9.60480503818846
30
0
41
1
10
128.48570859788
20
9.09591001088869
30
0
41
1
10
129.319795297556
20
8.54005217357767
30
0
41
1
10
130.220960971887
20
7.91423356598436
30
0
41
1
10
131.167418834315
20
7.22843765743171
30
0
41
1
10
132.136784477752
20
6.50210908603201
30
0
41
1
10
133.057048934567
20
5.79505873231788
30
0
41
1
10
133.902466338643
20
5.13462282365523
30
0
41
1
10
134.652510574524
20
4.54077881626966
30
0
41
1
10
135.313130797849
20
4.02416432454498
30
0
41
1
10
135.897173376219
20
3.59416254380552
30
0
41
1
10
136.273347595598
20
3.37281676843561
30
0
41
1
10
136.449218983595
20
3.2780441019156
30
0
0
SPLINE
5
16D
100
AcDbEntity
8
1
62
256
6
ByLayer
370
18
48
1
60
0
100
AcDbSpline
70
4
71
3
72
16
73
12
40
0
40
0
40
0
40
0
40
0.118546636851419
40
0.191014590194126
40
0.263713635625983
40
0.333764906153628
40
0.452008025544354
40
0.553339821228456
40
0.654921614862682
40
0.827282712617538
40
1
40
1
40
1
40
1
41
1
10
136.449218983595
20
3.27804410191563
30
0
41
1
10
136.399596258873
20
3.25770367311713
30
0
41
1
10
136.341474858635
20
3.19477403041786
30
0
41
1
10
136.301050861288
20
3.04153032724553
30
0
41
1
10
136.312504102532
20
2.87368759834795
30
0
41
1
10
136.370415835181
20
2.65055720309861
30
0
41
1
10
136.477140881703
20
2.40258405140201
30
0
41
1
10
136.619056840411
20
2.14852783971587
30
0
41
1
10
136.800189346539
20
1.87284287806828
30
0
41
1
10
137.029482546481
20
1.57537285804648
30
0
41
1
10
137.210706518598
20
1.36664800313146
30
0
41
1
10
137.303206330807
20
1.2681914450917
30
0
0
SPLINE
5
16E
100
AcDbEntity
8
1
62
256
6
ByLayer
370
18
48
1
60
0
100
AcDbSpline
70
4
71
3
72
18
73
14
40
0
40
0
40
0
40
0
40
0.075979932840416
40
0.216950636837055
40
0.356423101480457
40
0.48846912019471
40
0.607076641005626
40
0.708907296920896
40
0.773319164801295
40
0.830732578770264
40
0.883746847649595
40
0.938130719742847
40
1
40
1
40
1
40
1
41
1
10
128.799118149906
20
4.26992639067061
30
0
41
1
10
129.032139490558
20
4.19432240647304
30
0
41
1
10
129.693834030215
20
3.97772868148664
30
0
41
1
10
130.763167559613
20
3.61793109949282
30
0
41
1
10
131.976233811753
20
3.19788810009209
30
0
41
1
10
133.101753082623
20
2.79792272292583
30
0
41
1
10
134.097843665409
20
2.43414923991751
30
0
41
1
10
134.882900704136
20
2.13897204473984
30
0
41
1
10
135.488221545427
20
1.91129635181621
30
0
41
1
10
135.957641506401
20
1.73931285813027
30
0
41
1
10
136.398726003449
20
1.58552839195928
30
0
41
1
10
136.844623034665
20
1.43196277587742
30
0
41
1
10
137.144974839861
20
1.32506431354574
30
0
41
1
10
137.303206330808
20
1.26819144509171
30
0
0
SPLINE
5
16F
100
AcDbEntity
8
1
62
256
6
ByLayer
370
18
48
1
60
0
100
AcDbSpline
70
4
71
3
72
16
73
12
40
0
40
0
40
0
40
0
40
0.10671044923581
40
0.213401716204671
40
0.336736720313615
40
0.460143959161153
40
0.593301403099267
40
0.726369811232024
40
0.832171375576822
40
0.937863836237408
40
1
40
1
40
1
40
1
41
1
10
124.984794704432
20
9.28161929866259
30
0
41
1
10
125.213223057684
20
9.20810497978564
30
0
41
1
10
125.656900001918
20
9.03269503998695
30
0
41
1
10
126.321281488938
20
8.66175733791107
30
0
41
1
10
126.958703058962
20
8.18134733774733
30
0
41
1
10
127.562095874768
20
7.57763388583681
30
0
41
1
10
128.079253343895
20
6.8764698290925
30
0
41
1
10
128.458879195512
20
6.13529636385661
30
0
41
1
10
128.694890397996
20
5.39881018789986
30
0
41
1
10
128.792578682224
20
4.78750211198115
30
0
41
1
10
128.802130935893
20
4.41040442350704
30
0
41
1
10
128.799118149985
20
4.269926390645
30
0
0
SPLINE
5
170
100
AcDbEntity
8
1
62
256
6
ByLayer
370
18
48
1
60
0
100
AcDbSpline
70
4
71
2
72
6
73
3
40
0
40
0
40
0
40
1
40
1
40
1
41
1
10
122.855938846291
20
-0.74427981227234
30
0
41
1
10
122.600668917153
20
-0.713630907611564
30
0
41
1
10
122.350485446004
20
-0.657768715732063
30
0
0
SPLINE
5
171
100
AcDbEntity
8
1
62
256
6
ByLayer
370
18
48
1
60
0
100
AcDbSpline
70
4
71
3
72
11
73
7
40
0
40
0
40
0
40
0
40
0.274372063566576
40
0.548743888963175
40
0.772964608938923
40
1
40
1
40
1
40
1
41
1
10
128.799118149985
20
4.26992639064503
30
0
41
1
10
128.793556328158
20
4.03466287962156
30
0
41
1
10
128.752653097514
20
3.56941887566995
30
0
41
1
10
128.610068039818
20
2.92355694105772
30
0
41
1
10
128.406485660589
20
2.33915211490896
30
0
41
1
10
128.242689610864
20
1.99334976775403
30
0
41
1
10
128.150693850783
20
1.82338725059728
30
0
0
SPLINE
5
172
100
AcDbEntity
8
1
62
256
6
ByLayer
370
18
48
1
60
0
100
AcDbSpline
70
4
71
3
72
10
73
6
40
0
40
0
40
0
40
0
40
0.419320200747444
40
0.850977049530496
40
1
40
1
40
1
40
1
41
1
10
112.815859061594
20
-2.32020289868197
30
0
41
1
10
112.600122901328
20
-2.27559130280878
30
0
41
1
10
112.15730903375
20
-2.14303521963889
30
0
41
1
10
111.604723718338
20
-1.90025057848286
30
0
41
1
10
111.294998220548
20
-1.70925559577768
30
0
41
1
10
111.215574334153
20
-1.65738177674349
30
0
0
SPLINE
5
173
100
AcDbEntity
8
1
62
256
6
ByLayer
370
18
48
1
60
0
100
AcDbSpline
70
4
71
2
72
6
73
3
40
0
40
0
40
0
40
1
40
1
40
1
41
1
10
137.303206330807
20
1.26819144509171
30
0
41
1
10
137.795279969222
20
0.733233494037533
30
0
41
1
10
138.291231010768
20
0.230794653255733
30
0
0
SPLINE
5
174
100
AcDbEntity
8
1
62
256
6
ByLayer
370
18
48
1
60
0
100
AcDbSpline
70
4
71
2
72
6
73
3
40
0
40
0
40
0
40
1
40
1
40
1
41
1
10
138.291231010782
20
0.23079465324183
30
0
41
1
10
137.62075274999
20
0.0752230417911059
30
0
41
1
10
136.937303432321
20
-0.112379523226103
30
0
0
SPLINE
5
175
100
AcDbEntity
8
1
62
256
6
ByLayer
370
18
48
1
60
0
100
AcDbSpline
70
4
71
3
72
10
73
6
40
0
40
0
40
0
40
0
40
0.0213053387402745
40
0.748832375058652
40
1
40
1
40
1
40
1
41
1
10
116.700404522909
20
14.9310485117099
30
0
41
1
10
116.693202327864
20
14.9319189147637
30
0
41
1
10
116.439708137609
20
14.961928817309
30
0
41
1
10
116.079185893876
20
14.9820287493005
30
0
41
1
10
115.712180520575
20
14.9570066017275
30
0
41
1
10
115.61666849183
20
14.9481790096684
30
0
0
SPLINE
5
176
100
AcDbEntity
8
1
62
256
6
ByLayer
370
18
48
1
60
0
100
AcDbSpline
70
4
71
1
72
4
73
2
40
0
40
0
40
1
40
1
41
1
10
121.56378118465
20
-2.35419177329374
30
0
41
1
10
120.401927541337
20
-4.2444217246375
30
0
0
SPLINE
5
177
100
AcDbEntity
8
1
62
256
6
ByLayer
370
18
48
1
60
0
100
AcDbSpline
70
4
71
1
72
4
73
2
40
0
40
0
40
1
40
1
41
1
10
125.097321454138
20
10.9780423562258
30
0
41
1
10
124.937430960704
20
12.8682723075726
30
0
0
SPLINE
5
178
100
AcDbEntity
8
1
62
256
6
ByLayer
370
18
48
1
60
0
100
AcDbSpline
70
4
71
3
72
13
73
9
40
0
40
0
40
0
40
0
40
0.127184875645934
40
0.273253586308539
40
0.44767424157803
40
0.643202188315998
40
0.827263456704802
40
1
40
1
40
1
40
1
41
1
10
134.11986565841
20
-4.72618427059546
30
0
41
1
10
134.300187501212
20
-4.6792148680192
30
0
41
1
10
134.686451206744
20
-4.57421639375819
30
0
41
1
10
135.314727415824
20
-4.38559551227279
30
0
41
1
10
136.034653751097
20
-4.1543485391951
30
0
41
1
10
136.802320014569
20
-3.88982336800174
30
0
41
1
10
137.560813452887
20
-3.60634816569061
30
0
41
1
10
138.044794448266
20
-3.4079356982711
30
0
41
1
10
138.277845330306
20
-3.30855741632775
30
0
0
SPLINE
5
179
100
AcDbEntity
8
1
62
256
6
ByLayer
370
18
48
1
60
0
100
AcDbSpline
70
4
71
1
72
4
73
2
40
0
40
0
40
1
40
1
41
1
10
134.119864966016
20
-4.72621289542845
30
0
41
1
10
133.651997471237
20
-4.66799189166097
30
0
0
SPLINE
5
17A
100
AcDbEntity
8
1
62
256
6
ByLayer
370
18
48
1
60
0
100
AcDbSpline
70
4
71
3
72
11
73
7
40
0
40
0
40
0
40
0
40
0.285829026671026
40
0.578637116264076
40
0.787421011610952
40
1
40
1
40
1
40
1
41
1
10
131.419495954034
20
-4.73244391235909
30
0
41
1
10
131.650635844042
20
-4.69760097098917
30
0
41
1
10
132.10932703444
20
-4.64304357236638
30
0
41
1
10
132.716465409086
20
-4.60817032443441
30
0
41
1
10
133.234114604052
20
-4.61837713734381
30
0
41
1
10
133.51550411915
20
-4.64757111369114
30
0
41
1
10
133.651997471237
20
-4.66799189166097
30
0
0
SPLINE
5
17B
100
AcDbEntity
8
1
62
256
6
ByLayer
370
18
48
1
60
0
100
AcDbSpline
70
4
71
3
72
13
73
9
40
0
40
0
40
0
40
0
40
0.190808571032886
40
0.382494663905351
40
0.577280028351449
40
0.773344727987367
40
0.886540068783197
40
1
40
1
40
1
40
1
41
1
10
131.419495954034
20
-4.73244391235909
30
0
41
1
10
130.719639168478
20
-4.83261178522418
30
0
41
1
10
129.313665236467
20
-4.98599643074189
30
0
41
1
10
127.17855518534
20
-5.08137979984157
30
0
41
1
10
125.022640973016
20
-5.01646790609206
30
0
41
1
10
123.168950689806
20
-4.79918257658652
30
0
41
1
10
121.626990347357
20
-4.53419078452005
30
0
41
1
10
120.809310401299
20
-4.34782698837444
30
0
41
1
10
120.401927541337
20
-4.2444217246375
30
0
0
SPLINE
5
17C
100
AcDbEntity
8
1
62
256
6
ByLayer
370
18
48
1
60
0
100
AcDbSpline
70
4
71
3
72
15
73
11
40
0
40
0
40
0
40
0
40
0.169170461792657
40
0.338104364795112
40
0.448054127972649
40
0.558002025366328
40
0.671309751453054
40
0.784550484124744
40
0.892428200500858
40
1
40
1
40
1
40
1
41
1
10
135.199615560052
20
-1.43677563733789
30
0
41
1
10
135.286785138885
20
-1.61953214907854
30
0
41
1
10
135.483512671974
20
-1.96773144510077
30
0
41
1
10
135.779262122649
20
-2.4050354900771
30
0
41
1
10
136.1137998408
20
-2.72203873308669
30
0
41
1
10
136.445847171398
20
-2.95346085221501
30
0
41
1
10
136.826913384928
20
-3.14374561697529
30
0
41
1
10
137.256421661605
20
-3.27903212557233
30
0
41
1
10
137.732136928253
20
-3.35125002461473
30
0
41
1
10
138.08761025103
20
-3.33380486550239
30
0
41
1
10
138.275191745616
20
-3.31110625785298
30
0
0
SPLINE
5
17D
100
AcDbEntity
8
1
62
256
6
ByLayer
370
18
48
1
60
0
100
AcDbSpline
70
4
71
3
72
14
73
10
40
0
40
0
40
0
40
0
40
0.0971227805851945
40
0.194273043156865
40
0.389896003136525
40
0.589615796727696
40
0.790638909200741
40
0.895323522943937
40
1
40
1
40
1
40
1
41
1
10
124.937430960704
20
12.8682723075726
30
0
41
1
10
125.283560106973
20
12.7700011456921
30
0
41
1
10
125.970757010522
20
12.5579492196816
30
0
41
1
10
127.32693128337
20
12.0607746402244
30
0
41
1
10
129.009230732447
20
11.3504222891238
30
0
41
1
10
130.968684142
20
10.3202103800075
30
0
41
1
10
132.552228816009
20
9.31281306162876
30
0
41
1
10
133.798534956076
20
8.43630081022831
30
0
41
1
10
134.415862402099
20
7.9637847245161
30
0
41
1
10
134.72028450233
20
7.72160567579035
30
0
0
SPLINE
5
17E
100
AcDbEntity
8
1
62
256
6
ByLayer
370
18
48
1
60
0
100
AcDbSpline
70
4
71
3
72
11
73
7
40
0
40
0
40
0
40
0
40
0.283766240604032
40
0.57721212728977
40
0.787246122736143
40
1
40
1
40
1
40
1
41
1
10
136.609936395937
20
6.49246795238083
30
0
41
1
10
136.440001383685
20
6.57052503919002
30
0
41
1
10
136.088420365847
20
6.75258238143408
30
0
41
1
10
135.585813974341
20
7.07436037797101
30
0
41
1
10
135.125959296635
20
7.40449419254742
30
0
41
1
10
134.855992921669
20
7.61289166045323
30
0
41
1
10
134.72028450233
20
7.72160567579035
30
0
0
SPLINE
5
17F
100
AcDbEntity
8
1
62
256
6
ByLayer
370
18
48
1
60
0
100
AcDbSpline
70
4
71
1
72
4
73
2
40
0
40
0
40
1
40
1
41
1
10
136.609936395937
20
6.49246795238083
30
0
41
1
10
137.038063285938
20
6.28430354714304
30
0
0
SPLINE
5
180
100
AcDbEntity
8
1
62
256
6
ByLayer
370
18
48
1
60
0
100
AcDbSpline
70
4
71
3
72
10
73
6
40
0
40
0
40
0
40
0
40
0.355206539474765
40
0.687065685878786
40
1
40
1
40
1
40
1
41
1
10
139.93790867961
20
2.95459354117581
30
0
41
1
10
139.622327494822
20
3.37289563626435
30
0
41
1
10
138.992762749994
20
4.16536271403926
30
0
41
1
10
138.022388953094
20
5.27447386455059
30
0
41
1
10
137.364290257856
20
5.95806726325319
30
0
41
1
10
137.037240575687
20
6.28277996593192
30
0
0
SPLINE
5
181
100
AcDbEntity
8
1
62
256
6
ByLayer
370
18
48
1
60
0
100
AcDbSpline
70
4
71
3
72
16
73
12
40
0
40
0
40
0
40
0
40
0.063799257354475
40
0.127644109202129
40
0.260107930373149
40
0.363139653788278
40
0.466205514139423
40
0.57205861991386
40
0.677915055136688
40
0.838862274131224
40
1
40
1
40
1
40
1
41
1
10
139.93681754969
20
2.9582956954185
30
0
41
1
10
139.84918346215
20
3.03332043978605
30
0
41
1
10
139.674863136381
20
3.17035071963502
30
0
41
1
10
139.322608405725
20
3.39251804950814
30
0
41
1
10
138.928589073947
20
3.56720301384088
30
0
41
1
10
138.501695830858
20
3.68467362291935
30
0
41
1
10
138.123652461377
20
3.73671441217801
30
0
41
1
10
137.758761155842
20
3.73706912990752
30
0
41
1
10
137.348451938425
20
3.67639912325982
30
0
41
1
10
136.915469709164
20
3.51209088182779
30
0
41
1
10
136.60144882311
20
3.36362881974534
30
0
41
1
10
136.449218983595
20
3.27804410191562
30
0
0
SPLINE
5
182
100
AcDbEntity
8
1
62
256
6
ByLayer
370
18
48
1
60
0
100
AcDbSpline
70
4
71
3
72
13
73
9
40
0
40
0
40
0
40
0
40
0.264501747229016
40
0.448386406949546
40
0.632293150443362
40
0.808287277690958
40
0.984397949906613
40
1
40
1
40
1
40
1
41
1
10
138.998558658575
20
-2.82524910663915
30
0
41
1
10
139.144088510652
20
-2.79047709173836
30
0
41
1
10
139.394149302467
20
-2.70725539282806
30
0
41
1
10
139.760625540144
20
-2.52928232286543
30
0
41
1
10
140.071439317765
20
-2.3397331586961
30
0
41
1
10
140.365256153862
20
-2.12282174439057
30
0
41
1
10
140.554554617618
20
-1.959609602232
30
0
41
1
10
140.648744996441
20
-1.87174529324581
30
0
41
1
10
140.656383851115
20
-1.86457214809743
30
0
0
SPLINE
5
183
100
AcDbEntity
8
1
62
256
6
ByLayer
370
18
48
1
60
0
100
AcDbSpline
70
4
71
3
72
13
73
9
40
0
40
0
40
0
40
0
40
0.0563758328103309
40
0.244667706604231
40
0.432815762071662
40
0.621794598248224
40
0.81078767666941
40
1
40
1
40
1
40
1
41
1
10
141.279591706768
20
0.486824018141767
30
0
41
1
10
141.26831565437
20
0.522546175151655
30
0
41
1
10
141.21750406064
20
0.677353633412099
30
0
41
1
10
141.112808123979
20
0.951818140761048
30
0
41
1
10
140.948216286231
20
1.30080799260298
30
0
41
1
10
140.757351268078
20
1.6283671687037
30
0
41
1
10
140.546466204143
20
1.92505169596626
30
0
41
1
10
140.398997220945
20
2.09395426720281
30
0
41
1
10
140.322983019229
20
2.17187398137135
30
0
0
SPLINE
5
184
100
AcDbEntity
8
1
62
256
6
ByLayer
370
18
48
1
60
0
100
AcDbSpline
70
4
71
3
72
13
73
9
40
0
40
0
40
0
40
0
40
0.256222331489343
40
0.595816960347081
40
0.756721547742824
40
0.892572489753365
40
0.999730652645771
40
1
40
1
40
1
40
1
41
1
10
13.8943375672974
20
37.9445010117191
30
0
41
1
10
13.8795666910705
20
37.9643151482468
30
0
41
1
10
13.8329277424201
20
38.0081948789905
30
0
41
1
10
13.7467570243871
20
38.060963752796
30
0
41
1
10
13.6370470144333
20
38.0963895308788
30
0
41
1
10
13.5489284783051
20
38.1121103030052
30
0
41
1
10
13.4880893034294
20
38.1154544345224
30
0
41
1
10
13.4613918068658
20
38.1154578593284
30
0
41
1
10
13.4613248654052
20
38.1154578595254
30
0
0
SPLINE
5
185
100
AcDbEntity
8
1
62
256
6
ByLayer
370
18
48
1
60
0
100
AcDbSpline
70
4
71
3
72
12
73
8
40
0
40
0
40
0
40
0
40
0.107090927408485
40
0.242566900788656
40
0.4554323154082
40
0.863255751651131
40
1
40
1
40
1
40
1
41
1
10
10.5386751345948
20
38.1154578595255
30
0
41
1
10
10.5111569501375
20
38.1152151562848
30
0
41
1
10
10.4519692068692
20
38.1122888019998
30
0
41
1
10
10.3518152424398
20
38.0944005955984
30
0
41
1
10
10.2275950958678
20
38.0503633413165
30
0
41
1
10
10.1522095131337
20
37.9957326993062
30
0
41
1
10
10.1138798044165
20
37.9549695995298
30
0
41
1
10
10.1056624327026
20
37.9445010117191
30
0
0
SPLINE
5
186
100
AcDbEntity
8
1
62
256
6
ByLayer
370
18
48
1
60
0
100
AcDbSpline
70
4
71
3
72
13
73
9
40
0
40
0
40
0
40
0
40
0.256222331489357
40
0.59581696034712
40
0.756721547742844
40
0.892572489753384
40
0.999730652645795
40
1
40
1
40
1
40
1
41
1
10
10.1056624327026
20
12.6576002058704
30
0
41
1
10
10.1204333089295
20
12.598133733535
30
0
41
1
10
10.1670722575799
20
12.4656679136691
30
0
41
1
10
10.253242975613
20
12.3032744555839
30
0
41
1
10
10.3629529855664
20
12.1928955703815
30
0
41
1
10
10.4510715216954
20
12.1436124753755
30
0
41
1
10
10.5119106965696
20
12.1331007202272
30
0
41
1
10
10.5386081931341
20
12.133089968106
30
0
41
1
10
10.5386751345948
20
12.1330899674706
30
0
0
SPLINE
5
187
100
AcDbEntity
8
1
62
256
6
ByLayer
370
18
48
1
60
0
100
AcDbSpline
70
4
71
3
72
12
73
8
40
0
40
0
40
0
40
0
40
0.107090927408461
40
0.242566900788645
40
0.45543231540817
40
0.863255751651031
40
1
40
1
40
1
40
1
41
1
10
13.4613248654052
20
12.1330899674707
30
0
41
1
10
13.4888430498624
20
12.1338666389724
30
0
41
1
10
13.5480307931308
20
12.1430431247033
30
0
41
1
10
13.6481847575602
20
12.1991373298678
30
0
41
1
10
13.7724049041321
20
12.336229276651
30
0
41
1
10
13.8477904868662
20
12.5035430644981
30
0
41
1
10
13.8861201955835
20
12.626203305428
30
0
41
1
10
13.8943375672974
20
12.6576002058703
30
0
0
SPLINE
5
188
100
AcDbEntity
8
1
62
256
6
ByLayer
370
18
48
1
60
0
100
AcDbSpline
70
4
71
3
72
13
73
9
40
0
40
0
40
0
40
0
40
0.25622233148971
40
0.5958169603472
40
0.756721547742956
40
0.892572489753448
40
0.999730652645857
40
1
40
1
40
1
40
1
41
1
10
13.8943375672974
20
-12.6576002058703
30
0
41
1
10
13.8795666910705
20
-12.5981337335348
30
0
41
1
10
13.8329277424199
20
-12.4656679136685
30
0
41
1
10
13.7467570243875
20
-12.3032744555853
30
0
41
1
10
13.6370470144326
20
-12.1928955703791
30
0
41
1
10
13.5489284783071
20
-12.1436124753822
30
0
41
1
10
13.4880893034259
20
-12.1331007202158
30
0
41
1
10
13.4613918068658
20
-12.1330899681061
30
0
41
1
10
13.4613248654052
20
-12.1330899674707
30
0
0
SPLINE
5
189
100
AcDbEntity
8
1
62
256
6
ByLayer
370
18
48
1
60
0
100
AcDbSpline
70
4
71
3
72
12
73
8
40
0
40
0
40
0
40
0
40
0.107090927408361
40
0.242566900788489
40
0.455432315407909
40
0.863255751650487
40
1
40
1
40
1
40
1
41
1
10
10.5386751345948
20
-12.1330899674707
30
0
41
1
10
10.5111569501376
20
-12.1338666389724
30
0
41
1
10
10.4519692068693
20
-12.1430431247033
30
0
41
1
10
10.3518152424399
20
-12.1991373298677
30
0
41
1
10
10.227595095868
20
-12.3362292766508
30
0
41
1
10
10.1522095131338
20
-12.5035430644979
30
0
41
1
10
10.1138798044165
20
-12.6262033054279
30
0
41
1
10
10.1056624327026
20
-12.6576002058703
30
0
0
SPLINE
5
18A
100
AcDbEntity
8
1
62
256
6
ByLayer
370
18
48
1
60
0
100
AcDbSpline
70
4
71
3
72
13
73
9
40
0
40
0
40
0
40
0
40
0.256222331489398
40
0.595816960347141
40
0.756721547742859
40
0.892572489753384
40
0.999730652645788
40
1
40
1
40
1
40
1
41
1
10
10.1056624327026
20
-37.9445010117191
30
0
41
1
10
10.1204333089295
20
-37.9643151482468
30
0
41
1
10
10.1670722575799
20
-38.0081948789905
30
0
41
1
10
10.2532429756129
20
-38.0609637527959
30
0
41
1
10
10.3629529855666
20
-38.0963895308789
30
0
41
1
10
10.4510715216949
20
-38.1121103030051
30
0
41
1
10
10.5119106965705
20
-38.1154544345226
30
0
41
1
10
10.5386081931341
20
-38.1154578593284
30
0
41
1
10
10.5386751345948
20
-38.1154578595255
30
0
0
SPLINE
5
18B
100
AcDbEntity
8
1
62
256
6
ByLayer
370
18
48
1
60
0
100
AcDbSpline
70
4
71
3
72
12
73
8
40
0
40
0
40
0
40
0
40
0.107090927408397
40
0.242566900788548
40
0.455432315408007
40
0.863255751650729
40
1
40
1
40
1
40
1
41
1
10
13.4613248654052
20
-38.1154578595254
30
0
41
1
10
13.4888430498624
20
-38.1152151562847
30
0
41
1
10
13.5480307931307
20
-38.1122888019998
30
0
41
1
10
13.6481847575601
20
-38.0944005955985
30
0
41
1
10
13.7724049041321
20
-38.0503633413166
30
0
41
1
10
13.8477904868662
20
-37.9957326993062
30
0
41
1
10
13.8861201955835
20
-37.9549695995299
30
0
41
1
10
13.8943375672974
20
-37.9445010117191
30
0
0
SPLINE
5
18C
100
AcDbEntity
8
1
62
256
6
ByLayer
370
18
48
1
60
0
100
AcDbSpline
70
4
71
3
72
33
73
29
40
0
40
0
40
0
40
0
40
0.0198904481499975
40
0.0397823033248329
40
0.0612137713357663
40
0.0827074538083553
40
0.104155341411003
40
0.127554908776979
40
0.151037031219923
40
0.174547041559372
40
0.197984763598266
40
0.227327950669769
40
0.25675149452589
40
0.28623722585982
40
0.315725761592285
40
0.345123616695246
40
0.389637309070264
40
0.434242497849561
40
0.478941075054199
40
0.52369214319331
40
0.568418624871179
40
0.613013381741845
40
0.67739629590696
40
0.741872919521077
40
0.806426223233301
40
0.871012695970521
40
0.935565928695973
40
1
40
1
40
1
40
1
41
1
10
30
20
-40
30
0
41
1
10
30.0004468043407
20
-39.9997446639391
30
0
41
1
10
30.0392846846587
20
-39.9804130803133
30
0
41
1
10
30.2167809518107
20
-39.8921254509405
30
0
41
1
10
30.5213537609832
20
-39.7411047106882
30
0
41
1
10
30.9507948667039
20
-39.529448480243
30
0
41
1
10
31.5025943650071
20
-39.2594712391563
30
0
41
1
10
32.1784359578067
20
-38.9319806582122
30
0
41
1
10
32.9720219785119
20
-38.5518401690814
30
0
41
1
10
33.8492660432371
20
-38.1368544613871
30
0
41
1
10
34.8770301511142
20
-37.6574107921525
30
0
41
1
10
36.0648930335794
20
-37.1133943397213
30
0
41
1
10
37.4184599346014
20
-36.5063332205698
30
0
41
1
10
38.839766020696
20
-35.8823960389956
30
0
41
1
10
40.3148414633842
20
-35.2493747074457
30
0
41
1
10
42.0937879843642
20
-34.5044418942376
30
0
41
1
10
44.1965123805245
20
-33.653474951404
30
0
41
1
10
46.639578764396
20
-32.7048381573224
30
0
41
1
10
49.1431126300525
20
-31.7729310750297
30
0
41
1
10
51.6941663202196
20
-30.8641790712274
30
0
41
1
10
54.2799737562975
20
-29.9848505922626
30
0
41
1
10
57.2789315523016
20
-29.0150553674745
30
0
41
1
10
60.7032133366607
20
-27.9787865610311
30
0
41
1
10
64.5624141846609
20
-26.9015868740507
30
0
41
1
10
68.457784443592
20
-25.9042836667183
30
0
41
1
10
72.3792337447703
20
-24.9896723147762
30
0
41
1
10
76.3172664025932
20
-24.160351995933
30
0
41
1
10
78.9498620026649
20
-23.6660985261304
30
0
41
1
10
80.267409645
20
-23.4335995907384
30
0
0
SPLINE
5
18D
100
AcDbEntity
8
1
62
256
6
ByLayer
370
18
48
1
60
0
100
AcDbSpline
70
4
71
3
72
33
73
29
40
0
40
0
40
0
40
0
40
0.0543706236931227
40
0.108766395876378
40
0.16315776960312
40
0.217522392538205
40
0.272923059522388
40
0.328368297984692
40
0.383798514307135
40
0.439178679058181
40
0.482058783209162
40
0.52509110607637
40
0.56814951998277
40
0.611144046328876
40
0.654028703057265
40
0.696810069478973
40
0.73083599242959
40
0.764896733320643
40
0.798891394484308
40
0.824671817355504
40
0.850549665611498
40
0.876386344102619
40
0.902110397427356
40
0.924985651755873
40
0.947919603367153
40
0.970774623137192
40
0.985387465659361
40
1
40
1
40
1
40
1
41
1
10
80.267409645
20
23.4335995907384
30
0
41
1
10
79.1557575939233
20
23.6296408035057
30
0
41
1
10
76.9352373374083
20
24.0422821390717
30
0
41
1
10
73.6128956151355
20
24.7229927197631
30
0
41
1
10
70.3031568557648
20
25.4645185870411
30
0
41
1
10
66.9886646738552
20
26.2711752565683
30
0
41
1
10
63.6727863592405
20
27.1441794802688
30
0
41
1
10
60.3604222580309
20
28.0825963395418
30
0
41
1
10
57.0794300873817
20
29.0780415037001
30
0
41
1
10
54.0819628796756
20
30.0478907465886
30
0
41
1
10
51.3626108829978
20
30.9788474247841
30
0
41
1
10
48.914866912719
20
31.8564030779422
30
0
41
1
10
46.5072819565557
20
32.7567678930027
30
0
41
1
10
44.1547921850601
20
33.6723650298914
30
0
41
1
10
41.8725524777907
20
34.5953072071126
30
0
41
1
10
39.8243537264529
20
35.4556416583533
30
0
41
1
10
38.0057288572628
20
36.2454116814237
30
0
41
1
10
36.4117737155014
20
36.955607923051
30
0
41
1
10
35.0378847926331
20
37.5827311738704
30
0
41
1
10
33.8772898299189
20
38.1235187660645
30
0
41
1
10
32.9132887336145
20
38.5797299513583
30
0
41
1
10
32.051496043344
20
38.993130997092
30
0
41
1
10
31.3390399497249
20
39.3391743257193
30
0
41
1
10
30.7815679716631
20
39.6126439394025
30
0
41
1
10
30.3715632243483
20
39.8152262196844
30
0
41
1
10
30.1323715304636
20
39.9341044232763
30
0
41
1
10
30.0211338289601
20
39.989465304626
30
0
41
1
10
30.0001322444045
20
39.9999243930635
30
0
41
1
10
30
20
40
30
0
0
SPLINE
5
18E
100
AcDbEntity
8
1
62
256
6
ByLayer
370
18
48
1
60
0
100
AcDbSpline
70
4
71
1
72
4
73
2
40
0
40
0
40
1
40
1
41
1
10
81.8261610716075
20
-21.2128270107999
30
0
41
1
10
81.6168559224595
20
-21.2646849964267
30
0
0
SPLINE
5
18F
100
AcDbEntity
8
SK1
62
256
6
ByLayer
370
18
48
1
60
0
100
AcDbSpline
70
4
71
3
72
11
73
7
40
0
40
0
40
0
40
0
40
0.5
40
0.75
40
0.875
40
1
40
1
40
1
40
1
41
1
10
-46.5004731678958
20
26.4071167016768
30
0
41
1
10
-46.5001135363555
20
17.6047444751198
30
0
41
1
10
-46.5022455259354
20
4.40118997437584
30
0
41
1
10
-46.4979494926642
20
-11.0029710805201
30
0
41
1
10
-46.5055205183591
20
-19.8053259495903
30
0
41
1
10
-46.4903784669692
20
-24.2065467967976
30
0
41
1
10
-46.5004731678958
20
-26.4071167016235
30
0
0
SPLINE
5
190
100
AcDbEntity
8
SK1
62
256
6
ByLayer
370
18
48
1
60
0
100
AcDbSpline
70
4
71
2
72
6
73
3
40
0
40
0
40
0
40
1
40
1
40
1
41
1
10
-2.99999999999999
20
27.500000000101
30
0
41
1
10
-24.7502365839479
20
26.9535583508891
30
0
41
1
10
-46.5004731678958
20
26.4071167016772
30
0
0
SPLINE
5
191
100
AcDbEntity
8
SK1
62
256
6
ByLayer
370
18
48
1
60
0
100
AcDbSpline
70
4
71
2
72
6
73
3
40
0
40
0
40
0
40
1
40
1
40
1
41
1
10
-46.5004731678958
20
-26.4071167016237
30
0
41
1
10
-24.7502365839479
20
-26.9535583508345
30
0
41
1
10
-2.99999999999999
20
-27.5000000000453
30
0
0
SPLINE
5
192
100
AcDbEntity
8
SK1
62
256
6
ByLayer
370
18
48
1
60
0
100
AcDbSpline
70
4
71
3
72
14
73
10
40
0
40
0
40
0
40
0
40
0.0714525147756997
40
0.223815465534892
40
0.376164399407351
40
0.52850391405262
40
0.680836884630184
40
0.833165199991648
40
1
40
1
40
1
40
1
41
1
10
-2.19993682738198
20
-27.5201003716814
30
0
41
1
10
-2.1999413371866
20
-27.5198230160209
30
0
41
1
10
-2.19995450958095
20
-27.5039155673506
30
0
41
1
10
-2.19997094784586
20
-27.394040480592
30
0
41
1
10
-2.19998426128205
20
-27.139215519519
30
0
41
1
10
-2.19999257580515
20
-26.7723349790472
30
0
41
1
10
-2.19999733583458
20
-26.301612043374
30
0
41
1
10
-2.19999960052824
20
-25.7147105940174
30
0
41
1
10
-2.20000009750726
20
-25.2507575607393
30
0
41
1
10
-2.20000000000003
20
-24.9895674792757
30
0
0
SPLINE
5
193
100
AcDbEntity
8
SK1
62
256
6
ByLayer
370
18
48
1
60
0
100
AcDbSpline
70
4
71
2
72
6
73
3
40
0
40
0
40
0
40
1
40
1
40
1
41
1
10
-2.19488043388042
20
27.5202274059881
30
0
41
1
10
-2.59744021694021
20
27.5101137030446
30
0
41
1
10
-2.99999999999999
20
27.500000000101
30
0
0
SPLINE
5
194
100
AcDbEntity
8
SK1
62
256
6
ByLayer
370
18
48
1
60
0
100
AcDbSpline
70
4
71
2
72
6
73
3
40
0
40
0
40
0
40
1
40
1
40
1
41
1
10
-2.99999999999999
20
-27.5000000000453
30
0
41
1
10
-2.59744021694021
20
-27.5101137029888
30
0
41
1
10
-2.19488043388042
20
-27.5202274059323
30
0
0
SPLINE
5
195
100
AcDbEntity
8
SK1
62
256
6
ByLayer
370
18
48
1
60
0
100
AcDbSpline
70
4
71
3
72
26
73
22
40
0
40
0
40
0
40
0
40
0.078585357911695
40
0.157252748199192
40
0.235778549668423
40
0.282601795393521
40
0.329417804437845
40
0.376166830374409
40
0.41612517504067
40
0.456070654610106
40
0.490125005391353
40
0.524177475478469
40
0.558209950837152
40
0.592249582489842
40
0.62623377715491
40
0.660222844809511
40
0.728118845469172
40
0.79617795053834
40
0.864253922812416
40
0.932123606416206
40
1
40
1
40
1
40
1
41
1
10
-2.20000000000005
20
-12.8645636937652
30
0
41
1
10
-2.20000016047837
20
-12.2861130080291
30
0
41
1
10
-2.19999957148689
20
-11.0977532180057
30
0
41
1
10
-2.19999661711145
20
-9.22395969422506
30
0
41
1
10
-2.19999055884135
20
-7.52155020219844
30
0
41
1
10
-2.19998218984638
20
-6.03251753753805
30
0
41
1
10
-2.19997307135417
20
-4.7855439852853
30
0
41
1
10
-2.19996213940416
20
-3.56956365986463
30
0
41
1
10
-2.19995033896412
20
-2.39167800272954
30
0
41
1
10
-2.19994084140314
20
-1.31446841407063
30
0
41
1
10
-2.19993615925136
20
-0.283386930534165
30
0
41
1
10
-2.19993723123847
20
0.693370247419649
30
0
41
1
10
-2.19994378990531
20
1.66493625888345
30
0
41
1
10
-2.19995281124713
20
2.62541519967102
30
0
41
1
10
-2.19996200780712
20
3.57169781375531
30
0
41
1
10
-2.19997337686956
20
4.81120498633967
30
0
41
1
10
-2.19998440559029
20
6.32109463672957
30
0
41
1
10
-2.19999281455917
20
8.06477148312187
30
0
41
1
10
-2.19999754066544
20
9.7386371816634
30
0
41
1
10
-2.19999965248002
20
11.3424661012463
30
0
41
1
10
-2.20000008843769
20
12.3648051837732
30
0
41
1
10
-2.20000000000005
20
12.8645646511277
30
0
0
SPLINE
5
196
100
AcDbEntity
8
SK1
62
256
6
ByLayer
370
18
48
1
60
0
100
AcDbSpline
70
4
71
3
72
13
73
9
40
0
40
0
40
0
40
0
40
0.191250134515216
40
0.38248915991512
40
0.550308078240399
40
0.71813722207525
40
0.885981785606799
40
1
40
1
40
1
40
1
41
1
10
-2.20000000000005
20
24.9895663958186
30
0
41
1
10
-2.20000017346274
20
25.2893016284474
30
0
41
1
10
-2.19999946853487
20
25.8390473320528
30
0
41
1
10
-2.19999613967969
20
26.4914614657769
30
0
41
1
10
-2.19998895238301
20
26.9794773352791
30
0
41
1
10
-2.19997689701903
20
27.3148111242734
30
0
41
1
10
-2.19995977854942
20
27.4876543810886
30
0
41
1
10
-2.1999439519625
20
27.5192574734227
30
0
41
1
10
-2.19993682295048
20
27.5201003707423
30
0
0
SPLINE
5
197
100
AcDbEntity
8
SK1
62
256
6
ByLayer
370
18
48
1
60
0
100
AcDbSpline
70
4
71
3
72
16
73
12
40
0
40
0
40
0
40
0
40
0.484362133143257
40
0.672654027086086
40
0.809095459552787
40
0.877752097826538
40
0.901320737247219
40
0.925121024104405
40
0.945995399848091
40
0.971882270189911
40
1
40
1
40
1
40
1
41
1
10
-0.200000000000062
20
-6.36525122554054
30
0
41
1
10
-0.195581000847968
20
-6.23407776241331
30
0
41
1
10
-0.206768985511104
20
-6.05285286800122
30
0
41
1
10
-0.240576655278773
20
-5.83412744354328
30
0
41
1
10
-0.27100992433731
20
-5.73008961132425
30
0
41
1
10
-0.303428989102242
20
-5.67425820640278
30
0
41
1
10
-0.328239388270729
20
-5.65376170934854
30
0
41
1
10
-0.346004555757695
20
-5.64702125526225
30
0
41
1
10
-0.365212764831062
20
-5.64796013775804
30
0
41
1
10
-0.383525191647769
20
-5.65644060486812
30
0
41
1
10
-0.394703386845373
20
-5.6650910598201
30
0
41
1
10
-0.400000000000064
20
-5.67060688490518
30
0
0
SPLINE
5
198
100
AcDbEntity
8
SK1
62
256
6
ByLayer
370
18
48
1
60
0
100
AcDbSpline
70
4
71
3
72
16
73
12
40
0
40
0
40
0
40
0
40
0.0449620914812446
40
0.0903368815019471
40
0.123287996773752
40
0.156195942313686
40
0.206380327128436
40
0.302189466870403
40
0.465199895219201
40
0.628992158827477
40
1
40
1
40
1
40
1
41
1
10
-0.400000000000065
20
-5.67060688490516
30
0
41
1
10
-0.420927174634214
20
-5.69239446368426
30
0
41
1
10
-0.467485467566118
20
-5.72851688005113
30
0
41
1
10
-0.544757012788335
20
-5.76392327686633
30
0
41
1
10
-0.622034972988147
20
-5.76840721477468
30
0
41
1
10
-0.699252754045685
20
-5.74775039259254
30
0
41
1
10
-0.800267140719392
20
-5.68134988910833
30
0
41
1
10
-0.9266776380402
20
-5.52279599491429
30
0
41
1
10
-1.04851005422596
20
-5.2793651865582
30
0
41
1
10
-1.18854873195449
20
-4.85450503712918
30
0
41
1
10
-1.26941082007031
20
-4.51991257098291
30
0
41
1
10
-1.30710678118657
20
-4.28124408565413
30
0
0
SPLINE
5
199
100
AcDbEntity
8
SK1
62
256
6
ByLayer
370
18
48
1
60
0
100
AcDbSpline
70
4
71
3
72
16
73
12
40
0
40
0
40
0
40
0
40
0.364486002887511
40
0.549641254423321
40
0.733073025060584
40
0.818771433739433
40
0.85612739559283
40
0.893803332019095
40
0.927294167106696
40
0.975464345181096
40
1
40
1
40
1
40
1
41
1
10
-1.30710678118656
20
4.28124480526772
30
0
41
1
10
-1.26967907670761
20
4.51557956194902
30
0
41
1
10
-1.18625222473133
20
4.8593787020408
30
0
41
1
10
-1.04190278813853
20
5.30635975182065
30
0
41
1
10
-0.903746441177547
20
5.56584659012637
30
0
41
1
10
-0.762458660836066
20
5.71300037958908
30
0
41
1
10
-0.664141061806576
20
5.76063598224448
30
0
41
1
10
-0.588864584107143
20
5.76994865430232
30
0
41
1
10
-0.508584664033415
20
5.75123275541642
30
0
41
1
10
-0.447428530612091
20
5.71312320952279
30
0
41
1
10
-0.411452460617223
20
5.6820342120461
30
0
41
1
10
-0.400000000000065
20
5.67060691171685
30
0
0
SPLINE
5
19A
100
AcDbEntity
8
SK1
62
256
6
ByLayer
370
18
48
1
60
0
100
AcDbSpline
70
4
71
3
72
16
73
12
40
0
40
0
40
0
40
0
40
0.0316164998116621
40
0.0560460207737784
40
0.07561712219868
40
0.0951959244130453
40
0.122531021194868
40
0.17185551556509
40
0.328145741063267
40
0.663365227866263
40
1
40
1
40
1
40
1
41
1
10
-0.400000000000064
20
5.67060691171687
30
0
41
1
10
-0.394038052578532
20
5.66431914550418
30
0
41
1
10
-0.382312554508247
20
5.65553431284056
30
0
41
1
10
-0.363502762487279
20
5.64766784076189
30
0
41
1
10
-0.3461985578997
20
5.64729821251071
30
0
41
1
10
-0.328895214687372
20
5.65334439405918
30
0
41
1
10
-0.307925994492101
20
5.67013463423561
30
0
41
1
10
-0.2719569322426
20
5.72440018902593
30
0
41
1
10
-0.230624220443679
20
5.86926111680911
30
0
41
1
10
-0.203282826745865
20
6.09335430168449
30
0
41
1
10
-0.197092167151606
20
6.2744324589864
30
0
41
1
10
-0.200000000000631
20
6.36525211459043
30
0
0
SPLINE
5
19B
100
AcDbEntity
8
SK1
62
256
6
ByLayer
370
18
48
1
60
0
100
AcDbSpline
70
4
71
3
72
13
73
9
40
0
40
0
40
0
40
0
40
0.239468190909074
40
0.368375774874014
40
0.500016471127556
40
0.631654429480301
40
0.760554462869764
40
1
40
1
40
1
40
1
41
1
10
-2.00000000000001
20
27.3251512814302
30
0
41
1
10
-2.02607195688125
20
27.32540435647
30
0
41
1
10
-2.06363514552149
20
27.3325216078568
30
0
41
1
10
-2.11047804957901
20
27.3567471636424
30
0
41
1
10
-2.14242236365004
20
27.3827224769008
30
0
41
1
10
-2.16840047364594
20
27.4146634923699
30
0
41
1
10
-2.19262861825256
20
27.4615013561305
30
0
41
1
10
-2.19974657432197
20
27.4990612074137
30
0
41
1
10
-2.20000000000001
20
27.5251310238059
30
0
0
SPLINE
5
19C
100
AcDbEntity
8
SK1
62
256
6
ByLayer
370
18
48
1
60
0
100
AcDbSpline
70
4
71
3
72
13
73
9
40
0
40
0
40
0
40
0
40
0.239445542786662
40
0.368345579137684
40
0.499983539651288
40
0.63162423662618
40
0.760531819312432
40
1
40
1
40
1
40
1
41
1
10
-2.20000000000001
20
-27.5251310239642
30
0
41
1
10
-2.19974657432781
20
-27.4990612076283
30
0
41
1
10
-2.19262861824383
20
-27.4615013564006
30
0
41
1
10
-2.16840047371738
20
-27.4146634928512
30
0
41
1
10
-2.14242236380986
20
-27.3827224774726
30
0
41
1
10
-2.11047804983015
20
-27.3567471642878
30
0
41
1
10
-2.06363514647054
20
-27.3325216086764
30
0
41
1
10
-2.02607195733615
20
-27.3254043572623
30
0
41
1
10
-2.00000000000001
20
-27.3251512819252
30
0
0
SPLINE
5
19D
100
AcDbEntity
8
SK1
62
256
6
ByLayer
370
18
48
1
60
0
100
AcDbSpline
70
4
71
2
72
6
73
3
40
0
40
0
40
0
40
1
40
1
40
1
41
1
10
-0.400000000000024
20
27.3251512814302
30
0
41
1
10
-1.20000000000002
20
27.3251512814302
30
0
41
1
10
-2.00000000000001
20
27.3251512814302
30
0
0
SPLINE
5
19E
100
AcDbEntity
8
SK1
62
256
6
ByLayer
370
18
48
1
60
0
100
AcDbSpline
70
4
71
2
72
6
73
3
40
0
40
0
40
0
40
1
40
1
40
1
41
1
10
-2.00000000000001
20
-27.3251512819252
30
0
41
1
10
-1.20000000000002
20
-27.3251512819252
30
0
41
1
10
-0.400000000000024
20
-27.3251512819252
30
0
0
SPLINE
5
19F
100
AcDbEntity
8
SK1
62
256
6
ByLayer
370
18
48
1
60
0
100
AcDbSpline
70
4
71
3
72
16
73
12
40
0
40
0
40
0
40
0
40
0.182423135116533
40
0.274927839727624
40
0.367413177569428
40
0.458890948559823
40
0.55036153359509
40
0.64431292804089
40
0.738283918026222
40
0.869115426195108
40
1
40
1
40
1
40
1
41
1
10
-1.30710678118656
20
4.28124480528417
30
0
41
1
10
-1.39984244998152
20
3.78091146535458
30
0
41
1
10
-1.51936157709914
20
3.0148729438432
30
0
41
1
10
-1.64273765962472
20
1.96602733012536
30
0
41
1
10
-1.70828308872094
20
1.16601786654812
30
0
41
1
10
-1.74138123653413
20
0.361357969502543
30
0
41
1
10
-1.73997208525282
20
-0.450146638532907
30
0
41
1
10
-1.70175288596251
20
-1.26571156427104
30
0
41
1
10
-1.62194802782224
20
-2.18661124795049
30
0
41
1
10
-1.49131767885391
20
-3.19698451441526
30
0
41
1
10
-1.3729689067547
20
-3.92257879145552
30
0
41
1
10
-1.30710678118655
20
-4.28124408565419
30
0
0
SPLINE
5
1A0
100
AcDbEntity
8
SK1
62
256
6
ByLayer
370
18
48
1
60
0
100
AcDbSpline
70
4
71
2
72
6
73
3
40
0
40
0
40
0
40
1
40
1
40
1
41
1
10
-46.5004761060393
20
26.4071055444156
30
0
41
1
10
-47.2502378648974
20
25.9487456565024
30
0
41
1
10
-48
20
25.4903857929227
30
0
0
SPLINE
5
1A1
100
AcDbEntity
8
SK1
62
256
6
ByLayer
370
18
48
1
60
0
100
AcDbSpline
70
4
71
2
72
6
73
3
40
0
40
0
40
0
40
1
40
1
40
1
41
1
10
-48
20
-25.4903857906259
30
0
41
1
10
-47.2502378668645
20
-25.9487456535014
30
0
41
1
10
-46.5004761101759
20
-26.4071055408038
30
0
0
SPLINE
5
1A2
100
AcDbEntity
8
SK1
62
256
6
ByLayer
370
18
48
1
60
0
100
AcDbSpline
70
4
71
2
72
6
73
3
40
0
40
0
40
0
40
1
40
1
40
1
41
1
10
-0.200000000000023
20
27.5127419688873
30
0
41
1
10
-0.21462864245871
20
27.3447861394391
30
0
41
1
10
-0.400000000000024
20
27.3251512814162
30
0
0
SPLINE
5
1A3
100
AcDbEntity
8
SK1
62
256
6
ByLayer
370
18
48
1
60
0
100
AcDbSpline
70
4
71
2
72
6
73
3
40
0
40
0
40
0
40
1
40
1
40
1
41
1
10
-0.400000000000024
20
-27.3251512818931
30
0
41
1
10
-0.214629265596514
20
-27.3447858171551
30
0
41
1
10
-0.200000000000023
20
-27.5127479889025
30
0
0
SPLINE
5
1A4
100
AcDbEntity
8
1
62
256
6
ByLayer
370
18
48
1
60
0
100
AcDbSpline
70
4
71
3
72
16
73
12
40
0
40
0
40
0
40
0
40
0.0801242616549048
40
0.160262076521125
40
0.273369309043553
40
0.386550775448255
40
0.494199457051465
40
0.6022460811116
40
0.710031617689479
40
0.874873787672263
40
1
40
1
40
1
40
1
41
1
10
81.8261610716075
20
-10.0046048373396
30
0
41
1
10
81.8265891935685
20
-10.0351779983107
30
0
41
1
10
81.8435266756348
20
-10.1103124331227
30
0
41
1
10
81.9288386701927
20
-10.2871061168557
30
0
41
1
10
82.0944226891927
20
-10.5472607827827
30
0
41
1
10
82.3480609167708
20
-10.8976871098856
30
0
41
1
10
82.6560413982541
20
-11.2991096758821
30
0
41
1
10
83.0012199277629
20
-11.7392553706153
30
0
41
1
10
83.4419441584992
20
-12.3047252928802
30
0
41
1
10
83.9398277775825
20
-12.949958348815
30
0
41
1
10
84.291423932565
20
-13.4671383289098
30
0
41
1
10
84.4437503332545
20
-13.6987119771106
30
0
0
SPLINE
5
1A5
100
AcDbEntity
8
1
62
256
6
ByLayer
370
18
48
1
60
0
100
AcDbSpline
70
4
71
3
72
10
73
6
40
0
40
0
40
0
40
0
40
0.189268608491254
40
0.66769994000907
40
1
40
1
40
1
40
1
41
1
10
106.611594275207
20
-4.96793317541424
30
0
41
1
10
106.695824926507
20
-5.05585682790408
30
0
41
1
10
107.001759508143
20
-5.35483229153456
30
0
41
1
10
107.509745907895
20
-5.75391145112949
30
0
41
1
10
107.962654448196
20
-6.00479130585527
30
0
41
1
10
108.15568624145
20
-6.09695551476148
30
0
0
SPLINE
5
1A6
100
AcDbEntity
8
1
62
256
6
ByLayer
370
18
48
1
60
0
100
AcDbSpline
70
4
71
3
72
11
73
7
40
0
40
0
40
0
40
0
40
0.265405076732861
40
0.530810153465716
40
0.796215230198573
40
1
40
1
40
1
40
1
41
1
10
106.107518234435
20
0.354622455882091
30
0
41
1
10
105.91669695963
20
0.415715812798052
30
0
41
1
10
105.567522219996
20
0.608490554766577
30
0
41
1
10
105.131461903123
20
1.12539802861939
30
0
41
1
10
104.836915813195
20
1.76818766496828
30
0
41
1
10
104.724852605528
20
2.25013528650877
30
0
41
1
10
104.689491512767
20
2.47444645617911
30
0
0
SPLINE
5
1A7
100
AcDbEntity
8
1
62
256
6
ByLayer
370
18
48
1
60
0
100
AcDbSpline
70
4
71
1
72
4
73
2
40
0
40
0
40
1
40
1
41
1
10
104.689491512767
20
2.47444645617911
30
0
41
1
10
104.669195844778
20
2.61694871225093
30
0
0
SPLINE
5
1A8
100
AcDbEntity
8
1
62
256
6
ByLayer
370
18
48
1
60
0
100
AcDbSpline
70
4
71
3
72
16
73
12
40
0
40
0
40
0
40
0
40
0.102432645582495
40
0.205986277487081
40
0.311166214104396
40
0.41855000222218
40
0.528649133150712
40
0.639960342020714
40
0.755247980356909
40
0.875012113914816
40
1
40
1
40
1
40
1
41
1
10
108.15568624145
20
-6.09695551476149
30
0
41
1
10
107.966385187396
20
-5.98408153202753
30
0
41
1
10
107.605700629635
20
-5.72695152737913
30
0
41
1
10
107.117194713477
20
-5.24298804848293
30
0
41
1
10
106.692381055971
20
-4.66515610217158
30
0
41
1
10
106.340446608328
20
-3.99654415151513
30
0
41
1
10
106.074409430245
20
-3.24733227030632
30
0
41
1
10
105.904875890003
20
-2.42520135352767
30
0
41
1
10
105.841993785518
20
-1.54129589000645
30
0
41
1
10
105.89865269729
20
-0.600381721359602
30
0
41
1
10
106.02216215804
20
0.0317691386810246
30
0
41
1
10
106.107518234435
20
0.354622455882098
30
0
0
SPLINE
5
1A9
100
AcDbEntity
8
1
62
256
6
ByLayer
370
18
48
1
60
0
100
AcDbSpline
70
4
71
3
72
17
73
13
40
0
40
0
40
0
40
0
40
0.041716628259298
40
0.125564330557679
40
0.209503973191173
40
0.350078290978815
40
0.491078012234526
40
0.631569660884105
40
0.73084511060245
40
0.830333190565794
40
0.92947834406266
40
1
40
1
40
1
40
1
41
1
10
104.628890128746
20
2.45266288174094
30
0
41
1
10
104.602218785898
20
2.34505750529893
30
0
41
1
10
104.53222561087
20
2.01966966836944
30
0
41
1
10
104.477712850573
20
1.46466976817692
30
0
41
1
10
104.46781129574
20
0.646325872582195
30
0
41
1
10
104.539765352725
20
-0.322907486113252
30
0
41
1
10
104.745597955273
20
-1.4254913189717
30
0
41
1
10
105.042960734087
20
-2.39261156381532
30
0
41
1
10
105.397528171168
20
-3.21965681020884
30
0
41
1
10
105.77838454911
20
-3.91133282517244
30
0
41
1
10
106.188098618718
20
-4.49574582049445
30
0
41
1
10
106.482851457282
20
-4.83269803391662
30
0
41
1
10
106.611594275207
20
-4.96793317541424
30
0
0
SPLINE
5
1AA
100
AcDbEntity
8
1
62
256
6
ByLayer
370
18
48
1
60
0
100
AcDbSpline
70
4
71
3
72
12
73
8
40
0
40
0
40
0
40
0
40
0.211098250432299
40
0.528585983836925
40
0.69016870670033
40
0.851665096474413
40
1
40
1
40
1
40
1
41
1
10
109.928136736975
20
18.2036131369927
30
0
41
1
10
109.744706858077
20
18.0074516220853
30
0
41
1
10
109.306617930808
20
17.5001161284417
30
0
41
1
10
108.799856590414
20
16.7806033839941
30
0
41
1
10
108.393630493921
20
16.0743871759147
30
0
41
1
10
108.131147922147
20
15.533258582195
30
0
41
1
10
108.002107362227
20
15.1605110486391
30
0
41
1
10
107.9486835557
20
14.9784188753953
30
0
0
SPLINE
5
1AB
100
AcDbEntity
8
1
62
256
6
ByLayer
370
18
48
1
60
0
100
AcDbSpline
70
4
71
3
72
10
73
6
40
0
40
0
40
0
40
0
40
0.348659368687549
40
0.674323688947243
40
1
40
1
40
1
40
1
41
1
10
108.155686241449
20
-6.09695551476055
30
0
41
1
10
108.178084214358
20
-6.10755142012955
30
0
41
1
10
108.221467838088
20
-6.12790139229757
30
0
41
1
10
108.285992198475
20
-6.15766956241021
30
0
41
1
10
108.328134324798
20
-6.17680073279651
30
0
41
1
10
108.349234757776
20
-6.18630197889867
30
0
0
SPLINE
5
1AC
100
AcDbEntity
8
1
62
256
6
ByLayer
370
18
48
1
60
0
100
AcDbSpline
70
4
71
3
72
10
73
6
40
0
40
0
40
0
40
0
40
0.34968647089142
40
0.674837395094064
40
1
40
1
40
1
40
1
41
1
10
108.349234757776
20
-6.18630197889806
30
0
41
1
10
108.371824287504
20
-6.19647373886451
30
0
41
1
10
108.415479979843
20
-6.21596082715048
30
0
41
1
10
108.480348539693
20
-6.24442941091578
30
0
41
1
10
108.522641678557
20
-6.26268705059347
30
0
41
1
10
108.543815957567
20
-6.27175207376074
30
0
0
SPLINE
5
1AD
100
AcDbEntity
8
1
62
256
6
ByLayer
370
18
48
1
60
0
100
AcDbSpline
70
4
71
2
72
6
73
3
40
0
40
0
40
0
40
1
40
1
40
1
41
1
10
108.543815957567
20
-6.27175207376036
30
0
41
1
10
109.303809100781
20
-6.59704216253565
30
0
41
1
10
110.128396522424
20
-6.63999810578349
30
0
0
SPLINE
5
1AE
100
AcDbEntity
8
1
62
256
6
ByLayer
370
18
48
1
60
0
100
AcDbSpline
70
4
71
3
72
16
73
12
40
0
40
0
40
0
40
0
40
0.102510678782434
40
0.206045862011009
40
0.311116433239304
40
0.418335687078027
40
0.528298646421835
40
0.639506458452532
40
0.754764161392734
40
0.874671452111361
40
1
40
1
40
1
40
1
41
1
10
108.543815957568
20
-6.27175207376073
30
0
41
1
10
108.340846333372
20
-6.16745225750932
30
0
41
1
10
107.953326891462
20
-5.92431863023794
30
0
41
1
10
107.425176054482
20
-5.45141057247854
30
0
41
1
10
106.963205107082
20
-4.87535801090218
30
0
41
1
10
106.577595112993
20
-4.19939348045754
30
0
41
1
10
106.282758205284
20
-3.43421306630565
30
0
41
1
10
106.090529361002
20
-2.58810142427873
30
0
41
1
10
106.01266616403
20
-1.67310611648408
30
0
41
1
10
106.063398286246
20
-0.69478615662622
30
0
41
1
10
106.190080607468
20
-0.0368043676633095
30
0
41
1
10
106.279006848797
20
0.299718645314043
30
0
0
SPLINE
5
1AF
100
AcDbEntity
8
1
62
256
6
ByLayer
370
18
48
1
60
0
100
AcDbSpline
70
4
71
2
72
6
73
3
40
0
40
0
40
0
40
1
40
1
40
1
41
1
10
107.273119758971
20
0.327381141652573
30
0
41
1
10
106.753381375011
20
0.147842853311702
30
0
41
1
10
106.279006848797
20
0.299718645314038
30
0
0
SPLINE
5
1B0
100
AcDbEntity
8
1
62
256
6
ByLayer
370
18
48
1
60
0
100
AcDbSpline
70
4
71
1
72
4
73
2
40
0
40
0
40
1
40
1
41
1
10
107.717048284561
20
0.541147562504736
30
0
41
1
10
107.273119758971
20
0.327381141652573
30
0
0
SPLINE
5
1B1
100
AcDbEntity
8
1
62
256
6
ByLayer
370
18
48
1
60
0
100
AcDbSpline
70
4
71
3
72
11
73
7
40
0
40
0
40
0
40
0
40
0.25
40
0.500000000000001
40
0.75
40
1
40
1
40
1
40
1
41
1
10
109.58954746929
20
3.43137114289387
30
0
41
1
10
109.503867428387
20
3.10809582170425
30
0
41
1
10
109.293815312153
20
2.49733719497271
30
0
41
1
10
108.850020514675
20
1.66906451706722
30
0
41
1
10
108.31543065362
20
0.987189455607295
30
0
41
1
10
107.923788410233
20
0.669226061766913
30
0
41
1
10
107.717048284561
20
0.541147562504736
30
0
0
SPLINE
5
1B2
100
AcDbEntity
8
1
62
256
6
ByLayer
370
18
48
1
60
0
100
AcDbSpline
70
4
71
3
72
17
73
13
40
0
40
0
40
0
40
0
40
0.102992230007423
40
0.20663592350091
40
0.311441121829309
40
0.418095913428567
40
0.527437102017469
40
0.615762333387615
40
0.706637562657417
40
0.800696512127445
40
0.898286281849839
40
1
40
1
40
1
40
1
41
1
10
112.730820804196
20
-3.46226002620106
30
0
41
1
10
112.476451829588
20
-3.40226707728438
30
0
41
1
10
111.986890200292
20
-3.23394920241924
30
0
41
1
10
111.303487969822
20
-2.83048265177816
30
0
41
1
10
110.693270639324
20
-2.2839870646001
30
0
41
1
10
110.171019126376
20
-1.59871838427864
30
0
41
1
10
109.786020485283
20
-0.842220097723543
30
0
41
1
10
109.526453820726
20
-0.0525692911560404
30
0
41
1
10
109.376202051221
20
0.743812667619962
30
0
41
1
10
109.32533332965
20
1.60087029686809
30
0
41
1
10
109.38652305443
20
2.50989275507465
30
0
41
1
10
109.507219885021
20
3.12009228464837
30
0
41
1
10
109.58954746929
20
3.43137114289386
30
0
0
SPLINE
5
1B3
100
AcDbEntity
8
1
62
256
6
ByLayer
370
18
48
1
60
0
100
AcDbSpline
70
4
71
3
72
14
73
10
40
0
40
0
40
0
40
0
40
0.153845560191348
40
0.307691120382697
40
0.461536680574045
40
0.615382240765393
40
0.769227800956741
40
0.923073361148089
40
1
40
1
40
1
40
1
41
1
10
112.730820804196
20
-3.46226002620105
30
0
41
1
10
112.662667344723
20
-3.7182548080607
30
0
41
1
10
112.5008030612
20
-4.21000486037494
30
0
41
1
10
112.175839548411
20
-4.89939075967775
30
0
41
1
10
111.785193929432
20
-5.50309941467203
30
0
41
1
10
111.342716757518
20
-6.00088617373004
30
0
41
1
10
110.866062321705
20
-6.37274458882518
30
0
41
1
10
110.454430728513
20
-6.56623932636139
30
0
41
1
10
110.209996062642
20
-6.62611520021549
30
0
41
1
10
110.128396523128
20
-6.63999810566419
30
0
0
SPLINE
5
1B4
100
AcDbEntity
8
1
62
256
6
ByLayer
370
18
48
1
60
0
100
AcDbSpline
70
4
71
3
72
11
73
7
40
0
40
0
40
0
40
0
40
0.269884705920767
40
0.547108726004417
40
0.770671545827486
40
1
40
1
40
1
40
1
41
1
10
111.174001560189
20
17.9839335569011
30
0
41
1
10
111.056729332962
20
17.8062171111702
30
0
41
1
10
110.8351286234
20
17.4355552769108
30
0
41
1
10
110.567369524858
20
16.8807768746184
30
0
41
1
10
110.356516454646
20
16.3345294987102
30
0
41
1
10
110.250807414159
20
15.9875285633577
30
0
41
1
10
110.203621283776
20
15.8094356764978
30
0
0
SPLINE
5
1B5
100
AcDbEntity
8
1
62
256
6
ByLayer
370
18
48
1
60
0
100
AcDbSpline
70
4
71
3
72
11
73
7
40
0
40
0
40
0
40
0
40
0.262938649205541
40
0.509183149250183
40
0.755427649294825
40
1
40
1
40
1
40
1
41
1
10
110.203621283776
20
15.8094356764978
30
0
41
1
10
110.006919333056
20
15.8777554310954
30
0
41
1
10
109.618196957833
20
15.9260146533369
30
0
41
1
10
109.002076068409
20
15.7711313796055
30
0
41
1
10
108.412900392439
20
15.3629301150709
30
0
41
1
10
108.057016589188
20
14.977178220578
30
0
41
1
10
107.886367226231
20
14.7519690839211
30
0
0
SPLINE
5
1B6
100
AcDbEntity
8
1
62
256
6
ByLayer
370
18
48
1
60
0
100
AcDbSpline
70
4
71
1
72
4
73
2
40
0
40
0
40
1
40
1
41
1
10
106.279006848797
20
0.299718645314044
30
0
41
1
10
106.193262541616
20
0.327170550597978
30
0
0
SPLINE
5
1B7
100
AcDbEntity
8
1
62
256
6
ByLayer
370
18
48
1
60
0
100
AcDbSpline
70
4
71
1
72
4
73
2
40
0
40
0
40
1
40
1
41
1
10
106.193262541616
20
0.327170550598072
30
0
41
1
10
106.107518234436
20
0.354622455881838
30
0
0
SPLINE
5
1B8
100
AcDbEntity
8
1
62
256
6
ByLayer
370
18
48
1
60
0
100
AcDbSpline
70
4
71
1
72
4
73
2
40
0
40
0
40
1
40
1
41
1
10
110.289365590957
20
15.7819837712138
30
0
41
1
10
110.203621283776
20
15.8094356764978
30
0
0
SPLINE
5
1B9
100
AcDbEntity
8
1
62
256
6
ByLayer
370
18
48
1
60
0
100
AcDbSpline
70
4
71
1
72
4
73
2
40
0
40
0
40
1
40
1
41
1
10
110.375109898138
20
15.7545318659298
30
0
41
1
10
110.289365590957
20
15.7819837712138
30
0
0
SPLINE
5
1BA
100
AcDbEntity
8
1
62
256
6
ByLayer
370
18
48
1
60
0
100
AcDbSpline
70
4
71
2
72
6
73
3
40
0
40
0
40
0
40
1
40
1
40
1
41
1
10
111.200200500211
20
15.1444254728316
30
0
41
1
10
110.849489811336
20
15.6026543492302
30
0
41
1
10
110.375109898138
20
15.7545318659298
30
0
0
SPLINE
5
1BB
100
AcDbEntity
8
1
62
256
6
ByLayer
370
18
48
1
60
0
100
AcDbSpline
70
4
71
1
72
4
73
2
40
0
40
0
40
1
40
1
41
1
10
111.470254739272
20
14.7020285516517
30
0
41
1
10
111.200200500211
20
15.1444254728316
30
0
0
SPLINE
5
1BC
100
AcDbEntity
8
1
62
256
6
ByLayer
370
18
48
1
60
0
100
AcDbSpline
70
4
71
3
72
11
73
7
40
0
40
0
40
0
40
0
40
0.258240595936039
40
0.499999999999999
40
0.741759404063961
40
1
40
1
40
1
40
1
41
1
10
111.637598993961
20
11.1587777532017
30
0
41
1
10
111.729469842481
20
11.4933578132891
30
0
41
1
10
111.853866921588
20
12.1336471308919
30
0
41
1
10
111.898879487085
20
13.0931946102762
30
0
41
1
10
111.76716884906
20
13.9693421494072
30
0
41
1
10
111.589034279229
20
14.4668594883271
30
0
41
1
10
111.470254739272
20
14.7020285516517
30
0
0
SPLINE
5
1BD
100
AcDbEntity
8
1
62
256
6
ByLayer
370
18
48
1
60
0
100
AcDbSpline
70
4
71
3
72
16
73
12
40
0
40
0
40
0
40
0
40
0.102468554494704
40
0.206009614037344
40
0.311132370766806
40
0.41843295759527
40
0.528464785855484
40
0.639724836388437
40
0.754999832836602
40
0.874838449823059
40
1
40
1
40
1
40
1
41
1
10
108.349234757777
20
-6.18630197889865
30
0
41
1
10
108.1530836706
20
-6.07757086925542
30
0
41
1
10
107.778964489945
20
-5.8271702020205
30
0
41
1
10
107.270664066358
20
-5.34838237284688
30
0
41
1
10
106.827330588378
20
-4.77113642316142
30
0
41
1
10
106.458640679169
20
-4.09858865505184
30
0
41
1
10
106.1782937344
20
-3.34118481370196
30
0
41
1
10
105.99751215282
20
-2.50689872625313
30
0
41
1
10
105.927230856516
20
-1.6073319421323
30
0
41
1
10
105.980997186181
20
-0.647639060222788
30
0
41
1
10
106.106116643864
20
-0.0025322498913441
30
0
41
1
10
106.193262541616
20
0.32717055059807
30
0
0
SPLINE
5
1BE
100
AcDbEntity
8
1
62
256
6
ByLayer
370
18
48
1
60
0
100
AcDbSpline
70
4
71
1
72
4
73
2
40
0
40
0
40
1
40
1
41
1
10
118.026497969086
20
16.7756535512229
30
0
41
1
10
117.850949615872
20
15.8562564995686
30
0
0
SPLINE
5
1BF
100
AcDbEntity
8
1
62
256
6
ByLayer
370
18
48
1
60
0
100
AcDbSpline
70
4
71
3
72
17
73
13
40
0
40
0
40
0
40
0
40
0.102992230007424
40
0.206635923500908
40
0.311441121829307
40
0.418095913428564
40
0.527437102017464
40
0.615762333387614
40
0.706637562657416
40
0.800696512127445
40
0.898286281849838
40
1
40
1
40
1
40
1
41
1
10
117.850949615872
20
15.8562564995686
30
0
41
1
10
117.596443093954
20
15.9157304752146
30
0
41
1
10
117.080240942757
20
15.983532253413
30
0
41
1
10
116.275562490552
20
15.929417211882
30
0
41
1
10
115.464120025291
20
15.716679733973
30
0
41
1
10
114.661086637394
20
15.3425435651487
30
0
41
1
10
113.943681047913
20
14.8448528728891
30
0
41
1
10
113.320468627999
20
14.2624490314633
30
0
41
1
10
112.79040539013
20
13.625782252962
30
0
41
1
10
112.317803409514
20
12.8916180137786
30
0
41
1
10
111.918200031161
20
12.0620437481033
30
0
41
1
10
111.720252208208
20
11.4699801644338
30
0
41
1
10
111.637598993961
20
11.1587777532017
30
0
0
SPLINE
5
1C0
100
AcDbEntity
8
1
62
256
6
ByLayer
370
18
48
1
60
0
100
AcDbSpline
70
4
71
3
72
11
73
7
40
0
40
0
40
0
40
0
40
0.269781915063044
40
0.546977743277707
40
0.770575036023869
40
1
40
1
40
1
40
1
41
1
10
111.360127051316
20
17.9511146104536
30
0
41
1
10
111.240965404633
20
17.771991148325
30
0
41
1
10
111.015817542212
20
17.3981322817163
30
0
41
1
10
110.743879882235
20
16.8378514603587
30
0
41
1
10
110.529926826405
20
16.2856648937874
30
0
41
1
10
110.422850242178
20
15.9347140209067
30
0
41
1
10
110.375109898138
20
15.7545318659298
30
0
0
SPLINE
5
1C1
100
AcDbEntity
8
1
62
256
6
ByLayer
370
18
48
1
60
0
100
AcDbSpline
70
4
71
3
72
18
73
14
40
0
40
0
40
0
40
0
40
0.109879054083795
40
0.219497519898679
40
0.278230289054027
40
0.336859485438453
40
0.396271656917712
40
0.455680978126821
40
0.521360899724944
40
0.587206999414193
40
0.724248870516865
40
0.862112785215551
40
1
40
1
40
1
40
1
41
1
10
111.360127051831
20
17.951114610038
30
0
41
1
10
111.536949763999
20
17.9199359948031
30
0
41
1
10
111.91784167076
20
17.8527744744429
30
0
41
1
10
112.462842309663
20
17.7566761562518
30
0
41
1
10
112.961139886531
20
17.6688128491764
30
0
41
1
10
113.381664443374
20
17.5946630237237
30
0
41
1
10
113.833421824508
20
17.515006008704
30
0
41
1
10
114.316055269153
20
17.4299047106185
30
0
41
1
10
114.809399611087
20
17.3429147923563
30
0
41
1
10
115.474160433625
20
17.2256995236247
30
0
41
1
10
116.270299307609
20
17.0853187597506
30
0
41
1
10
117.166297634687
20
16.927330080017
30
0
41
1
10
117.744551294118
20
16.8253683581661
30
0
41
1
10
118.026497969205
20
16.7756535522272
30
0
0
SPLINE
5
1C2
100
AcDbEntity
8
1
62
256
6
ByLayer
370
18
48
1
60
0
100
AcDbSpline
70
4
71
3
72
11
73
7
40
0
40
0
40
0
40
0
40
0.269833361782959
40
0.547043277683685
40
0.770623317896206
40
1
40
1
40
1
40
1
41
1
10
111.267051011043
20
17.9675264279046
30
0
41
1
10
111.148835817565
20
17.7891048166458
30
0
41
1
10
110.925464913455
20
17.4168419588909
30
0
41
1
10
110.655620693893
20
16.8593112963419
30
0
41
1
10
110.443220531083
20
16.310095196904
30
0
41
1
10
110.336828603977
20
15.9611204679882
30
0
41
1
10
110.289365590957
20
15.7819837712138
30
0
0
SPLINE
5
1C3
100
AcDbEntity
8
1
62
256
6
ByLayer
370
18
48
1
60
0
100
AcDbSpline
70
4
71
3
72
10
73
6
40
0
40
0
40
0
40
0
40
0.249999998090662
40
0.624999997734533
40
1
40
1
40
1
40
1
41
1
10
111.174001560849
20
17.9839335563743
30
0
41
1
10
111.181754608609
20
17.9825664838699
30
0
41
1
10
111.201137898672
20
17.979148684899
30
0
41
1
10
111.232153845125
20
17.9736797377914
30
0
41
1
10
111.255418219266
20
17.9695776006699
30
0
41
1
10
111.26705100992
20
17.9675264258168
30
0
0
SPLINE
5
1C4
100
AcDbEntity
8
1
62
256
6
ByLayer
370
18
48
1
60
0
100
AcDbSpline
70
4
71
3
72
10
73
6
40
0
40
0
40
0
40
0
40
0.249999998078472
40
0.62499999772004
40
1
40
1
40
1
40
1
41
1
10
111.267051011633
20
17.9675264274307
30
0
41
1
10
111.274806272016
20
17.9661589648887
30
0
41
1
10
111.294195095619
20
17.9627401904154
30
0
41
1
10
111.325219903465
20
17.9572696806888
30
0
41
1
10
111.348490931107
20
17.9531663704047
30
0
41
1
10
111.360127050333
20
17.9511146086345
30
0
0
SPLINE
5
1C5
100
AcDbEntity
8
1
62
256
6
ByLayer
370
18
48
1
60
0
100
AcDbSpline
70
4
71
2
72
6
73
3
40
0
40
0
40
0
40
1
40
1
40
1
41
0.505196346813173
10
123.906689453078
20
3.76458156163527
30
0
41
0.494803653186827
10
124.000286762333
20
3.80530155717585
30
0
41
0.505196346813173
10
124.102182455969
20
3.80530155717585
30
0
0
SPLINE
5
1C6
100
AcDbEntity
8
1
62
256
6
ByLayer
370
18
48
1
60
0
100
AcDbSpline
70
4
71
2
72
6
73
3
40
0
40
0
40
0
40
1
40
1
40
1
41
0.500361894125282
10
124.155288936734
20
3.80241059058338
30
0
41
0.499638105874718
10
124.17911756469
20
3.79980872065017
30
0
41
0.500361894125282
10
124.203084769422
20
3.79980872065017
30
0
0
SPLINE
5
1C7
100
AcDbEntity
8
1
62
256
6
ByLayer
370
18
48
1
60
0
100
AcDbSpline
70
4
71
2
72
6
73
3
40
0
40
0
40
0
40
1
40
1
40
1
41
0.505196346813174
10
121.671410117554
20
5.50114025317503
30
0
41
0.494803653186826
10
121.577812808298
20
5.46042025763445
30
0
41
0.505196346813174
10
121.475917114662
20
5.46042025763445
30
0
0
SPLINE
5
1C8
100
AcDbEntity
8
1
62
256
6
ByLayer
370
18
48
1
60
0
100
AcDbSpline
70
4
71
2
72
6
73
3
40
0
40
0
40
0
40
1
40
1
40
1
41
0.500361894125282
10
121.422810633898
20
5.46331122422689
30
0
41
0.499638105874718
10
121.398982005942
20
5.4659130941601
30
0
41
0.500361894125282
10
121.37501480121
20
5.4659130941601
30
0
0
SPLINE
5
1C9
100
AcDbEntity
8
1
62
256
6
ByLayer
370
18
48
1
60
0
100
AcDbSpline
70
4
71
2
72
6
73
3
40
0
40
0
40
0
40
1
40
1
40
1
41
0.502561126785504
10
121.603204771624
20
3.16291886619755
30
0
41
0.497438873214496
10
121.663463637348
20
3.18483924950859
30
0
41
0.502561126785504
10
121.71516572707
20
3.22304519485286
30
0
0
SPLINE
5
1CA
100
AcDbEntity
8
1
62
256
6
ByLayer
370
18
48
1
60
0
100
AcDbSpline
70
4
71
2
72
6
73
3
40
0
40
0
40
0
40
1
40
1
40
1
41
0.500361894125282
10
121.475917114662
20
5.46042025763445
30
0
41
0.499638105874718
10
121.449286887182
20
5.46042025763445
30
0
41
0.500361894125282
10
121.422810633898
20
5.46331122422691
30
0
0
SPLINE
5
1CB
100
AcDbEntity
8
1
62
256
6
ByLayer
370
18
48
1
60
0
100
AcDbSpline
70
4
71
2
72
6
73
3
40
0
40
0
40
0
40
1
40
1
40
1
41
0.500906326123375
10
122.487650662045
20
6.03286090740514
30
0
41
0.499093673876625
10
122.60578002943
20
6.03286090740514
30
0
41
0.500906326123375
10
122.722202570482
20
6.01263260247062
30
0
0
SPLINE
5
1CC
100
AcDbEntity
8
1
62
256
6
ByLayer
370
18
48
1
60
0
100
AcDbSpline
70
4
71
2
72
6
73
3
40
0
40
0
40
0
40
1
40
1
40
1
41
0.500361894125282
10
124.102182455969
20
3.80530155717585
30
0
41
0.499638105874718
10
124.128812683449
20
3.80530155717585
30
0
41
0.500361894125282
10
124.155288936734
20
3.80241059058338
30
0
0
SPLINE
5
1CD
100
AcDbEntity
8
1
62
256
6
ByLayer
370
18
48
1
60
0
100
AcDbSpline
70
4
71
2
72
6
73
3
40
0
40
0
40
0
40
1
40
1
40
1
41
0.500029413795637
10
112.815859061594
20
-2.32020289868195
30
0
41
0.499970586204363
10
112.893612735776
20
-2.3379779298484
30
0
41
0.500029413795637
10
112.969220165019
20
-2.35508920312892
30
0
0
SPLINE
5
1CE
100
AcDbEntity
8
1
62
256
6
ByLayer
370
18
48
1
60
0
100
AcDbSpline
70
4
71
2
72
6
73
3
40
0
40
0
40
0
40
1
40
1
40
1
41
0.500054905228912
10
125.454642472628
20
-5.11430627446997
30
0
41
0.499945094771088
10
125.409991769648
20
-5.06050902028759
30
0
41
0.500054905228912
10
125.367610019479
20
-5.00486748930313
30
0
0
LINE
5
70
100
AcDbEntity
8
1
62
256
6
ByLayer
370
18
48
1
60
0
100
AcDbLine
10
121.715166
20
3.223045
30
0
11
122.016565
21
3.223045
31
0
39
0
210
0
220
0
230
1
0
LINE
5
72
100
AcDbEntity
8
1
62
256
6
ByLayer
370
18
48
1
60
0
100
AcDbLine
10
123.852428
20
4.86999
30
0
11
124.147461
21
4.86999
31
0
39
0
210
0
220
0
230
1
0
LINE
5
73
100
AcDbEntity
8
1
62
256
6
ByLayer
370
18
48
1
60
0
100
AcDbLine
10
123.84734
20
3.737615
30
0
11
123.552307
21
3.737615
31
0
39
0
210
0
220
0
230
1
0
LINE
5
74
100
AcDbEntity
8
1
62
256
6
ByLayer
370
18
48
1
60
0
100
AcDbLine
10
123.373167
20
3.556508
30
0
11
123.6682
21
3.556508
31
0
39
0
210
0
220
0
230
1
0
LINE
5
75
100
AcDbEntity
8
1
62
256
6
ByLayer
370
18
48
1
60
0
100
AcDbLine
10
122.00839
20
3.319379
30
0
11
122.303423
21
3.319379
31
0
39
0
210
0
220
0
230
1
0
LINE
5
76
100
AcDbEntity
8
1
62
256
6
ByLayer
370
18
48
1
60
0
100
AcDbLine
10
123.017235
20
6.012633
30
0
11
122.722203
21
6.012633
31
0
39
0
210
0
220
0
230
1
0
LINE
5
77
100
AcDbEntity
8
1
62
256
6
ByLayer
370
18
48
1
60
0
100
AcDbLine
10
122.966912
20
5.946343
30
0
11
123.261944
21
5.946343
31
0
39
0
210
0
220
0
230
1
0
LINE
5
78
100
AcDbEntity
8
1
62
256
6
ByLayer
370
18
48
1
60
0
100
AcDbLine
10
124.081892
20
5.117387
30
0
11
123.786859
21
5.117387
31
0
39
0
210
0
220
0
230
1
0
LINE
5
79
100
AcDbEntity
8
1
62
256
6
ByLayer
370
18
48
1
60
0
100
AcDbLine
10
122.515907
20
6.244283
30
0
11
122.817306
21
6.244283
31
0
39
0
210
0
220
0
230
1
0
LINE
5
7A
100
AcDbEntity
8
1
62
256
6
ByLayer
370
18
48
1
60
0
100
AcDbLine
10
123.309076
20
3.251612
30
0
11
123.610476
21
3.251612
31
0
39
0
210
0
220
0
230
1
0
LINE
5
7B
100
AcDbEntity
8
1
62
256
6
ByLayer
370
18
48
1
60
0
100
AcDbLine
10
123.882146
20
5.413833
30
0
11
124.183545
21
5.413833
31
0
39
0
210
0
220
0
230
1
0
LINE
5
7C
100
AcDbEntity
8
1
62
256
6
ByLayer
370
18
48
1
60
0
100
AcDbLine
10
124.102182
20
3.805302
30
0
11
123.800783
21
3.805302
31
0
39
0
210
0
220
0
230
1
0
LINE
5
7D
100
AcDbEntity
8
1
62
256
6
ByLayer
370
18
48
1
60
0
100
AcDbLine
10
124.081561
20
4.661427
30
0
11
124.38296
21
4.661427
31
0
39
0
210
0
220
0
230
1
0
LINE
5
7E
100
AcDbEntity
8
1
62
256
6
ByLayer
370
18
48
1
60
0
100
AcDbLine
10
122.347978
20
-0.367139
30
0
11
122.589929
21
-0.367139
31
0
39
0
210
0
220
0
230
1
0
LINE
5
7F
100
AcDbEntity
8
1
62
256
6
ByLayer
370
18
48
1
60
0
100
AcDbLine
10
122.589929
20
9.632861
30
0
11
122.347978
21
9.632861
31
0
39
0
210
0
220
0
230
1
0
LINE
5
80
100
AcDbEntity
8
1
62
256
6
ByLayer
370
18
48
1
60
0
100
AcDbLine
10
115.310755
20
12.080541
30
0
11
112.561246
21
1.706497
31
0
39
0
210
0
220
0
230
1
0
LINE
5
81
100
AcDbEntity
8
1
62
256
6
ByLayer
370
18
48
1
60
0
100
AcDbLine
10
115.183996
20
9.685011
30
0
11
113.647958
21
3.889456
31
0
39
0
210
0
220
0
230
1
0
LINE
5
82
100
AcDbEntity
8
1
62
256
6
ByLayer
370
18
48
1
60
0
100
AcDbLine
10
122.131077
20
-0.603662
30
0
11
120.034523
21
-0.03572
31
0
39
0
210
0
220
0
230
1
0
LINE
5
83
100
AcDbEntity
8
1
62
256
6
ByLayer
370
18
48
1
60
0
100
AcDbLine
10
112.265371
20
0.164682
30
0
11
121.563781
21
-2.354192
31
0
39
0
210
0
220
0
230
1
0
LINE
5
84
100
AcDbEntity
8
1
62
256
6
ByLayer
370
18
48
1
60
0
100
AcDbLine
10
115.798912
20
13.496917
30
0
11
125.097321
21
10.978042
31
0
39
0
210
0
220
0
230
1
0
LINE
5
85
100
AcDbEntity
8
1
62
256
6
ByLayer
370
18
48
1
60
0
100
AcDbLine
10
122.671389
20
9.913316
30
0
11
124.767944
21
9.345374
31
0
39
0
210
0
220
0
230
1
0
LINE
5
86
100
AcDbEntity
8
1
62
256
6
ByLayer
370
18
48
1
60
0
100
AcDbLine
10
117.046904
20
9.211031
30
0
11
117.487715
21
9.158035
31
0
39
0
210
0
220
0
230
1
0
LINE
5
87
100
AcDbEntity
8
1
62
256
6
ByLayer
370
18
48
1
60
0
100
AcDbLine
10
117.013254
20
9.246226
30
0
11
116.62962
21
9.292347
31
0
39
0
210
0
220
0
230
1
0
LINE
5
88
100
AcDbEntity
8
1
62
256
6
ByLayer
370
18
48
1
60
0
100
AcDbLine
10
122.671389
20
9.913316
30
0
11
122.4349
21
9.941747
31
0
39
0
210
0
220
0
230
1
0
LINE
5
89
100
AcDbEntity
8
1
62
256
6
ByLayer
370
18
48
1
60
0
100
AcDbLine
10
116.62962
20
9.292347
30
0
11
115.183996
21
9.685011
31
0
39
0
210
0
220
0
230
1
0
LINE
5
8A
100
AcDbEntity
8
1
62
256
6
ByLayer
370
18
48
1
60
0
100
AcDbLine
10
122.4349
20
9.941747
30
0
11
124.521352
21
9.37502
31
0
39
0
210
0
220
0
230
1
0
LINE
5
8B
100
AcDbEntity
8
1
62
256
6
ByLayer
370
18
48
1
60
0
100
AcDbLine
10
124.767944
20
9.345374
30
0
11
124.521352
21
9.37502
31
0
39
0
210
0
220
0
230
1
0
LINE
5
8C
100
AcDbEntity
8
1
62
256
6
ByLayer
370
18
48
1
60
0
100
AcDbLine
10
113.59556
20
-2.41394
30
0
11
112.815859
21
-2.320203
31
0
39
0
210
0
220
0
230
1
0
LINE
5
8D
100
AcDbEntity
8
1
62
256
6
ByLayer
370
18
48
1
60
0
100
AcDbLine
10
112.561246
20
1.706497
30
0
11
109.979782
21
2.016846
31
0
39
0
210
0
220
0
230
1
0
LINE
5
8E
100
AcDbEntity
8
1
62
256
6
ByLayer
370
18
48
1
60
0
100
AcDbLine
10
109.979782
20
2.016846
30
0
11
112.729291
21
12.390889
31
0
39
0
210
0
220
0
230
1
0
LINE
5
8F
100
AcDbEntity
8
1
62
256
6
ByLayer
370
18
48
1
60
0
100
AcDbLine
10
115.310755
20
12.080541
30
0
11
112.729291
21
12.390889
31
0
39
0
210
0
220
0
230
1
0
LINE
5
90
100
AcDbEntity
8
1
62
256
6
ByLayer
370
18
48
1
60
0
100
AcDbLine
10
117.664773
20
14.815111
30
0
11
116.699494
21
14.931158
31
0
39
0
210
0
220
0
230
1
0
LINE
5
91
100
AcDbEntity
8
1
62
256
6
ByLayer
370
18
48
1
60
0
100
AcDbLine
10
120.401928
20
-4.244422
30
0
11
115.482614
21
-2.911814
31
0
39
0
210
0
220
0
230
1
0
LINE
5
92
100
AcDbEntity
8
1
62
256
6
ByLayer
370
18
48
1
60
0
100
AcDbLine
10
115.455334
20
-2.91774
30
0
11
115.482614
21
-2.911814
31
0
39
0
210
0
220
0
230
1
0
LINE
5
93
100
AcDbEntity
8
1
62
256
6
ByLayer
370
18
48
1
60
0
100
AcDbLine
10
113.59556
20
-2.41394
30
0
11
115.455334
21
-2.91774
31
0
39
0
210
0
220
0
230
1
0
LINE
5
94
100
AcDbEntity
8
1
62
256
6
ByLayer
370
18
48
1
60
0
100
AcDbLine
10
124.937431
20
12.868272
30
0
11
120.018117
21
14.20088
31
0
39
0
210
0
220
0
230
1
0
LINE
5
95
100
AcDbEntity
8
1
62
256
6
ByLayer
370
18
48
1
60
0
100
AcDbLine
10
119.996889
20
14.217784
30
0
11
118.137114
21
14.721584
31
0
39
0
210
0
220
0
230
1
0
LINE
5
96
100
AcDbEntity
8
1
62
256
6
ByLayer
370
18
48
1
60
0
100
AcDbLine
10
119.996889
20
14.217784
30
0
11
120.018117
21
14.20088
31
0
39
0
210
0
220
0
230
1
0
LINE
5
97
100
AcDbEntity
8
1
62
256
6
ByLayer
370
18
48
1
60
0
100
AcDbLine
10
138.281002
20
-3.307203
30
0
11
138.998559
21
-2.825249
31
0
39
0
210
0
220
0
230
1
0
LINE
5
98
100
AcDbEntity
8
1
62
256
6
ByLayer
370
18
48
1
60
0
100
AcDbLine
10
138.291231
20
0.230795
30
0
11
141.357347
21
-0.760928
31
0
39
0
210
0
220
0
230
1
0
LINE
5
99
100
AcDbEntity
8
1
62
256
6
ByLayer
370
18
48
1
60
0
100
AcDbLine
10
140.322983
20
2.171874
30
0
11
139.940059
21
2.951695
31
0
39
0
210
0
220
0
230
1
0
LINE
5
9A
100
AcDbEntity
8
1
62
256
6
ByLayer
370
18
48
1
60
0
100
AcDbLine
10
115.455334
20
-2.91774
30
0
11
112.96922
21
-2.355089
31
0
39
0
210
0
220
0
230
1
0
LINE
5
9B
100
AcDbEntity
8
1
62
256
6
ByLayer
370
18
48
1
60
0
100
AcDbLine
10
30
20
40
30
0
11
0.3
21
40
31
0
39
0
210
0
220
0
230
1
0
LINE
5
9C
100
AcDbEntity
8
1
62
256
6
ByLayer
370
18
48
1
60
0
100
AcDbLine
10
0.3
20
-40
30
0
11
30
21
-40
31
0
39
0
210
0
220
0
230
1
0
LINE
5
9D
100
AcDbEntity
8
1
62
256
6
ByLayer
370
18
48
1
60
0
100
AcDbLine
10
10.538675
20
38.115458
30
0
11
13.461325
21
38.115458
31
0
39
0
210
0
220
0
230
1
0
LINE
5
9E
100
AcDbEntity
8
1
62
256
6
ByLayer
370
18
48
1
60
0
100
AcDbLine
10
13.461325
20
12.13309
30
0
11
10.538675
21
12.13309
31
0
39
0
210
0
220
0
230
1
0
LINE
5
9F
100
AcDbEntity
8
1
62
256
6
ByLayer
370
18
48
1
60
0
100
AcDbLine
10
10.538675
20
-12.13309
30
0
11
13.461325
21
-12.13309
31
0
39
0
210
0
220
0
230
1
0
LINE
5
A0
100
AcDbEntity
8
1
62
256
6
ByLayer
370
18
48
1
60
0
100
AcDbLine
10
13.461325
20
-38.115458
30
0
11
10.538675
21
-38.115458
31
0
39
0
210
0
220
0
230
1
0
LINE
5
A1
100
AcDbEntity
8
1
62
256
6
ByLayer
370
18
48
1
60
0
100
AcDbLine
10
0.3
20
40
30
0
11
0
21
39.7
31
0
39
0
210
0
220
0
230
1
0
LINE
5
A2
100
AcDbEntity
8
1
62
256
6
ByLayer
370
18
48
1
60
0
100
AcDbLine
10
0
20
-39.7
30
0
11
0.3
21
-40
31
0
39
0
210
0
220
0
230
1
0
LINE
5
A3
100
AcDbEntity
8
1
62
256
6
ByLayer
370
18
48
1
60
0
100
AcDbLine
10
10.105662
20
-37.944501
30
0
11
10.105662
21
-12.6576
31
0
39
0
210
0
220
0
230
1
0
LINE
5
A4
100
AcDbEntity
8
1
62
256
6
ByLayer
370
18
48
1
60
0
100
AcDbLine
10
10.538675
20
-38.115458
30
0
11
10.538675
21
-12.13309
31
0
39
0
210
0
220
0
230
1
0
LINE
5
A5
100
AcDbEntity
8
1
62
256
6
ByLayer
370
18
48
1
60
0
100
AcDbLine
10
13.461325
20
12.13309
30
0
11
13.461325
21
38.115458
31
0
39
0
210
0
220
0
230
1
0
LINE
5
A6
100
AcDbEntity
8
1
62
256
6
ByLayer
370
18
48
1
60
0
100
AcDbLine
10
13.894338
20
12.6576
30
0
11
13.894338
21
37.944501
31
0
39
0
210
0
220
0
230
1
0
LINE
5
A7
100
AcDbEntity
8
1
62
256
6
ByLayer
370
18
48
1
60
0
100
AcDbLine
10
10.105662
20
12.6576
30
0
11
10.105662
21
37.944501
31
0
39
0
210
0
220
0
230
1
0
LINE
5
A8
100
AcDbEntity
8
1
62
256
6
ByLayer
370
18
48
1
60
0
100
AcDbLine
10
10.538675
20
12.13309
30
0
11
10.538675
21
38.115458
31
0
39
0
210
0
220
0
230
1
0
LINE
5
A9
100
AcDbEntity
8
1
62
256
6
ByLayer
370
18
48
1
60
0
100
AcDbLine
10
13.461325
20
-38.115458
30
0
11
13.461325
21
-12.13309
31
0
39
0
210
0
220
0
230
1
0
LINE
5
AA
100
AcDbEntity
8
1
62
256
6
ByLayer
370
18
48
1
60
0
100
AcDbLine
10
13.894338
20
-37.944501
30
0
11
13.894338
21
-12.6576
31
0
39
0
210
0
220
0
230
1
0
LINE
5
AB
100
AcDbEntity
8
1
62
256
6
ByLayer
370
18
48
1
60
0
100
AcDbLine
10
86.944017
20
-22.256334
30
0
11
86.944017
21
-18.507013
31
0
39
0
210
0
220
0
230
1
0
LINE
5
AC
100
AcDbEntity
8
1
62
256
6
ByLayer
370
18
48
1
60
0
100
AcDbLine
10
86.944017
20
-13.492142
30
0
11
86.944017
21
22.256334
31
0
39
0
210
0
220
0
230
1
0
LINE
5
AD
100
AcDbEntity
8
1
62
256
6
ByLayer
370
18
48
1
60
0
100
AcDbLine
10
85.336403
20
-22.539799
30
0
11
85.336403
21
-18.647661
31
0
39
0
210
0
220
0
230
1
0
LINE
5
AE
100
AcDbEntity
8
1
62
256
6
ByLayer
370
18
48
1
60
0
100
AcDbLine
10
120.063651
20
15.336788
30
0
11
119.782468
21
14.275869
31
0
39
0
210
0
220
0
230
1
0
LINE
5
AF
100
AcDbEntity
8
1
62
256
6
ByLayer
370
18
48
1
60
0
100
AcDbLine
10
137.791196
20
10.017074
30
0
11
132.919808
21
14.149561
31
0
39
0
210
0
220
0
230
1
0
LINE
5
B0
100
AcDbEntity
8
1
62
256
6
ByLayer
370
18
48
1
60
0
100
AcDbLine
10
134.911322
20
7.574024
30
0
11
137.791196
21
10.017074
31
0
39
0
210
0
220
0
230
1
0
LINE
5
B1
100
AcDbEntity
8
1
62
256
6
ByLayer
370
18
48
1
60
0
100
AcDbLine
10
125.645383
20
-5.34412
30
0
11
125.454642
21
-5.114306
31
0
39
0
210
0
220
0
230
1
0
LINE
5
B2
100
AcDbEntity
8
1
62
256
6
ByLayer
370
18
48
1
60
0
100
AcDbLine
10
130.314347
20
-5.757089
30
0
11
131.534049
21
-4.722393
31
0
39
0
210
0
220
0
230
1
0
LINE
5
B3
100
AcDbEntity
8
1
62
256
6
ByLayer
370
18
48
1
60
0
100
AcDbLine
10
131.534049
20
-4.722393
30
0
11
137.811024
21
-10.000253
31
0
39
0
210
0
220
0
230
1
0
LINE
5
B4
100
AcDbEntity
8
1
62
256
6
ByLayer
370
18
48
1
60
0
100
AcDbLine
10
132.919808
20
-14.149561
30
0
11
137.811024
21
-10.000253
31
0
39
0
210
0
220
0
230
1
0
LINE
5
B5
100
AcDbEntity
8
1
62
256
6
ByLayer
370
18
48
1
60
0
100
AcDbLine
10
107.948684
20
14.978419
30
0
11
104.62889
21
2.452663
31
0
39
0
210
0
220
0
230
1
0
LINE
5
B6
100
AcDbEntity
8
1
62
256
6
ByLayer
370
18
48
1
60
0
100
AcDbLine
10
115.238524
20
-2.868672
30
0
11
114.943522
21
-3.981728
31
0
39
0
210
0
220
0
230
1
0
LINE
5
B7
100
AcDbEntity
8
1
62
256
6
ByLayer
370
18
48
1
60
0
100
AcDbLine
10
109.589547
20
3.431371
30
0
11
111.637599
21
11.158778
31
0
39
0
210
0
220
0
230
1
0
LINE
5
B8
100
AcDbEntity
8
1
62
256
6
ByLayer
370
18
48
1
60
0
100
AcDbLine
10
114.943522
20
-3.981728
30
0
11
112.730821
21
-3.46226
31
0
39
0
210
0
220
0
230
1
0
LINE
5
B9
100
AcDbEntity
8
1
62
256
6
ByLayer
370
18
48
1
60
0
100
AcDbLine
10
120.063651
20
15.336788
30
0
11
117.85095
21
15.856256
31
0
39
0
210
0
220
0
230
1
0
LINE
5
BA
100
AcDbEntity
8
1
62
256
6
ByLayer
370
18
48
1
60
0
100
AcDbLine
10
137.791196
20
10.017074
30
0
11
137.835356
21
9.904778
31
0
39
0
210
0
220
0
230
1
0
LINE
5
BB
100
AcDbEntity
8
1
62
256
6
ByLayer
370
18
48
1
60
0
100
AcDbLine
10
137.835356
20
9.904778
30
0
11
135.003716
21
7.502646
31
0
39
0
210
0
220
0
230
1
0
LINE
5
BC
100
AcDbEntity
8
1
62
256
6
ByLayer
370
18
48
1
60
0
100
AcDbLine
10
128.5411
20
-5.870293
30
0
11
130.314347
21
-5.757089
31
0
39
0
210
0
220
0
230
1
0
LINE
5
BD
100
AcDbEntity
8
1
62
256
6
ByLayer
370
18
48
1
60
0
100
AcDbLine
10
128.5411
20
-5.870293
30
0
11
129.654264
21
-4.925976
31
0
39
0
210
0
220
0
230
1
0
LINE
5
BE
100
AcDbEntity
8
1
62
256
6
ByLayer
370
18
48
1
60
0
100
AcDbLine
10
131.685929
20
-4.700498
30
0
11
137.855287
21
-9.88787
31
0
39
0
210
0
220
0
230
1
0
LINE
5
BF
100
AcDbEntity
8
1
62
256
6
ByLayer
370
18
48
1
60
0
100
AcDbLine
10
137.811024
20
-10.000253
30
0
11
137.855287
21
-9.88787
31
0
39
0
210
0
220
0
230
1
0
LINE
5
C0
100
AcDbEntity
8
1
62
256
6
ByLayer
370
18
48
1
60
0
100
AcDbLine
10
128.423676
20
-5.755387
30
0
11
128.5411
21
-5.870293
31
0
39
0
210
0
220
0
230
1
0
LINE
5
C1
100
AcDbEntity
8
1
62
256
6
ByLayer
370
18
48
1
60
0
100
AcDbLine
10
128.423676
20
-5.755387
30
0
11
129.363856
21
-4.957815
31
0
39
0
210
0
220
0
230
1
0
LINE
5
C2
100
AcDbEntity
8
1
62
256
6
ByLayer
370
18
48
1
60
0
100
AcDbLine
10
87.375233
20
-18.469287
30
0
11
87.511589
21
-18.306784
31
0
39
0
210
0
220
0
230
1
0
LINE
5
C3
100
AcDbEntity
8
1
62
256
6
ByLayer
370
18
48
1
60
0
100
AcDbLine
10
87.101957
20
-13.624669
30
0
11
86.939455
21
-13.488313
31
0
39
0
210
0
220
0
230
1
0
LINE
5
C4
100
AcDbEntity
8
1
62
256
6
ByLayer
370
18
48
1
60
0
100
AcDbLine
10
86.939455
20
-13.488313
30
0
11
82.107937
21
-13.911016
31
0
39
0
210
0
220
0
230
1
0
LINE
5
C5
100
AcDbEntity
8
1
62
256
6
ByLayer
370
18
48
1
60
0
100
AcDbLine
10
82.543716
20
-18.89199
30
0
11
87.375233
21
-18.469287
31
0
39
0
210
0
220
0
230
1
0
LINE
5
C6
100
AcDbEntity
8
1
62
256
6
ByLayer
370
18
48
1
60
0
100
AcDbLine
10
149.578977
20
0.912359
30
0
11
139.197344
21
9.719289
31
0
39
0
210
0
220
0
230
1
0
LINE
5
C7
100
AcDbEntity
8
1
62
256
6
ByLayer
370
18
48
1
60
0
100
AcDbLine
10
139.197344
20
-9.719289
30
0
11
149.578977
21
-0.912359
31
0
39
0
210
0
220
0
230
1
0
LINE
5
C8
100
AcDbEntity
8
1
62
256
6
ByLayer
370
18
48
1
60
0
100
AcDbLine
10
137.682863
20
9.719289
30
0
11
135.038344
21
7.475895
31
0
39
0
210
0
220
0
230
1
0
LINE
5
C9
100
AcDbEntity
8
1
62
256
6
ByLayer
370
18
48
1
60
0
100
AcDbLine
10
137.682863
20
9.719289
30
0
11
137.616702
21
9.719289
31
0
39
0
210
0
220
0
230
1
0
LINE
5
CA
100
AcDbEntity
8
1
62
256
6
ByLayer
370
18
48
1
60
0
100
AcDbLine
10
138.440103
20
9.99793
30
0
11
137.798724
21
9.99793
31
0
39
0
210
0
220
0
230
1
0
LINE
5
CB
100
AcDbEntity
8
1
62
256
6
ByLayer
370
18
48
1
60
0
100
AcDbLine
10
137.811939
20
-9.99793
30
0
11
138.440103
21
-9.99793
31
0
39
0
210
0
220
0
230
1
0
LINE
5
CC
100
AcDbEntity
8
1
62
256
6
ByLayer
370
18
48
1
60
0
100
AcDbLine
10
136.759336
20
1.3
30
0
11
136.729931
21
1.3
31
0
39
0
210
0
220
0
230
1
0
LINE
5
CD
100
AcDbEntity
8
SK1
62
256
6
ByLayer
370
18
48
1
60
0
100
AcDbLine
10
-3
20
-27.5
30
0
11
-3
21
27.5
31
0
39
0
210
0
220
0
230
1
0
LINE
5
CF
100
AcDbEntity
8
SK1
62
256
6
ByLayer
370
18
48
1
60
0
100
AcDbLine
10
-2.2
20
12.864565
30
0
11
-2.2
21
24.989566
31
0
39
0
210
0
220
0
230
1
0
LINE
5
D0
100
AcDbEntity
8
SK1
62
256
6
ByLayer
370
18
48
1
60
0
100
AcDbLine
10
-2.2
20
-24.989567
30
0
11
-2.2
21
-12.864564
31
0
39
0
210
0
220
0
230
1
0
LINE
5
D1
100
AcDbEntity
8
SK1
62
256
6
ByLayer
370
18
48
1
60
0
100
AcDbLine
10
-2
20
27.325145
30
0
11
-2
21
-27.325145
31
0
39
0
210
0
220
0
230
1
0
LINE
5
D2
100
AcDbEntity
8
SK1
62
256
6
ByLayer
370
18
48
1
60
0
100
AcDbLine
10
-0.4
20
-5.670607
30
0
11
-0.4
21
-27.325111
31
0
39
0
210
0
220
0
230
1
0
LINE
5
D3
100
AcDbEntity
8
SK1
62
256
6
ByLayer
370
18
48
1
60
0
100
AcDbLine
10
-48
20
25.490392
30
0
11
-48
21
-25.490392
31
0
39
0
210
0
220
0
230
1
0
LINE
5
D4
100
AcDbEntity
8
SK1
62
256
6
ByLayer
370
18
48
1
60
0
100
AcDbLine
10
-0.4
20
27.32511
30
0
11
-0.4
21
5.670607
31
0
39
0
210
0
220
0
230
1
0
LINE
5
D5
100
AcDbEntity
8
1
62
256
6
ByLayer
370
18
48
1
60
0
100
AcDbLine
10
0.3
20
40
30
0
11
0.3
21
-40
31
0
39
0
210
0
220
0
230
1
0
LINE
5
D6
100
AcDbEntity
8
1
62
256
6
ByLayer
370
18
48
1
60
0
100
AcDbLine
10
30
20
-40
30
0
11
30
21
40
31
0
39
0
210
0
220
0
230
1
0
LINE
5
D7
100
AcDbEntity
8
1
62
256
6
ByLayer
370
18
48
1
60
0
100
AcDbLine
10
81.826161
20
-21.212827
30
0
11
81.826161
21
23.15875
31
0
39
0
210
0
220
0
230
1
0
LINE
5
D8
100
AcDbEntity
8
1
62
256
6
ByLayer
370
18
48
1
60
0
100
AcDbLine
10
0
20
-39.7
30
0
11
0
21
39.7
31
0
39
0
210
0
220
0
230
1
0
LINE
5
D9
100
AcDbEntity
8
SK1
62
256
6
ByLayer
370
18
48
1
60
0
100
AcDbLine
10
-0.2
20
28.683485
30
0
11
-0.2
21
6.365252
31
0
39
0
210
0
220
0
230
1
0
LINE
5
DA
100
AcDbEntity
8
SK1
62
256
6
ByLayer
370
18
48
1
60
0
100
AcDbLine
10
-1.307107
20
4.281245
30
0
11
-1.307107
21
-4.281244
31
0
39
0
210
0
220
0
230
1
0
LINE
5
DB
100
AcDbEntity
8
SK1
62
256
6
ByLayer
370
18
48
1
60
0
100
AcDbLine
10
-0.2
20
-6.365251
30
0
11
-0.2
21
-28.683485
31
0
39
0
210
0
220
0
230
1
0
LINE
5
DC
100
AcDbEntity
8
1
62
256
6
ByLayer
370
18
48
1
60
0
100
AcDbLine
10
82.107937
20
-13.911016
30
0
11
82.543716
21
-18.89199
31
0
39
0
210
0
220
0
230
1
0
LINE
5
DD
100
AcDbEntity
8
1
62
256
6
ByLayer
370
18
48
1
60
0
100
AcDbLine
10
87.101957
20
-13.624669
30
0
11
87.511589
21
-18.306784
31
0
39
0
210
0
220
0
230
1
0
LINE
5
DE
100
AcDbEntity
8
1
62
256
6
ByLayer
370
18
48
1
60
0
100
AcDbLine
10
87.375233
20
-18.469287
30
0
11
86.939455
21
-13.488313
31
0
39
0
210
0
220
0
230
1
0
LINE
5
DF
100
AcDbEntity
8
1
62
256
6
ByLayer
370
18
48
1
60
0
100
AcDbLine
10
81.783227
20
-23.16632
30
0
11
81.616856
21
-21.264685
31
0
39
0
210
0
220
0
230
1
0
LINE
5
E0
100
AcDbEntity
8
1
62
256
6
ByLayer
370
18
48
1
60
0
100
AcDbLine
10
113.84932
20
6.851903
30
0
11
113.784313
21
6.945762
31
0
39
0
210
0
220
0
230
1
0
LINE
5
E1
100
AcDbEntity
8
1
62
256
6
ByLayer
370
18
48
1
60
0
100
AcDbLine
10
113.488102
20
5.816365
30
0
11
113.499766
21
5.872151
31
0
39
0
210
0
220
0
230
1
0
LINE
5
E2
100
AcDbEntity
8
1
62
256
6
ByLayer
370
18
48
1
60
0
100
AcDbLine
10
132.919808
20
-14.149561
30
0
11
85.336403
21
-22.539799
31
0
39
0
210
0
220
0
230
1
0
LINE
5
E3
100
AcDbEntity
8
1
62
256
6
ByLayer
370
18
48
1
60
0
100
AcDbLine
10
118.026498
20
16.775654
30
0
11
132.919808
21
14.149561
31
0
39
0
210
0
220
0
230
1
0
LINE
5
E4
100
AcDbEntity
8
1
62
256
6
ByLayer
370
18
48
1
60
0
100
AcDbLine
10
80.26741
20
23.4336
30
0
11
111.174002
21
17.983934
31
0
39
0
210
0
220
0
230
1
0
LINE
5
E5
100
AcDbEntity
8
1
62
256
6
ByLayer
370
18
48
1
60
0
100
AcDbLine
10
121.305681
20
5.46042
30
0
11
121.475917
21
5.46042
31
0
39
0
210
0
220
0
230
1
0
LINE
5
E6
100
AcDbEntity
8
1
62
256
6
ByLayer
370
18
48
1
60
0
100
AcDbLine
10
80.26741
20
-23.4336
30
0
11
85.336403
21
-22.539799
31
0
39
0
210
0
220
0
230
1
0
LINE
5
E7
100
AcDbEntity
8
4
62
256
6
ByLayer
370
18
48
0.05
60
0
100
AcDbLine
10
0
20
0
30
0
11
164.11681
21
0
31
0
39
0
210
0
220
0
230
1
0
LINE
5
E9
100
AcDbEntity
8
SK4
62
256
6
ByLayer
370
18
48
0.05
60
0
100
AcDbLine
10
-59.970904
20
0
30
0
11
164.11681
21
0
31
0
39
0
210
0
220
0
230
1
0
LINE
5
EB
100
AcDbEntity
8
80
62
256
6
ByLayer
370
18
48
1
60
0
100
AcDbLine
10
0
20
0
30
0
11
-39.970904
21
0
31
0
39
0
210
0
220
0
230
1
0
LINE
5
EC
100
AcDbEntity
8
81
62
256
6
ByLayer
370
18
48
1
60
0
100
AcDbLine
10
189.970698
20
0
30
0
11
149.999794
21
0
31
0
39
0
210
0
220
0
230
1
0
MTEXT
5
1CF
100
AcDbEntity
8
SK6
62
256
6
ByLayer
370
18
48
1
60
0
100
AcDbMText
10
37.41649
20
-77.480419
30
0
210
0
220
0
230
1
1
\W0.7011;C8-DCMNN-00150-16
40
3
41
0
44
1.084337
50
0
71
7
72
5
7
iso_b_vert
0
DIMENSION
5
1E2
100
AcDbEntity
8
2
62
256
6
ByLayer
370
18
48
1
60
0
100
AcDbDimension
2
DimnDraft3D1
10
58.064045
20
149.999794
30
0
11
58.064045
21
55.982554
31
0
70
32
71
5
72
1
41
1
210
0
220
0
230
1
3
Standard
100
AcDbAlignedDimension
13
41.7
23
0
33
0
14
2
24
149.999794
34
0
50
90
100
AcDbRotatedDimension
1001
ACAD
1000
DSTYLE
1002
{
1070
    74
1070
     0
1070
   279
1070
     0
1070
   172
1070
     1
1070
   173
1070
     1
1070
   340
1005
1D5
1070
   271
1070
     0
1070
    77
1070
     1
1070
    73
1070
     0
1070
   171
1070
     3
1070
   274
1070
     4
1070
   177
1070
     7
1070
   176
1070
     7
1070
   178
1070
     7
1070
    78
1070
     8
1070
    41
1041
3.175
1070
   147
1041
1.5
1070
    42
1041
2.0
1070
    44
1041
2.0
1070
   140
1041
3.0
1070
   343
1005
1E3
1070
   344
1005
1E3
1002
}
0
DIMENSION
5
1F9
100
AcDbEntity
8
SK2
62
256
6
ByLayer
370
18
48
1
60
0
100
AcDbDimension
2
DimnDraft3D2
10
40
20
73.984669
30
0
11
-6.718873
21
73.984669
31
0
70
32
71
5
72
1
41
1
210
0
220
0
230
1
3
Standard
100
AcDbAlignedDimension
13
-40
23
1.7
33
0
14
40
24
1.7
34
0
50
0
100
AcDbRotatedDimension
1001
ACAD
1000
DSTYLE
1002
{
1070
   279
1070
     0
1070
   172
1070
     1
1070
   173
1070
     1
1070
   340
1005
1D5
1070
   271
1070
     0
1070
    77
1070
     1
1070
    73
1070
     0
1070
   171
1070
     3
1070
   274
1070
     4
1070
   177
1070
     7
1070
   176
1070
     7
1070
   178
1070
     7
1070
    78
1070
     8
1070
    41
1041
3.175
1070
   147
1041
1.5
1070
    42
1041
2.0
1070
    44
1041
2.0
1070
   140
1041
3.0
1070
   343
1005
1E3
1070
   344
1005
1E3
1002
}
0
ENDSEC
0
SECTION
2
OBJECTS
0
DICTIONARY
5
264
330
0
100
AcDbDictionary
280
0
281
1
3
ACAD_GROUP
350
265
3
ACAD_MLINESTYLE
350
266
0
DICTIONARY
5
265
330
0
100
AcDbDictionary
280
0
281
1
0
DICTIONARY
5
266
330
0
100
AcDbDictionary
280
0
281
1
3
Standard
350
18
0
MLINESTYLE
5
18
330
266
100
AcDbMlineStyle
2
Standard
70
0
3

62
256
51
90
52
90
71
2
49
-0.5
62
256
6
ByLayer
49
0.5
62
256
6
ByLayer
0
RASTERVARIABLES
5
252
330

100
AcDbRasterVariables
90
0
70
1
71
1
72
1
0
ENDSEC
0
EOF
