0
SECTION
2
HEADER
9
$ACADVER
1
AC1015
9
$DWGCODEPAGE
3
ANSI_1252
9
$HANDSEED
5
267
9
$ANGBASE
50
0
9
$ANGDIR
70
0
9
$ATTMODE
70
1
9
$AUNITS
70
0
9
$AUPREC
70
0
9
$CECOLOR
62
256
9
$CELTSCALE
40
1
9
$CELTYPE
6
ByLayer
9
$CELWEIGHT
370
18
9
$CLAYER
8
0
9
$CMLJUST
70
0
9
$CMLSCALE
40
1
9
$CMLSTYLE
2
Standard
9
$DIMSTYLE
2
Standard
9
$TEXTSIZE
40
0.2
9
$TEXTSTYLE
7
Standard
9
$LUNITS
70
2
9
$LUPREC
70
4
9
$EXTNAMES
290
1
9
$INSUNITS
70
4
9
$LTSCALE
40
1
9
$LWDISPLAY
290
1
9
$PDMODE
70
0
9
$PDSIZE
40
0
9
$PLINEGEN
70
0
0
ENDSEC
0
SECTION
2
CLASSES
0
CLASS
1
RASTERVARIABLES
2
AcDbRasterVariables
3
ISM
90
0
280
0
281
0
0
ENDSEC
0
SECTION
2
TABLES
0
TABLE
2
VPORT
5
25d
100
AcDbSymbolTable
0
VPORT
5
1
100
AcDbSymbolTableRecord
100
AcDbViewportTableRecord
2
*Active
70
0
10
0
20
0
11
1
21
1
12
-1
22
1
13
0
23
0
14
0.5
24
0.5
15
10
25
10
16
0
26
0
36
1
17
0
27
0
37
0
0
ENDTAB
0
TABLE
2
LTYPE
5
25e
100
AcDbSymbolTable
0
LTYPE
5
14
100
AcDbSymbolTableRecord
100
AcDbLinetypeTableRecord
70
0
2
ByBlock
3

72
65
73
0
40
0
0
LTYPE
5
15
100
AcDbSymbolTableRecord
100
AcDbLinetypeTableRecord
70
0
2
ByLayer
3

72
65
73
0
40
0
0
LTYPE
5
16
100
AcDbSymbolTableRecord
100
AcDbLinetypeTableRecord
70
0
2
CONTINUOUS
3
Solid line
72
65
73
0
40
0
0
LTYPE
5
6A
100
AcDbSymbolTableRecord
100
AcDbLinetypeTableRecord
70
0
2
CENTER
3
____ _ ____ _ ____ _ ____
72
65
73
4
40
47.5
49
22
74
0
49
-8.5
74
0
49
8.5
74
0
49
-8.5
74
0
0
LTYPE
5
6B
100
AcDbSymbolTableRecord
100
AcDbLinetypeTableRecord
70
0
2
DASHED
3
__ __ __ __ __ __ __ __ __
72
65
73
2
40
25.72
49
12.86
74
0
49
-12.86
74
0
0
ENDTAB
0
TABLE
2
LAYER
5
25f
100
AcDbSymbolTable
0
LAYER
5
10
100
AcDbSymbolTableRecord
100
AcDbLayerTableRecord
2
0
70
0
62
7
6
CONTINUOUS
290
1
370
-3
390
0
0
LAYER
5
6D
100
AcDbSymbolTableRecord
100
AcDbLayerTableRecord
2
2
70
0
62
7
6
CONTINUOUS
290
1
370
-3
390
0
0
LAYER
5
6F
100
AcDbSymbolTableRecord
100
AcDbLayerTableRecord
2
80
70
0
62
-6
6
CONTINUOUS
290
1
370
-3
390
0
0
LAYER
5
71
100
AcDbSymbolTableRecord
100
AcDbLayerTableRecord
2
81
70
0
62
-3
6
CONTINUOUS
290
1
370
-3
390
0
0
LAYER
5
73
100
AcDbSymbolTableRecord
100
AcDbLayerTableRecord
2
1
70
0
62
4
6
CONTINUOUS
290
1
370
-3
390
0
0
LAYER
5
89
100
AcDbSymbolTableRecord
100
AcDbLayerTableRecord
2
4
70
0
62
-2
6
CENTER
290
1
370
-3
390
0
0
LAYER
5
249
100
AcDbSymbolTableRecord
100
AcDbLayerTableRecord
2
SK4
70
0
62
2
6
CENTER
290
1
370
-3
390
0
0
LAYER
5
24a
100
AcDbSymbolTableRecord
100
AcDbLayerTableRecord
2
SK1
70
0
62
4
6
CONTINUOUS
290
1
370
-3
390
0
0
LAYER
5
24b
100
AcDbSymbolTableRecord
100
AcDbLayerTableRecord
2
SK6
70
0
62
5
6
CONTINUOUS
290
1
370
-3
390
0
0
LAYER
5
24c
100
AcDbSymbolTableRecord
100
AcDbLayerTableRecord
2
SK2
70
0
62
7
6
CONTINUOUS
290
1
370
-3
390
0
0
ENDTAB
0
TABLE
2
STYLE
5
260
100
AcDbSymbolTable
0
STYLE
5
11
100
AcDbSymbolTableRecord
100
AcDbTextStyleTableRecord
2
Standard
3
txt
70
0
71
0
40
0
41
1
42
0
50
0
0
STYLE
5
1AD
100
AcDbSymbolTableRecord
100
AcDbTextStyleTableRecord
2
iso_b_vert
3
simplex.shx
70
0
71
0
40
0
41
1
42
0
50
0
0
STYLE
5
1AE
100
AcDbSymbolTableRecord
100
AcDbTextStyleTableRecord
2
DWGDirectTextStyle
3
simplex
70
0
71
0
40
0
41
1
42
0
50
0
0
ENDTAB
0
TABLE
2
DIMSTYLE
5
261
100
AcDbSymbolTable
100
AcDbDimStyleTable
0
DIMSTYLE
105
27
100
AcDbSymbolTableRecord
100
AcDbDimStyleTableRecord
2
Standard
70
0
3
<>
41
0.18
42
0.0625
44
0.18
140
0.18
147
0.09
73
0
74
0
77
1
271
2
275
0
278
52
280
0
340
11
0
ENDTAB
0
TABLE
2
VIEW
5
262
100
AcDbSymbolTable
0
ENDTAB
0
TABLE
2
UCS
5
263
100
AcDbSymbolTable
0
ENDTAB
0
TABLE
2
APPID
5
264
100
AcDbSymbolTable
0
APPID
5
12
100
AcDbSymbolTableRecord
100
AcDbRegAppTableRecord
2
ACAD
70
0
0
ENDTAB
0
TABLE
2
BLOCK_RECORD
5
265
100
AcDbSymbolTable
0
BLOCK_RECORD
5
1F
100
AcDbSymbolTableRecord
100
AcDbBlockTableRecord
2
*Model_Space
340
0
70
0
0
BLOCK_RECORD
5
1B
100
AcDbSymbolTableRecord
100
AcDbBlockTableRecord
2
*Paper_Space
340
0
70
0
0
BLOCK_RECORD
5
23
100
AcDbSymbolTableRecord
100
AcDbBlockTableRecord
2
*Paper_Space0
340
0
70
0
0
BLOCK_RECORD
5
1B0
100
AcDbSymbolTableRecord
100
AcDbBlockTableRecord
2
DimnDraft3D1
340
0
70
0
0
BLOCK_RECORD
5
1BE
100
AcDbSymbolTableRecord
100
AcDbBlockTableRecord
2
_CLOSED
340
0
70
0
0
BLOCK_RECORD
5
1C5
100
AcDbSymbolTableRecord
100
AcDbBlockTableRecord
2
DimnDraft3D2
340
0
70
0
0
BLOCK_RECORD
5
1D3
100
AcDbSymbolTableRecord
100
AcDbBlockTableRecord
2
DimnDraft3D3
340
0
70
0
0
BLOCK_RECORD
5
1E2
100
AcDbSymbolTableRecord
100
AcDbBlockTableRecord
2
DimnDraft3D4
340
0
70
0
0
ENDTAB
0
ENDSEC
0
SECTION
2
BLOCKS
0
BLOCK
5
20
100
AcDbEntity
8
0
100
AcDbBlockBegin
2
*Model_Space
70
0
10
0
20
0
30
0
3
*Model_Space
0
ENDBLK
5
21
100
AcDbEntity
8
0
100
AcDbBlockEnd
0
BLOCK
5
1C
100
AcDbEntity
8
0
100
AcDbBlockBegin
2
*Paper_Space
70
0
10
0
20
0
30
0
3
*Paper_Space
0
ENDBLK
5
1D
100
AcDbEntity
8
0
100
AcDbBlockEnd
0
BLOCK
5
24
100
AcDbEntity
8
0
100
AcDbBlockBegin
2
*Paper_Space0
70
0
10
0
20
0
30
0
3
*Paper_Space0
0
ENDBLK
5
25
100
AcDbEntity
8
0
100
AcDbBlockEnd
0
BLOCK
5
1BB
100
AcDbEntity
8
0
100
AcDbBlockBegin
2
DimnDraft3D1
70
0
10
0
20
0
30
0
3
DimnDraft3D1
0
MTEXT
5
1B1
100
AcDbEntity
8
2
62
256
6
ByLayer
370
18
48
1
60
0
100
AcDbMText
10
63.094067
20
-66.674116
30
0
210
0
220
0
230
1
1
\W0.7399;95%%d
40
4.5
41
0
44
1.084337
50
312.65427684
71
7
72
5
7
iso_b_vert
0
LINE
5
1B2
100
AcDbEntity
8
2
62
256
6
ByLayer
370
13
48
1
60
0
100
AcDbLine
10
65.188235
20
-53.852285
30
0
11
56.655791
21
-53.152072
31
0
39
0
210
0
220
0
230
1
0
LINE
5
1B3
100
AcDbEntity
8
2
62
256
6
ByLayer
370
13
48
1
60
0
100
AcDbLine
10
80
20
-57
30
0
11
80
21
-78.490491
31
0
39
0
210
0
220
0
230
1
0
ARC
5
1B4
100
AcDbEntity
8
2
62
256
6
ByLayer
370
13
48
1
60
0
100
AcDbCircle
39
0
10
80
20
-55.067807
30
0
40
21.4226837810116
210
0
220
0
230
1
100
AcDbArc
50
175.308554
51
270
0
LINE
5
1B5
100
AcDbEntity
8
2
62
256
6
ByLayer
370
13
48
1
60
0
100
AcDbLine
10
58.649091
20
-53.315652
30
0
11
58.924166
21
-56.506211
31
0
39
0
210
0
220
0
230
1
0
LINE
5
1B6
100
AcDbEntity
8
2
62
256
6
ByLayer
370
13
48
1
60
0
100
AcDbLine
10
58.649091
20
-53.315652
30
0
11
58.089015
21
-56.468693
31
0
39
0
210
0
220
0
230
1
0
LINE
5
1B7
100
AcDbEntity
8
2
62
256
6
ByLayer
370
13
48
1
60
0
100
AcDbLine
10
58.924166
20
-56.506211
30
0
11
58.089015
21
-56.468693
31
0
39
0
210
0
220
0
230
1
0
LINE
5
1B8
100
AcDbEntity
8
2
62
256
6
ByLayer
370
13
48
1
60
0
100
AcDbLine
10
80
20
-76.490491
30
0
11
76.811717
21
-76.790804
31
0
39
0
210
0
220
0
230
1
0
LINE
5
1B9
100
AcDbEntity
8
2
62
256
6
ByLayer
370
13
48
1
60
0
100
AcDbLine
10
80
20
-76.490491
30
0
11
76.842625
21
-75.955382
31
0
39
0
210
0
220
0
230
1
0
LINE
5
1BA
100
AcDbEntity
8
2
62
256
6
ByLayer
370
13
48
1
60
0
100
AcDbLine
10
76.811717
20
-76.790804
30
0
11
76.842625
21
-75.955382
31
0
39
0
210
0
220
0
230
1
0
ENDBLK
5
1BC
100
AcDbEntity
8
0
100
AcDbBlockEnd
0
BLOCK
5
1BF
100
AcDbEntity
8
0
100
AcDbBlockBegin
2
_CLOSED
70
0
10
0
20
0
30
0
3
_CLOSED
0
LINE
5
1C1
100
AcDbEntity
8
0
62
256
6
ByLayer
370
-2
48
1
60
0
100
AcDbLine
10
-1
20
0.166667
30
0
11
0
21
0
31
0
39
0
210
0
220
0
230
1
0
LINE
5
1C2
100
AcDbEntity
8
0
62
256
6
ByLayer
370
-2
48
1
60
0
100
AcDbLine
10
0
20
0
30
0
11
-1
21
-0.166667
31
0
39
0
210
0
220
0
230
1
0
LINE
5
1C3
100
AcDbEntity
8
0
62
256
6
ByLayer
370
-2
48
1
60
0
100
AcDbLine
10
-1
20
0.166667
30
0
11
-1
21
-0.166667
31
0
39
0
210
0
220
0
230
1
0
LINE
5
1C4
100
AcDbEntity
8
0
62
256
6
ByLayer
370
-2
48
1
60
0
100
AcDbLine
10
0
20
0
30
0
11
-1
21
0
31
0
39
0
210
0
220
0
230
1
0
ENDBLK
5
1C0
100
AcDbEntity
8
0
100
AcDbBlockEnd
0
BLOCK
5
1D0
100
AcDbEntity
8
0
100
AcDbBlockBegin
2
DimnDraft3D2
70
0
10
0
20
0
30
0
3
DimnDraft3D2
0
MTEXT
5
1C6
100
AcDbEntity
8
2
62
256
6
ByLayer
370
18
48
1
60
0
100
AcDbMText
10
35.843421
20
-81.125
30
0
210
0
220
0
230
1
1
\W0.7346;80.0
40
4.5
41
0
44
1.084337
50
0
71
7
72
5
7
iso_b_vert
0
LINE
5
1C7
100
AcDbEntity
8
2
62
256
6
ByLayer
370
13
48
1
60
0
100
AcDbLine
10
0
20
-42
30
0
11
0
21
-84.25
31
0
39
0
210
0
220
0
230
1
0
LINE
5
1C8
100
AcDbEntity
8
2
62
256
6
ByLayer
370
13
48
1
60
0
100
AcDbLine
10
80
20
-57
30
0
11
80
21
-84.25
31
0
39
0
210
0
220
0
230
1
0
LINE
5
1C9
100
AcDbEntity
8
2
62
256
6
ByLayer
370
13
48
1
60
0
100
AcDbLine
10
0
20
-82.25
30
0
11
80
21
-82.25
31
0
39
0
210
0
220
0
230
1
0
LINE
5
1CA
100
AcDbEntity
8
2
62
256
6
ByLayer
370
13
48
1
60
0
100
AcDbLine
10
0
20
-82.25
30
0
11
3.174998
21
-81.832003
31
0
39
0
210
0
220
0
230
1
0
LINE
5
1CB
100
AcDbEntity
8
2
62
256
6
ByLayer
370
13
48
1
60
0
100
AcDbLine
10
0
20
-82.25
30
0
11
3.175002
21
-82.667997
31
0
39
0
210
0
220
0
230
1
0
LINE
5
1CC
100
AcDbEntity
8
2
62
256
6
ByLayer
370
13
48
1
60
0
100
AcDbLine
10
3.174998
20
-81.832003
30
0
11
3.175002
21
-82.667997
31
0
39
0
210
0
220
0
230
1
0
LINE
5
1CD
100
AcDbEntity
8
2
62
256
6
ByLayer
370
13
48
1
60
0
100
AcDbLine
10
80
20
-82.25
30
0
11
76.825002
21
-82.667997
31
0
39
0
210
0
220
0
230
1
0
LINE
5
1CE
100
AcDbEntity
8
2
62
256
6
ByLayer
370
13
48
1
60
0
100
AcDbLine
10
80
20
-82.25
30
0
11
76.824998
21
-81.832003
31
0
39
0
210
0
220
0
230
1
0
LINE
5
1CF
100
AcDbEntity
8
2
62
256
6
ByLayer
370
13
48
1
60
0
100
AcDbLine
10
76.825002
20
-82.667997
30
0
11
76.824998
21
-81.832003
31
0
39
0
210
0
220
0
230
1
0
ENDBLK
5
1D1
100
AcDbEntity
8
0
100
AcDbBlockEnd
0
BLOCK
5
1DF
100
AcDbEntity
8
0
100
AcDbBlockBegin
2
DimnDraft3D3
70
0
10
0
20
0
30
0
3
DimnDraft3D3
0
MTEXT
5
1D4
100
AcDbEntity
8
SK2
62
256
6
ByLayer
370
18
48
1
60
0
100
AcDbMText
10
-56.875
20
-1.563158
30
0
210
0
220
0
230
1
1
\W0.6740;80
40
4.5
41
0
44
1.084337
50
90
71
7
72
5
7
iso_b_vert
0
LINE
5
1D6
100
AcDbEntity
8
SK2
62
256
6
ByLayer
370
13
48
1
60
0
100
AcDbLine
10
-2
20
-40
30
0
11
-57.75
21
-40
31
0
39
0
210
0
220
0
230
1
0
LINE
5
1D7
100
AcDbEntity
8
SK2
62
256
6
ByLayer
370
13
48
1
60
0
100
AcDbLine
10
-2
20
40
30
0
11
-57.75
21
40
31
0
39
0
210
0
220
0
230
1
0
LINE
5
1D8
100
AcDbEntity
8
SK2
62
256
6
ByLayer
370
13
48
1
60
0
100
AcDbLine
10
-55.75
20
-40
30
0
11
-55.75
21
40
31
0
39
0
210
0
220
0
230
1
0
LINE
5
1D9
100
AcDbEntity
8
SK2
62
256
6
ByLayer
370
13
48
1
60
0
100
AcDbLine
10
-55.75
20
-40
30
0
11
-56.167997
21
-36.825002
31
0
39
0
210
0
220
0
230
1
0
LINE
5
1DA
100
AcDbEntity
8
SK2
62
256
6
ByLayer
370
13
48
1
60
0
100
AcDbLine
10
-55.75
20
-40
30
0
11
-55.332003
21
-36.824998
31
0
39
0
210
0
220
0
230
1
0
LINE
5
1DB
100
AcDbEntity
8
SK2
62
256
6
ByLayer
370
13
48
1
60
0
100
AcDbLine
10
-56.167997
20
-36.825002
30
0
11
-55.332003
21
-36.824998
31
0
39
0
210
0
220
0
230
1
0
LINE
5
1DC
100
AcDbEntity
8
SK2
62
256
6
ByLayer
370
13
48
1
60
0
100
AcDbLine
10
-55.75
20
40
30
0
11
-55.332003
21
36.825002
31
0
39
0
210
0
220
0
230
1
0
LINE
5
1DD
100
AcDbEntity
8
SK2
62
256
6
ByLayer
370
13
48
1
60
0
100
AcDbLine
10
-55.75
20
40
30
0
11
-56.167997
21
36.824998
31
0
39
0
210
0
220
0
230
1
0
LINE
5
1DE
100
AcDbEntity
8
SK2
62
256
6
ByLayer
370
13
48
1
60
0
100
AcDbLine
10
-55.332003
20
36.825002
30
0
11
-56.167997
21
36.824998
31
0
39
0
210
0
220
0
230
1
0
ENDBLK
5
1E0
100
AcDbEntity
8
0
100
AcDbBlockEnd
0
BLOCK
5
1ED
100
AcDbEntity
8
0
100
AcDbBlockBegin
2
DimnDraft3D4
70
0
10
0
20
0
30
0
3
DimnDraft3D4
0
MTEXT
5
1E3
100
AcDbEntity
8
2
62
256
6
ByLayer
370
18
48
1
60
0
100
AcDbMText
10
101.125
20
-31.656579
30
0
210
0
220
0
230
1
1
\W0.7346;55.0
40
4.5
41
0
44
1.084337
50
90
71
7
72
5
7
iso_b_vert
0
LINE
5
1E4
100
AcDbEntity
8
2
62
256
6
ByLayer
370
13
48
1
60
0
100
AcDbLine
10
82
20
0
30
0
11
104.25
21
0
31
0
39
0
210
0
220
0
230
1
0
LINE
5
1E5
100
AcDbEntity
8
2
62
256
6
ByLayer
370
13
48
1
60
0
100
AcDbLine
10
82
20
-55
30
0
11
104.25
21
-55
31
0
39
0
210
0
220
0
230
1
0
LINE
5
1E6
100
AcDbEntity
8
2
62
256
6
ByLayer
370
13
48
1
60
0
100
AcDbLine
10
102.25
20
0
30
0
11
102.25
21
-55
31
0
39
0
210
0
220
0
230
1
0
LINE
5
1E7
100
AcDbEntity
8
2
62
256
6
ByLayer
370
13
48
1
60
0
100
AcDbLine
10
102.25
20
0
30
0
11
102.667997
21
-3.174998
31
0
39
0
210
0
220
0
230
1
0
LINE
5
1E8
100
AcDbEntity
8
2
62
256
6
ByLayer
370
13
48
1
60
0
100
AcDbLine
10
102.25
20
0
30
0
11
101.832003
21
-3.175002
31
0
39
0
210
0
220
0
230
1
0
LINE
5
1E9
100
AcDbEntity
8
2
62
256
6
ByLayer
370
13
48
1
60
0
100
AcDbLine
10
102.667997
20
-3.174998
30
0
11
101.832003
21
-3.175002
31
0
39
0
210
0
220
0
230
1
0
LINE
5
1EA
100
AcDbEntity
8
2
62
256
6
ByLayer
370
13
48
1
60
0
100
AcDbLine
10
102.25
20
-55
30
0
11
101.832003
21
-51.825002
31
0
39
0
210
0
220
0
230
1
0
LINE
5
1EB
100
AcDbEntity
8
2
62
256
6
ByLayer
370
13
48
1
60
0
100
AcDbLine
10
102.25
20
-55
30
0
11
102.667997
21
-51.824998
31
0
39
0
210
0
220
0
230
1
0
LINE
5
1EC
100
AcDbEntity
8
2
62
256
6
ByLayer
370
13
48
1
60
0
100
AcDbLine
10
101.832003
20
-51.825002
30
0
11
102.667997
21
-51.824998
31
0
39
0
210
0
220
0
230
1
0
ENDBLK
5
1EE
100
AcDbEntity
8
0
100
AcDbBlockEnd
0
ENDSEC
0
SECTION
2
ENTITIES
0
ARC
5
ED
100
AcDbEntity
8
SK1
62
256
6
ByLayer
370
18
48
1
60
0
100
AcDbCircle
39
0
10
0.6
20
-29.6
30
0
40
1.00000000000001
210
0
220
0
230
-1
100
AcDbArc
50
113.578178
51
126.869898
0
ARC
5
EE
100
AcDbEntity
8
SK1
62
256
6
ByLayer
370
18
48
1
60
0
100
AcDbCircle
39
0
10
0.6
20
29.6
30
0
40
1.00000000000001
210
0
220
0
230
-1
100
AcDbArc
50
233.130102
51
246.421822
0
ELLIPSE
5
EF
100
AcDbEntity
8
1
62
256
6
ByLayer
370
18
48
1
60
0
100
AcDbEllipse
10
61.997784
20
-39.223583
30
0
11
-0.268700576851504
21
-0.268700576850272
31
0
210
0
220
0
230
1
40
0.989133
41
2.42225340979502
42
2.82335423483986
0
ELLIPSE
5
F0
100
AcDbEntity
8
1
62
256
6
ByLayer
370
18
48
1
60
0
100
AcDbEllipse
10
60.748086
20
-41.001293
30
0
11
-0.268700576851504
21
-0.268700576850272
31
0
210
0
220
0
230
1
40
0.989133
41
0.318251980072693
42
1.06840509419364
0
ELLIPSE
5
F1
100
AcDbEntity
8
1
62
256
6
ByLayer
370
18
48
1
60
0
100
AcDbEllipse
10
62.796952
20
-39.166368
30
0
11
0.300520382004974
21
0.300520382003592
31
0
210
0
220
0
230
1
40
0.989133
41
2.42225340979507
42
-3.14158919864635
0
ELLIPSE
5
F2
100
AcDbEntity
8
1
62
256
6
ByLayer
370
18
48
1
60
0
100
AcDbEllipse
10
60.967457
20
-41.768848
30
0
11
0.300520382004974
21
0.300520382003592
31
0
210
0
220
0
230
1
40
0.989133
41
3.51676190689017E-06
42
1.06840509419365
0
ELLIPSE
5
F3
100
AcDbEntity
8
1
62
256
6
ByLayer
370
18
48
1
60
0
100
AcDbEllipse
10
63.016322
20
-39.933924
30
0
11
-0.268700576851504
21
-0.268700576850272
31
0
210
0
220
0
230
1
40
0.989133
41
1.37505585859843
42
2.8233122601858
0
ELLIPSE
5
F4
100
AcDbEntity
8
1
62
256
6
ByLayer
370
18
48
1
60
0
100
AcDbEllipse
10
61.766625
20
-41.711634
30
0
11
-0.268700576851504
21
-0.268700576850272
31
0
210
0
220
0
230
1
40
0.989133
41
0.318294813050769
42
2.11560264539029
0
ELLIPSE
5
F5
100
AcDbEntity
8
1
62
256
6
ByLayer
370
18
48
1
60
0
100
AcDbEllipse
10
63.457896
20
-40.596917
30
0
11
0.300520382004974
21
0.300520382003592
31
0
210
0
220
0
230
1
40
0.989133
41
1.37505585859845
42
3.14157045834449
0
ELLIPSE
5
F6
100
AcDbEntity
8
1
62
256
6
ByLayer
370
18
48
1
60
0
100
AcDbEllipse
10
61.799035
20
-40.384439
30
0
11
2.82842712475269
21
2.82842712473969
31
0
210
0
220
0
230
1
40
0.989133
41
0.790861385157304
42
3.14158710851734
0
ELLIPSE
5
F7
100
AcDbEntity
8
1
62
256
6
ByLayer
370
18
48
1
60
0
100
AcDbEllipse
10
61.799035
20
-40.384439
30
0
11
2.82842712475269
21
2.82842712473969
31
0
210
0
220
0
230
1
40
0.989133
41
9.25359672420695E-05
42
0.790861385157304
0
ELLIPSE
5
F8
100
AcDbEntity
8
1
62
256
6
ByLayer
370
18
48
1
60
0
100
AcDbEllipse
10
62.900743
20
-41.17795
30
0
11
-0.268700576851504
21
-0.268700576850272
31
0
210
0
220
0
230
1
40
0.989133
41
0.327858307401821
42
3.11070847430902
0
ELLIPSE
5
F9
100
AcDbEntity
8
1
62
256
6
ByLayer
370
18
48
1
60
0
100
AcDbEllipse
10
61.882204
20
-40.467608
30
0
11
0.8131727983664
21
0.813172798362659
31
0
210
0
220
0
230
1
40
0.989133
41
0.790861625576229
42
0.871688112982225
0
ELLIPSE
5
FA
100
AcDbEntity
8
1
62
256
6
ByLayer
370
18
48
1
60
0
100
AcDbEllipse
10
61.882204
20
-40.467608
30
0
11
0.8131727983664
21
0.813172798362659
31
0
210
0
220
0
230
1
40
0.989133
41
1.45435576396992
42
2.11742837457521
0
ELLIPSE
5
FB
100
AcDbEntity
8
1
62
256
6
ByLayer
370
18
48
1
60
0
100
AcDbEllipse
10
61.882204
20
-40.467608
30
0
11
0.8131727983664
21
0.813172798362659
31
0
210
0
220
0
230
1
40
0.989133
41
2.63657603519378
42
-0.0349562380655727
0
ELLIPSE
5
FC
100
AcDbEntity
8
1
62
256
6
ByLayer
370
18
48
1
60
0
100
AcDbEllipse
10
61.882204
20
-40.467608
30
0
11
0.8131727983664
21
0.813172798362659
31
0
210
0
220
0
230
1
40
0.989133
41
0.118491029831416
42
0.790860751325614
0
ELLIPSE
5
FD
100
AcDbEntity
8
1
62
256
6
ByLayer
370
18
48
1
60
0
100
AcDbEllipse
10
61.830224
20
-40.415627
30
0
11
0.8131727983664
21
0.813172798362659
31
0
210
0
220
0
230
1
40
0.989133
41
-3.10929842613464
42
-0.0826684831739125
0
ELLIPSE
5
FE
100
AcDbEntity
8
1
62
256
6
ByLayer
370
18
48
1
60
0
100
AcDbEllipse
10
26.620897
20
-34.073549
30
0
11
0.868211998964792
21
2.02143709396399
31
0
210
0
220
0
230
1
40
0.16715
41
-3.14154875070607
42
-0.134559831478886
0
ELLIPSE
5
FF
100
AcDbEntity
8
1
62
256
6
ByLayer
370
18
48
1
60
0
100
AcDbEllipse
10
26.847374
20
-34.170822
30
0
11
-0.76955154453698
21
-1.79172833328625
31
0
210
0
220
0
230
1
40
0.16715
41
0.170397900855524
42
2.97118788380881
0
ELLIPSE
5
100
100
AcDbEntity
8
1
62
256
6
ByLayer
370
18
48
1
60
0
100
AcDbEllipse
10
73.164749
20
-48.164749
30
0
11
1.82433549546549
21
1.8243354954571
31
0
210
0
220
0
230
1
40
0.989133
41
-2.72622083734394
42
-0.0600886318006895
0
ELLIPSE
5
101
100
AcDbEntity
8
1
62
256
6
ByLayer
370
18
48
1
60
0
100
AcDbEllipse
10
67.541357
20
-52.798426
30
0
11
0.56144278426341
21
0.561442784260828
31
0
210
0
220
0
230
1
40
0.989133
41
3.05733658062987
42
3.14159259036299
0
ELLIPSE
5
102
100
AcDbEntity
8
1
62
256
6
ByLayer
370
18
48
1
60
0
100
AcDbEllipse
10
77.798426
20
-42.541357
30
0
11
0.56144278426341
21
0.561442784260828
31
0
210
0
220
0
230
1
40
0.989133
41
0
42
0.0842559465162015
0
ELLIPSE
5
103
100
AcDbEntity
8
1
62
256
6
ByLayer
370
18
48
1
60
0
100
AcDbEllipse
10
53.900911
20
-41.699656
30
0
11
2.08176526554851
21
2.16015123988015
31
0
210
0
220
0
230
1
40
0.986455
41
0.0604884076533471
42
0.156280282981033
0
ELLIPSE
5
104
100
AcDbEntity
8
1
62
256
6
ByLayer
370
18
48
1
60
0
100
AcDbEllipse
10
62.379474
20
-40.784045
30
0
11
-2.87977528400876
21
-2.98820921516755
31
0
210
0
220
0
230
1
40
0.986455
41
0.156280282981029
42
3.08930074312011
0
ELLIPSE
5
105
100
AcDbEntity
8
1
62
256
6
ByLayer
370
18
48
1
60
0
100
AcDbEllipse
10
60.654927
20
-39.582495
30
0
11
-1.80419656347537
21
-1.8721310745628
31
0
210
0
220
0
230
1
40
0.986455
41
-1.5214284923881
42
-1.31064727455769
0
ELLIPSE
5
106
100
AcDbEntity
8
1
62
256
6
ByLayer
370
18
48
1
60
0
100
AcDbEllipse
10
20.228464
20
-31.327985
30
0
11
-0.0243429108175398
21
2.72950713917911
31
0
210
0
220
0
230
1
40
0.08234
41
-0.547616833593993
42
-2.68291838825729
0
ELLIPSE
5
107
100
AcDbEntity
8
1
62
256
6
ByLayer
370
18
48
1
60
0
100
AcDbEllipse
10
12
20
-30.743242
30
0
11
2.00000000000001
21
0
31
0
210
0
220
0
230
1
40
0.5
41
-2.62725507590565
42
-0.509625320065288
0
ELLIPSE
5
108
100
AcDbEntity
8
1
62
256
6
ByLayer
370
18
48
1
60
0
100
AcDbEllipse
10
12
20
-30.743242
30
0
11
1.65
21
0
31
0
210
0
220
0
230
1
40
0.5
41
-2.84255191620173
42
-0.274398319953745
0
ELLIPSE
5
109
100
AcDbEntity
8
1
62
256
6
ByLayer
370
18
48
1
60
0
100
AcDbEllipse
10
55.867389
20
0
30
0
11
-24.603743528275
21
40.1433755630225
31
0
210
0
220
0
230
1
40
0.029642
41
-0.218761097015344
42
-0.0181523897393596
0
ELLIPSE
5
10A
100
AcDbEntity
8
1
62
256
6
ByLayer
370
18
48
1
60
0
100
AcDbEllipse
10
56.496716
20
-41.937107
30
0
11
-4.14474739205005
21
0.189995049982802
31
0
210
0
220
0
230
1
40
0.485394
41
0.295792313719037
42
0.655408047065183
0
ELLIPSE
5
10B
100
AcDbEntity
8
1
62
256
6
ByLayer
370
18
48
1
60
0
100
AcDbEllipse
10
56.541725
20
-42.466751
30
0
11
-4.61457350065121
21
2.99901066355964
31
0
210
0
220
0
230
1
40
0.211917
41
-0.615012610704258
42
-0.562020306474643
0
ELLIPSE
5
10C
100
AcDbEntity
8
1
62
256
6
ByLayer
370
18
48
1
60
0
100
AcDbEllipse
10
73.562474
20
-48.53546
30
0
11
-1.96901555077381
21
-1.05721853420259
31
0
210
0
220
0
230
1
40
0.792316
41
1.1244550408727
42
1.97966637434991
0
ELLIPSE
5
10D
100
AcDbEntity
8
1
62
256
6
ByLayer
370
18
48
1
60
0
100
AcDbEllipse
10
54.499758
20
-40.373738
30
0
11
0.210927185793126
21
1.98884632948184
31
0
210
0
220
0
230
1
40
0.785865
41
1.17445271745099
42
2.58712821171059
0
ELLIPSE
5
10E
100
AcDbEntity
8
1
62
256
6
ByLayer
370
18
48
1
60
0
100
AcDbEllipse
10
54.127071
20
-39.918383
30
0
11
-2.64176164554789
21
-1.42549993618932
31
0
210
0
220
0
230
1
40
0.99535
41
-1.10568333554901
42
-0.0539942724851381
0
ELLIPSE
5
10F
100
AcDbEntity
8
1
62
256
6
ByLayer
370
18
48
1
60
0
100
AcDbEllipse
10
73.562474
20
-48.53546
30
0
11
-0.701994003618379
21
-2.17713231393547
31
0
210
0
220
0
230
1
40
0.799417
41
1.35658630730947
42
2.2117976407881
0
ELLIPSE
5
110
100
AcDbEntity
8
1
62
256
6
ByLayer
370
18
48
1
60
0
100
AcDbEllipse
10
57.804022
20
-40.671118
30
0
11
4.49946397613839
21
-3.16304029810448
31
0
210
0
220
0
230
1
40
0.02553
41
-2.4139380725087
42
-1.9721703332227
0
ELLIPSE
5
111
100
AcDbEntity
8
1
62
256
6
ByLayer
370
18
48
1
60
0
100
AcDbEllipse
10
59.336514
20
-33.493394
30
0
11
1.84475298056335
21
0.772584261231506
31
0
210
0
220
0
230
1
40
0.769512
41
0.624391847984235
42
2.03706734224384
0
ELLIPSE
5
112
100
AcDbEntity
8
1
62
256
6
ByLayer
370
18
48
1
60
0
100
AcDbEllipse
10
58.956321
20
-33.048714
30
0
11
-2.64176164548991
21
-1.42549993629358
31
0
210
0
220
0
230
1
40
0.99535
41
-2.15737239865314
42
-1.10568333558902
0
ELLIPSE
5
113
100
AcDbEntity
8
1
62
256
6
ByLayer
370
18
48
1
60
0
100
AcDbEllipse
10
55.539516
20
-44.070362
30
0
11
-2.98777498565035
21
1.83435464435371
31
0
210
0
220
0
230
1
40
0.346844
41
-0.628857654662754
42
0.0943604517376462
0
ELLIPSE
5
114
100
AcDbEntity
8
1
62
256
6
ByLayer
370
18
48
1
60
0
100
AcDbEllipse
10
62.055853
20
-34.622833
30
0
11
-4.38100285437942
21
3.33108916940745
31
0
210
0
220
0
230
1
40
0.262905
41
0.564127449778351
42
0.61711975991697
0
ELLIPSE
5
115
100
AcDbEntity
8
1
62
256
6
ByLayer
370
18
48
1
60
0
100
AcDbEllipse
10
60.793558
20
-36.418466
30
0
11
4.49946397613839
21
-3.16304029810448
31
0
210
0
220
0
230
1
40
0.02553
41
-2.4139380725087
42
-1.97217033322268
0
ELLIPSE
5
116
100
AcDbEntity
8
1
62
256
6
ByLayer
370
18
48
1
60
0
100
AcDbEllipse
10
57.020254
20
-28.227774
30
0
11
5.72659051508523
21
-4.02568765213298
31
0
210
0
220
0
230
1
40
0.02553
41
0.808573903783132
42
0.823354940523123
0
ELLIPSE
5
117
100
AcDbEntity
8
1
62
256
6
ByLayer
370
18
48
1
60
0
100
AcDbEllipse
10
63.204983
20
-33.166141
30
0
11
-2.73155517432235
21
2.19821380472056
31
0
210
0
220
0
230
1
40
0.397671
41
-0.0900851663823279
42
0.633132940019937
0
ELLIPSE
5
118
100
AcDbEntity
8
1
62
256
6
ByLayer
370
18
48
1
60
0
100
AcDbEllipse
10
61.325967
20
-35.067438
30
0
11
-1.23592287959365
21
4.14806483934453
31
0
210
0
220
0
230
1
40
0.51148
41
-0.571189236992606
42
-0.211573503642339
0
ELLIPSE
5
119
100
AcDbEntity
8
1
62
256
6
ByLayer
370
18
48
1
60
0
100
AcDbEllipse
10
63.182661
20
-40.100263
30
0
11
-0.268700576851504
21
-0.268700576850272
31
0
210
0
220
0
230
1
40
0.989133
41
1.37505585859845
42
-2.07318755939618
0
ELLIPSE
5
11A
100
AcDbEntity
8
1
62
256
6
ByLayer
370
18
48
1
60
0
100
AcDbEllipse
10
62.164122
20
-39.389921
30
0
11
-0.268700576851504
21
-0.268700576850272
31
0
210
0
220
0
230
1
40
0.989133
41
2.42225340979502
42
-1.02599000819956
0
ELLIPSE
5
11B
100
AcDbEntity
8
1
62
256
6
ByLayer
370
18
48
1
60
0
100
AcDbEllipse
10
61.972231
20
-40.557635
30
0
11
-2.82842712475267
21
-2.82842712473971
31
0
210
0
220
0
230
1
40
0.989133
41
0
42
6.28318530717959
0
ELLIPSE
5
11C
100
AcDbEntity
8
1
62
256
6
ByLayer
370
18
48
1
60
0
100
AcDbEllipse
10
61.133795
20
-41.935187
30
0
11
0.300520382004974
21
0.300520382003592
31
0
210
0
220
0
230
1
40
0.989133
41
-0.719339243794726
42
1.06840509419363
0
ELLIPSE
5
11D
100
AcDbEntity
8
1
62
256
6
ByLayer
370
18
48
1
60
0
100
AcDbEllipse
10
60.914425
20
-41.167631
30
0
11
-0.268700576851504
21
-0.268700576850272
31
0
210
0
220
0
230
1
40
0.989133
41
-1.76653679499136
42
1.06840509419364
0
ELLIPSE
5
11E
100
AcDbEntity
8
1
62
256
6
ByLayer
370
18
48
1
60
0
100
AcDbEllipse
10
63.624235
20
-40.763256
30
0
11
0.300520382004974
21
0.300520382003592
31
0
210
0
220
0
230
1
40
0.989133
41
1.37505585859846
42
-3.12038511059276
0
ELLIPSE
5
11F
100
AcDbEntity
8
1
62
256
6
ByLayer
370
18
48
1
60
0
100
AcDbEllipse
10
63.067082
20
-41.344288
30
0
11
-0.268700576851504
21
-0.268700576850272
31
0
210
0
220
0
230
1
40
0.989133
41
0.327858307401863
42
-3.12038511059279
0
ELLIPSE
5
120
100
AcDbEntity
8
1
62
256
6
ByLayer
370
18
48
1
60
0
100
AcDbEllipse
10
62.963291
20
-39.332707
30
0
11
0.300520382004974
21
0.300520382003592
31
0
210
0
220
0
230
1
40
0.989133
41
2.42225340979502
42
-2.0731875593962
0
ELLIPSE
5
121
100
AcDbEntity
8
1
62
256
6
ByLayer
370
18
48
1
60
0
100
AcDbEllipse
10
62.709487
20
-42.064496
30
0
11
0.300520382004974
21
0.300520382003592
31
0
210
0
220
0
230
1
40
0.989133
41
0.327858307401832
42
2.11560264539022
0
ELLIPSE
5
122
100
AcDbEntity
8
1
62
256
6
ByLayer
370
18
48
1
60
0
100
AcDbEllipse
10
61.030004
20
-39.923606
30
0
11
-0.268700576851504
21
-0.268700576850272
31
0
210
0
220
0
230
1
40
0.989133
41
-2.81373434618793
42
0.0212075429970061
0
ELLIPSE
5
123
100
AcDbEntity
8
1
62
256
6
ByLayer
370
18
48
1
60
0
100
AcDbEllipse
10
62.543149
20
-41.898157
30
0
11
0.300520382004974
21
0.300520382003592
31
0
210
0
220
0
230
1
40
0.989133
41
0.327858307401869
42
2.11560264539023
0
ELLIPSE
5
124
100
AcDbEntity
8
1
62
256
6
ByLayer
370
18
48
1
60
0
100
AcDbEllipse
10
60.472851
20
-40.504638
30
0
11
0.300520382004974
21
0.300520382003592
31
0
210
0
220
0
230
1
40
0.989133
41
-1.76653679499135
42
0.021207542997032
0
ELLIPSE
5
125
100
AcDbEntity
8
1
62
256
6
ByLayer
370
18
48
1
60
0
100
AcDbEllipse
10
62.048543
20
-40.633947
30
0
11
-1.62634559673279
21
-1.62634559672533
31
0
210
0
220
0
230
1
40
0.989133
41
0
42
6.28318530717959
0
ELLIPSE
5
126
100
AcDbEntity
8
1
62
256
6
ByLayer
370
18
48
1
60
0
100
AcDbEllipse
10
61.932964
20
-41.877972
30
0
11
-0.268700576851504
21
-0.268700576850272
31
0
210
0
220
0
230
1
40
0.989133
41
-0.719339243794735
42
2.11560264539019
0
ELLIPSE
5
127
100
AcDbEntity
8
1
62
256
6
ByLayer
370
18
48
1
60
0
100
AcDbEllipse
10
61.387599
20
-39.203398
30
0
11
0.300520382004974
21
0.300520382003592
31
0
210
0
220
0
230
1
40
0.989133
41
-2.81373434618792
42
-1.02599000819956
0
ELLIPSE
5
128
100
AcDbEntity
8
1
62
256
6
ByLayer
370
18
48
1
60
0
100
AcDbEllipse
10
30.763884
20
0
30
0
11
-18.7348357595649
21
-39.4834983055014
31
0
210
0
220
0
230
1
40
0.341999
41
-1.08794676716928
42
-0.161099005228942
0
ELLIPSE
5
129
100
AcDbEntity
8
1
62
256
6
ByLayer
370
18
48
1
60
0
100
AcDbEllipse
10
12
20
-29.138703
30
0
11
-1.88914494149557
21
3.41434906402565
31
0
210
0
220
0
230
1
40
0.192308
41
-3.13359220704444
42
-2.48058027399274
0
ELLIPSE
5
12A
100
AcDbEntity
8
1
62
256
6
ByLayer
370
18
48
1
60
0
100
AcDbEllipse
10
12
20
-31.856303
30
0
11
-2
21
2.02127811016473E-15
31
0
210
0
220
0
230
1
40
0.732051
41
-2.39008803209748
42
-0.751504621492316
0
ELLIPSE
5
12B
100
AcDbEntity
8
1
62
256
6
ByLayer
370
18
48
1
60
0
100
AcDbEllipse
10
12
20
-29.138703
30
0
11
-1.88914494149923
21
-3.4143490640314
31
0
210
0
220
0
230
1
40
0.192308
41
-0.661012379596405
42
-0.00800044654531063
0
ELLIPSE
5
12C
100
AcDbEntity
8
1
62
256
6
ByLayer
370
18
48
1
60
0
100
AcDbEllipse
10
21.499547
20
0
30
0
11
2.44921270764475E-15
21
40
31
0
210
0
220
0
230
1
40
0.087489
41
0.295569211446146
42
2.84602344214365
0
ELLIPSE
5
12D
100
AcDbEntity
8
1
62
256
6
ByLayer
370
18
48
1
60
0
100
AcDbEllipse
10
-6.763884
20
0
30
0
11
-18.7348357595635
21
-39.4834983054999
31
0
210
0
220
0
230
1
40
0.341999
41
2.05364588642048
42
2.98049364836085
0
ELLIPSE
5
12E
100
AcDbEntity
8
1
62
256
6
ByLayer
370
18
48
1
60
0
100
AcDbEllipse
10
-6.763884
20
0
30
0
11
-18.7348357595644
21
39.4834983055009
31
0
210
0
220
0
230
1
40
0.341999
41
-2.98049364836085
42
-2.0536458864205
0
ELLIPSE
5
12F
100
AcDbEntity
8
1
62
256
6
ByLayer
370
18
48
1
60
0
100
AcDbEllipse
10
30.763884
20
0
30
0
11
-18.7348357595639
21
39.4834983055003
31
0
210
0
220
0
230
1
40
0.341999
41
0.161099005228945
42
1.0879467671693
0
ELLIPSE
5
130
100
AcDbEntity
8
1
62
256
6
ByLayer
370
18
48
1
60
0
100
AcDbEllipse
10
48.411941
20
-41.875465
30
0
11
-4.60348651608257
21
3.18394601550591
31
0
210
0
220
0
230
1
40
0.714389
41
2.44645526285091
42
3.13614006881418
0
ELLIPSE
5
131
100
AcDbEntity
8
1
62
256
6
ByLayer
370
18
48
1
60
0
100
AcDbEllipse
10
12
20
-31.856303
30
0
11
-1.99999999999988
21
2.0212781101646E-15
31
0
210
0
220
0
230
1
40
0.732051
41
0.751504621492249
42
2.39008803209755
0
ELLIPSE
5
132
100
AcDbEntity
8
1
62
256
6
ByLayer
370
18
48
1
60
0
100
AcDbEllipse
10
32.494172
20
-66.309175
30
0
11
-2.34311535993461E-15
21
38.2672415935295
31
0
210
0
220
0
230
-1
40
0.104528
41
-0.783240795185261
42
-0.104149827605797
0
ELLIPSE
5
133
100
AcDbEntity
8
1
62
256
6
ByLayer
370
18
48
1
60
0
100
AcDbEllipse
10
58.760335
20
-27.154746
30
0
11
-4.60348651604976
21
3.18394601548453
31
0
210
0
220
0
230
1
40
0.714389
41
3.13614006881432
42
-2.45736043239939
0
ELLIPSE
5
134
100
AcDbEntity
8
1
62
256
6
ByLayer
370
18
48
1
60
0
100
AcDbEllipse
10
78.293283
20
-43.036214
30
0
11
-0.561442784263406
21
-0.561442784260832
31
0
210
0
220
0
230
1
40
0.989133
41
2.44346095279207
42
-2.44346095279206
0
ELLIPSE
5
135
100
AcDbEntity
8
1
62
256
6
ByLayer
370
18
48
1
60
0
100
AcDbEllipse
10
79.210279
20
-54.210279
30
0
11
-0.561442784263406
21
-0.561442784260832
31
0
210
0
220
0
230
1
40
0.989133
41
0.698131700797728
42
2.44346095279207
0
ELLIPSE
5
136
100
AcDbEntity
8
1
62
256
6
ByLayer
370
18
48
1
60
0
100
AcDbEllipse
10
68.036214
20
-53.293283
30
0
11
-0.561442784263406
21
-0.561442784260832
31
0
210
0
220
0
230
1
40
0.989133
41
-0.698131700797728
42
0.698131700797735
0
POINT
5
6C
100
AcDbEntity
8
2
62
256
6
ByLayer
370
18
48
1
60
0
100
AcDbPoint
10
80
20
55
30
0
39
0
210
0
220
0
230
1
50
360
0
POINT
5
6E
100
AcDbEntity
8
80
62
256
6
ByLayer
370
18
48
1
60
0
100
AcDbPoint
10
0
20
0
30
0
39
0
210
0
220
0
230
1
50
360
0
POINT
5
70
100
AcDbEntity
8
81
62
256
6
ByLayer
370
18
48
1
60
0
100
AcDbPoint
10
80
20
-55
30
0
39
0
210
0
220
0
230
1
50
360
0
SPLINE
5
137
100
AcDbEntity
8
SK1
62
256
6
ByLayer
370
18
48
1
60
0
100
AcDbSpline
70
4
71
3
72
13
73
9
40
0
40
0
40
0
40
0
40
0.239456135584175
40
0.368359721689711
40
0.499998983747862
40
0.631638415023653
40
0.760542467572986
40
1
40
1
40
1
40
1
41
1
10
-2.19999999999999
20
-27.5200986604247
30
0
41
1
10
-2.19909198642043
20
-27.4940411843415
30
0
41
1
10
-2.19103284106723
20
-27.4566686000526
30
0
41
1
10
-2.16563592203016
20
-27.4104494262793
30
0
41
1
10
-2.13886378678791
20
-27.3791678724618
30
0
41
1
10
-2.10627712749306
20
-27.3540005022953
30
0
41
1
10
-2.05884064232873
20
-27.33095669986
30
0
41
1
10
-2.02111030872422
20
-27.3247844448489
30
0
41
1
10
-1.99503997793928
20
-27.3251860847967
30
0
0
SPLINE
5
138
100
AcDbEntity
8
SK1
62
256
6
ByLayer
370
18
48
1
60
0
100
AcDbSpline
70
4
71
3
72
13
73
9
40
0
40
0
40
0
40
0
40
0.239457532422288
40
0.368361584969835
40
0.500001016244838
40
0.631640278303504
40
0.760543864410666
40
1
40
1
40
1
40
1
41
1
10
-1.99503997793928
20
27.3251860880175
30
0
41
1
10
-2.0211103087243
20
27.3247844480698
30
0
41
1
10
-2.05884064232888
20
27.3309567030813
30
0
41
1
10
-2.1062771274932
20
27.3540005055176
30
0
41
1
10
-2.13886378678805
20
27.3791678756855
30
0
41
1
10
-2.16563592203025
20
27.4104494295044
30
0
41
1
10
-2.19103284106731
20
27.4566686032802
30
0
41
1
10
-2.19909198642051
20
27.4940411875707
30
0
41
1
10
-2.19999999999999
20
27.520098663655
30
0
0
SPLINE
5
139
100
AcDbEntity
8
SK1
62
256
6
ByLayer
370
18
48
1
60
0
100
AcDbSpline
70
4
71
2
72
6
73
3
40
0
40
0
40
0
40
1
40
1
40
1
41
1
10
-46.5
20
-26.3937602673102
30
0
41
1
10
-24.349999999999
20
-26.9499705725249
30
0
41
1
10
-2.19999999999999
20
-27.5061808177903
30
0
0
SPLINE
5
13A
100
AcDbEntity
8
SK1
62
256
6
ByLayer
370
18
48
1
60
0
100
AcDbSpline
70
4
71
2
72
6
73
3
40
0
40
0
40
0
40
1
40
1
40
1
41
1
10
-2.19999999999999
20
27.506180857905
30
0
41
1
10
-24.349999999999
20
26.9499706126624
30
0
41
1
10
-46.5
20
26.3937603074471
30
0
0
SPLINE
5
13B
100
AcDbEntity
8
SK1
62
256
6
ByLayer
370
18
48
1
60
0
100
AcDbSpline
70
4
71
2
72
6
73
3
40
0
40
0
40
0
40
1
40
1
40
1
41
1
10
-1.99503997793928
20
-27.3251858108711
30
0
41
1
10
-1.19500843340728
20
-27.3452852614966
30
0
41
1
10
-0.394976888875306
20
-27.3653847121227
30
0
0
SPLINE
5
13C
100
AcDbEntity
8
SK1
62
256
6
ByLayer
370
18
48
1
60
0
100
AcDbSpline
70
4
71
2
72
6
73
3
40
0
40
0
40
0
40
1
40
1
40
1
41
1
10
-0.394976888875277
20
27.3653847152514
30
0
41
1
10
-1.19500843340728
20
27.3452852646244
30
0
41
1
10
-1.99503997793928
20
27.3251858139979
30
0
0
SPLINE
5
13D
100
AcDbEntity
8
SK1
62
256
6
ByLayer
370
18
48
1
60
0
100
AcDbSpline
70
4
71
2
72
6
73
3
40
0
40
0
40
0
40
1
40
1
40
1
41
1
10
-46.5
20
26.407103720226
30
0
41
1
10
-47.2499999994058
20
25.9740938984544
30
0
41
1
10
-48
20
25.5410840926423
30
0
0
SPLINE
5
13E
100
AcDbEntity
8
SK1
62
256
6
ByLayer
370
18
48
1
60
0
100
AcDbSpline
70
4
71
2
72
6
73
3
40
0
40
0
40
0
40
1
40
1
40
1
41
1
10
-48
20
-25.5410841061086
30
0
41
1
10
-47.249999999406
20
-25.9740939119354
30
0
41
1
10
-46.5
20
-26.4071037337151
30
0
0
SPLINE
5
13F
100
AcDbEntity
8
SK1
62
256
6
ByLayer
370
18
48
1
60
0
100
AcDbSpline
70
4
71
2
72
6
73
3
40
0
40
0
40
0
40
1
40
1
40
1
41
1
10
-0.394976888875306
20
-27.3653849865937
30
0
41
1
10
-0.24672366735345
20
-27.3878893822225
30
0
41
1
10
-0.223871815740011
20
-27.367719629979
30
0
0
SPLINE
5
140
100
AcDbEntity
8
SK1
62
256
6
ByLayer
370
18
48
1
60
0
100
AcDbSpline
70
4
71
2
72
6
73
3
40
0
40
0
40
0
40
1
40
1
40
1
41
1
10
-0.224159717647836
20
27.3676216035264
30
0
41
1
10
-0.246472925183497
20
27.387974509361
30
0
41
1
10
-0.394976888875277
20
27.3653849898141
30
0
0
SPLINE
5
141
100
AcDbEntity
8
SK1
62
256
6
ByLayer
370
18
48
1
60
0
100
AcDbSpline
70
4
71
3
72
301
73
297
40
0
40
0
40
0
40
0
40
0.0031658622578678
40
0.0066403058634791
40
0.0101147494690904
40
0.0135891930747018
40
0.0170636366803131
40
0.0205380802859245
40
0.0240125238915358
40
0.0274869674971472
40
0.0344358547083699
40
0.0413847419195926
40
0.0448591855252039
40
0.0483336291308152
40
0.0518080727364266
40
0.0552825163420379
40
0.0587569599476493
40
0.0622314035532606
40
0.065705847158872
40
0.0691802907644833
40
0.076129177975706
40
0.0796036215813174
40
0.0830780651869287
40
0.08655250879254
40
0.0900269523981514
40
0.0935013960037628
40
0.0969758396093741
40
0.100450283214985
40
0.103924726820597
40
0.107399170426208
40
0.11087361403182
40
0.114348057637431
40
0.116085279440237
40
0.117822501243042
40
0.121296944848653
40
0.124771388454265
40
0.131720275665488
40
0.13866916287671
40
0.142143606482322
40
0.145618050087933
40
0.152566937299156
40
0.159515824510378
40
0.166464711721601
40
0.169939155327212
40
0.173413598932824
40
0.180362486144046
40
0.187311373355269
40
0.194260260566492
40
0.201209147777715
40
0.208158034988937
40
0.21510692220016
40
0.218581365805771
40
0.222055809411383
40
0.229004696622605
40
0.235953583833828
40
0.242902471045051
40
0.246376914650662
40
0.249851358256273
40
0.256800245467496
40
0.263749132678719
40
0.26722357628433
40
0.270698019889941
40
0.277646907101164
40
0.284595794312387
40
0.288070237917998
40
0.29154468152361
40
0.298493568734832
40
0.301968012340444
40
0.305442455946055
40
0.307179677748861
40
0.308916899551666
40
0.312391343157278
40
0.315865786762889
40
0.3193402303685
40
0.322814673974112
40
0.326289117579723
40
0.329763561185334
40
0.333238004790946
40
0.336712448396557
40
0.340186892002168
40
0.347135779213391
40
0.350610222819002
40
0.354084666424614
40
0.357559110030225
40
0.361033553635836
40
0.364507997241448
40
0.367982440847059
40
0.374931328058282
40
0.381880215269504
40
0.385354658875116
40
0.388829102480727
40
0.392303546086338
40
0.39577798969195
40
0.399252433297561
40
0.402726876903172
40
0.406201320508784
40
0.409675764114395
40
0.413150207720006
40
0.416624651325618
40
0.420099094931229
40
0.42357353853684
40
0.427047982142452
40
0.430522425748063
40
0.433996869353675
40
0.437471312959286
40
0.439208534762092
40
0.440945756564897
40
0.444420200170509
40
0.44789464377612
40
0.449631865578926
40
0.451369087381731
40
0.454843530987343
40
0.456580752790148
40
0.458317974592954
40
0.459186585494357
40
0.46005519639576
40
0.461792418198565
40
0.463529640001371
40
0.465266861804177
40
0.467004083606982
40
0.468741305409788
40
0.470478527212594
40
0.471347138113997
40
0.472215749015399
40
0.473084359916802
40
0.473952970818205
40
0.474821581719608
40
0.475690192621011
40
0.477427414423816
40
0.478296025325219
40
0.479164636226622
40
0.480901858029428
40
0.481770468930831
40
0.482639079832233
40
0.484376301635039
40
0.485244912536442
40
0.486113523437845
40
0.48785074524065
40
0.489587967043456
40
0.491325188846262
40
0.492193799747665
40
0.493062410649067
40
0.49393102155047
40
0.494799632451873
40
0.495668243353276
40
0.496536854254679
40
0.497405465156082
40
0.498274076057485
40
0.499142686958887
40
0.50001129786029
40
0.500879908761693
40
0.501748519663096
40
0.502617130564499
40
0.503485741465902
40
0.504354352367304
40
0.505222963268707
40
0.50609157417011
40
0.506960185071513
40
0.507828795972916
40
0.508697406874319
40
0.510434628677124
40
0.51217185047993
40
0.513909072282736
40
0.514777683184138
40
0.515646294085541
40
0.517383515888347
40
0.51825212678975
40
0.519120737691153
40
0.520857959493958
40
0.521726570395361
40
0.522595181296764
40
0.52433240309957
40
0.525201014000973
40
0.526069624902375
40
0.526938235803778
40
0.527806846705181
40
0.528675457606584
40
0.529544068507987
40
0.531281290310792
40
0.533018512113598
40
0.534755733916404
40
0.536492955719209
40
0.538230177522015
40
0.539967399324821
40
0.540836010226224
40
0.541704621127626
40
0.543441842930432
40
0.545179064733238
40
0.548653508338849
40
0.550390730141655
40
0.55212795194446
40
0.555602395550072
40
0.559076839155683
40
0.560814060958489
40
0.562551282761294
40
0.566025726366906
40
0.569500169972517
40
0.572974613578129
40
0.57644905718374
40
0.579923500789351
40
0.583397944394963
40
0.586872388000574
40
0.590346831606185
40
0.593821275211797
40
0.597295718817408
40
0.600770162423019
40
0.604244606028631
40
0.607719049634242
40
0.611193493239853
40
0.614667936845465
40
0.618142380451076
40
0.621616824056687
40
0.625091267662299
40
0.632040154873521
40
0.635514598479133
40
0.638989042084744
40
0.642463485690355
40
0.645937929295967
40
0.649412372901578
40
0.652886816507189
40
0.659835703718412
40
0.663310147324023
40
0.666784590929635
40
0.670259034535246
40
0.673733478140857
40
0.677207921746469
40
0.68068236535208
40
0.684156808957692
40
0.687631252563303
40
0.691105696168914
40
0.694580139774526
40
0.698054583380137
40
0.701529026985748
40
0.708477914196971
40
0.711952357802582
40
0.715426801408194
40
0.722375688619416
40
0.729324575830639
40
0.73279901943625
40
0.736273463041862
40
0.743222350253084
40
0.750171237464307
40
0.753645681069918
40
0.75712012467553
40
0.764069011886753
40
0.771017899097975
40
0.777966786309198
40
0.781441229914809
40
0.784915673520421
40
0.791864560731643
40
0.798813447942866
40
0.805762335154089
40
0.812711222365311
40
0.819660109576534
40
0.826608996787757
40
0.830083440393368
40
0.833557883998979
40
0.840506771210202
40
0.847455658421425
40
0.854404545632648
40
0.857878989238259
40
0.86135343284387
40
0.868302320055093
40
0.875251207266316
40
0.878725650871927
40
0.882200094477538
40
0.889148981688761
40
0.892623425294372
40
0.896097868899984
40
0.899572312505595
40
0.903046756111206
40
0.906521199716818
40
0.909995643322429
40
0.91347008692804
40
0.916944530533652
40
0.920418974139263
40
0.923893417744874
40
0.930842304956097
40
0.934316748561708
40
0.93779119216732
40
0.941265635772931
40
0.944740079378542
40
0.948214522984154
40
0.951688966589765
40
0.955163410195377
40
0.958637853800988
40
0.965586741012211
40
0.972535628223433
40
0.976010071829045
40
0.979484515434656
40
0.982958959040267
40
0.986433402645879
40
0.98990784625149
40
0.993382289857101
40
0.996856733462713
40
1
40
1
40
1
40
1
41
1
10
-1.99503997793931
20
-27.325162269552
30
0
41
1
10
-1.99503997793931
20
-27.3252968403437
30
0
41
1
10
-1.99503997793928
20
-27.3243820098929
30
0
41
1
10
-1.99503997793928
20
-27.319236545434
30
0
41
1
10
-1.99503997793928
20
-27.309968420024
30
0
41
1
10
-1.99503997793928
20
-27.2968118977756
30
0
41
1
10
-1.99503997793928
20
-27.2798390211927
30
0
41
1
10
-1.99503997793928
20
-27.2591194067692
30
0
41
1
10
-1.99503997793928
20
-27.2347184649703
30
0
41
1
10
-1.99503997793928
20
-27.1973453109891
30
0
41
1
10
-1.99503997793928
20
-27.1417627231677
30
0
41
1
10
-1.99503997793928
20
-27.074692746873
30
0
41
1
10
-1.99503997793928
20
-27.0143097024856
30
0
41
1
10
-1.99503997793928
20
-26.9657375531884
30
0
41
1
10
-1.99503997793928
20
-26.9139107109326
30
0
41
1
10
-1.99503997793928
20
-26.8588742679962
30
0
41
1
10
-1.99503997793928
20
-26.8006684557748
30
0
41
1
10
-1.99503997793928
20
-26.7393343904956
30
0
41
1
10
-1.99503997793928
20
-26.674910802648
30
0
41
1
10
-1.99503997793928
20
-26.5849135587966
30
0
41
1
10
-1.99503997793928
20
-26.4889678074055
30
0
41
1
10
-1.99503997793928
20
-26.387035697685
30
0
41
1
10
-1.99503997793928
20
-26.3076915686753
30
0
41
1
10
-1.99503997793928
20
-26.2254595087626
30
0
41
1
10
-1.99503997793928
20
-26.1403699848692
30
0
41
1
10
-1.99503997793928
20
-26.0524523997801
30
0
41
1
10
-1.99503997793928
20
-25.9617325512637
30
0
41
1
10
-1.99503997793928
20
-25.8682385377286
30
0
41
1
10
-1.99503997793928
20
-25.7719964787433
30
0
41
1
10
-1.99503997793928
20
-25.6730295553062
30
0
41
1
10
-1.99503997793928
20
-25.5713637005868
30
0
41
1
10
-1.99503997793928
20
-25.4844312429181
30
0
41
1
10
-1.99503997793928
20
-25.4135236324805
30
0
41
1
10
-1.99503997793928
20
-25.3417349423789
30
0
41
1
10
-1.99503997793928
20
-25.2503983881991
30
0
41
1
10
-1.99503997793928
20
-25.1007072283818
30
0
41
1
10
-1.99503997793928
20
-24.9072094601534
30
0
41
1
10
-1.99503997793928
20
-24.7052121586235
30
0
41
1
10
-1.99503997793928
20
-24.5385089750245
30
0
41
1
10
-1.99503997793928
20
-24.3684762393368
30
0
41
1
10
-1.99503997793928
20
-24.1498376426061
30
0
41
1
10
-1.99503997793928
20
-23.8776317120835
30
0
41
1
10
-1.99503997793928
20
-23.6427893362144
30
0
41
1
10
-1.99503997793928
20
-23.4500539403358
30
0
41
1
10
-1.99503997793928
20
-23.2541535983722
30
0
41
1
10
-1.99503997793928
20
-23.003492407652
30
0
41
1
10
-1.99503997793928
20
-22.6933032792698
30
0
41
1
10
-1.99503997793928
20
-22.3738761836524
30
0
41
1
10
-1.99503997793928
20
-22.0453025532577
30
0
41
1
10
-1.99503997793928
20
-21.7076686135251
30
0
41
1
10
-1.99503997793928
20
-21.4188827024374
30
0
41
1
10
-1.99503997793928
20
-21.1832962289191
30
0
41
1
10
-1.99503997793928
20
-20.9447536956121
30
0
41
1
10
-1.99503997793928
20
-20.6411931750868
30
0
41
1
10
-1.99503997793928
20
-20.2680830253803
30
0
41
1
10
-1.99503997793928
20
-19.9499723423375
30
0
41
1
10
-1.99503997793928
20
-19.6910450135594
30
0
41
1
10
-1.99503997793928
20
-19.4292463867236
30
0
41
1
10
-1.99503997793928
20
-19.096784863067
30
0
41
1
10
-1.99503997793928
20
-18.7572123739995
30
0
41
1
10
-1.99503997793928
20
-18.4811831112867
30
0
41
1
10
-1.99503997793928
20
-18.2023325950151
30
0
41
1
10
-1.99503997793928
20
-17.8486596758477
30
0
41
1
10
-1.99503997793928
20
-17.487986707193
30
0
41
1
10
-1.99503997793928
20
-17.195127364891
30
0
41
1
10
-1.99503997793928
20
-16.8994864797488
30
0
41
1
10
-1.99503997793928
20
-16.5999232615433
30
0
41
1
10
-1.99503997793928
20
-16.2959649333064
30
0
41
1
10
-1.99503997793928
20
-16.1043598435705
30
0
41
1
10
-1.99503997793928
20
-15.9499656619051
30
0
41
1
10
-1.99503997793928
20
-15.7948829493702
30
0
41
1
10
-1.99503997793928
20
-15.5998373978987
30
0
41
1
10
-1.99503997793928
20
-15.3636702284228
30
0
41
1
10
-1.99503997793928
20
-15.1254444180464
30
0
41
1
10
-1.99503997793928
20
-14.8851632986275
30
0
41
1
10
-1.99503997793928
20
-14.6428305081908
30
0
41
1
10
-1.99503997793928
20
-14.3984468555777
30
0
41
1
10
-1.99503997793928
20
-14.1520156158998
30
0
41
1
10
-1.99503997793928
20
-13.9035389822172
30
0
41
1
10
-1.99503997793928
20
-13.5694123671834
30
0
41
1
10
-1.99503997793928
20
-13.2315065950277
30
0
41
1
10
-1.99503997793928
20
-12.8892093803249
30
0
41
1
10
-1.99503997793928
20
-12.6305299496176
30
0
41
1
10
-1.99503997793928
20
-12.3698135917844
30
0
41
1
10
-1.99503997793928
20
-12.1070624362612
30
0
41
1
10
-1.99503997793928
20
-11.8422771919955
30
0
41
1
10
-1.99503997793928
20
-11.4864047694406
30
0
41
1
10
-1.99503997793928
20
-11.036753378672
30
0
41
1
10
-1.99503997793928
20
-10.5803285804451
30
0
41
1
10
-1.99503997793928
20
-10.2109002581502
30
0
41
1
10
-1.99503997793928
20
-9.93190145357084
30
0
41
1
10
-1.99503997793928
20
-9.6508756669198
30
0
41
1
10
-1.99503997793928
20
-9.36782441803413
30
0
41
1
10
-1.99503997793928
20
-9.08274869992735
30
0
41
1
10
-1.99503997793928
20
-8.79565052315382
30
0
41
1
10
-1.99503997793928
20
-8.5065316633322
30
0
41
1
10
-1.99503997793928
20
-8.21539474907743
30
0
41
1
10
-1.99503997793928
20
-7.92224261249635
30
0
41
1
10
-1.99503997793928
20
-7.62707900817011
30
0
41
1
10
-1.99503997793928
20
-7.32990842680402
30
0
41
1
10
-1.99503997793928
20
-7.03073644813685
30
0
41
1
10
-1.99503997793928
20
-6.72956956969855
30
0
41
1
10
-1.99503997793928
20
-6.42641643294533
30
0
41
1
10
-1.99503997793928
20
-6.12128657453567
30
0
41
1
10
-1.99503997793928
20
-5.86547227949208
30
0
41
1
10
-1.99503997793928
20
-5.65966031743471
30
0
41
1
10
-1.99503997793928
20
-5.45320484016275
30
0
41
1
10
-1.99503997793928
20
-5.194175192833
30
0
41
1
10
-1.99503997793928
20
-4.93354787471691
30
0
41
1
10
-1.99503997793928
20
-4.72389491984228
30
0
41
1
10
-1.99503997793928
20
-4.51362416489164
30
0
41
1
10
-1.99503997793928
20
-4.30279738744869
30
0
41
1
10
-1.99503997793928
20
-4.0906802174616
30
0
41
1
10
-1.99503997793928
20
-3.95788266698418
30
0
41
1
10
-1.99503997793928
20
-3.85130376069884
30
0
41
1
10
-1.99503997793928
20
-3.74458052899692
30
0
41
1
10
-1.99503997793928
20
-3.61106187073102
30
0
41
1
10
-1.99503997793928
20
-3.45032621656429
30
0
41
1
10
-1.99503997793928
20
-3.28917313145487
30
0
41
1
10
-1.99503997793928
20
-3.12761068170508
30
0
41
1
10
-1.99503997793928
20
-2.96564923158397
30
0
41
1
10
-1.99503997793928
20
-2.83043414688217
30
0
41
1
10
-1.99503997793928
20
-2.72193089625395
30
0
41
1
10
-1.99503997793928
20
-2.64052221841842
30
0
41
1
10
-1.99503997793928
20
-2.55902310675029
30
0
41
1
10
-1.99503997793928
20
-2.47743504267538
30
0
41
1
10
-1.99503997793928
20
-2.39575871579828
30
0
41
1
10
-1.99503997793928
20
-2.28665934688649
30
0
41
1
10
-1.99503997793928
20
-2.17765162048644
30
0
41
1
10
-1.99503997793928
20
-2.06822032488085
30
0
41
1
10
-1.99503997793928
20
-1.95868778076368
30
0
41
1
10
-1.99503997793928
20
-1.84927662995438
30
0
41
1
10
-1.99503997793928
20
-1.73944751085296
30
0
41
1
10
-1.99503997793928
20
-1.6295301381889
30
0
41
1
10
-1.99503997793928
20
-1.51976603752374
30
0
41
1
10
-1.99503997793928
20
-1.40959257647998
30
0
41
1
10
-1.99503997793928
20
-1.29934603509318
30
0
41
1
10
-1.99503997793928
20
-1.16162401558285
30
0
41
1
10
-1.99503997793928
20
-0.996043867302802
30
0
41
1
10
-1.99503997793928
20
-0.858021466226489
30
0
41
1
10
-1.99503997793928
20
-0.74734826211116
30
0
41
1
10
-1.99503997793928
20
-0.664391463462891
30
0
41
1
10
-1.99503997793928
20
-0.581404948836564
30
0
41
1
10
-1.99503997793928
20
-0.498392847694362
30
0
41
1
10
-1.99503997793928
20
-0.415360879438595
30
0
41
1
10
-1.99503997793928
20
-0.332310821896414
30
0
41
1
10
-1.99503997793928
20
-0.249244909992626
30
0
41
1
10
-1.99503997793928
20
-0.166169126760138
30
0
41
1
10
-1.99503997793928
20
-0.083087258687442
30
0
41
1
10
-1.99503997793928
20
-7.3694082E-09
30
0
41
1
10
-1.99503997793928
20
0.0830872457044336
30
0
41
1
10
-1.99503997793928
20
0.166169118100839
30
0
41
1
10
-1.99503997793928
20
0.249244906780348
30
0
41
1
10
-1.99503997793928
20
0.332310822055121
30
0
41
1
10
-1.99503997793928
20
0.415360877837117
30
0
41
1
10
-1.99503997793928
20
0.498392839537729
30
0
41
1
10
-1.99503997793928
20
0.581404932400318
30
0
41
1
10
-1.99503997793928
20
0.664391443726458
30
0
41
1
10
-1.99503997793928
20
0.747348246925924
30
0
41
1
10
-1.99503997793928
20
0.858021465650296
30
0
41
1
10
-1.99503997793928
20
0.99604387184678
30
0
41
1
10
-1.99503997793928
20
1.16162399896865
30
0
41
1
10
-1.99503997793928
20
1.29934600948991
30
0
41
1
10
-1.99503997793928
20
1.40959256793394
30
0
41
1
10
-1.99503997793928
20
1.51976604695517
30
0
41
1
10
-1.99503997793928
20
1.62953014673869
30
0
41
1
10
-1.99503997793928
20
1.73944749852939
30
0
41
1
10
-1.99503997793928
20
1.84927659960155
30
0
41
1
10
-1.99503997793928
20
1.95868775414536
30
0
41
1
10
-1.99503997793928
20
2.06822032104492
30
0
41
1
10
-1.99503997793928
20
2.17765163493269
30
0
41
1
10
-1.99503997793928
20
2.28665935771656
30
0
41
1
10
-1.99503997793928
20
2.39575870345573
30
0
41
1
10
-1.99503997793928
20
2.47743501265126
30
0
41
1
10
-1.99503997793928
20
2.55902307088405
30
0
41
1
10
-1.99503997793928
20
2.64052218961078
30
0
41
1
10
-1.99503997793928
20
2.72193088426971
30
0
41
1
10
-1.99503997793928
20
2.83043415716216
30
0
41
1
10
-1.99503997793928
20
2.96564924759372
30
0
41
1
10
-1.99503997793928
20
3.12761066714143
30
0
41
1
10
-1.99503997793928
20
3.28917309238062
30
0
41
1
10
-1.99503997793928
20
3.45032619783549
30
0
41
1
10
-1.99503997793928
20
3.61106188513384
30
0
41
1
10
-1.99503997793928
20
3.74458054435991
30
0
41
1
10
-1.99503997793928
20
3.85130375742838
30
0
41
1
10
-1.99503997793928
20
3.95788264175957
30
0
41
1
10
-1.99503997793928
20
4.09068017699948
30
0
41
1
10
-1.99503997793928
20
4.30279737234505
30
0
41
1
10
-1.99503997793928
20
4.51362418453465
30
0
41
1
10
-1.99503997793928
20
4.72389491460817
30
0
41
1
10
-1.99503997793928
20
4.93354783719795
30
0
41
1
10
-1.99503997793928
20
5.19417516976088
30
0
41
1
10
-1.99503997793928
20
5.45320486068488
30
0
41
1
10
-1.99503997793928
20
5.65966031194296
30
0
41
1
10
-1.99503997793928
20
5.86547224264382
30
0
41
1
10
-1.99503997793928
20
6.12128654405475
30
0
41
1
10
-1.99503997793928
20
6.42641644899931
30
0
41
1
10
-1.99503997793928
20
6.72956956222453
30
0
41
1
10
-1.99503997793928
20
7.03073643509245
30
0
41
1
10
-1.99503997793928
20
7.32990848936902
30
0
41
1
10
-1.99503997793928
20
7.62707899667751
30
0
41
1
10
-1.99503997793928
20
7.92224242464158
30
0
41
1
10
-1.99503997793928
20
8.21539468387994
30
0
41
1
10
-1.99503997793928
20
8.50653184364373
30
0
41
1
10
-1.99503997793928
20
8.79565051892371
30
0
41
1
10
-1.99503997793928
20
9.08274836934052
30
0
41
1
10
-1.99503997793928
20
9.36782442184719
30
0
41
1
10
-1.99503997793928
20
9.65087577167401
30
0
41
1
10
-1.99503997793928
20
9.93190148567106
30
0
41
1
10
-1.99503997793928
20
10.2109002476074
30
0
41
1
10
-1.99503997793928
20
10.4878712580384
30
0
41
1
10
-1.99503997793928
20
10.7628135122141
30
0
41
1
10
-1.99503997793928
20
11.1268240668469
30
0
41
1
10
-1.99503997793928
20
11.4864047926357
30
0
41
1
10
-1.99503997793928
20
11.8422771763273
30
0
41
1
10
-1.99503997793928
20
12.1070624597528
30
0
41
1
10
-1.99503997793928
20
12.3698136542137
30
0
41
1
10
-1.99503997793928
20
12.630529996325
30
0
41
1
10
-1.99503997793928
20
12.8892094092454
30
0
41
1
10
-1.99503997793928
20
13.2315065874855
30
0
41
1
10
-1.99503997793928
20
13.5694124056225
30
0
41
1
10
-1.99503997793928
20
13.903538977374
30
0
41
1
10
-1.99503997793928
20
14.1520156345789
30
0
41
1
10
-1.99503997793928
20
14.3984468746313
30
0
41
1
10
-1.99503997793928
20
14.6428305016925
30
0
41
1
10
-1.99503997793928
20
14.8851633083157
30
0
41
1
10
-1.99503997793928
20
15.1254443246959
30
0
41
1
10
-1.99503997793928
20
15.3636701740732
30
0
41
1
10
-1.99503997793928
20
15.5998376412757
30
0
41
1
10
-1.99503997793928
20
15.8339451945693
30
0
41
1
10
-1.99503997793928
20
16.0659886092783
30
0
41
1
10
-1.99503997793928
20
16.2959645253135
30
0
41
1
10
-1.99503997793928
20
16.5999232967459
30
0
41
1
10
-1.99503997793928
20
16.8994865286445
30
0
41
1
10
-1.99503997793928
20
17.1951273582893
30
0
41
1
10
-1.99503997793928
20
17.487986711463
30
0
41
1
10
-1.99503997793928
20
17.8486596771386
30
0
41
1
10
-1.99503997793928
20
18.2023325900281
30
0
41
1
10
-1.99503997793928
20
18.4811831142103
30
0
41
1
10
-1.99503997793928
20
18.7572123771119
30
0
41
1
10
-1.99503997793928
20
19.0967848636163
30
0
41
1
10
-1.99503997793928
20
19.4292463860981
30
0
41
1
10
-1.99503997793928
20
19.6910450149659
30
0
41
1
10
-1.99503997793928
20
19.9499723474756
30
0
41
1
10
-1.99503997793928
20
20.2680830241603
30
0
41
1
10
-1.99503997793928
20
20.6411931765509
30
0
41
1
10
-1.99503997793928
20
20.9447536987916
30
0
41
1
10
-1.99503997793928
20
21.183296231241
30
0
41
1
10
-1.99503997793928
20
21.4188827033322
30
0
41
1
10
-1.99503997793928
20
21.7076686178739
30
0
41
1
10
-1.99503997793928
20
22.0453025545601
30
0
41
1
10
-1.99503997793928
20
22.3738761877812
30
0
41
1
10
-1.99503997793928
20
22.6933032821098
30
0
41
1
10
-1.99503997793928
20
23.0034924093454
30
0
41
1
10
-1.99503997793928
20
23.2541536051906
30
0
41
1
10
-1.99503997793928
20
23.4500539432773
30
0
41
1
10
-1.99503997793928
20
23.6427893382923
30
0
41
1
10
-1.99503997793928
20
23.8776317176071
30
0
41
1
10
-1.99503997793928
20
24.1498376513416
30
0
41
1
10
-1.99503997793928
20
24.3684762369579
30
0
41
1
10
-1.99503997793928
20
24.5385089830443
30
0
41
1
10
-1.99503997793928
20
24.7052121640854
30
0
41
1
10
-1.99503997793928
20
24.9072094682151
30
0
41
1
10
-1.99503997793928
20
25.1007072668634
30
0
41
1
10
-1.99503997793928
20
25.2503982620474
30
0
41
1
10
-1.99503997793928
20
25.396607276112
30
0
41
1
10
-1.99503997793928
20
25.5374379046987
30
0
41
1
10
-1.99503997793928
20
25.6730299792935
30
0
41
1
10
-1.99503997793928
20
25.7719963599905
30
0
41
1
10
-1.99503997793928
20
25.8682384460151
30
0
41
1
10
-1.99503997793928
20
25.961732550658
30
0
41
1
10
-1.99503997793928
20
26.0524524072106
30
0
41
1
10
-1.99503997793928
20
26.1403699560892
30
0
41
1
10
-1.99503997793928
20
26.2254595012835
30
0
41
1
10
-1.99503997793928
20
26.307691573879
30
0
41
1
10
-1.99503997793928
20
26.3870356638969
30
0
41
1
10
-1.99503997793928
20
26.4889678259812
30
0
41
1
10
-1.99503997793928
20
26.5849135103433
30
0
41
1
10
-1.99503997793928
20
26.6749108160321
30
0
41
1
10
-1.99503997793928
20
26.7393343627507
30
0
41
1
10
-1.99503997793928
20
26.8006684388868
30
0
41
1
10
-1.99503997793928
20
26.8588742790416
30
0
41
1
10
-1.99503997793928
20
26.9139106605823
30
0
41
1
10
-1.99503997793928
20
26.965737488626
30
0
41
1
10
-1.99503997793928
20
27.0143096332649
30
0
41
1
10
-1.99503997793928
20
27.0746927526657
30
0
41
1
10
-1.99503997793928
20
27.1417627098538
30
0
41
1
10
-1.99503997793928
20
27.197345231477
30
0
41
1
10
-1.99503997793928
20
27.2347185022954
30
0
41
1
10
-1.99503997793928
20
27.2591194581005
30
0
41
1
10
-1.99503997793928
20
27.2798390261951
30
0
41
1
10
-1.99503997793928
20
27.2968118938473
30
0
41
1
10
-1.99503997793928
20
27.3099684620727
30
0
41
1
10
-1.99503997793928
20
27.319236569139
30
0
41
1
10
-1.99503997793928
20
27.3243704583162
30
0
41
1
10
-1.99503997793926
20
27.3252905692335
30
0
41
1
10
-1.99503997793931
20
27.3251650763652
30
0
0
SPLINE
5
142
100
AcDbEntity
8
SK1
62
256
6
ByLayer
370
18
48
1
60
0
100
AcDbSpline
70
4
71
3
72
297
73
293
40
0
40
0
40
0
40
0
40
0.0006515323055473
40
0.0041931109163385
40
0.0077346895271296
40
0.0112762681379207
40
0.0148178467487118
40
0.018359425359503
40
0.0254425825810852
40
0.0325257398026675
40
0.0360673184134586
40
0.0396088970242497
40
0.0431504756350408
40
0.046692054245832
40
0.0502336328566231
40
0.0537752114674142
40
0.0573167900782053
40
0.0608583686889965
40
0.0679415259105787
40
0.0714831045213698
40
0.075024683132161
40
0.0785662617429521
40
0.0821078403537432
40
0.0856494189645343
40
0.0891909975753255
40
0.0927325761861166
40
0.0962741547969077
40
0.0998157334076989
40
0.10335731201849
40
0.106898890629281
40
0.108669679934677
40
0.110440469240072
40
0.113982047850863
40
0.117523626461654
40
0.124606783683237
40
0.131689940904819
40
0.13523151951561
40
0.138773098126401
40
0.145856255347983
40
0.152939412569566
40
0.160022569791148
40
0.163564148401939
40
0.16710572701273
40
0.174188884234312
40
0.181272041455895
40
0.188355198677477
40
0.195438355899059
40
0.202521513120642
40
0.209604670342224
40
0.213146248953015
40
0.216687827563806
40
0.223770984785388
40
0.23085414200697
40
0.237937299228553
40
0.241478877839344
40
0.245020456450135
40
0.252103613671717
40
0.259186770893299
40
0.262728349504091
40
0.266269928114882
40
0.273353085336464
40
0.280436242558046
40
0.283977821168837
40
0.287519399779628
40
0.294602557001211
40
0.298144135612002
40
0.301685714222793
40
0.303456503528188
40
0.305227292833584
40
0.308768871444375
40
0.312310450055166
40
0.315852028665958
40
0.319393607276749
40
0.32293518588754
40
0.326476764498331
40
0.330018343109122
40
0.333559921719913
40
0.337101500330704
40
0.344184657552286
40
0.347726236163078
40
0.351267814773869
40
0.35480939338466
40
0.358350971995451
40
0.361892550606242
40
0.365434129217033
40
0.372517286438615
40
0.379600443660198
40
0.383142022270989
40
0.38668360088178
40
0.390225179492571
40
0.393766758103362
40
0.397308336714153
40
0.400849915324945
40
0.404391493935736
40
0.407933072546527
40
0.411474651157318
40
0.415016229768109
40
0.4185578083789
40
0.422099386989691
40
0.425640965600482
40
0.429182544211273
40
0.432724122822065
40
0.436265701432856
40
0.438036490738251
40
0.439807280043647
40
0.443348858654438
40
0.446890437265229
40
0.448661226570625
40
0.45043201587602
40
0.453973594486811
40
0.455744383792207
40
0.457515173097602
40
0.4584005677503
40
0.459285962402998
40
0.461056751708394
40
0.462827541013789
40
0.464598330319185
40
0.46636911962458
40
0.468139908929976
40
0.469910698235371
40
0.470796092888069
40
0.471681487540767
40
0.472566882193465
40
0.473452276846162
40
0.47433767149886
40
0.475223066151558
40
0.476993855456954
40
0.477879250109651
40
0.478764644762349
40
0.480535434067745
40
0.481420828720443
40
0.48230622337314
40
0.484077012678536
40
0.484962407331234
40
0.485847801983932
40
0.487618591289327
40
0.489389380594722
40
0.491160169900118
40
0.492045564552816
40
0.492930959205514
40
0.493816353858211
40
0.494701748510909
40
0.495587143163607
40
0.496472537816305
40
0.497357932469003
40
0.4982433271217
40
0.499128721774398
40
0.500014116427096
40
0.500899511079794
40
0.501784905732492
40
0.502670300385189
40
0.503555695037887
40
0.504441089690585
40
0.505326484343283
40
0.50621187899598
40
0.507097273648678
40
0.507982668301376
40
0.508868062954074
40
0.510638852259469
40
0.512409641564865
40
0.51418043087026
40
0.515065825522958
40
0.515951220175656
40
0.517722009481052
40
0.518607404133749
40
0.519492798786447
40
0.521263588091843
40
0.52214898274454
40
0.523034377397238
40
0.524805166702634
40
0.525690561355332
40
0.526575956008029
40
0.527461350660727
40
0.528346745313425
40
0.529232139966123
40
0.530117534618821
40
0.531888323924216
40
0.533659113229612
40
0.535429902535007
40
0.537200691840403
40
0.538971481145798
40
0.540742270451194
40
0.541627665103892
40
0.542513059756589
40
0.544283849061985
40
0.546054638367381
40
0.549596216978172
40
0.551367006283567
40
0.553137795588963
40
0.556679374199754
40
0.560220952810545
40
0.561991742115941
40
0.563762531421336
40
0.567304110032127
40
0.570845688642918
40
0.57438726725371
40
0.577928845864501
40
0.581470424475292
40
0.585012003086083
40
0.588553581696874
40
0.592095160307665
40
0.595636738918456
40
0.599178317529247
40
0.602719896140039
40
0.60626147475083
40
0.609803053361621
40
0.613344631972412
40
0.616886210583203
40
0.620427789193994
40
0.623969367804785
40
0.627510946415576
40
0.634594103637159
40
0.63813568224795
40
0.641677260858741
40
0.645218839469532
40
0.648760418080323
40
0.652301996691114
40
0.655843575301905
40
0.662926732523488
40
0.666468311134279
40
0.67000988974507
40
0.673551468355861
40
0.677093046966652
40
0.680634625577443
40
0.684176204188234
40
0.687717782799026
40
0.691259361409817
40
0.694800940020608
40
0.698342518631399
40
0.70188409724219
40
0.705425675852981
40
0.712508833074563
40
0.716050411685355
40
0.719591990296146
40
0.726675147517728
40
0.73375830473931
40
0.737299883350101
40
0.740841461960892
40
0.747924619182475
40
0.755007776404057
40
0.758549355014848
40
0.762090933625639
40
0.769174090847221
40
0.776257248068804
40
0.783340405290386
40
0.786881983901177
40
0.790423562511968
40
0.79750671973355
40
0.804589876955133
40
0.811673034176715
40
0.818756191398297
40
0.825839348619879
40
0.832922505841462
40
0.836464084452253
40
0.840005663063044
40
0.847088820284626
40
0.854171977506208
40
0.861255134727791
40
0.864796713338582
40
0.868338291949373
40
0.875421449170955
40
0.882504606392537
40
0.886046185003329
40
0.88958776361412
40
0.896670920835702
40
0.900212499446493
40
0.903754078057284
40
0.907295656668075
40
0.910837235278866
40
0.914378813889657
40
0.917920392500449
40
0.92146197111124
40
0.925003549722031
40
0.928545128332822
40
0.932086706943613
40
0.939169864165195
40
0.942711442775987
40
0.946253021386778
40
0.949794599997569
40
0.95333617860836
40
0.956877757219151
40
0.960419335829942
40
0.963960914440733
40
0.967502493051524
40
0.974585650273107
40
0.981668807494689
40
0.98521038610548
40
0.988751964716271
40
0.992293543327062
40
0.995835121937853
40
0.999376700548644
40
1
40
1
40
1
40
1
41
1
10
-2.19999999999999
20
-27.5061346630687
30
0
41
1
10
-2.19999999999999
20
-27.5054866995416
30
0
41
1
10
-2.19999999999996
20
-27.5011739760242
30
0
41
1
10
-2.19999999999999
20
-27.4915322439685
30
0
41
1
10
-2.19999999999999
20
-27.4744481367885
30
0
41
1
10
-2.19999999999999
20
-27.4535951162672
30
0
41
1
10
-2.19999999999999
20
-27.4290396962773
30
0
41
1
10
-2.19999999999999
20
-27.3914487450129
30
0
41
1
10
-2.19999999999999
20
-27.335511616751
30
0
41
1
10
-2.19999999999999
20
-27.2680242938405
30
0
41
1
10
-2.19999999999999
20
-27.2073129452677
30
0
41
1
10
-2.19999999999999
20
-27.1584629254513
30
0
41
1
10
-2.19999999999999
20
-27.1063432629947
30
0
41
1
10
-2.19999999999999
20
-27.0509995322117
30
0
41
1
10
-2.19999999999999
20
-26.9924724007358
30
0
41
1
10
-2.19999999999999
20
-26.9308035073645
30
0
41
1
10
-2.19999999999999
20
-26.8660318549495
30
0
41
1
10
-2.19999999999999
20
-26.7755840284526
30
0
41
1
10
-2.19999999999999
20
-26.6790690105836
30
0
41
1
10
-2.19999999999999
20
-26.5766398127168
30
0
41
1
10
-2.19999999999999
20
-26.4968867532828
30
0
41
1
10
-2.19999999999999
20
-26.414234345797
30
0
41
1
10
-2.19999999999999
20
-26.3287134555965
30
0
41
1
10
-2.19999999999999
20
-26.2403534869032
30
0
41
1
10
-2.19999999999999
20
-26.1491804877762
30
0
41
1
10
-2.19999999999999
20
-26.0552228914818
30
0
41
1
10
-2.19999999999999
20
-25.9585067097828
30
0
41
1
10
-2.19999999999999
20
-25.8590554134204
30
0
41
1
10
-2.19999999999999
20
-25.7568951729796
30
0
41
1
10
-2.19999999999999
20
-25.6695210442987
30
0
41
1
10
-2.19999999999999
20
-25.5982933540586
30
0
41
1
10
-2.19999999999999
20
-25.5261818034759
30
0
41
1
10
-2.19999999999999
20
-25.4343867299332
30
0
41
1
10
-2.19999999999999
20
-25.284028449355
30
0
41
1
10
-2.19999999999999
20
-25.0895715317904
30
0
41
1
10
-2.19999999999999
20
-24.8865804660961
30
0
41
1
10
-2.19999999999999
20
-24.7191499291268
30
0
41
1
10
-2.19999999999999
20
-24.5483785892839
30
0
41
1
10
-2.19999999999999
20
-24.3286812886663
30
0
41
1
10
-2.19999999999999
20
-24.0552273098675
30
0
41
1
10
-2.19999999999999
20
-23.8192595747193
30
0
41
1
10
-2.19999999999999
20
-23.625702822842
30
0
41
1
10
-2.19999999999999
20
-23.4289695970825
30
0
41
1
10
-2.19999999999999
20
-23.1771173063638
30
0
41
1
10
-2.19999999999999
20
-22.865528155817
30
0
41
1
10
-2.19999999999999
20
-22.5446620300357
30
0
41
1
10
-2.19999999999999
20
-22.2146097450714
30
0
41
1
10
-2.19999999999999
20
-21.8754567939979
30
0
41
1
10
-2.19999999999999
20
-21.5853057487131
30
0
41
1
10
-2.19999999999999
20
-21.348724524242
30
0
41
1
10
-2.19999999999999
20
-21.1091737057829
30
0
41
1
10
-2.19999999999999
20
-20.8041728408687
30
0
41
1
10
-2.19999999999999
20
-20.4293723348014
30
0
41
1
10
-2.19999999999999
20
-20.1097427976019
30
0
41
1
10
-2.19999999999999
20
-19.8497084000872
30
0
41
1
10
-2.19999999999999
20
-19.5867870400026
30
0
41
1
10
-2.19999999999999
20
-19.2527208742123
30
0
41
1
10
-2.19999999999999
20
-18.9115004820266
30
0
41
1
10
-2.19999999999999
20
-18.6342692782274
30
0
41
1
10
-2.19999999999999
20
-18.3541989021743
30
0
41
1
10
-2.19999999999999
20
-17.9987810562909
30
0
41
1
10
-2.19999999999999
20
-17.6363146514327
30
0
41
1
10
-2.19999999999999
20
-17.342145790273
30
0
41
1
10
-2.19999999999999
20
-17.0451744942955
30
0
41
1
10
-2.19999999999999
20
-16.7439793214723
30
0
41
1
10
-2.19999999999999
20
-16.4386305854399
30
0
41
1
10
-2.19999999999999
20
-16.2460368243143
30
0
41
1
10
-2.19999999999999
20
-16.0909280537241
30
0
41
1
10
-2.19999999999999
20
-15.9351247349383
30
0
41
1
10
-2.19999999999999
20
-15.7390582874331
30
0
41
1
10
-2.19999999999999
20
-15.5017057162253
30
0
41
1
10
-2.19999999999999
20
-15.2622749109486
30
0
41
1
10
-2.19999999999999
20
-15.0207692194115
30
0
41
1
10
-2.19999999999999
20
-14.7771909058554
30
0
41
1
10
-2.19999999999999
20
-14.5315403640059
30
0
41
1
10
-2.19999999999999
20
-14.2838204496865
30
0
41
1
10
-2.19999999999999
20
-14.0340319983603
30
0
41
1
10
-2.19999999999999
20
-13.6982347575132
30
0
41
1
10
-2.19999999999999
20
-13.3582704108556
30
0
41
1
10
-2.19999999999999
20
-13.0142109423232
30
0
41
1
10
-2.19999999999999
20
-12.7540926975445
30
0
41
1
10
-2.19999999999999
20
-12.491909102254
30
0
41
1
10
-2.19999999999999
20
-12.2276612824087
30
0
41
1
10
-2.19999999999999
20
-11.9613483314474
30
0
41
1
10
-2.19999999999999
20
-11.6035237684601
30
0
41
1
10
-2.19999999999999
20
-11.1510479282636
30
0
41
1
10
-2.19999999999999
20
-10.6916821947193
30
0
41
1
10
-2.19999999999999
20
-10.3200777862056
30
0
41
1
10
-2.19999999999999
20
-10.0392927830108
30
0
41
1
10
-2.19999999999999
20
-9.75643631256762
30
0
41
1
10
-2.19999999999999
20
-9.47150741663737
30
0
41
1
10
-2.19999999999999
20
-9.18450458163332
30
0
41
1
10
-2.19999999999999
20
-8.89542705327116
30
0
41
1
10
-2.19999999999999
20
-8.60427351086133
30
0
41
1
10
-2.19999999999999
20
-8.31104332875668
30
0
41
1
10
-2.19999999999999
20
-8.01573570434201
30
0
41
1
10
-2.19999999999999
20
-7.71835052760531
30
0
41
1
10
-2.19999999999999
20
-7.41888792583902
30
0
41
1
10
-2.19999999999999
20
-7.11734871686417
30
0
41
1
10
-2.19999999999999
20
-6.81373435160455
30
0
41
1
10
-2.19999999999999
20
-6.50804761437217
30
0
41
1
10
-2.19999999999999
20
-6.20029192554162
30
0
41
1
10
-2.19999999999999
20
-5.9420983893643
30
0
41
1
10
-2.19999999999999
20
-5.73453666635555
30
0
41
1
10
-2.19999999999999
20
-5.5262910261637
30
0
41
1
10
-2.19999999999999
20
-5.2646764075686
30
0
41
1
10
-2.19999999999999
20
-5.00136826964859
30
0
41
1
10
-2.19999999999999
20
-4.78973719162454
30
0
41
1
10
-2.19999999999999
20
-4.5774371918485
30
0
41
1
10
-2.19999999999999
20
-4.3640968112588
30
0
41
1
10
-2.19999999999999
20
-4.14981698400791
30
0
41
1
10
-2.19999999999999
20
-4.01546868863096
30
0
41
1
10
-2.19999999999999
20
-3.90776230457831
30
0
41
1
10
-2.19999999999999
20
-3.7998956890315
30
0
41
1
10
-2.19999999999999
20
-3.66474577486338
30
0
41
1
10
-2.19999999999999
20
-3.50210371592672
30
0
41
1
10
-2.19999999999999
20
-3.33899661229887
30
0
41
1
10
-2.19999999999999
20
-3.17543128081249
30
0
41
1
10
-2.19999999999999
20
-3.01141672767267
30
0
41
1
10
-2.19999999999999
20
-2.87436211322455
30
0
41
1
10
-2.19999999999999
20
-2.76452001856484
30
0
41
1
10
-2.19999999999999
20
-2.68202546661414
30
0
41
1
10
-2.19999999999999
20
-2.59942633274221
30
0
41
1
10
-2.19999999999999
20
-2.51672422226801
30
0
41
1
10
-2.19999999999999
20
-2.43392090537259
30
0
41
1
10
-2.19999999999999
20
-2.32339362702302
30
0
41
1
10
-2.19999999999999
20
-2.21264124345481
30
0
41
1
10
-2.19999999999999
20
-2.1017319037741
30
0
41
1
10
-2.19999999999999
20
-1.99070061185216
30
0
41
1
10
-2.19999999999999
20
-1.87945967457651
30
0
41
1
10
-2.19999999999999
20
-1.76808196044797
30
0
41
1
10
-2.19999999999999
20
-1.65659534610089
30
0
41
1
10
-2.19999999999999
20
-1.54491819828837
30
0
41
1
10
-2.19999999999999
20
-1.43312830574621
30
0
41
1
10
-2.19999999999999
20
-1.32124507985105
30
0
41
1
10
-2.19999999999999
20
-1.18119882266058
30
0
41
1
10
-2.19999999999999
20
-1.0129186171477
30
0
41
1
10
-2.19999999999999
20
-0.872498995392078
30
0
41
1
10
-2.19999999999999
20
-0.760095827222472
30
0
41
1
10
-2.19999999999999
20
-0.675743919086329
30
0
41
1
10
-2.19999999999999
20
-0.591356022200159
30
0
41
1
10
-2.19999999999999
20
-0.506936438011195
30
0
41
1
10
-2.19999999999999
20
-0.422489242090819
30
0
41
1
10
-2.19999999999999
20
-0.338019061527263
30
0
41
1
10
-2.19999999999999
20
-0.253530604877341
30
0
41
1
10
-2.19999999999999
20
-0.169028167934272
30
0
41
1
10
-2.19999999999999
20
-0.0845163058477283
30
0
41
1
10
-2.19999999999999
20
-2.9737635E-09
30
0
41
1
10
-2.19999999999999
20
0.0845162996800468
30
0
41
1
10
-2.19999999999999
20
0.169028161239794
30
0
41
1
10
-2.19999999999999
20
0.253530597556249
30
0
41
1
10
-2.19999999999999
20
0.338019053908852
30
0
41
1
10
-2.19999999999999
20
0.422489234806477
30
0
41
1
10
-2.19999999999999
20
0.506936431545654
30
0
41
1
10
-2.19999999999999
20
0.591356016553533
30
0
41
1
10
-2.19999999999999
20
0.675743913418643
30
0
41
1
10
-2.19999999999999
20
0.760095820637474
30
0
41
1
10
-2.19999999999999
20
0.87249898691482
30
0
41
1
10
-2.19999999999999
20
1.01291860933941
30
0
41
1
10
-2.19999999999999
20
1.18119881783468
30
0
41
1
10
-2.19999999999999
20
1.32124507363099
30
0
41
1
10
-2.19999999999999
20
1.43312829673272
30
0
41
1
10
-2.19999999999999
20
1.54491818810746
30
0
41
1
10
-2.19999999999999
20
1.65659533844251
30
0
41
1
10
-2.19999999999999
20
1.76808195565891
30
0
41
1
10
-2.19999999999999
20
1.87945966995704
30
0
41
1
10
-2.19999999999999
20
1.9907006034768
30
0
41
1
10
-2.19999999999999
20
2.10173189222928
30
0
41
1
10
-2.19999999999999
20
2.21264123208616
30
0
41
1
10
-2.19999999999999
20
2.32339361988261
30
0
41
1
10
-2.19999999999999
20
2.43392090149777
30
0
41
1
10
-2.19999999999999
20
2.51672421834661
30
0
41
1
10
-2.19999999999999
20
2.5994263263795
30
0
41
1
10
-2.19999999999999
20
2.68202545651479
30
0
41
1
10
-2.19999999999999
20
2.76452000553434
30
0
41
1
10
-2.19999999999999
20
2.87436209926597
30
0
41
1
10
-2.19999999999999
20
3.01141672008131
30
0
41
1
10
-2.19999999999999
20
3.17543127927689
30
0
41
1
10
-2.19999999999999
20
3.33899660464965
30
0
41
1
10
-2.19999999999999
20
3.5021036988395
30
0
41
1
10
-2.19999999999999
20
3.66474576021935
30
0
41
1
10
-2.19999999999999
20
3.79989568244895
30
0
41
1
10
-2.19999999999999
20
3.90776230194615
30
0
41
1
10
-2.19999999999999
20
4.01546868648907
30
0
41
1
10
-2.19999999999999
20
4.14981697452481
30
0
41
1
10
-2.19999999999999
20
4.36409678795761
30
0
41
1
10
-2.19999999999999
20
4.57743718277371
30
0
41
1
10
-2.19999999999999
20
4.78973719244794
30
0
41
1
10
-2.19999999999999
20
5.00136826160576
30
0
41
1
10
-2.19999999999999
20
5.2646763781224
30
0
41
1
10
-2.19999999999999
20
5.52629101970234
30
0
41
1
10
-2.19999999999999
20
5.73453666830338
30
0
41
1
10
-2.19999999999999
20
5.94209838158557
30
0
41
1
10
-2.19999999999999
20
6.20029189348728
30
0
41
1
10
-2.19999999999999
20
6.50804760816206
30
0
41
1
10
-2.19999999999999
20
6.81373435633816
30
0
41
1
10
-2.19999999999999
20
7.11734869113025
30
0
41
1
10
-2.19999999999999
20
7.41888794723957
30
0
41
1
10
-2.19999999999999
20
7.71835058358695
30
0
41
1
10
-2.19999999999999
20
8.01573561602433
30
0
41
1
10
-2.19999999999999
20
8.31104318061551
30
0
41
1
10
-2.19999999999999
20
8.60427356074339
30
0
41
1
10
-2.19999999999999
20
8.8954271911569
30
0
41
1
10
-2.19999999999999
20
9.1845043611271
30
0
41
1
10
-2.19999999999999
20
9.47150729415071
30
0
41
1
10
-2.19999999999999
20
9.7564363484619
30
0
41
1
10
-2.19999999999999
20
10.0392928286736
30
0
41
1
10
-2.19999999999999
20
10.3200778010582
30
0
41
1
10
-2.19999999999999
20
10.5987925508876
30
0
41
1
10
-2.19999999999999
20
10.8754383363526
30
0
41
1
10
-2.19999999999999
20
11.2415269571056
30
0
41
1
10
-2.19999999999999
20
11.6035238164173
30
0
41
1
10
-2.19999999999999
20
11.9613483258762
30
0
41
1
10
-2.19999999999999
20
12.2276612856809
30
0
41
1
10
-2.19999999999999
20
12.4919091491304
30
0
41
1
10
-2.19999999999999
20
12.7540927464655
30
0
41
1
10
-2.19999999999999
20
13.0142109860464
30
0
41
1
10
-2.19999999999999
20
13.3582704046987
30
0
41
1
10
-2.19999999999999
20
13.6982347944475
30
0
41
1
10
-2.19999999999999
20
14.034031998634
30
0
41
1
10
-2.19999999999999
20
14.2838204606995
30
0
41
1
10
-2.19999999999999
20
14.5315403886931
30
0
41
1
10
-2.19999999999999
20
14.7771908994275
30
0
41
1
10
-2.19999999999999
20
15.0207692449601
30
0
41
1
10
-2.19999999999999
20
15.2622748554345
30
0
41
1
10
-2.19999999999999
20
15.501705604915
30
0
41
1
10
-2.19999999999999
20
15.73905841291
30
0
41
1
10
-2.19999999999999
20
15.9743322626435
30
0
41
1
10
-2.19999999999999
20
16.2075239950657
30
0
41
1
10
-2.19999999999999
20
16.4386302461311
30
0
41
1
10
-2.19999999999999
20
16.7439792746615
30
0
41
1
10
-2.19999999999999
20
17.0451745383014
30
0
41
1
10
-2.19999999999999
20
17.342145790903
30
0
41
1
10
-2.19999999999999
20
17.636314655197
30
0
41
1
10
-2.19999999999999
20
17.9987810588702
30
0
41
1
10
-2.19999999999999
20
18.3541988970414
30
0
41
1
10
-2.19999999999999
20
18.634269279738
30
0
41
1
10
-2.19999999999999
20
18.9115004851851
30
0
41
1
10
-2.19999999999999
20
19.2527208752522
30
0
41
1
10
-2.19999999999999
20
19.5867870393815
30
0
41
1
10
-2.19999999999999
20
19.8497084005983
30
0
41
1
10
-2.19999999999999
20
20.1097428027781
30
0
41
1
10
-2.19999999999999
20
20.4293723340896
30
0
41
1
10
-2.19999999999999
20
20.8041728419317
30
0
41
1
10
-2.19999999999999
20
21.1091737088127
30
0
41
1
10
-2.19999999999999
20
21.3487245268705
30
0
41
1
10
-2.19999999999999
20
21.5853057494763
30
0
41
1
10
-2.19999999999999
20
21.8754567982465
30
0
41
1
10
-2.19999999999999
20
22.2146097463897
30
0
41
1
10
-2.19999999999999
20
22.5446620340323
30
0
41
1
10
-2.19999999999999
20
22.8655281588585
30
0
41
1
10
-2.19999999999999
20
23.1771173076971
30
0
41
1
10
-2.19999999999999
20
23.4289696038095
30
0
41
1
10
-2.19999999999999
20
23.6257028262786
30
0
41
1
10
-2.19999999999999
20
23.8192595766845
30
0
41
1
10
-2.19999999999999
20
24.055227314874
30
0
41
1
10
-2.19999999999999
20
24.3286812980358
30
0
41
1
10
-2.19999999999999
20
24.5483785868417
30
0
41
1
10
-2.19999999999999
20
24.7191499364504
30
0
41
1
10
-2.19999999999999
20
24.8865804716972
30
0
41
1
10
-2.19999999999999
20
25.0895715372854
30
0
41
1
10
-2.19999999999999
20
25.2840285001251
30
0
41
1
10
-2.19999999999999
20
25.4343865772609
30
0
41
1
10
-2.19999999999999
20
25.5812511874436
30
0
41
1
10
-2.19999999999999
20
25.7228460886287
30
0
41
1
10
-2.19999999999999
20
25.8590558590047
30
0
41
1
10
-2.19999999999999
20
25.9585066378384
30
0
41
1
10
-2.19999999999999
20
26.0552227938057
30
0
41
1
10
-2.19999999999999
20
26.1491804785364
30
0
41
1
10
-2.19999999999999
20
26.2403534959289
30
0
41
1
10
-2.19999999999999
20
26.3287134281848
30
0
41
1
10
-2.19999999999999
20
26.4142343357678
30
0
41
1
10
-2.19999999999999
20
26.496886760278
30
0
41
1
10
-2.19999999999999
20
26.5766397788825
30
0
41
1
10
-2.19999999999999
20
26.6790690300398
30
0
41
1
10
-2.19999999999999
20
26.7755839801004
30
0
41
1
10
-2.19999999999999
20
26.8660318680525
30
0
41
1
10
-2.19999999999999
20
26.9308034813114
30
0
41
1
10
-2.19999999999999
20
26.9924723817988
30
0
41
1
10
-2.19999999999999
20
27.0509995447849
30
0
41
1
10
-2.19999999999999
20
27.1063432161342
30
0
41
1
10
-2.19999999999999
20
27.1584628619196
30
0
41
1
10
-2.19999999999999
20
27.2073128739481
30
0
41
1
10
-2.19999999999999
20
27.2680242980374
30
0
41
1
10
-2.19999999999999
20
27.3355116051596
30
0
41
1
10
-2.19999999999999
20
27.391448663995
30
0
41
1
10
-2.19999999999999
20
27.4290397313646
30
0
41
1
10
-2.19999999999999
20
27.4535951682728
30
0
41
1
10
-2.19999999999999
20
27.4744481426486
30
0
41
1
10
-2.19999999999999
20
27.4915322394785
30
0
41
1
10
-2.19999999999999
20
27.5011388113012
30
0
41
1
10
-2.19999999999999
20
27.5054286142614
30
0
41
1
10
-2.19999999999996
20
27.5060503364518
30
0
0
SPLINE
5
143
100
AcDbEntity
8
SK1
62
256
6
ByLayer
370
18
48
1
60
0
100
AcDbSpline
70
4
71
3
72
297
73
293
40
0
40
0
40
0
40
0
40
0.0034180961053973
40
0.0069399517890245
40
0.0104618074726517
40
0.013983663156279
40
0.0175055188399062
40
0.0210273745235334
40
0.0280710858907879
40
0.0351147972580424
40
0.0386366529416696
40
0.0421585086252968
40
0.0456803643089241
40
0.0492022199925513
40
0.0527240756761786
40
0.0562459313598058
40
0.059767787043433
40
0.0632896427270603
40
0.0703333540943147
40
0.0738552097779419
40
0.0773770654615692
40
0.0808989211451964
40
0.0844207768288236
40
0.0879426325124508
40
0.0914644881960781
40
0.0949863438797053
40
0.0985081995633326
40
0.10203005524696
40
0.105551910930587
40
0.109073766614214
40
0.110834694456028
40
0.112595622297842
40
0.116117477981469
40
0.119639333665096
40
0.126683045032351
40
0.133726756399605
40
0.137248612083232
40
0.140770467766859
40
0.147814179134114
40
0.154857890501368
40
0.161901601868623
40
0.16542345755225
40
0.168945313235877
40
0.175989024603132
40
0.183032735970386
40
0.190076447337641
40
0.197120158704895
40
0.20416387007215
40
0.211207581439404
40
0.214729437123031
40
0.218251292806659
40
0.225295004173913
40
0.232338715541167
40
0.239382426908422
40
0.242904282592049
40
0.246426138275676
40
0.253469849642931
40
0.260513561010185
40
0.264035416693812
40
0.26755727237744
40
0.274600983744694
40
0.281644695111949
40
0.285166550795576
40
0.288688406479203
40
0.295732117846458
40
0.299253973530085
40
0.302775829213712
40
0.304536757055526
40
0.306297684897339
40
0.309819540580967
40
0.313341396264594
40
0.316863251948221
40
0.320385107631848
40
0.323906963315476
40
0.327428818999103
40
0.33095067468273
40
0.334472530366357
40
0.337994386049984
40
0.345038097417239
40
0.348559953100866
40
0.352081808784493
40
0.355603664468121
40
0.359125520151748
40
0.362647375835375
40
0.366169231519002
40
0.373212942886257
40
0.380256654253511
40
0.383778509937138
40
0.387300365620766
40
0.390822221304393
40
0.39434407698802
40
0.397865932671647
40
0.401387788355275
40
0.404909644038902
40
0.408431499722529
40
0.411953355406156
40
0.415475211089784
40
0.418997066773411
40
0.422518922457038
40
0.426040778140665
40
0.429562633824292
40
0.43308448950792
40
0.436606345191547
40
0.43836727303336
40
0.440128200875174
40
0.443650056558801
40
0.447171912242429
40
0.448932840084242
40
0.450693767926056
40
0.454215623609683
40
0.455976551451497
40
0.45773747929331
40
0.458617943214217
40
0.459498407135124
40
0.461259334976938
40
0.463020262818751
40
0.464781190660565
40
0.466542118502378
40
0.468303046344192
40
0.470063974186005
40
0.470944438106913
40
0.471824902027819
40
0.472705365948726
40
0.473585829869633
40
0.47446629379054
40
0.475346757711447
40
0.47710768555326
40
0.477988149474167
40
0.478868613395074
40
0.480629541236887
40
0.481510005157794
40
0.482390469078701
40
0.484151396920515
40
0.485031860841421
40
0.485912324762328
40
0.487673252604142
40
0.489434180445955
40
0.491195108287769
40
0.492075572208676
40
0.492956036129583
40
0.493836500050489
40
0.494716963971396
40
0.495597427892303
40
0.49647789181321
40
0.497358355734117
40
0.498238819655023
40
0.49911928357593
40
0.499999747496837
40
0.500880211417744
40
0.501760675338651
40
0.502641139259558
40
0.503521603180464
40
0.504402067101371
40
0.505282531022278
40
0.506162994943185
40
0.507043458864092
40
0.507923922784998
40
0.508804386705905
40
0.510565314547719
40
0.512326242389532
40
0.514087170231346
40
0.514967634152253
40
0.51584809807316
40
0.517609025914973
40
0.51848948983588
40
0.519369953756787
40
0.5211308815986
40
0.522011345519507
40
0.522891809440414
40
0.524652737282228
40
0.525533201203135
40
0.526413665124041
40
0.527294129044948
40
0.528174592965855
40
0.529055056886762
40
0.529935520807669
40
0.531696448649482
40
0.533457376491296
40
0.535218304333109
40
0.536979232174923
40
0.538740160016737
40
0.54050108785855
40
0.541381551779457
40
0.542262015700364
40
0.544022943542177
40
0.545783871383991
40
0.549305727067618
40
0.551066654909432
40
0.552827582751245
40
0.556349438434873
40
0.5598712941185
40
0.561632221960313
40
0.563393149802127
40
0.566915005485754
40
0.570436861169382
40
0.573958716853009
40
0.577480572536636
40
0.581002428220263
40
0.58452428390389
40
0.588046139587518
40
0.591567995271145
40
0.595089850954772
40
0.598611706638399
40
0.602133562322027
40
0.605655418005654
40
0.609177273689281
40
0.612699129372908
40
0.616220985056536
40
0.619742840740163
40
0.62326469642379
40
0.626786552107417
40
0.633830263474672
40
0.637352119158299
40
0.640873974841926
40
0.644395830525553
40
0.647917686209181
40
0.651439541892808
40
0.654961397576435
40
0.66200510894369
40
0.665526964627317
40
0.669048820310944
40
0.672570675994571
40
0.676092531678198
40
0.679614387361826
40
0.683136243045453
40
0.68665809872908
40
0.690179954412708
40
0.693701810096335
40
0.697223665779962
40
0.700745521463589
40
0.704267377147216
40
0.711311088514471
40
0.714832944198098
40
0.718354799881725
40
0.72539851124898
40
0.732442222616234
40
0.735964078299862
40
0.739485933983489
40
0.746529645350743
40
0.753573356717998
40
0.757095212401625
40
0.760617068085252
40
0.767660779452507
40
0.774704490819761
40
0.781748202187015
40
0.785270057870643
40
0.78879191355427
40
0.795835624921524
40
0.802879336288779
40
0.809923047656033
40
0.816966759023288
40
0.824010470390542
40
0.831054181757797
40
0.834576037441424
40
0.838097893125051
40
0.845141604492306
40
0.85218531585956
40
0.859229027226815
40
0.862750882910442
40
0.866272738594069
40
0.873316449961323
40
0.880360161328578
40
0.883882017012205
40
0.887403872695833
40
0.894447584063087
40
0.897969439746714
40
0.901491295430341
40
0.905013151113969
40
0.908535006797596
40
0.912056862481223
40
0.91557871816485
40
0.919100573848478
40
0.922622429532105
40
0.926144285215732
40
0.929666140899359
40
0.936709852266614
40
0.940231707950241
40
0.943753563633868
40
0.947275419317495
40
0.950797275001123
40
0.95431913068475
40
0.957840986368377
40
0.961362842052004
40
0.964884697735632
40
0.971928409102886
40
0.978972120470141
40
0.982493976153768
40
0.986015831837395
40
0.989537687521022
40
0.993059543204649
40
0.996581398888277
40
1
40
1
40
1
40
1
41
1
10
-46.5
20
-26.4005309802594
30
0
41
1
10
-46.5
20
-26.3982135727589
30
0
41
1
10
-46.5
20
-26.3922844351152
30
0
41
1
10
-46.5
20
-26.3796666810734
30
0
41
1
10
-46.5
20
-26.3632177076783
30
0
41
1
10
-46.5
20
-26.3431264444613
30
0
41
1
10
-46.5
20
-26.3194531047684
30
0
41
1
10
-46.5
20
-26.2831057898448
30
0
41
1
10
-46.5
20
-26.2291931100504
30
0
41
1
10
-46.5
20
-26.1640888628635
30
0
41
1
10
-46.5
20
-26.1052521520729
30
0
41
1
10
-46.5
20
-26.0579887905965
30
0
41
1
10
-46.5
20
-26.0075411501124
30
0
41
1
10
-46.5
20
-25.9539520524798
30
0
41
1
10
-46.5
20
-25.8972596743867
30
0
41
1
10
-46.5
20
-25.8375026707194
30
0
41
1
10
-46.5
20
-25.7747184891248
30
0
41
1
10
-46.5
20
-25.6868435181955
30
0
41
1
10
-46.5
20
-25.5935790481261
30
0
41
1
10
-46.5
20
-25.4939882551942
30
0
41
1
10
-46.5
20
-25.4165702144948
30
0
41
1
10
-46.5
20
-25.3363180183904
30
0
41
1
10
-46.5
20
-25.2532602572421
30
0
41
1
10
-46.5
20
-25.1674263270685
30
0
41
1
10
-46.5
20
-25.078840846753
30
0
41
1
10
-46.5
20
-24.9875303375032
30
0
41
1
10
-46.5
20
-24.8935214266578
30
0
41
1
10
-46.5
20
-24.7968359305099
30
0
41
1
10
-46.5
20
-24.6974986639861
30
0
41
1
10
-46.5
20
-24.6126465048792
30
0
41
1
10
-46.5
20
-24.5432464906717
30
0
41
1
10
-46.5
20
-24.4729784939732
30
0
41
1
10
-46.5
20
-24.3838015951593
30
0
41
1
10
-46.5
20
-24.2372526165608
30
0
41
1
10
-46.5
20
-24.0482725027174
30
0
41
1
10
-46.5
20
-23.8509558936155
30
0
41
1
10
-46.5
20
-23.6876785906568
30
0
41
1
10
-46.5
20
-23.5211247275232
30
0
41
1
10
-46.5
20
-23.3074726934439
30
0
41
1
10
-46.5
20
-23.0411451496901
30
0
41
1
10
-46.5
20
-22.8116032876094
30
0
41
1
10
-46.5
20
-22.6227365307309
30
0
41
1
10
-46.5
20
-22.430759124426
30
0
41
1
10
-46.5
20
-22.1857080904646
30
0
41
1
10
-46.5
20
-21.8821131555324
30
0
41
1
10
-46.5
20
-21.5694639835235
30
0
41
1
10
-46.5
20
-21.2478549102086
30
0
41
1
10
-46.5
20
-20.9173756105157
30
0
41
1
10
-46.5
20
-20.6350195683323
30
0
41
1
10
-46.5
20
-20.4041184350775
30
0
41
1
10
-46.5
20
-20.1703249889741
30
0
41
1
10
-46.5
20
-19.8735485821408
30
0
41
1
10
-46.5
20
-19.5084001184169
30
0
41
1
10
-46.5
20
-19.1974433350662
30
0
41
1
10
-46.5
20
-18.9437303704574
30
0
41
1
10
-46.5
20
-18.687219888641
30
0
41
1
10
-46.5
20
-18.362316331505
30
0
41
1
10
-46.5
20
-18.0305055709471
30
0
41
1
10
-46.5
20
-17.7601375272069
30
0
41
1
10
-46.5
20
-17.4870326281006
30
0
41
1
10
-46.5
20
-17.1415784247604
30
0
41
1
10
-46.5
20
-16.7893526547043
30
0
41
1
10
-46.5
20
-16.5026612295204
30
0
41
1
10
-46.5
20
-16.2132866640401
30
0
41
1
10
-46.5
20
-15.9214100558917
30
0
41
1
10
-46.5
20
-15.6240006368156
30
0
41
1
10
-46.5
20
-15.4370522522143
30
0
41
1
10
-46.5
20
-15.28602382984
30
0
41
1
10
-46.5
20
-15.1343352185844
30
0
41
1
10
-46.5
20
-14.9440981523704
30
0
41
1
10
-46.5
20
-14.7135143004554
30
0
41
1
10
-46.5
20
-14.4809640927087
30
0
41
1
10
-46.5
20
-14.2464507858614
30
0
41
1
10
-46.5
20
-14.0099844885449
30
0
41
1
10
-46.5
20
-13.7715679648216
30
0
41
1
10
-46.5
20
-13.5312064646771
30
0
41
1
10
-46.5
20
-13.288908575541
30
0
41
1
10
-46.5
20
-12.9626507143561
30
0
41
1
10
-46.5
20
-12.6344409590497
30
0
41
1
10
-46.5
20
-12.3004440719815
30
0
41
1
10
-46.5
20
-12.0485415470732
30
0
41
1
10
-46.5
20
-11.7947359709946
30
0
41
1
10
-46.5
20
-11.5390341996307
30
0
41
1
10
-46.5
20
-11.2814445510786
30
0
41
1
10
-46.5
20
-10.934766834136
30
0
41
1
10
-46.5
20
-10.4984187798349
30
0
41
1
10
-46.5
20
-10.0558459740262
30
0
41
1
10
-46.5
20
-9.69666715624223
30
0
41
1
10
-46.5
20
-9.42608146076122
30
0
41
1
10
-46.5
20
-9.15367831122077
30
0
41
1
10
-46.5
20
-8.87947089935204
30
0
41
1
10
-46.5
20
-8.60347202441497
30
0
41
1
10
-46.5
20
-8.3256967195303
30
0
41
1
10
-46.5
20
-8.04616134412484
30
0
41
1
10
-46.5
20
-7.76488385459561
30
0
41
1
10
-46.5
20
-7.48188420282091
30
0
41
1
10
-46.5
20
-7.19718434586193
30
0
41
1
10
-46.5
20
-6.91080932637593
30
0
41
1
10
-46.5
20
-6.622787153037
30
0
41
1
10
-46.5
20
-6.33314809321135
30
0
41
1
10
-46.5
20
-6.04192837587701
30
0
41
1
10
-46.5
20
-5.74916634577852
30
0
41
1
10
-46.5
20
-5.50455842781798
30
0
41
1
10
-46.5
20
-5.30698795114367
30
0
41
1
10
-46.5
20
-5.10896425509631
30
0
41
1
10
-46.5
20
-4.86210998685604
30
0
41
1
10
-46.5
20
-4.61410950054287
30
0
41
1
10
-46.5
20
-4.41377363153026
30
0
41
1
10
-46.5
20
-4.21306074878717
30
0
41
1
10
-46.5
20
-4.01407320205544
30
0
41
1
10
-46.5
20
-3.81214228534716
30
0
41
1
10
-46.5
20
-3.6866488419891
30
0
41
1
10
-46.5
20
-3.58538042770658
30
0
41
1
10
-46.5
20
-3.48404260664444
30
0
41
1
10
-46.5
20
-3.35820726744203
30
0
41
1
10
-46.5
20
-3.20645090100774
30
0
41
1
10
-46.5
20
-3.05450136741507
30
0
41
1
10
-46.5
20
-2.90237261804765
30
0
41
1
10
-46.5
20
-2.75008141374229
30
0
41
1
10
-46.5
20
-2.62353063115774
30
0
41
1
10
-46.5
20
-2.52133342108166
30
0
41
1
10
-46.5
20
-2.44503927940085
30
0
41
1
10
-46.5
20
-2.3687213422848
30
0
41
1
10
-46.5
20
-2.29238050761498
30
0
41
1
10
-46.5
20
-2.21601237541182
30
0
41
1
10
-46.5
20
-2.11363855078116
30
0
41
1
10
-46.5
20
-2.01284827062042
30
0
41
1
10
-46.5
20
-1.91037865662702
30
0
41
1
10
-46.5
20
-1.80790531000531
30
0
41
1
10
-46.5
20
-1.70711256984478
30
0
41
1
10
-46.5
20
-1.6045774318271
30
0
41
1
10
-46.5
20
-1.50205128730929
30
0
41
1
10
-46.5
20
-1.40129776039692
30
0
41
1
10
-46.5
20
-1.29873779453155
30
0
41
1
10
-46.5
20
-1.19620014128841
30
0
41
1
10
-46.5
20
-1.06942542909599
30
0
41
1
10
-46.5
20
-0.916562722132852
30
0
41
1
10
-46.5
20
-0.789831382942964
30
0
41
1
10
-46.5
20
-0.687306419565971
30
0
41
1
10
-46.5
20
-0.610920675348439
30
0
41
1
10
-46.5
20
-0.534534760307736
30
0
41
1
10
-46.5
20
-0.458151993845576
30
0
41
1
10
-46.5
20
-0.381785837912474
30
0
41
1
10
-46.5
20
-0.305424650134711
30
0
41
1
10
-46.5
20
-0.229059014473165
30
0
41
1
10
-46.5
20
-0.152702860966684
30
0
41
1
10
-46.5
20
-0.076356355661062
30
0
41
1
10
-46.5
20
-2.8073174E-08
30
0
41
1
10
-46.5
20
0.0763563105774381
30
0
41
1
10
-46.5
20
0.152702843052964
30
0
41
1
10
-46.5
20
0.229059030613598
30
0
41
1
10
-46.5
20
0.305424686924255
30
0
41
1
10
-46.5
20
0.38178586307771
30
0
41
1
10
-46.5
20
0.458151977723844
30
0
41
1
10
-46.5
20
0.534534693051597
30
0
41
1
10
-46.5
20
0.610920589347302
30
0
41
1
10
-46.5
20
0.68730636387329
30
0
41
1
10
-46.5
20
0.789831419581247
30
0
41
1
10
-46.5
20
0.916562784856836
30
0
41
1
10
-46.5
20
1.06942535695816
30
0
41
1
10
-46.5
20
1.19620002438899
30
0
41
1
10
-46.5
20
1.29873778818728
30
0
41
1
10
-46.5
20
1.40129786220385
30
0
41
1
10
-46.5
20
1.50205137220064
30
0
41
1
10
-46.5
20
1.60457738401559
30
0
41
1
10
-46.5
20
1.70711241828641
30
0
41
1
10
-46.5
20
1.80790519746156
30
0
41
1
10
-46.5
20
1.91037868910027
30
0
41
1
10
-46.5
20
2.01284840665636
30
0
41
1
10
-46.5
20
2.11363864625324
30
0
41
1
10
-46.5
20
2.21601232318562
30
0
41
1
10
-46.5
20
2.29238035464519
30
0
41
1
10
-46.5
20
2.36872116745508
30
0
41
1
10
-46.5
20
2.44503916247595
30
0
41
1
10
-46.5
20
2.52133341402544
30
0
41
1
10
-46.5
20
2.62353075560304
30
0
41
1
10
-46.5
20
2.75008154091458
30
0
41
1
10
-46.5
20
2.90237254212099
30
0
41
1
10
-46.5
20
3.05450118032692
30
0
41
1
10
-46.5
20
3.20645087454699
30
0
41
1
10
-46.5
20
3.35820741865729
30
0
41
1
10
-46.5
20
3.48404272537243
30
0
41
1
10
-46.5
20
3.58538042142962
30
0
41
1
10
-46.5
20
3.68664870804329
30
0
41
1
10
-46.5
20
3.81214209897183
30
0
41
1
10
-46.5
20
4.01407322556273
30
0
41
1
10
-46.5
20
4.21306090369293
30
0
41
1
10
-46.5
20
4.41377359776476
30
0
41
1
10
-46.5
20
4.61410932418949
30
0
41
1
10
-46.5
20
4.86210999380617
30
0
41
1
10
-46.5
20
5.10896440271245
30
0
41
1
10
-46.5
20
5.30698791061079
30
0
41
1
10
-46.5
20
5.50455825405032
30
0
41
1
10
-46.5
20
5.74916632270845
30
0
41
1
10
-46.5
20
6.04192849679629
30
0
41
1
10
-46.5
20
6.33314802823858
30
0
41
1
10
-46.5
20
6.62278719976101
30
0
41
1
10
-46.5
20
6.91080958282794
30
0
41
1
10
-46.5
20
7.19718401656115
30
0
41
1
10
-46.5
20
7.48188354614015
30
0
41
1
10
-46.5
20
7.7648841800679
30
0
41
1
10
-46.5
20
8.0461621387675
30
0
41
1
10
-46.5
20
8.32569604592521
30
0
41
1
10
-46.5
20
8.60347117534141
30
0
41
1
10
-46.5
20
8.87947149804478
30
0
41
1
10
-46.5
20
9.15367874030954
30
0
41
1
10
-46.5
20
9.42608142898106
30
0
41
1
10
-46.5
20
9.69666702608521
30
0
41
1
10
-46.5
20
9.96542491303109
30
0
41
1
10
-46.5
20
10.232343426472
30
0
41
1
10
-46.5
20
10.586566157494
30
0
41
1
10
-46.5
20
10.9347667406994
30
0
41
1
10
-46.5
20
11.2814444878531
30
0
41
1
10
-46.5
20
11.5390343183575
30
0
41
1
10
-46.5
20
11.7947361066789
30
0
41
1
10
-46.5
20
12.0485415833541
30
0
41
1
10
-46.5
20
12.3004440311799
30
0
41
1
10
-46.5
20
12.6344409449826
30
0
41
1
10
-46.5
20
12.9626507598827
30
0
41
1
10
-46.5
20
13.2889085465965
30
0
41
1
10
-46.5
20
13.5312065194643
30
0
41
1
10
-46.5
20
13.7715679573404
30
0
41
1
10
-46.5
20
14.0099844817145
30
0
41
1
10
-46.5
20
14.246450720846
30
0
41
1
10
-46.5
20
14.4809638211463
30
0
41
1
10
-46.5
20
14.7135145143937
30
0
41
1
10
-46.5
20
14.9440989510648
30
0
41
1
10
-46.5
20
15.1727131739385
30
0
41
1
10
-46.5
20
15.3993479391742
30
0
41
1
10
-46.5
20
15.6239999053159
30
0
41
1
10
-46.5
20
15.9214104773833
30
0
41
1
10
-46.5
20
16.2132867359671
30
0
41
1
10
-46.5
20
16.5026611888573
30
0
41
1
10
-46.5
20
16.7893526613563
30
0
41
1
10
-46.5
20
17.1415784199831
30
0
41
1
10
-46.5
20
17.4870326238008
30
0
41
1
10
-46.5
20
17.7601375367851
30
0
41
1
10
-46.5
20
18.030505573842
30
0
41
1
10
-46.5
20
18.3623163297431
30
0
41
1
10
-46.5
20
18.6872198879946
30
0
41
1
10
-46.5
20
18.9437303760813
30
0
41
1
10
-46.5
20
19.197443340025
30
0
41
1
10
-46.5
20
19.5084001148029
30
0
41
1
10
-46.5
20
19.8735485854937
30
0
41
1
10
-46.5
20
20.1703249928589
30
0
41
1
10
-46.5
20
20.4041184359554
30
0
41
1
10
-46.5
20
20.6350195698474
30
0
41
1
10
-46.5
20
20.9173756153364
30
0
41
1
10
-46.5
20
21.2478549114363
30
0
41
1
10
-46.5
20
21.5694639882747
30
0
41
1
10
-46.5
20
21.8821131574231
30
0
41
1
10
-46.5
20
22.1857080938538
30
0
41
1
10
-46.5
20
22.4307591316751
30
0
41
1
10
-46.5
20
22.6227365313406
30
0
41
1
10
-46.5
20
22.811603290218
30
0
41
1
10
-46.5
20
23.0411451576491
30
0
41
1
10
-46.5
20
23.3074726991927
30
0
41
1
10
-46.5
20
23.5211247254417
30
0
41
1
10
-46.5
20
23.6876786019557
30
0
41
1
10
-46.5
20
23.850955898421
30
0
41
1
10
-46.5
20
24.0482725228686
30
0
41
1
10
-46.5
20
24.2372525971634
30
0
41
1
10
-46.5
20
24.3838015939208
30
0
41
1
10
-46.5
20
24.5269227085665
30
0
41
1
10
-46.5
20
24.6641535645997
30
0
41
1
10
-46.5
20
24.796836252774
30
0
41
1
10
-46.5
20
24.8935210874343
30
0
41
1
10
-46.5
20
24.9875302738737
30
0
41
1
10
-46.5
20
25.0788408868142
30
0
41
1
10
-46.5
20
25.1674263269857
30
0
41
1
10
-46.5
20
25.253260222017
30
0
41
1
10
-46.5
20
25.3363180229216
30
0
41
1
10
-46.5
20
25.4165702112604
30
0
41
1
10
-46.5
20
25.4939882216236
30
0
41
1
10
-46.5
20
25.5935790625544
30
0
41
1
10
-46.5
20
25.6868434692657
30
0
41
1
10
-46.5
20
25.7747185038326
30
0
41
1
10
-46.5
20
25.8375026350058
30
0
41
1
10
-46.5
20
25.8972596671494
30
0
41
1
10
-46.5
20
25.9539520563292
30
0
41
1
10
-46.5
20
26.0075410833254
30
0
41
1
10
-46.5
20
26.0579887211792
30
0
41
1
10
-46.5
20
26.1052520927383
30
0
41
1
10
-46.5
20
26.1640888761727
30
0
41
1
10
-46.5
20
26.2291930886236
30
0
41
1
10
-46.5
20
26.2831057174253
30
0
41
1
10
-46.5
20
26.3194531526336
30
0
41
1
10
-46.5
20
26.3431264926158
30
0
41
1
10
-46.5
20
26.3632177086405
30
0
41
1
10
-46.5
20
26.3796666797908
30
0
41
1
10
-46.5
20
26.3922850866167
30
0
41
1
10
-46.5
20
26.398214463811
30
0
41
1
10
-46.5
20
26.4005320196766
30
0
0
SPLINE
5
144
100
AcDbEntity
8
SK1
62
256
6
ByLayer
370
18
48
1
60
0
100
AcDbSpline
70
4
71
3
72
110
73
106
40
0
40
0
40
0
40
0
40
0.006585741297137
40
0.0145439580316182
40
0.0225021747660993
40
0.0304603915005804
40
0.0384186082350615
40
0.0463768249695427
40
0.0543350417040238
40
0.0622932584385049
40
0.0782096919074671
40
0.0941261253764294
40
0.10208434211091
40
0.110042558845392
40
0.118000775579873
40
0.125958992314354
40
0.133917209048835
40
0.141875425783316
40
0.149833642517797
40
0.157791859252278
40
0.173708292721241
40
0.181666509455722
40
0.189624726190203
40
0.197582942924684
40
0.205541159659165
40
0.213499376393646
40
0.221457593128127
40
0.229415809862608
40
0.23737402659709
40
0.245332243331571
40
0.253290460066052
40
0.261248676800533
40
0.265227785167774
40
0.269206893535014
40
0.277165110269495
40
0.285123327003976
40
0.301039760472939
40
0.316956193941901
40
0.324914410676382
40
0.332872627410863
40
0.348789060879825
40
0.364705494348788
40
0.38062192781775
40
0.388580144552231
40
0.396538361286712
40
0.412454794755674
40
0.428371228224636
40
0.444287661693599
40
0.460204095162561
40
0.476120528631523
40
0.492036962100485
40
0.499995178834967
40
0.507953395569448
40
0.52386982903841
40
0.539786262507372
40
0.555702695976334
40
0.563660912710816
40
0.571619129445297
40
0.587535562914259
40
0.603451996383221
40
0.611410213117702
40
0.619368429852183
40
0.635284863321146
40
0.651201296790108
40
0.659159513524589
40
0.66711773025907
40
0.683034163728032
40
0.690992380462513
40
0.698950597196994
40
0.702929705564235
40
0.706908813931476
40
0.714867030665957
40
0.722825247400438
40
0.730783464134919
40
0.7387416808694
40
0.746699897603881
40
0.754658114338362
40
0.762616331072844
40
0.770574547807325
40
0.778532764541806
40
0.794449198010768
40
0.802407414745249
40
0.81036563147973
40
0.818323848214211
40
0.826282064948693
40
0.834240281683174
40
0.842198498417655
40
0.858114931886617
40
0.874031365355579
40
0.88198958209006
40
0.889947798824541
40
0.897906015559023
40
0.905864232293504
40
0.913822449027985
40
0.921780665762466
40
0.929738882496947
40
0.937697099231428
40
0.945655315965909
40
0.95361353270039
40
0.961571749434871
40
0.969529966169353
40
0.977488182903834
40
0.985446399638315
40
0.993404616372796
40
1
40
1
40
1
40
1
41
1
10
-0.394976888875277
20
-27.3653838087483
30
0
41
1
10
-0.394976888875306
20
-27.3654109928665
30
0
41
1
10
-0.394976888875306
20
-27.36443169522
30
0
41
1
10
-0.394976888875306
20
-27.3594269183726
30
0
41
1
10
-0.394976888875306
20
-27.3501457877119
30
0
41
1
10
-0.394976888875306
20
-27.3369711539198
30
0
41
1
10
-0.394976888875306
20
-27.3199753370632
30
0
41
1
10
-0.394976888875306
20
-27.2992282088757
30
0
41
1
10
-0.394976888875306
20
-27.27479540739
30
0
41
1
10
-0.394976888875306
20
-27.2373773347495
30
0
41
1
10
-0.394976888875306
20
-27.1817216262674
30
0
41
1
10
-0.394976888875306
20
-27.1145655761239
30
0
41
1
10
-0.394976888875306
20
-27.0541148220588
30
0
41
1
10
-0.394976888875306
20
-27.0054853645575
30
0
41
1
10
-0.394976888875306
20
-26.953598130865
30
0
41
1
10
-0.394976888875306
20
-26.8984983126749
30
0
41
1
10
-0.394976888875306
20
-26.8402262313527
30
0
41
1
10
-0.394976888875306
20
-26.7788231109009
30
0
41
1
10
-0.394976888875306
20
-26.7143277379811
30
0
41
1
10
-0.394976888875306
20
-26.6242375656596
30
0
41
1
10
-0.394976888875306
20
-26.5281744083644
30
0
41
1
10
-0.394976888875306
20
-26.4261397788477
30
0
41
1
10
-0.394976888875306
20
-26.3467113117502
30
0
41
1
10
-0.394976888875306
20
-26.2643925590692
30
0
41
1
10
-0.394976888875306
20
-26.1792140698964
30
0
41
1
10
-0.394976888875306
20
-26.0912052473129
30
0
41
1
10
-0.394976888875306
20
-26.0003919407076
30
0
41
1
10
-0.394976888875306
20
-25.90680231755
30
0
41
1
10
-0.394976888875306
20
-25.810462475175
30
0
41
1
10
-0.394976888875306
20
-25.7113956543375
30
0
41
1
10
-0.394976888875306
20
-25.609627837172
30
0
41
1
10
-0.394976888875306
20
-25.5226042889744
30
0
41
1
10
-0.394976888875306
20
-25.4516306650615
30
0
41
1
10
-0.394976888875306
20
-25.3797753879955
30
0
41
1
10
-0.394976888875306
20
-25.2883442684716
30
0
41
1
10
-0.394976888875306
20
-25.1385155212165
30
0
41
1
10
-0.394976888875306
20
-24.9448199373791
30
0
41
1
10
-0.394976888875306
20
-24.7426176812545
30
0
41
1
10
-0.394976888875306
20
-24.5757644878036
30
0
41
1
10
-0.394976888875306
20
-24.4055794218944
30
0
41
1
10
-0.394976888875306
20
-24.1867224773567
30
0
41
1
10
-0.394976888875306
20
-23.9142591485119
30
0
41
1
10
-0.394976888875306
20
-23.6791846777825
30
0
41
1
10
-0.394976888875306
20
-23.4862798848862
30
0
41
1
10
-0.394976888875306
20
-23.2902077684041
30
0
41
1
10
-0.394976888875306
20
-23.0393009244131
30
0
41
1
10
-0.394976888875306
20
-22.728823054511
30
0
41
1
10
-0.394976888875306
20
-22.4090991723375
30
0
41
1
10
-0.394976888875306
20
-22.0802205832225
30
0
41
1
10
-0.394976888875306
20
-21.7422733615616
30
0
41
1
10
-0.394976888875306
20
-21.453205904272
30
0
41
1
10
-0.394976888875306
20
-21.2174142726431
30
0
41
1
10
-0.394976888875306
20
-20.9786637899232
30
0
41
1
10
-0.394976888875306
20
-20.6748062117951
30
0
41
1
10
-0.394976888875306
20
-20.3013474418474
30
0
41
1
10
-0.394976888875306
20
-19.9829235092941
30
0
41
1
10
-0.394976888875306
20
-19.7237678579095
30
0
41
1
10
-0.394976888875306
20
-19.4617376778078
30
0
41
1
10
-0.394976888875306
20
-19.1289452116702
30
0
41
1
10
-0.394976888875306
20
-18.789032857947
30
0
41
1
10
-0.394976888875306
20
-18.5127557060901
30
0
41
1
10
-0.394976888875306
20
-18.2336536051105
30
0
41
1
10
-0.394976888875306
20
-17.8796208110748
30
0
41
1
10
-0.394976888875306
20
-17.5185779629222
30
0
41
1
10
-0.394976888875306
20
-17.2254485445637
30
0
41
1
10
-0.394976888875306
20
-16.9295332745893
30
0
41
1
10
-0.394976888875306
20
-16.6296334809576
30
0
41
1
10
-0.394976888875306
20
-16.3253883940748
30
0
41
1
10
-0.394976888875306
20
-16.1335794000815
30
0
41
1
10
-0.394976888875306
20
-15.9790378411121
30
0
41
1
10
-0.394976888875306
20
-15.8238065102557
30
0
41
1
10
-0.394976888875306
20
-15.6285504084944
30
0
41
1
10
-0.394976888875306
20
-15.3921387609621
30
0
41
1
10
-0.394976888875306
20
-15.1536644316209
30
0
41
1
10
-0.394976888875306
20
-14.9131307556186
30
0
41
1
10
-0.394976888875306
20
-14.6705410876498
30
0
41
1
10
-0.394976888875306
20
-14.4258961509421
30
0
41
1
10
-0.394976888875306
20
-14.1791991341329
30
0
41
1
10
-0.394976888875306
20
-13.9304519502906
30
0
41
1
10
-0.394976888875306
20
-13.595980784257
30
0
41
1
10
-0.394976888875306
20
-13.2576504503011
30
0
41
1
10
-0.394976888875306
20
-12.9149897871743
30
0
41
1
10
-0.394976888875306
20
-12.656013614478
30
0
41
1
10
-0.394976888875306
20
-12.3949946525974
30
0
41
1
10
-0.394976888875306
20
-12.1319348240102
30
0
41
1
10
-0.394976888875306
20
-11.8668345044804
30
0
41
1
10
-0.394976888875306
20
-11.51055947116
30
0
41
1
10
-0.394976888875306
20
-11.0603255640274
30
0
41
1
10
-0.394976888875306
20
-10.6032942253079
30
0
41
1
10
-0.394976888875306
20
-10.2334171055167
30
0
41
1
10
-0.394976888875306
20
-9.95404991412451
30
0
41
1
10
-0.394976888875306
20
-9.67264656600767
30
0
41
1
10
-0.394976888875306
20
-9.3892080699232
30
0
41
1
10
-0.394976888875306
20
-9.10373490192168
30
0
41
1
10
-0.394976888875306
20
-8.81622850233529
30
0
41
1
10
-0.394976888875306
20
-8.52669000819793
30
0
41
1
10
-0.394976888875306
20
-8.23512137696338
30
0
41
1
10
-0.394976888875306
20
-7.94152469111091
30
0
41
1
10
-0.394976888875306
20
-7.64590290818538
30
0
41
1
10
-0.394976888875306
20
-7.34825961897883
30
0
41
1
10
-0.394976888875306
20
-7.04859942112893
30
0
41
1
10
-0.394976888875306
20
-6.74692777135016
30
0
41
1
10
-0.394976888875306
20
-6.44325210311729
30
0
41
1
10
-0.394976888875306
20
-6.15502928738746
30
0
41
1
10
-0.394976888875306
20
-5.96764092579403
30
0
41
1
10
-0.394976888875306
20
-5.8824691645265
30
0
0
SPLINE
5
145
100
AcDbEntity
8
SK1
62
256
6
ByLayer
370
18
48
1
60
0
100
AcDbSpline
70
4
71
3
72
108
73
104
40
0
40
0
40
0
40
0
40
0.0065954664905448
40
0.0145537795371262
40
0.0225120925837076
40
0.030470405630289
40
0.0384287186768704
40
0.0463870317234518
40
0.0543453447700331
40
0.0623036578166145
40
0.0702619708631959
40
0.0782202839097773
40
0.0861785969563587
40
0.0941369100029401
40
0.102095223049521
40
0.110053536096103
40
0.118011849142684
40
0.125970162189266
40
0.133928475235847
40
0.141886788282429
40
0.157803414375591
40
0.165761727422173
40
0.173720040468754
40
0.181678353515335
40
0.189636666561917
40
0.197594979608498
40
0.20555329265508
40
0.221469918748242
40
0.229428231794824
40
0.237386544841405
40
0.245344857887986
40
0.253303170934568
40
0.261261483981149
40
0.269219797027731
40
0.277178110074312
40
0.285136423120893
40
0.293094736167475
40
0.301053049214056
40
0.309011362260638
40
0.316969675307219
40
0.332886301400382
40
0.340844614446963
40
0.348802927493545
40
0.364719553586707
40
0.38063617967987
40
0.388594492726452
40
0.396552805773033
40
0.412469431866196
40
0.428386057959359
40
0.43634437100594
40
0.444302684052521
40
0.460219310145684
40
0.476135936238847
40
0.49205256233201
40
0.500010875378591
40
0.507969188425172
40
0.523885814518335
40
0.539802440611498
40
0.555719066704661
40
0.571635692797824
40
0.587552318890986
40
0.603468944984149
40
0.611427258030731
40
0.619385571077312
40
0.635302197170475
40
0.651218823263638
40
0.6671354493568
40
0.675093762403382
40
0.683052075449963
40
0.698968701543126
40
0.714885327636289
40
0.72284364068287
40
0.730801953729451
40
0.746718579822614
40
0.754676892869196
40
0.762635205915777
40
0.770593518962358
40
0.77855183200894
40
0.786510145055521
40
0.794468458102103
40
0.802426771148684
40
0.810385084195265
40
0.818343397241847
40
0.826301710288428
40
0.842218336381591
40
0.850176649428172
40
0.858134962474754
40
0.866093275521335
40
0.874051588567917
40
0.882009901614498
40
0.889968214661079
40
0.897926527707661
40
0.905884840754242
40
0.921801466847405
40
0.937718092940568
40
0.945676405987149
40
0.95363471903373
40
0.961593032080312
40
0.969551345126893
40
0.977509658173474
40
0.985467971220056
40
0.993426284266637
40
1
40
1
40
1
40
1
41
1
10
-0.394976888875277
20
5.88246902087039
30
0
41
1
10
-0.394976888875277
20
5.96764081676272
30
0
41
1
10
-0.394976888875277
20
6.15502922001536
30
0
41
1
10
-0.394976888875277
20
6.44325211457954
30
0
41
1
10
-0.394976888875277
20
6.74692776639381
30
0
41
1
10
-0.394976888875277
20
7.04859940546743
30
0
41
1
10
-0.394976888875277
20
7.34825967305403
30
0
41
1
10
-0.394976888875277
20
7.6459029106087
30
0
41
1
10
-0.394976888875277
20
7.94152452378472
30
0
41
1
10
-0.394976888875277
20
8.23512129465951
30
0
41
1
10
-0.394976888875277
20
8.52669016160959
30
0
41
1
10
-0.394976888875277
20
8.81622852741523
30
0
41
1
10
-0.394976888875277
20
9.10373459403795
30
0
41
1
10
-0.394976888875277
20
9.38920804768813
30
0
41
1
10
-0.394976888875277
20
9.67264665656018
30
0
41
1
10
-0.394976888875277
20
9.95404994902185
30
0
41
1
10
-0.394976888875277
20
10.2334171002114
30
0
41
1
10
-0.394976888875277
20
10.5107477406376
30
0
41
1
10
-0.394976888875277
20
10.7860413322607
30
0
41
1
10
-0.394976888875277
20
11.1504804686583
30
0
41
1
10
-0.394976888875277
20
11.510559499462
30
0
41
1
10
-0.394976888875277
20
11.8668344908947
30
0
41
1
10
-0.394976888875277
20
12.1319348433318
30
0
41
1
10
-0.394976888875277
20
12.394994711819
30
0
41
1
10
-0.394976888875277
20
12.6560136616419
30
0
41
1
10
-0.394976888875277
20
12.9149898191478
30
0
41
1
10
-0.394976888875277
20
13.2576504430446
30
0
41
1
10
-0.394976888875277
20
13.5959808223858
30
0
41
1
10
-0.394976888875277
20
13.9304519465026
30
0
41
1
10
-0.394976888875277
20
14.1791991512309
30
0
41
1
10
-0.394976888875277
20
14.4258961711575
30
0
41
1
10
-0.394976888875277
20
14.6705410811659
30
0
41
1
10
-0.394976888875277
20
14.9131307685779
30
0
41
1
10
-0.394976888875277
20
15.1536643460738
30
0
41
1
10
-0.394976888875277
20
15.3921386948648
30
0
41
1
10
-0.394976888875277
20
15.6285506275557
30
0
41
1
10
-0.394976888875277
20
15.8628987186173
30
0
41
1
10
-0.394976888875277
20
16.0951789631496
30
0
41
1
10
-0.394976888875277
20
16.3253880002473
30
0
41
1
10
-0.394976888875277
20
16.6296334992457
30
0
41
1
10
-0.394976888875277
20
16.9295333224765
30
0
41
1
10
-0.394976888875277
20
17.2254485394535
30
0
41
1
10
-0.394976888875277
20
17.518577967088
30
0
41
1
10
-0.394976888875277
20
17.8796208126314
30
0
41
1
10
-0.394976888875277
20
18.2336536000934
30
0
41
1
10
-0.394976888875277
20
18.5127557087222
30
0
41
1
10
-0.394976888875277
20
18.7890328610688
30
0
41
1
10
-0.394976888875277
20
19.1289452123206
30
0
41
1
10
-0.394976888875277
20
19.4617376771832
30
0
41
1
10
-0.394976888875277
20
19.7237678591314
30
0
41
1
10
-0.394976888875277
20
19.98292351444
30
0
41
1
10
-0.394976888875277
20
20.3013474407322
30
0
41
1
10
-0.394976888875277
20
20.6748062131765
30
0
41
1
10
-0.394976888875277
20
20.9786637930718
30
0
41
1
10
-0.394976888875277
20
21.2174142750283
30
0
41
1
10
-0.394976888875277
20
21.4532059051397
30
0
41
1
10
-0.394976888875277
20
21.7422733658897
30
0
41
1
10
-0.394976888875277
20
22.0802205845281
30
0
41
1
10
-0.394976888875277
20
22.4090991764391
30
0
41
1
10
-0.394976888875277
20
22.7288230573926
30
0
41
1
10
-0.394976888875277
20
23.0393009260323
30
0
41
1
10
-0.394976888875277
20
23.2902077752037
30
0
41
1
10
-0.394976888875277
20
23.4862798879298
30
0
41
1
10
-0.394976888875277
20
23.6791846798372
30
0
41
1
10
-0.394976888875277
20
23.9142591539289
30
0
41
1
10
-0.394976888875277
20
24.1867224862229
30
0
41
1
10
-0.394976888875277
20
24.4055794195024
30
0
41
1
10
-0.394976888875277
20
24.5757644956798
30
0
41
1
10
-0.394976888875277
20
24.7426176867451
30
0
41
1
10
-0.394976888875277
20
24.9448199449114
30
0
41
1
10
-0.394976888875277
20
25.1385155622326
30
0
41
1
10
-0.394976888875277
20
25.2883441368503
30
0
41
1
10
-0.394976888875277
20
25.4346883615025
30
0
41
1
10
-0.394976888875277
20
25.5756766141878
30
0
41
1
10
-0.394976888875277
20
25.7113960827791
30
0
41
1
10
-0.394976888875277
20
25.810462366076
30
0
41
1
10
-0.394976888875277
20
25.9068022246068
30
0
41
1
10
-0.394976888875277
20
26.0003919383211
30
0
41
1
10
-0.394976888875277
20
26.0912052550724
30
0
41
1
10
-0.394976888875277
20
26.1792140413985
30
0
41
1
10
-0.394976888875277
20
26.2643925510642
30
0
41
1
10
-0.394976888875277
20
26.3467113173234
30
0
41
1
10
-0.394976888875277
20
26.4261397450501
30
0
41
1
10
-0.394976888875277
20
26.5281744271217
30
0
41
1
10
-0.394976888875277
20
26.6242375172272
30
0
41
1
10
-0.394976888875277
20
26.7143277513073
30
0
41
1
10
-0.394976888875277
20
26.778823083505
30
0
41
1
10
-0.394976888875277
20
26.8402262140422
30
0
41
1
10
-0.394976888875277
20
26.8984983240354
30
0
41
1
10
-0.394976888875277
20
26.9535980812345
30
0
41
1
10
-0.394976888875277
20
27.0054853002076
30
0
41
1
10
-0.394976888875277
20
27.0541147524053
30
0
41
1
10
-0.394976888875277
20
27.1145655815875
30
0
41
1
10
-0.394976888875277
20
27.1817216133088
30
0
41
1
10
-0.394976888875277
20
27.2373772549269
30
0
41
1
10
-0.394976888875277
20
27.2747954442536
30
0
41
1
10
-0.394976888875277
20
27.299228260346
30
0
41
1
10
-0.394976888875277
20
27.3199753422425
30
0
41
1
10
-0.394976888875277
20
27.3369711498757
30
0
41
1
10
-0.394976888875277
20
27.3501458297252
30
0
41
1
10
-0.394976888875277
20
27.3594269422325
30
0
41
1
10
-0.394976888875249
20
27.3644289481017
30
0
41
1
10
-0.394976888875306
20
27.365409341356
30
0
41
1
10
-0.394976888875334
20
27.365383959111
30
0
0
SPLINE
5
146
100
AcDbEntity
8
SK1
62
256
6
ByLayer
370
18
48
1
60
0
100
AcDbSpline
70
4
71
3
72
299
73
295
40
0
40
0
40
0
40
0
40
0.0016934305621066
40
0.0052026301267358
40
0.0087118296913649
40
0.0122210292559942
40
0.0157302288206233
40
0.0192394283852526
40
0.0227486279498818
40
0.0297670270791402
40
0.0367854262083985
40
0.0402946257730278
40
0.0438038253376569
40
0.0473130249022861
40
0.0508222244669154
40
0.0543314240315446
40
0.0578406235961737
40
0.0613498231608029
40
0.0648590227254322
40
0.0718774218546905
40
0.0753866214193197
40
0.0788958209839489
40
0.0824050205485782
40
0.0859142201132073
40
0.0894234196778365
40
0.0929326192424658
40
0.0964418188070949
40
0.0999510183717241
40
0.103460217936353
40
0.106969417500983
40
0.110478617065612
40
0.112233216847926
40
0.113987816630241
40
0.11749701619487
40
0.121006215759499
40
0.128024614888758
40
0.135043014018016
40
0.138552213582645
40
0.142061413147275
40
0.149079812276533
40
0.156098211405791
40
0.16311661053505
40
0.166625810099679
40
0.170135009664308
40
0.177153408793567
40
0.184171807922825
40
0.191190207052083
40
0.198208606181342
40
0.2052270053106
40
0.212245404439859
40
0.215754604004488
40
0.219263803569117
40
0.226282202698375
40
0.233300601827634
40
0.240319000956892
40
0.243828200521521
40
0.24733740008615
40
0.254355799215409
40
0.261374198344667
40
0.264883397909296
40
0.268392597473926
40
0.275410996603184
40
0.282429395732443
40
0.285938595297072
40
0.289447794861701
40
0.296466193990959
40
0.299975393555588
40
0.303484593120218
40
0.305239192902532
40
0.306993792684847
40
0.310502992249476
40
0.314012191814105
40
0.317521391378734
40
0.321030590943364
40
0.324539790507993
40
0.328048990072622
40
0.331558189637251
40
0.335067389201881
40
0.33857658876651
40
0.345594987895768
40
0.349104187460397
40
0.352613387025026
40
0.356122586589656
40
0.359631786154285
40
0.363140985718914
40
0.366650185283543
40
0.373668584412802
40
0.38068698354206
40
0.384196183106689
40
0.387705382671318
40
0.391214582235948
40
0.394723781800577
40
0.398232981365206
40
0.401742180929835
40
0.405251380494465
40
0.408760580059094
40
0.412269779623723
40
0.415778979188352
40
0.419288178752981
40
0.42279737831761
40
0.42630657788224
40
0.429815777446869
40
0.433324977011498
40
0.436834176576127
40
0.438588776358442
40
0.440343376140756
40
0.443852575705386
40
0.447361775270015
40
0.449116375052329
40
0.450870974834644
40
0.454380174399273
40
0.456134774181588
40
0.457889373963902
40
0.45876667385506
40
0.459643973746217
40
0.461398573528532
40
0.463153173310846
40
0.464907773093161
40
0.466662372875476
40
0.46841697265779
40
0.470171572440105
40
0.471048872331262
40
0.471926172222419
40
0.472803472113577
40
0.473680772004734
40
0.474558071895891
40
0.475435371787048
40
0.477189971569363
40
0.47806727146052
40
0.478944571351678
40
0.480699171133992
40
0.481576471025149
40
0.482453770916307
40
0.484208370698621
40
0.485085670589779
40
0.485962970480936
40
0.487717570263251
40
0.489472170045565
40
0.49122676982788
40
0.492104069719037
40
0.492981369610195
40
0.493858669501352
40
0.494735969392509
40
0.495613269283666
40
0.496490569174824
40
0.497367869065981
40
0.498245168957138
40
0.499122468848296
40
0.499999768739453
40
0.50087706863061
40
0.501754368521767
40
0.502631668412925
40
0.503508968304082
40
0.504386268195239
40
0.505263568086397
40
0.506140867977554
40
0.507018167868711
40
0.507895467759869
40
0.508772767651026
40
0.510527367433341
40
0.512281967215655
40
0.51403656699797
40
0.514913866889127
40
0.515791166780284
40
0.517545766562599
40
0.518423066453756
40
0.519300366344913
40
0.521054966127228
40
0.521932266018385
40
0.522809565909543
40
0.524564165691857
40
0.525441465583015
40
0.526318765474172
40
0.527196065365329
40
0.528073365256487
40
0.528950665147644
40
0.529827965038801
40
0.531582564821116
40
0.53333716460343
40
0.535091764385745
40
0.536846364168059
40
0.538600963950374
40
0.540355563732689
40
0.541232863623846
40
0.542110163515003
40
0.543864763297318
40
0.545619363079633
40
0.549128562644262
40
0.550883162426576
40
0.552637762208891
40
0.55614696177352
40
0.559656161338149
40
0.561410761120464
40
0.563165360902778
40
0.566674560467408
40
0.570183760032037
40
0.573692959596666
40
0.577202159161295
40
0.580711358725925
40
0.584220558290554
40
0.587729757855183
40
0.591238957419812
40
0.594748156984441
40
0.59825735654907
40
0.6017665561137
40
0.605275755678329
40
0.608784955242958
40
0.612294154807587
40
0.615803354372216
40
0.619312553936846
40
0.622821753501475
40
0.626330953066104
40
0.633349352195363
40
0.636858551759992
40
0.640367751324621
40
0.64387695088925
40
0.647386150453879
40
0.650895350018508
40
0.654404549583138
40
0.661422948712396
40
0.664932148277025
40
0.668441347841655
40
0.671950547406284
40
0.675459746970913
40
0.678968946535542
40
0.682478146100171
40
0.6859873456648
40
0.68949654522943
40
0.693005744794059
40
0.696514944358688
40
0.700024143923317
40
0.703533343487946
40
0.710551742617205
40
0.714060942181834
40
0.717570141746463
40
0.724588540875721
40
0.73160694000498
40
0.735116139569609
40
0.738625339134238
40
0.745643738263497
40
0.752662137392755
40
0.756171336957384
40
0.759680536522014
40
0.766698935651272
40
0.77371733478053
40
0.780735733909789
40
0.784244933474418
40
0.787754133039047
40
0.794772532168306
40
0.801790931297564
40
0.808809330426823
40
0.815827729556081
40
0.822846128685339
40
0.829864527814598
40
0.833373727379227
40
0.836882926943856
40
0.843901326073114
40
0.850919725202373
40
0.857938124331631
40
0.86144732389626
40
0.86495652346089
40
0.871974922590148
40
0.878993321719406
40
0.882502521284036
40
0.886011720848665
40
0.893030119977923
40
0.896539319542552
40
0.900048519107181
40
0.903557718671811
40
0.90706691823644
40
0.910576117801069
40
0.914085317365698
40
0.917594516930327
40
0.921103716494957
40
0.924612916059586
40
0.928122115624215
40
0.935140514753474
40
0.938649714318103
40
0.942158913882732
40
0.945668113447361
40
0.94917731301199
40
0.952686512576619
40
0.956195712141249
40
0.959704911705878
40
0.963214111270507
40
0.970232510399766
40
0.977250909529024
40
0.980760109093653
40
0.984269308658282
40
0.987778508222911
40
0.991287707787541
40
0.99479690735217
40
0.998306106916799
40
1
40
1
40
1
40
1
41
1
10
-48
20
-25.537783676465
30
0
41
1
10
-48
20
-25.5369757131373
30
0
41
1
10
-48
20
-25.5340454784345
30
0
41
1
10
-48
20
-25.526853527344
30
0
41
1
10
-48
20
-25.5145008149315
30
0
41
1
10
-48
20
-25.498546052428
30
0
41
1
10
-48
20
-25.4790475285131
30
0
41
1
10
-48
20
-25.4560605539616
30
0
41
1
10
-48
20
-25.4206809385044
30
0
41
1
10
-48
20
-25.3683435244347
30
0
41
1
10
-48
20
-25.3050935983469
30
0
41
1
10
-48
20
-25.2477155824513
30
0
41
1
10
-48
20
-25.2016868330385
30
0
41
1
10
-48
20
-25.152540227847
30
0
41
1
10
-48
20
-25.1003164469937
30
0
41
1
10
-48
20
-25.0450517289096
30
0
41
1
10
-48
20
-24.9867824066374
30
0
41
1
10
-48
20
-24.9255447176865
30
0
41
1
10
-48
20
-24.839671739525
30
0
41
1
10
-48
20
-24.7489365887333
30
0
41
1
10
-48
20
-24.6515544180899
30
0
41
1
10
-48
20
-24.5759533043403
30
0
41
1
10
-48
20
-24.4975687629489
30
0
41
1
10
-48
20
-24.4164276140701
30
0
41
1
10
-48
20
-24.3325592473395
30
0
41
1
10
-48
20
-24.2459871695687
30
0
41
1
10
-48
20
-24.1567364141525
30
0
41
1
10
-48
20
-24.0648340874221
30
0
41
1
10
-48
20
-23.9703007183102
30
0
41
1
10
-48
20
-23.8731600668768
30
0
41
1
10
-48
20
-23.7902703050809
30
0
41
1
10
-48
20
-23.7222924438482
30
0
41
1
10
-48
20
-23.653458955013
30
0
41
1
10
-48
20
-23.5663193127548
30
0
41
1
10
-48
20
-23.4227344317565
30
0
41
1
10
-48
20
-23.2380159335195
30
0
41
1
10
-48
20
-23.0451147378601
30
0
41
1
10
-48
20
-22.8850691532134
30
0
41
1
10
-48
20
-22.7217969969803
30
0
41
1
10
-48
20
-22.5128489113235
30
0
41
1
10
-48
20
-22.2520665958364
30
0
41
1
10
-48
20
-22.0275248400849
30
0
41
1
10
-48
20
-21.8423074664778
30
0
41
1
10
-48
20
-21.6540306628311
30
0
41
1
10
-48
20
-21.4142718291048
30
0
41
1
10
-48
20
-21.1168973606635
30
0
41
1
10
-48
20
-20.8106419723679
30
0
41
1
10
-48
20
-20.4956027387563
30
0
41
1
10
-48
20
-20.1718725887445
30
0
41
1
10
-48
20
-19.8955820016259
30
0
41
1
10
-48
20
-19.6691006662323
30
0
41
1
10
-48
20
-19.4397871520623
30
0
41
1
10
-48
20
-19.1494103682019
30
0
41
1
10
-48
20
-18.7917723606454
30
0
41
1
10
-48
20
-18.4875640285875
30
0
41
1
10
-48
20
-18.2387699032321
30
0
41
1
10
-48
20
-17.9872478599777
30
0
41
1
10
-48
20
-17.6694739204115
30
0
41
1
10
-48
20
-17.3449849911693
30
0
41
1
10
-48
20
-17.0799573159189
30
0
41
1
10
-48
20
-16.8122724002143
30
0
41
1
10
-48
20
-16.4745711156787
30
0
41
1
10
-48
20
-16.1303137979014
30
0
41
1
10
-48
20
-15.8494407221551
30
0
41
1
10
-48
20
-15.5659773316764
30
0
41
1
10
-48
20
-15.2813516937416
30
0
41
1
10
-48
20
-14.9901200233614
30
0
41
1
10
-48
20
-14.8075644243928
30
0
41
1
10
-48
20
-14.6597110063681
30
0
41
1
10
-48
20
-14.5112241351638
30
0
41
1
10
-48
20
-14.325523032543
30
0
41
1
10
-48
20
-14.100206062781
30
0
41
1
10
-48
20
-13.8730097919851
30
0
41
1
10
-48
20
-13.6439374060174
30
0
41
1
10
-48
20
-13.4130051173935
30
0
41
1
10
-48
20
-13.180217534584
30
0
41
1
10
-48
20
-12.9455817705228
30
0
41
1
10
-48
20
-12.7091124446063
30
0
41
1
10
-48
20
-12.3902773743984
30
0
41
1
10
-48
20
-12.0712141126493
30
0
41
1
10
-48
20
-11.7450471308309
30
0
41
1
10
-48
20
-11.499537429511
30
0
41
1
10
-48
20
-11.2522509655356
30
0
41
1
10
-48
20
-11.0031990533662
30
0
41
1
10
-48
20
-10.7523971889997
30
0
41
1
10
-48
20
-10.4143930662711
30
0
41
1
10
-48
20
-9.99059437973426
30
0
41
1
10
-48
20
-9.56108850247722
30
0
41
1
10
-48
20
-9.21157829691111
30
0
41
1
10
-48
20
-8.94892889623651
30
0
41
1
10
-48
20
-8.68465969448138
30
0
41
1
10
-48
20
-8.41879489376456
30
0
41
1
10
-48
20
-8.1513584304715
30
0
41
1
10
-48
20
-7.88237762223329
30
0
41
1
10
-48
20
-7.61188258574541
30
0
41
1
10
-48
20
-7.33990573648225
30
0
41
1
10
-48
20
-7.06648317582801
30
0
41
1
10
-48
20
-6.79165403169532
30
0
41
1
10
-48
20
-6.51546273390829
30
0
41
1
10
-48
20
-6.23795844891293
30
0
41
1
10
-48
20
-5.95919386675251
30
0
41
1
10
-48
20
-5.67923124039953
30
0
41
1
10
-48
20
-5.39813608998188
30
0
41
1
10
-48
20
-5.16409942590656
30
0
41
1
10
-48
20
-4.97430334712462
30
0
41
1
10
-48
20
-4.7842335597642
30
0
41
1
10
-48
20
-4.54886462907325
30
0
41
1
10
-48
20
-4.31277534686873
30
0
41
1
10
-48
20
-4.12122851639978
30
0
41
1
10
-48
20
-3.92953181194156
30
0
41
1
10
-48
20
-3.74171250564348
30
0
41
1
10
-48
20
-3.54939053469457
30
0
41
1
10
-48
20
-3.43078723702683
30
0
41
1
10
-48
20
-3.33452834177101
30
0
41
1
10
-48
20
-3.23827071234683
30
0
41
1
10
-48
20
-3.11968323888183
30
0
41
1
10
-48
20
-2.9763972576242
30
0
41
1
10
-48
20
-2.83312966280692
30
0
41
1
10
-48
20
-2.68989995735709
30
0
41
1
10
-48
20
-2.54673093615278
30
0
41
1
10
-48
20
-2.42835340498934
30
0
41
1
10
-48
20
-2.33210483961736
30
0
41
1
10
-48
20
-2.26063536694383
30
0
41
1
10
-48
20
-2.18920496049071
30
0
41
1
10
-48
20
-2.11781396766756
30
0
41
1
10
-48
20
-2.04645318736363
30
0
41
1
10
-48
20
-1.95042373572571
30
0
41
1
10
-48
20
-1.85738517673588
30
0
41
1
10
-48
20
-1.76148268994555
30
0
41
1
10
-48
20
-1.66566845968211
30
0
41
1
10
-48
20
-1.57300568038053
30
0
41
1
10
-48
20
-1.47735113591224
30
0
41
1
10
-48
20
-1.38179732051373
30
0
41
1
10
-48
20
-1.28954369165814
30
0
41
1
10
-48
20
-1.19416572492489
30
0
41
1
10
-48
20
-1.09890005736773
30
0
41
1
10
-48
20
-0.98245221211539
30
0
41
1
10
-48
20
-0.841586183466262
30
0
41
1
10
-48
20
-0.725505983440371
30
0
41
1
10
-48
20
-0.630667457966041
30
0
41
1
10
-48
20
-0.560480352627565
30
0
41
1
10
-48
20
-0.490320947144568
30
0
41
1
10
-48
20
-0.420191796768449
30
0
41
1
10
-48
20
-0.350113667187827
30
0
41
1
10
-48
20
-0.280062256420109
30
0
41
1
10
-48
20
-0.210017157782517
30
0
41
1
10
-48
20
-0.139999797922002
30
0
41
1
10
-48
20
-0.0700069276308
30
0
41
1
10
-48
20
-4.76035495E-08
30
0
41
1
10
-48
20
0.070006852265891
30
0
41
1
10
-48
20
0.139999771278355
30
0
41
1
10
-48
20
0.210017192178867
30
0
41
1
10
-48
20
0.280062327764426
30
0
41
1
10
-48
20
0.350113717602739
30
0
41
1
10
-48
20
0.420191773132984
30
0
41
1
10
-48
20
0.490320831948736
30
0
41
1
10
-48
20
0.560480204117312
30
0
41
1
10
-48
20
0.630667364061651
30
0
41
1
10
-48
20
0.725506055183985
30
0
41
1
10
-48
20
0.841586301072937
30
0
41
1
10
-48
20
0.982452087600734
30
0
41
1
10
-48
20
1.0988998543464
30
0
41
1
10
-48
20
1.19416572065762
30
0
41
1
10
-48
20
1.28954388060518
30
0
41
1
10
-48
20
1.38179747741995
30
0
41
1
10
-48
20
1.47735105462405
30
0
41
1
10
-48
20
1.57300541448592
30
0
41
1
10
-48
20
1.66566826608278
30
0
41
1
10
-48
20
1.7614827566702
30
0
41
1
10
-48
20
1.85738542747043
30
0
41
1
10
-48
20
1.95042391104269
30
0
41
1
10
-48
20
2.04645309751422
30
0
41
1
10
-48
20
2.11781369872008
30
0
41
1
10
-48
20
2.1892046545733
30
0
41
1
10
-48
20
2.26063516689573
30
0
41
1
10
-48
20
2.33210483720984
30
0
41
1
10
-48
20
2.42835363712962
30
0
41
1
10
-48
20
2.54673116818745
30
0
41
1
10
-48
20
2.68989982354518
30
0
41
1
10
-48
20
2.83312933609361
30
0
41
1
10
-48
20
2.97639722386972
30
0
41
1
10
-48
20
3.11968351915573
30
0
41
1
10
-48
20
3.23827092858158
30
0
41
1
10
-48
20
3.33452833265792
30
0
41
1
10
-48
20
3.43078700052166
30
0
41
1
10
-48
20
3.54939021067565
30
0
41
1
10
-48
20
3.74171256557347
30
0
41
1
10
-48
20
3.92953209444403
30
0
41
1
10
-48
20
4.12122845571991
30
0
41
1
10
-48
20
4.31277503954939
30
0
41
1
10
-48
20
4.54886466434414
30
0
41
1
10
-48
20
4.78423382727124
30
0
41
1
10
-48
20
4.97430327353658
30
0
41
1
10
-48
20
5.16409912297942
30
0
41
1
10
-48
20
5.39813607390266
30
0
41
1
10
-48
20
5.67923146024086
30
0
41
1
10
-48
20
5.95919374753973
30
0
41
1
10
-48
20
6.23795855201797
30
0
41
1
10
-48
20
6.51546317325875
30
0
41
1
10
-48
20
6.79165340259817
30
0
41
1
10
-48
20
7.06648207689202
30
0
41
1
10
-48
20
7.33990643048304
30
0
41
1
10
-48
20
7.61188395990186
30
0
41
1
10
-48
20
7.88237631719019
30
0
41
1
10
-48
20
8.15135709229654
30
0
41
1
10
-48
20
8.41879605362203
30
0
41
1
10
-48
20
8.68466042952298
30
0
41
1
10
-48
20
8.94892880419638
30
0
41
1
10
-48
20
9.211578053919
30
0
41
1
10
-48
20
9.47258829745539
30
0
41
1
10
-48
20
9.73193781693988
30
0
41
1
10
-48
20
10.0769274508059
30
0
41
1
10
-48
20
10.414392862813
30
0
41
1
10
-48
20
10.7523970809122
30
0
41
1
10
-48
20
11.0031992619305
30
0
41
1
10
-48
20
11.2522511703231
30
0
41
1
10
-48
20
11.4995374559565
30
0
41
1
10
-48
20
11.7450470242589
30
0
41
1
10
-48
20
12.0712140924269
30
0
41
1
10
-48
20
12.3902774266109
30
0
41
1
10
-48
20
12.7091123929265
30
0
41
1
10
-48
20
12.9455818593715
30
0
41
1
10
-48
20
13.180217502072
30
0
41
1
10
-48
20
13.4130051102497
30
0
41
1
10
-48
20
13.6439372705323
30
0
41
1
10
-48
20
13.8730093523109
30
0
41
1
10
-48
20
14.1002065298018
30
0
41
1
10
-48
20
14.3255243550819
30
0
41
1
10
-48
20
14.5489565829083
30
0
41
1
10
-48
20
14.770489234737
30
0
41
1
10
-48
20
14.9901189866895
30
0
41
1
10
-48
20
15.281352479629
30
0
41
1
10
-48
20
15.5659774253293
30
0
41
1
10
-48
20
15.8494406493609
30
0
41
1
10
-48
20
16.1303138068004
30
0
41
1
10
-48
20
16.4745711051771
30
0
41
1
10
-48
20
16.8122723965627
30
0
41
1
10
-48
20
17.0799573317746
30
0
41
1
10
-48
20
17.3449849938592
30
0
41
1
10
-48
20
17.6694739164695
30
0
41
1
10
-48
20
17.9872478593116
30
0
41
1
10
-48
20
18.2387699128343
30
0
41
1
10
-48
20
18.4875640333771
30
0
41
1
10
-48
20
18.7917723547731
30
0
41
1
10
-48
20
19.1494103733366
30
0
41
1
10
-48
20
19.4397871566123
30
0
41
1
10
-48
20
19.669100665748
30
0
41
1
10
-48
20
19.895582003726
30
0
41
1
10
-48
20
20.1718725940103
30
0
41
1
10
-48
20
20.4956027399135
30
0
41
1
10
-48
20
20.8106419777062
30
0
41
1
10
-48
20
21.1168973616587
30
0
41
1
10
-48
20
21.4142718340937
30
0
41
1
10
-48
20
21.6540306704864
30
0
41
1
10
-48
20
21.8423074648877
30
0
41
1
10
-48
20
22.027524843194
30
0
41
1
10
-48
20
22.2520666060929
30
0
41
1
10
-48
20
22.5128489142549
30
0
41
1
10
-48
20
22.7217969951793
30
0
41
1
10
-48
20
22.8850691676056
30
0
41
1
10
-48
20
23.0451147420464
30
0
41
1
10
-48
20
23.2380159650749
30
0
41
1
10
-48
20
23.4227343577602
30
0
41
1
10
-48
20
23.56631942935
30
0
41
1
10
-48
20
23.7065276517659
30
0
41
1
10
-48
20
23.8403627529258
30
0
41
1
10
-48
20
23.9703009446161
30
0
41
1
10
-48
20
24.0648335402232
30
0
41
1
10
-48
20
24.1567363770153
30
0
41
1
10
-48
20
24.245987247992
30
0
41
1
10
-48
20
24.332559240169
30
0
41
1
10
-48
20
24.4164275727652
30
0
41
1
10
-48
20
24.4975687788098
30
0
41
1
10
-48
20
24.5759532931461
30
0
41
1
10
-48
20
24.6515543847243
30
0
41
1
10
-48
20
24.7489365992492
30
0
41
1
10
-48
20
24.8396716901456
30
0
41
1
10
-48
20
24.9255447336429
30
0
41
1
10
-48
20
24.9867823634066
30
0
41
1
10
-48
20
25.0450517307762
30
0
41
1
10
-48
20
25.1003164440549
30
0
41
1
10
-48
20
25.1525401455547
30
0
41
1
10
-48
20
25.2016867590413
30
0
41
1
10
-48
20
25.2477155324425
30
0
41
1
10
-48
20
25.3050936187466
30
0
41
1
10
-48
20
25.3683434953549
30
0
41
1
10
-48
20
25.4206808727754
30
0
41
1
10
-48
20
25.4560606117695
30
0
41
1
10
-48
20
25.479047573671
30
0
41
1
10
-48
20
25.4985460495789
30
0
41
1
10
-48
20
25.5145008161446
30
0
41
1
10
-48
20
25.5268535709615
30
0
41
1
10
-48
20
25.5340458817081
30
0
41
1
10
-48
20
25.5369762249406
30
0
41
1
10
-48
20
25.5377843210204
30
0
0
SPLINE
5
147
100
AcDbEntity
8
1
62
256
6
ByLayer
370
18
48
1
60
0
100
AcDbSpline
70
4
71
3
72
8
73
4
40
0
40
0
40
0
40
0
40
1
40
1
40
1
40
1
41
1
10
33.6183119410308
20
-50.0498837280707
30
0
41
1
10
33.663499765347
20
-50.2288310601304
30
0
41
1
10
33.7366150298478
20
-50.4105287951449
30
0
41
1
10
33.838628352257
20
-50.5950725233236
30
0
0
SPLINE
5
148
100
AcDbEntity
8
1
62
256
6
ByLayer
370
18
48
1
60
0
100
AcDbSpline
70
4
71
3
72
11
73
7
40
0
40
0
40
0
40
0
40
0.561398792047415
40
0.561398792047415
40
0.561398792047415
40
1
40
1
40
1
40
1
41
1
10
52.4102886894289
20
-42.3968586497906
30
0
41
1
10
52.2071970438715
20
-42.2245366895018
30
0
41
1
10
52.0043660454392
20
-42.0261194738453
30
0
41
1
10
51.8173270862446
20
-41.797815429463
30
0
41
1
10
51.6700109150288
20
-41.6179979313529
30
0
41
1
10
51.5312415573023
20
-41.4176625019758
30
0
41
1
10
51.4125855419802
20
-41.1998973405253
30
0
0
SPLINE
5
149
100
AcDbEntity
8
1
62
256
6
ByLayer
370
18
48
1
60
0
100
AcDbSpline
70
4
71
3
72
15
73
11
40
0
40
0
40
0
40
0
40
0.227604479949749
40
0.227604479949749
40
0.479423709218442
40
0.479423709218442
40
0.785574270382838
40
0.785574270382838
40
0.785574270382838
40
1
40
1
40
1
40
1
41
1
10
66.7910216857996
20
-42.4659268302485
30
0
41
1
10
66.9013877180395
20
-42.1428443513034
30
0
41
1
10
66.9647439470331
20
-41.797593390755
30
0
41
1
10
66.9999611315621
20
-41.0752314330451
30
0
41
1
10
66.962714152149
20
-40.6902210697106
30
0
41
1
10
66.7748384392612
20
-39.8719881549029
30
0
41
1
10
66.5992695192484
20
-39.4343160126821
30
0
41
1
10
66.3644438479628
20
-39.0381498390127
30
0
41
1
10
66.1989605210139
20
-38.7589687082424
30
0
41
1
10
66.0017318947264
20
-38.4964394033506
30
0
41
1
10
65.778726422627
20
-38.260943576977
30
0
0
SPLINE
5
14A
100
AcDbEntity
8
1
62
256
6
ByLayer
370
18
48
1
60
0
100
AcDbSpline
70
4
71
3
72
8
73
4
40
0
40
0
40
0
40
0
40
1
40
1
40
1
40
1
41
1
10
75.2453792120553
20
-47.230468541228
30
0
41
1
10
75.275296429244
20
-47.3038215046571
30
0
41
1
10
75.3025396900485
20
-47.3816082980331
30
0
41
1
10
75.326481016764
20
-47.4625408467741
30
0
0
SPLINE
5
14B
100
AcDbEntity
8
1
62
256
6
ByLayer
370
18
48
1
60
0
100
AcDbSpline
70
4
71
3
72
8
73
4
40
0
40
0
40
0
40
0
40
1
40
1
40
1
40
1
41
1
10
74.6730137689065
20
-44.7588917712485
30
0
41
1
10
74.7762852279551
20
-45.1559399680268
30
0
41
1
10
74.8786899766631
20
-45.5548172889063
30
0
41
1
10
74.9796757255322
20
-45.9534434422078
30
0
0
SPLINE
5
14C
100
AcDbEntity
8
1
62
256
6
ByLayer
370
18
48
1
60
0
100
AcDbSpline
70
4
71
3
72
8
73
4
40
0
40
0
40
0
40
0
40
1
40
1
40
1
40
1
41
1
10
53.0146936795398
20
-39.3497260443905
30
0
41
1
10
53.0011712819498
20
-39.3689618223423
30
0
41
1
10
52.9881621294107
20
-39.3883633666823
30
0
41
1
10
52.9756422792135
20
-39.4079233154273
30
0
0
SPLINE
5
14D
100
AcDbEntity
8
1
62
256
6
ByLayer
370
18
48
1
60
0
100
AcDbSpline
70
4
71
3
72
12
73
8
40
0
40
0
40
0
40
0
40
0.286978363858295
40
0.286978363858295
40
0.569998995185617
40
0.569998995185617
40
1
40
1
40
1
40
1
41
1
10
65.4038731004083
20
-44.4391628630789
30
0
41
1
10
65.5863115034628
20
-44.2929235542677
30
0
41
1
10
65.757595348462
20
-44.1310045577218
30
0
41
1
10
66.0686270180136
20
-43.7851986290043
30
0
41
1
10
66.2098456745223
20
-43.6004587508791
30
0
41
1
10
66.5241731779038
20
-43.1131504834679
30
0
41
1
10
66.678687344967
20
-42.7947178223396
30
0
41
1
10
66.7910216857996
20
-42.4659268302485
30
0
0
SPLINE
5
14E
100
AcDbEntity
8
1
62
256
6
ByLayer
370
18
48
1
60
0
100
AcDbSpline
70
4
71
3
72
10
73
6
40
0
40
0
40
0
40
0
40
0.264715639145586
40
0.264715639145586
40
1
40
1
40
1
40
1
41
1
10
72.9319494081266
20
-48.1245082142706
30
0
41
1
10
72.8831126858416
20
-48.0307277691706
30
0
41
1
10
72.8349037789669
20
-47.9356774906506
30
0
41
1
10
72.6549418149968
20
-47.5726500371603
30
0
41
1
10
72.5268424745021
20
-47.2975776746765
30
0
41
1
10
72.4023091251938
20
-47.0168252596199
30
0
0
SPLINE
5
14F
100
AcDbEntity
8
1
62
256
6
ByLayer
370
18
48
1
60
0
100
AcDbSpline
70
4
71
3
72
11
73
7
40
0
40
0
40
0
40
0
40
0.423407924939448
40
0.740963868644033
40
0.899741840496326
40
1
40
1
40
1
40
1
41
1.02805999725224
10
66.6805970519735
20
-36.3571385624201
30
0
41
1.02767136955277
10
67.3195614093899
20
-36.9372928326277
30
0
41
1.02349884684923
10
69.0811712801407
20
-39.6955143200869
30
0
41
1.01876555595691
10
71.0412046050184
20
-43.4116241963604
30
0
41
1.01635405201137
10
71.7860887136192
20
-44.8004823616133
30
0
41
1.01722454828226
10
72.1597572793273
20
-45.1108181613699
30
0
41
1.01774327987904
10
72.3200607915643
20
-45.2321325994338
30
0
0
SPLINE
5
150
100
AcDbEntity
8
1
62
256
6
ByLayer
370
18
48
1
60
0
100
AcDbSpline
70
4
71
3
72
10
73
6
40
0
40
0
40
0
40
0
40
0.5
40
0.5
40
1
40
1
40
1
40
1
41
1
10
52.9756422792135
20
-39.4079233154273
30
0
41
1
10
52.5838077579636
20
-40.0200922336967
30
0
41
1
10
52.373791581189
20
-40.6664558244605
30
0
41
1
10
52.2594664872109
20
-41.6331527443267
30
0
41
1
10
52.297891440626
20
-41.9755348149439
30
0
41
1
10
52.5050863358617
20
-42.3418078208953
30
0
0
SPLINE
5
151
100
AcDbEntity
8
1
62
256
6
ByLayer
370
18
48
1
60
0
100
AcDbSpline
70
4
71
3
72
15
73
11
40
0
40
0
40
0
40
0
40
0.322163720426457
40
0.322163720426457
40
0.644833452600229
40
0.644833452600229
40
0.912233455904555
40
0.912233455904555
40
0.912233455904555
40
1
40
1
40
1
40
1
41
1
10
61.1069691820685
20
-44.9065760786412
30
0
41
1
10
61.5509073484232
20
-45.1001749236039
30
0
41
1
10
62.0346285725004
20
-45.2193025609104
30
0
41
1
10
63.0001889181716
20
-45.3000328678215
30
0
41
1
10
63.495625335085
20
-45.2628807862832
30
0
41
1
10
64.3541763324439
20
-45.0454169911247
30
0
41
1
10
64.7355072877278
20
-44.8869734863347
30
0
41
1
10
65.0765789072511
20
-44.6721129281496
30
0
41
1
10
65.1899251327396
20
-44.6007096454295
30
0
41
1
10
65.2994975429606
20
-44.5228194439433
30
0
41
1
10
65.4038731004092
20
-44.4391628630791
30
0
0
SPLINE
5
152
100
AcDbEntity
8
1
62
256
6
ByLayer
370
18
48
1
60
0
100
AcDbSpline
70
4
71
3
72
8
73
4
40
0
40
0
40
0
40
0
40
1
40
1
40
1
40
1
41
1
10
63.4629782048446
20
-36.5381524957173
30
0
41
1
10
62.7080109531096
20
-36.0116291307899
30
0
41
1
10
61.8126586591562
20
-35.7931266020108
30
0
41
1
10
60.9430278807929
20
-35.8919327680035
30
0
0
SPLINE
5
153
100
AcDbEntity
8
1
62
256
6
ByLayer
370
18
48
1
60
0
100
AcDbSpline
70
4
71
3
72
12
73
8
40
0
40
0
40
0
40
0
40
0.471343086678517
40
0.471343086678517
40
0.892619726108217
40
0.892619726108217
40
1
40
1
40
1
40
1
41
1
10
59.6029271436475
20
-35.6605307145302
30
0
41
1
10
59.7649530013938
20
-35.7333894110346
30
0
41
1
10
59.9396399154553
20
-35.7956193083986
30
0
41
1
10
60.2776745833174
20
-35.8773314025642
30
0
41
1
10
60.4438721235654
20
-35.9011602162779
30
0
41
1
10
60.6445426178229
20
-35.9077667975398
30
0
41
1
10
60.6854674737094
20
-35.9079346225695
30
0
41
1
10
60.7258459392633
20
-35.9069210958073
30
0
0
SPLINE
5
154
100
AcDbEntity
8
1
62
256
6
ByLayer
370
18
48
1
60
0
100
AcDbSpline
70
4
71
3
72
8
73
4
40
0
40
0
40
0
40
0
40
1
40
1
40
1
40
1
41
1
10
56.531668906228
20
-40.0294335732667
30
0
41
1
10
55.1763513426434
20
-39.8768561355243
30
0
41
1
10
53.9351093612798
20
-39.6860398434026
30
0
41
1
10
53.1393851833284
20
-39.4530380476223
30
0
0
SPLINE
5
155
100
AcDbEntity
8
1
62
256
6
ByLayer
370
18
48
1
60
0
100
AcDbSpline
70
4
71
3
72
8
73
4
40
0
40
0
40
0
40
0
40
1
40
1
40
1
40
1
41
1
10
73.2412493130086
20
-50.4288087563458
30
0
41
1
10
73.1560180671859
20
-50.435061876181
30
0
41
1
10
73.0724552110457
20
-50.4373904042928
30
0
41
1
10
72.9920131786934
20
-50.4359096158297
30
0
0
SPLINE
5
156
100
AcDbEntity
8
1
62
256
6
ByLayer
370
18
48
1
60
0
100
AcDbSpline
70
4
71
3
72
8
73
4
40
0
40
0
40
0
40
0
40
1
40
1
40
1
40
1
41
1
10
56.531668906228
20
-40.0294335732667
30
0
41
1
10
56.3563726542351
20
-39.8431069859848
30
0
41
1
10
56.1680678218071
20
-39.6822747387451
30
0
41
1
10
55.9718191772624
20
-39.5411138680371
30
0
0
SPLINE
5
157
100
AcDbEntity
8
1
62
256
6
ByLayer
370
18
48
1
60
0
100
AcDbSpline
70
4
71
3
72
8
73
4
40
0
40
0
40
0
40
0
40
1
40
1
40
1
40
1
41
1
10
72.2925362106564
20
-40.9584053796009
30
0
41
1
10
72.724671706451
20
-41.64718107543
30
0
41
1
10
73.2120917731103
20
-42.2534855996761
30
0
41
1
10
73.6901729014571
20
-42.6895349422814
30
0
0
SPLINE
5
158
100
AcDbEntity
8
1
62
256
6
ByLayer
370
18
48
1
60
0
100
AcDbSpline
70
4
71
3
72
10
73
6
40
0
40
0
40
0
40
0
40
0.5
40
0.5
40
1
40
1
40
1
40
1
41
1
10
60.5631466305377
20
-30.8791173091197
30
0
41
1
10
60.1294749569349
20
-30.8320997189307
30
0
41
1
10
59.7741548820771
20
-30.9405193709385
30
0
41
1
10
58.8802984313642
20
-31.4145932792499
30
0
41
1
10
58.326242125478
20
-31.8512772988711
30
0
41
1
10
57.8854133341729
20
-32.4237132166448
30
0
0
SPLINE
5
159
100
AcDbEntity
8
1
62
256
6
ByLayer
370
18
48
1
60
0
100
AcDbSpline
70
4
71
3
72
11
73
7
40
0
40
0
40
0
40
0
40
0.423407924946023
40
0.74096386865554
40
0.899741840510299
40
1
40
1
40
1
40
1
41
1.02805999725224
10
59.6925043661209
20
-46.2977869065947
30
0
41
1.02767136955277
10
60.4556945815185
20
-46.7012283561055
30
0
41
1.02349884684923
10
63.6391512683912
20
-47.4368551479542
30
0
41
1.01876555595691
10
67.8115386755326
20
-48.0058639577941
30
0
41
1.01635405201144
10
69.382250944496
20
-48.2199713428073
30
0
41
1.01722454828215
10
69.8086251259016
20
-48.4553327518137
30
0
41
1.0177432798788
10
69.980642270715
20
-48.5599844024852
30
0
0
SPLINE
5
15A
100
AcDbEntity
8
1
62
256
6
ByLayer
370
18
48
1
60
0
100
AcDbSpline
70
4
71
3
72
10
73
6
40
0
40
0
40
0
40
0
40
0.5
40
0.5
40
1
40
1
40
1
40
1
41
1
10
72.2925362106562
20
-40.9584053796007
30
0
41
1
10
71.5934317835437
20
-39.8441110369058
30
0
41
1
10
70.8103389315795
20
-38.791534616976
30
0
41
1
10
69.0439764543355
20
-36.8334793641532
30
0
41
1
10
68.0980883668337
20
-35.9023223012154
30
0
41
1
10
67.0162821482196
20
-35.1325108305179
30
0
0
SPLINE
5
15B
100
AcDbEntity
8
1
62
256
6
ByLayer
370
18
48
1
60
0
100
AcDbSpline
70
4
71
3
72
8
73
4
40
0
40
0
40
0
40
0
40
1
40
1
40
1
40
1
41
1
10
65.7787264349845
20
-38.2609435555543
30
0
41
1
10
66.2444515625961
20
-37.4535723760532
30
0
41
1
10
66.5662640501884
20
-36.7742418721095
30
0
41
1
10
66.6805970519736
20
-36.3571385624201
30
0
0
SPLINE
5
15C
100
AcDbEntity
8
1
62
256
6
ByLayer
370
18
48
1
60
0
100
AcDbSpline
70
4
71
3
72
8
73
4
40
0
40
0
40
0
40
0
40
1
40
1
40
1
40
1
41
1
10
53.4975498099747
20
-41.9773500784024
30
0
41
1
10
54.3111212008292
20
-41.9256437602958
30
0
41
1
10
55.6818185424615
20
-41.5274365143838
30
0
41
1
10
57.1440292426825
20
-41.0020996824242
30
0
0
SPLINE
5
15D
100
AcDbEntity
8
1
62
256
6
ByLayer
370
18
48
1
60
0
100
AcDbSpline
70
4
71
3
72
8
73
4
40
0
40
0
40
0
40
0
40
1
40
1
40
1
40
1
41
1
10
57.2057057756849
20
-41.2083197230598
30
0
41
1
10
57.1883902872417
20
-41.1395434541669
30
0
41
1
10
57.167866669693
20
-41.0707720044375
30
0
41
1
10
57.1440292426863
20
-41.002099682432
30
0
0
SPLINE
5
15E
100
AcDbEntity
8
1
62
256
6
ByLayer
370
18
48
1
60
0
100
AcDbSpline
70
4
71
3
72
8
73
4
40
0
40
0
40
0
40
0
40
1
40
1
40
1
40
1
41
1
10
68.170167536976
20
-50.5418108998332
30
0
41
1
10
68.2646700976592
20
-50.5870533035487
30
0
41
1
10
68.3604571342462
20
-50.6300947575622
30
0
41
1
10
68.4573245401003
20
-50.6710823240257
30
0
0
SPLINE
5
15F
100
AcDbEntity
8
1
62
256
6
ByLayer
370
18
48
1
60
0
100
AcDbSpline
70
4
71
3
72
8
73
4
40
0
40
0
40
0
40
0
40
1
40
1
40
1
40
1
41
1
10
57.8439442310199
20
-32.4800573584896
30
0
41
1
10
57.8574666286099
20
-32.4608215805377
30
0
41
1
10
57.8712942688742
20
-32.4420474549291
30
0
41
1
10
57.8854133341729
20
-32.4237132166448
30
0
0
SPLINE
5
160
100
AcDbEntity
8
1
62
256
6
ByLayer
370
18
48
1
60
0
100
AcDbSpline
70
4
71
3
72
20
73
16
40
0
40
0
40
0
40
0
40
0.110576036200127
40
0.110576036200127
40
0.197179369122804
40
0.197179369122804
40
0.284291117387362
40
0.284291117387362
40
0.365904217918076
40
0.365904217918076
40
0.497270233392071
40
0.497270233392071
40
0.733496364826715
40
0.733496364826715
40
1
40
1
40
1
40
1
41
1
10
69.9806422707862
20
-48.5599844025286
30
0
41
1
10
69.9818525947682
20
-48.5195292637273
30
0
41
1
10
69.9925228571985
20
-48.4764823920036
30
0
41
1
10
70.0358569061825
20
-48.3989469414816
30
0
41
1
10
70.063949193764
20
-48.3639133573192
30
0
41
1
10
70.1377326106513
20
-48.2973969969753
30
0
41
1
10
70.1845513465468
20
-48.2651311812847
30
0
41
1
10
70.2854295657538
20
-48.2101097035019
30
0
41
1
10
70.3398500032968
20
-48.1862039056391
30
0
41
1
10
70.4850696042063
20
-48.1330368765812
30
0
41
1
10
70.5802343498069
20
-48.1081681150587
30
0
41
1
10
70.840321447275
20
-48.0560501370314
30
0
41
1
10
71.0063874401876
20
-48.0404138881483
30
0
41
1
10
71.344713501538
20
-48.0244613068803
30
0
41
1
10
71.5185799588945
20
-48.0266118808595
30
0
41
1
10
71.6869621642663
20
-48.0344151660985
30
0
0
SPLINE
5
161
100
AcDbEntity
8
1
62
256
6
ByLayer
370
18
48
1
60
0
100
AcDbSpline
70
4
71
3
72
8
73
4
40
0
40
0
40
0
40
0
40
1
40
1
40
1
40
1
41
1
10
57.2057057756848
20
-41.2083197230597
30
0
41
1
10
57.4174984705854
20
-42.0495498957919
30
0
41
1
10
57.9339402383636
20
-42.7979041587904
30
0
41
1
10
58.6912187313583
20
-43.326039411548
30
0
0
SPLINE
5
162
100
AcDbEntity
8
1
62
256
6
ByLayer
370
18
48
1
60
0
100
AcDbSpline
70
4
71
3
72
8
73
4
40
0
40
0
40
0
40
0
40
1
40
1
40
1
40
1
41
1
10
57.9761408683706
20
-32.5726932163307
30
0
41
1
10
58.4273533175633
20
-33.283081939427
30
0
41
1
10
59.0104090914835
20
-34.4247561634432
30
0
41
1
10
59.6029271436475
20
-35.6605307145301
30
0
0
SPLINE
5
163
100
AcDbEntity
8
1
62
256
6
ByLayer
370
18
48
1
60
0
100
AcDbSpline
70
4
71
1
72
4
73
2
40
0
40
0
40
1
40
1
41
1
10
66.6805970519736
20
-36.3571385624201
30
0
41
1
10
67.0162821482196
20
-35.1325108305179
30
0
0
SPLINE
5
164
100
AcDbEntity
8
1
62
256
6
ByLayer
370
18
48
1
60
0
100
AcDbSpline
70
4
71
3
72
10
73
6
40
0
40
0
40
0
40
0
40
0.5
40
0.5
40
1
40
1
40
1
40
1
41
1
10
72.3200607915637
20
-45.2321325994334
30
0
41
1
10
72.7654287656797
20
-45.033172052359
30
0
41
1
10
73.2156309455033
20
-44.8987847732068
30
0
41
1
10
74.1452000821504
20
-45.0195809267972
30
0
41
1
10
74.6250259521092
20
-45.3058319845309
30
0
41
1
10
74.9796757255322
20
-45.9534434422078
30
0
0
SPLINE
5
165
100
AcDbEntity
8
1
62
256
6
ByLayer
370
18
48
1
60
0
100
AcDbSpline
70
4
71
3
72
8
73
4
40
0
40
0
40
0
40
0
40
1
40
1
40
1
40
1
41
1
10
60.7258459392633
20
-35.9069210958073
30
0
41
1
10
60.798780416634
20
-35.9050903911556
30
0
41
1
10
60.8713440471797
20
-35.900077379417
30
0
41
1
10
60.9430278807929
20
-35.8919327680035
30
0
0
SPLINE
5
166
100
AcDbEntity
8
1
62
256
6
ByLayer
370
18
48
1
60
0
100
AcDbSpline
70
4
71
3
72
10
73
6
40
0
40
0
40
0
40
0
40
0.967465556419478
40
0.967465556419478
40
1
40
1
40
1
40
1
41
1
10
71.6869621642663
20
-48.0344151660985
30
0
41
1
10
72.0971292990659
20
-48.0533459687651
30
0
41
1
10
72.5008010805316
20
-48.0807556541278
30
0
41
1
10
72.9056268826054
20
-48.1217919779018
30
0
41
1
10
72.918795285688
20
-48.1231427217504
30
0
41
1
10
72.9319494081427
20
-48.1245082142723
30
0
0
SPLINE
5
167
100
AcDbEntity
8
1
62
256
6
ByLayer
370
18
48
1
60
0
100
AcDbSpline
70
4
71
3
72
8
73
4
40
0
40
0
40
0
40
0
40
1
40
1
40
1
40
1
41
1
10
60.7258459392633
20
-35.9069210958073
30
0
41
1
10
60.7352078782234
20
-34.3375058590739
30
0
41
1
10
60.6725467301941
20
-32.8779661577775
30
0
41
1
10
60.4856424958273
20
-32.0367017342278
30
0
0
SPLINE
5
168
100
AcDbEntity
8
1
62
256
6
ByLayer
370
18
48
1
60
0
100
AcDbSpline
70
4
71
2
72
6
73
3
40
0
40
0
40
0
40
1
40
1
40
1
41
1.02805999725224
10
59.6925043661209
20
-46.2977869065947
30
0
41
1.02805999725224
10
59.2162582225524
20
-46.6016971770989
30
0
41
1.02805999725224
10
58.7400120789839
20
-46.9056074476031
30
0
0
SPLINE
5
169
100
AcDbEntity
8
1
62
256
6
ByLayer
370
18
48
1
60
0
100
AcDbSpline
70
4
71
3
72
10
73
6
40
0
40
0
40
0
40
0
40
0.500000000000001
40
0.500000000000001
40
1
40
1
40
1
40
1
41
1
10
58.740012078984
20
-46.9056074476031
30
0
41
1
10
59.8395642763293
20
-47.6570561872706
30
0
41
1
10
61.0275652084998
20
-48.2160279963308
30
0
41
1
10
63.4664734664502
20
-49.1970784233673
30
0
41
1
10
64.7445227840464
20
-49.5767606172336
30
0
41
1
10
66.0410274716434
20
-49.851253941966
30
0
0
SPLINE
5
16A
100
AcDbEntity
8
1
62
256
6
ByLayer
370
18
48
1
60
0
100
AcDbSpline
70
4
71
3
72
20
73
16
40
0
40
0
40
0
40
0
40
0.332873226652389
40
0.332873226652389
40
0.501657261698207
40
0.501657261698207
40
0.631212321676506
40
0.631212321676506
40
0.722542323637661
40
0.722542323637661
40
0.814765347404186
40
0.814765347404186
40
0.8964213590388
40
0.8964213590388
40
1
40
1
40
1
40
1
41
1
10
72.4023091251938
20
-47.0168252596199
30
0
41
1
10
72.3184038550299
20
-46.8277711505886
30
0
41
1
10
72.2395502025458
20
-46.6270096850371
30
0
41
1
10
72.1451276722798
20
-46.2995919858795
30
0
41
1
10
72.1173416084946
20
-46.1837062946412
30
0
41
1
10
72.084422805524
20
-45.9717830356868
30
0
41
1
10
72.0754094373769
20
-45.8756176617148
30
0
41
1
10
72.0761763084407
20
-45.7146765209082
30
0
41
1
10
72.0813772445783
20
-45.6476727519807
30
0
41
1
10
72.1036291709274
20
-45.5239335863241
30
0
41
1
10
72.121245879153
20
-45.4657616193421
30
0
41
1
10
72.16354185215
20
-45.3747787586608
30
0
41
1
10
72.1875815377441
20
-45.3386626780622
30
0
41
1
10
72.2463412491463
20
-45.2739243503699
30
0
41
1
10
72.2828339815775
20
-45.2487593344947
30
0
41
1
10
72.3200607915637
20
-45.2321325994334
30
0
0
SPLINE
5
16B
100
AcDbEntity
8
1
62
256
6
ByLayer
370
18
48
1
60
0
100
AcDbSpline
70
4
71
3
72
8
73
4
40
0
40
0
40
0
40
0
40
1
40
1
40
1
40
1
41
1
10
61.1069691680978
20
-44.9065760725295
30
0
41
1
10
60.8415183437555
20
-44.7904500657899
30
0
41
1
10
60.591659802503
20
-44.6514301822416
30
0
41
1
10
60.3582789995896
20
-44.4886675652182
30
0
0
SPLINE
5
16C
100
AcDbEntity
8
1
62
256
6
ByLayer
370
18
48
1
60
0
100
AcDbSpline
70
4
71
3
72
8
73
4
40
0
40
0
40
0
40
0
40
1
40
1
40
1
40
1
41
1
10
59.6925043661209
20
-46.2977869065947
30
0
41
1
10
60.0169194341313
20
-46.0907656584311
30
0
41
1
10
60.5216397709413
20
-45.594342990478
30
0
41
1
10
61.1069691820685
20
-44.9065760786412
30
0
0
SPLINE
5
16D
100
AcDbEntity
8
1
62
256
6
ByLayer
370
18
48
1
60
0
100
AcDbSpline
70
4
71
3
72
12
73
8
40
0
40
0
40
0
40
0
40
0.466938972358615
40
0.466938972358615
40
0.928803236876555
40
0.928803236876555
40
1
40
1
40
1
40
1
41
1
10
57.1440292426863
20
-41.002099682432
30
0
41
1
10
57.0878976728209
20
-40.8403924126253
30
0
41
1
10
57.0070217403679
20
-40.673783223674
30
0
41
1
10
56.8163629261529
20
-40.3663878129927
30
0
41
1
10
56.7047489954459
20
-40.2209058756606
30
0
41
1
10
56.5688202607532
20
-40.069384560962
30
0
41
1
10
56.5503206149748
20
-40.0492589214885
30
0
41
1
10
56.531668906228
20
-40.0294335732667
30
0
0
SPLINE
5
16E
100
AcDbEntity
8
1
62
256
6
ByLayer
370
18
48
1
60
0
100
AcDbSpline
70
4
71
3
72
12
73
8
40
0
40
0
40
0
40
0
40
0.108854002841679
40
0.502629245107337
40
0.699516866240166
40
0.896404487372995
40
1
40
1
40
1
40
1
41
1.0244126255267
10
65.4038729712147
20
-44.439162788417
30
0
41
1.02394775696077
10
65.6974664131209
20
-44.6088317277938
30
0
41
1.02173322391444
10
67.090643180786
20
-45.4055728688571
30
0
41
1.01876555595691
10
69.0717778607227
20
-46.484312299872
30
0
41
1.01610930227499
10
70.4133484413467
20
-47.1801292358598
30
0
41
1.01814069306376
10
70.9806571004297
20
-47.5771364268238
30
0
41
1.0200519600697
10
71.4969114880801
20
-47.9135129800287
30
0
41
1.02076673234771
10
71.6869621642512
20
-48.0344151660888
30
0
0
SPLINE
5
16F
100
AcDbEntity
8
1
62
256
6
ByLayer
370
18
48
1
60
0
100
AcDbSpline
70
4
71
2
72
6
73
3
40
0
40
0
40
0
40
1
40
1
40
1
41
1
10
73.9160571102454
20
-42.9058898445327
30
0
41
1
10
74.3436533254026
20
-43.8211364275949
30
0
41
1
10
74.6729964307665
20
-44.7587715972065
30
0
0
SPLINE
5
170
100
AcDbEntity
8
1
62
256
6
ByLayer
370
18
48
1
60
0
100
AcDbSpline
70
4
71
3
72
8
73
4
40
0
40
0
40
0
40
0
40
1
40
1
40
1
40
1
41
1
10
65.7787264167838
20
-38.2609435708117
30
0
41
1
10
65.5833744144339
20
-38.0548254267145
30
0
41
1
10
65.3648091259566
20
-37.8645125647213
30
0
41
1
10
65.130038473076
20
-37.7007806493874
30
0
0
SPLINE
5
171
100
AcDbEntity
8
1
62
256
6
ByLayer
370
18
48
1
60
0
100
AcDbSpline
70
4
71
3
72
8
73
4
40
0
40
0
40
0
40
0
40
1
40
1
40
1
40
1
41
1
10
73.9162007089504
20
-42.905763403925
30
0
41
1
10
73.8424543568717
20
-42.8318858522707
30
0
41
1
10
73.7671342115007
20
-42.7597299921605
30
0
41
1
10
73.6901729014571
20
-42.6895349422814
30
0
0
SPLINE
5
172
100
AcDbEntity
8
1
62
256
6
ByLayer
370
18
48
1
60
0
100
AcDbSpline
70
4
71
3
72
8
73
4
40
0
40
0
40
0
40
0
40
1
40
1
40
1
40
1
41
1
10
59.6029271436475
20
-35.6605307145302
30
0
41
1
10
59.3702110787986
20
-35.5558845217781
30
0
41
1
10
59.1576038774852
20
-35.4296226950921
30
0
41
1
10
58.9613552329406
20
-35.2884618243842
30
0
0
SPLINE
5
173
100
AcDbEntity
8
1
62
256
6
ByLayer
370
18
48
1
60
0
100
AcDbSpline
70
4
71
3
72
10
73
6
40
0
40
0
40
0
40
0
40
0.5
40
0.5
40
1
40
1
40
1
40
1
41
1
10
71.6906995053149
20
-50.6320528256853
30
0
41
1
10
70.9580529328301
20
-50.5418101510476
30
0
41
1
10
70.4939415375947
20
-50.2208129039177
30
0
41
1
10
70.0193297565579
20
-49.4597236519281
30
0
41
1
10
69.9670035990108
20
-49.0144799975641
30
0
41
1
10
69.9806422707851
20
-48.5599844025279
30
0
0
SPLINE
5
174
100
AcDbEntity
8
1
62
256
6
ByLayer
370
18
48
1
60
0
100
AcDbSpline
70
4
71
2
72
6
73
3
40
0
40
0
40
0
40
1
40
1
40
1
41
1
10
70.4643902785698
20
-50.7455997107999
30
0
41
1
10
69.4667414009352
20
-50.757996690328
30
0
41
1
10
68.4573948661005
20
-50.6709042687445
30
0
0
SPLINE
5
175
100
AcDbEntity
8
1
62
256
6
ByLayer
370
18
48
1
60
0
100
AcDbSpline
70
4
71
3
72
10
73
6
40
0
40
0
40
0
40
0
40
0.655488757716273
40
0.655488757716273
40
1
40
1
40
1
40
1
41
1
10
60.9883670177087
20
-30.8570638721429
30
0
41
1
10
60.6902073350498
20
-30.6367430909832
30
0
41
1
10
60.3344984078498
20
-30.4206733807838
30
0
41
1
10
59.7110543348318
20
-30.1795141347189
30
0
41
1
10
59.4790145582316
20
-30.11185703069
30
0
41
1
10
59.236876632595
20
-30.06974641512
30
0
0
SPLINE
5
176
100
AcDbEntity
8
1
62
256
6
ByLayer
370
18
48
1
60
0
100
AcDbSpline
70
4
71
3
72
12
73
8
40
0
40
0
40
0
40
0
40
0.108853988607133
40
0.502629237162306
40
0.699516861439893
40
0.896404485717479
40
1
40
1
40
1
40
1
41
1.02441262532206
10
66.7910216857996
20
-42.4659268302485
30
0
41
1.02394775682001
10
67.0528831116854
20
-42.6807348729849
30
0
41
1.02173322384668
10
68.2886437562348
20
-43.7014023101832
30
0
41
1.01876555595691
10
70.003696181915
20
-45.1586469527043
30
0
41
1.01610930227499
10
71.1378943966724
20
-46.1494536459851
30
0
41
1.01814069306376
10
71.715972755076
20
-46.5311408063603
30
0
41
1.02005196006971
10
72.2195539006873
20
-46.8855452032412
30
0
41
1.02076673234773
10
72.4023091251853
20
-47.0168252596138
30
0
0
SPLINE
5
177
100
AcDbEntity
8
1
62
256
6
ByLayer
370
18
48
1
60
0
100
AcDbSpline
70
4
71
3
72
11
73
7
40
0
40
0
40
0
40
0
40
0.564783939443773
40
0.564783939443773
40
0.564783939443773
40
1
40
1
40
1
40
1
41
1
10
68.170167536976
20
-50.5418108998333
30
0
41
1
10
67.8438368327618
20
-50.3855824827609
30
0
41
1
10
67.4620850958552
20
-50.2254283132165
30
0
41
1
10
67.048964994168
20
-50.1023089383662
30
0
41
1
10
66.7279931134368
20
-50.0066518712354
30
0
41
1
10
66.3863928536042
20
-49.9243739953285
30
0
41
1
10
66.0410274716438
20
-49.851253941966
30
0
0
SPLINE
5
178
100
AcDbEntity
8
1
62
256
6
ByLayer
370
18
48
1
60
0
100
AcDbSpline
70
4
71
3
72
8
73
4
40
0
40
0
40
0
40
0
40
1
40
1
40
1
40
1
41
1
10
70.4644818170898
20
-50.7455805649092
30
0
41
1
10
70.8720073728294
20
-50.7098235431911
30
0
41
1
10
71.2814581978787
20
-50.6719240199645
30
0
41
1
10
71.6906995053385
20
-50.6320528256882
30
0
0
SPLINE
5
179
100
AcDbEntity
8
1
62
256
6
ByLayer
370
18
48
1
60
0
100
AcDbSpline
70
4
71
3
72
16
73
12
40
0
40
0
40
0
40
0
40
0.111412770144079
40
0.111412770144079
40
0.248965452398464
40
0.248965452398464
40
0.467123877727682
40
0.467123877727682
40
0.889866934614089
40
0.889866934614089
40
1
40
1
40
1
40
1
41
1
10
10.5386751345948
20
12.1330899674707
30
0
41
1
10
10.5108974058611
20
12.1330899674707
30
0
41
1
10
10.4827743882888
20
12.1381298129189
30
0
41
1
10
10.4244336825547
20
12.1582682733016
30
0
41
1
10
10.3942835753398
20
12.1755507890901
30
0
41
1
10
10.3250538187423
20
12.2280340568692
30
0
41
1
10
10.2893056457258
20
12.2684634146654
30
0
41
1
10
10.2004891336895
20
12.3937525277222
30
0
41
1
10
10.1593775082021
20
12.4875806371415
30
0
41
1
10
10.1200174011447
20
12.6072726192704
30
0
41
1
10
10.1125270066363
20
12.6323687416998
30
0
41
1
10
10.1056624327025
20
12.6576002058703
30
0
0
SPLINE
5
17A
100
AcDbEntity
8
1
62
256
6
ByLayer
370
18
48
1
60
0
100
AcDbSpline
70
4
71
3
72
10
73
6
40
0
40
0
40
0
40
0
40
0.5
40
0.5
40
1
40
1
40
1
40
1
41
1
10
60.1132074776488
20
-24.5003219732959
30
0
41
1
10
58.9095345096297
20
-24.3137827221674
30
0
41
1
10
57.6805416915809
20
-24.5322695517066
30
0
41
1
10
55.4721418359058
20
-25.5510517216859
30
0
41
1
10
54.4163937044901
20
-26.2436884017817
30
0
41
1
10
53.7066246016709
20
-27.252986950924
30
0
0
SPLINE
5
17B
100
AcDbEntity
8
1
62
256
6
ByLayer
370
18
48
1
60
0
100
AcDbSpline
70
4
71
3
72
10
73
6
40
0
40
0
40
0
40
0
40
0.380409167241295
40
0.380409167241295
40
1
40
1
40
1
40
1
41
1
10
10.5386751345948
20
-30.8567036886878
30
0
41
1
10
10.4562351620401
20
-30.9212901055292
30
0
41
1
10
10.3844110470353
20
-31.0071924289877
30
0
41
1
10
10.2264153584243
20
-31.2520296553806
30
0
41
1
10
10.1549704016743
20
-31.4276907604846
30
0
41
1
10
10.1056624327026
20
-31.6108572451631
30
0
0
SPLINE
5
17C
100
AcDbEntity
8
1
62
256
6
ByLayer
370
18
48
1
60
0
100
AcDbSpline
70
4
71
3
72
12
73
8
40
0
40
0
40
0
40
0
40
0.323508446938418
40
0.323508446938418
40
0.661742905177783
40
0.661742905177783
40
1
40
1
40
1
40
1
41
1
10
46.4852216790223
20
-44.2512732257493
30
0
41
1
10
46.4977304043991
20
-44.2726244846963
30
0
41
1
10
46.5103235902931
20
-44.293925881028
30
0
41
1
10
46.5362544795371
20
-44.3373944567008
30
0
41
1
10
46.5496001967519
20
-44.3595572750074
30
0
41
1
10
46.5764743345205
20
-44.403772135692
30
0
41
1
10
46.5900029919364
20
-44.4258245402861
30
0
41
1
10
46.6036219145061
20
-44.4478201966182
30
0
0
SPLINE
5
17D
100
AcDbEntity
8
1
62
256
6
ByLayer
370
18
48
1
60
0
100
AcDbSpline
70
4
71
3
72
16
73
12
40
0
40
0
40
0
40
0
40
0.463076323289429
40
0.463076323289429
40
0.645417922138913
40
0.645417922138913
40
0.830321639273325
40
0.830321639273325
40
0.944651290970197
40
0.944651290970197
40
1
40
1
40
1
40
1
41
1
10
13.8943375672974
20
-37.9445010117191
30
0
41
1
10
13.8656875508894
20
-37.9796292418725
30
0
41
1
10
13.8264948630637
20
-38.0140162383101
30
0
41
1
10
13.7459038605709
20
-38.0567528229612
30
0
41
1
10
13.7197885089044
20
-38.0683724898051
30
0
41
1
10
13.6590638298545
20
-38.0892608704532
30
0
41
1
10
13.6235548234214
20
-38.0987416550407
30
0
41
1
10
13.5583782361154
20
-38.1096208051146
30
0
41
1
10
13.531022511649
20
-38.112760822145
30
0
41
1
10
13.4892613583295
20
-38.1150674153361
30
0
41
1
10
13.4752661839161
20
-38.1154578595255
30
0
41
1
10
13.4613248654052
20
-38.1154578595255
30
0
0
SPLINE
5
17E
100
AcDbEntity
8
1
62
256
6
ByLayer
370
18
48
1
60
0
100
AcDbSpline
70
4
71
2
72
6
73
3
40
0
40
0
40
0
40
1
40
1
40
1
41
1.02613459695995
10
47.5250229200488
20
-38.761232307375
30
0
41
0.889137202354598
10
46.7805204831088
20
-38.2751042415973
30
0
41
0.877033632073645
10
46.7760505893193
20
-37.1119072826479
30
0
0
SPLINE
5
17F
100
AcDbEntity
8
1
62
256
6
ByLayer
370
18
48
1
60
0
100
AcDbSpline
70
4
71
2
72
9
73
6
40
0
40
0
40
0
40
0.419655468653539
40
0.629483202980308
40
0.944224804470462
40
1
40
1
40
1
41
1.02613459695995
10
62.7594986431973
20
-29.9234761103282
30
0
41
1.02613459695995
10
61.970736892121
20
-29.3479840063936
30
0
41
1.02613459695995
10
60.464432378227
20
-29.1298804030213
30
0
41
1.02613459695995
10
59.1081966509363
20
-29.2559293051275
30
0
41
1.02613459695995
10
58.1378744317815
20
-29.661989304148
30
0
41
1.02613459695995
10
57.9869506312606
20
-29.7391867809658
30
0
0
SPLINE
5
180
100
AcDbEntity
8
1
62
256
6
ByLayer
370
18
48
1
60
0
100
AcDbSpline
70
4
71
3
72
10
73
6
40
0
40
0
40
0
40
0
40
0.690272108908789
40
0.690272108908789
40
1
40
1
40
1
40
1
41
1
10
13.8943375672974
20
-31.6108572451632
30
0
41
1
10
13.8395431206921
20
-31.4073099003039
30
0
41
1
10
13.7572550106766
20
-31.2118792653169
30
0
41
1
10
13.5891377804999
20
-30.9767690746643
30
0
41
1
10
13.5287708184857
20
-30.9095432555258
30
0
41
1
10
13.4613248654052
20
-30.8567036886878
30
0
0
SPLINE
5
181
100
AcDbEntity
8
1
62
256
6
ByLayer
370
18
48
1
60
0
100
AcDbSpline
70
4
71
2
72
6
73
3
40
0
40
0
40
0
40
1
40
1
40
1
41
1
10
47.6751324191375
20
-38.8592473531643
30
0
41
1
10
47.6376050443654
20
-38.834743591717
30
0
41
1
10
47.6000776695932
20
-38.8102398302696
30
0
0
SPLINE
5
182
100
AcDbEntity
8
1
62
256
6
ByLayer
370
18
48
1
60
0
100
AcDbSpline
70
4
71
3
72
16
73
12
40
0
40
0
40
0
40
0
40
0.220164311736214
40
0.220164311736214
40
0.44025157394331
40
0.44025157394331
40
0.661568054532401
40
0.661568054532401
40
0.887054910705845
40
0.887054910705845
40
1
40
1
40
1
40
1
41
1
10
24.4649619288993
20
-39.1918358845308
30
0
41
1
10
24.0249554400601
20
-39.1918358845308
30
0
41
1
10
23.5788812100281
20
-39.1767745344767
30
0
41
1
10
22.748743766528
20
-39.1168280249642
30
0
41
1
10
22.3533163150555
20
-39.0710258389421
30
0
41
1
10
21.6634205599312
20
-38.9494112943255
30
0
41
1
10
21.360221163496
20
-38.8716473940044
30
0
41
1
10
20.8801324062671
20
-38.6870267045496
30
0
41
1
10
20.6992084038886
20
-38.5770846641935
30
0
41
1
10
20.5362596143729
20
-38.3957736759064
30
0
41
1
10
20.4992065060723
20
-38.3316671110084
30
0
41
1
10
20.4801831365323
20
-38.2654597950667
30
0
0
SPLINE
5
183
100
AcDbEntity
8
1
62
256
6
ByLayer
370
18
48
1
60
0
100
AcDbSpline
70
4
71
2
72
6
73
3
40
0
40
0
40
0
40
1
40
1
40
1
41
1.02613459695995
10
62.7594986431973
20
-29.9234761103282
30
0
41
0.893236016722495
10
63.5855180365642
20
-28.7484532988031
30
0
41
0.877869681319409
10
63.7653074305205
20
-27.5432969876192
30
0
0
SPLINE
5
184
100
AcDbEntity
8
1
62
256
6
ByLayer
370
18
48
1
60
0
100
AcDbSpline
70
4
71
3
72
44
73
40
40
0
40
0
40
0
40
0
40
0.0051940129842815
40
0.0051940129842815
40
0.0199009139484785
40
0.0199009139484785
40
0.129752220801895
40
0.129752220801895
40
0.239839599988264
40
0.239839599988264
40
0.428838263115793
40
0.428838263115793
40
0.549630989894469
40
0.549630989894469
40
0.669783011996357
40
0.669783011996357
40
0.866798446238538
40
0.866798446238538
40
0.966549493272314
40
0.966549493272314
40
0.991441201957735
40
0.991441201957735
40
0.997663557047695
40
0.997663557047695
40
0.999220062132424
40
0.999220062132424
40
0.999613367605924
40
0.999613367605924
40
0.999703345521725
40
0.999703345521725
40
0.999741176193597
40
0.999741176193597
40
0.999773455191516
40
0.999773455191516
40
0.999805393957844
40
0.999805393957844
40
0.999853555630031
40
0.999853555630031
40
1
40
1
40
1
40
1
41
1
10
50.7097630209151
20
-40.091076233646
30
0
41
1
10
50.7070906577036
20
-40.0907835426132
30
0
41
1
10
50.70440781072
20
-40.0905014477402
30
0
41
1
10
50.6940131247632
20
-40.0892765560322
30
0
41
1
10
50.6862786912478
20
-40.0882091202532
30
0
41
1
10
50.6213306929499
20
-40.0778870123743
30
0
41
1
10
50.5624625676551
20
-40.0593332794141
30
0
41
1
10
50.450198626483
20
-40.0021843780239
30
0
41
1
10
50.3955803317104
20
-39.9627486786864
30
0
41
1
10
50.2625219483739
20
-39.8380255383576
30
0
41
1
10
50.1853229688981
20
-39.7445024953703
30
0
41
1
10
50.060784314596
20
-39.6000875381699
30
0
41
1
10
50.0112206005561
20
-39.5434251166348
30
0
41
1
10
49.9515974286071
20
-39.4148913975115
30
0
41
1
10
49.9537299208223
20
-39.3400512944671
30
0
41
1
10
49.9337494984755
20
-39.1596984466624
30
0
41
1
10
49.922467656459
20
-39.0518223885769
30
0
41
1
10
49.9315537560682
20
-38.891080968628
30
0
41
1
10
49.9375219347928
20
-38.8374165191333
30
0
41
1
10
49.9480232195576
20
-38.7712367707299
30
0
41
1
10
49.9502766486679
20
-38.7580499253374
30
0
41
1
10
49.9532690422858
20
-38.7416210733045
30
0
41
1
10
49.9538818229681
20
-38.7383363798813
30
0
41
1
10
49.9546345654599
20
-38.7342409151149
30
0
41
1
10
49.9547941296972
20
-38.7334184179629
30
0
41
1
10
49.954944201644
20
-38.7324059189651
30
0
41
1
10
49.9549787264607
20
-38.7321975237173
30
0
41
1
10
49.9549703880298
20
-38.7319677822441
30
0
41
1
10
49.9549661847575
20
-38.7319253439817
30
0
41
1
10
49.9549458419221
20
-38.7318774861462
30
0
41
1
10
49.9549376435402
20
-38.7318648088364
30
0
41
1
10
49.9549172010055
20
-38.7318485430701
30
0
41
1
10
49.9549054000335
20
-38.7318438844748
30
0
41
1
10
49.9548791701018
20
-38.7318416295017
30
0
41
1
10
49.9548645218632
20
-38.7318438283244
30
0
41
1
10
49.9548272959728
20
-38.7318548257827
30
0
41
1
10
49.9548039340168
20
-38.7318662519762
30
0
41
1
10
49.9547117273849
20
-38.7319194176565
30
0
41
1
10
49.9546436158005
20
-38.7319747837913
30
0
41
1
10
49.9545773160166
20
-38.7320307498124
30
0
0
SPLINE
5
185
100
AcDbEntity
8
1
62
256
6
ByLayer
370
18
48
1
60
0
100
AcDbSpline
70
4
71
2
72
6
73
3
40
0
40
0
40
0
40
1
40
1
40
1
41
1
10
47.6000776695932
20
-38.8102398302696
30
0
41
1
10
47.562550294821
20
-38.7857360688223
30
0
41
1
10
47.5250229200488
20
-38.761232307375
30
0
0
SPLINE
5
186
100
AcDbEntity
8
1
62
256
6
ByLayer
370
18
48
1
60
0
100
AcDbSpline
70
4
71
3
72
42
73
38
40
0
40
0
40
0
40
0
40
0.0001456804616262
40
0.0001456804616262
40
0.0001937818189671
40
0.0001937818189671
40
0.0002315130640285
40
0.0002315130640285
40
0.0002608513558504
40
0.0002608513558504
40
0.0002901057420432
40
0.0002901057420432
40
0.0003386252962763
40
0.0003386252962763
40
0.0004943100886192
40
0.0004943100886192
40
0.0012382936990928
40
0.0012382936990928
40
0.0042003846492305
40
0.0042003846492305
40
0.0160478156098023
40
0.0160478156098023
40
0.0634551740720375
40
0.0634551740720375
40
0.254714643619098
40
0.254714643619098
40
0.445728494324814
40
0.445728494324814
40
0.588327686525898
40
0.588327686525898
40
0.775841690137131
40
0.775841690137131
40
0.886033327639575
40
0.886033327639575
40
0.994826727341174
40
0.994826727341174
40
1
40
1
40
1
40
1
41
1
10
56.4464893751836
20
-29.4971927380939
30
0
41
1
10
56.4464593449609
20
-29.4972727626234
30
0
41
1
10
56.4464307178449
20
-29.4973537073181
30
0
41
1
10
56.446408688656
20
-29.4974574128949
30
0
41
1
10
56.4464046539263
20
-29.4974830573943
30
0
41
1
10
56.4464033133889
20
-29.4975258119275
30
0
41
1
10
56.4464048314478
20
-29.4975438668512
30
0
41
1
10
56.4464136647329
20
-29.497570747825
30
0
41
1
10
56.4464197933189
20
-29.4975808771038
30
0
41
1
10
56.446435984525
20
-29.4975957352637
30
0
41
1
10
56.4464461637739
20
-29.497600674437
30
0
41
1
10
56.4464757233068
20
-29.4976080148549
30
0
41
1
10
56.4464970759989
20
-29.4976071184674
30
0
41
1
10
56.4465879033555
20
-29.4975929575422
30
0
41
1
10
56.4466628222437
20
-29.49756068144
30
0
41
1
10
56.4470868633462
20
-29.497367473753
30
0
41
1
10
56.4474396264279
20
-29.4971515695915
30
0
41
1
10
56.4491895491843
20
-29.4961292442024
30
0
41
1
10
56.4505874878868
20
-29.4952805225276
30
0
41
1
10
56.457584999248
20
-29.4910866429475
30
0
41
1
10
56.4632019228198
20
-29.4877475598991
30
0
41
1
10
56.4913918077604
20
-29.4712108687575
30
0
41
1
10
56.5142693928698
20
-29.4584365544481
30
0
41
1
10
56.6306835979584
20
-29.3968999266785
30
0
41
1
10
56.7297989435321
20
-29.3554160745661
30
0
41
1
10
56.9383373145767
20
-29.2971420096382
30
0
41
1
10
57.0485087667729
20
-29.2491577274341
30
0
41
1
10
57.245709440664
20
-29.2592001425662
30
0
41
1
10
57.3288426340213
20
-29.2935106117931
30
0
41
1
10
57.5188413647155
20
-29.3669967767742
30
0
41
1
10
57.6323756708692
20
-29.4066986231579
30
0
41
1
10
57.788489574453
20
-29.4960157479852
30
0
41
1
10
57.8412070090782
20
-29.5370374384528
30
0
41
1
10
57.9259025480786
20
-29.6283036092022
30
0
41
1
10
57.9592552914856
20
-29.6793270454576
30
0
41
1
10
57.9846994657794
20
-29.7341964530444
30
0
41
1
10
57.9858220461932
20
-29.7366980464171
30
0
41
1
10
57.9869506312606
20
-29.7391867809657
30
0
0
SPLINE
5
187
100
AcDbEntity
8
1
62
256
6
ByLayer
370
18
48
1
60
0
100
AcDbSpline
70
4
71
3
72
8
73
4
40
0
40
0
40
0
40
0
40
1
40
1
40
1
40
1
41
1
10
32.0783252283847
20
-43.8613907532005
30
0
41
1
10
31.6857659369263
20
-42.3520405057873
30
0
41
1
10
31.2989909243427
20
-40.8509279637549
30
0
41
1
10
30.92079238
20
-39.3585406477491
30
0
0
SPLINE
5
188
100
AcDbEntity
8
1
62
256
6
ByLayer
370
18
48
1
60
0
100
AcDbSpline
70
4
71
3
72
12
73
8
40
0
40
0
40
0
40
0
40
0.319932024559125
40
0.319932024559125
40
0.659954131885476
40
0.659954131885476
40
1
40
1
40
1
40
1
41
1
10
46.3704152775707
20
-44.0496139842635
30
0
41
1
10
46.3823917297869
20
-44.0712721734853
30
0
41
1
10
46.3944541741194
20
-44.09288238284
30
0
41
1
10
46.4195125385601
20
-44.1373588508062
30
0
41
1
10
46.4325197315633
20
-44.1602191605634
30
0
41
1
10
46.4587266174012
20
-44.2058293666309
30
0
41
1
10
46.4719265524371
20
-44.2285796533774
30
0
41
1
10
46.4852216782177
20
-44.2512732264337
30
0
0
SPLINE
5
189
100
AcDbEntity
8
1
62
256
6
ByLayer
370
18
48
1
60
0
100
AcDbSpline
70
4
71
2
72
11
73
8
40
0
40
0
40
0
40
0.0353878362392749
40
0.324771485367493
40
0.517693918119638
40
0.710616350871782
40
0.807077567247855
40
1
40
1
40
1
41
1
10
46.4852216790677
20
-44.2512732262701
30
0
41
1
10
46.4584911884151
20
-44.1547827484757
30
0
41
1
10
46.2444690565917
20
-43.2449983180792
30
0
41
1
10
46.3377106029027
20
-41.7330605731452
30
0
41
1
10
46.7905593144036
20
-40.2447619141073
30
0
41
1
10
47.0395105915066
20
-39.7414468189818
30
0
41
1
10
47.3456884873
20
-39.1721849228135
30
0
41
1
10
47.6000776695932
20
-38.8102398302696
30
0
0
SPLINE
5
18A
100
AcDbEntity
8
1
62
256
6
ByLayer
370
18
48
1
60
0
100
AcDbSpline
70
4
71
3
72
10
73
6
40
0
40
0
40
0
40
0
40
0.546460146737336
40
0.546460146737336
40
1
40
1
40
1
40
1
41
1
10
10.1056624327026
20
-32.5500361289974
30
0
41
1
10
10.1532894702054
20
-32.5790369710817
30
0
41
1
10
10.2200330642682
20
-32.6264013887656
30
0
41
1
10
10.3706988494231
20
-32.7310365694212
30
0
41
1
10
10.4518011249022
20
-32.7878417495995
30
0
41
1
10
10.5386751345948
20
-32.8559019493886
30
0
0
SPLINE
5
18B
100
AcDbEntity
8
1
62
256
6
ByLayer
370
18
48
1
60
0
100
AcDbSpline
70
4
71
3
72
12
73
8
40
0
40
0
40
0
40
0
40
0.319932000007884
40
0.319932000007884
40
0.659954096648712
40
0.659954096648712
40
1
40
1
40
1
40
1
41
1
10
60.3427272589024
20
-24.5388000102887
30
0
41
1
10
60.3183053532249
20
-24.5343953971366
30
0
41
1
10
60.2938649182134
20
-24.530086822492
30
0
41
1
10
60.2434133952493
20
-24.5213979441475
30
0
41
1
10
60.2173996100015
20
-24.5170300488241
30
0
41
1
10
60.1653326461168
20
-24.50851231117
30
0
41
1
10
60.1392790090177
20
-24.5043624095789
30
0
41
1
10
60.113207476384
20
-24.5003219730998
30
0
0
SPLINE
5
18C
100
AcDbEntity
8
1
62
256
6
ByLayer
370
18
48
1
60
0
100
AcDbSpline
70
4
71
3
72
8
73
4
40
0
40
0
40
0
40
0
40
1
40
1
40
1
40
1
41
1
10
46.6036219161947
20
-44.4478201993454
30
0
41
1
10
47.4173232517136
20
-45.7620133616782
30
0
41
1
10
48.940709230515
20
-46.5867845058198
30
0
41
1
10
50.4904148842672
20
-46.4269959511668
30
0
0
SPLINE
5
18D
100
AcDbEntity
8
1
62
256
6
ByLayer
370
18
48
1
60
0
100
AcDbSpline
70
4
71
3
72
16
73
12
40
0
40
0
40
0
40
0
40
0.463076323289495
40
0.463076323289495
40
0.645417922138952
40
0.645417922138952
40
0.830321639273342
40
0.830321639273342
40
0.944651290970198
40
0.944651290970198
40
1
40
1
40
1
40
1
41
1
10
10.1056624327026
20
-12.6576002058704
30
0
41
1
10
10.1343124491107
20
-12.5522940543948
30
0
41
1
10
10.1735051369363
20
-12.4476658274362
30
0
41
1
10
10.2540961394291
20
-12.316050897666
30
0
41
1
10
10.2802114910956
20
-12.2800720868289
30
0
41
1
10
10.3409361701455
20
-12.2151290969611
30
0
41
1
10
10.3764451765787
20
-12.1854983827961
30
0
41
1
10
10.4416217638846
20
-12.1514192676284
30
0
41
1
10
10.468977488351
20
-12.1415603847926
30
0
41
1
10
10.5107386416705
20
-12.1343167157599
30
0
41
1
10
10.5247338160839
20
-12.1330899674706
30
0
41
1
10
10.5386751345948
20
-12.1330899674706
30
0
0
SPLINE
5
18E
100
AcDbEntity
8
1
62
256
6
ByLayer
370
18
48
1
60
0
100
AcDbSpline
70
4
71
3
72
17
73
13
40
0
40
0
40
0
40
0
40
0.235332442491143
40
0.235332442491143
40
0.471136713493469
40
0.471136713493469
40
0.700015820239111
40
0.700015820239111
40
0.922834292490959
40
0.922834292490959
40
0.922834292490959
40
1
40
1
40
1
40
1
41
1
10
20.4801831365323
20
38.2654597950667
30
0
41
1
10
20.5194209041478
20
38.4020195812758
30
0
41
1
10
20.6373063347531
20
38.5303011915947
30
0
41
1
10
21.0178440905513
20
38.7528236419283
30
0
41
1
10
21.286398601713
20
38.8502199966213
30
0
41
1
10
21.9280618819204
20
39.0044749661866
30
0
41
1
10
22.306976321979
20
39.064783052523
30
0
41
1
10
23.1154544767483
20
39.1492023306163
30
0
41
1
10
23.5546346578651
20
39.1755426475843
30
0
41
1
10
23.9969433783026
20
39.1862176373753
30
0
41
1
10
24.1521113247018
20
39.1899625697431
30
0
41
1
10
24.3086759453026
20
39.1918358845308
30
0
41
1
10
24.4649619288993
20
39.1918358845308
30
0
0
SPLINE
5
18F
100
AcDbEntity
8
1
62
256
6
ByLayer
370
18
48
1
60
0
100
AcDbSpline
70
4
71
3
72
16
73
12
40
0
40
0
40
0
40
0
40
0.463076323289524
40
0.463076323289524
40
0.645417922138982
40
0.645417922138982
40
0.830321639273368
40
0.830321639273368
40
0.944651290970226
40
0.944651290970226
40
1
40
1
40
1
40
1
41
1
10
13.8943375672974
20
12.6576002058704
30
0
41
1
10
13.8656875508894
20
12.5522940543948
30
0
41
1
10
13.8264948630637
20
12.4476658274361
30
0
41
1
10
13.7459038605709
20
12.3160508976659
30
0
41
1
10
13.7197885089044
20
12.2800720868289
30
0
41
1
10
13.6590638298545
20
12.2151290969611
30
0
41
1
10
13.6235548234213
20
12.1854983827961
30
0
41
1
10
13.5583782361154
20
12.1514192676284
30
0
41
1
10
13.531022511649
20
12.1415603847926
30
0
41
1
10
13.4892613583295
20
12.1343167157599
30
0
41
1
10
13.4752661839161
20
12.1330899674705
30
0
41
1
10
13.4613248654052
20
12.1330899674705
30
0
0
SPLINE
5
190
100
AcDbEntity
8
1
62
256
6
ByLayer
370
18
48
1
60
0
100
AcDbSpline
70
4
71
3
72
8
73
4
40
0
40
0
40
0
40
0
40
1
40
1
40
1
40
1
41
1
10
29.6718532034808
20
-39.1918358845308
30
0
41
1
10
30.0231896005247
20
-39.2652108882744
30
0
41
1
10
30.44913049018
20
-39.3210445159816
30
0
41
1
10
30.92079238
20
-39.3585406477491
30
0
0
SPLINE
5
191
100
AcDbEntity
8
1
62
256
6
ByLayer
370
18
48
1
60
0
100
AcDbSpline
70
4
71
2
72
11
73
8
40
0
40
0
40
0
40
0.0079111861631882
40
0.305537830314232
40
0.503955593081594
40
0.702373355848956
40
0.801582237232638
40
1
40
1
40
1
41
1.02613459695995
10
60.1132074776487
20
-24.5003219732959
30
0
41
1.02613459695995
10
60.0916417056055
20
-24.5021365415843
30
0
41
1.02613459695995
10
59.2562702837497
20
-24.5797761793382
30
0
41
1.02613459695995
10
57.8825099411022
20
-25.1546667799841
30
0
41
1.02613459695995
10
56.6459987094327
20
-26.0695035509884
30
0
41
1.02613459695995
10
56.2585523859491
20
-26.4714719200211
30
0
41
1.02613459695995
10
55.8282311015515
20
-26.9498892240549
30
0
41
1.02613459695995
10
55.5737738391822
20
-27.3117844975401
30
0
0
SPLINE
5
192
100
AcDbEntity
8
1
62
256
6
ByLayer
370
18
48
1
60
0
100
AcDbSpline
70
4
71
3
72
8
73
4
40
0
40
0
40
0
40
0
40
1
40
1
40
1
40
1
41
1
10
33.838628352257
20
-50.5950725233236
30
0
41
1
10
33.2494268150543
20
-48.3511742889835
30
0
41
1
10
32.6622985565035
20
-46.1067083560627
30
0
41
1
10
32.0783252283847
20
-43.8613907532005
30
0
0
SPLINE
5
193
100
AcDbEntity
8
1
62
256
6
ByLayer
370
18
48
1
60
0
100
AcDbSpline
70
4
71
1
72
4
73
2
40
0
40
0
40
1
40
1
41
1
10
55.6488285887266
20
-27.3607920204348
30
0
41
1
10
55.5737738391823
20
-27.3117844975401
30
0
0
SPLINE
5
194
100
AcDbEntity
8
1
62
256
6
ByLayer
370
18
48
1
60
0
100
AcDbSpline
70
4
71
2
72
11
73
8
40
0
40
0
40
0
40
0.0353878362392791
40
0.324771485367495
40
0.51769391811964
40
0.710616350871784
40
0.807077567247856
40
1
40
1
40
1
41
1
10
60.3427272594344
20
-24.5388000101173
30
0
41
1
10
60.2445764066614
20
-24.5439058814797
30
0
41
1
10
59.3313250332941
20
-24.6287837022329
30
0
41
1
10
57.9575646906466
20
-25.2036743028787
30
0
41
1
10
56.7210534589771
20
-26.118511073883
30
0
41
1
10
56.3336071354935
20
-26.5204794429158
30
0
41
1
10
55.9032858510959
20
-26.9988967469496
30
0
41
1
10
55.6488285887266
20
-27.3607920204348
30
0
0
SPLINE
5
195
100
AcDbEntity
8
1
62
256
6
ByLayer
370
18
48
1
60
0
100
AcDbSpline
70
4
71
1
72
4
73
2
40
0
40
0
40
1
40
1
41
1
10
55.723883338271
20
-27.4097995433294
30
0
41
1
10
55.6488285887266
20
-27.3607920204348
30
0
0
SPLINE
5
196
100
AcDbEntity
8
1
62
256
6
ByLayer
370
18
48
1
60
0
100
AcDbSpline
70
4
71
2
72
11
73
8
40
0
40
0
40
0
40
0.0610623745695787
40
0.342743662198705
40
0.530531187284789
40
0.718318712370874
40
0.812212474913916
40
1
40
1
40
1
41
1
10
46.6036219161934
20
-44.447820199341
30
0
41
1
10
46.5515656021975
20
-44.2803898726593
30
0
41
1
10
46.3195238061361
20
-43.2940058409738
30
0
41
1
10
46.4127653524471
20
-41.7820680960399
30
0
41
1
10
46.865614063948
20
-40.2937694370019
30
0
41
1
10
47.114565341051
20
-39.7904543418764
30
0
41
1
10
47.4207432368444
20
-39.2211924457081
30
0
41
1
10
47.6751324191375
20
-38.8592473531643
30
0
0
SPLINE
5
197
100
AcDbEntity
8
1
62
256
6
ByLayer
370
18
48
1
60
0
100
AcDbSpline
70
4
71
3
72
10
73
6
40
0
40
0
40
0
40
0
40
0.5
40
0.5
40
1
40
1
40
1
40
1
41
1
10
46.7760502351665
20
-37.1118147738645
30
0
41
1
10
46.0732310782035
20
-38.1119371833091
30
0
41
1
10
45.7799427107029
20
-39.3263472458711
30
0
41
1
10
45.5669576765031
20
-41.7341506613792
30
0
41
1
10
45.7805389465477
20
-42.9828829567169
30
0
41
1
10
46.370415277869
20
-44.0496139856425
30
0
0
SPLINE
5
198
100
AcDbEntity
8
1
62
256
6
ByLayer
370
18
48
1
60
0
100
AcDbSpline
70
4
71
2
72
6
73
3
40
0
40
0
40
0
40
1
40
1
40
1
41
0.877033727687691
10
53.706722867928
20
-27.2529495449386
30
0
41
0.889137743459745
10
54.8292747959213
20
-26.8256586476888
30
0
41
1.02613459695995
10
55.5737738391823
20
-27.3117844975401
30
0
0
SPLINE
5
199
100
AcDbEntity
8
1
62
256
6
ByLayer
370
18
48
1
60
0
100
AcDbSpline
70
4
71
3
72
16
73
12
40
0
40
0
40
0
40
0
40
0.111412770144064
40
0.111412770144064
40
0.248965452398448
40
0.248965452398448
40
0.467123877727643
40
0.467123877727643
40
0.889866934613992
40
0.889866934613992
40
1
40
1
40
1
40
1
41
1
10
13.4613248654052
20
38.1154578595255
30
0
41
1
10
13.489102594139
20
38.1154578595255
30
0
41
1
10
13.5172256117112
20
38.1138543599703
30
0
41
1
10
13.5755663174453
20
38.1074356116134
30
0
41
1
10
13.6057164246602
20
38.1019214555357
30
0
41
1
10
13.6749461812577
20
38.0851194427551
30
0
41
1
10
13.7106943542742
20
38.0721266199021
30
0
41
1
10
13.7995108663105
20
38.0315976751082
30
0
41
1
10
13.8406224917979
20
38.0009250413257
30
0
41
1
10
13.8799825988553
20
37.9612613686127
30
0
41
1
10
13.8874729933637
20
37.9529177724503
30
0
41
1
10
13.8943375672975
20
37.9445010117191
30
0
0
SPLINE
5
19A
100
AcDbEntity
8
1
62
256
6
ByLayer
370
18
48
1
60
0
100
AcDbSpline
70
4
71
3
72
12
73
8
40
0
40
0
40
0
40
0
40
0.323508413868204
40
0.323508413868204
40
0.661742854657552
40
0.661742854657552
40
1
40
1
40
1
40
1
41
1
10
60.5686532097312
20
-24.5823903204978
30
0
41
1
10
60.5443515191498
20
-24.5773947649589
30
0
41
1
10
60.5200291070667
20
-24.572494242065
30
0
41
1
10
60.4702369563253
20
-24.5626653868936
30
0
41
1
10
60.4447649720519
20
-24.5577458597504
30
0
41
1
10
60.393777977755
20
-24.5481159120519
30
0
41
1
10
60.3682625370018
20
-24.5434054247526
30
0
41
1
10
60.3427272592515
20
-24.5388000093602
30
0
0
SPLINE
5
19B
100
AcDbEntity
8
1
62
256
6
ByLayer
370
18
48
1
60
0
100
AcDbSpline
70
4
71
2
72
9
73
6
40
0
40
0
40
0
40
0.419655468653539
40
0.629483202980309
40
0.944224804470464
40
1
40
1
40
1
41
1.02613459695995
10
52.4111046043114
20
-44.644194722973
30
0
41
1.02613459695995
10
51.6239222698686
20
-44.0664558793273
30
0
41
1.02613459695995
10
50.9384632401595
20
-42.6806894142838
30
0
41
1.02613459695995
10
50.6206269137387
20
-41.3296023153539
30
0
41
1.02613459695995
10
50.6864858130861
20
-40.2616818474644
30
0
41
1.02613459695995
10
50.7097630209151
20
-40.091076233646
30
0
0
SPLINE
5
19C
100
AcDbEntity
8
1
62
256
6
ByLayer
370
18
48
1
60
0
100
AcDbSpline
70
4
71
3
72
16
73
12
40
0
40
0
40
0
40
0
40
0.111412770144068
40
0.111412770144068
40
0.248965452398454
40
0.248965452398454
40
0.46712387772767
40
0.46712387772767
40
0.889866934614038
40
0.889866934614038
40
1
40
1
40
1
40
1
41
1
10
13.4613248654052
20
-12.1330899674707
30
0
41
1
10
13.489102594139
20
-12.1330899674707
30
0
41
1
10
13.5172256117112
20
-12.1381298129189
30
0
41
1
10
13.5755663174453
20
-12.1582682733016
30
0
41
1
10
13.6057164246602
20
-12.1755507890901
30
0
41
1
10
13.6749461812577
20
-12.2280340568692
30
0
41
1
10
13.7106943542742
20
-12.2684634146654
30
0
41
1
10
13.7995108663105
20
-12.3937525277222
30
0
41
1
10
13.8406224917979
20
-12.4875806371415
30
0
41
1
10
13.8799825988554
20
-12.6072726192704
30
0
41
1
10
13.8874729933637
20
-12.6323687416998
30
0
41
1
10
13.8943375672975
20
-12.6576002058703
30
0
0
SPLINE
5
19D
100
AcDbEntity
8
1
62
256
6
ByLayer
370
18
48
1
60
0
100
AcDbSpline
70
4
71
2
72
6
73
3
40
0
40
0
40
0
40
1
40
1
40
1
41
1.02613459695995
10
55.723883338271
20
-27.4097995433294
30
0
41
0.864503226079879
10
56.6272865616844
20
-27.9996829873922
30
0
41
0.876719039568545
10
56.4464355358015
20
-29.4972353585483
30
0
0
SPLINE
5
19E
100
AcDbEntity
8
1
62
256
6
ByLayer
370
18
48
1
60
0
100
AcDbSpline
70
4
71
3
72
8
73
4
40
0
40
0
40
0
40
0
40
1
40
1
40
1
40
1
41
1
10
30.9609847588647
20
39.3449170795923
30
0
41
1
10
30.9475863238364
20
39.2938902556526
30
0
41
1
10
30.9341888605478
20
39.2428631915385
30
0
41
1
10
30.92079238
20
39.1918358845308
30
0
0
SPLINE
5
19F
100
AcDbEntity
8
1
62
256
6
ByLayer
370
18
48
1
60
0
100
AcDbSpline
70
4
71
3
72
16
73
12
40
0
40
0
40
0
40
0
40
0.463076323289435
40
0.463076323289435
40
0.645417922138904
40
0.645417922138904
40
0.830321639273306
40
0.830321639273306
40
0.944651290970179
40
0.944651290970179
40
1
40
1
40
1
40
1
41
1
10
10.1056624327026
20
37.9445010117191
30
0
41
1
10
10.1343124491107
20
37.9796292418725
30
0
41
1
10
10.1735051369363
20
38.0140162383101
30
0
41
1
10
10.2540961394291
20
38.0567528229612
30
0
41
1
10
10.2802114910956
20
38.0683724898051
30
0
41
1
10
10.3409361701455
20
38.0892608704532
30
0
41
1
10
10.3764451765787
20
38.0987416550407
30
0
41
1
10
10.4416217638846
20
38.1096208051146
30
0
41
1
10
10.468977488351
20
38.112760822145
30
0
41
1
10
10.5107386416705
20
38.1150674153361
30
0
41
1
10
10.5247338160839
20
38.1154578595255
30
0
41
1
10
10.5386751345948
20
38.1154578595255
30
0
0
SPLINE
5
1A0
100
AcDbEntity
8
1
62
256
6
ByLayer
370
18
48
1
60
0
100
AcDbSpline
70
4
71
2
72
6
73
3
40
0
40
0
40
0
40
1
40
1
40
1
41
0.876719220473473
10
49.9545962167833
20
-38.7319752563762
30
0
41
0.864502029337191
10
48.5785435820861
20
-39.449135981402
30
0
41
1.02613459695995
10
47.6751324191375
20
-38.8592473531643
30
0
0
SPLINE
5
1A1
100
AcDbEntity
8
1
62
256
6
ByLayer
370
18
48
1
60
0
100
AcDbSpline
70
4
71
2
72
11
73
8
40
0
40
0
40
0
40
0.0079111859457824
40
0.305537830162048
40
0.503955592972891
40
0.702373355783735
40
0.801582237189157
40
1
40
1
40
1
41
1.02613459695995
10
46.3704152775793
20
-44.0496139844557
30
0
41
1.02613459695995
10
46.3651851294689
20
-44.0281909262998
30
0
41
1.02613459695995
10
46.1694143070473
20
-43.1959907951846
30
0
41
1.02613459695995
10
46.2626558533583
20
-41.6840530502506
30
0
41
1.02613459695995
10
46.7155045648593
20
-40.1957543912127
30
0
41
1.02613459695995
10
46.9644558419622
20
-39.6924392960871
30
0
41
1.02613459695995
10
47.2706337377557
20
-39.1231773999188
30
0
41
1.02613459695995
10
47.5250229200488
20
-38.761232307375
30
0
0
SPLINE
5
1A2
100
AcDbEntity
8
1
62
256
6
ByLayer
370
18
48
1
60
0
100
AcDbSpline
70
4
71
3
72
16
73
12
40
0
40
0
40
0
40
0
40
0.111412770144075
40
0.111412770144075
40
0.248965452398453
40
0.248965452398453
40
0.467123877727669
40
0.467123877727669
40
0.88986693461412
40
0.88986693461412
40
1
40
1
40
1
40
1
41
1
10
10.5386751345948
20
-38.1154578595255
30
0
41
1
10
10.5108974058611
20
-38.1154578595255
30
0
41
1
10
10.4827743882888
20
-38.1138543599703
30
0
41
1
10
10.4244336825547
20
-38.1074356116134
30
0
41
1
10
10.3942835753398
20
-38.1019214555357
30
0
41
1
10
10.3250538187423
20
-38.0851194427551
30
0
41
1
10
10.2893056457258
20
-38.0721266199021
30
0
41
1
10
10.2004891336895
20
-38.0315976751082
30
0
41
1
10
10.1593775082021
20
-38.0009250413257
30
0
41
1
10
10.1200174011447
20
-37.9612613686127
30
0
41
1
10
10.1125270066363
20
-37.9529177724503
30
0
41
1
10
10.1056624327025
20
-37.9445010117191
30
0
0
SPLINE
5
1A3
100
AcDbEntity
8
1
62
256
6
ByLayer
370
18
48
1
60
0
100
AcDbSpline
70
4
71
2
72
11
73
8
40
0
40
0
40
0
40
0.0610623745695851
40
0.34274366219871
40
0.530531187284793
40
0.718318712370876
40
0.812212474913917
40
1
40
1
40
1
41
1
10
60.568653213216
20
-24.5823903202929
30
0
41
1
10
60.3965226579059
20
-24.5857670881584
30
0
41
1
10
59.4063797828385
20
-24.6777912251275
30
0
41
1
10
58.032619440191
20
-25.2526818257733
30
0
41
1
10
56.7961082085215
20
-26.1675185967777
30
0
41
1
10
56.4086618850379
20
-26.5694869658104
30
0
41
1
10
55.9783406006403
20
-27.0479042698442
30
0
41
1
10
55.723883338271
20
-27.4097995433294
30
0
0
SPLINE
5
1A4
100
AcDbEntity
8
1
62
256
6
ByLayer
370
18
48
1
60
0
100
AcDbSpline
70
4
71
3
72
12
73
8
40
0
40
0
40
0
40
0
40
0.451505342912863
40
0.451505342912863
40
0.920730471122993
40
0.920730471122993
40
1
40
1
40
1
40
1
41
1
10
13.4613248654052
20
-32.8559019493886
30
0
41
1
10
13.547661047609
20
-32.7882631028496
30
0
41
1
10
13.6282992629309
20
-32.7317451066233
30
0
41
1
10
13.7673195883123
20
-32.6351717636459
30
0
41
1
10
13.8267012384145
20
-32.5939267398204
30
0
41
1
10
13.8799694443486
20
-32.5590173496637
30
0
41
1
10
13.8873502204194
20
-32.554290832922
30
0
41
1
10
13.8943375672975
20
-32.550036128997
30
0
0
SPLINE
5
1A5
100
AcDbEntity
8
1
62
256
6
ByLayer
370
18
48
1
60
0
100
AcDbSpline
70
4
71
2
72
6
73
3
40
0
40
0
40
0
40
1
40
1
40
1
41
0.877869679988385
10
50.4904147877876
20
-46.4269960047338
30
0
41
0.89323601096669
10
51.5850851698471
20
-45.8192175929597
30
0
41
1.02613459695995
10
52.4111046043114
20
-44.644194722973
30
0
0
SPLINE
5
1A6
100
AcDbEntity
8
1
62
256
6
ByLayer
370
18
48
1
60
0
100
AcDbSpline
70
4
71
3
72
15
73
11
40
0
40
0
40
0
40
0
40
0.287801217906046
40
0.287801217906046
40
0.580633313242737
40
0.580633313242737
40
0.87107153239475
40
0.87107153239475
40
0.87107153239475
40
1
40
1
40
1
40
1
41
1
10
63.7653074305205
20
-27.5432969876193
30
0
41
1
10
63.6578408672349
20
-27.1168707976617
30
0
41
1
10
63.4768707834917
20
-26.7035534130225
30
0
41
1
10
62.9909775006235
20
-25.9641369391289
30
0
41
1
10
62.6766923414218
20
-25.6300801468646
30
0
41
1
10
61.9672270035285
20
-25.0943247288842
30
0
41
1
10
61.5648452655464
20
-24.8835518860551
30
0
41
1
10
61.1450384881725
20
-24.739308728546
30
0
41
1
10
60.9568332910283
20
-24.6746425217127
30
0
41
1
10
60.7638154318809
20
-24.6225086693238
30
0
41
1
10
60.5686532132206
20
-24.5823903202928
30
0
0
SPLINE
5
1A7
100
AcDbEntity
8
SK1
62
256
6
ByLayer
370
18
48
1
60
0
100
AcDbSpline
70
4
71
3
72
22
73
18
40
0
40
0
40
0
40
0
40
0.351178839520644
40
0.351178839520644
40
0.705337869169046
40
0.705337869169046
40
0.812145382793219
40
0.812145382793219
40
0.852465533746091
40
0.852465533746091
40
0.893471625808601
40
0.893471625808601
40
0.930614638571552
40
0.930614638571552
40
0.970742440112555
40
0.970742440112555
40
1
40
1
40
1
40
1
41
1
10
-1.30710678118655
20
-4.39323937970204
30
0
41
1
10
-1.26636350256146
20
-4.62343528906808
30
0
41
1
10
-1.21781497106187
20
-4.85138819750028
30
0
41
1
10
-1.09024836612519
20
-5.29777381436577
30
0
41
1
10
-1.01544432095776
20
-5.52235561861329
30
0
41
1
10
-0.850589253306595
20
-5.77920802132755
30
0
41
1
10
-0.806248488510818
20
-5.83742588650495
30
0
41
1
10
-0.729216148055542
20
-5.90188259982583
30
0
41
1
10
-0.705961072671698
20
-5.91804026534476
30
0
41
1
10
-0.6553282616388
20
-5.94346452812465
30
0
41
1
10
-0.627111790028749
20
-5.95278241265126
30
0
41
1
10
-0.572477185654549
20
-5.95918871606577
30
0
41
1
10
-0.545441337239339
20
-5.95730944596096
30
0
41
1
10
-0.492971508296506
20
-5.94432172621575
30
0
41
1
10
-0.467008693786141
20
-5.93251770241088
30
0
41
1
10
-0.426325229838
20
-5.90753636851105
30
0
41
1
10
-0.410149891228343
20
-5.8954423815093
30
0
41
1
10
-0.394976888875306
20
-5.88246916452647
30
0
0
SPLINE
5
1A8
100
AcDbEntity
8
SK1
62
256
6
ByLayer
370
18
48
1
60
0
100
AcDbSpline
70
4
71
3
72
22
73
18
40
0
40
0
40
0
40
0
40
0.0276166365282319
40
0.0276166365282319
40
0.0512803322740547
40
0.0512803322740547
40
0.0708603965379409
40
0.0708603965379409
40
0.090380093346293
40
0.090380093346293
40
0.120092976656525
40
0.120092976656525
40
0.17636244514628
40
0.17636244514628
40
0.365833743480983
40
0.365833743480983
40
1
40
1
40
1
40
1
41
1
10
-0.394976888875306
20
-5.8824691645265
30
0
41
1
10
-0.389431041122748
20
-5.87772735505641
30
0
41
1
10
-0.383385953788945
20
-5.87346388577339
30
0
41
1
10
-0.371253136804086
20
-5.86750502434097
30
0
41
1
10
-0.365168155452693
20
-5.86550357178899
30
0
41
1
10
-0.353783340186652
20
-5.86416305490636
30
0
41
1
10
-0.348415700631762
20
-5.8644368109656
30
0
41
1
10
-0.338160192115595
20
-5.86679920261022
30
0
41
1
10
-0.333157430693546
20
-5.8688948004563
30
0
41
1
10
-0.321590654821335
20
-5.87567407240635
30
0
41
1
10
-0.315341997586501
20
-5.88118861362102
30
0
41
1
10
-0.299493306550033
20
-5.89858604824292
30
0
41
1
10
-0.291331302219049
20
-5.91203800602841
30
0
41
1
10
-0.261121692327634
20
-5.97162491315763
30
0
41
1
10
-0.248739051700483
20
-6.0224672435852
30
0
41
1
10
-0.204967444810421
20
-6.23921058743332
30
0
41
1
10
-0.200000000000131
20
-6.40949348740787
30
0
41
1
10
-0.200000000000131
20
-6.5765733851174
30
0
0
SPLINE
5
1A9
100
AcDbEntity
8
SK1
62
256
6
ByLayer
370
18
48
1
60
0
100
AcDbSpline
70
4
71
3
72
24
73
20
40
0
40
0
40
0
40
0
40
0.492398027467297
40
0.492398027467297
40
0.668310127338887
40
0.668310127338887
40
0.846552263551715
40
0.846552263551715
40
0.878720061957176
40
0.878720061957176
40
0.911383033672033
40
0.911383033672033
40
0.931691696537726
40
0.931691696537726
40
0.952093014736929
40
0.952093014736929
40
0.977060216128482
40
0.977060216128482
40
1
40
1
40
1
40
1
41
1
10
-0.199999999999989
20
6.57657332251966
30
0
41
1
10
-0.199999999999989
20
6.44656682134715
30
0
41
1
10
-0.204502849321955
20
6.31531168325708
30
0
41
1
10
-0.22658226632123
20
6.13779637612024
30
0
41
1
10
-0.233974873652613
20
6.09095488980503
30
0
41
1
10
-0.255353240585578
20
5.99815512584252
30
0
41
1
10
-0.268322675838249
20
5.95031064681498
30
0
41
1
10
-0.298180738230542
20
5.90175502052423
30
0
41
1
10
-0.303352297620847
20
5.89445922534449
30
0
41
1
10
-0.315220218164853
20
5.88122229558002
30
0
41
1
10
-0.322100367577747
20
5.8751473394189
30
0
41
1
10
-0.334669352278866
20
5.86818428946984
30
0
41
1
10
-0.339945766887325
20
5.86618567675112
30
0
41
1
10
-0.350686231006961
20
5.86421072309605
30
0
41
1
10
-0.356276575016608
20
5.86423055154356
30
0
41
1
10
-0.368095241519796
20
5.86629174119176
30
0
41
1
10
-0.374371038114703
20
5.86876466767734
30
0
41
1
10
-0.385406500566859
20
5.87491523412279
30
0
41
1
10
-0.390359298661082
20
5.87852089336147
30
0
41
1
10
-0.394976888875476
20
5.88246902087073
30
0
0
SPLINE
5
1AA
100
AcDbEntity
8
SK1
62
256
6
ByLayer
370
18
48
1
60
0
100
AcDbSpline
70
4
71
3
72
20
73
16
40
0
40
0
40
0
40
0
40
0.0406496435711221
40
0.0406496435711221
40
0.0819863282288912
40
0.0819863282288912
40
0.119736700183756
40
0.119736700183756
40
0.159331058537076
40
0.159331058537076
40
0.224709017028566
40
0.224709017028566
40
0.413512533702565
40
0.413512533702565
40
1
40
1
40
1
40
1
41
1
10
-0.394976888875306
20
5.88246902087485
30
0
41
1
10
-0.416011566091896
20
5.90045407019966
30
0
41
1
10
-0.439061088384989
20
5.91682924661433
30
0
41
1
10
-0.489461725990026
20
5.94275107838655
30
0
41
1
10
-0.517648772344813
20
5.95236129920661
30
0
41
1
10
-0.572820404185563
20
5.95923768888179
30
0
41
1
10
-0.600427368008212
20
5.95744746962771
30
0
41
1
10
-0.6533388581515
20
5.94441127726415
30
0
41
1
10
-0.679289501071992
20
5.93273995114203
30
0
41
1
10
-0.741510950838659
20
5.89499382317194
30
0
41
1
10
-0.775142572169273
20
5.86418184504058
30
0
41
1
10
-0.88970219535733
20
5.73722946406002
30
0
41
1
10
-0.948923318613026
20
5.62404508257811
30
0
41
1
10
-1.15697823913786
20
5.15876570946281
30
0
41
1
10
-1.23929188630865
20
4.77638761348985
30
0
41
1
10
-1.30710678118655
20
4.3932391538923
30
0
0
SPLINE
5
1AB
100
AcDbEntity
8
SK1
62
256
6
ByLayer
370
18
48
1
60
0
100
AcDbSpline
70
4
71
3
72
10
73
6
40
0
40
0
40
0
40
0
40
0.5
40
0.5
40
1
40
1
40
1
40
1
41
1
10
-1.30710678118655
20
-4.39323937970207
30
0
41
1
10
-1.55689427820664
20
-2.98196218343324
30
0
41
1
10
-1.74566864435397
20
-1.49340994193867
30
0
41
1
10
-1.7456595855767
20
1.49352420170632
30
0
41
1
10
-1.55700927680107
20
2.98131104552101
30
0
41
1
10
-1.30710678118658
20
4.39323915389227
30
0
0
LINE
5
72
100
AcDbEntity
8
1
62
256
6
ByLayer
370
18
48
1
60
0
100
AcDbLine
10
62.496432
20
-39.466889
30
0
11
62.66277
21
-39.633227
31
0
39
0
210
0
220
0
230
1
0
LINE
5
74
100
AcDbEntity
8
1
62
256
6
ByLayer
370
18
48
1
60
0
100
AcDbLine
10
58.970608
20
-43.212866
30
0
11
59.143804
21
-43.386062
31
0
39
0
210
0
220
0
230
1
0
LINE
5
75
100
AcDbEntity
8
1
62
256
6
ByLayer
370
18
48
1
60
0
100
AcDbLine
10
64.800658
20
-37.729208
30
0
11
64.627462
21
-37.556012
31
0
39
0
210
0
220
0
230
1
0
LINE
5
76
100
AcDbEntity
8
1
62
256
6
ByLayer
370
18
48
1
60
0
100
AcDbLine
10
20.13534
20
-33.682324
30
0
11
25.752685
21
-36.094986
31
0
39
0
210
0
220
0
230
1
0
LINE
5
77
100
AcDbEntity
8
1
62
256
6
ByLayer
370
18
48
1
60
0
100
AcDbLine
10
78.854726
20
-42.474772
30
0
11
78.359869
21
-41.979914
31
0
39
0
210
0
220
0
230
1
0
LINE
5
78
100
AcDbEntity
8
1
62
256
6
ByLayer
370
18
48
1
60
0
100
AcDbLine
10
52.411681
20
-42.39806
30
0
11
52.934149
21
-42.843155
31
0
39
0
210
0
220
0
230
1
0
LINE
5
79
100
AcDbEntity
8
1
62
256
6
ByLayer
370
18
48
1
60
0
100
AcDbLine
10
30.920792
20
40
30
0
11
0.3
21
40
31
0
39
0
210
0
220
0
230
1
0
LINE
5
7A
100
AcDbEntity
8
1
62
256
6
ByLayer
370
18
48
1
60
0
100
AcDbLine
10
0.3
20
40
30
0
11
0
21
39.7
31
0
39
0
210
0
220
0
230
1
0
LINE
5
7B
100
AcDbEntity
8
1
62
256
6
ByLayer
370
18
48
1
60
0
100
AcDbLine
10
0
20
-39.7
30
0
11
0.3
21
-40
31
0
39
0
210
0
220
0
230
1
0
LINE
5
7C
100
AcDbEntity
8
1
62
256
6
ByLayer
370
18
48
1
60
0
100
AcDbLine
10
30.960985
20
40.15
30
0
11
30.920792
21
40
31
0
39
0
210
0
220
0
230
1
0
LINE
5
7D
100
AcDbEntity
8
1
62
256
6
ByLayer
370
18
48
1
60
0
100
AcDbLine
10
66.979914
20
-53.359869
30
0
11
67.474772
21
-53.854726
31
0
39
0
210
0
220
0
230
1
0
LINE
5
7E
100
AcDbEntity
8
1
62
256
6
ByLayer
370
18
48
1
60
0
100
AcDbLine
10
30.920792
20
-40
30
0
11
33.615391
21
-50.05638
31
0
39
0
210
0
220
0
230
1
0
LINE
5
7F
100
AcDbEntity
8
1
62
256
6
ByLayer
370
18
48
1
60
0
100
AcDbLine
10
60.773372
20
-40.204118
30
0
11
60.753229
21
-40.183975
31
0
39
0
210
0
220
0
230
1
0
LINE
5
80
100
AcDbEntity
8
1
62
256
6
ByLayer
370
18
48
1
60
0
100
AcDbLine
10
61.434316
20
-41.634667
30
0
11
61.267977
21
-41.468328
31
0
39
0
210
0
220
0
230
1
0
LINE
5
81
100
AcDbEntity
8
1
62
256
6
ByLayer
370
18
48
1
60
0
100
AcDbLine
10
63.157376
20
-40.897437
30
0
11
63.323715
21
-41.063776
31
0
39
0
210
0
220
0
230
1
0
LINE
5
82
100
AcDbEntity
8
1
62
256
6
ByLayer
370
18
48
1
60
0
100
AcDbLine
10
0.3
20
-40
30
0
11
30.920792
21
-40
31
0
39
0
210
0
220
0
230
1
0
LINE
5
83
100
AcDbEntity
8
1
62
256
6
ByLayer
370
18
48
1
60
0
100
AcDbLine
10
31.28932
20
40.15
30
0
11
30.960985
21
40.15
31
0
39
0
210
0
220
0
230
1
0
LINE
5
84
100
AcDbEntity
8
1
62
256
6
ByLayer
370
18
48
1
60
0
100
AcDbLine
10
25.822536
20
-36.090327
30
0
11
26.139736
21
-35.958421
31
0
39
0
210
0
220
0
230
1
0
LINE
5
85
100
AcDbEntity
8
1
62
256
6
ByLayer
370
18
48
1
60
0
100
AcDbLine
10
27.656559
20
-32.426838
30
0
11
27.533824
21
-32.105978
31
0
39
0
210
0
220
0
230
1
0
LINE
5
86
100
AcDbEntity
8
1
62
256
6
ByLayer
370
18
48
1
60
0
100
AcDbLine
10
56.229167
20
-39.742286
30
0
11
55.850047
21
-39.419309
31
0
39
0
210
0
220
0
230
1
0
LINE
5
87
100
AcDbEntity
8
80
62
256
6
ByLayer
370
18
48
1
60
0
100
AcDbLine
10
0
20
0
30
0
11
-5
21
0
31
0
39
0
210
0
220
0
230
1
0
LINE
5
88
100
AcDbEntity
8
4
62
256
6
ByLayer
370
18
48
0.05
60
0
100
AcDbLine
10
0
20
0
30
0
11
80
21
0
31
0
39
0
210
0
220
0
230
1
0
LINE
5
8A
100
AcDbEntity
8
81
62
256
6
ByLayer
370
18
48
1
60
0
100
AcDbLine
10
80
20
-55
30
0
11
90
21
-55
31
0
39
0
210
0
220
0
230
1
0
LINE
5
8B
100
AcDbEntity
8
SK4
62
256
6
ByLayer
370
18
48
0.05
60
0
100
AcDbLine
10
-53
20
0
30
0
11
80
21
0
31
0
39
0
210
0
220
0
230
1
0
LINE
5
8D
100
AcDbEntity
8
1
62
256
6
ByLayer
370
18
48
1
60
0
100
AcDbLine
10
60.755726
20
-40.186607
30
0
11
60.767
21
-40.197882
31
0
39
0
210
0
220
0
230
1
0
LINE
5
8E
100
AcDbEntity
8
1
62
256
6
ByLayer
370
18
48
1
60
0
100
AcDbLine
10
67.198754
20
-53.275502
30
0
11
66.935839
21
-50.071745
31
0
39
0
210
0
220
0
230
1
0
LINE
5
8F
100
AcDbEntity
8
1
62
256
6
ByLayer
370
18
48
1
60
0
100
AcDbLine
10
20.104058
20
-28.901859
30
0
11
27.526589
21
-32.089854
31
0
39
0
210
0
220
0
230
1
0
LINE
5
90
100
AcDbEntity
8
1
62
256
6
ByLayer
370
18
48
1
60
0
100
AcDbLine
10
72.878369
20
-41.798784
30
0
11
78.366407
21
-42.249158
31
0
39
0
210
0
220
0
230
1
0
LINE
5
91
100
AcDbEntity
8
1
62
256
6
ByLayer
370
18
48
1
60
0
100
AcDbLine
10
67.249158
20
-53.366407
30
0
11
66.979747
21
-50.083501
31
0
39
0
210
0
220
0
230
1
0
LINE
5
92
100
AcDbEntity
8
1
62
256
6
ByLayer
370
18
48
1
60
0
100
AcDbLine
10
78.295054
20
-42.177805
30
0
11
78.366407
21
-42.249158
31
0
39
0
210
0
220
0
230
1
0
LINE
5
93
100
AcDbEntity
8
1
62
256
6
ByLayer
370
18
48
1
60
0
100
AcDbLine
10
67.249158
20
-53.366407
30
0
11
67.170537
21
-53.287786
31
0
39
0
210
0
220
0
230
1
0
LINE
5
94
100
AcDbEntity
8
1
62
256
6
ByLayer
370
18
48
1
60
0
100
AcDbLine
10
20.480183
20
-38.26546
30
0
11
20.480183
21
-33.830254
31
0
39
0
210
0
220
0
230
1
0
LINE
5
95
100
AcDbEntity
8
1
62
256
6
ByLayer
370
18
48
1
60
0
100
AcDbLine
10
20.480183
20
-29.062617
30
0
11
20.480183
21
38.26546
31
0
39
0
210
0
220
0
230
1
0
LINE
5
96
100
AcDbEntity
8
1
62
256
6
ByLayer
370
18
48
1
60
0
100
AcDbLine
10
30.920792
20
-39.358541
30
0
11
30.920792
21
-40
31
0
39
0
210
0
220
0
230
1
0
LINE
5
97
100
AcDbEntity
8
1
62
256
6
ByLayer
370
18
48
1
60
0
100
AcDbLine
10
30.920792
20
40
30
0
11
30.920792
21
39.191836
31
0
39
0
210
0
220
0
230
1
0
LINE
5
98
100
AcDbEntity
8
1
62
256
6
ByLayer
370
18
48
1
60
0
100
AcDbLine
10
0.3
20
0
30
0
11
0.3
21
-40
31
0
39
0
210
0
220
0
230
1
0
LINE
5
99
100
AcDbEntity
8
1
62
256
6
ByLayer
370
18
48
1
60
0
100
AcDbLine
10
0.3
20
40
30
0
11
0.3
21
0
31
0
39
0
210
0
220
0
230
1
0
LINE
5
9A
100
AcDbEntity
8
1
62
256
6
ByLayer
370
18
48
1
60
0
100
AcDbLine
10
0
20
0
30
0
11
0
21
-39.7
31
0
39
0
210
0
220
0
230
1
0
LINE
5
9B
100
AcDbEntity
8
1
62
256
6
ByLayer
370
18
48
1
60
0
100
AcDbLine
10
0
20
39.7
30
0
11
0
21
0
31
0
39
0
210
0
220
0
230
1
0
LINE
5
9C
100
AcDbEntity
8
1
62
256
6
ByLayer
370
18
48
1
60
0
100
AcDbLine
10
72.839655
20
-41.748803
30
0
11
73.716598
21
-41.82463
31
0
39
0
210
0
220
0
230
1
0
LINE
5
9D
100
AcDbEntity
8
SK1
62
256
6
ByLayer
370
18
48
1
60
0
100
AcDbLine
10
-0.2
20
28.683485
30
0
11
-0.2
21
6.576573
31
0
39
0
210
0
220
0
230
1
0
LINE
5
9F
100
AcDbEntity
8
SK1
62
256
6
ByLayer
370
18
48
1
60
0
100
AcDbLine
10
-0.2
20
-6.576573
30
0
11
-0.2
21
-28.683485
31
0
39
0
210
0
220
0
230
1
0
LINE
5
A0
100
AcDbEntity
8
1
62
256
6
ByLayer
370
18
48
1
60
0
100
AcDbLine
10
78.325329
20
-42.108203
30
0
11
78.282785
21
-42.206035
31
0
39
0
210
0
220
0
230
1
0
LINE
5
A1
100
AcDbEntity
8
1
62
256
6
ByLayer
370
18
48
1
60
0
100
AcDbLine
10
24.464962
20
-39.191836
30
0
11
24.464962
21
-35.540871
31
0
39
0
210
0
220
0
230
1
0
LINE
5
A2
100
AcDbEntity
8
1
62
256
6
ByLayer
370
18
48
1
60
0
100
AcDbLine
10
24.464962
20
-30.774164
30
0
11
24.464962
21
39.191836
31
0
39
0
210
0
220
0
230
1
0
LINE
5
A3
100
AcDbEntity
8
1
62
256
6
ByLayer
370
18
48
1
60
0
100
AcDbLine
10
63.35135
20
-30.356576
30
0
11
62.311283
21
-31.836085
31
0
39
0
210
0
220
0
230
1
0
LINE
5
A4
100
AcDbEntity
8
1
62
256
6
ByLayer
370
18
48
1
60
0
100
AcDbLine
10
54.026801
20
-43.620864
30
0
11
53.002956
21
-45.077295
31
0
39
0
210
0
220
0
230
1
0
LINE
5
A5
100
AcDbEntity
8
1
62
256
6
ByLayer
370
18
48
1
60
0
100
AcDbLine
10
66.818635
20
-50.039839
30
0
11
67.088123
21
-53.323681
31
0
39
0
210
0
220
0
230
1
0
LINE
5
A6
100
AcDbEntity
8
1
62
256
6
ByLayer
370
18
48
1
60
0
100
AcDbLine
10
72.743754
20
-41.625579
30
0
11
78.325329
21
-42.108203
31
0
39
0
210
0
220
0
230
1
0
LINE
5
A7
100
AcDbEntity
8
1
62
256
6
ByLayer
370
18
48
1
60
0
100
AcDbLine
10
30.960985
20
40.15
30
0
11
30.960985
21
39.344917
31
0
39
0
210
0
220
0
230
1
0
LINE
5
A8
100
AcDbEntity
8
1
62
256
6
ByLayer
370
18
48
1
60
0
100
AcDbLine
10
57.986951
20
-29.739187
30
0
11
57.490737
21
-30.445056
31
0
39
0
210
0
220
0
230
1
0
LINE
5
A9
100
AcDbEntity
8
1
62
256
6
ByLayer
370
18
48
1
60
0
100
AcDbLine
10
51.169363
20
-39.43729
30
0
11
50.709763
21
-40.091076
31
0
39
0
210
0
220
0
230
1
0
LINE
5
AA
100
AcDbEntity
8
1
62
256
6
ByLayer
370
18
48
1
60
0
100
AcDbLine
10
67.016282
20
-35.132511
30
0
11
62.604751
21
-32.055855
31
0
39
0
210
0
220
0
230
1
0
LINE
5
AB
100
AcDbEntity
8
1
62
256
6
ByLayer
370
18
48
1
60
0
100
AcDbLine
10
54.390397
20
-38.385565
30
0
11
57.379933
21
-34.132913
31
0
39
0
210
0
220
0
230
1
0
LINE
5
AC
100
AcDbEntity
8
1
62
256
6
ByLayer
370
18
48
1
60
0
100
AcDbLine
10
61.433271
20
-31.236082
30
0
11
62.601818
21
-32.051041
31
0
39
0
210
0
220
0
230
1
0
LINE
5
AD
100
AcDbEntity
8
1
62
256
6
ByLayer
370
18
48
1
60
0
100
AcDbLine
10
58.333819
20
-43.021567
30
0
11
59.993594
21
-44.177989
31
0
39
0
210
0
220
0
230
1
0
LINE
5
AE
100
AcDbEntity
8
1
62
256
6
ByLayer
370
18
48
1
60
0
100
AcDbLine
10
55.625643
20
-39.246203
30
0
11
54.390397
21
-38.385565
31
0
39
0
210
0
220
0
230
1
0
LINE
5
AF
100
AcDbEntity
8
1
62
256
6
ByLayer
370
18
48
1
60
0
100
AcDbLine
10
58.740012
20
-46.905607
30
0
11
54.328481
21
-43.828952
31
0
39
0
210
0
220
0
230
1
0
LINE
5
B0
100
AcDbEntity
8
1
62
256
6
ByLayer
370
18
48
1
60
0
100
AcDbLine
10
60.485642
20
-32.036702
30
0
11
66.680597
21
-36.357139
31
0
39
0
210
0
220
0
230
1
0
LINE
5
B1
100
AcDbEntity
8
1
62
256
6
ByLayer
370
18
48
1
60
0
100
AcDbLine
10
72.992013
20
-50.43591
30
0
11
72.758721
21
-50.492058
31
0
39
0
210
0
220
0
230
1
0
LINE
5
B2
100
AcDbEntity
8
1
62
256
6
ByLayer
370
18
48
1
60
0
100
AcDbLine
10
58.691219
20
-43.326039
30
0
11
60.358279
21
-44.488668
31
0
39
0
210
0
220
0
230
1
0
LINE
5
B3
100
AcDbEntity
8
1
62
256
6
ByLayer
370
18
48
1
60
0
100
AcDbLine
10
54.323103
20
-43.827616
30
0
11
54.328481
21
-43.828952
31
0
39
0
210
0
220
0
230
1
0
LINE
5
B4
100
AcDbEntity
8
1
62
256
6
ByLayer
370
18
48
1
60
0
100
AcDbLine
10
55.971819
20
-39.541114
30
0
11
55.625643
21
-39.246203
31
0
39
0
210
0
220
0
230
1
0
LINE
5
B5
100
AcDbEntity
8
1
62
256
6
ByLayer
370
18
48
1
60
0
100
AcDbLine
10
53.014694
20
-39.349726
30
0
11
57.843944
21
-32.480057
31
0
39
0
210
0
220
0
230
1
0
LINE
5
B6
100
AcDbEntity
8
1
62
256
6
ByLayer
370
18
48
1
60
0
100
AcDbLine
10
57.843944
20
-32.480057
30
0
11
56.503283
21
-31.337935
31
0
39
0
210
0
220
0
230
1
0
LINE
5
B7
100
AcDbEntity
8
1
62
256
6
ByLayer
370
18
48
1
60
0
100
AcDbLine
10
53.014694
20
-39.349726
30
0
11
51.674033
21
-38.207604
31
0
39
0
210
0
220
0
230
1
0
LINE
5
B8
100
AcDbEntity
8
1
62
256
6
ByLayer
370
18
48
1
60
0
100
AcDbLine
10
62.601818
20
-32.051041
30
0
11
62.604751
21
-32.055855
31
0
39
0
210
0
220
0
230
1
0
LINE
5
B9
100
AcDbEntity
8
1
62
256
6
ByLayer
370
18
48
1
60
0
100
AcDbLine
10
54.323103
20
-43.827616
30
0
11
53.154555
21
-43.012656
31
0
39
0
210
0
220
0
230
1
0
LINE
5
BA
100
AcDbEntity
8
1
62
256
6
ByLayer
370
18
48
1
60
0
100
AcDbLine
10
53.49755
20
-41.97735
30
0
11
59.692504
21
-46.297787
31
0
39
0
210
0
220
0
230
1
0
LINE
5
BB
100
AcDbEntity
8
1
62
256
6
ByLayer
370
18
48
1
60
0
100
AcDbLine
10
75.37722
20
-47.683328
30
0
11
75.326481
21
-47.462541
31
0
39
0
210
0
220
0
230
1
0
LINE
5
BC
100
AcDbEntity
8
1
62
256
6
ByLayer
370
18
48
1
60
0
100
AcDbLine
10
60.358279
20
-44.488668
30
0
11
59.993594
21
-44.177989
31
0
39
0
210
0
220
0
230
1
0
LINE
5
BD
100
AcDbEntity
8
1
62
256
6
ByLayer
370
18
48
1
60
0
100
AcDbLine
10
72.931949
20
-48.124508
30
0
11
75.113905
21
-49.546625
31
0
39
0
210
0
220
0
230
1
0
LINE
5
BE
100
AcDbEntity
8
1
62
256
6
ByLayer
370
18
48
1
60
0
100
AcDbLine
10
56.503283
20
-31.337935
30
0
11
51.674033
21
-38.207604
31
0
39
0
210
0
220
0
230
1
0
LINE
5
BF
100
AcDbEntity
8
1
62
256
6
ByLayer
370
18
48
1
60
0
100
AcDbLine
10
58.691219
20
-43.326039
30
0
11
58.333819
21
-43.021567
31
0
39
0
210
0
220
0
230
1
0
LINE
5
C0
100
AcDbEntity
8
1
62
256
6
ByLayer
370
18
48
1
60
0
100
AcDbLine
10
75.218556
20
-46.992912
30
0
11
74.979676
21
-45.953443
31
0
39
0
210
0
220
0
230
1
0
LINE
5
C1
100
AcDbEntity
8
1
62
256
6
ByLayer
370
18
48
1
60
0
100
AcDbLine
10
62.601818
20
-32.051041
30
0
11
61.04898
21
-30.901886
31
0
39
0
210
0
220
0
230
1
0
LINE
5
C2
100
AcDbEntity
8
1
62
256
6
ByLayer
370
18
48
1
60
0
100
AcDbLine
10
75.218556
20
-46.992912
30
0
11
75.245379
21
-47.230469
31
0
39
0
210
0
220
0
230
1
0
LINE
5
C3
100
AcDbEntity
8
1
62
256
6
ByLayer
370
18
48
1
60
0
100
AcDbLine
10
61.433271
20
-31.236082
30
0
11
60.988367
21
-30.857064
31
0
39
0
210
0
220
0
230
1
0
LINE
5
C4
100
AcDbEntity
8
1
62
256
6
ByLayer
370
18
48
1
60
0
100
AcDbLine
10
73.468101
20
-50.399073
30
0
11
73.241249
21
-50.428809
31
0
39
0
210
0
220
0
230
1
0
LINE
5
C5
100
AcDbEntity
8
1
62
256
6
ByLayer
370
18
48
1
60
0
100
AcDbLine
10
72.758721
20
-50.492058
30
0
11
71.6907
21
-50.632053
31
0
39
0
210
0
220
0
230
1
0
LINE
5
C6
100
AcDbEntity
8
1
62
256
6
ByLayer
370
18
48
1
60
0
100
AcDbLine
10
65.130038
20
-37.700781
30
0
11
63.462978
21
-36.538152
31
0
39
0
210
0
220
0
230
1
0
LINE
5
C7
100
AcDbEntity
8
1
62
256
6
ByLayer
370
18
48
1
60
0
100
AcDbLine
10
62.375031
20
-39.196575
30
0
11
62.54137
21
-39.362913
31
0
39
0
210
0
220
0
230
1
0
LINE
5
C8
100
AcDbEntity
8
1
62
256
6
ByLayer
370
18
48
1
60
0
100
AcDbLine
10
62.731941
20
-41.517923
30
0
11
62.898279
21
-41.684262
31
0
39
0
210
0
220
0
230
1
0
LINE
5
C9
100
AcDbEntity
8
1
62
256
6
ByLayer
370
18
48
1
60
0
100
AcDbLine
10
60.85164
20
-41.363617
30
0
11
61.017979
21
-41.529956
31
0
39
0
210
0
220
0
230
1
0
LINE
5
CA
100
AcDbEntity
8
1
62
256
6
ByLayer
370
18
48
1
60
0
100
AcDbLine
10
63.224767
20
-40.24689
30
0
11
63.391106
21
-40.413228
31
0
39
0
210
0
220
0
230
1
0
LINE
5
CB
100
AcDbEntity
8
1
62
256
6
ByLayer
370
18
48
1
60
0
100
AcDbLine
10
62.133183
20
-41.799682
30
0
11
62.299521
21
-41.966021
31
0
39
0
210
0
220
0
230
1
0
LINE
5
CC
100
AcDbEntity
8
1
62
256
6
ByLayer
370
18
48
1
60
0
100
AcDbLine
10
13.894338
20
-32.550036
30
0
11
13.894338
21
-37.944501
31
0
39
0
210
0
220
0
230
1
0
LINE
5
CD
100
AcDbEntity
8
1
62
256
6
ByLayer
370
18
48
1
60
0
100
AcDbLine
10
32.078325
20
-28.249292
30
0
11
32.078325
21
-43.861391
31
0
39
0
210
0
220
0
230
1
0
LINE
5
CE
100
AcDbEntity
8
1
62
256
6
ByLayer
370
18
48
1
60
0
100
AcDbLine
10
67.088123
20
-53.323681
30
0
11
33.838628
21
-50.595073
31
0
39
0
210
0
220
0
230
1
0
LINE
5
CF
100
AcDbEntity
8
1
62
256
6
ByLayer
370
18
48
1
60
0
100
AcDbLine
10
77.796284
20
-35.661517
30
0
11
78.325329
21
-42.108203
31
0
39
0
210
0
220
0
230
1
0
LINE
5
D0
100
AcDbEntity
8
1
62
256
6
ByLayer
370
18
48
1
60
0
100
AcDbLine
10
13.461325
20
38.115458
30
0
11
13.461325
21
12.13309
31
0
39
0
210
0
220
0
230
1
0
LINE
5
D1
100
AcDbEntity
8
1
62
256
6
ByLayer
370
18
48
1
60
0
100
AcDbLine
10
53.002956
20
-45.077295
30
0
11
52.411105
21
-44.644195
31
0
39
0
210
0
220
0
230
1
0
LINE
5
D2
100
AcDbEntity
8
1
62
256
6
ByLayer
370
18
48
1
60
0
100
AcDbLine
10
10.105662
20
-32.550036
30
0
11
10.105662
21
-37.944501
31
0
39
0
210
0
220
0
230
1
0
LINE
5
D3
100
AcDbEntity
8
1
62
256
6
ByLayer
370
18
48
1
60
0
100
AcDbLine
10
10.538675
20
-32.855902
30
0
11
10.538675
21
-38.115458
31
0
39
0
210
0
220
0
230
1
0
LINE
5
D4
100
AcDbEntity
8
1
62
256
6
ByLayer
370
18
48
1
60
0
100
AcDbLine
10
29.671853
20
-39.191836
30
0
11
24.464962
21
-39.191836
31
0
39
0
210
0
220
0
230
1
0
LINE
5
D5
100
AcDbEntity
8
1
62
256
6
ByLayer
370
18
48
1
60
0
100
AcDbLine
10
13.461325
20
-12.13309
30
0
11
13.461325
21
-30.856704
31
0
39
0
210
0
220
0
230
1
0
LINE
5
D6
100
AcDbEntity
8
1
62
256
6
ByLayer
370
18
48
1
60
0
100
AcDbLine
10
24.464962
20
39.191836
30
0
11
30.920792
21
39.191836
31
0
39
0
210
0
220
0
230
1
0
LINE
5
D7
100
AcDbEntity
8
1
62
256
6
ByLayer
370
18
48
1
60
0
100
AcDbLine
10
32.108268
20
39.344917
30
0
11
30.960985
21
39.344917
31
0
39
0
210
0
220
0
230
1
0
LINE
5
D8
100
AcDbEntity
8
1
62
256
6
ByLayer
370
18
48
1
60
0
100
AcDbLine
10
10.538675
20
-12.13309
30
0
11
13.461325
21
-12.13309
31
0
39
0
210
0
220
0
230
1
0
LINE
5
D9
100
AcDbEntity
8
1
62
256
6
ByLayer
370
18
48
1
60
0
100
AcDbLine
10
67.088123
20
-53.323681
30
0
11
67.198754
21
-53.275502
31
0
39
0
210
0
220
0
230
1
0
LINE
5
DA
100
AcDbEntity
8
1
62
256
6
ByLayer
370
18
48
1
60
0
100
AcDbLine
10
13.461325
20
-38.115458
30
0
11
10.538675
21
-38.115458
31
0
39
0
210
0
220
0
230
1
0
LINE
5
DB
100
AcDbEntity
8
1
62
256
6
ByLayer
370
18
48
1
60
0
100
AcDbLine
10
10.105662
20
-12.6576
30
0
11
10.105662
21
-31.610857
31
0
39
0
210
0
220
0
230
1
0
LINE
5
DC
100
AcDbEntity
8
1
62
256
6
ByLayer
370
18
48
1
60
0
100
AcDbLine
10
13.461325
20
-32.855902
30
0
11
13.461325
21
-38.115458
31
0
39
0
210
0
220
0
230
1
0
LINE
5
DD
100
AcDbEntity
8
1
62
256
6
ByLayer
370
18
48
1
60
0
100
AcDbLine
10
10.538675
20
38.115458
30
0
11
13.461325
21
38.115458
31
0
39
0
210
0
220
0
230
1
0
LINE
5
DE
100
AcDbEntity
8
1
62
256
6
ByLayer
370
18
48
1
60
0
100
AcDbLine
10
49.954614
20
-38.732133
30
0
11
56.44661
21
-29.497189
31
0
39
0
210
0
220
0
230
1
0
LINE
5
DF
100
AcDbEntity
8
1
62
256
6
ByLayer
370
18
48
1
60
0
100
AcDbLine
10
13.461325
20
12.13309
30
0
11
10.538675
21
12.13309
31
0
39
0
210
0
220
0
230
1
0
LINE
5
E0
100
AcDbEntity
8
1
62
256
6
ByLayer
370
18
48
1
60
0
100
AcDbLine
10
32.108268
20
39.344917
30
0
11
57.763277
21
-2.56434
31
0
39
0
210
0
220
0
230
1
0
LINE
5
E1
100
AcDbEntity
8
1
62
256
6
ByLayer
370
18
48
1
60
0
100
AcDbLine
10
32.078325
20
-28.249292
30
0
11
57.763277
21
-2.56434
31
0
39
0
210
0
220
0
230
1
0
LINE
5
E2
100
AcDbEntity
8
1
62
256
6
ByLayer
370
18
48
1
60
0
100
AcDbLine
10
63.35135
20
-30.356576
30
0
11
62.759499
21
-29.923476
31
0
39
0
210
0
220
0
230
1
0
LINE
5
E3
100
AcDbEntity
8
1
62
256
6
ByLayer
370
18
48
1
60
0
100
AcDbLine
10
77.796284
20
-35.661517
30
0
11
57.763277
21
-2.56434
31
0
39
0
210
0
220
0
230
1
0
LINE
5
E4
100
AcDbEntity
8
1
62
256
6
ByLayer
370
18
48
1
60
0
100
AcDbLine
10
10.538675
20
38.115458
30
0
11
10.538675
21
12.13309
31
0
39
0
210
0
220
0
230
1
0
LINE
5
E5
100
AcDbEntity
8
1
62
256
6
ByLayer
370
18
48
1
60
0
100
AcDbLine
10
10.105662
20
37.944501
30
0
11
10.105662
21
12.6576
31
0
39
0
210
0
220
0
230
1
0
LINE
5
E6
100
AcDbEntity
8
1
62
256
6
ByLayer
370
18
48
1
60
0
100
AcDbLine
10
53.706854
20
-27.252661
30
0
11
46.775842
21
-37.112111
31
0
39
0
210
0
220
0
230
1
0
LINE
5
E7
100
AcDbEntity
8
1
62
256
6
ByLayer
370
18
48
1
60
0
100
AcDbLine
10
13.894338
20
37.944501
30
0
11
13.894338
21
12.6576
31
0
39
0
210
0
220
0
230
1
0
LINE
5
E8
100
AcDbEntity
8
1
62
256
6
ByLayer
370
18
48
1
60
0
100
AcDbLine
10
10.538675
20
-12.13309
30
0
11
10.538675
21
-30.856704
31
0
39
0
210
0
220
0
230
1
0
LINE
5
E9
100
AcDbEntity
8
1
62
256
6
ByLayer
370
18
48
1
60
0
100
AcDbLine
10
13.894338
20
-12.6576
30
0
11
13.894338
21
-31.610857
31
0
39
0
210
0
220
0
230
1
0
LINE
5
EA
100
AcDbEntity
8
SK1
62
256
6
ByLayer
370
18
48
1
60
0
100
AcDbLine
10
-1.307107
20
4.393239
30
0
11
-1.307107
21
-4.393239
31
0
39
0
210
0
220
0
230
1
0
LINE
5
EB
100
AcDbEntity
8
1
62
256
6
ByLayer
370
18
48
1
60
0
100
AcDbLine
10
79.137156
20
-54.997336
30
0
11
67.963091
21
-54.08034
31
0
39
0
210
0
220
0
230
1
0
LINE
5
EC
100
AcDbEntity
8
1
62
256
6
ByLayer
370
18
48
1
60
0
100
AcDbLine
10
79.08034
20
-42.963091
30
0
11
79.997336
21
-54.137156
31
0
39
0
210
0
220
0
230
1
0
MTEXT
5
1AC
100
AcDbEntity
8
SK6
62
256
6
ByLayer
370
18
48
1
60
0
100
AcDbMText
10
-0.625
20
49.2
30
0
210
0
220
0
230
1
1
\W0.7332;C8-DCLNL-55080-12
40
3.5
41
0
44
1.084337
50
0
71
7
72
5
7
iso_b_vert
0
DIMENSION
5
1BD
100
AcDbEntity
8
2
62
256
6
ByLayer
370
13
48
1
60
0
100
AcDbDimension
2
DimnDraft3D1
10
80
20
-53.4125
30
0
11
67.554118
21
-66.53416
31
0
70
34
71
5
72
1
41
1
210
0
220
0
230
1
3
Standard
100
AcDb2LineAngularDimension
13
67.181534
23
-54.015864
33
0
14
79.141329
24
-54.997341
34
0
15
80
25
-55
35
0
16
64.244568
26
-69.583239
36
0
40
0
0
DIMENSION
5
1D2
100
AcDbEntity
8
2
62
256
6
ByLayer
370
13
48
1
60
0
100
AcDbDimension
2
DimnDraft3D2
10
80
20
-82.25
30
0
11
34.718421
21
-82.25
31
0
70
32
71
5
72
1
41
1
210
0
220
0
230
1
3
Standard
100
AcDbAlignedDimension
13
0
23
-42
33
0
14
80
24
-57
34
0
50
0
100
AcDbRotatedDimension
1001
ACAD
1000
DSTYLE
1002
{
1070
   279
1070
     0
1070
   172
1070
     1
1070
   173
1070
     1
1070
   340
1005
1AD
1070
    77
1070
     1
1070
    73
1070
     0
1070
   171
1070
     3
1070
   274
1070
     4
1070
   177
1070
     2
1070
   176
1070
     2
1070
   178
1070
     7
1070
    78
1070
     8
1070
    41
1041
3.175
1070
   147
1041
2.25
1070
    42
1041
2.0
1070
    44
1041
2.0
1070
   140
1041
4.5
1070
   343
1005
1BE
1070
   344
1005
1BE
1002
}
0
DIMENSION
5
1E1
100
AcDbEntity
8
SK2
62
256
6
ByLayer
370
13
48
1
60
0
100
AcDbDimension
2
DimnDraft3D3
10
-55.75
20
40
30
0
11
-55.75
21
-2.688158
31
0
70
32
71
5
72
1
41
1
210
0
220
0
230
1
3
Standard
100
AcDbAlignedDimension
13
-2
23
-40
33
0
14
-2
24
40
34
0
50
90
100
AcDbRotatedDimension
1001
ACAD
1000
DSTYLE
1002
{
1070
    74
1070
     0
1070
   279
1070
     0
1070
   172
1070
     1
1070
   173
1070
     1
1070
   340
1005
1AD
1070
    77
1070
     1
1070
    73
1070
     0
1070
   171
1070
     3
1070
   274
1070
     4
1070
   177
1070
     2
1070
   176
1070
     2
1070
   178
1070
     7
1070
    78
1070
     8
1070
    41
1041
3.175
1070
   147
1041
2.25
1070
    42
1041
2.0
1070
    44
1041
2.0
1070
   140
1041
4.5
1070
   343
1005
1BE
1070
   344
1005
1BE
1002
}
0
DIMENSION
5
1EF
100
AcDbEntity
8
2
62
256
6
ByLayer
370
13
48
1
60
0
100
AcDbDimension
2
DimnDraft3D4
10
102.25
20
-55
30
0
11
102.25
21
-32.781579
31
0
70
32
71
5
72
1
41
1
210
0
220
0
230
1
3
Standard
100
AcDbAlignedDimension
13
82
23
0
33
0
14
82
24
-55
34
0
50
90
100
AcDbRotatedDimension
1001
ACAD
1000
DSTYLE
1002
{
1070
    74
1070
     0
1070
   279
1070
     0
1070
   172
1070
     1
1070
   173
1070
     1
1070
   340
1005
1AD
1070
    77
1070
     1
1070
    73
1070
     0
1070
   171
1070
     3
1070
   274
1070
     4
1070
   177
1070
     2
1070
   176
1070
     2
1070
   178
1070
     7
1070
    78
1070
     8
1070
    41
1041
3.175
1070
   147
1041
2.25
1070
    42
1041
2.0
1070
    44
1041
2.0
1070
   140
1041
4.5
1070
   343
1005
1BE
1070
   344
1005
1BE
1002
}
0
ENDSEC
0
SECTION
2
OBJECTS
0
DICTIONARY
5
25a
330
0
100
AcDbDictionary
280
0
281
1
3
ACAD_GROUP
350
25b
3
ACAD_MLINESTYLE
350
25c
0
DICTIONARY
5
25b
330
0
100
AcDbDictionary
280
0
281
1
0
DICTIONARY
5
25c
330
0
100
AcDbDictionary
280
0
281
1
3
Standard
350
18
0
MLINESTYLE
5
18
330
25c
100
AcDbMlineStyle
2
Standard
70
0
3

62
256
51
90
52
90
71
2
49
-0.5
62
256
6
ByLayer
49
0.5
62
256
6
ByLayer
0
RASTERVARIABLES
5
248
330

100
AcDbRasterVariables
90
0
70
1
71
1
72
1
0
ENDSEC
0
EOF
