0
SECTION
2
HEADER
9
$ACADVER
1
AC1015
9
$DWGCODEPAGE
3
ANSI_1252
9
$HANDSEED
5
23a
9
$ANGBASE
50
0
9
$ANGDIR
70
0
9
$ATTMODE
70
1
9
$AUNITS
70
0
9
$AUPREC
70
0
9
$CECOLOR
62
256
9
$CELTSCALE
40
1
9
$CELTYPE
6
ByLayer
9
$CELWEIGHT
370
18
9
$CLAYER
8
0
9
$CMLJUST
70
0
9
$CMLSCALE
40
1
9
$CMLSTYLE
2
Standard
9
$DIMSTYLE
2
Standard
9
$TEXTSIZE
40
0.2
9
$TEXTSTYLE
7
Standard
9
$LUNITS
70
2
9
$LUPREC
70
4
9
$EXTNAMES
290
1
9
$INSUNITS
70
4
9
$LTSCALE
40
1
9
$LWDISPLAY
290
1
9
$PDMODE
70
0
9
$PDSIZE
40
0
9
$PLINEGEN
70
0
0
ENDSEC
0
SECTION
2
CLASSES
0
CLASS
1
RASTERVARIABLES
2
AcDbRasterVariables
3
ISM
90
0
280
0
281
0
0
ENDSEC
0
SECTION
2
TABLES
0
TABLE
2
VPORT
5
230
100
AcDbSymbolTable
0
VPORT
5
1
100
AcDbSymbolTableRecord
100
AcDbViewportTableRecord
2
*Active
70
0
10
0
20
0
11
1
21
1
12
-1
22
1
13
0
23
0
14
0.5
24
0.5
15
10
25
10
16
0
26
0
36
1
17
0
27
0
37
0
0
ENDTAB
0
TABLE
2
LTYPE
5
231
100
AcDbSymbolTable
0
LTYPE
5
14
100
AcDbSymbolTableRecord
100
AcDbLinetypeTableRecord
70
0
2
ByBlock
3

72
65
73
0
40
0
0
LTYPE
5
15
100
AcDbSymbolTableRecord
100
AcDbLinetypeTableRecord
70
0
2
ByLayer
3

72
65
73
0
40
0
0
LTYPE
5
16
100
AcDbSymbolTableRecord
100
AcDbLinetypeTableRecord
70
0
2
CONTINUOUS
3
Solid line
72
65
73
0
40
0
0
LTYPE
5
6A
100
AcDbSymbolTableRecord
100
AcDbLinetypeTableRecord
70
0
2
CENTER
3
____ _ ____ _ ____ _ ____
72
65
73
4
40
47.5
49
22
74
0
49
-8.5
74
0
49
8.5
74
0
49
-8.5
74
0
0
LTYPE
5
6B
100
AcDbSymbolTableRecord
100
AcDbLinetypeTableRecord
70
0
2
DASHED
3
__ __ __ __ __ __ __ __ __
72
65
73
2
40
25.72
49
12.86
74
0
49
-12.86
74
0
0
ENDTAB
0
TABLE
2
LAYER
5
232
100
AcDbSymbolTable
0
LAYER
5
10
100
AcDbSymbolTableRecord
100
AcDbLayerTableRecord
2
0
70
0
62
7
6
CONTINUOUS
290
1
370
-3
390
0
0
LAYER
5
6D
100
AcDbSymbolTableRecord
100
AcDbLayerTableRecord
2
81
70
0
62
-3
6
CONTINUOUS
290
1
370
-3
390
0
0
LAYER
5
6F
100
AcDbSymbolTableRecord
100
AcDbLayerTableRecord
2
80
70
0
62
-6
6
CONTINUOUS
290
1
370
-3
390
0
0
LAYER
5
71
100
AcDbSymbolTableRecord
100
AcDbLayerTableRecord
2
1
70
0
62
4
6
CONTINUOUS
290
1
370
-3
390
0
0
LAYER
5
DE
100
AcDbSymbolTableRecord
100
AcDbLayerTableRecord
2
4
70
0
62
-2
6
CENTER
290
1
370
-3
390
0
0
LAYER
5
18B
100
AcDbSymbolTableRecord
100
AcDbLayerTableRecord
2
2
70
0
62
7
6
CONTINUOUS
290
1
370
-3
390
0
0
LAYER
5
21b
100
AcDbSymbolTableRecord
100
AcDbLayerTableRecord
2
SK1
70
0
62
4
6
CONTINUOUS
290
1
370
-3
390
0
0
LAYER
5
21c
100
AcDbSymbolTableRecord
100
AcDbLayerTableRecord
2
SK3
70
0
62
1
6
DASHED
290
1
370
-3
390
0
0
LAYER
5
21d
100
AcDbSymbolTableRecord
100
AcDbLayerTableRecord
2
SK4
70
0
62
2
6
CENTER
290
1
370
-3
390
0
0
LAYER
5
21e
100
AcDbSymbolTableRecord
100
AcDbLayerTableRecord
2
SK6
70
0
62
5
6
CONTINUOUS
290
1
370
-3
390
0
0
LAYER
5
21f
100
AcDbSymbolTableRecord
100
AcDbLayerTableRecord
2
SK2
70
0
62
7
6
CONTINUOUS
290
1
370
-3
390
0
0
ENDTAB
0
TABLE
2
STYLE
5
233
100
AcDbSymbolTable
0
STYLE
5
11
100
AcDbSymbolTableRecord
100
AcDbTextStyleTableRecord
2
Standard
3
txt
70
0
71
0
40
0
41
1
42
0
50
0
0
STYLE
5
145
100
AcDbSymbolTableRecord
100
AcDbTextStyleTableRecord
2
iso_b_vert
3
simplex.shx
70
0
71
0
40
0
41
1
42
0
50
0
0
STYLE
5
146
100
AcDbSymbolTableRecord
100
AcDbTextStyleTableRecord
2
DWGDirectTextStyle
3
simplex
70
0
71
0
40
0
41
1
42
0
50
0
0
ENDTAB
0
TABLE
2
DIMSTYLE
5
234
100
AcDbSymbolTable
100
AcDbDimStyleTable
0
DIMSTYLE
105
27
100
AcDbSymbolTableRecord
100
AcDbDimStyleTableRecord
2
Standard
70
0
3
<>
41
0.18
42
0.0625
44
0.18
140
0.18
147
0.09
73
0
74
0
77
1
271
2
275
0
278
52
280
0
340
11
0
ENDTAB
0
TABLE
2
VIEW
5
235
100
AcDbSymbolTable
0
ENDTAB
0
TABLE
2
UCS
5
236
100
AcDbSymbolTable
0
ENDTAB
0
TABLE
2
APPID
5
237
100
AcDbSymbolTable
0
APPID
5
12
100
AcDbSymbolTableRecord
100
AcDbRegAppTableRecord
2
ACAD
70
0
0
ENDTAB
0
TABLE
2
BLOCK_RECORD
5
238
100
AcDbSymbolTable
0
BLOCK_RECORD
5
1F
100
AcDbSymbolTableRecord
100
AcDbBlockTableRecord
2
*Model_Space
340
0
70
0
0
BLOCK_RECORD
5
1B
100
AcDbSymbolTableRecord
100
AcDbBlockTableRecord
2
*Paper_Space
340
0
70
0
0
BLOCK_RECORD
5
23
100
AcDbSymbolTableRecord
100
AcDbBlockTableRecord
2
*Paper_Space0
340
0
70
0
0
BLOCK_RECORD
5
148
100
AcDbSymbolTableRecord
100
AcDbBlockTableRecord
2
DimnDraft3D1
340
0
70
0
0
BLOCK_RECORD
5
158
100
AcDbSymbolTableRecord
100
AcDbBlockTableRecord
2
DimnDraft3D2
340
0
70
0
0
BLOCK_RECORD
5
166
100
AcDbSymbolTableRecord
100
AcDbBlockTableRecord
2
DimnDraft3D3
340
0
70
0
0
BLOCK_RECORD
5
174
100
AcDbSymbolTableRecord
100
AcDbBlockTableRecord
2
_CLOSED
340
0
70
0
0
BLOCK_RECORD
5
17B
100
AcDbSymbolTableRecord
100
AcDbBlockTableRecord
2
DimnDraft3D4
340
0
70
0
0
BLOCK_RECORD
5
189
100
AcDbSymbolTableRecord
100
AcDbBlockTableRecord
2
DimnDraft3D5
340
0
70
0
0
BLOCK_RECORD
5
198
100
AcDbSymbolTableRecord
100
AcDbBlockTableRecord
2
DimnDraft3D6
340
0
70
0
0
BLOCK_RECORD
5
1A6
100
AcDbSymbolTableRecord
100
AcDbBlockTableRecord
2
DimnDraft3D7
340
0
70
0
0
BLOCK_RECORD
5
1B4
100
AcDbSymbolTableRecord
100
AcDbBlockTableRecord
2
DimnDraft3D8
340
0
70
0
0
ENDTAB
0
ENDSEC
0
SECTION
2
BLOCKS
0
BLOCK
5
20
100
AcDbEntity
8
0
100
AcDbBlockBegin
2
*Model_Space
70
0
10
0
20
0
30
0
3
*Model_Space
0
ENDBLK
5
21
100
AcDbEntity
8
0
100
AcDbBlockEnd
0
BLOCK
5
1C
100
AcDbEntity
8
0
100
AcDbBlockBegin
2
*Paper_Space
70
0
10
0
20
0
30
0
3
*Paper_Space
0
ENDBLK
5
1D
100
AcDbEntity
8
0
100
AcDbBlockEnd
0
BLOCK
5
24
100
AcDbEntity
8
0
100
AcDbBlockBegin
2
*Paper_Space0
70
0
10
0
20
0
30
0
3
*Paper_Space0
0
ENDBLK
5
25
100
AcDbEntity
8
0
100
AcDbBlockEnd
0
BLOCK
5
155
100
AcDbEntity
8
0
100
AcDbBlockBegin
2
DimnDraft3D1
70
0
10
0
20
0
30
0
3
DimnDraft3D1
0
MTEXT
5
149
100
AcDbEntity
8
SK2
62
256
6
ByLayer
370
18
48
1
60
0
100
AcDbMText
10
-67.360611
20
3.457895
30
0
210
0
220
0
230
1
1
\W0.6740;80
40
3
41
0
44
1.084337
50
90
71
7
72
5
7
iso_b_vert
0
MTEXT
5
14B
100
AcDbEntity
8
SK2
62
256
6
ByLayer
370
18
48
1
60
0
100
AcDbMText
10
-67.360611
20
-4.018668
30
0
210
0
220
0
230
1
1
%%c
40
3
41
0
44
1.084337
50
90
71
7
72
5
7
iso_b_vert
0
LINE
5
14C
100
AcDbEntity
8
SK2
62
256
6
ByLayer
370
13
48
1
60
0
100
AcDbLine
10
-1.7
20
40
30
0
11
-67.860611
21
40
31
0
39
0
210
0
220
0
230
1
0
LINE
5
14D
100
AcDbEntity
8
SK2
62
256
6
ByLayer
370
13
48
1
60
0
100
AcDbLine
10
-1.7
20
-40
30
0
11
-67.860611
21
-40
31
0
39
0
210
0
220
0
230
1
0
LINE
5
14E
100
AcDbEntity
8
SK2
62
256
6
ByLayer
370
13
48
1
60
0
100
AcDbLine
10
-65.860611
20
40
30
0
11
-65.860611
21
-40
31
0
39
0
210
0
220
0
230
1
0
LINE
5
14F
100
AcDbEntity
8
SK2
62
256
6
ByLayer
370
13
48
1
60
0
100
AcDbLine
10
-65.860611
20
40
30
0
11
-65.442615
21
36.825002
31
0
39
0
210
0
220
0
230
1
0
LINE
5
150
100
AcDbEntity
8
SK2
62
256
6
ByLayer
370
13
48
1
60
0
100
AcDbLine
10
-65.860611
20
40
30
0
11
-66.278608
21
36.824998
31
0
39
0
210
0
220
0
230
1
0
LINE
5
151
100
AcDbEntity
8
SK2
62
256
6
ByLayer
370
13
48
1
60
0
100
AcDbLine
10
-65.442615
20
36.825002
30
0
11
-66.278608
21
36.824998
31
0
39
0
210
0
220
0
230
1
0
LINE
5
152
100
AcDbEntity
8
SK2
62
256
6
ByLayer
370
13
48
1
60
0
100
AcDbLine
10
-65.860611
20
-40
30
0
11
-66.278608
21
-36.825002
31
0
39
0
210
0
220
0
230
1
0
LINE
5
153
100
AcDbEntity
8
SK2
62
256
6
ByLayer
370
13
48
1
60
0
100
AcDbLine
10
-65.860611
20
-40
30
0
11
-65.442615
21
-36.824998
31
0
39
0
210
0
220
0
230
1
0
LINE
5
154
100
AcDbEntity
8
SK2
62
256
6
ByLayer
370
13
48
1
60
0
100
AcDbLine
10
-66.278608
20
-36.825002
30
0
11
-65.442615
21
-36.824998
31
0
39
0
210
0
220
0
230
1
0
ENDBLK
5
156
100
AcDbEntity
8
0
100
AcDbBlockEnd
0
BLOCK
5
163
100
AcDbEntity
8
0
100
AcDbBlockBegin
2
DimnDraft3D2
70
0
10
0
20
0
30
0
3
DimnDraft3D2
0
MTEXT
5
159
100
AcDbEntity
8
SK2
62
256
6
ByLayer
370
18
48
1
60
0
100
AcDbMText
10
13.957895
20
-57.012576
30
0
210
0
220
0
230
1
1
\W0.6740;30
40
3
41
0
44
1.084337
50
0
71
7
72
5
7
iso_b_vert
0
LINE
5
15A
100
AcDbEntity
8
SK2
62
256
6
ByLayer
370
13
48
1
60
0
100
AcDbLine
10
0
20
-41.7
30
0
11
0
21
-59.762576
31
0
39
0
210
0
220
0
230
1
0
LINE
5
15B
100
AcDbEntity
8
SK2
62
256
6
ByLayer
370
13
48
1
60
0
100
AcDbLine
10
30
20
-42
30
0
11
30
21
-59.762576
31
0
39
0
210
0
220
0
230
1
0
LINE
5
15C
100
AcDbEntity
8
SK2
62
256
6
ByLayer
370
13
48
1
60
0
100
AcDbLine
10
0
20
-57.762576
30
0
11
30
21
-57.762576
31
0
39
0
210
0
220
0
230
1
0
LINE
5
15D
100
AcDbEntity
8
SK2
62
256
6
ByLayer
370
13
48
1
60
0
100
AcDbLine
10
0
20
-57.762576
30
0
11
3.174998
21
-57.34458
31
0
39
0
210
0
220
0
230
1
0
LINE
5
15E
100
AcDbEntity
8
SK2
62
256
6
ByLayer
370
13
48
1
60
0
100
AcDbLine
10
0
20
-57.762576
30
0
11
3.175002
21
-58.180573
31
0
39
0
210
0
220
0
230
1
0
LINE
5
15F
100
AcDbEntity
8
SK2
62
256
6
ByLayer
370
13
48
1
60
0
100
AcDbLine
10
3.174998
20
-57.34458
30
0
11
3.175002
21
-58.180573
31
0
39
0
210
0
220
0
230
1
0
LINE
5
160
100
AcDbEntity
8
SK2
62
256
6
ByLayer
370
13
48
1
60
0
100
AcDbLine
10
30
20
-57.762576
30
0
11
26.825002
21
-58.180573
31
0
39
0
210
0
220
0
230
1
0
LINE
5
161
100
AcDbEntity
8
SK2
62
256
6
ByLayer
370
13
48
1
60
0
100
AcDbLine
10
30
20
-57.762576
30
0
11
26.824998
21
-57.34458
31
0
39
0
210
0
220
0
230
1
0
LINE
5
162
100
AcDbEntity
8
SK2
62
256
6
ByLayer
370
13
48
1
60
0
100
AcDbLine
10
26.825002
20
-58.180573
30
0
11
26.824998
21
-57.34458
31
0
39
0
210
0
220
0
230
1
0
ENDBLK
5
164
100
AcDbEntity
8
0
100
AcDbBlockEnd
0
BLOCK
5
171
100
AcDbEntity
8
0
100
AcDbBlockBegin
2
DimnDraft3D3
70
0
10
0
20
0
30
0
3
DimnDraft3D3
0
MTEXT
5
167
100
AcDbEntity
8
SK2
62
256
6
ByLayer
370
18
48
1
60
0
100
AcDbMText
10
16.457895
20
-69.029269
30
0
210
0
220
0
230
1
1
\W0.6740;35
40
3
41
0
44
1.084337
50
0
71
7
72
5
7
iso_b_vert
0
LINE
5
168
100
AcDbEntity
8
SK2
62
256
6
ByLayer
370
13
48
1
60
0
100
AcDbLine
10
0
20
-41.7
30
0
11
0
21
-71.779269
31
0
39
0
210
0
220
0
230
1
0
LINE
5
169
100
AcDbEntity
8
SK2
62
256
6
ByLayer
370
13
48
1
60
0
100
AcDbLine
10
35
20
-42
30
0
11
35
21
-71.779269
31
0
39
0
210
0
220
0
230
1
0
LINE
5
16A
100
AcDbEntity
8
SK2
62
256
6
ByLayer
370
13
48
1
60
0
100
AcDbLine
10
0
20
-69.779269
30
0
11
35
21
-69.779269
31
0
39
0
210
0
220
0
230
1
0
LINE
5
16B
100
AcDbEntity
8
SK2
62
256
6
ByLayer
370
13
48
1
60
0
100
AcDbLine
10
0
20
-69.779269
30
0
11
3.174998
21
-69.361272
31
0
39
0
210
0
220
0
230
1
0
LINE
5
16C
100
AcDbEntity
8
SK2
62
256
6
ByLayer
370
13
48
1
60
0
100
AcDbLine
10
0
20
-69.779269
30
0
11
3.175002
21
-70.197266
31
0
39
0
210
0
220
0
230
1
0
LINE
5
16D
100
AcDbEntity
8
SK2
62
256
6
ByLayer
370
13
48
1
60
0
100
AcDbLine
10
3.174998
20
-69.361272
30
0
11
3.175002
21
-70.197266
31
0
39
0
210
0
220
0
230
1
0
LINE
5
16E
100
AcDbEntity
8
SK2
62
256
6
ByLayer
370
13
48
1
60
0
100
AcDbLine
10
35
20
-69.779269
30
0
11
31.825002
21
-70.197266
31
0
39
0
210
0
220
0
230
1
0
LINE
5
16F
100
AcDbEntity
8
SK2
62
256
6
ByLayer
370
13
48
1
60
0
100
AcDbLine
10
35
20
-69.779269
30
0
11
31.824998
21
-69.361272
31
0
39
0
210
0
220
0
230
1
0
LINE
5
170
100
AcDbEntity
8
SK2
62
256
6
ByLayer
370
13
48
1
60
0
100
AcDbLine
10
31.825002
20
-70.197266
30
0
11
31.824998
21
-69.361272
31
0
39
0
210
0
220
0
230
1
0
ENDBLK
5
172
100
AcDbEntity
8
0
100
AcDbBlockEnd
0
BLOCK
5
175
100
AcDbEntity
8
0
100
AcDbBlockBegin
2
_CLOSED
70
0
10
0
20
0
30
0
3
_CLOSED
0
LINE
5
177
100
AcDbEntity
8
0
62
256
6
ByLayer
370
-2
48
1
60
0
100
AcDbLine
10
-1
20
0.166667
30
0
11
0
21
0
31
0
39
0
210
0
220
0
230
1
0
LINE
5
178
100
AcDbEntity
8
0
62
256
6
ByLayer
370
-2
48
1
60
0
100
AcDbLine
10
0
20
0
30
0
11
-1
21
-0.166667
31
0
39
0
210
0
220
0
230
1
0
LINE
5
179
100
AcDbEntity
8
0
62
256
6
ByLayer
370
-2
48
1
60
0
100
AcDbLine
10
-1
20
0.166667
30
0
11
-1
21
-0.166667
31
0
39
0
210
0
220
0
230
1
0
LINE
5
17A
100
AcDbEntity
8
0
62
256
6
ByLayer
370
-2
48
1
60
0
100
AcDbLine
10
0
20
0
30
0
11
-1
21
0
31
0
39
0
210
0
220
0
230
1
0
ENDBLK
5
176
100
AcDbEntity
8
0
100
AcDbBlockEnd
0
BLOCK
5
186
100
AcDbEntity
8
0
100
AcDbBlockBegin
2
DimnDraft3D4
70
0
10
0
20
0
30
0
3
DimnDraft3D4
0
MTEXT
5
17C
100
AcDbEntity
8
SK2
62
256
6
ByLayer
370
18
48
1
60
0
100
AcDbMText
10
63.211507
20
-80.682704
30
0
210
0
220
0
230
1
1
\W0.6217;130
40
3
41
0
44
1.084337
50
0
71
7
72
5
7
iso_b_vert
0
LINE
5
17D
100
AcDbEntity
8
SK2
62
256
6
ByLayer
370
13
48
1
60
0
100
AcDbLine
10
0
20
-41.7
30
0
11
0
21
-83.432704
31
0
39
0
210
0
220
0
230
1
0
LINE
5
17E
100
AcDbEntity
8
SK2
62
256
6
ByLayer
370
13
48
1
60
0
100
AcDbLine
10
129.99933
20
-42
30
0
11
129.99933
21
-83.432704
31
0
39
0
210
0
220
0
230
1
0
LINE
5
17F
100
AcDbEntity
8
SK2
62
256
6
ByLayer
370
13
48
1
60
0
100
AcDbLine
10
0
20
-81.432704
30
0
11
129.99933
21
-81.432704
31
0
39
0
210
0
220
0
230
1
0
LINE
5
180
100
AcDbEntity
8
SK2
62
256
6
ByLayer
370
13
48
1
60
0
100
AcDbLine
10
0
20
-81.432704
30
0
11
3.174998
21
-81.014707
31
0
39
0
210
0
220
0
230
1
0
LINE
5
181
100
AcDbEntity
8
SK2
62
256
6
ByLayer
370
13
48
1
60
0
100
AcDbLine
10
0
20
-81.432704
30
0
11
3.175002
21
-81.850701
31
0
39
0
210
0
220
0
230
1
0
LINE
5
182
100
AcDbEntity
8
SK2
62
256
6
ByLayer
370
13
48
1
60
0
100
AcDbLine
10
3.174998
20
-81.014707
30
0
11
3.175002
21
-81.850701
31
0
39
0
210
0
220
0
230
1
0
LINE
5
183
100
AcDbEntity
8
SK2
62
256
6
ByLayer
370
13
48
1
60
0
100
AcDbLine
10
129.99933
20
-81.432704
30
0
11
126.824332
21
-81.850701
31
0
39
0
210
0
220
0
230
1
0
LINE
5
184
100
AcDbEntity
8
SK2
62
256
6
ByLayer
370
13
48
1
60
0
100
AcDbLine
10
129.99933
20
-81.432704
30
0
11
126.824329
21
-81.014707
31
0
39
0
210
0
220
0
230
1
0
LINE
5
185
100
AcDbEntity
8
SK2
62
256
6
ByLayer
370
13
48
1
60
0
100
AcDbLine
10
126.824332
20
-81.850701
30
0
11
126.824329
21
-81.014707
31
0
39
0
210
0
220
0
230
1
0
ENDBLK
5
187
100
AcDbEntity
8
0
100
AcDbBlockEnd
0
BLOCK
5
195
100
AcDbEntity
8
0
100
AcDbBlockBegin
2
DimnDraft3D5
70
0
10
0
20
0
30
0
3
DimnDraft3D5
0
MTEXT
5
18A
100
AcDbEntity
8
2
62
256
6
ByLayer
370
18
48
1
60
0
100
AcDbMText
10
68.053947
20
-93.716765
30
0
210
0
220
0
230
1
1
\W0.6620;140
40
3
41
0
44
1.084337
50
0
71
7
72
5
7
iso_b_vert
0
LINE
5
18C
100
AcDbEntity
8
2
62
256
6
ByLayer
370
13
48
1
60
0
100
AcDbLine
10
0
20
-41.7
30
0
11
0
21
-96.466765
31
0
39
0
210
0
220
0
230
1
0
LINE
5
18D
100
AcDbEntity
8
2
62
256
6
ByLayer
370
13
48
1
60
0
100
AcDbLine
10
140
20
-42
30
0
11
140
21
-96.466765
31
0
39
0
210
0
220
0
230
1
0
LINE
5
18E
100
AcDbEntity
8
2
62
256
6
ByLayer
370
13
48
1
60
0
100
AcDbLine
10
0
20
-94.466765
30
0
11
140
21
-94.466765
31
0
39
0
210
0
220
0
230
1
0
LINE
5
18F
100
AcDbEntity
8
2
62
256
6
ByLayer
370
13
48
1
60
0
100
AcDbLine
10
0
20
-94.466765
30
0
11
3.174998
21
-94.048768
31
0
39
0
210
0
220
0
230
1
0
LINE
5
190
100
AcDbEntity
8
2
62
256
6
ByLayer
370
13
48
1
60
0
100
AcDbLine
10
0
20
-94.466765
30
0
11
3.175002
21
-94.884762
31
0
39
0
210
0
220
0
230
1
0
LINE
5
191
100
AcDbEntity
8
2
62
256
6
ByLayer
370
13
48
1
60
0
100
AcDbLine
10
3.174998
20
-94.048768
30
0
11
3.175002
21
-94.884762
31
0
39
0
210
0
220
0
230
1
0
LINE
5
192
100
AcDbEntity
8
2
62
256
6
ByLayer
370
13
48
1
60
0
100
AcDbLine
10
140
20
-94.466765
30
0
11
136.825002
21
-94.884762
31
0
39
0
210
0
220
0
230
1
0
LINE
5
193
100
AcDbEntity
8
2
62
256
6
ByLayer
370
13
48
1
60
0
100
AcDbLine
10
140
20
-94.466765
30
0
11
136.824998
21
-94.048768
31
0
39
0
210
0
220
0
230
1
0
LINE
5
194
100
AcDbEntity
8
2
62
256
6
ByLayer
370
13
48
1
60
0
100
AcDbLine
10
136.825002
20
-94.884762
30
0
11
136.824998
21
-94.048768
31
0
39
0
210
0
220
0
230
1
0
ENDBLK
5
196
100
AcDbEntity
8
0
100
AcDbBlockEnd
0
BLOCK
5
1A3
100
AcDbEntity
8
0
100
AcDbBlockBegin
2
DimnDraft3D6
70
0
10
0
20
0
30
0
3
DimnDraft3D6
0
MTEXT
5
199
100
AcDbEntity
8
SK2
62
256
6
ByLayer
370
18
48
1
60
0
100
AcDbMText
10
157.96239
20
11.005
30
0
210
0
220
0
230
1
1
\W0.7346;8.25
40
3
41
0
44
1.084337
50
90
71
7
72
5
7
iso_b_vert
0
LINE
5
19A
100
AcDbEntity
8
SK2
62
256
6
ByLayer
370
13
48
1
60
0
100
AcDbLine
10
146.887663
20
0
30
0
11
160.71239
21
0
31
0
39
0
210
0
220
0
230
1
0
LINE
5
19B
100
AcDbEntity
8
SK2
62
256
6
ByLayer
370
13
48
1
60
0
100
AcDbLine
10
132
20
-8.25
30
0
11
160.71239
21
-8.25
31
0
39
0
210
0
220
0
230
1
0
LINE
5
19C
100
AcDbEntity
8
SK2
62
256
6
ByLayer
370
13
48
1
60
0
100
AcDbLine
10
158.71239
20
-15.75
30
0
11
158.71239
21
17.297105
31
0
39
0
210
0
220
0
230
1
0
LINE
5
19D
100
AcDbEntity
8
SK2
62
256
6
ByLayer
370
13
48
1
60
0
100
AcDbLine
10
158.71239
20
0
30
0
11
158.294393
21
3.174998
31
0
39
0
210
0
220
0
230
1
0
LINE
5
19E
100
AcDbEntity
8
SK2
62
256
6
ByLayer
370
13
48
1
60
0
100
AcDbLine
10
158.71239
20
0
30
0
11
159.130387
21
3.175002
31
0
39
0
210
0
220
0
230
1
0
LINE
5
19F
100
AcDbEntity
8
SK2
62
256
6
ByLayer
370
13
48
1
60
0
100
AcDbLine
10
158.294393
20
3.174998
30
0
11
159.130387
21
3.175002
31
0
39
0
210
0
220
0
230
1
0
LINE
5
1A0
100
AcDbEntity
8
SK2
62
256
6
ByLayer
370
13
48
1
60
0
100
AcDbLine
10
158.71239
20
-8.25
30
0
11
159.130387
21
-11.424998
31
0
39
0
210
0
220
0
230
1
0
LINE
5
1A1
100
AcDbEntity
8
SK2
62
256
6
ByLayer
370
13
48
1
60
0
100
AcDbLine
10
158.71239
20
-8.25
30
0
11
158.294393
21
-11.425002
31
0
39
0
210
0
220
0
230
1
0
LINE
5
1A2
100
AcDbEntity
8
SK2
62
256
6
ByLayer
370
13
48
1
60
0
100
AcDbLine
10
159.130387
20
-11.424998
30
0
11
158.294393
21
-11.425002
31
0
39
0
210
0
220
0
230
1
0
ENDBLK
5
1A4
100
AcDbEntity
8
0
100
AcDbBlockEnd
0
BLOCK
5
1B1
100
AcDbEntity
8
0
100
AcDbBlockBegin
2
DimnDraft3D7
70
0
10
0
20
0
30
0
3
DimnDraft3D7
0
MTEXT
5
1A7
100
AcDbEntity
8
SK2
62
256
6
ByLayer
370
18
48
1
60
0
100
AcDbMText
10
169.245607
20
-21.2
30
0
210
0
220
0
230
1
1
\W0.7361;40
40
3
41
0
44
1.084337
50
90
71
7
72
5
7
iso_b_vert
0
LINE
5
1A8
100
AcDbEntity
8
SK2
62
256
6
ByLayer
370
13
48
1
60
0
100
AcDbLine
10
142
20
0
30
0
11
171.995607
21
0
31
0
39
0
210
0
220
0
230
1
0
LINE
5
1A9
100
AcDbEntity
8
SK2
62
256
6
ByLayer
370
13
48
1
60
0
100
AcDbLine
10
142
20
-40
30
0
11
171.995607
21
-40
31
0
39
0
210
0
220
0
230
1
0
LINE
5
1AA
100
AcDbEntity
8
SK2
62
256
6
ByLayer
370
13
48
1
60
0
100
AcDbLine
10
169.995607
20
0
30
0
11
169.995607
21
-40
31
0
39
0
210
0
220
0
230
1
0
LINE
5
1AB
100
AcDbEntity
8
SK2
62
256
6
ByLayer
370
13
48
1
60
0
100
AcDbLine
10
169.995607
20
0
30
0
11
170.413604
21
-3.174998
31
0
39
0
210
0
220
0
230
1
0
LINE
5
1AC
100
AcDbEntity
8
SK2
62
256
6
ByLayer
370
13
48
1
60
0
100
AcDbLine
10
169.995607
20
0
30
0
11
169.57761
21
-3.175002
31
0
39
0
210
0
220
0
230
1
0
LINE
5
1AD
100
AcDbEntity
8
SK2
62
256
6
ByLayer
370
13
48
1
60
0
100
AcDbLine
10
170.413604
20
-3.174998
30
0
11
169.57761
21
-3.175002
31
0
39
0
210
0
220
0
230
1
0
LINE
5
1AE
100
AcDbEntity
8
SK2
62
256
6
ByLayer
370
13
48
1
60
0
100
AcDbLine
10
169.995607
20
-40
30
0
11
169.57761
21
-36.825002
31
0
39
0
210
0
220
0
230
1
0
LINE
5
1AF
100
AcDbEntity
8
SK2
62
256
6
ByLayer
370
13
48
1
60
0
100
AcDbLine
10
169.995607
20
-40
30
0
11
170.413604
21
-36.824998
31
0
39
0
210
0
220
0
230
1
0
LINE
5
1B0
100
AcDbEntity
8
SK2
62
256
6
ByLayer
370
13
48
1
60
0
100
AcDbLine
10
169.57761
20
-36.825002
30
0
11
170.413604
21
-36.824998
31
0
39
0
210
0
220
0
230
1
0
ENDBLK
5
1B2
100
AcDbEntity
8
0
100
AcDbBlockEnd
0
BLOCK
5
1BF
100
AcDbEntity
8
0
100
AcDbBlockBegin
2
DimnDraft3D8
70
0
10
0
20
0
30
0
3
DimnDraft3D8
0
MTEXT
5
1B5
100
AcDbEntity
8
SK2
62
256
6
ByLayer
370
18
48
1
60
0
100
AcDbMText
10
169.245607
20
18.8
30
0
210
0
220
0
230
1
1
\W0.7361;40
40
3
41
0
44
1.084337
50
90
71
7
72
5
7
iso_b_vert
0
LINE
5
1B6
100
AcDbEntity
8
SK2
62
256
6
ByLayer
370
13
48
1
60
0
100
AcDbLine
10
146.887663
20
0
30
0
11
171.995607
21
0
31
0
39
0
210
0
220
0
230
1
0
LINE
5
1B7
100
AcDbEntity
8
SK2
62
256
6
ByLayer
370
13
48
1
60
0
100
AcDbLine
10
97.757359
20
40
30
0
11
171.995607
21
40
31
0
39
0
210
0
220
0
230
1
0
LINE
5
1B8
100
AcDbEntity
8
SK2
62
256
6
ByLayer
370
13
48
1
60
0
100
AcDbLine
10
169.995607
20
0
30
0
11
169.995607
21
40
31
0
39
0
210
0
220
0
230
1
0
LINE
5
1B9
100
AcDbEntity
8
SK2
62
256
6
ByLayer
370
13
48
1
60
0
100
AcDbLine
10
169.995607
20
0
30
0
11
169.57761
21
3.174998
31
0
39
0
210
0
220
0
230
1
0
LINE
5
1BA
100
AcDbEntity
8
SK2
62
256
6
ByLayer
370
13
48
1
60
0
100
AcDbLine
10
169.995607
20
0
30
0
11
170.413604
21
3.175002
31
0
39
0
210
0
220
0
230
1
0
LINE
5
1BB
100
AcDbEntity
8
SK2
62
256
6
ByLayer
370
13
48
1
60
0
100
AcDbLine
10
169.57761
20
3.174998
30
0
11
170.413604
21
3.175002
31
0
39
0
210
0
220
0
230
1
0
LINE
5
1BC
100
AcDbEntity
8
SK2
62
256
6
ByLayer
370
13
48
1
60
0
100
AcDbLine
10
169.995607
20
40
30
0
11
170.413604
21
36.825002
31
0
39
0
210
0
220
0
230
1
0
LINE
5
1BD
100
AcDbEntity
8
SK2
62
256
6
ByLayer
370
13
48
1
60
0
100
AcDbLine
10
169.995607
20
40
30
0
11
169.57761
21
36.824998
31
0
39
0
210
0
220
0
230
1
0
LINE
5
1BE
100
AcDbEntity
8
SK2
62
256
6
ByLayer
370
13
48
1
60
0
100
AcDbLine
10
170.413604
20
36.825002
30
0
11
169.57761
21
36.824998
31
0
39
0
210
0
220
0
230
1
0
ENDBLK
5
1C0
100
AcDbEntity
8
0
100
AcDbBlockEnd
0
ENDSEC
0
SECTION
2
ENTITIES
0
ARC
5
E2
100
AcDbEntity
8
SK1
62
256
6
ByLayer
370
18
48
1
60
0
100
AcDbCircle
39
0
10
0.6
20
29.6
30
0
40
1
210
0
220
0
230
-1
100
AcDbArc
50
233.129154
51
246.421822
0
ARC
5
E3
100
AcDbEntity
8
SK1
62
256
6
ByLayer
370
18
48
1
60
0
100
AcDbCircle
39
0
10
0.6
20
-29.6
30
0
40
1
210
0
220
0
230
-1
100
AcDbArc
50
113.578178
51
126.870846
0
ARC
5
E4
100
AcDbEntity
8
SK1
62
256
6
ByLayer
370
18
48
1
60
0
100
AcDbCircle
39
0
10
0.6
20
29.6
30
0
40
1
210
0
220
0
230
-1
100
AcDbArc
50
233.129154
51
246.421822
0
ARC
5
E5
100
AcDbEntity
8
SK1
62
256
6
ByLayer
370
18
48
1
60
0
100
AcDbCircle
39
0
10
0.6
20
-29.6
30
0
40
1
210
0
220
0
230
-1
100
AcDbArc
50
113.578178
51
126.870846
0
ARC
5
E6
100
AcDbEntity
8
1
62
256
6
ByLayer
370
13
48
1
60
0
100
AcDbCircle
39
0
10
-51
20
-24
30
0
40
4.9265
210
0
220
0
230
-1
100
AcDbArc
50
105
51
15
0
ARC
5
E7
100
AcDbEntity
8
1
62
256
6
ByLayer
370
13
48
1
60
0
100
AcDbCircle
39
0
10
-86
20
-24
30
0
40
4.9265
210
0
220
0
230
-1
100
AcDbArc
50
105
51
15
0
ARC
5
E8
100
AcDbEntity
8
1
62
256
6
ByLayer
370
13
48
1
60
0
100
AcDbCircle
39
0
10
-121
20
-24
30
0
40
4.9265
210
0
220
0
230
-1
100
AcDbArc
50
105
51
15
0
ARC
5
EB
100
AcDbEntity
8
1
62
256
6
ByLayer
370
18
48
1
60
0
100
AcDbCircle
39
0
10
-129.7
20
-8.05
30
0
40
0.800000000000198
210
0
220
0
230
-1
100
AcDbArc
50
112.024313
51
180
0
ARC
5
ED
100
AcDbEntity
8
1
62
256
6
ByLayer
370
18
48
1
60
0
100
AcDbCircle
39
0
10
-121
20
-24
30
0
40
3.49729925561676
210
0
220
0
230
-1
100
AcDbArc
50
210
51
270
0
ARC
5
EF
100
AcDbEntity
8
1
62
256
6
ByLayer
370
18
48
1
60
0
100
AcDbCircle
39
0
10
-121
20
-24
30
0
40
3.49729925561672
210
0
220
0
230
-1
100
AcDbArc
50
30
51
90
0
ARC
5
F0
100
AcDbEntity
8
1
62
256
6
ByLayer
370
18
48
1
60
0
100
AcDbCircle
39
0
10
-121
20
-24
30
0
40
3.49729925561617
210
0
220
0
230
-1
100
AcDbArc
50
270
51
330
0
ARC
5
F1
100
AcDbEntity
8
1
62
256
6
ByLayer
370
18
48
1
60
0
100
AcDbCircle
39
0
10
-121
20
-24
30
0
40
3.49729925561611
210
0
220
0
230
-1
100
AcDbArc
50
90
51
150
0
ARC
5
F2
100
AcDbEntity
8
1
62
256
6
ByLayer
370
18
48
1
60
0
100
AcDbCircle
39
0
10
-121
20
-24
30
0
40
3.49729925561611
210
0
220
0
230
-1
100
AcDbArc
50
150
51
210
0
ARC
5
F4
100
AcDbEntity
8
1
62
256
6
ByLayer
370
18
48
1
60
0
100
AcDbCircle
39
0
10
-121
20
-24
30
0
40
3.49729925561598
210
0
220
0
230
-1
100
AcDbArc
50
330
51
30
0
ARC
5
F5
100
AcDbEntity
8
1
62
256
6
ByLayer
370
18
48
1
60
0
100
AcDbCircle
39
0
10
-86
20
-24
30
0
40
3.49729925561654
210
0
220
0
230
-1
100
AcDbArc
50
210
51
270
0
ARC
5
F7
100
AcDbEntity
8
1
62
256
6
ByLayer
370
18
48
1
60
0
100
AcDbCircle
39
0
10
-86
20
-24
30
0
40
3.49729925561654
210
0
220
0
230
-1
100
AcDbArc
50
30
51
90
0
ARC
5
F8
100
AcDbEntity
8
1
62
256
6
ByLayer
370
18
48
1
60
0
100
AcDbCircle
39
0
10
-86
20
-24
30
0
40
3.49729925561633
210
0
220
0
230
-1
100
AcDbArc
50
270
51
330
0
ARC
5
F9
100
AcDbEntity
8
1
62
256
6
ByLayer
370
18
48
1
60
0
100
AcDbCircle
39
0
10
-86
20
-24
30
0
40
3.4972992556157
210
0
220
0
230
-1
100
AcDbArc
50
90
51
150
0
ARC
5
FA
100
AcDbEntity
8
1
62
256
6
ByLayer
370
18
48
1
60
0
100
AcDbCircle
39
0
10
-86
20
-24
30
0
40
3.49729925561609
210
0
220
0
230
-1
100
AcDbArc
50
150
51
210
0
ARC
5
FC
100
AcDbEntity
8
1
62
256
6
ByLayer
370
18
48
1
60
0
100
AcDbCircle
39
0
10
-86
20
-24
30
0
40
3.49729925561582
210
0
220
0
230
-1
100
AcDbArc
50
330
51
30
0
ARC
5
FD
100
AcDbEntity
8
1
62
256
6
ByLayer
370
18
48
1
60
0
100
AcDbCircle
39
0
10
-51
20
-24
30
0
40
3.49729925561688
210
0
220
0
230
-1
100
AcDbArc
50
210
51
270
0
ARC
5
FF
100
AcDbEntity
8
1
62
256
6
ByLayer
370
18
48
1
60
0
100
AcDbCircle
39
0
10
-51
20
-24
30
0
40
3.49729925561688
210
0
220
0
230
-1
100
AcDbArc
50
30
51
90
0
ARC
5
100
100
AcDbEntity
8
1
62
256
6
ByLayer
370
18
48
1
60
0
100
AcDbCircle
39
0
10
-51
20
-24
30
0
40
3.49729925561634
210
0
220
0
230
-1
100
AcDbArc
50
270
51
330
0
ARC
5
101
100
AcDbEntity
8
1
62
256
6
ByLayer
370
18
48
1
60
0
100
AcDbCircle
39
0
10
-51
20
-24
30
0
40
3.49729925561634
210
0
220
0
230
-1
100
AcDbArc
50
90
51
150
0
ARC
5
102
100
AcDbEntity
8
1
62
256
6
ByLayer
370
18
48
1
60
0
100
AcDbCircle
39
0
10
-51
20
-24
30
0
40
3.49729925561609
210
0
220
0
230
-1
100
AcDbArc
50
150
51
210
0
ARC
5
104
100
AcDbEntity
8
1
62
256
6
ByLayer
370
18
48
1
60
0
100
AcDbCircle
39
0
10
-51
20
-24
30
0
40
3.49729925561604
210
0
220
0
230
-1
100
AcDbArc
50
330
51
30
0
CIRCLE
5
E9
100
AcDbEntity
8
1
62
256
6
ByLayer
370
18
48
1
60
0
100
AcDbCircle
10
-105
20
0
30
0
40
3
39
0
210
0
220
0
230
-1
0
CIRCLE
5
EA
100
AcDbEntity
8
1
62
256
6
ByLayer
370
18
48
1
60
0
100
AcDbCircle
10
-105
20
0
30
0
40
4
39
0
210
0
220
0
230
-1
0
CIRCLE
5
EC
100
AcDbEntity
8
1
62
256
6
ByLayer
370
18
48
1
60
0
100
AcDbCircle
10
-105
20
0
30
0
40
3
39
0
210
0
220
0
230
-1
0
CIRCLE
5
EE
100
AcDbEntity
8
1
62
256
6
ByLayer
370
18
48
1
60
0
100
AcDbCircle
10
-121
20
-24
30
0
40
4.9265
39
0
210
0
220
0
230
-1
0
CIRCLE
5
F3
100
AcDbEntity
8
1
62
256
6
ByLayer
370
18
48
1
60
0
100
AcDbCircle
10
-121
20
-24
30
0
40
6
39
0
210
0
220
0
230
-1
0
CIRCLE
5
F6
100
AcDbEntity
8
1
62
256
6
ByLayer
370
18
48
1
60
0
100
AcDbCircle
10
-86
20
-24
30
0
40
4.9265
39
0
210
0
220
0
230
-1
0
CIRCLE
5
FB
100
AcDbEntity
8
1
62
256
6
ByLayer
370
18
48
1
60
0
100
AcDbCircle
10
-86
20
-24
30
0
40
6
39
0
210
0
220
0
230
-1
0
CIRCLE
5
FE
100
AcDbEntity
8
1
62
256
6
ByLayer
370
18
48
1
60
0
100
AcDbCircle
10
-51
20
-24
30
0
40
4.9265
39
0
210
0
220
0
230
-1
0
CIRCLE
5
103
100
AcDbEntity
8
1
62
256
6
ByLayer
370
18
48
1
60
0
100
AcDbCircle
10
-51
20
-24
30
0
40
6
39
0
210
0
220
0
230
-1
0
ELLIPSE
5
105
100
AcDbEntity
8
1
62
256
6
ByLayer
370
18
48
1
60
0
100
AcDbEllipse
10
131.690211
20
-13.935058
30
0
11
1.24531027094803
21
1.9929130259676
31
0
210
0
220
0
230
-1
40
0.173648
41
0.177313353009736
42
2.96439691059617
0
ELLIPSE
5
106
100
AcDbEntity
8
1
62
256
6
ByLayer
370
18
48
1
60
0
100
AcDbEllipse
10
131.564936
20
-13.856777
30
0
11
1.32479816058302
21
2.12012024039106
31
0
210
0
220
0
230
-1
40
0.173648
41
9.7176225359174E-06
42
3.14159265358979
0
ELLIPSE
5
107
100
AcDbEntity
8
1
62
256
6
ByLayer
370
18
48
1
60
0
100
AcDbEllipse
10
-6.763884
20
0
30
0
11
18.734835759558
21
-39.4834983054925
31
0
210
0
220
0
230
-1
40
0.341999
41
-1.08794676716945
42
-0.161099005228963
0
ELLIPSE
5
108
100
AcDbEntity
8
1
62
256
6
ByLayer
370
18
48
1
60
0
100
AcDbEllipse
10
-6.763884
20
0
30
0
11
18.7348357595578
21
39.4834983054923
31
0
210
0
220
0
230
-1
40
0.341999
41
0.161099005228965
42
1.08794676716945
0
ELLIPSE
5
109
100
AcDbEntity
8
1
62
256
6
ByLayer
370
18
48
1
60
0
100
AcDbEllipse
10
30.763884
20
0
30
0
11
18.7348357595569
21
39.4834983054916
31
0
210
0
220
0
230
-1
40
0.341999
41
-2.98049364836082
42
-2.05364588642032
0
ELLIPSE
5
10A
100
AcDbEntity
8
1
62
256
6
ByLayer
370
18
48
1
60
0
100
AcDbEllipse
10
30.763884
20
0
30
0
11
18.734835759559
21
-39.4834983054942
31
0
210
0
220
0
230
-1
40
0.341999
41
2.05364588642037
42
2.98049364836083
0
ELLIPSE
5
10B
100
AcDbEntity
8
1
62
256
6
ByLayer
370
18
48
1
60
0
100
AcDbEllipse
10
30.763884
20
0
30
0
11
18.7348357595636
21
-39.4834983054998
31
0
210
0
220
0
230
-1
40
0.341999
41
2.05364588642048
42
2.98049364836084
0
ELLIPSE
5
10C
100
AcDbEntity
8
1
62
256
6
ByLayer
370
18
48
1
60
0
100
AcDbEllipse
10
30.763884
20
0
30
0
11
18.7348357595569
21
39.4834983054916
31
0
210
0
220
0
230
-1
40
0.341999
41
-2.98049364836082
42
-2.05364588642032
0
ELLIPSE
5
10D
100
AcDbEntity
8
1
62
256
6
ByLayer
370
18
48
1
60
0
100
AcDbEllipse
10
-6.763884
20
0
30
0
11
18.7348357595578
21
39.4834983054923
31
0
210
0
220
0
230
-1
40
0.341999
41
0.161099005228965
42
1.08794676716945
0
ELLIPSE
5
10E
100
AcDbEntity
8
1
62
256
6
ByLayer
370
18
48
1
60
0
100
AcDbEllipse
10
-6.763884
20
0
30
0
11
18.734835759558
21
-39.4834983054925
31
0
210
0
220
0
230
-1
40
0.341999
41
-1.08794676716945
42
-0.161099005228963
0
POINT
5
6C
100
AcDbEntity
8
81
62
256
6
ByLayer
370
18
48
0.05
60
0
100
AcDbPoint
10
140
20
-24.125
30
0
39
0
210
0
220
0
230
1
50
360
0
POINT
5
6E
100
AcDbEntity
8
80
62
256
6
ByLayer
370
18
48
0.05
60
0
100
AcDbPoint
10
0
20
0
30
0
39
0
210
0
220
0
230
1
50
360
0
SPLINE
5
10F
100
AcDbEntity
8
SK1
62
256
6
ByLayer
370
18
48
1
60
0
100
AcDbSpline
70
4
71
2
72
6
73
3
40
0
40
0
40
0
40
1
40
1
40
1
41
1
10
-2.19488134370937
20
27.52022738313
30
0
41
1
10
-2.59744067185466
20
27.5101136916155
30
0
41
1
10
-3
20
27.500000000101
30
0
0
SPLINE
5
110
100
AcDbEntity
8
SK1
62
256
6
ByLayer
370
18
48
1
60
0
100
AcDbSpline
70
4
71
2
72
6
73
3
40
0
40
0
40
0
40
1
40
1
40
1
41
1
10
-3
20
-27.5000000000453
30
0
41
1
10
-2.59744067185466
20
-27.5101136915598
30
0
41
1
10
-2.19488134370937
20
-27.5202273830743
30
0
0
SPLINE
5
111
100
AcDbEntity
8
SK1
62
256
6
ByLayer
370
18
48
1
60
0
100
AcDbSpline
70
4
71
2
72
6
73
3
40
0
40
0
40
0
40
1
40
1
40
1
41
1
10
-3
20
27.500000000101
30
0
41
1
10
-24.7502365839479
20
26.9535583508891
30
0
41
1
10
-46.5004731678958
20
26.4071167016772
30
0
0
SPLINE
5
112
100
AcDbEntity
8
SK1
62
256
6
ByLayer
370
18
48
1
60
0
100
AcDbSpline
70
4
71
2
72
6
73
3
40
0
40
0
40
0
40
1
40
1
40
1
41
1
10
-46.5004731678958
20
-26.4071167016236
30
0
41
1
10
-24.7502365839479
20
-26.9535583508345
30
0
41
1
10
-3
20
-27.5000000000453
30
0
0
SPLINE
5
113
100
AcDbEntity
8
SK1
62
256
6
ByLayer
370
18
48
1
60
0
100
AcDbSpline
70
4
71
2
72
6
73
3
40
0
40
0
40
0
40
1
40
1
40
1
41
1
10
-0.399999999999977
20
27.3251512814302
30
0
41
1
10
-1.19999999999999
20
27.3251512814301
30
0
41
1
10
-2
20
27.3251512814301
30
0
0
SPLINE
5
114
100
AcDbEntity
8
SK1
62
256
6
ByLayer
370
18
48
1
60
0
100
AcDbSpline
70
4
71
2
72
6
73
3
40
0
40
0
40
0
40
1
40
1
40
1
41
1
10
-2
20
-27.3251512819252
30
0
41
1
10
-1.19999999999999
20
-27.3251512819252
30
0
41
1
10
-0.399999999999977
20
-27.3251512819252
30
0
0
SPLINE
5
115
100
AcDbEntity
8
SK1
62
256
6
ByLayer
370
18
48
1
60
0
100
AcDbSpline
70
4
71
2
72
6
73
3
40
0
40
0
40
0
40
1
40
1
40
1
41
1
10
-46.5004657229079
20
26.4070723719183
30
0
41
1
10
-47.2502328425844
20
25.948716264935
30
0
41
1
10
-48
20
25.49035990838
30
0
0
SPLINE
5
116
100
AcDbEntity
8
SK1
62
256
6
ByLayer
370
18
48
1
60
0
100
AcDbSpline
70
4
71
2
72
6
73
3
40
0
40
0
40
0
40
1
40
1
40
1
41
1
10
-48
20
-25.4903372289617
30
0
41
1
10
-47.2502396776064
20
-25.9486795491991
30
0
41
1
10
-46.5004793682356
20
-26.407021856008
30
0
0
SPLINE
5
117
100
AcDbEntity
8
SK1
62
256
6
ByLayer
370
18
48
1
60
0
100
AcDbSpline
70
4
71
2
72
6
73
3
40
0
40
0
40
0
40
1
40
1
40
1
41
1
10
-0.200000000000046
20
27.5127419688873
30
0
41
1
10
-0.214628642458649
20
27.3447861394392
30
0
41
1
10
-0.399999999999977
20
27.3251512814162
30
0
0
SPLINE
5
118
100
AcDbEntity
8
SK1
62
256
6
ByLayer
370
18
48
1
60
0
100
AcDbSpline
70
4
71
2
72
6
73
3
40
0
40
0
40
0
40
1
40
1
40
1
41
1
10
-0.399999999999977
20
-27.3251512818931
30
0
41
1
10
-0.214629265596159
20
-27.3447858171555
30
0
41
1
10
-0.200000000000046
20
-27.5127479889025
30
0
0
SPLINE
5
119
100
AcDbEntity
8
SK1
62
256
6
ByLayer
370
18
48
1
60
0
100
AcDbSpline
70
4
71
2
72
6
73
3
40
0
40
0
40
0
40
1
40
1
40
1
41
1
10
-3
20
27.500000000101
30
0
41
1
10
-24.7502365839479
20
26.9535583508891
30
0
41
1
10
-46.5004731678958
20
26.4071167016772
30
0
0
SPLINE
5
11A
100
AcDbEntity
8
SK1
62
256
6
ByLayer
370
18
48
1
60
0
100
AcDbSpline
70
4
71
2
72
6
73
3
40
0
40
0
40
0
40
1
40
1
40
1
41
1
10
-46.5004731678958
20
-26.4071167016236
30
0
41
1
10
-24.7502365839479
20
-26.9535583508345
30
0
41
1
10
-3
20
-27.5000000000453
30
0
0
SPLINE
5
11B
100
AcDbEntity
8
SK1
62
256
6
ByLayer
370
18
48
1
60
0
100
AcDbSpline
70
4
71
2
72
6
73
3
40
0
40
0
40
0
40
1
40
1
40
1
41
1
10
-2.19488134370937
20
27.52022738313
30
0
41
1
10
-2.59744067185466
20
27.5101136916155
30
0
41
1
10
-3
20
27.500000000101
30
0
0
SPLINE
5
11C
100
AcDbEntity
8
SK1
62
256
6
ByLayer
370
18
48
1
60
0
100
AcDbSpline
70
4
71
2
72
6
73
3
40
0
40
0
40
0
40
1
40
1
40
1
41
1
10
-3
20
-27.5000000000453
30
0
41
1
10
-2.59744067185466
20
-27.5101136915598
30
0
41
1
10
-2.19488134370937
20
-27.5202273830743
30
0
0
SPLINE
5
11D
100
AcDbEntity
8
SK1
62
256
6
ByLayer
370
18
48
1
60
0
100
AcDbSpline
70
4
71
2
72
6
73
3
40
0
40
0
40
0
40
1
40
1
40
1
41
1
10
-0.399999999999977
20
27.3251512814302
30
0
41
1
10
-1.19999999999999
20
27.3251512814302
30
0
41
1
10
-2
20
27.3251512814301
30
0
0
SPLINE
5
11E
100
AcDbEntity
8
SK1
62
256
6
ByLayer
370
18
48
1
60
0
100
AcDbSpline
70
4
71
2
72
6
73
3
40
0
40
0
40
0
40
1
40
1
40
1
41
1
10
-2
20
-27.3251512819252
30
0
41
1
10
-1.19999999999999
20
-27.3251512819252
30
0
41
1
10
-0.399999999999977
20
-27.3251512819252
30
0
0
SPLINE
5
11F
100
AcDbEntity
8
SK1
62
256
6
ByLayer
370
18
48
1
60
0
100
AcDbSpline
70
4
71
2
72
6
73
3
40
0
40
0
40
0
40
1
40
1
40
1
41
1
10
-46.5004657229079
20
26.4070723719183
30
0
41
1
10
-47.2502328425844
20
25.948716264935
30
0
41
1
10
-48
20
25.49035990838
30
0
0
SPLINE
5
120
100
AcDbEntity
8
SK1
62
256
6
ByLayer
370
18
48
1
60
0
100
AcDbSpline
70
4
71
2
72
6
73
3
40
0
40
0
40
0
40
1
40
1
40
1
41
1
10
-48.0000000000001
20
-25.4903372289617
30
0
41
1
10
-47.2502396776064
20
-25.948679549199
30
0
41
1
10
-46.5004793682356
20
-26.407021856008
30
0
0
SPLINE
5
121
100
AcDbEntity
8
SK1
62
256
6
ByLayer
370
18
48
1
60
0
100
AcDbSpline
70
4
71
2
72
6
73
3
40
0
40
0
40
0
40
1
40
1
40
1
41
1
10
-0.200000000000046
20
27.5127419688873
30
0
41
1
10
-0.214628642458592
20
27.3447861394392
30
0
41
1
10
-0.399999999999977
20
27.3251512814162
30
0
0
SPLINE
5
122
100
AcDbEntity
8
SK1
62
256
6
ByLayer
370
18
48
1
60
0
100
AcDbSpline
70
4
71
2
72
6
73
3
40
0
40
0
40
0
40
1
40
1
40
1
41
1
10
-0.399999999999977
20
-27.3251512818931
30
0
41
1
10
-0.214629265596159
20
-27.3447858171555
30
0
41
1
10
-0.200000000000046
20
-27.5127479889027
30
0
0
SPLINE
5
123
100
AcDbEntity
8
SK1
62
256
6
ByLayer
370
18
48
1
60
0
100
AcDbSpline
70
4
71
3
72
22
73
18
40
0
40
0
40
0
40
0
40
0.0311343464703834
40
0.0311343464703834
40
0.0552368028551066
40
0.0552368028551066
40
0.0745287663722974
40
0.0745287663722974
40
0.0938139374983222
40
0.0938139374983222
40
0.120807518384662
40
0.120807518384662
40
0.169662393538775
40
0.169662393538775
40
0.325778527832278
40
0.325778527832278
40
1
40
1
40
1
40
1
41
1
10
-0.400000000000034
20
5.67060691171687
30
0
41
1
10
-0.393980942176142
20
5.66478713123917
30
0
41
1
10
-0.387373002805646
20
5.65946013189372
30
0
41
1
10
-0.374486956722194
20
5.65217055303864
30
0
41
1
10
-0.368347836661314
20
5.64968827764113
30
0
41
1
10
-0.356872482263952
20
5.64753827425093
30
0
41
1
10
-0.351507974570609
20
5.64741741533325
30
0
41
1
10
-0.341124285345529
20
5.64907263823812
30
0
41
1
10
-0.33598942557785
20
5.65086063693431
30
0
41
1
10
-0.324657151050587
20
5.65675726400096
30
0
41
1
10
-0.318644458515109
20
5.66154526484027
30
0
41
1
10
-0.303757173648705
20
5.6764734020343
30
0
41
1
10
-0.296024466203733
20
5.68802097052227
30
0
41
1
10
-0.268392548387112
20
5.73752125079704
30
0
41
1
10
-0.256350191423962
20
5.77980569122789
30
0
41
1
10
-0.204009123268122
20
6.00022415316806
30
0
41
1
10
-0.200000000000614
20
6.18497776270917
30
0
41
1
10
-0.200000000000614
20
6.36525211459042
30
0
0
SPLINE
5
124
100
AcDbEntity
8
1
62
256
6
ByLayer
370
18
48
1
60
0
100
AcDbSpline
70
4
71
3
72
8
73
4
40
0
40
0
40
0
40
0
40
1
40
1
40
1
40
1
41
1
10
30.8830769412388
20
40
30
0
41
1
10
30.3193927398714
20
36.1128728045924
30
0
41
1
10
30
20
32.2093137421156
30
0
41
1
10
30
20
28.2842712474619
30
0
0
SPLINE
5
125
100
AcDbEntity
8
1
62
256
6
ByLayer
370
18
48
1
60
0
100
AcDbSpline
70
4
71
3
72
18
73
14
40
0
40
0
40
0
40
0
40
0.257641607841544
40
0.257641607841544
40
0.597516467796922
40
0.597516467796922
40
0.757555165809475
40
0.757555165809475
40
0.893040060678406
40
0.893040060678406
40
0.999735698644707
40
0.999735698644707
40
1
40
1
40
1
40
1
41
1
10
13.8943375672974
20
-12.6576002058703
30
0
41
1
10
13.8784249634445
20
-12.5991117551889
30
0
41
1
10
13.8591672558063
20
-12.5412290974367
30
0
41
1
10
13.8042054080883
20
-12.4106022788327
30
0
41
1
10
13.7649586038194
20
-12.3376482670708
30
0
41
1
10
13.6882666197718
20
-12.2444438244961
30
0
41
1
10
13.6603280584794
20
-12.2163864186296
30
0
41
1
10
13.6020622781534
20
-12.1733248915124
30
0
41
1
10
13.5721288147507
20
-12.1566754904539
30
0
41
1
10
13.5150948145498
20
-12.1377518139173
30
0
41
1
10
13.4881569350744
20
-12.1331122412452
30
0
41
1
10
13.4614587434102
20
-12.1330899953587
30
0
41
1
10
13.4613918044045
20
-12.1330899674707
30
0
41
1
10
13.4613248654052
20
-12.1330899674707
30
0
0
SPLINE
5
126
100
AcDbEntity
8
1
62
256
6
ByLayer
370
18
48
1
60
0
100
AcDbSpline
70
4
71
3
72
8
73
4
40
0
40
0
40
0
40
0
40
1
40
1
40
1
40
1
41
1
10
30
20
26.4575131106459
30
0
41
1
10
30.0065596229673
20
26.494524671166
30
0
41
1
10
30.0131266748576
20
26.5315344625175
30
0
41
1
10
30.019701112742
20
26.5685424949238
30
0
0
SPLINE
5
127
100
AcDbEntity
8
SK1
62
256
6
ByLayer
370
18
48
1
60
0
100
AcDbSpline
70
4
71
3
72
22
73
18
40
0
40
0
40
0
40
0
40
0.344397705409023
40
0.344397705409023
40
0.733429743928249
40
0.733429743928249
40
0.822631509241698
40
0.822631509241698
40
0.859142202554015
40
0.859142202554015
40
0.896173925591537
40
0.896173925591537
40
0.928993687633369
40
0.928993687633369
40
0.976672883783949
40
0.976672883783949
40
1
40
1
40
1
40
1
41
1
10
-1.30710678118652
20
4.28124480528427
30
0
41
1
10
-1.26778727408873
20
4.50005181405558
30
0
41
1
10
-1.22101427568845
20
4.71671134278353
30
0
41
1
10
-1.09104101359554
20
5.16557796695375
30
0
41
1
10
-1.01247717485404
20
5.40882874306809
30
0
41
1
10
-0.822527272398816
20
5.65097599545868
30
0
41
1
10
-0.780672025951105
20
5.69470421144422
30
0
41
1
10
-0.708757069118974
20
5.73908552653268
30
0
41
1
10
-0.685744340476106
20
5.74998041225101
30
0
41
1
10
-0.6371729604287
20
5.76406237645534
30
0
41
1
10
-0.610901104336222
20
5.76715164181275
30
0
41
1
10
-0.562690599340044
20
5.76384605459981
30
0
41
1
10
-0.540064722595162
20
5.75850847480183
30
0
41
1
10
-0.488550762289094
20
5.73882505519785
30
0
41
1
10
-0.460483918593639
20
5.72143043221658
30
0
41
1
10
-0.423025411231947
20
5.69190413047184
30
0
41
1
10
-0.411243274014794
20
5.68147794644207
30
0
41
1
10
-0.400000000000034
20
5.6706069117169
30
0
0
SPLINE
5
128
100
AcDbEntity
8
1
62
256
6
ByLayer
370
18
48
1
60
0
100
AcDbSpline
70
4
71
3
72
18
73
14
40
0
40
0
40
0
40
0
40
0.257641607841415
40
0.257641607841415
40
0.597516467796916
40
0.597516467796916
40
0.757555165809474
40
0.757555165809474
40
0.893040060678428
40
0.893040060678428
40
0.999735698644744
40
0.999735698644744
40
1
40
1
40
1
40
1
41
1
10
10.1056624327026
20
12.6576002058704
30
0
41
1
10
10.1215750365555
20
12.5991117551891
30
0
41
1
10
10.1408327441937
20
12.5412290974368
30
0
41
1
10
10.1957945919116
20
12.4106022788328
30
0
41
1
10
10.2350413961806
20
12.3376482670709
30
0
41
1
10
10.3117333802281
20
12.2444438244962
30
0
41
1
10
10.3396719415206
20
12.2163864186296
30
0
41
1
10
10.3979377218466
20
12.1733248915125
30
0
41
1
10
10.4278711852492
20
12.1566754904539
30
0
41
1
10
10.4849051854501
20
12.1377518139173
30
0
41
1
10
10.5118430649256
20
12.1331122412453
30
0
41
1
10
10.5385412565898
20
12.1330899953587
30
0
41
1
10
10.5386081955955
20
12.1330899674707
30
0
41
1
10
10.5386751345948
20
12.1330899674707
30
0
0
SPLINE
5
129
100
AcDbEntity
8
1
62
256
6
ByLayer
370
18
48
1
60
0
100
AcDbSpline
70
4
71
3
72
8
73
4
40
0
40
0
40
0
40
0
40
1
40
1
40
1
40
1
41
1
10
30
20
28.2842712474619
30
0
41
1
10
30
20
27.712803384364
30
0
41
1
10
30.0065689545673
20
27.1408936712416
30
0
41
1
10
30.019701112742
20
26.5685424949238
30
0
0
SPLINE
5
12A
100
AcDbEntity
8
1
62
256
6
ByLayer
370
18
48
1
60
0
100
AcDbSpline
70
4
71
3
72
8
73
4
40
0
40
0
40
0
40
0
40
1
40
1
40
1
40
1
41
1
10
32.0455298839383
20
-37
30
0
41
1
10
32.084921499159
20
-38.00039277039
30
0
41
1
10
32.1410422420703
20
-39.0005204608867
30
0
41
1
10
32.2131837088882
20
-40
30
0
0
SPLINE
5
12B
100
AcDbEntity
8
1
62
256
6
ByLayer
370
18
48
1
60
0
100
AcDbSpline
70
4
71
3
72
18
73
14
40
0
40
0
40
0
40
0
40
0.257641607841729
40
0.257641607841729
40
0.597516467797016
40
0.597516467797016
40
0.757555165809589
40
0.757555165809589
40
0.893040060678503
40
0.893040060678503
40
0.999735698644801
40
0.999735698644801
40
1
40
1
40
1
40
1
41
1
10
10.1056624327026
20
-37.9445010117191
30
0
41
1
10
10.1215750365555
20
-37.9640117024818
30
0
41
1
10
10.1408327441938
20
-37.9831682309936
30
0
41
1
10
10.1957945919117
20
-38.0260843711577
30
0
41
1
10
10.2350413961806
20
-38.0497943530972
30
0
41
1
10
10.3117333802282
20
-38.0798448869022
30
0
41
1
10
10.3396719415206
20
-38.0888501252952
30
0
41
1
10
10.3979377218466
20
-38.102632317157
30
0
41
1
10
10.4278711852493
20
-38.107943585332
30
0
41
1
10
10.4849051854502
20
-38.1139745711414
30
0
41
1
10
10.5118430649256
20
-38.1154507692338
30
0
41
1
10
10.5385412565898
20
-38.115457850648
30
0
41
1
10
10.5386081955955
20
-38.1154578595255
30
0
41
1
10
10.5386751345948
20
-38.1154578595255
30
0
0
SPLINE
5
12C
100
AcDbEntity
8
1
62
256
6
ByLayer
370
18
48
1
60
0
100
AcDbSpline
70
4
71
3
72
16
73
12
40
0
40
0
40
0
40
0
40
0.106540236282207
40
0.106540236282207
40
0.241524231508626
40
0.241524231508626
40
0.454197467465974
40
0.454197467465974
40
0.863287571214712
40
0.863287571214712
40
1
40
1
40
1
40
1
41
1
10
10.5386751345948
20
38.1154578595255
30
0
41
1
10
10.5120751629628
20
38.1154578595255
30
0
41
1
10
10.4851648089979
20
38.1139922943655
30
0
41
1
10
10.4282434501437
20
38.1079951375917
30
0
41
1
10
10.3983841608293
20
38.1027162056779
30
0
41
1
10
10.3299403378656
20
38.0865818057828
30
0
41
1
10
10.2944895005508
20
38.0740654723267
30
0
41
1
10
10.2066033989694
20
38.0351032067729
30
0
41
1
10
10.165551167059
20
38.0055977817169
30
0
41
1
10
10.1235945509117
20
37.9652047024089
30
0
41
1
10
10.1141502365141
20
37.9549080398178
30
0
41
1
10
10.1056624327026
20
37.9445010117191
30
0
0
SPLINE
5
12D
100
AcDbEntity
8
SK1
62
256
6
ByLayer
370
18
48
1
60
0
100
AcDbSpline
70
4
71
3
72
22
73
18
40
0
40
0
40
0
40
0
40
0.0445111268635862
40
0.0445111268635862
40
0.0897525040751875
40
0.0897525040751875
40
0.122443740909901
40
0.122443740909901
40
0.155030875505527
40
0.155030875505527
40
0.204913271026058
40
0.204913271026058
40
0.300450294859963
40
0.300450294859963
40
0.628247356498116
40
0.628247356498116
40
1
40
1
40
1
40
1
41
1
10
-0.400000000000034
20
-5.67060688490523
30
0
41
1
10
-0.421158593534699
20
-5.69106495425777
30
0
41
1
10
-0.444325546650532
20
-5.71007975525507
30
0
41
1
10
-0.49543810226919
20
-5.74172539222062
30
0
41
1
10
-0.524211579833889
20
-5.75453162017232
30
0
41
1
10
-0.576202807379559
20
-5.7657005315458
30
0
41
1
10
-0.599257222400581
20
-5.76707337925077
30
0
41
1
10
-0.64387693327933
20
-5.76254888376923
30
0
41
1
10
-0.66593578741157
20
-5.75667901671699
30
0
41
1
10
-0.717716689610938
20
-5.73554350121131
30
0
41
1
10
-0.746318548676868
20
-5.71685803413976
30
0
41
1
10
-0.820513017462247
20
-5.65569905016957
30
0
41
1
10
-0.860247188016388
20
-5.60624821725435
30
0
41
1
10
-1.01281247256242
20
-5.38083632636506
30
0
41
1
10
-1.08382438785907
20
-5.17992875337336
30
0
41
1
10
-1.21351643481995
20
-4.75208647529212
30
0
41
1
10
-1.26458748708734
20
-4.51785695202375
30
0
41
1
10
-1.30710678118652
20
-4.28124408565427
30
0
0
SPLINE
5
12E
100
AcDbEntity
8
1
62
256
6
ByLayer
370
18
48
1
60
0
100
AcDbSpline
70
4
71
3
72
16
73
12
40
0
40
0
40
0
40
0
40
0.106540236282204
40
0.106540236282204
40
0.241524231508622
40
0.241524231508622
40
0.454197467465981
40
0.454197467465981
40
0.863287571214733
40
0.863287571214733
40
1
40
1
40
1
40
1
41
1
10
13.4613248654052
20
12.1330899674707
30
0
41
1
10
13.4879248370372
20
12.1330899674707
30
0
41
1
10
13.5148351910021
20
12.1376961329265
30
0
41
1
10
13.5717565498563
20
12.1565138205584
30
0
41
1
10
13.6016158391707
20
12.1730621263328
30
0
41
1
10
13.6700596621344
20
12.2234746526412
30
0
41
1
10
13.7055104994492
20
12.2624396228893
30
0
41
1
10
13.7933966010306
20
12.3829661542942
30
0
41
1
10
13.834448832941
20
12.4733239854946
30
0
41
1
10
13.8764054490883
20
12.5954068834216
30
0
41
1
10
13.8858497634859
20
12.6264023893965
30
0
41
1
10
13.8943375672974
20
12.6576002058703
30
0
0
SPLINE
5
12F
100
AcDbEntity
8
1
62
256
6
ByLayer
370
18
48
1
60
0
100
AcDbSpline
70
4
71
3
72
16
73
12
40
0
40
0
40
0
40
0
40
0.106540236282157
40
0.106540236282157
40
0.241524231508556
40
0.241524231508556
40
0.454197467465853
40
0.454197467465853
40
0.863287571214466
40
0.863287571214466
40
1
40
1
40
1
40
1
41
1
10
10.5386751345948
20
-12.1330899674707
30
0
41
1
10
10.5120751629628
20
-12.1330899674707
30
0
41
1
10
10.4851648089979
20
-12.1376961329265
30
0
41
1
10
10.4282434501437
20
-12.1565138205584
30
0
41
1
10
10.3983841608294
20
-12.1730621263328
30
0
41
1
10
10.3299403378657
20
-12.2234746526412
30
0
41
1
10
10.2944895005509
20
-12.2624396228893
30
0
41
1
10
10.2066033989695
20
-12.3829661542941
30
0
41
1
10
10.165551167059
20
-12.4733239854945
30
0
41
1
10
10.1235945509117
20
-12.5954068834216
30
0
41
1
10
10.1141502365141
20
-12.6264023893965
30
0
41
1
10
10.1056624327026
20
-12.6576002058703
30
0
0
SPLINE
5
130
100
AcDbEntity
8
SK1
62
256
6
ByLayer
370
18
48
1
60
0
100
AcDbSpline
70
4
71
3
72
22
73
18
40
0
40
0
40
0
40
0
40
0.0083742170687991
40
0.0083742170687991
40
0.13103963041675
40
0.13103963041675
40
0.376671243470002
40
0.376671243470002
40
0.499341369489999
40
0.499341369489999
40
0.622016030341261
40
0.622016030341261
40
0.744696686374334
40
0.744696686374334
40
0.990572326427832
40
0.990572326427832
40
1
40
1
40
1
40
1
41
1
10
-2.20000000000005
20
24.9895663958002
30
0
41
1
10
-2.20000000000005
20
25.0026498364763
30
0
41
1
10
-2.19999999952074
20
25.0156889332491
30
0
41
1
10
-2.19999998427352
20
25.2190024240544
30
0
41
1
10
-2.19999986409562
20
25.3998138995197
30
0
41
1
10
-2.19999902116911
20
25.912631561893
30
0
41
1
10
-2.19999783127793
20
26.215254486215
30
0
41
1
10
-2.19999418556586
20
26.6038860458014
30
0
41
1
10
-2.19999266456108
20
26.7225914325042
30
0
41
1
10
-2.1999887888183
20
26.9371818734463
30
0
41
1
10
-2.19998643909628
20
27.0330980113529
30
0
41
1
10
-2.19998066827048
20
27.2007228629445
30
0
41
1
10
-2.19997724370512
20
27.2724560614296
30
0
41
1
10
-2.19996490861479
20
27.4489071866795
30
0
41
1
10
-2.19995394411046
20
27.5150473383121
30
0
41
1
10
-2.19993803140676
20
27.5200070214755
30
0
41
1
10
-2.1999382733712
20
27.5200954539851
30
0
41
1
10
-2.19993489717172
20
27.520104892089
30
0
0
SPLINE
5
131
100
AcDbEntity
8
1
62
256
6
ByLayer
370
18
48
1
60
0
100
AcDbSpline
70
4
71
3
72
8
73
4
40
0
40
0
40
0
40
0
40
1
40
1
40
1
40
1
41
1
10
32.0455298839383
20
-37
30
0
41
1
10
31.315114720577
20
-33.4906001599902
30
0
41
1
10
30.6238292102551
20
-29.9773636698144
30
0
41
1
10
30
20
-26.4575131106459
30
0
0
SPLINE
5
132
100
AcDbEntity
8
SK1
62
256
6
ByLayer
370
18
48
1
60
0
100
AcDbSpline
70
4
71
3
72
10
73
6
40
0
40
0
40
0
40
0
40
0.5
40
0.5
40
1
40
1
40
1
40
1
41
1
10
-1.30710678118652
20
4.28124480528427
30
0
41
1
10
-1.55427265096114
20
2.90580475967897
30
0
41
1
10
-1.73940113173813
20
1.4552073862555
30
0
41
1
10
-1.73932735844022
20
-1.45612772937741
30
0
41
1
10
-1.55440619707019
20
-2.90506358022887
30
0
41
1
10
-1.30710678118652
20
-4.28124408565429
30
0
0
SPLINE
5
133
100
AcDbEntity
8
SK1
62
256
6
ByLayer
370
18
48
1
60
0
100
AcDbSpline
70
4
71
3
72
24
73
20
40
0
40
0
40
0
40
0
40
0.485037599314117
40
0.485037599314117
40
0.673293928366618
40
0.673293928366618
40
0.809971746516145
40
0.809971746516145
40
0.878854539862644
40
0.878854539862644
40
0.902155234869554
40
0.902155234869554
40
0.925854099436537
40
0.925854099436537
40
0.946559647942569
40
0.946559647942569
40
0.972235451452121
40
0.972235451452121
40
1
40
1
40
1
40
1
41
1
10
-0.200000000000046
20
-6.36525122554053
30
0
41
1
10
-0.200000000000046
20
-6.23504691372187
30
0
41
1
10
-0.204480611010581
20
-6.10363989761024
30
0
41
1
10
-0.226679958853083
20
-5.92189117325503
30
0
41
1
10
-0.23466854280764
20
-5.87093182705135
30
0
41
1
10
-0.2552931911423
20
-5.78438901915223
30
0
41
1
10
-0.265823750669824
20
-5.74789152707399
30
0
41
1
10
-0.290290807904171
20
-5.69695479953182
30
0
41
1
10
-0.30014198379871
20
-5.68003369996129
30
0
41
1
10
-0.318091542069283
20
-5.66212247219113
30
0
41
1
10
-0.323184223931207
20
-5.65795943934157
30
0
41
1
10
-0.334340280164042
20
-5.65144058884977
30
0
41
1
10
-0.340596373274309
20
-5.64907398941565
30
0
41
1
10
-0.352460774466863
20
-5.64734587377632
30
0
41
1
10
-0.358188708215891
20
-5.64762633178657
30
0
41
1
10
-0.370289474120454
20
-5.65031108216374
30
0
41
1
10
-0.376688816717092
20
-5.653189373331
30
0
41
1
10
-0.388839848419366
20
-5.66065965406054
30
0
41
1
10
-0.394648030269082
20
-5.66543210957104
30
0
41
1
10
-0.400000000000034
20
-5.6706068849052
30
0
0
SPLINE
5
134
100
AcDbEntity
8
1
62
256
6
ByLayer
370
18
48
1
60
0
100
AcDbSpline
70
4
71
3
72
18
73
14
40
0
40
0
40
0
40
0
40
0.257641607841516
40
0.257641607841516
40
0.597516467796932
40
0.597516467796932
40
0.757555165809474
40
0.757555165809474
40
0.893040060678419
40
0.893040060678419
40
0.999735698644726
40
0.999735698644726
40
1
40
1
40
1
40
1
41
1
10
13.8943375672974
20
37.9445010117191
30
0
41
1
10
13.8784249634445
20
37.9640117024818
30
0
41
1
10
13.8591672558063
20
37.9831682309936
30
0
41
1
10
13.8042054080883
20
38.0260843711577
30
0
41
1
10
13.7649586038194
20
38.0497943530972
30
0
41
1
10
13.6882666197718
20
38.0798448869022
30
0
41
1
10
13.6603280584794
20
38.0888501252953
30
0
41
1
10
13.6020622781534
20
38.102632317157
30
0
41
1
10
13.5721288147507
20
38.107943585332
30
0
41
1
10
13.5150948145498
20
38.1139745711414
30
0
41
1
10
13.4881569350744
20
38.1154507692338
30
0
41
1
10
13.4614587434102
20
38.1154578506481
30
0
41
1
10
13.4613918044045
20
38.1154578595255
30
0
41
1
10
13.4613248654052
20
38.1154578595255
30
0
0
SPLINE
5
135
100
AcDbEntity
8
1
62
256
6
ByLayer
370
18
48
1
60
0
100
AcDbSpline
70
4
71
3
72
16
73
12
40
0
40
0
40
0
40
0
40
0.106540236282151
40
0.106540236282151
40
0.241524231508565
40
0.241524231508565
40
0.454197467465906
40
0.454197467465906
40
0.863287571214569
40
0.863287571214569
40
1
40
1
40
1
40
1
41
1
10
13.4613248654052
20
-38.1154578595255
30
0
41
1
10
13.4879248370372
20
-38.1154578595255
30
0
41
1
10
13.5148351910021
20
-38.1139922943656
30
0
41
1
10
13.5717565498563
20
-38.1079951375917
30
0
41
1
10
13.6016158391707
20
-38.1027162056779
30
0
41
1
10
13.6700596621343
20
-38.0865818057828
30
0
41
1
10
13.7055104994491
20
-38.0740654723268
30
0
41
1
10
13.7933966010305
20
-38.0351032067729
30
0
41
1
10
13.834448832941
20
-38.0055977817169
30
0
41
1
10
13.8764054490883
20
-37.965204702409
30
0
41
1
10
13.8858497634859
20
-37.9549080398178
30
0
41
1
10
13.8943375672974
20
-37.9445010117191
30
0
0
SPLINE
5
136
100
AcDbEntity
8
SK1
62
256
6
ByLayer
370
18
48
1
60
0
100
AcDbSpline
70
4
71
3
72
10
73
6
40
0
40
0
40
0
40
0
40
0.5
40
0.5
40
1
40
1
40
1
40
1
41
1
10
-1.30710678118652
20
4.28124480528427
30
0
41
1
10
-1.55427265096114
20
2.90580475967897
30
0
41
1
10
-1.73940113173808
20
1.4552073862555
30
0
41
1
10
-1.73932735844016
20
-1.45612772937741
30
0
41
1
10
-1.55440619707019
20
-2.90506358022887
30
0
41
1
10
-1.30710678118652
20
-4.28124408565429
30
0
0
SPLINE
5
137
100
AcDbEntity
8
SK1
62
256
6
ByLayer
370
18
48
1
60
0
100
AcDbSpline
70
4
71
3
72
24
73
20
40
0
40
0
40
0
40
0
40
0.485037599314117
40
0.485037599314117
40
0.673293928366618
40
0.673293928366618
40
0.809971746516145
40
0.809971746516145
40
0.878854539862644
40
0.878854539862644
40
0.902155234869554
40
0.902155234869554
40
0.925854099436537
40
0.925854099436537
40
0.946559647942569
40
0.946559647942569
40
0.972235451452121
40
0.972235451452121
40
1
40
1
40
1
40
1
41
1
10
-0.200000000000046
20
-6.36525122554053
30
0
41
1
10
-0.200000000000046
20
-6.23504691372187
30
0
41
1
10
-0.204480611010581
20
-6.10363989761024
30
0
41
1
10
-0.226679958853083
20
-5.92189117325503
30
0
41
1
10
-0.23466854280764
20
-5.87093182705135
30
0
41
1
10
-0.2552931911423
20
-5.78438901915226
30
0
41
1
10
-0.265823750669824
20
-5.74789152707399
30
0
41
1
10
-0.290290807904114
20
-5.69695479953182
30
0
41
1
10
-0.30014198379871
20
-5.68003369996129
30
0
41
1
10
-0.318091542069283
20
-5.66212247219113
30
0
41
1
10
-0.32318422393115
20
-5.65795943934154
30
0
41
1
10
-0.334340280164042
20
-5.65144058884977
30
0
41
1
10
-0.340596373274309
20
-5.64907398941565
30
0
41
1
10
-0.352460774466806
20
-5.64734587377632
30
0
41
1
10
-0.358188708215891
20
-5.64762633178657
30
0
41
1
10
-0.370289474120511
20
-5.65031108216374
30
0
41
1
10
-0.376688816717149
20
-5.653189373331
30
0
41
1
10
-0.388839848419366
20
-5.66065965406054
30
0
41
1
10
-0.394648030269082
20
-5.66543210957104
30
0
41
1
10
-0.400000000000034
20
-5.6706068849052
30
0
0
SPLINE
5
138
100
AcDbEntity
8
1
62
256
6
ByLayer
370
18
48
1
60
0
100
AcDbSpline
70
4
71
3
72
16
73
12
40
0
40
0
40
0
40
0
40
0.106540236282201
40
0.106540236282201
40
0.241524231508621
40
0.241524231508621
40
0.454197467465972
40
0.454197467465972
40
0.863287571214713
40
0.863287571214713
40
1
40
1
40
1
40
1
41
1
10
10.5386751345948
20
38.1154578595255
30
0
41
1
10
10.5120751629628
20
38.1154578595255
30
0
41
1
10
10.4851648089979
20
38.1139922943655
30
0
41
1
10
10.4282434501437
20
38.1079951375917
30
0
41
1
10
10.3983841608293
20
38.1027162056779
30
0
41
1
10
10.3299403378656
20
38.0865818057828
30
0
41
1
10
10.2944895005508
20
38.0740654723267
30
0
41
1
10
10.2066033989694
20
38.0351032067729
30
0
41
1
10
10.165551167059
20
38.0055977817169
30
0
41
1
10
10.1235945509117
20
37.9652047024089
30
0
41
1
10
10.1141502365141
20
37.9549080398178
30
0
41
1
10
10.1056624327026
20
37.9445010117191
30
0
0
SPLINE
5
139
100
AcDbEntity
8
SK1
62
256
6
ByLayer
370
18
48
1
60
0
100
AcDbSpline
70
4
71
3
72
22
73
18
40
0
40
0
40
0
40
0
40
0.044511126863585
40
0.044511126863585
40
0.0897525040751864
40
0.0897525040751864
40
0.1224437409099
40
0.1224437409099
40
0.155030875505526
40
0.155030875505526
40
0.204913271026057
40
0.204913271026057
40
0.300450294859962
40
0.300450294859962
40
0.628247356498115
40
0.628247356498115
40
1
40
1
40
1
40
1
41
1
10
-0.400000000000034
20
-5.67060688490523
30
0
41
1
10
-0.421158593534699
20
-5.69106495425777
30
0
41
1
10
-0.444325546650532
20
-5.71007975525507
30
0
41
1
10
-0.495438102269134
20
-5.74172539222062
30
0
41
1
10
-0.524211579833889
20
-5.75453162017232
30
0
41
1
10
-0.576202807379559
20
-5.7657005315458
30
0
41
1
10
-0.599257222400638
20
-5.76707337925077
30
0
41
1
10
-0.64387693327933
20
-5.76254888376923
30
0
41
1
10
-0.66593578741157
20
-5.75667901671699
30
0
41
1
10
-0.717716689610938
20
-5.73554350121131
30
0
41
1
10
-0.746318548676868
20
-5.71685803413976
30
0
41
1
10
-0.820513017462247
20
-5.65569905016957
30
0
41
1
10
-0.860247188016388
20
-5.60624821725435
30
0
41
1
10
-1.01281247256242
20
-5.38083632636506
30
0
41
1
10
-1.08382438785907
20
-5.17992875337336
30
0
41
1
10
-1.21351643481995
20
-4.75208647529212
30
0
41
1
10
-1.26458748708734
20
-4.51785695202378
30
0
41
1
10
-1.30710678118652
20
-4.28124408565429
30
0
0
SPLINE
5
13A
100
AcDbEntity
8
1
62
256
6
ByLayer
370
18
48
1
60
0
100
AcDbSpline
70
4
71
3
72
18
73
14
40
0
40
0
40
0
40
0
40
0.257641607841412
40
0.257641607841412
40
0.59751646779691
40
0.59751646779691
40
0.757555165809466
40
0.757555165809466
40
0.893040060678418
40
0.893040060678418
40
0.999735698644733
40
0.999735698644733
40
1
40
1
40
1
40
1
41
1
10
10.1056624327026
20
12.6576002058704
30
0
41
1
10
10.1215750365555
20
12.5991117551891
30
0
41
1
10
10.1408327441937
20
12.5412290974368
30
0
41
1
10
10.1957945919116
20
12.4106022788328
30
0
41
1
10
10.2350413961806
20
12.3376482670709
30
0
41
1
10
10.3117333802281
20
12.2444438244962
30
0
41
1
10
10.3396719415206
20
12.2163864186296
30
0
41
1
10
10.3979377218466
20
12.1733248915125
30
0
41
1
10
10.4278711852492
20
12.1566754904539
30
0
41
1
10
10.4849051854501
20
12.1377518139173
30
0
41
1
10
10.5118430649256
20
12.1331122412453
30
0
41
1
10
10.5385412565898
20
12.1330899953587
30
0
41
1
10
10.5386081955955
20
12.1330899674707
30
0
41
1
10
10.5386751345948
20
12.1330899674707
30
0
0
SPLINE
5
13B
100
AcDbEntity
8
1
62
256
6
ByLayer
370
18
48
1
60
0
100
AcDbSpline
70
4
71
3
72
18
73
14
40
0
40
0
40
0
40
0
40
0.257641607841549
40
0.257641607841549
40
0.597516467796934
40
0.597516467796934
40
0.757555165809491
40
0.757555165809491
40
0.893040060678425
40
0.893040060678425
40
0.999735698644728
40
0.999735698644728
40
1
40
1
40
1
40
1
41
1
10
13.8943375672974
20
-12.6576002058703
30
0
41
1
10
13.8784249634445
20
-12.5991117551889
30
0
41
1
10
13.8591672558063
20
-12.5412290974367
30
0
41
1
10
13.8042054080883
20
-12.4106022788327
30
0
41
1
10
13.7649586038194
20
-12.3376482670708
30
0
41
1
10
13.6882666197718
20
-12.2444438244961
30
0
41
1
10
13.6603280584794
20
-12.2163864186296
30
0
41
1
10
13.6020622781534
20
-12.1733248915124
30
0
41
1
10
13.5721288147507
20
-12.1566754904539
30
0
41
1
10
13.5150948145499
20
-12.1377518139173
30
0
41
1
10
13.4881569350744
20
-12.1331122412452
30
0
41
1
10
13.4614587434102
20
-12.1330899953587
30
0
41
1
10
13.4613918044045
20
-12.1330899674707
30
0
41
1
10
13.4613248654052
20
-12.1330899674707
30
0
0
SPLINE
5
13C
100
AcDbEntity
8
SK1
62
256
6
ByLayer
370
18
48
1
60
0
100
AcDbSpline
70
4
71
3
72
22
73
18
40
0
40
0
40
0
40
0
40
0.344397705409023
40
0.344397705409023
40
0.73342974392825
40
0.73342974392825
40
0.8226315092417
40
0.8226315092417
40
0.859142202554017
40
0.859142202554017
40
0.896173925591538
40
0.896173925591538
40
0.92899368763337
40
0.92899368763337
40
0.976672883783951
40
0.976672883783951
40
1
40
1
40
1
40
1
41
1
10
-1.30710678118652
20
4.28124480528427
30
0
41
1
10
-1.26778727408873
20
4.50005181405558
30
0
41
1
10
-1.22101427568839
20
4.71671134278353
30
0
41
1
10
-1.09104101359549
20
5.16557796695375
30
0
41
1
10
-1.01247717485404
20
5.40882874306809
30
0
41
1
10
-0.822527272398816
20
5.65097599545868
30
0
41
1
10
-0.780672025951162
20
5.69470421144422
30
0
41
1
10
-0.708757069118974
20
5.7390855265327
30
0
41
1
10
-0.685744340476106
20
5.74998041225101
30
0
41
1
10
-0.6371729604287
20
5.76406237645534
30
0
41
1
10
-0.610901104336222
20
5.76715164181275
30
0
41
1
10
-0.562690599340044
20
5.76384605459981
30
0
41
1
10
-0.540064722595162
20
5.75850847480183
30
0
41
1
10
-0.488550762289094
20
5.73882505519785
30
0
41
1
10
-0.460483918593639
20
5.72143043221658
30
0
41
1
10
-0.42302541123189
20
5.69190413047184
30
0
41
1
10
-0.411243274014794
20
5.68147794644207
30
0
41
1
10
-0.400000000000034
20
5.6706069117169
30
0
0
SPLINE
5
13D
100
AcDbEntity
8
1
62
256
6
ByLayer
370
18
48
1
60
0
100
AcDbSpline
70
4
71
3
72
16
73
12
40
0
40
0
40
0
40
0
40
0.106540236282158
40
0.106540236282158
40
0.24152423150857
40
0.24152423150857
40
0.45419746746591
40
0.45419746746591
40
0.863287571214568
40
0.863287571214568
40
1
40
1
40
1
40
1
41
1
10
13.4613248654052
20
-38.1154578595255
30
0
41
1
10
13.4879248370372
20
-38.1154578595255
30
0
41
1
10
13.5148351910021
20
-38.1139922943656
30
0
41
1
10
13.5717565498563
20
-38.1079951375917
30
0
41
1
10
13.6016158391707
20
-38.1027162056779
30
0
41
1
10
13.6700596621344
20
-38.0865818057828
30
0
41
1
10
13.7055104994491
20
-38.0740654723268
30
0
41
1
10
13.7933966010305
20
-38.0351032067729
30
0
41
1
10
13.834448832941
20
-38.0055977817169
30
0
41
1
10
13.8764054490883
20
-37.965204702409
30
0
41
1
10
13.8858497634859
20
-37.9549080398178
30
0
41
1
10
13.8943375672974
20
-37.9445010117191
30
0
0
SPLINE
5
13E
100
AcDbEntity
8
SK1
62
256
6
ByLayer
370
18
48
1
60
0
100
AcDbSpline
70
4
71
3
72
22
73
18
40
0
40
0
40
0
40
0
40
0.0311343464703937
40
0.0311343464703937
40
0.0552368028551166
40
0.0552368028551166
40
0.0745287663723072
40
0.0745287663723072
40
0.0938139374983318
40
0.0938139374983318
40
0.120807518384671
40
0.120807518384671
40
0.169662393538784
40
0.169662393538784
40
0.325778527832285
40
0.325778527832285
40
1
40
1
40
1
40
1
41
1
10
-0.400000000000034
20
5.67060691171687
30
0
41
1
10
-0.393980942176142
20
5.66478713123917
30
0
41
1
10
-0.387373002805646
20
5.65946013189372
30
0
41
1
10
-0.374486956722194
20
5.65217055303864
30
0
41
1
10
-0.368347836661314
20
5.64968827764113
30
0
41
1
10
-0.356872482263952
20
5.64753827425093
30
0
41
1
10
-0.351507974570609
20
5.64741741533325
30
0
41
1
10
-0.341124285345529
20
5.64907263823812
30
0
41
1
10
-0.33598942557785
20
5.65086063693431
30
0
41
1
10
-0.324657151050587
20
5.65675726400096
30
0
41
1
10
-0.318644458515109
20
5.66154526484027
30
0
41
1
10
-0.303757173648648
20
5.6764734020343
30
0
41
1
10
-0.296024466203733
20
5.68802097052227
30
0
41
1
10
-0.268392548387112
20
5.73752125079704
30
0
41
1
10
-0.256350191423962
20
5.77980569122789
30
0
41
1
10
-0.204009123268122
20
6.00022415316806
30
0
41
1
10
-0.200000000000614
20
6.18497776270917
30
0
41
1
10
-0.200000000000614
20
6.36525211459042
30
0
0
SPLINE
5
13F
100
AcDbEntity
8
1
62
256
6
ByLayer
370
18
48
1
60
0
100
AcDbSpline
70
4
71
3
72
18
73
14
40
0
40
0
40
0
40
0
40
0.25764160784152
40
0.25764160784152
40
0.597516467796944
40
0.597516467796944
40
0.75755516580949
40
0.75755516580949
40
0.893040060678437
40
0.893040060678437
40
0.999735698644747
40
0.999735698644747
40
1
40
1
40
1
40
1
41
1
10
13.8943375672974
20
37.9445010117191
30
0
41
1
10
13.8784249634445
20
37.9640117024818
30
0
41
1
10
13.8591672558063
20
37.9831682309936
30
0
41
1
10
13.8042054080883
20
38.0260843711577
30
0
41
1
10
13.7649586038194
20
38.0497943530972
30
0
41
1
10
13.6882666197718
20
38.0798448869022
30
0
41
1
10
13.6603280584794
20
38.0888501252953
30
0
41
1
10
13.6020622781534
20
38.102632317157
30
0
41
1
10
13.5721288147507
20
38.107943585332
30
0
41
1
10
13.5150948145498
20
38.1139745711414
30
0
41
1
10
13.4881569350744
20
38.1154507692338
30
0
41
1
10
13.4614587434102
20
38.1154578506481
30
0
41
1
10
13.4613918044045
20
38.1154578595255
30
0
41
1
10
13.4613248654052
20
38.1154578595255
30
0
0
SPLINE
5
140
100
AcDbEntity
8
SK1
62
256
6
ByLayer
370
18
48
1
60
0
100
AcDbSpline
70
4
71
3
72
22
73
18
40
0
40
0
40
0
40
0
40
0.0083742170687991
40
0.0083742170687991
40
0.13103963041675
40
0.13103963041675
40
0.376671243470002
40
0.376671243470002
40
0.499341369489999
40
0.499341369489999
40
0.622016030341261
40
0.622016030341261
40
0.744696686374334
40
0.744696686374334
40
0.990572326427832
40
0.990572326427832
40
1
40
1
40
1
40
1
41
1
10
-2.19999999999999
20
24.9895663958002
30
0
41
1
10
-2.19999999999999
20
25.0026498364763
30
0
41
1
10
-2.19999999952074
20
25.0156889332491
30
0
41
1
10
-2.19999998427352
20
25.2190024240544
30
0
41
1
10
-2.19999986409562
20
25.3998138995197
30
0
41
1
10
-2.19999902116911
20
25.912631561893
30
0
41
1
10
-2.19999783127793
20
26.215254486215
30
0
41
1
10
-2.1999941855658
20
26.6038860458014
30
0
41
1
10
-2.19999266456108
20
26.7225914325042
30
0
41
1
10
-2.1999887888183
20
26.9371818734463
30
0
41
1
10
-2.19998643909628
20
27.0330980113529
30
0
41
1
10
-2.19998066827048
20
27.2007228629445
30
0
41
1
10
-2.19997724370512
20
27.2724560614296
30
0
41
1
10
-2.19996490861479
20
27.4489071866795
30
0
41
1
10
-2.19995394411046
20
27.5150473383121
30
0
41
1
10
-2.19993803140676
20
27.5200070214755
30
0
41
1
10
-2.1999382733712
20
27.5200954539851
30
0
41
1
10
-2.19993489717172
20
27.520104892089
30
0
0
SPLINE
5
141
100
AcDbEntity
8
1
62
256
6
ByLayer
370
18
48
1
60
0
100
AcDbSpline
70
4
71
3
72
16
73
12
40
0
40
0
40
0
40
0
40
0.106540236282151
40
0.106540236282151
40
0.241524231508551
40
0.241524231508551
40
0.45419746746585
40
0.45419746746585
40
0.863287571214466
40
0.863287571214466
40
1
40
1
40
1
40
1
41
1
10
10.5386751345948
20
-12.1330899674707
30
0
41
1
10
10.5120751629628
20
-12.1330899674707
30
0
41
1
10
10.4851648089979
20
-12.1376961329265
30
0
41
1
10
10.4282434501437
20
-12.1565138205584
30
0
41
1
10
10.3983841608294
20
-12.1730621263328
30
0
41
1
10
10.3299403378657
20
-12.2234746526412
30
0
41
1
10
10.2944895005509
20
-12.2624396228893
30
0
41
1
10
10.2066033989695
20
-12.3829661542941
30
0
41
1
10
10.165551167059
20
-12.4733239854945
30
0
41
1
10
10.1235945509117
20
-12.5954068834216
30
0
41
1
10
10.1141502365141
20
-12.6264023893965
30
0
41
1
10
10.1056624327026
20
-12.6576002058703
30
0
0
SPLINE
5
142
100
AcDbEntity
8
1
62
256
6
ByLayer
370
18
48
1
60
0
100
AcDbSpline
70
4
71
3
72
16
73
12
40
0
40
0
40
0
40
0
40
0.106540236282198
40
0.106540236282198
40
0.241524231508617
40
0.241524231508617
40
0.454197467465977
40
0.454197467465977
40
0.863287571214732
40
0.863287571214732
40
1
40
1
40
1
40
1
41
1
10
13.4613248654052
20
12.1330899674707
30
0
41
1
10
13.4879248370372
20
12.1330899674707
30
0
41
1
10
13.5148351910021
20
12.1376961329265
30
0
41
1
10
13.5717565498563
20
12.1565138205584
30
0
41
1
10
13.6016158391707
20
12.1730621263328
30
0
41
1
10
13.6700596621344
20
12.2234746526412
30
0
41
1
10
13.7055104994492
20
12.2624396228893
30
0
41
1
10
13.7933966010306
20
12.3829661542942
30
0
41
1
10
13.834448832941
20
12.4733239854946
30
0
41
1
10
13.8764054490883
20
12.5954068834216
30
0
41
1
10
13.8858497634859
20
12.6264023893965
30
0
41
1
10
13.8943375672974
20
12.6576002058703
30
0
0
SPLINE
5
143
100
AcDbEntity
8
1
62
256
6
ByLayer
370
18
48
1
60
0
100
AcDbSpline
70
4
71
3
72
18
73
14
40
0
40
0
40
0
40
0
40
0.257641607841727
40
0.257641607841727
40
0.597516467797011
40
0.597516467797011
40
0.757555165809582
40
0.757555165809582
40
0.893040060678495
40
0.893040060678495
40
0.999735698644792
40
0.999735698644792
40
1
40
1
40
1
40
1
41
1
10
10.1056624327026
20
-37.9445010117191
30
0
41
1
10
10.1215750365555
20
-37.9640117024818
30
0
41
1
10
10.1408327441938
20
-37.9831682309936
30
0
41
1
10
10.1957945919117
20
-38.0260843711577
30
0
41
1
10
10.2350413961807
20
-38.0497943530972
30
0
41
1
10
10.3117333802282
20
-38.0798448869022
30
0
41
1
10
10.3396719415206
20
-38.0888501252952
30
0
41
1
10
10.3979377218466
20
-38.102632317157
30
0
41
1
10
10.4278711852493
20
-38.107943585332
30
0
41
1
10
10.4849051854502
20
-38.1139745711414
30
0
41
1
10
10.5118430649256
20
-38.1154507692338
30
0
41
1
10
10.5385412565898
20
-38.115457850648
30
0
41
1
10
10.5386081955955
20
-38.1154578595255
30
0
41
1
10
10.5386751345948
20
-38.1154578595255
30
0
0
LINE
5
70
100
AcDbEntity
8
1
62
256
6
ByLayer
370
18
48
1
60
0
100
AcDbLine
10
0.3
20
40
30
0
11
0
21
39.7
31
0
39
0
210
0
220
0
230
1
0
LINE
5
72
100
AcDbEntity
8
1
62
256
6
ByLayer
370
18
48
1
60
0
100
AcDbLine
10
0
20
-39.7
30
0
11
0.3
21
-40
31
0
39
0
210
0
220
0
230
1
0
LINE
5
73
100
AcDbEntity
8
1
62
256
6
ByLayer
370
18
48
1
60
0
100
AcDbLine
10
30
20
40
30
0
11
0.3
21
40
31
0
39
0
210
0
220
0
230
1
0
LINE
5
74
100
AcDbEntity
8
1
62
256
6
ByLayer
370
18
48
1
60
0
100
AcDbLine
10
0.3
20
-40
30
0
11
30
21
-40
31
0
39
0
210
0
220
0
230
1
0
LINE
5
75
100
AcDbEntity
8
1
62
256
6
ByLayer
370
18
48
1
60
0
100
AcDbLine
10
30
20
40
30
0
11
0.3
21
40
31
0
39
0
210
0
220
0
230
1
0
LINE
5
76
100
AcDbEntity
8
1
62
256
6
ByLayer
370
18
48
1
60
0
100
AcDbLine
10
0.3
20
-40
30
0
11
30
21
-40
31
0
39
0
210
0
220
0
230
1
0
LINE
5
77
100
AcDbEntity
8
1
62
256
6
ByLayer
370
18
48
1
60
0
100
AcDbLine
10
0.3
20
40
30
0
11
0
21
39.7
31
0
39
0
210
0
220
0
230
1
0
LINE
5
78
100
AcDbEntity
8
1
62
256
6
ByLayer
370
18
48
1
60
0
100
AcDbLine
10
0
20
-39.7
30
0
11
0.3
21
-40
31
0
39
0
210
0
220
0
230
1
0
LINE
5
79
100
AcDbEntity
8
1
62
256
6
ByLayer
370
18
48
1
60
0
100
AcDbLine
10
132.889734
20
-11.736657
30
0
11
130.000002
21
-9.930952
31
0
39
0
210
0
220
0
230
1
0
LINE
5
7A
100
AcDbEntity
8
1
62
256
6
ByLayer
370
18
48
1
60
0
100
AcDbLine
10
129.999955
20
-15.826814
30
0
11
130.240138
21
-15.976898
31
0
39
0
210
0
220
0
230
1
0
LINE
5
7B
100
AcDbEntity
8
1
62
256
6
ByLayer
370
18
48
1
60
0
100
AcDbLine
10
130.325811
20
-15.984243
30
0
11
130.525433
21
-15.934875
31
0
39
0
210
0
220
0
230
1
0
LINE
5
7C
100
AcDbEntity
8
1
62
256
6
ByLayer
370
18
48
1
60
0
100
AcDbLine
10
132.97703
20
-12.0115
30
0
11
132.933893
21
-11.81044
31
0
39
0
210
0
220
0
230
1
0
LINE
5
7D
100
AcDbEntity
8
1
62
256
6
ByLayer
370
18
48
1
60
0
100
AcDbLine
10
130
20
-37
30
0
11
130
21
5.757359
31
0
39
0
210
0
220
0
230
1
0
LINE
5
7E
100
AcDbEntity
8
SK1
62
256
6
ByLayer
370
18
48
1
60
0
100
AcDbLine
10
-2.2
20
12.864565
30
0
11
-2.2
21
24.989566
31
0
39
0
210
0
220
0
230
1
0
LINE
5
80
100
AcDbEntity
8
1
62
256
6
ByLayer
370
18
48
1
60
0
100
AcDbLine
10
0.3
20
40
30
0
11
0.3
21
-40
31
0
39
0
210
0
220
0
230
1
0
LINE
5
81
100
AcDbEntity
8
1
62
256
6
ByLayer
370
13
48
1
60
0
100
AcDbLine
10
10.105662
20
12.6576
30
0
11
10.105662
21
37.944501
31
0
39
0
210
0
220
0
230
1
0
LINE
5
82
100
AcDbEntity
8
1
62
256
6
ByLayer
370
18
48
1
60
0
100
AcDbLine
10
32.04553
20
-37
30
0
11
130
21
-37
31
0
39
0
210
0
220
0
230
1
0
LINE
5
83
100
AcDbEntity
8
1
62
256
6
ByLayer
370
18
48
1
60
0
100
AcDbLine
10
30
20
-40
30
0
11
32.213184
21
-40
31
0
39
0
210
0
220
0
230
1
0
LINE
5
84
100
AcDbEntity
8
SK3
62
256
6
ByLayer
370
18
48
0.05
60
0
100
AcDbLine
10
35
20
-8.25
30
0
11
35
21
-40
31
0
39
0
210
0
220
0
230
1
0
LINE
5
86
100
AcDbEntity
8
SK1
62
256
6
ByLayer
370
13
48
1
60
0
100
AcDbLine
10
-0.4
20
27.317983
30
0
11
-0.4
21
5.670607
31
0
39
0
210
0
220
0
230
1
0
LINE
5
87
100
AcDbEntity
8
1
62
256
6
ByLayer
370
13
48
1
60
0
100
AcDbLine
10
13.894338
20
12.6576
30
0
11
13.894338
21
37.944501
31
0
39
0
210
0
220
0
230
1
0
LINE
5
88
100
AcDbEntity
8
1
62
256
6
ByLayer
370
18
48
1
60
0
100
AcDbLine
10
30
20
28.284271
30
0
11
30
21
40
31
0
39
0
210
0
220
0
230
1
0
LINE
5
89
100
AcDbEntity
8
SK1
62
256
6
ByLayer
370
13
48
1
60
0
100
AcDbLine
10
-3
20
-27.5
30
0
11
-3
21
27.5
31
0
39
0
210
0
220
0
230
1
0
LINE
5
8A
100
AcDbEntity
8
1
62
256
6
ByLayer
370
13
48
1
60
0
100
AcDbLine
10
10.105662
20
-37.944501
30
0
11
10.105662
21
-12.6576
31
0
39
0
210
0
220
0
230
1
0
LINE
5
8B
100
AcDbEntity
8
SK1
62
256
6
ByLayer
370
18
48
1
60
0
100
AcDbLine
10
-2.2
20
-12.864564
30
0
11
-2.2
21
12.864565
31
0
39
0
210
0
220
0
230
1
0
LINE
5
8C
100
AcDbEntity
8
SK1
62
256
6
ByLayer
370
18
48
1
60
0
100
AcDbLine
10
-0.2
20
-6.365251
30
0
11
-0.2
21
-28.683485
31
0
39
0
210
0
220
0
230
1
0
LINE
5
8D
100
AcDbEntity
8
1
62
256
6
ByLayer
370
18
48
1
60
0
100
AcDbLine
10
13.461325
20
12.13309
30
0
11
10.538675
21
12.13309
31
0
39
0
210
0
220
0
230
1
0
LINE
5
8E
100
AcDbEntity
8
1
62
256
6
ByLayer
370
18
48
1
60
0
100
AcDbLine
10
30
20
40
30
0
11
30.883077
21
40
31
0
39
0
210
0
220
0
230
1
0
LINE
5
8F
100
AcDbEntity
8
1
62
256
6
ByLayer
370
18
48
1
60
0
100
AcDbLine
10
140
20
-4.242641
30
0
11
140
21
-40
31
0
39
0
210
0
220
0
230
1
0
LINE
5
90
100
AcDbEntity
8
1
62
256
6
ByLayer
370
13
48
1
60
0
100
AcDbLine
10
13.461325
20
12.13309
30
0
11
13.461325
21
38.115458
31
0
39
0
210
0
220
0
230
1
0
LINE
5
91
100
AcDbEntity
8
SK1
62
256
6
ByLayer
370
13
48
1
60
0
100
AcDbLine
10
-2
20
27.325151
30
0
11
-2
21
-27.325151
31
0
39
0
210
0
220
0
230
1
0
LINE
5
92
100
AcDbEntity
8
1
62
256
6
ByLayer
370
18
48
1
60
0
100
AcDbLine
10
0
20
-39.7
30
0
11
0
21
39.7
31
0
39
0
210
0
220
0
230
1
0
LINE
5
93
100
AcDbEntity
8
1
62
256
6
ByLayer
370
13
48
1
60
0
100
AcDbLine
10
13.894338
20
-37.944501
30
0
11
13.894338
21
-12.6576
31
0
39
0
210
0
220
0
230
1
0
LINE
5
94
100
AcDbEntity
8
1
62
256
6
ByLayer
370
18
48
1
60
0
100
AcDbLine
10
130
20
5.757359
30
0
11
130.5
21
5.257359
31
0
39
0
210
0
220
0
230
1
0
LINE
5
95
100
AcDbEntity
8
SK1
62
256
6
ByLayer
370
13
48
1
60
0
100
AcDbLine
10
-1.307107
20
4.281245
30
0
11
-1.307107
21
-4.281244
31
0
39
0
210
0
220
0
230
1
0
LINE
5
96
100
AcDbEntity
8
1
62
256
6
ByLayer
370
18
48
1
60
0
100
AcDbLine
10
10.538675
20
38.115458
30
0
11
13.461325
21
38.115458
31
0
39
0
210
0
220
0
230
1
0
LINE
5
97
100
AcDbEntity
8
1
62
256
6
ByLayer
370
18
48
1
60
0
100
AcDbLine
10
95.757359
20
40
30
0
11
109.188817
21
26.568542
31
0
39
0
210
0
220
0
230
1
0
LINE
5
98
100
AcDbEntity
8
SK1
62
256
6
ByLayer
370
13
48
1
60
0
100
AcDbLine
10
-0.4
20
-5.670607
30
0
11
-0.4
21
-27.317786
31
0
39
0
210
0
220
0
230
1
0
LINE
5
99
100
AcDbEntity
8
1
62
256
6
ByLayer
370
18
48
1
60
0
100
AcDbLine
10
13.461325
20
-38.115458
30
0
11
10.538675
21
-38.115458
31
0
39
0
210
0
220
0
230
1
0
LINE
5
9A
100
AcDbEntity
8
1
62
256
6
ByLayer
370
18
48
1
60
0
100
AcDbLine
10
130.5
20
5.257359
30
0
11
140
21
-4.242641
31
0
39
0
210
0
220
0
230
1
0
LINE
5
9B
100
AcDbEntity
8
1
62
256
6
ByLayer
370
18
48
1
60
0
100
AcDbLine
10
30
20
26.457513
30
0
11
30
21
28.284271
31
0
39
0
210
0
220
0
230
1
0
LINE
5
9C
100
AcDbEntity
8
SK1
62
256
6
ByLayer
370
18
48
1
60
0
100
AcDbLine
10
-46.500473
20
26.407117
30
0
11
-46.500473
21
-26.407117
31
0
39
0
210
0
220
0
230
1
0
LINE
5
9D
100
AcDbEntity
8
SK1
62
256
6
ByLayer
370
18
48
1
60
0
100
AcDbLine
10
-2.2
20
-24.989567
30
0
11
-2.2
21
-12.864564
31
0
39
0
210
0
220
0
230
1
0
LINE
5
9E
100
AcDbEntity
8
1
62
256
6
ByLayer
370
13
48
1
60
0
100
AcDbLine
10
13.461325
20
-38.115458
30
0
11
13.461325
21
-12.13309
31
0
39
0
210
0
220
0
230
1
0
LINE
5
9F
100
AcDbEntity
8
1
62
256
6
ByLayer
370
18
48
1
60
0
100
AcDbLine
10
95.757359
20
40
30
0
11
30.883077
21
40
31
0
39
0
210
0
220
0
230
1
0
LINE
5
A0
100
AcDbEntity
8
1
62
256
6
ByLayer
370
18
48
1
60
0
100
AcDbLine
10
130.5
20
5.257359
30
0
11
130.5
21
-8.05
31
0
39
0
210
0
220
0
230
1
0
LINE
5
A1
100
AcDbEntity
8
1
62
256
6
ByLayer
370
18
48
1
60
0
100
AcDbLine
10
109.188817
20
26.568542
30
0
11
130
21
5.757359
31
0
39
0
210
0
220
0
230
1
0
LINE
5
A2
100
AcDbEntity
8
1
62
256
6
ByLayer
370
18
48
1
60
0
100
AcDbLine
10
10.538675
20
-12.13309
30
0
11
13.461325
21
-12.13309
31
0
39
0
210
0
220
0
230
1
0
LINE
5
A3
100
AcDbEntity
8
1
62
256
6
ByLayer
370
18
48
1
60
0
100
AcDbLine
10
140
20
-40
30
0
11
129.99933
21
-40
31
0
39
0
210
0
220
0
230
1
0
LINE
5
A4
100
AcDbEntity
8
SK1
62
256
6
ByLayer
370
18
48
1
60
0
100
AcDbLine
10
-0.2
20
28.683485
30
0
11
-0.2
21
6.365252
31
0
39
0
210
0
220
0
230
1
0
LINE
5
A5
100
AcDbEntity
8
1
62
256
6
ByLayer
370
13
48
1
60
0
100
AcDbLine
10
10.538675
20
12.13309
30
0
11
10.538675
21
38.115458
31
0
39
0
210
0
220
0
230
1
0
LINE
5
A6
100
AcDbEntity
8
1
62
256
6
ByLayer
370
18
48
1
60
0
100
AcDbLine
10
130
20
-40
30
0
11
32.213184
21
-40
31
0
39
0
210
0
220
0
230
1
0
LINE
5
A7
100
AcDbEntity
8
1
62
256
6
ByLayer
370
18
48
1
60
0
100
AcDbLine
10
130
20
-37
30
0
11
130
21
-40
31
0
39
0
210
0
220
0
230
1
0
LINE
5
A8
100
AcDbEntity
8
1
62
256
6
ByLayer
370
18
48
1
60
0
100
AcDbLine
10
30
20
-26.457513
30
0
11
30
21
26.457513
31
0
39
0
210
0
220
0
230
1
0
LINE
5
A9
100
AcDbEntity
8
1
62
256
6
ByLayer
370
18
48
1
60
0
100
AcDbLine
10
109.188817
20
26.568542
30
0
11
30.019701
21
26.568542
31
0
39
0
210
0
220
0
230
1
0
LINE
5
AA
100
AcDbEntity
8
1
62
256
6
ByLayer
370
18
48
1
60
0
100
AcDbLine
10
30
20
-40
30
0
11
30
21
-26.457513
31
0
39
0
210
0
220
0
230
1
0
LINE
5
AB
100
AcDbEntity
8
SK1
62
256
6
ByLayer
370
18
48
1
60
0
100
AcDbLine
10
-48
20
25.490367
30
0
11
-48
21
-25.490146
31
0
39
0
210
0
220
0
230
1
0
LINE
5
AC
100
AcDbEntity
8
1
62
256
6
ByLayer
370
13
48
1
60
0
100
AcDbLine
10
10.538675
20
-38.115458
30
0
11
10.538675
21
-12.13309
31
0
39
0
210
0
220
0
230
1
0
LINE
5
AD
100
AcDbEntity
8
1
62
256
6
ByLayer
370
13
48
1
60
0
100
AcDbLine
10
130.5
20
-8.05
30
0
11
129.999014
21
-8.05
31
0
39
0
210
0
220
0
230
1
0
LINE
5
AE
100
AcDbEntity
8
1
62
256
6
ByLayer
370
18
48
1
60
0
100
AcDbLine
10
13.461325
20
12.13309
30
0
11
10.538675
21
12.13309
31
0
39
0
210
0
220
0
230
1
0
LINE
5
AF
100
AcDbEntity
8
1
62
256
6
ByLayer
370
13
48
1
60
0
100
AcDbLine
10
13.461325
20
-38.115458
30
0
11
13.461325
21
-12.13309
31
0
39
0
210
0
220
0
230
1
0
LINE
5
B0
100
AcDbEntity
8
SK1
62
256
6
ByLayer
370
18
48
1
60
0
100
AcDbLine
10
-2.2
20
-24.989567
30
0
11
-2.2
21
-12.864564
31
0
39
0
210
0
220
0
230
1
0
LINE
5
B1
100
AcDbEntity
8
SK1
62
256
6
ByLayer
370
13
48
1
60
0
100
AcDbLine
10
-3
20
-27.5
30
0
11
-3
21
27.5
31
0
39
0
210
0
220
0
230
1
0
LINE
5
B2
100
AcDbEntity
8
1
62
256
6
ByLayer
370
13
48
1
60
0
100
AcDbLine
10
13.894338
20
-37.944501
30
0
11
13.894338
21
-12.6576
31
0
39
0
210
0
220
0
230
1
0
LINE
5
B3
100
AcDbEntity
8
SK1
62
256
6
ByLayer
370
18
48
1
60
0
100
AcDbLine
10
-48
20
25.490367
30
0
11
-48
21
-25.490146
31
0
39
0
210
0
220
0
230
1
0
LINE
5
B4
100
AcDbEntity
8
SK1
62
256
6
ByLayer
370
13
48
1
60
0
100
AcDbLine
10
-1.307107
20
4.281245
30
0
11
-1.307107
21
-4.281244
31
0
39
0
210
0
220
0
230
1
0
LINE
5
B5
100
AcDbEntity
8
1
62
256
6
ByLayer
370
13
48
1
60
0
100
AcDbLine
10
13.461325
20
12.13309
30
0
11
13.461325
21
38.115458
31
0
39
0
210
0
220
0
230
1
0
LINE
5
B6
100
AcDbEntity
8
1
62
256
6
ByLayer
370
18
48
1
60
0
100
AcDbLine
10
30
20
-40
30
0
11
30
21
40
31
0
39
0
210
0
220
0
230
1
0
LINE
5
B7
100
AcDbEntity
8
SK1
62
256
6
ByLayer
370
13
48
1
60
0
100
AcDbLine
10
-2
20
27.325151
30
0
11
-2
21
-27.325151
31
0
39
0
210
0
220
0
230
1
0
LINE
5
B8
100
AcDbEntity
8
SK1
62
256
6
ByLayer
370
18
48
1
60
0
100
AcDbLine
10
-2.2
20
-12.864564
30
0
11
-2.2
21
12.864565
31
0
39
0
210
0
220
0
230
1
0
LINE
5
B9
100
AcDbEntity
8
SK1
62
256
6
ByLayer
370
18
48
1
60
0
100
AcDbLine
10
-0.2
20
-6.365251
30
0
11
-0.2
21
-28.683485
31
0
39
0
210
0
220
0
230
1
0
LINE
5
BA
100
AcDbEntity
8
1
62
256
6
ByLayer
370
13
48
1
60
0
100
AcDbLine
10
10.105662
20
-37.944501
30
0
11
10.105662
21
-12.6576
31
0
39
0
210
0
220
0
230
1
0
LINE
5
BB
100
AcDbEntity
8
1
62
256
6
ByLayer
370
18
48
1
60
0
100
AcDbLine
10
10.538675
20
-12.13309
30
0
11
13.461325
21
-12.13309
31
0
39
0
210
0
220
0
230
1
0
LINE
5
BC
100
AcDbEntity
8
1
62
256
6
ByLayer
370
13
48
1
60
0
100
AcDbLine
10
13.894338
20
12.6576
30
0
11
13.894338
21
37.944501
31
0
39
0
210
0
220
0
230
1
0
LINE
5
BD
100
AcDbEntity
8
SK1
62
256
6
ByLayer
370
18
48
1
60
0
100
AcDbLine
10
-2.2
20
12.864565
30
0
11
-2.2
21
24.989566
31
0
39
0
210
0
220
0
230
1
0
LINE
5
BE
100
AcDbEntity
8
SK1
62
256
6
ByLayer
370
13
48
1
60
0
100
AcDbLine
10
-0.4
20
-5.670607
30
0
11
-0.4
21
-27.317786
31
0
39
0
210
0
220
0
230
1
0
LINE
5
BF
100
AcDbEntity
8
1
62
256
6
ByLayer
370
18
48
1
60
0
100
AcDbLine
10
0.3
20
40
30
0
11
0.3
21
-40
31
0
39
0
210
0
220
0
230
1
0
LINE
5
C0
100
AcDbEntity
8
1
62
256
6
ByLayer
370
13
48
1
60
0
100
AcDbLine
10
10.538675
20
-38.115458
30
0
11
10.538675
21
-12.13309
31
0
39
0
210
0
220
0
230
1
0
LINE
5
C1
100
AcDbEntity
8
1
62
256
6
ByLayer
370
18
48
1
60
0
100
AcDbLine
10
13.461325
20
-38.115458
30
0
11
10.538675
21
-38.115458
31
0
39
0
210
0
220
0
230
1
0
LINE
5
C2
100
AcDbEntity
8
SK1
62
256
6
ByLayer
370
18
48
1
60
0
100
AcDbLine
10
-0.2
20
28.683485
30
0
11
-0.2
21
6.365252
31
0
39
0
210
0
220
0
230
1
0
LINE
5
C3
100
AcDbEntity
8
1
62
256
6
ByLayer
370
13
48
1
60
0
100
AcDbLine
10
10.105662
20
12.6576
30
0
11
10.105662
21
37.944501
31
0
39
0
210
0
220
0
230
1
0
LINE
5
C4
100
AcDbEntity
8
SK1
62
256
6
ByLayer
370
18
48
1
60
0
100
AcDbLine
10
-46.500473
20
26.407117
30
0
11
-46.500473
21
-26.407117
31
0
39
0
210
0
220
0
230
1
0
LINE
5
C5
100
AcDbEntity
8
SK1
62
256
6
ByLayer
370
13
48
1
60
0
100
AcDbLine
10
-0.4
20
27.317983
30
0
11
-0.4
21
5.670607
31
0
39
0
210
0
220
0
230
1
0
LINE
5
C6
100
AcDbEntity
8
1
62
256
6
ByLayer
370
18
48
1
60
0
100
AcDbLine
10
0
20
-39.7
30
0
11
0
21
39.7
31
0
39
0
210
0
220
0
230
1
0
LINE
5
C7
100
AcDbEntity
8
1
62
256
6
ByLayer
370
13
48
1
60
0
100
AcDbLine
10
10.538675
20
12.13309
30
0
11
10.538675
21
38.115458
31
0
39
0
210
0
220
0
230
1
0
LINE
5
C8
100
AcDbEntity
8
1
62
256
6
ByLayer
370
18
48
1
60
0
100
AcDbLine
10
10.538675
20
38.115458
30
0
11
13.461325
21
38.115458
31
0
39
0
210
0
220
0
230
1
0
LINE
5
C9
100
AcDbEntity
8
1
62
256
6
ByLayer
370
18
48
1
60
0
100
AcDbLine
10
121
20
-27.497299
30
0
11
117.97125
21
-25.74865
31
0
39
0
210
0
220
0
230
1
0
LINE
5
CA
100
AcDbEntity
8
1
62
256
6
ByLayer
370
18
48
1
60
0
100
AcDbLine
10
121
20
-27.497299
30
0
11
124.02875
21
-25.74865
31
0
39
0
210
0
220
0
230
1
0
LINE
5
CB
100
AcDbEntity
8
1
62
256
6
ByLayer
370
18
48
1
60
0
100
AcDbLine
10
117.97125
20
-25.74865
30
0
11
117.97125
21
-22.25135
31
0
39
0
210
0
220
0
230
1
0
LINE
5
CC
100
AcDbEntity
8
1
62
256
6
ByLayer
370
18
48
1
60
0
100
AcDbLine
10
124.02875
20
-25.74865
30
0
11
124.02875
21
-22.25135
31
0
39
0
210
0
220
0
230
1
0
LINE
5
CD
100
AcDbEntity
8
1
62
256
6
ByLayer
370
18
48
1
60
0
100
AcDbLine
10
117.97125
20
-22.25135
30
0
11
121
21
-20.502701
31
0
39
0
210
0
220
0
230
1
0
LINE
5
CE
100
AcDbEntity
8
1
62
256
6
ByLayer
370
18
48
1
60
0
100
AcDbLine
10
124.02875
20
-22.25135
30
0
11
121
21
-20.502701
31
0
39
0
210
0
220
0
230
1
0
LINE
5
CF
100
AcDbEntity
8
1
62
256
6
ByLayer
370
18
48
1
60
0
100
AcDbLine
10
86
20
-27.497299
30
0
11
82.97125
21
-25.74865
31
0
39
0
210
0
220
0
230
1
0
LINE
5
D0
100
AcDbEntity
8
1
62
256
6
ByLayer
370
18
48
1
60
0
100
AcDbLine
10
86
20
-27.497299
30
0
11
89.02875
21
-25.74865
31
0
39
0
210
0
220
0
230
1
0
LINE
5
D1
100
AcDbEntity
8
1
62
256
6
ByLayer
370
18
48
1
60
0
100
AcDbLine
10
82.97125
20
-25.74865
30
0
11
82.97125
21
-22.25135
31
0
39
0
210
0
220
0
230
1
0
LINE
5
D2
100
AcDbEntity
8
1
62
256
6
ByLayer
370
18
48
1
60
0
100
AcDbLine
10
89.02875
20
-25.74865
30
0
11
89.02875
21
-22.25135
31
0
39
0
210
0
220
0
230
1
0
LINE
5
D3
100
AcDbEntity
8
1
62
256
6
ByLayer
370
18
48
1
60
0
100
AcDbLine
10
82.97125
20
-22.25135
30
0
11
86
21
-20.502701
31
0
39
0
210
0
220
0
230
1
0
LINE
5
D4
100
AcDbEntity
8
1
62
256
6
ByLayer
370
18
48
1
60
0
100
AcDbLine
10
89.02875
20
-22.25135
30
0
11
86
21
-20.502701
31
0
39
0
210
0
220
0
230
1
0
LINE
5
D5
100
AcDbEntity
8
1
62
256
6
ByLayer
370
18
48
1
60
0
100
AcDbLine
10
51
20
-27.497299
30
0
11
47.97125
21
-25.74865
31
0
39
0
210
0
220
0
230
1
0
LINE
5
D6
100
AcDbEntity
8
1
62
256
6
ByLayer
370
18
48
1
60
0
100
AcDbLine
10
51
20
-27.497299
30
0
11
54.02875
21
-25.74865
31
0
39
0
210
0
220
0
230
1
0
LINE
5
D7
100
AcDbEntity
8
1
62
256
6
ByLayer
370
18
48
1
60
0
100
AcDbLine
10
47.97125
20
-25.74865
30
0
11
47.97125
21
-22.25135
31
0
39
0
210
0
220
0
230
1
0
LINE
5
D8
100
AcDbEntity
8
1
62
256
6
ByLayer
370
18
48
1
60
0
100
AcDbLine
10
54.02875
20
-25.74865
30
0
11
54.02875
21
-22.25135
31
0
39
0
210
0
220
0
230
1
0
LINE
5
D9
100
AcDbEntity
8
1
62
256
6
ByLayer
370
18
48
1
60
0
100
AcDbLine
10
47.97125
20
-22.25135
30
0
11
51
21
-20.502701
31
0
39
0
210
0
220
0
230
1
0
LINE
5
DA
100
AcDbEntity
8
1
62
256
6
ByLayer
370
18
48
1
60
0
100
AcDbLine
10
54.02875
20
-22.25135
30
0
11
51
21
-20.502701
31
0
39
0
210
0
220
0
230
1
0
LINE
5
DB
100
AcDbEntity
8
SK3
62
256
6
ByLayer
370
18
48
0.05
60
0
100
AcDbLine
10
130
20
-8.25
30
0
11
35
21
-8.25
31
0
39
0
210
0
220
0
230
1
0
LINE
5
DC
100
AcDbEntity
8
80
62
256
6
ByLayer
370
13
48
1
60
0
100
AcDbLine
10
0
20
0
30
0
11
-22.903748
21
0
31
0
39
0
210
0
220
0
230
1
0
LINE
5
DD
100
AcDbEntity
8
4
62
256
6
ByLayer
370
18
48
0.05
60
0
100
AcDbLine
10
0
20
0
30
0
11
140
21
0
31
0
39
0
210
0
220
0
230
1
0
LINE
5
DF
100
AcDbEntity
8
SK4
62
256
6
ByLayer
370
18
48
0.05
60
0
100
AcDbLine
10
144.887663
20
0
30
0
11
-57.305124
21
0
31
0
39
0
210
0
220
0
230
1
0
LINE
5
E1
100
AcDbEntity
8
81
62
256
6
ByLayer
370
13
48
1
60
0
100
AcDbLine
10
140
20
-24.125
30
0
11
150
21
-24.125
31
0
39
0
210
0
220
0
230
1
0
MTEXT
5
144
100
AcDbEntity
8
SK6
62
256
6
ByLayer
370
18
48
1
60
0
100
AcDbMText
10
5.010382
20
49.940839
30
0
210
0
220
0
230
1
1
\W0.7498;C8-ASHL-40140-20-A
40
3.5
41
0
44
1.084337
50
0
71
7
72
5
7
iso_b_vert
0
DIMENSION
5
157
100
AcDbEntity
8
SK2
62
256
6
ByLayer
370
13
48
1
60
0
100
AcDbDimension
2
DimnDraft3D1
10
-67.860611
20
-40
30
0
11
-68.110611
21
2.707895
31
0
70
33
71
5
72
1
41
1
210
0
220
0
230
1
3
Standard
100
AcDbAlignedDimension
13
-1.7
23
40
33
0
14
-1.7
24
-40
34
0
1001
ACAD
1000
DSTYLE
1002
{
1070
   279
1070
     0
1070
    74
1070
     0
1070
   173
1070
     1
1070
   340
1005
145
1070
   271
1070
     2
1070
    77
1070
     1
1070
    73
1070
     0
1070
   171
1070
     3
1070
   274
1070
     3
1070
   177
1070
     7
1070
   176
1070
     7
1070
   178
1070
     7
1070
    78
1070
     8
1070
    41
1041
3.175
1070
   147
1041
1.5
1070
    42
1041
2.0
1070
    44
1041
2.0
1070
   140
1041
3.0
1070
   343
1005
0
1070
   344
1005
0
1002
}
0
DIMENSION
5
165
100
AcDbEntity
8
SK2
62
256
6
ByLayer
370
13
48
1
60
0
100
AcDbDimension
2
DimnDraft3D2
10
30
20
-57.762576
30
0
11
13.207895
21
-57.762576
31
0
70
32
71
5
72
1
41
1
210
0
220
0
230
1
3
Standard
100
AcDbAlignedDimension
13
0
23
-41.7
33
0
14
30
24
-42
34
0
50
0
100
AcDbRotatedDimension
1001
ACAD
1000
DSTYLE
1002
{
1070
   279
1070
     0
1070
   172
1070
     1
1070
   173
1070
     1
1070
   340
1005
145
1070
   271
1070
     2
1070
    77
1070
     1
1070
    73
1070
     0
1070
   171
1070
     3
1070
   274
1070
     3
1070
   177
1070
     7
1070
   176
1070
     7
1070
   178
1070
     7
1070
    78
1070
     8
1070
    41
1041
3.175
1070
   147
1041
1.5
1070
    42
1041
2.0
1070
    44
1041
2.0
1070
   140
1041
3.0
1070
   343
1005
0
1070
   344
1005
0
1002
}
0
DIMENSION
5
173
100
AcDbEntity
8
SK2
62
256
6
ByLayer
370
13
48
1
60
0
100
AcDbDimension
2
DimnDraft3D3
10
35
20
-69.779269
30
0
11
15.707895
21
-69.779269
31
0
70
32
71
5
72
1
41
1
210
0
220
0
230
1
3
Standard
100
AcDbAlignedDimension
13
0
23
-41.7
33
0
14
35
24
-42
34
0
50
0
100
AcDbRotatedDimension
1001
ACAD
1000
DSTYLE
1002
{
1070
   279
1070
     0
1070
   172
1070
     1
1070
   173
1070
     1
1070
   340
1005
145
1070
   271
1070
     5
1070
    77
1070
     1
1070
    73
1070
     0
1070
   171
1070
     3
1070
   274
1070
     3
1070
   177
1070
     7
1070
   176
1070
     7
1070
   178
1070
     7
1070
    78
1070
     8
1070
    41
1041
3.175
1070
   147
1041
1.5
1070
    42
1041
2.0
1070
    44
1041
2.0
1070
   140
1041
3.0
1070
   343
1005
174
1070
   344
1005
174
1002
}
0
DIMENSION
5
188
100
AcDbEntity
8
SK2
62
256
6
ByLayer
370
13
48
1
60
0
100
AcDbDimension
2
DimnDraft3D4
10
129.99933
20
-81.432704
30
0
11
62.461507
21
-81.432704
31
0
70
32
71
5
72
1
41
1
210
0
220
0
230
1
3
Standard
100
AcDbAlignedDimension
13
0
23
-41.7
33
0
14
129.99933
24
-42
34
0
50
0
100
AcDbRotatedDimension
1001
ACAD
1000
DSTYLE
1002
{
1070
   279
1070
     0
1070
   172
1070
     1
1070
   173
1070
     1
1070
   340
1005
145
1070
   271
1070
     2
1070
    77
1070
     1
1070
    73
1070
     0
1070
   171
1070
     3
1070
   274
1070
     3
1070
   177
1070
     7
1070
   176
1070
     7
1070
   178
1070
     7
1070
    78
1070
     8
1070
    41
1041
3.175
1070
   147
1041
1.5
1070
    42
1041
2.0
1070
    44
1041
2.0
1070
   140
1041
3.0
1070
   343
1005
0
1070
   344
1005
0
1002
}
0
DIMENSION
5
197
100
AcDbEntity
8
2
62
256
6
ByLayer
370
13
48
1
60
0
100
AcDbDimension
2
DimnDraft3D5
10
140
20
-94.466765
30
0
11
67.303947
21
-94.466765
31
0
70
32
71
5
72
1
41
1
210
0
220
0
230
1
3
Standard
100
AcDbAlignedDimension
13
0
23
-41.7
33
0
14
140
24
-42
34
0
50
0
100
AcDbRotatedDimension
1001
ACAD
1000
DSTYLE
1002
{
1070
   279
1070
     0
1070
   172
1070
     1
1070
   173
1070
     1
1070
   340
1005
145
1070
   271
1070
     2
1070
    77
1070
     1
1070
    73
1070
     0
1070
   171
1070
     3
1070
   274
1070
     3
1070
   177
1070
     7
1070
   176
1070
     7
1070
   178
1070
     7
1070
    78
1070
     8
1070
    41
1041
3.175
1070
   147
1041
1.5
1070
    42
1041
2.0
1070
    44
1041
2.0
1070
   140
1041
3.0
1070
   343
1005
0
1070
   344
1005
0
1002
}
0
DIMENSION
5
1A5
100
AcDbEntity
8
SK2
62
256
6
ByLayer
370
13
48
1
60
0
100
AcDbDimension
2
DimnDraft3D6
10
158.71239
20
-8.25
30
0
11
158.71239
21
10.255
31
0
70
32
71
5
72
1
41
1
210
0
220
0
230
1
3
Standard
100
AcDbAlignedDimension
13
146.887663
23
0
33
0
14
132
24
-8.25
34
0
50
90
100
AcDbRotatedDimension
1001
ACAD
1000
DSTYLE
1002
{
1070
    74
1070
     0
1070
   279
1070
     0
1070
   172
1070
     1
1070
   173
1070
     1
1070
   340
1005
145
1070
   271
1070
     2
1070
    77
1070
     1
1070
    73
1070
     0
1070
   171
1070
     3
1070
   274
1070
     3
1070
   177
1070
     7
1070
   176
1070
     7
1070
   178
1070
     7
1070
    78
1070
     8
1070
    41
1041
3.175
1070
   147
1041
1.5
1070
    42
1041
2.0
1070
    44
1041
2.0
1070
   140
1041
3.0
1070
   343
1005
0
1070
   344
1005
0
1002
}
0
DIMENSION
5
1B3
100
AcDbEntity
8
SK2
62
256
6
ByLayer
370
13
48
1
60
0
100
AcDbDimension
2
DimnDraft3D7
10
169.995607
20
-40
30
0
11
169.995607
21
-21.95
31
0
70
32
71
5
72
1
41
1
210
0
220
0
230
1
3
Standard
100
AcDbAlignedDimension
13
142
23
0
33
0
14
142
24
-40
34
0
50
90
100
AcDbRotatedDimension
1001
ACAD
1000
DSTYLE
1002
{
1070
    74
1070
     0
1070
   279
1070
     0
1070
   172
1070
     1
1070
   173
1070
     1
1070
   340
1005
145
1070
   271
1070
     2
1070
    77
1070
     1
1070
    73
1070
     0
1070
   171
1070
     3
1070
   274
1070
     3
1070
   177
1070
     7
1070
   176
1070
     7
1070
   178
1070
     7
1070
    78
1070
     8
1070
    41
1041
3.175
1070
   147
1041
1.5
1070
    42
1041
2.0
1070
    44
1041
2.0
1070
   140
1041
3.0
1070
   343
1005
0
1070
   344
1005
0
1002
}
0
DIMENSION
5
1C1
100
AcDbEntity
8
SK2
62
256
6
ByLayer
370
13
48
1
60
0
100
AcDbDimension
2
DimnDraft3D8
10
169.995607
20
40
30
0
11
169.995607
21
6.636805
31
0
70
32
71
5
72
1
41
1
210
0
220
0
230
1
3
Standard
100
AcDbAlignedDimension
13
146.887663
23
0
33
0
14
97.757359
24
40
34
0
50
90
100
AcDbRotatedDimension
1001
ACAD
1000
DSTYLE
1002
{
1070
    74
1070
     0
1070
   279
1070
     0
1070
   172
1070
     1
1070
   173
1070
     1
1070
   340
1005
145
1070
   271
1070
     2
1070
    77
1070
     1
1070
    73
1070
     0
1070
   171
1070
     3
1070
   274
1070
     3
1070
   177
1070
     7
1070
   176
1070
     7
1070
   178
1070
     7
1070
    78
1070
     8
1070
    41
1041
3.175
1070
   147
1041
1.5
1070
    42
1041
2.0
1070
    44
1041
2.0
1070
   140
1041
3.0
1070
   343
1005
0
1070
   344
1005
0
1002
}
0
ENDSEC
0
SECTION
2
OBJECTS
0
DICTIONARY
5
22d
330
0
100
AcDbDictionary
280
0
281
1
3
ACAD_GROUP
350
22e
3
ACAD_MLINESTYLE
350
22f
0
DICTIONARY
5
22e
330
0
100
AcDbDictionary
280
0
281
1
0
DICTIONARY
5
22f
330
0
100
AcDbDictionary
280
0
281
1
3
Standard
350
18
0
MLINESTYLE
5
18
330
22f
100
AcDbMlineStyle
2
Standard
70
0
3

62
256
51
90
52
90
71
2
49
-0.5
62
256
6
ByLayer
49
0.5
62
256
6
ByLayer
0
RASTERVARIABLES
5
21a
330

100
AcDbRasterVariables
90
0
70
1
71
1
72
1
0
ENDSEC
0
EOF
