0
SECTION
2
HEADER
9
$ACADVER
1
AC1015
9
$DWGCODEPAGE
3
ANSI_1252
9
$HANDSEED
5
1e9
9
$ANGBASE
50
0
9
$ANGDIR
70
0
9
$ATTMODE
70
1
9
$AUNITS
70
0
9
$AUPREC
70
0
9
$CECOLOR
62
256
9
$CELTSCALE
40
1
9
$CELTYPE
6
ByLayer
9
$CELWEIGHT
370
18
9
$CLAYER
8
0
9
$CMLJUST
70
0
9
$CMLSCALE
40
1
9
$CMLSTYLE
2
Standard
9
$DIMSTYLE
2
Standard
9
$TEXTSIZE
40
0.2
9
$TEXTSTYLE
7
Standard
9
$LUNITS
70
2
9
$LUPREC
70
4
9
$EXTNAMES
290
1
9
$INSUNITS
70
4
9
$LTSCALE
40
1
9
$LWDISPLAY
290
1
9
$PDMODE
70
0
9
$PDSIZE
40
0
9
$PLINEGEN
70
0
0
ENDSEC
0
SECTION
2
CLASSES
0
CLASS
1
RASTERVARIABLES
2
AcDbRasterVariables
3
ISM
90
0
280
0
281
0
0
ENDSEC
0
SECTION
2
TABLES
0
TABLE
2
VPORT
5
1df
100
AcDbSymbolTable
0
VPORT
5
1
100
AcDbSymbolTableRecord
100
AcDbViewportTableRecord
2
*Active
70
0
10
0
20
0
11
1
21
1
12
-1
22
1
13
0
23
0
14
0.5
24
0.5
15
10
25
10
16
0
26
0
36
1
17
0
27
0
37
0
0
ENDTAB
0
TABLE
2
LTYPE
5
1e0
100
AcDbSymbolTable
0
LTYPE
5
14
100
AcDbSymbolTableRecord
100
AcDbLinetypeTableRecord
70
0
2
ByBlock
3

72
65
73
0
40
0
0
LTYPE
5
15
100
AcDbSymbolTableRecord
100
AcDbLinetypeTableRecord
70
0
2
ByLayer
3

72
65
73
0
40
0
0
LTYPE
5
16
100
AcDbSymbolTableRecord
100
AcDbLinetypeTableRecord
70
0
2
CONTINUOUS
3
Solid line
72
65
73
0
40
0
0
LTYPE
5
6A
100
AcDbSymbolTableRecord
100
AcDbLinetypeTableRecord
70
0
2
CENTER
3
____ _ ____ _ ____ _ ____
72
65
73
4
40
47.5
49
22
74
0
49
-8.5
74
0
49
8.5
74
0
49
-8.5
74
0
0
LTYPE
5
6B
100
AcDbSymbolTableRecord
100
AcDbLinetypeTableRecord
70
0
2
DASHED
3
__ __ __ __ __ __ __ __ __
72
65
73
2
40
25.72
49
12.86
74
0
49
-12.86
74
0
0
ENDTAB
0
TABLE
2
LAYER
5
1e1
100
AcDbSymbolTable
0
LAYER
5
10
100
AcDbSymbolTableRecord
100
AcDbLayerTableRecord
2
0
70
0
62
7
6
CONTINUOUS
290
1
370
-3
390
0
0
LAYER
5
6D
100
AcDbSymbolTableRecord
100
AcDbLayerTableRecord
2
80
70
0
62
-6
6
CONTINUOUS
290
1
370
-3
390
0
0
LAYER
5
6F
100
AcDbSymbolTableRecord
100
AcDbLayerTableRecord
2
81
70
0
62
-3
6
CONTINUOUS
290
1
370
-3
390
0
0
LAYER
5
74
100
AcDbSymbolTableRecord
100
AcDbLayerTableRecord
2
1
70
0
62
4
6
CONTINUOUS
290
1
370
-3
390
0
0
LAYER
5
C2
100
AcDbSymbolTableRecord
100
AcDbLayerTableRecord
2
4
70
0
62
-2
6
CENTER
290
1
370
-3
390
0
0
LAYER
5
109
100
AcDbSymbolTableRecord
100
AcDbLayerTableRecord
2
2
70
0
62
7
6
CONTINUOUS
290
1
370
-3
390
0
0
LAYER
5
1ca
100
AcDbSymbolTableRecord
100
AcDbLayerTableRecord
2
SK1
70
0
62
4
6
CONTINUOUS
290
1
370
-3
390
0
0
LAYER
5
1cb
100
AcDbSymbolTableRecord
100
AcDbLayerTableRecord
2
SK4
70
0
62
2
6
CENTER
290
1
370
-3
390
0
0
LAYER
5
1cc
100
AcDbSymbolTableRecord
100
AcDbLayerTableRecord
2
SK3
70
0
62
1
6
DASHED
290
1
370
-3
390
0
0
LAYER
5
1cd
100
AcDbSymbolTableRecord
100
AcDbLayerTableRecord
2
SK6
70
0
62
5
6
CONTINUOUS
290
1
370
-3
390
0
0
LAYER
5
1ce
100
AcDbSymbolTableRecord
100
AcDbLayerTableRecord
2
SK2
70
0
62
7
6
CONTINUOUS
290
1
370
-3
390
0
0
ENDTAB
0
TABLE
2
STYLE
5
1e2
100
AcDbSymbolTable
0
STYLE
5
11
100
AcDbSymbolTableRecord
100
AcDbTextStyleTableRecord
2
Standard
3
txt
70
0
71
0
40
0
41
1
42
0
50
0
0
STYLE
5
104
100
AcDbSymbolTableRecord
100
AcDbTextStyleTableRecord
2
iso_b_vert
3
simplex.shx
70
0
71
0
40
0
41
1
42
0
50
0
0
STYLE
5
105
100
AcDbSymbolTableRecord
100
AcDbTextStyleTableRecord
2
DWGDirectTextStyle
3
simplex
70
0
71
0
40
0
41
1
42
0
50
0
0
ENDTAB
0
TABLE
2
DIMSTYLE
5
1e3
100
AcDbSymbolTable
100
AcDbDimStyleTable
0
DIMSTYLE
105
27
100
AcDbSymbolTableRecord
100
AcDbDimStyleTableRecord
2
Standard
70
0
3
<>
41
0.18
42
0.0625
44
0.18
140
0.18
147
0.09
73
0
74
0
77
1
271
2
275
0
278
52
280
0
340
11
0
ENDTAB
0
TABLE
2
VIEW
5
1e4
100
AcDbSymbolTable
0
ENDTAB
0
TABLE
2
UCS
5
1e5
100
AcDbSymbolTable
0
ENDTAB
0
TABLE
2
APPID
5
1e6
100
AcDbSymbolTable
0
APPID
5
12
100
AcDbSymbolTableRecord
100
AcDbRegAppTableRecord
2
ACAD
70
0
0
ENDTAB
0
TABLE
2
BLOCK_RECORD
5
1e7
100
AcDbSymbolTable
0
BLOCK_RECORD
5
1F
100
AcDbSymbolTableRecord
100
AcDbBlockTableRecord
2
*Model_Space
340
0
70
0
0
BLOCK_RECORD
5
1B
100
AcDbSymbolTableRecord
100
AcDbBlockTableRecord
2
*Paper_Space
340
0
70
0
0
BLOCK_RECORD
5
23
100
AcDbSymbolTableRecord
100
AcDbBlockTableRecord
2
*Paper_Space0
340
0
70
0
0
BLOCK_RECORD
5
107
100
AcDbSymbolTableRecord
100
AcDbBlockTableRecord
2
DimnDraft3D1
340
0
70
0
0
BLOCK_RECORD
5
116
100
AcDbSymbolTableRecord
100
AcDbBlockTableRecord
2
_CLOSED
340
0
70
0
0
BLOCK_RECORD
5
11D
100
AcDbSymbolTableRecord
100
AcDbBlockTableRecord
2
DimnDraft3D2
340
0
70
0
0
BLOCK_RECORD
5
12C
100
AcDbSymbolTableRecord
100
AcDbBlockTableRecord
2
DimnDraft3D3
340
0
70
0
0
BLOCK_RECORD
5
13A
100
AcDbSymbolTableRecord
100
AcDbBlockTableRecord
2
DimnDraft3D4
340
0
70
0
0
BLOCK_RECORD
5
148
100
AcDbSymbolTableRecord
100
AcDbBlockTableRecord
2
DimnDraft3D5
340
0
70
0
0
BLOCK_RECORD
5
156
100
AcDbSymbolTableRecord
100
AcDbBlockTableRecord
2
DimnDraft3D6
340
0
70
0
0
BLOCK_RECORD
5
164
100
AcDbSymbolTableRecord
100
AcDbBlockTableRecord
2
DimnDraft3D7
340
0
70
0
0
ENDTAB
0
ENDSEC
0
SECTION
2
BLOCKS
0
BLOCK
5
20
100
AcDbEntity
8
0
100
AcDbBlockBegin
2
*Model_Space
70
0
10
0
20
0
30
0
3
*Model_Space
0
ENDBLK
5
21
100
AcDbEntity
8
0
100
AcDbBlockEnd
0
BLOCK
5
1C
100
AcDbEntity
8
0
100
AcDbBlockBegin
2
*Paper_Space
70
0
10
0
20
0
30
0
3
*Paper_Space
0
ENDBLK
5
1D
100
AcDbEntity
8
0
100
AcDbBlockEnd
0
BLOCK
5
24
100
AcDbEntity
8
0
100
AcDbBlockBegin
2
*Paper_Space0
70
0
10
0
20
0
30
0
3
*Paper_Space0
0
ENDBLK
5
25
100
AcDbEntity
8
0
100
AcDbBlockEnd
0
BLOCK
5
113
100
AcDbEntity
8
0
100
AcDbBlockBegin
2
DimnDraft3D1
70
0
10
0
20
0
30
0
3
DimnDraft3D1
0
MTEXT
5
108
100
AcDbEntity
8
2
62
256
6
ByLayer
370
18
48
1
60
0
100
AcDbMText
10
115.396053
20
72.066982
30
0
210
0
220
0
230
1
1
\W0.6965;235
40
3
41
0
44
1.084337
50
0
71
7
72
5
7
iso_b_vert
0
LINE
5
10A
100
AcDbEntity
8
2
62
256
6
ByLayer
370
13
48
1
60
0
100
AcDbLine
10
0
20
41.2
30
0
11
0
21
74.316982
31
0
39
0
210
0
220
0
230
1
0
LINE
5
10B
100
AcDbEntity
8
2
62
256
6
ByLayer
370
13
48
1
60
0
100
AcDbLine
10
235
20
48.5
30
0
11
235
21
74.316982
31
0
39
0
210
0
220
0
230
1
0
LINE
5
10C
100
AcDbEntity
8
2
62
256
6
ByLayer
370
13
48
1
60
0
100
AcDbLine
10
0
20
71.316982
30
0
11
235
21
71.316982
31
0
39
0
210
0
220
0
230
1
0
LINE
5
10D
100
AcDbEntity
8
2
62
256
6
ByLayer
370
13
48
1
60
0
100
AcDbLine
10
0
20
71.316982
30
0
11
2.999998
21
71.845963
31
0
39
0
210
0
220
0
230
1
0
LINE
5
10E
100
AcDbEntity
8
2
62
256
6
ByLayer
370
13
48
1
60
0
100
AcDbLine
10
0
20
71.316982
30
0
11
3.000002
21
70.788001
31
0
39
0
210
0
220
0
230
1
0
LINE
5
10F
100
AcDbEntity
8
2
62
256
6
ByLayer
370
13
48
1
60
0
100
AcDbLine
10
2.999998
20
71.845963
30
0
11
3.000002
21
70.788001
31
0
39
0
210
0
220
0
230
1
0
LINE
5
110
100
AcDbEntity
8
2
62
256
6
ByLayer
370
13
48
1
60
0
100
AcDbLine
10
235
20
71.316982
30
0
11
232.000002
21
70.788001
31
0
39
0
210
0
220
0
230
1
0
LINE
5
111
100
AcDbEntity
8
2
62
256
6
ByLayer
370
13
48
1
60
0
100
AcDbLine
10
235
20
71.316982
30
0
11
231.999998
21
71.845963
31
0
39
0
210
0
220
0
230
1
0
LINE
5
112
100
AcDbEntity
8
2
62
256
6
ByLayer
370
13
48
1
60
0
100
AcDbLine
10
232.000002
20
70.788001
30
0
11
231.999998
21
71.845963
31
0
39
0
210
0
220
0
230
1
0
ENDBLK
5
114
100
AcDbEntity
8
0
100
AcDbBlockEnd
0
BLOCK
5
117
100
AcDbEntity
8
0
100
AcDbBlockBegin
2
_CLOSED
70
0
10
0
20
0
30
0
3
_CLOSED
0
LINE
5
119
100
AcDbEntity
8
0
62
256
6
ByLayer
370
-2
48
1
60
0
100
AcDbLine
10
-1
20
0.166667
30
0
11
0
21
0
31
0
39
0
210
0
220
0
230
1
0
LINE
5
11A
100
AcDbEntity
8
0
62
256
6
ByLayer
370
-2
48
1
60
0
100
AcDbLine
10
0
20
0
30
0
11
-1
21
-0.166667
31
0
39
0
210
0
220
0
230
1
0
LINE
5
11B
100
AcDbEntity
8
0
62
256
6
ByLayer
370
-2
48
1
60
0
100
AcDbLine
10
-1
20
0.166667
30
0
11
-1
21
-0.166667
31
0
39
0
210
0
220
0
230
1
0
LINE
5
11C
100
AcDbEntity
8
0
62
256
6
ByLayer
370
-2
48
1
60
0
100
AcDbLine
10
0
20
0
30
0
11
-1
21
0
31
0
39
0
210
0
220
0
230
1
0
ENDBLK
5
118
100
AcDbEntity
8
0
100
AcDbBlockEnd
0
BLOCK
5
129
100
AcDbEntity
8
0
100
AcDbBlockBegin
2
DimnDraft3D2
70
0
10
0
20
0
30
0
3
DimnDraft3D2
0
MTEXT
5
11E
100
AcDbEntity
8
SK2
62
256
6
ByLayer
370
18
48
1
60
0
100
AcDbMText
10
-58.473709
20
-3.323684
30
0
210
0
220
0
230
1
1
\W0.7884;%%c 80
40
3
41
0
44
1.084337
50
90
71
7
72
5
7
iso_b_vert
0
LINE
5
120
100
AcDbEntity
8
SK2
62
256
6
ByLayer
370
13
48
1
60
0
100
AcDbLine
10
-1.2
20
-40
30
0
11
-60.723709
21
-40
31
0
39
0
210
0
220
0
230
1
0
LINE
5
121
100
AcDbEntity
8
SK2
62
256
6
ByLayer
370
13
48
1
60
0
100
AcDbLine
10
-1.2
20
40
30
0
11
-60.723709
21
40
31
0
39
0
210
0
220
0
230
1
0
LINE
5
122
100
AcDbEntity
8
SK2
62
256
6
ByLayer
370
13
48
1
60
0
100
AcDbLine
10
-57.723709
20
-40
30
0
11
-57.723709
21
40
31
0
39
0
210
0
220
0
230
1
0
LINE
5
123
100
AcDbEntity
8
SK2
62
256
6
ByLayer
370
13
48
1
60
0
100
AcDbLine
10
-57.723709
20
-40
30
0
11
-58.25269
21
-37.000002
31
0
39
0
210
0
220
0
230
1
0
LINE
5
124
100
AcDbEntity
8
SK2
62
256
6
ByLayer
370
13
48
1
60
0
100
AcDbLine
10
-57.723709
20
-40
30
0
11
-57.194728
21
-36.999998
31
0
39
0
210
0
220
0
230
1
0
LINE
5
125
100
AcDbEntity
8
SK2
62
256
6
ByLayer
370
13
48
1
60
0
100
AcDbLine
10
-58.25269
20
-37.000002
30
0
11
-57.194728
21
-36.999998
31
0
39
0
210
0
220
0
230
1
0
LINE
5
126
100
AcDbEntity
8
SK2
62
256
6
ByLayer
370
13
48
1
60
0
100
AcDbLine
10
-57.723709
20
40
30
0
11
-57.194728
21
37.000002
31
0
39
0
210
0
220
0
230
1
0
LINE
5
127
100
AcDbEntity
8
SK2
62
256
6
ByLayer
370
13
48
1
60
0
100
AcDbLine
10
-57.723709
20
40
30
0
11
-58.25269
21
36.999998
31
0
39
0
210
0
220
0
230
1
0
LINE
5
128
100
AcDbEntity
8
SK2
62
256
6
ByLayer
370
13
48
1
60
0
100
AcDbLine
10
-57.194728
20
37.000002
30
0
11
-58.25269
21
36.999998
31
0
39
0
210
0
220
0
230
1
0
ENDBLK
5
12A
100
AcDbEntity
8
0
100
AcDbBlockEnd
0
BLOCK
5
137
100
AcDbEntity
8
0
100
AcDbBlockBegin
2
DimnDraft3D3
70
0
10
0
20
0
30
0
3
DimnDraft3D3
0
MTEXT
5
12D
100
AcDbEntity
8
SK2
62
256
6
ByLayer
370
18
48
1
60
0
100
AcDbMText
10
14.097499
20
61.244736
30
0
210
0
220
0
230
1
1
\W0.6740;30
40
3
41
0
44
1.084337
50
0
71
7
72
5
7
iso_b_vert
0
LINE
5
12E
100
AcDbEntity
8
SK2
62
256
6
ByLayer
370
13
48
1
60
0
100
AcDbLine
10
0
20
41.2
30
0
11
0
21
63.494736
31
0
39
0
210
0
220
0
230
1
0
LINE
5
12F
100
AcDbEntity
8
SK2
62
256
6
ByLayer
370
13
48
1
60
0
100
AcDbLine
10
30.279208
20
41.5
30
0
11
30.279208
21
63.494736
31
0
39
0
210
0
220
0
230
1
0
LINE
5
130
100
AcDbEntity
8
SK2
62
256
6
ByLayer
370
13
48
1
60
0
100
AcDbLine
10
0
20
60.494736
30
0
11
30.279208
21
60.494736
31
0
39
0
210
0
220
0
230
1
0
LINE
5
131
100
AcDbEntity
8
SK2
62
256
6
ByLayer
370
13
48
1
60
0
100
AcDbLine
10
0
20
60.494736
30
0
11
2.999998
21
61.023717
31
0
39
0
210
0
220
0
230
1
0
LINE
5
132
100
AcDbEntity
8
SK2
62
256
6
ByLayer
370
13
48
1
60
0
100
AcDbLine
10
0
20
60.494736
30
0
11
3.000002
21
59.965755
31
0
39
0
210
0
220
0
230
1
0
LINE
5
133
100
AcDbEntity
8
SK2
62
256
6
ByLayer
370
13
48
1
60
0
100
AcDbLine
10
2.999998
20
61.023717
30
0
11
3.000002
21
59.965755
31
0
39
0
210
0
220
0
230
1
0
LINE
5
134
100
AcDbEntity
8
SK2
62
256
6
ByLayer
370
13
48
1
60
0
100
AcDbLine
10
30.279208
20
60.494736
30
0
11
27.27921
21
59.965755
31
0
39
0
210
0
220
0
230
1
0
LINE
5
135
100
AcDbEntity
8
SK2
62
256
6
ByLayer
370
13
48
1
60
0
100
AcDbLine
10
30.279208
20
60.494736
30
0
11
27.279206
21
61.023717
31
0
39
0
210
0
220
0
230
1
0
LINE
5
136
100
AcDbEntity
8
SK2
62
256
6
ByLayer
370
13
48
1
60
0
100
AcDbLine
10
27.27921
20
59.965755
30
0
11
27.279206
21
61.023717
31
0
39
0
210
0
220
0
230
1
0
ENDBLK
5
138
100
AcDbEntity
8
0
100
AcDbBlockEnd
0
BLOCK
5
145
100
AcDbEntity
8
0
100
AcDbBlockBegin
2
DimnDraft3D4
70
0
10
0
20
0
30
0
3
DimnDraft3D4
0
MTEXT
5
13B
100
AcDbEntity
8
SK2
62
256
6
ByLayer
370
18
48
1
60
0
100
AcDbMText
10
272.251598
20
22.8
30
0
210
0
220
0
230
1
1
\W0.7361;48
40
3
41
0
44
1.084337
50
90
71
7
72
5
7
iso_b_vert
0
LINE
5
13C
100
AcDbEntity
8
SK2
62
256
6
ByLayer
370
13
48
1
60
0
100
AcDbLine
10
235.5
20
48
30
0
11
276.001598
21
48
31
0
39
0
210
0
220
0
230
1
0
LINE
5
13D
100
AcDbEntity
8
SK2
62
256
6
ByLayer
370
13
48
1
60
0
100
AcDbLine
10
242.646693
20
0
30
0
11
276.001598
21
0
31
0
39
0
210
0
220
0
230
1
0
LINE
5
13E
100
AcDbEntity
8
SK2
62
256
6
ByLayer
370
13
48
1
60
0
100
AcDbLine
10
273.001598
20
48
30
0
11
273.001598
21
0
31
0
39
0
210
0
220
0
230
1
0
LINE
5
13F
100
AcDbEntity
8
SK2
62
256
6
ByLayer
370
13
48
1
60
0
100
AcDbLine
10
273.001598
20
48
30
0
11
273.530579
21
45.000002
31
0
39
0
210
0
220
0
230
1
0
LINE
5
140
100
AcDbEntity
8
SK2
62
256
6
ByLayer
370
13
48
1
60
0
100
AcDbLine
10
273.001598
20
48
30
0
11
272.472617
21
44.999998
31
0
39
0
210
0
220
0
230
1
0
LINE
5
141
100
AcDbEntity
8
SK2
62
256
6
ByLayer
370
13
48
1
60
0
100
AcDbLine
10
273.530579
20
45.000002
30
0
11
272.472617
21
44.999998
31
0
39
0
210
0
220
0
230
1
0
LINE
5
142
100
AcDbEntity
8
SK2
62
256
6
ByLayer
370
13
48
1
60
0
100
AcDbLine
10
273.001598
20
0
30
0
11
272.472617
21
2.999998
31
0
39
0
210
0
220
0
230
1
0
LINE
5
143
100
AcDbEntity
8
SK2
62
256
6
ByLayer
370
13
48
1
60
0
100
AcDbLine
10
273.001598
20
0
30
0
11
273.530579
21
3.000002
31
0
39
0
210
0
220
0
230
1
0
LINE
5
144
100
AcDbEntity
8
SK2
62
256
6
ByLayer
370
13
48
1
60
0
100
AcDbLine
10
272.472617
20
2.999998
30
0
11
273.530579
21
3.000002
31
0
39
0
210
0
220
0
230
1
0
ENDBLK
5
146
100
AcDbEntity
8
0
100
AcDbBlockEnd
0
BLOCK
5
153
100
AcDbEntity
8
0
100
AcDbBlockBegin
2
DimnDraft3D5
70
0
10
0
20
0
30
0
3
DimnDraft3D5
0
MTEXT
5
149
100
AcDbEntity
8
SK2
62
256
6
ByLayer
370
18
48
1
60
0
100
AcDbMText
10
261.409001
20
17.321053
30
0
210
0
220
0
230
1
1
\W0.7640;40.5
40
3
41
0
44
1.084337
50
90
71
7
72
5
7
iso_b_vert
0
LINE
5
14A
100
AcDbEntity
8
SK2
62
256
6
ByLayer
370
13
48
1
60
0
100
AcDbLine
10
235.162374
20
40.5
30
0
11
265.159001
21
40.5
31
0
39
0
210
0
220
0
230
1
0
LINE
5
14B
100
AcDbEntity
8
SK2
62
256
6
ByLayer
370
13
48
1
60
0
100
AcDbLine
10
242.646693
20
0
30
0
11
265.159001
21
0
31
0
39
0
210
0
220
0
230
1
0
LINE
5
14C
100
AcDbEntity
8
SK2
62
256
6
ByLayer
370
13
48
1
60
0
100
AcDbLine
10
262.159001
20
40.5
30
0
11
262.159001
21
0
31
0
39
0
210
0
220
0
230
1
0
LINE
5
14D
100
AcDbEntity
8
SK2
62
256
6
ByLayer
370
13
48
1
60
0
100
AcDbLine
10
262.159001
20
40.5
30
0
11
262.687982
21
37.500002
31
0
39
0
210
0
220
0
230
1
0
LINE
5
14E
100
AcDbEntity
8
SK2
62
256
6
ByLayer
370
13
48
1
60
0
100
AcDbLine
10
262.159001
20
40.5
30
0
11
261.63002
21
37.499998
31
0
39
0
210
0
220
0
230
1
0
LINE
5
14F
100
AcDbEntity
8
SK2
62
256
6
ByLayer
370
13
48
1
60
0
100
AcDbLine
10
262.687982
20
37.500002
30
0
11
261.63002
21
37.499998
31
0
39
0
210
0
220
0
230
1
0
LINE
5
150
100
AcDbEntity
8
SK2
62
256
6
ByLayer
370
13
48
1
60
0
100
AcDbLine
10
262.159001
20
0
30
0
11
261.63002
21
2.999998
31
0
39
0
210
0
220
0
230
1
0
LINE
5
151
100
AcDbEntity
8
SK2
62
256
6
ByLayer
370
13
48
1
60
0
100
AcDbLine
10
262.159001
20
0
30
0
11
262.687982
21
3.000002
31
0
39
0
210
0
220
0
230
1
0
LINE
5
152
100
AcDbEntity
8
SK2
62
256
6
ByLayer
370
13
48
1
60
0
100
AcDbLine
10
261.63002
20
2.999998
30
0
11
262.687982
21
3.000002
31
0
39
0
210
0
220
0
230
1
0
ENDBLK
5
154
100
AcDbEntity
8
0
100
AcDbBlockEnd
0
BLOCK
5
161
100
AcDbEntity
8
0
100
AcDbBlockBegin
2
DimnDraft3D6
70
0
10
0
20
0
30
0
3
DimnDraft3D6
0
MTEXT
5
157
100
AcDbEntity
8
SK2
62
256
6
ByLayer
370
18
48
1
60
0
100
AcDbMText
10
251.204204
20
5.832895
30
0
210
0
220
0
230
1
1
\W0.5321;13
40
3
41
0
44
1.084337
50
90
71
7
72
5
7
iso_b_vert
0
LINE
5
158
100
AcDbEntity
8
SK2
62
256
6
ByLayer
370
13
48
1
60
0
100
AcDbLine
10
242.646693
20
0
30
0
11
254.954204
21
0
31
0
39
0
210
0
220
0
230
1
0
LINE
5
159
100
AcDbEntity
8
SK2
62
256
6
ByLayer
370
13
48
1
60
0
100
AcDbLine
10
187.5
20
13
30
0
11
254.954204
21
13
31
0
39
0
210
0
220
0
230
1
0
LINE
5
15A
100
AcDbEntity
8
SK2
62
256
6
ByLayer
370
13
48
1
60
0
100
AcDbLine
10
251.954204
20
0
30
0
11
251.954204
21
13
31
0
39
0
210
0
220
0
230
1
0
LINE
5
15B
100
AcDbEntity
8
SK2
62
256
6
ByLayer
370
13
48
1
60
0
100
AcDbLine
10
251.954204
20
0
30
0
11
251.425223
21
2.999998
31
0
39
0
210
0
220
0
230
1
0
LINE
5
15C
100
AcDbEntity
8
SK2
62
256
6
ByLayer
370
13
48
1
60
0
100
AcDbLine
10
251.954204
20
0
30
0
11
252.483185
21
3.000002
31
0
39
0
210
0
220
0
230
1
0
LINE
5
15D
100
AcDbEntity
8
SK2
62
256
6
ByLayer
370
13
48
1
60
0
100
AcDbLine
10
251.425223
20
2.999998
30
0
11
252.483185
21
3.000002
31
0
39
0
210
0
220
0
230
1
0
LINE
5
15E
100
AcDbEntity
8
SK2
62
256
6
ByLayer
370
13
48
1
60
0
100
AcDbLine
10
251.954204
20
13
30
0
11
252.483185
21
10.000002
31
0
39
0
210
0
220
0
230
1
0
LINE
5
15F
100
AcDbEntity
8
SK2
62
256
6
ByLayer
370
13
48
1
60
0
100
AcDbLine
10
251.954204
20
13
30
0
11
251.425223
21
9.999998
31
0
39
0
210
0
220
0
230
1
0
LINE
5
160
100
AcDbEntity
8
SK2
62
256
6
ByLayer
370
13
48
1
60
0
100
AcDbLine
10
252.483185
20
10.000002
30
0
11
251.425223
21
9.999998
31
0
39
0
210
0
220
0
230
1
0
ENDBLK
5
162
100
AcDbEntity
8
0
100
AcDbBlockEnd
0
BLOCK
5
16E
100
AcDbEntity
8
0
100
AcDbBlockBegin
2
DimnDraft3D7
70
0
10
0
20
0
30
0
3
DimnDraft3D7
0
MTEXT
5
165
100
AcDbEntity
8
SK2
62
256
6
ByLayer
370
18
48
1
60
0
100
AcDbMText
10
134.711842
20
-28.168433
30
0
210
0
220
0
230
1
1
\W0.6217;197
40
3
41
0
44
1.084337
50
0
71
7
72
5
7
iso_b_vert
0
LINE
5
166
100
AcDbEntity
8
SK2
62
256
6
ByLayer
370
13
48
1
60
0
100
AcDbLine
10
235
20
24.62951
30
0
11
235
21
-31.918433
31
0
39
0
210
0
220
0
230
1
0
LINE
5
167
100
AcDbEntity
8
SK2
62
256
6
ByLayer
370
13
48
1
60
0
100
AcDbLine
10
38
20
-28.918433
30
0
11
235
21
-28.918433
31
0
39
0
210
0
220
0
230
1
0
LINE
5
168
100
AcDbEntity
8
SK2
62
256
6
ByLayer
370
13
48
1
60
0
100
AcDbLine
10
38
20
-28.918433
30
0
11
40.999998
21
-28.389452
31
0
39
0
210
0
220
0
230
1
0
LINE
5
169
100
AcDbEntity
8
SK2
62
256
6
ByLayer
370
13
48
1
60
0
100
AcDbLine
10
38
20
-28.918433
30
0
11
41.000002
21
-29.447414
31
0
39
0
210
0
220
0
230
1
0
LINE
5
16A
100
AcDbEntity
8
SK2
62
256
6
ByLayer
370
13
48
1
60
0
100
AcDbLine
10
40.999998
20
-28.389452
30
0
11
41.000002
21
-29.447414
31
0
39
0
210
0
220
0
230
1
0
LINE
5
16B
100
AcDbEntity
8
SK2
62
256
6
ByLayer
370
13
48
1
60
0
100
AcDbLine
10
235
20
-28.918433
30
0
11
232.000002
21
-29.447414
31
0
39
0
210
0
220
0
230
1
0
LINE
5
16C
100
AcDbEntity
8
SK2
62
256
6
ByLayer
370
13
48
1
60
0
100
AcDbLine
10
235
20
-28.918433
30
0
11
231.999998
21
-28.389452
31
0
39
0
210
0
220
0
230
1
0
LINE
5
16D
100
AcDbEntity
8
SK2
62
256
6
ByLayer
370
13
48
1
60
0
100
AcDbLine
10
232.000002
20
-29.447414
30
0
11
231.999998
21
-28.389452
31
0
39
0
210
0
220
0
230
1
0
ENDBLK
5
16F
100
AcDbEntity
8
0
100
AcDbBlockEnd
0
ENDSEC
0
SECTION
2
ENTITIES
0
ARC
5
E0
100
AcDbEntity
8
1
62
256
6
ByLayer
370
18
48
1
60
0
100
AcDbCircle
39
0
10
30.279208
20
-41.2
30
0
40
1.2
210
0
220
0
230
1
100
AcDbArc
50
35.685335
51
90
0
ARC
5
E1
100
AcDbEntity
8
1
62
256
6
ByLayer
370
18
48
1
60
0
100
AcDbCircle
39
0
10
30.279208
20
41.2
30
0
40
1.2
210
0
220
0
230
1
100
AcDbArc
50
270
51
314.900528
0
ARC
5
E2
100
AcDbEntity
8
1
62
256
6
ByLayer
370
18
48
1
60
0
100
AcDbCircle
39
0
10
30.279208
20
41.2
30
0
40
1.2
210
0
220
0
230
1
100
AcDbArc
50
314.900528
51
324.314665
0
ARC
5
E3
100
AcDbEntity
8
1
62
256
6
ByLayer
370
18
48
1
60
0
100
AcDbCircle
39
0
10
-105.10644
20
-3
30
0
40
16.0000000008829
210
0
220
0
230
-1
100
AcDbArc
50
75
51
90
0
ARC
5
E4
100
AcDbEntity
8
1
62
256
6
ByLayer
370
18
48
1
60
0
100
AcDbCircle
39
0
10
-54
20
-16.693929
30
0
40
16
210
0
220
0
230
-1
100
AcDbArc
50
0
51
75
0
ARC
5
E5
100
AcDbEntity
8
1
62
256
6
ByLayer
370
18
48
1
60
0
100
AcDbCircle
39
0
10
105.10644
20
-3
30
0
40
18.3
210
0
220
0
230
1
100
AcDbArc
50
90
51
94.412268
0
ARC
5
E6
100
AcDbEntity
8
1
62
256
6
ByLayer
370
18
48
1
60
0
100
AcDbCircle
39
0
10
-105.10644
20
-3
30
0
40
16
210
0
220
0
230
-1
100
AcDbArc
50
85.587732
51
90
0
ELLIPSE
5
E7
100
AcDbEntity
8
1
62
256
6
ByLayer
370
18
48
1
60
0
100
AcDbEllipse
10
103.698575
20
-56.005168
30
0
11
-5.55607020293583E-15
21
90.7405091537147
31
0
210
0
220
0
230
-1
40
0.176327
41
-0.087266462580543
42
-1.33226748320501E-15
0
ELLIPSE
5
E8
100
AcDbEntity
8
1
62
256
6
ByLayer
370
18
48
1
60
0
100
AcDbEllipse
10
503.051831
20
0
30
0
11
462.917118255647
21
4.67842118975338E-13
31
0
210
0
220
0
230
-1
40
0.087489
41
3.05932056772752
42
-2.96705972838918
0
ELLIPSE
5
E9
100
AcDbEntity
8
1
62
256
6
ByLayer
370
18
48
1
60
0
100
AcDbEllipse
10
246
20
43.229704
30
0
11
16.0000000006123
21
1.61702248819366E-14
31
0
210
0
220
0
230
-1
40
0.267949
41
2.3425949184014
42
2.45136583530357
0
ELLIPSE
5
EA
100
AcDbEntity
8
1
62
256
6
ByLayer
370
18
48
1
60
0
100
AcDbEllipse
10
232.897777
20
40
30
0
11
-1.40829730689575E-16
21
2.30000000000003
31
0
210
0
220
0
230
-1
40
0.258819
41
0
42
6.28318530717959
0
ELLIPSE
5
EB
100
AcDbEntity
8
1
62
256
6
ByLayer
370
18
48
1
60
0
100
AcDbEllipse
10
232.704592
20
40
30
0
11
-1.53075794227797E-16
21
2.49999999999999
31
0
210
0
220
0
230
-1
40
0.258819
41
0
42
6.28318530717959
0
POINT
5
6C
100
AcDbEntity
8
80
62
256
6
ByLayer
370
18
48
1
60
0
100
AcDbPoint
10
0
20
0
30
0
39
0
210
0
220
0
230
1
50
360
0
POINT
5
6E
100
AcDbEntity
8
81
62
256
6
ByLayer
370
18
48
1
60
0
100
AcDbPoint
10
235
20
40.5
30
0
39
0
210
0
220
0
230
1
50
360
0
SPLINE
5
EC
100
AcDbEntity
8
SK1
62
256
6
ByLayer
370
18
48
1
60
0
100
AcDbSpline
70
4
71
3
72
18
73
14
40
0
40
0
40
0
40
0
40
0.0569555848021377
40
0.136222152362547
40
0.224844869066624
40
0.331192129111518
40
0.455263932497225
40
0.614784822564565
40
0.774305712631904
40
0.864683504996243
40
0.943950072556653
40
0.943950072556653
40
1
40
1
40
1
40
1
41
1
10
-2
20
-27.5264881683978
30
8E-16
41
1
10
-1.98362815086221
20
-27.4849142925605
30
4E-16
41
1
10
-1.93212659596743
20
-27.4023978973589
30
-3E-16
41
1
10
-1.7720775718255
20
-27.3252135341791
30
1E-16
41
1
10
-1.57157881887941
20
-27.3515305808663
30
0
41
1
10
-1.34013981280013
20
-27.342817759503
30
0
41
1
10
-1.05624920114527
20
-27.3445778699823
30
0
41
1
10
-0.735801332633054
20
-27.3502182536451
30
0
41
1
10
-0.432909305581911
20
-27.3279446748857
30
0
41
1
10
-0.205135459595272
20
-27.3768881671263
30
0
41
1
10
-0.073414712184169
20
-27.4196347043143
30
0
41
1
10
-0.0142906452999838
20
-27.4899300588353
30
0
41
1
10
-0.0031877361264007
20
-27.5295050778929
30
5E-16
41
1
10
-1E-16
20
-27.5764881683978
30
9E-16
0
SPLINE
5
ED
100
AcDbEntity
8
SK1
62
256
6
ByLayer
370
18
48
1
60
0
100
AcDbSpline
70
4
71
3
72
18
73
14
40
0
40
0
40
0
40
0
40
0.0569555848021377
40
0.136222152362547
40
0.224844869066624
40
0.331192129111518
40
0.455263932497225
40
0.614784822564565
40
0.774305712631904
40
0.864683504996243
40
0.943950072556653
40
0.943950072556653
40
1
40
1
40
1
40
1
41
1
10
-2
20
27.5264881683978
30
8E-16
41
1
10
-1.98362815086221
20
27.4849142925605
30
4E-16
41
1
10
-1.93212659596743
20
27.4023978973589
30
-3E-16
41
1
10
-1.7720775718255
20
27.3252135341791
30
1E-16
41
1
10
-1.57157881887941
20
27.3515305808663
30
0
41
1
10
-1.34013981280013
20
27.342817759503
30
0
41
1
10
-1.05624920114527
20
27.3445778699823
30
0
41
1
10
-0.735801332633054
20
27.3502182536451
30
0
41
1
10
-0.432909305581911
20
27.3279446748857
30
0
41
1
10
-0.205135459595272
20
27.3768881671263
30
0
41
1
10
-0.073414712184169
20
27.4196347043143
30
0
41
1
10
-0.0142906452999838
20
27.4899300588353
30
0
41
1
10
-0.0031877361264007
20
27.5295050778929
30
5E-16
41
1
10
-1E-16
20
27.5764881683978
30
9E-16
0
SPLINE
5
EE
100
AcDbEntity
8
1
62
256
6
ByLayer
370
18
48
1
60
0
100
AcDbSpline
70
4
71
3
72
12
73
8
40
0
40
0
40
0
40
0
40
0.541588629685871
40
0.541588629685871
40
0.962935722551689
40
0.962935722551689
40
1
40
1
40
1
40
1
41
1
10
10.25
20
-38.1154578595257
30
0
41
1
10
8.48265627828229
20
-36.0938852866295
30
0
41
1
10
7.52392902723031
20
-32.1526717193193
30
0
41
1
10
7.81917546470613
20
-23.1325554590873
30
0
41
1
10
8.60997807776499
20
-18.3372046667228
30
0
41
1
10
10.0118176236886
20
-13.0009741169461
30
0
41
1
10
10.1290496800296
20
-12.5677053152644
30
0
41
1
10
10.25
20
-12.1330899661221
30
0
0
SPLINE
5
EF
100
AcDbEntity
8
1
62
256
6
ByLayer
370
18
48
1
60
0
100
AcDbSpline
70
4
71
3
72
12
73
8
40
0
40
0
40
0
40
0
40
0.541588629685871
40
0.541588629685871
40
0.962935722551689
40
0.962935722551689
40
1
40
1
40
1
40
1
41
1
10
10.25
20
38.1154578595257
30
0
41
1
10
8.48265627828229
20
36.0938852866294
30
0
41
1
10
7.52392902723031
20
32.1526717193192
30
0
41
1
10
7.81917546470613
20
23.1325554590872
30
0
41
1
10
8.60997807776499
20
18.3372046667227
30
0
41
1
10
10.0118176236886
20
13.000974116946
30
0
41
1
10
10.1290496800296
20
12.5677053152643
30
0
41
1
10
10.25
20
12.133089966122
30
0
0
SPLINE
5
F0
100
AcDbEntity
8
1
62
256
6
ByLayer
370
18
48
1
60
0
100
AcDbSpline
70
4
71
3
72
12
73
8
40
0
40
0
40
0
40
0
40
0.541588629685871
40
0.541588629685871
40
0.962935722551689
40
0.962935722551689
40
1
40
1
40
1
40
1
41
1
10
13.75
20
-12.1330899674702
30
0
41
1
10
15.5173437217177
20
-18.4837528586862
30
0
41
1
10
16.4760709727697
20
-24.7733589935751
30
0
41
1
10
16.1808245352938
20
-33.0702721336167
30
0
41
1
10
15.390021922235
20
-35.9285600366463
30
0
41
1
10
13.9881823763113
20
-37.8309989976552
30
0
41
1
10
13.8709503199703
20
-37.9771090793846
30
0
41
1
10
13.75
20
-38.1154578603731
30
0
0
SPLINE
5
F1
100
AcDbEntity
8
1
62
256
6
ByLayer
370
18
48
1
60
0
100
AcDbSpline
70
4
71
3
72
12
73
8
40
0
40
0
40
0
40
0
40
0.541588629685871
40
0.541588629685871
40
0.962935722551689
40
0.962935722551689
40
1
40
1
40
1
40
1
41
1
10
13.75
20
12.1330899674701
30
0
41
1
10
15.5173437217177
20
18.4837528586861
30
0
41
1
10
16.4760709727697
20
24.773358993575
30
0
41
1
10
16.1808245352938
20
33.0702721336167
30
0
41
1
10
15.390021922235
20
35.9285600366463
30
0
41
1
10
13.9881823763113
20
37.8309989976552
30
0
41
1
10
13.8709503199703
20
37.9771090793846
30
0
41
1
10
13.75
20
38.1154578603731
30
0
0
SPLINE
5
F2
100
AcDbEntity
8
1
62
256
6
ByLayer
370
18
48
1
60
0
100
AcDbSpline
70
4
71
3
72
12
73
8
40
0
40
0
40
0
40
0
40
0.500000000000001
40
0.500000000000001
40
0.75
40
0.75
40
1
40
1
40
1
40
1
41
1
10
31.4383186059721
20
12.5770032089442
30
1E-16
41
1
10
31.4037033819465
20
11.6529742774601
30
1E-16
41
1
10
31.3548935999477
20
10.7295359264725
30
1E-16
41
1
10
31.2982638899273
20
9.34368836401463
30
1E-16
41
1
10
31.2821110778949
20
8.88162495248856
30
1E-16
41
1
10
31.2598986095708
20
7.95734523538249
30
1E-16
41
1
10
31.2538870489062
20
7.49510653225247
30
1E-16
41
1
10
31.2538870489062
20
7.03275119551067
30
1E-16
0
SPLINE
5
F3
100
AcDbEntity
8
1
62
256
6
ByLayer
370
18
48
1
60
0
100
AcDbSpline
70
4
71
3
72
32
73
28
40
0
40
0
40
0
40
0
40
0.062499999999999
40
0.062499999999999
40
0.124999999999998
40
0.124999999999998
40
0.250000000000006
40
0.250000000000006
40
0.375000000000014
40
0.375000000000014
40
0.437500000000018
40
0.437500000000018
40
0.500000000000022
40
0.500000000000022
40
0.625000000000028
40
0.625000000000028
40
0.687500000000023
40
0.687500000000023
40
0.750000000000019
40
0.750000000000019
40
0.812500000000014
40
0.812500000000014
40
0.875000000000009
40
0.875000000000009
40
0.937500000000005
40
0.937500000000005
40
1
40
1
40
1
40
1
41
1
10
38.2383186059721
20
41.2918883010121
30
1E-16
41
1
10
38.23133434466
20
41.2524925208823
30
1E-16
41
1
10
38.2234061464493
20
41.2130776379575
30
1E-16
41
1
10
38.2057688351415
20
41.1350128898987
30
1E-16
41
1
10
38.1960522568235
20
41.0963012931269
30
1E-16
41
1
10
38.1641473399301
20
40.9811507743334
30
1E-16
41
1
10
38.1392221841335
20
40.9056895631525
30
1E-16
41
1
10
38.0813519062509
20
40.7576322236047
30
1E-16
41
1
10
38.0484203674502
20
40.6850312426939
30
1E-16
41
1
10
37.9919315123425
20
40.5786631821219
30
1E-16
41
1
10
37.9718383694263
20
40.543521121014
30
1E-16
41
1
10
37.9295231721336
20
40.4750450887684
30
1E-16
41
1
10
37.9072781462174
20
40.441648397656
30
1E-16
41
1
10
37.8370120855811
20
40.3441901890586
30
1E-16
41
1
10
37.7855206991902
20
40.2828136269143
30
1E-16
41
1
10
37.6994241032146
20
40.1976032492112
30
1E-16
41
1
10
37.6690648454644
20
40.1702306216394
30
1E-16
41
1
10
37.6061259028828
20
40.1192180135958
30
1E-16
41
1
10
37.5734791503383
20
40.0954823983384
30
1E-16
41
1
10
37.5055735993837
20
40.0519398129561
30
1E-16
41
1
10
37.470316726238
20
40.0321299471389
30
1E-16
41
1
10
37.3968056360177
20
39.997018367827
30
1E-16
41
1
10
37.3585268642526
20
39.9817723382675
30
1E-16
41
1
10
37.2811027411031
20
39.957264970785
30
1E-16
41
1
10
37.2416772394358
20
39.9478531197022
30
1E-16
41
1
10
37.1612990318904
20
39.93511270168
30
1E-16
41
1
10
37.1199808803123
20
39.9318162642712
30
1E-16
41
1
10
37.0792076144252
20
39.9318162642712
30
1E-16
0
SPLINE
5
F4
100
AcDbEntity
8
1
62
256
6
ByLayer
370
18
48
1
60
0
100
AcDbSpline
70
4
71
3
72
8
73
4
40
0
40
0
40
0
40
0
40
1
40
1
40
1
40
1
41
1
10
39.4892961322956
20
48
30
1E-16
41
1
10
39.0540847297093
20
45.7675745434535
30
1E-16
41
1
10
38.6354320168521
20
43.5318664350504
30
1E-16
41
1
10
38.2383186059721
20
41.2918883010121
30
1E-16
0
SPLINE
5
F5
100
AcDbEntity
8
1
62
256
6
ByLayer
370
18
48
1
60
0
100
AcDbSpline
70
4
71
3
72
18
73
14
40
0
40
0
40
0
40
0
40
0.0625
40
0.125
40
0.25
40
0.375
40
0.4375
40
0.5
40
0.5625
40
0.625
40
0.75
40
0.875
40
1
40
1
40
1
40
1
41
1
10
38.5598246867493
20
-12.4985763751004
30
1E-16
41
1
10
38.5476115363909
20
-12.2981401723036
30
1E-16
41
1
10
38.5327644543007
20
-11.8957135100622
30
1E-16
41
1
10
38.542115375258
20
-11.0865484364204
30
1E-16
41
1
10
38.6282907824876
20
-10.0706077530466
30
1E-16
41
1
10
38.8159779194106
20
-9.05937750518635
30
1E-16
41
1
10
39.0263128925632
20
-8.25988284375129
30
1E-16
41
1
10
39.213898522767
20
-7.66665670459399
30
1E-16
41
1
10
39.4308626186497
20
-7.08148039682248
30
1E-16
41
1
10
39.7582847778121
20
-6.31399267859573
30
1E-16
41
1
10
40.236897632481
20
-5.38198676857757
30
1E-16
41
1
10
40.9147608310795
20
-4.31830191756266
30
1E-16
41
1
10
41.4292252285806
20
-3.65058678681967
30
1E-16
41
1
10
41.7005014871971
20
-3.3282618471755
30
1E-16
0
SPLINE
5
F6
100
AcDbEntity
8
1
62
256
6
ByLayer
370
18
48
1
60
0
100
AcDbSpline
70
4
71
3
72
10
73
6
40
0
40
0
40
0
40
0
40
0.5
40
0.5
40
1
40
1
40
1
40
1
41
1
10
38
20
-16.6939293156863
30
1E-16
41
1
10
38
20
-15.9966309784861
30
1E-16
41
1
10
38.0454105491808
20
-15.2978974520381
30
1E-16
41
1
10
38.2302280531556
20
-13.8989119180602
30
1E-16
41
1
10
38.3696023819841
20
-13.1986523343007
30
1E-16
41
1
10
38.5598246867493
20
-12.4985763751004
30
1E-16
0
SPLINE
5
F7
100
AcDbEntity
8
1
62
256
6
ByLayer
370
18
48
1
60
0
100
AcDbSpline
70
4
71
3
72
8
73
4
40
0
40
0
40
0
40
0
40
1
40
1
40
1
40
1
41
1
10
34.219090918222
20
48
30
1E-16
41
1
10
33.5561773358095
20
45.5989521863295
30
1E-16
41
1
10
32.8936770814655
20
43.1977979896204
30
1E-16
41
1
10
32.2318428069501
20
40.796472381959
30
1E-16
0
SPLINE
5
F8
100
AcDbEntity
8
1
62
256
6
ByLayer
370
18
48
1
60
0
100
AcDbSpline
70
4
71
3
72
20
73
16
40
0
40
0
40
0
40
0
40
0.250000000000023
40
0.250000000000023
40
0.375000000000019
40
0.375000000000019
40
0.500000000000016
40
0.500000000000016
40
0.625000000000012
40
0.625000000000012
40
0.750000000000008
40
0.750000000000008
40
0.875000000000004
40
0.875000000000004
40
1
40
1
40
1
40
1
41
1
10
32.2318428069501
20
40.796472381959
30
1E-16
41
1
10
32.2202497484896
20
40.7544094226589
30
1E-16
41
1
10
32.2087625478191
20
40.7152878417111
30
1E-16
41
1
10
32.1916903516049
20
40.6609814304407
30
1E-16
41
1
10
32.1860986245947
20
40.6438610364759
30
1E-16
41
1
10
32.1753377031426
20
40.6122392376844
30
1E-16
41
1
10
32.1701321172326
20
40.5976213611529
30
1E-16
41
1
10
32.1600842315379
20
40.5708528542325
30
1E-16
41
1
10
32.1552555740275
20
40.5587564820813
30
1E-16
41
1
10
32.1463290756853
20
40.5379836958331
30
1E-16
41
1
10
32.1421824825217
20
40.529173627497
30
1E-16
41
1
10
32.1345424495498
20
40.5147941395547
30
1E-16
41
1
10
32.1310409548309
20
40.5092353219163
30
1E-16
41
1
10
32.1249576962691
20
40.5018756560718
30
1E-16
41
1
10
32.1223415211022
20
40.5
30
1E-16
41
1
10
32.1201685730275
20
40.5
30
1E-16
0
SPLINE
5
F9
100
AcDbEntity
8
1
62
256
6
ByLayer
370
18
48
1
60
0
100
AcDbSpline
70
4
71
3
72
15
73
11
40
0
40
0
40
0
40
0
40
0.125
40
0.25
40
0.375
40
0.5
40
0.625
40
0.75
40
0.875
40
1
40
1
40
1
40
1
41
1
10
49.4640713490103
20
0.982507025650822
30
1E-16
41
1
10
49.1033198924759
20
0.885838535580381
30
1E-16
41
1
10
48.3876866519
20
0.670421981663263
30
1E-16
41
1
10
47.3358868156981
20
0.282142792488648
30
1E-16
41
1
10
46.309650632299
20
-0.169863183146155
30
1E-16
41
1
10
45.3128333028629
20
-0.683932583587921
30
1E-16
41
1
10
44.3491667291561
20
-1.25819030068494
30
1E-16
41
1
10
43.4222731557529
20
-1.89050077516203
30
1E-16
41
1
10
42.5356931863508
20
-2.57860554446528
30
1E-16
41
1
10
41.9736947828536
20
-3.07276755315879
30
1E-16
41
1
10
41.7005014868931
20
-3.32826184695247
30
1E-16
0
SPLINE
5
FA
100
AcDbEntity
8
1
62
256
6
ByLayer
370
18
48
1
60
0
100
AcDbSpline
70
4
71
3
72
8
73
4
40
0
40
0
40
0
40
0
40
1
40
1
40
1
40
1
41
1
10
100.570509644342
20
14.67644262109
30
1E-16
41
1
10
101.142293067815
20
14.8296565154341
30
1E-16
41
1
10
101.720150920559
20
14.9548275203024
30
1E-16
41
1
10
102.304083202574
20
15.0519556356948
30
1E-16
0
SPLINE
5
FB
100
AcDbEntity
8
1
62
256
6
ByLayer
370
18
48
1
60
0
100
AcDbSpline
70
4
71
3
72
8
73
4
40
0
40
0
40
0
40
0
40
1
40
1
40
1
40
1
41
1
10
102.304083202574
20
15.0519556356948
30
1E-16
41
1
10
102.766939684358
20
15.1400063180888
30
1E-16
41
1
10
103.232357337157
20
15.2046092208329
30
1E-16
41
1
10
103.698575086536
20
15.2457643439273
30
1E-16
0
SPLINE
5
FC
100
AcDbEntity
8
1
62
256
6
ByLayer
370
18
48
1
60
0
100
AcDbSpline
70
4
71
3
72
8
73
4
40
0
40
0
40
0
40
0
40
1
40
1
40
1
40
1
41
1
10
102.481027968267
20
12.7831306104436
30
1E-16
41
1
10
102.944971253457
20
12.8603042900598
30
1E-16
41
1
10
103.410419827494
20
12.9166931761384
30
1E-16
41
1
10
103.875519852229
20
12.9525808471496
30
1E-16
0
SPLINE
5
FD
100
AcDbEntity
8
1
62
256
6
ByLayer
370
18
48
1
60
0
100
AcDbSpline
70
4
71
3
72
8
73
4
40
0
40
0
40
0
40
0
40
1
40
1
40
1
40
1
41
1
10
100.965335239758
20
12.4548132206251
30
1E-16
41
1
10
101.427577176938
20
12.5786705744003
30
1E-16
41
1
10
101.932807820587
20
12.6919380716425
30
1E-16
41
1
10
102.481027968267
20
12.7831306104436
30
1E-16
0
SPLINE
5
FE
100
AcDbEntity
8
1
62
256
6
ByLayer
370
18
48
1
60
0
100
AcDbSpline
70
4
71
3
72
23
73
19
40
0
40
0
40
0
40
0
40
0.0625
40
0.125
40
0.1875
40
0.25
40
0.3125
40
0.375
40
0.4375
40
0.5
40
0.5625
40
0.625
40
0.6875
40
0.75
40
0.8125
40
0.875
40
0.9375
40
1
40
1
40
1
40
1
41
1
10
49.8588952648281
20
-1.23911609868703
30
1E-16
41
1
10
49.5235745213938
20
-1.32896502141033
30
1E-16
41
1
10
48.8587309238014
20
-1.53052882719276
30
1E-16
41
1
10
47.8830338336885
20
-1.8971247211091
30
1E-16
41
1
10
46.9330783535503
20
-2.32658920815379
30
1E-16
41
1
10
46.0128091181225
20
-2.81702023527663
30
1E-16
41
1
10
45.1262186706859
20
-3.36656409306001
30
1E-16
41
1
10
44.2770614322164
20
-3.97288147026128
30
1E-16
41
1
10
43.4688669025061
20
-4.6333181174003
30
1E-16
41
1
10
42.7051757011537
20
-5.34524682297135
30
1E-16
41
1
10
41.9893796098559
20
-6.1057952285168
30
1E-16
41
1
10
41.3244887477177
20
-6.91165528374689
30
1E-16
41
1
10
40.7132694831217
20
-7.75934311714088
30
1E-16
41
1
10
40.1585159118144
20
-8.64538930595112
30
1E-16
41
1
10
39.6627162986841
20
-9.56607409170058
30
1E-16
41
1
10
39.2278864794606
20
-10.5173630929553
30
1E-16
41
1
10
38.8560851840195
20
-11.495272098643
30
1E-16
41
1
10
38.6512434289958
20
-12.1621275882658
30
1E-16
41
1
10
38.5598246867493
20
-12.4985763751004
30
1E-16
0
SPLINE
5
FF
100
AcDbEntity
8
1
62
256
6
ByLayer
370
18
48
1
60
0
100
AcDbSpline
70
4
71
3
72
14
73
10
40
0
40
0
40
0
40
0
40
0.25
40
0.25
40
0.5
40
0.5
40
0.75
40
0.75
40
1
40
1
40
1
40
1
41
1
10
34.549364905389
20
39.9318162642712
30
1E-16
41
1
10
34.1572636830325
20
37.667044672515
30
1E-16
41
1
10
33.7886888591999
20
35.3996527771769
30
1E-16
41
1
10
33.1121467455948
20
30.858118691149
30
1E-16
41
1
10
32.8042179816606
20
28.5839722095607
30
1E-16
41
1
10
32.2647923709751
20
24.0271664760944
30
1E-16
41
1
10
32.0333936186338
20
21.7444962987392
30
1E-16
41
1
10
31.6631422997668
20
17.1688484121747
30
1E-16
41
1
10
31.52443630803
20
14.8758543778809
30
1E-16
41
1
10
31.4383186059721
20
12.5770032089442
30
1E-16
0
SPLINE
5
100
100
AcDbEntity
8
1
62
256
6
ByLayer
370
18
48
1
60
0
100
AcDbSpline
70
4
71
3
72
8
73
4
40
0
40
0
40
0
40
0
40
1
40
1
40
1
40
1
41
1
10
32.2318428069501
20
40.796472381959
30
1E-16
41
1
10
32.8936770814655
20
43.1977979896204
30
1E-16
41
1
10
33.5561773358095
20
45.5989521863295
30
1E-16
41
1
10
34.219090918222
20
48
30
1E-16
0
SPLINE
5
101
100
AcDbEntity
8
1
62
256
6
ByLayer
370
18
48
1
60
0
100
AcDbSpline
70
4
71
3
72
20
73
16
40
0
40
0
40
0
40
0
40
0.124999999999996
40
0.124999999999996
40
0.249999999999992
40
0.249999999999992
40
0.374999999999989
40
0.374999999999989
40
0.499999999999985
40
0.499999999999985
40
0.624999999999981
40
0.624999999999981
40
0.749999999999977
40
0.749999999999977
40
1
40
1
40
1
40
1
41
1
10
32.1201685730275
20
40.5
30
1E-16
41
1
10
32.1223415211022
20
40.5
30
1E-16
41
1
10
32.1249576962691
20
40.5018756560718
30
1E-16
41
1
10
32.1310409548309
20
40.5092353219163
30
1E-16
41
1
10
32.1345424495498
20
40.5147941395547
30
1E-16
41
1
10
32.1421824825217
20
40.529173627497
30
1E-16
41
1
10
32.1463290756853
20
40.5379836958331
30
1E-16
41
1
10
32.1552555740275
20
40.5587564820813
30
1E-16
41
1
10
32.1600842315379
20
40.5708528542325
30
1E-16
41
1
10
32.1701321172326
20
40.5976213611529
30
1E-16
41
1
10
32.1753377031426
20
40.6122392376844
30
1E-16
41
1
10
32.1860986245947
20
40.6438610364759
30
1E-16
41
1
10
32.1916903516049
20
40.6609814304407
30
1E-16
41
1
10
32.2087625478191
20
40.7152878417111
30
1E-16
41
1
10
32.2202497484896
20
40.7544094226589
30
1E-16
41
1
10
32.2318428069501
20
40.796472381959
30
1E-16
0
SPLINE
5
102
100
AcDbEntity
8
1
62
256
6
ByLayer
370
18
48
1
60
0
100
AcDbSpline
70
4
71
3
72
8
73
4
40
0
40
0
40
0
40
0
40
1
40
1
40
1
40
1
41
1
10
234.841194559105
20
40.1572593389688
30
1E-16
41
1
10
234.89335547034
20
40.143657935377
30
1E-16
41
1
10
234.946297773111
20
40.1353466625761
30
1E-16
41
1
10
235
20
40.1318670649431
30
1E-16
0
LINE
5
70
100
AcDbEntity
8
SK1
62
256
6
ByLayer
370
18
48
1
60
0
100
AcDbLine
10
-48
20
-25.524896
30
0
11
-46.458239
21
-26.415032
31
0
39
0
210
0
220
0
230
1
0
LINE
5
72
100
AcDbEntity
8
SK1
62
256
6
ByLayer
370
18
48
1
60
0
100
AcDbLine
10
-2
20
-27.526488
30
0
11
-46.458239
21
-26.415032
31
0
39
0
210
0
220
0
230
1
0
LINE
5
73
100
AcDbEntity
8
1
62
256
6
ByLayer
370
18
48
1
60
0
100
AcDbLine
10
0
20
39.7
30
0
11
0
21
-39.7
31
0
39
0
210
0
220
0
230
1
0
LINE
5
75
100
AcDbEntity
8
1
62
256
6
ByLayer
370
18
48
1
60
0
100
AcDbLine
10
0.3
20
40
30
0
11
0
21
39.7
31
0
39
0
210
0
220
0
230
1
0
LINE
5
76
100
AcDbEntity
8
SK1
62
256
6
ByLayer
370
18
48
1
60
0
100
AcDbLine
10
-48
20
-25.524896
30
0
11
-48
21
25.524896
31
0
39
0
210
0
220
0
230
1
0
LINE
5
77
100
AcDbEntity
8
SK1
62
256
6
ByLayer
370
18
48
1
60
0
100
AcDbLine
10
-2
20
-27.526488
30
0
11
-2
21
27.523512
31
0
39
0
210
0
220
0
230
1
0
LINE
5
78
100
AcDbEntity
8
SK1
62
256
6
ByLayer
370
18
48
1
60
0
100
AcDbLine
10
-46.5
20
-26.390922
30
0
11
-46.5
21
26.390922
31
0
39
0
210
0
220
0
230
1
0
LINE
5
79
100
AcDbEntity
8
SK1
62
256
6
ByLayer
370
18
48
1
60
0
100
AcDbLine
10
-2
20
27.526488
30
0
11
-46.458239
21
26.415032
31
0
39
0
210
0
220
0
230
1
0
LINE
5
7A
100
AcDbEntity
8
SK1
62
256
6
ByLayer
370
18
48
1
60
0
100
AcDbLine
10
-48
20
25.524896
30
0
11
-46.458239
21
26.415032
31
0
39
0
210
0
220
0
230
1
0
LINE
5
7B
100
AcDbEntity
8
1
62
256
6
ByLayer
370
18
48
1
60
0
100
AcDbLine
10
0.3
20
-40
30
0
11
0
21
-39.7
31
0
39
0
210
0
220
0
230
1
0
LINE
5
7C
100
AcDbEntity
8
1
62
256
6
ByLayer
370
18
48
1
60
0
100
AcDbLine
10
10.25
20
-38.115458
30
0
11
10.25
21
-12.13309
31
0
39
0
210
0
220
0
230
1
0
LINE
5
7D
100
AcDbEntity
8
1
62
256
6
ByLayer
370
18
48
1
60
0
100
AcDbLine
10
10.25
20
-38.115458
30
0
11
13.75
21
-38.115458
31
0
39
0
210
0
220
0
230
1
0
LINE
5
7E
100
AcDbEntity
8
1
62
256
6
ByLayer
370
18
48
1
60
0
100
AcDbLine
10
13.75
20
-12.13309
30
0
11
10.25
21
-12.13309
31
0
39
0
210
0
220
0
230
1
0
LINE
5
7F
100
AcDbEntity
8
1
62
256
6
ByLayer
370
18
48
1
60
0
100
AcDbLine
10
10.25
20
38.115458
30
0
11
10.25
21
12.13309
31
0
39
0
210
0
220
0
230
1
0
LINE
5
80
100
AcDbEntity
8
1
62
256
6
ByLayer
370
18
48
1
60
0
100
AcDbLine
10
13.75
20
12.13309
30
0
11
10.25
21
12.13309
31
0
39
0
210
0
220
0
230
1
0
LINE
5
81
100
AcDbEntity
8
1
62
256
6
ByLayer
370
18
48
1
60
0
100
AcDbLine
10
13.75
20
38.115458
30
0
11
10.25
21
38.115458
31
0
39
0
210
0
220
0
230
1
0
LINE
5
82
100
AcDbEntity
8
1
62
256
6
ByLayer
370
18
48
1
60
0
100
AcDbLine
10
13.75
20
-12.13309
30
0
11
13.75
21
-38.115458
31
0
39
0
210
0
220
0
230
1
0
LINE
5
83
100
AcDbEntity
8
1
62
256
6
ByLayer
370
18
48
1
60
0
100
AcDbLine
10
13.75
20
12.13309
30
0
11
13.75
21
38.115458
31
0
39
0
210
0
220
0
230
1
0
LINE
5
84
100
AcDbEntity
8
80
62
256
6
ByLayer
370
13
48
1
60
0
100
AcDbLine
10
0
20
0
30
0
11
-12
21
0
31
0
39
0
210
0
220
0
230
1
0
LINE
5
85
100
AcDbEntity
8
1
62
256
6
ByLayer
370
18
48
1
60
0
100
AcDbLine
10
30.279208
20
-40
30
0
11
0.3
21
-40
31
0
39
0
210
0
220
0
230
1
0
LINE
5
86
100
AcDbEntity
8
1
62
256
6
ByLayer
370
18
48
1
60
0
100
AcDbLine
10
0.3
20
40
30
0
11
30.279208
21
40
31
0
39
0
210
0
220
0
230
1
0
LINE
5
87
100
AcDbEntity
8
81
62
256
6
ByLayer
370
13
48
1
60
0
100
AcDbLine
10
235
20
40.5
30
0
11
245
21
40.5
31
0
39
0
210
0
220
0
230
1
0
LINE
5
88
100
AcDbEntity
8
1
62
256
6
ByLayer
370
18
48
1
60
0
100
AcDbLine
10
30.279208
20
-40
30
0
11
0.3
21
-40
31
0
39
0
210
0
220
0
230
1
0
LINE
5
89
100
AcDbEntity
8
1
62
256
6
ByLayer
370
18
48
1
60
0
100
AcDbLine
10
0.3
20
40
30
0
11
30.279208
21
40
31
0
39
0
210
0
220
0
230
1
0
LINE
5
8A
100
AcDbEntity
8
1
62
256
6
ByLayer
370
18
48
1
60
0
100
AcDbLine
10
37.079208
20
39.931816
30
0
11
34.549365
21
39.931816
31
0
39
0
210
0
220
0
230
1
0
LINE
5
8B
100
AcDbEntity
8
1
62
256
6
ByLayer
370
18
48
1
60
0
100
AcDbLine
10
229.63233
20
47.36767
30
0
11
229
21
48
31
0
39
0
210
0
220
0
230
1
0
LINE
5
8C
100
AcDbEntity
8
1
62
256
6
ByLayer
370
18
48
1
60
0
100
AcDbLine
10
103.698575
20
34.735341
30
0
11
217
21
34.735341
31
0
39
0
210
0
220
0
230
1
0
LINE
5
8D
100
AcDbEntity
8
1
62
256
6
ByLayer
370
18
48
1
60
0
100
AcDbLine
10
31.253887
20
7.032751
30
0
11
31.253887
21
-40.5
31
0
39
0
210
0
220
0
230
1
0
LINE
5
8E
100
AcDbEntity
8
1
62
256
6
ByLayer
370
18
48
1
60
0
100
AcDbLine
10
38
20
-40.5
30
0
11
38
21
-16.693929
31
0
39
0
210
0
220
0
230
1
0
LINE
5
8F
100
AcDbEntity
8
1
62
256
6
ByLayer
370
18
48
1
60
0
100
AcDbLine
10
31.253887
20
7.032751
30
0
11
47.167464
21
7.032751
31
0
39
0
210
0
220
0
230
1
0
LINE
5
90
100
AcDbEntity
8
1
62
256
6
ByLayer
370
18
48
1
60
0
100
AcDbLine
10
34.549365
20
39.931816
30
0
11
34.549365
21
48
31
0
39
0
210
0
220
0
230
1
0
LINE
5
91
100
AcDbEntity
8
1
62
256
6
ByLayer
370
18
48
1
60
0
100
AcDbLine
10
32.120169
20
40.5
30
0
11
31.438319
21
40.5
31
0
39
0
210
0
220
0
230
1
0
LINE
5
92
100
AcDbEntity
8
1
62
256
6
ByLayer
370
18
48
1
60
0
100
AcDbLine
10
31.438319
20
40.5
30
0
11
31.438319
21
12.577003
31
0
39
0
210
0
220
0
230
1
0
LINE
5
93
100
AcDbEntity
8
1
62
256
6
ByLayer
370
18
48
1
60
0
100
AcDbLine
10
223.767405
20
23.119746
30
0
11
186
21
13
31
0
39
0
210
0
220
0
230
1
0
LINE
5
94
100
AcDbEntity
8
1
62
256
6
ByLayer
370
18
48
1
60
0
100
AcDbLine
10
186
20
13
30
0
11
105.10644
21
13
31
0
39
0
210
0
220
0
230
1
0
LINE
5
95
100
AcDbEntity
8
1
62
256
6
ByLayer
370
18
48
1
60
0
100
AcDbLine
10
100.965335
20
12.454813
30
0
11
49.858895
21
-1.239116
31
0
39
0
210
0
220
0
230
1
0
LINE
5
96
100
AcDbEntity
8
1
62
256
6
ByLayer
370
18
48
1
60
0
100
AcDbLine
10
38
20
-16.693929
30
0
11
38
21
-20.25
31
0
39
0
210
0
220
0
230
1
0
LINE
5
97
100
AcDbEntity
8
1
62
256
6
ByLayer
370
18
48
1
60
0
100
AcDbLine
10
34.549365
20
48
30
0
11
37.079208
21
48
31
0
39
0
210
0
220
0
230
1
0
LINE
5
98
100
AcDbEntity
8
1
62
256
6
ByLayer
370
18
48
1
60
0
100
AcDbLine
10
37.079208
20
48
30
0
11
38.238319
21
48
31
0
39
0
210
0
220
0
230
1
0
LINE
5
99
100
AcDbEntity
8
1
62
256
6
ByLayer
370
18
48
1
60
0
100
AcDbLine
10
118.238314
20
48
30
0
11
34.219091
21
48
31
0
39
0
210
0
220
0
230
1
0
LINE
5
9A
100
AcDbEntity
8
1
62
256
6
ByLayer
370
18
48
1
60
0
100
AcDbLine
10
120
20
48
30
0
11
118.238314
21
48
31
0
39
0
210
0
220
0
230
1
0
LINE
5
9B
100
AcDbEntity
8
1
62
256
6
ByLayer
370
18
48
1
60
0
100
AcDbLine
10
229
20
48
30
0
11
120
21
48
31
0
39
0
210
0
220
0
230
1
0
LINE
5
9C
100
AcDbEntity
8
1
62
256
6
ByLayer
370
18
48
1
60
0
100
AcDbLine
10
38.238319
20
48
30
0
11
39.489296
21
48
31
0
39
0
210
0
220
0
230
1
0
LINE
5
9D
100
AcDbEntity
8
1
62
256
6
ByLayer
370
18
48
1
60
0
100
AcDbLine
10
217
20
23.68756
30
0
11
230
21
24.797787
31
0
39
0
210
0
220
0
230
1
0
LINE
5
9E
100
AcDbEntity
8
1
62
256
6
ByLayer
370
18
48
1
60
0
100
AcDbLine
10
217
20
34.735341
30
0
11
217
21
23.68756
31
0
39
0
210
0
220
0
230
1
0
LINE
5
9F
100
AcDbEntity
8
1
62
256
6
ByLayer
370
18
48
1
60
0
100
AcDbLine
10
230
20
47
30
0
11
229.63233
21
47.36767
31
0
39
0
210
0
220
0
230
1
0
LINE
5
A0
100
AcDbEntity
8
1
62
256
6
ByLayer
370
18
48
1
60
0
100
AcDbLine
10
230
20
24.797787
30
0
11
230
21
47
31
0
39
0
210
0
220
0
230
1
0
LINE
5
A1
100
AcDbEntity
8
1
62
256
6
ByLayer
370
18
48
1
60
0
100
AcDbLine
10
217
20
34.735341
30
0
11
229.63233
21
47.36767
31
0
39
0
210
0
220
0
230
1
0
LINE
5
A2
100
AcDbEntity
8
1
62
256
6
ByLayer
370
18
48
1
60
0
100
AcDbLine
10
229
20
48
30
0
11
39.489296
21
48
31
0
39
0
210
0
220
0
230
1
0
LINE
5
A3
100
AcDbEntity
8
1
62
256
6
ByLayer
370
18
48
1
60
0
100
AcDbLine
10
185.697199
20
15.3
30
0
11
105.10644
21
15.3
31
0
39
0
210
0
220
0
230
1
0
LINE
5
A4
100
AcDbEntity
8
1
62
256
6
ByLayer
370
18
48
1
60
0
100
AcDbLine
10
105.10644
20
13
30
0
11
186
21
13
31
0
39
0
210
0
220
0
230
1
0
LINE
5
A5
100
AcDbEntity
8
1
62
256
6
ByLayer
370
18
48
1
60
0
100
AcDbLine
10
186
20
13
30
0
11
230
21
24.789764
31
0
39
0
210
0
220
0
230
1
0
LINE
5
A6
100
AcDbEntity
8
1
62
256
6
ByLayer
370
18
48
1
60
0
100
AcDbLine
10
185.697199
20
15.3
30
0
11
217
21
23.68756
31
0
39
0
210
0
220
0
230
1
0
LINE
5
A7
100
AcDbEntity
8
1
62
256
6
ByLayer
370
18
48
1
60
0
100
AcDbLine
10
185.697199
20
15.3
30
0
11
186
21
13
31
0
39
0
210
0
220
0
230
1
0
LINE
5
A8
100
AcDbEntity
8
1
62
256
6
ByLayer
370
18
48
1
60
0
100
AcDbLine
10
49.858895
20
-1.239116
30
0
11
100.965335
21
12.454813
31
0
39
0
210
0
220
0
230
1
0
LINE
5
A9
100
AcDbEntity
8
1
62
256
6
ByLayer
370
18
48
1
60
0
100
AcDbLine
10
100.57051
20
14.676443
30
0
11
49.46407
21
0.982513
31
0
39
0
210
0
220
0
230
1
0
LINE
5
AA
100
AcDbEntity
8
1
62
256
6
ByLayer
370
18
48
1
60
0
100
AcDbLine
10
102.304083
20
15.051956
30
0
11
102.304083
21
34.390046
31
0
39
0
210
0
220
0
230
1
0
LINE
5
AB
100
AcDbEntity
8
1
62
256
6
ByLayer
370
18
48
1
60
0
100
AcDbLine
10
47.167464
20
7.032751
30
0
11
102.304083
21
34.390046
31
0
39
0
210
0
220
0
230
1
0
LINE
5
AC
100
AcDbEntity
8
1
62
256
6
ByLayer
370
18
48
1
60
0
100
AcDbLine
10
34.549365
20
48
30
0
11
34.549365
21
39.931816
31
0
39
0
210
0
220
0
230
1
0
LINE
5
AD
100
AcDbEntity
8
1
62
256
6
ByLayer
370
18
48
1
60
0
100
AcDbLine
10
34.219091
20
48
30
0
11
34.549365
21
48
31
0
39
0
210
0
220
0
230
1
0
LINE
5
AE
100
AcDbEntity
8
1
62
256
6
ByLayer
370
18
48
1
60
0
100
AcDbLine
10
31.438319
20
40.5
30
0
11
32.120169
21
40.5
31
0
39
0
210
0
220
0
230
1
0
LINE
5
AF
100
AcDbEntity
8
1
62
256
6
ByLayer
370
18
48
1
60
0
100
AcDbLine
10
31.438319
20
12.577003
30
0
11
31.438319
21
40.5
31
0
39
0
210
0
220
0
230
1
0
LINE
5
B0
100
AcDbEntity
8
1
62
256
6
ByLayer
370
18
48
1
60
0
100
AcDbLine
10
235
20
26.12951
30
0
11
230
21
24.789764
31
0
39
0
210
0
220
0
230
1
0
LINE
5
B1
100
AcDbEntity
8
1
62
256
6
ByLayer
370
18
48
1
60
0
100
AcDbLine
10
235
20
40.131867
30
0
11
235
21
26.12951
31
0
39
0
210
0
220
0
230
1
0
LINE
5
B2
100
AcDbEntity
8
1
62
256
6
ByLayer
370
18
48
1
60
0
100
AcDbLine
10
230
20
24.789764
30
0
11
230
21
40.35
31
0
39
0
210
0
220
0
230
1
0
LINE
5
B3
100
AcDbEntity
8
1
62
256
6
ByLayer
370
18
48
1
60
0
100
AcDbLine
10
234
20
48
30
0
11
41.198259
21
48
31
0
39
0
210
0
220
0
230
1
0
LINE
5
B4
100
AcDbEntity
8
1
62
256
6
ByLayer
370
18
48
1
60
0
100
AcDbLine
10
234.028264
20
47.971736
30
0
11
234
21
48
31
0
39
0
210
0
220
0
230
1
0
LINE
5
B5
100
AcDbEntity
8
1
62
256
6
ByLayer
370
18
48
1
60
0
100
AcDbLine
10
235
20
44.224823
30
0
11
235
21
47
31
0
39
0
210
0
220
0
230
1
0
LINE
5
B6
100
AcDbEntity
8
1
62
256
6
ByLayer
370
18
48
1
60
0
100
AcDbLine
10
235
20
47
30
0
11
234.028264
21
47.971736
31
0
39
0
210
0
220
0
230
1
0
LINE
5
B7
100
AcDbEntity
8
1
62
256
6
ByLayer
370
18
48
1
60
0
100
AcDbLine
10
141.75
20
48.28
30
0
11
132.25
21
48.28
31
0
39
0
210
0
220
0
230
1
0
LINE
5
B8
100
AcDbEntity
8
1
62
256
6
ByLayer
370
18
48
1
60
0
100
AcDbLine
10
139.5
20
50.63
30
0
11
134.5
21
50.63
31
0
39
0
210
0
220
0
230
1
0
LINE
5
B9
100
AcDbEntity
8
1
62
256
6
ByLayer
370
18
48
1
60
0
100
AcDbLine
10
160.75
20
48.28
30
0
11
151.25
21
48.28
31
0
39
0
210
0
220
0
230
1
0
LINE
5
BA
100
AcDbEntity
8
1
62
256
6
ByLayer
370
18
48
1
60
0
100
AcDbLine
10
158.5
20
50.63
30
0
11
153.5
21
50.63
31
0
39
0
210
0
220
0
230
1
0
LINE
5
BB
100
AcDbEntity
8
1
62
256
6
ByLayer
370
18
48
1
60
0
100
AcDbLine
10
179.75
20
48.28
30
0
11
170.25
21
48.28
31
0
39
0
210
0
220
0
230
1
0
LINE
5
BC
100
AcDbEntity
8
1
62
256
6
ByLayer
370
18
48
1
60
0
100
AcDbLine
10
177.5
20
50.63
30
0
11
172.5
21
50.63
31
0
39
0
210
0
220
0
230
1
0
LINE
5
BD
100
AcDbEntity
8
1
62
256
6
ByLayer
370
18
48
1
60
0
100
AcDbLine
10
198.75
20
48.28
30
0
11
189.25
21
48.28
31
0
39
0
210
0
220
0
230
1
0
LINE
5
BE
100
AcDbEntity
8
1
62
256
6
ByLayer
370
18
48
1
60
0
100
AcDbLine
10
196.5
20
50.63
30
0
11
191.5
21
50.63
31
0
39
0
210
0
220
0
230
1
0
LINE
5
BF
100
AcDbEntity
8
1
62
256
6
ByLayer
370
18
48
1
60
0
100
AcDbLine
10
217.75
20
48.28
30
0
11
208.25
21
48.28
31
0
39
0
210
0
220
0
230
1
0
LINE
5
C0
100
AcDbEntity
8
1
62
256
6
ByLayer
370
18
48
1
60
0
100
AcDbLine
10
215.5
20
50.63
30
0
11
210.5
21
50.63
31
0
39
0
210
0
220
0
230
1
0
LINE
5
C1
100
AcDbEntity
8
4
62
256
6
ByLayer
370
13
48
0.05
60
0
100
AcDbLine
10
0
20
0
30
0
11
235
21
0
31
0
39
0
210
0
220
0
230
1
0
LINE
5
C3
100
AcDbEntity
8
SK4
62
256
6
ByLayer
370
13
48
0.05
60
0
100
AcDbLine
10
-51.367528
20
0
30
0
11
241.146693
21
0
31
0
39
0
210
0
220
0
230
1
0
LINE
5
C5
100
AcDbEntity
8
1
62
256
6
ByLayer
370
18
48
1
60
0
100
AcDbLine
10
31.253887
20
-40.5
30
0
11
38
21
-40.5
31
0
39
0
210
0
220
0
230
1
0
LINE
5
C6
100
AcDbEntity
8
1
62
256
6
ByLayer
370
18
48
1
60
0
100
AcDbLine
10
232.704592
20
42.5
30
0
11
230
21
42.5
31
0
39
0
210
0
220
0
230
1
0
LINE
5
C7
100
AcDbEntity
8
1
62
256
6
ByLayer
370
18
48
1
60
0
100
AcDbLine
10
230
20
37.5
30
0
11
232.704592
21
37.5
31
0
39
0
210
0
220
0
230
1
0
LINE
5
C8
100
AcDbEntity
8
1
62
256
6
ByLayer
370
18
48
1
60
0
100
AcDbLine
10
235
20
40.131867
30
0
11
235
21
44.224823
31
0
39
0
210
0
220
0
230
1
0
LINE
5
C9
100
AcDbEntity
8
1
62
256
6
ByLayer
370
18
48
1
60
0
100
AcDbLine
10
232.704592
20
40.5
30
0
11
233.662374
21
40.5
31
0
39
0
210
0
220
0
230
1
0
LINE
5
CA
100
AcDbEntity
8
SK3
62
256
6
ByLayer
370
13
48
0.05
60
0
100
AcDbLine
10
232.704592
20
40.5
30
0
11
38.238319
21
40.5
31
0
39
0
210
0
220
0
230
1
0
LINE
5
CC
100
AcDbEntity
8
1
62
256
6
ByLayer
370
18
48
1
60
0
100
AcDbLine
10
134.5
20
50.63
30
0
11
132.25
21
48.28
31
0
39
0
210
0
220
0
230
1
0
LINE
5
CD
100
AcDbEntity
8
1
62
256
6
ByLayer
370
18
48
1
60
0
100
AcDbLine
10
139.5
20
50.63
30
0
11
141.75
21
48.28
31
0
39
0
210
0
220
0
230
1
0
LINE
5
CE
100
AcDbEntity
8
1
62
256
6
ByLayer
370
18
48
1
60
0
100
AcDbLine
10
132.25
20
48.28
30
0
11
132.25
21
48
31
0
39
0
210
0
220
0
230
1
0
LINE
5
CF
100
AcDbEntity
8
1
62
256
6
ByLayer
370
18
48
1
60
0
100
AcDbLine
10
141.75
20
48.28
30
0
11
141.75
21
48
31
0
39
0
210
0
220
0
230
1
0
LINE
5
D0
100
AcDbEntity
8
1
62
256
6
ByLayer
370
18
48
1
60
0
100
AcDbLine
10
151.25
20
48.28
30
0
11
153.5
21
50.63
31
0
39
0
210
0
220
0
230
1
0
LINE
5
D1
100
AcDbEntity
8
1
62
256
6
ByLayer
370
18
48
1
60
0
100
AcDbLine
10
158.5
20
50.63
30
0
11
160.75
21
48.28
31
0
39
0
210
0
220
0
230
1
0
LINE
5
D2
100
AcDbEntity
8
1
62
256
6
ByLayer
370
18
48
1
60
0
100
AcDbLine
10
151.25
20
48.28
30
0
11
151.25
21
48
31
0
39
0
210
0
220
0
230
1
0
LINE
5
D3
100
AcDbEntity
8
1
62
256
6
ByLayer
370
18
48
1
60
0
100
AcDbLine
10
160.75
20
48.28
30
0
11
160.75
21
48
31
0
39
0
210
0
220
0
230
1
0
LINE
5
D4
100
AcDbEntity
8
1
62
256
6
ByLayer
370
18
48
1
60
0
100
AcDbLine
10
172.5
20
50.63
30
0
11
170.25
21
48.28
31
0
39
0
210
0
220
0
230
1
0
LINE
5
D5
100
AcDbEntity
8
1
62
256
6
ByLayer
370
18
48
1
60
0
100
AcDbLine
10
177.5
20
50.63
30
0
11
179.75
21
48.28
31
0
39
0
210
0
220
0
230
1
0
LINE
5
D6
100
AcDbEntity
8
1
62
256
6
ByLayer
370
18
48
1
60
0
100
AcDbLine
10
170.25
20
48.28
30
0
11
170.25
21
48
31
0
39
0
210
0
220
0
230
1
0
LINE
5
D7
100
AcDbEntity
8
1
62
256
6
ByLayer
370
18
48
1
60
0
100
AcDbLine
10
179.75
20
48.28
30
0
11
179.75
21
48
31
0
39
0
210
0
220
0
230
1
0
LINE
5
D8
100
AcDbEntity
8
1
62
256
6
ByLayer
370
18
48
1
60
0
100
AcDbLine
10
189.25
20
48.28
30
0
11
191.5
21
50.63
31
0
39
0
210
0
220
0
230
1
0
LINE
5
D9
100
AcDbEntity
8
1
62
256
6
ByLayer
370
18
48
1
60
0
100
AcDbLine
10
196.5
20
50.63
30
0
11
198.75
21
48.28
31
0
39
0
210
0
220
0
230
1
0
LINE
5
DA
100
AcDbEntity
8
1
62
256
6
ByLayer
370
18
48
1
60
0
100
AcDbLine
10
189.25
20
48.28
30
0
11
189.25
21
48
31
0
39
0
210
0
220
0
230
1
0
LINE
5
DB
100
AcDbEntity
8
1
62
256
6
ByLayer
370
18
48
1
60
0
100
AcDbLine
10
198.75
20
48.28
30
0
11
198.75
21
48
31
0
39
0
210
0
220
0
230
1
0
LINE
5
DC
100
AcDbEntity
8
1
62
256
6
ByLayer
370
18
48
1
60
0
100
AcDbLine
10
208.25
20
48.28
30
0
11
210.5
21
50.63
31
0
39
0
210
0
220
0
230
1
0
LINE
5
DD
100
AcDbEntity
8
1
62
256
6
ByLayer
370
18
48
1
60
0
100
AcDbLine
10
215.5
20
50.63
30
0
11
217.75
21
48.28
31
0
39
0
210
0
220
0
230
1
0
LINE
5
DE
100
AcDbEntity
8
1
62
256
6
ByLayer
370
18
48
1
60
0
100
AcDbLine
10
208.25
20
48.28
30
0
11
208.25
21
48
31
0
39
0
210
0
220
0
230
1
0
LINE
5
DF
100
AcDbEntity
8
1
62
256
6
ByLayer
370
18
48
1
60
0
100
AcDbLine
10
217.75
20
48.28
30
0
11
217.75
21
48
31
0
39
0
210
0
220
0
230
1
0
MTEXT
5
103
100
AcDbEntity
8
SK6
62
256
6
ByLayer
370
18
48
1
60
0
100
AcDbMText
10
-0.682236
20
-55.421964
30
0
210
0
220
0
230
1
1
\W0.7595;C8-APBR-235-45HP
40
3.5
41
0
44
1.084337
50
0
71
7
72
5
7
iso_b_vert
0
DIMENSION
5
115
100
AcDbEntity
8
2
62
256
6
ByLayer
370
13
48
1
60
0
100
AcDbDimension
2
DimnDraft3D1
10
235
20
71.316982
30
0
11
114.646053
21
71.316982
31
0
70
32
71
5
72
1
41
1
210
0
220
0
230
1
3
Standard
100
AcDbAlignedDimension
13
0
23
41.2
33
0
14
235
24
48.5
34
0
50
0
100
AcDbRotatedDimension
1001
ACAD
1000
DSTYLE
1002
{
1070
   279
1070
     0
1070
   173
1070
     1
1070
   340
1005
104
1070
   271
1070
     0
1070
   272
1070
     2
1070
    77
1070
     1
1070
    73
1070
     0
1070
   171
1070
     4
1070
   274
1070
     4
1070
   177
1070
     7
1070
   176
1070
     7
1070
   178
1070
     7
1070
    41
1041
3.0
1070
   147
1041
1.5
1070
    42
1041
1.5
1070
    44
1041
3.0
1070
   140
1041
3.0
1070
   343
1005
116
1070
   344
1005
116
1002
}
0
DIMENSION
5
12B
100
AcDbEntity
8
SK2
62
256
6
ByLayer
370
13
48
1
60
0
100
AcDbDimension
2
DimnDraft3D2
10
-57.723709
20
40
30
0
11
-57.723709
21
-4.073684
31
0
70
32
71
5
72
1
41
1
210
0
220
0
230
1
3
Standard
100
AcDbAlignedDimension
13
-1.2
23
-40
33
0
14
-1.2
24
40
34
0
50
90
100
AcDbRotatedDimension
1001
ACAD
1000
DSTYLE
1002
{
1070
    74
1070
     0
1070
   279
1070
     0
1070
   173
1070
     1
1070
   340
1005
104
1070
   271
1070
     0
1070
   272
1070
     2
1070
    77
1070
     1
1070
    73
1070
     0
1070
   171
1070
     4
1070
   274
1070
     4
1070
   177
1070
     7
1070
   176
1070
     7
1070
   178
1070
     7
1070
    41
1041
3.0
1070
   147
1041
1.5
1070
    42
1041
1.5
1070
    44
1041
3.0
1070
   140
1041
3.0
1070
   343
1005
116
1070
   344
1005
116
1002
}
0
DIMENSION
5
139
100
AcDbEntity
8
SK2
62
256
6
ByLayer
370
13
48
1
60
0
100
AcDbDimension
2
DimnDraft3D3
10
30.279208
20
60.494736
30
0
11
13.347499
21
60.494736
31
0
70
32
71
5
72
1
41
1
210
0
220
0
230
1
3
Standard
100
AcDbAlignedDimension
13
0
23
41.2
33
0
14
30.279208
24
41.5
34
0
50
0
100
AcDbRotatedDimension
1001
ACAD
1000
DSTYLE
1002
{
1070
   279
1070
     0
1070
   173
1070
     1
1070
   340
1005
104
1070
   271
1070
     0
1070
   272
1070
     2
1070
    77
1070
     1
1070
    73
1070
     0
1070
   171
1070
     4
1070
   274
1070
     4
1070
   177
1070
     7
1070
   176
1070
     7
1070
   178
1070
     7
1070
    41
1041
3.0
1070
   147
1041
1.5
1070
    42
1041
1.5
1070
    44
1041
3.0
1070
   140
1041
3.0
1070
   343
1005
116
1070
   344
1005
116
1002
}
0
DIMENSION
5
147
100
AcDbEntity
8
SK2
62
256
6
ByLayer
370
13
48
1
60
0
100
AcDbDimension
2
DimnDraft3D4
10
273.001598
20
0
30
0
11
273.001598
21
22.05
31
0
70
32
71
5
72
1
41
1
210
0
220
0
230
1
3
Standard
100
AcDbAlignedDimension
13
235.5
23
48
33
0
14
242.646693
24
0
34
0
50
90
100
AcDbRotatedDimension
1001
ACAD
1000
DSTYLE
1002
{
1070
    74
1070
     0
1070
   279
1070
     0
1070
   173
1070
     1
1070
   340
1005
104
1070
   271
1070
     0
1070
   272
1070
     2
1070
    77
1070
     1
1070
    73
1070
     0
1070
   171
1070
     4
1070
   274
1070
     4
1070
   177
1070
     7
1070
   176
1070
     7
1070
   178
1070
     7
1070
    41
1041
3.0
1070
   147
1041
1.5
1070
    42
1041
1.5
1070
    44
1041
3.0
1070
   140
1041
3.0
1070
   343
1005
116
1070
   344
1005
116
1002
}
0
DIMENSION
5
155
100
AcDbEntity
8
SK2
62
256
6
ByLayer
370
13
48
1
60
0
100
AcDbDimension
2
DimnDraft3D5
10
262.159001
20
0
30
0
11
262.159001
21
16.571053
31
0
70
32
71
5
72
1
41
1
210
0
220
0
230
1
3
Standard
100
AcDbAlignedDimension
13
235.162374
23
40.5
33
0
14
242.646693
24
0
34
0
50
90
100
AcDbRotatedDimension
1001
ACAD
1000
DSTYLE
1002
{
1070
    74
1070
     0
1070
   279
1070
     0
1070
   173
1070
     1
1070
   340
1005
104
1070
   271
1070
     1
1070
   272
1070
     2
1070
    77
1070
     1
1070
    73
1070
     0
1070
   171
1070
     4
1070
   274
1070
     4
1070
   177
1070
     7
1070
   176
1070
     7
1070
   178
1070
     7
1070
    41
1041
3.0
1070
   147
1041
1.5
1070
    42
1041
1.5
1070
    44
1041
3.0
1070
   140
1041
3.0
1070
   343
1005
116
1070
   344
1005
116
1002
}
0
DIMENSION
5
163
100
AcDbEntity
8
SK2
62
256
6
ByLayer
370
13
48
1
60
0
100
AcDbDimension
2
DimnDraft3D6
10
251.954204
20
13
30
0
11
251.954204
21
5.082895
31
0
70
32
71
5
72
1
41
1
210
0
220
0
230
1
3
Standard
100
AcDbAlignedDimension
13
242.646693
23
0
33
0
14
187.5
24
13
34
0
50
90
100
AcDbRotatedDimension
1001
ACAD
1000
DSTYLE
1002
{
1070
    74
1070
     0
1070
   279
1070
     0
1070
   173
1070
     1
1070
   340
1005
104
1070
   271
1070
     0
1070
   272
1070
     2
1070
    77
1070
     1
1070
    73
1070
     0
1070
   171
1070
     4
1070
   274
1070
     4
1070
   177
1070
     7
1070
   176
1070
     7
1070
   178
1070
     7
1070
    41
1041
3.0
1070
   147
1041
1.5
1070
    42
1041
1.5
1070
    44
1041
3.0
1070
   140
1041
3.0
1070
   343
1005
116
1070
   344
1005
116
1002
}
0
DIMENSION
5
170
100
AcDbEntity
8
SK2
62
256
6
ByLayer
370
13
48
1
60
0
100
AcDbDimension
2
DimnDraft3D7
10
38
20
-28.918433
30
0
11
133.961842
21
-28.918433
31
0
70
32
71
5
72
1
41
1
210
0
220
0
230
1
3
Standard
100
AcDbAlignedDimension
13
235
23
24.62951
33
0
14
38
24
-28.918433
34
0
50
0
100
AcDbRotatedDimension
1001
ACAD
1000
DSTYLE
1002
{
1070
   279
1070
     0
1070
   173
1070
     1
1070
   340
1005
104
1070
   271
1070
     0
1070
   272
1070
     2
1070
    77
1070
     1
1070
    73
1070
     0
1070
   171
1070
     4
1070
   274
1070
     4
1070
   177
1070
     7
1070
   176
1070
     7
1070
   178
1070
     7
1070
    41
1041
3.0
1070
   147
1041
1.5
1070
    42
1041
1.5
1070
    44
1041
3.0
1070
   140
1041
3.0
1070
   343
1005
0
1070
   344
1005
0
1002
}
0
ENDSEC
0
SECTION
2
OBJECTS
0
DICTIONARY
5
1dc
330
0
100
AcDbDictionary
280
0
281
1
3
ACAD_GROUP
350
1dd
3
ACAD_MLINESTYLE
350
1de
0
DICTIONARY
5
1dd
330
0
100
AcDbDictionary
280
0
281
1
0
DICTIONARY
5
1de
330
0
100
AcDbDictionary
280
0
281
1
3
Standard
350
18
0
MLINESTYLE
5
18
330
1de
100
AcDbMlineStyle
2
Standard
70
0
3

62
256
51
90
52
90
71
2
49
-0.5
62
256
6
ByLayer
49
0.5
62
256
6
ByLayer
0
RASTERVARIABLES
5
1c9
330

100
AcDbRasterVariables
90
0
70
1
71
1
72
1
0
ENDSEC
0
EOF
