0
SECTION
2
HEADER
9
$ACADVER
1
AC1015
9
$DWGCODEPAGE
3
ANSI_1252
9
$HANDSEED
5
1ca
9
$ANGBASE
50
0
9
$ANGDIR
70
0
9
$ATTMODE
70
1
9
$AUNITS
70
0
9
$AUPREC
70
0
9
$CECOLOR
62
256
9
$CELTSCALE
40
1
9
$CELTYPE
6
ByLayer
9
$CELWEIGHT
370
18
9
$CLAYER
8
0
9
$CMLJUST
70
0
9
$CMLSCALE
40
1
9
$CMLSTYLE
2
Standard
9
$DIMSTYLE
2
Standard
9
$TEXTSIZE
40
0.2
9
$TEXTSTYLE
7
Standard
9
$LUNITS
70
2
9
$LUPREC
70
4
9
$EXTNAMES
290
1
9
$INSUNITS
70
4
9
$LTSCALE
40
1
9
$LWDISPLAY
290
1
9
$PDMODE
70
0
9
$PDSIZE
40
0
9
$PLINEGEN
70
0
0
ENDSEC
0
SECTION
2
CLASSES
0
CLASS
1
RASTERVARIABLES
2
AcDbRasterVariables
3
ISM
90
0
280
0
281
0
0
ENDSEC
0
SECTION
2
TABLES
0
TABLE
2
VPORT
5
1c0
100
AcDbSymbolTable
0
VPORT
5
1
100
AcDbSymbolTableRecord
100
AcDbViewportTableRecord
2
*Active
70
0
10
0
20
0
11
1
21
1
12
-1
22
1
13
0
23
0
14
0.5
24
0.5
15
10
25
10
16
0
26
0
36
1
17
0
27
0
37
0
0
ENDTAB
0
TABLE
2
LTYPE
5
1c1
100
AcDbSymbolTable
0
LTYPE
5
14
100
AcDbSymbolTableRecord
100
AcDbLinetypeTableRecord
70
0
2
ByBlock
3

72
65
73
0
40
0
0
LTYPE
5
15
100
AcDbSymbolTableRecord
100
AcDbLinetypeTableRecord
70
0
2
ByLayer
3

72
65
73
0
40
0
0
LTYPE
5
16
100
AcDbSymbolTableRecord
100
AcDbLinetypeTableRecord
70
0
2
CONTINUOUS
3
Solid line
72
65
73
0
40
0
0
LTYPE
5
6A
100
AcDbSymbolTableRecord
100
AcDbLinetypeTableRecord
70
0
2
CENTER
3
____ _ ____ _ ____ _ ____
72
65
73
4
40
47.5
49
22
74
0
49
-8.5
74
0
49
8.5
74
0
49
-8.5
74
0
0
LTYPE
5
6B
100
AcDbSymbolTableRecord
100
AcDbLinetypeTableRecord
70
0
2
DASHED
3
__ __ __ __ __ __ __ __ __
72
65
73
2
40
25.72
49
12.86
74
0
49
-12.86
74
0
0
ENDTAB
0
TABLE
2
LAYER
5
1c2
100
AcDbSymbolTable
0
LAYER
5
10
100
AcDbSymbolTableRecord
100
AcDbLayerTableRecord
2
0
70
0
62
7
6
CONTINUOUS
290
1
370
-3
390
0
0
LAYER
5
6D
100
AcDbSymbolTableRecord
100
AcDbLayerTableRecord
2
80
70
0
62
-6
6
CONTINUOUS
290
1
370
-3
390
0
0
LAYER
5
6F
100
AcDbSymbolTableRecord
100
AcDbLayerTableRecord
2
81
70
0
62
-3
6
CONTINUOUS
290
1
370
-3
390
0
0
LAYER
5
71
100
AcDbSymbolTableRecord
100
AcDbLayerTableRecord
2
82
70
0
62
-3
6
DASHED
290
1
370
-3
390
0
0
LAYER
5
76
100
AcDbSymbolTableRecord
100
AcDbLayerTableRecord
2
1
70
0
62
4
6
CONTINUOUS
290
1
370
-3
390
0
0
LAYER
5
B8
100
AcDbSymbolTableRecord
100
AcDbLayerTableRecord
2
4
70
0
62
-2
6
CENTER
290
1
370
-3
390
0
0
LAYER
5
11B
100
AcDbSymbolTableRecord
100
AcDbLayerTableRecord
2
2
70
0
62
7
6
CONTINUOUS
290
1
370
-3
390
0
0
LAYER
5
1ab
100
AcDbSymbolTableRecord
100
AcDbLayerTableRecord
2
SK1
70
0
62
4
6
CONTINUOUS
290
1
370
-3
390
0
0
LAYER
5
1ac
100
AcDbSymbolTableRecord
100
AcDbLayerTableRecord
2
SK4
70
0
62
2
6
CENTER
290
1
370
-3
390
0
0
LAYER
5
1ad
100
AcDbSymbolTableRecord
100
AcDbLayerTableRecord
2
SK3
70
0
62
1
6
DASHED
290
1
370
-3
390
0
0
LAYER
5
1ae
100
AcDbSymbolTableRecord
100
AcDbLayerTableRecord
2
SK6
70
0
62
5
6
CONTINUOUS
290
1
370
-3
390
0
0
LAYER
5
1af
100
AcDbSymbolTableRecord
100
AcDbLayerTableRecord
2
SK2
70
0
62
7
6
CONTINUOUS
290
1
370
-3
390
0
0
ENDTAB
0
TABLE
2
STYLE
5
1c3
100
AcDbSymbolTable
0
STYLE
5
11
100
AcDbSymbolTableRecord
100
AcDbTextStyleTableRecord
2
Standard
3
txt
70
0
71
0
40
0
41
1
42
0
50
0
0
STYLE
5
F2
100
AcDbSymbolTableRecord
100
AcDbTextStyleTableRecord
2
iso_b_vert
3
simplex.shx
70
0
71
0
40
0
41
1
42
0
50
0
0
STYLE
5
F3
100
AcDbSymbolTableRecord
100
AcDbTextStyleTableRecord
2
DWGDirectTextStyle
3
simplex
70
0
71
0
40
0
41
1
42
0
50
0
0
ENDTAB
0
TABLE
2
DIMSTYLE
5
1c4
100
AcDbSymbolTable
100
AcDbDimStyleTable
0
DIMSTYLE
105
27
100
AcDbSymbolTableRecord
100
AcDbDimStyleTableRecord
2
Standard
70
0
3
<>
41
0.18
42
0.0625
44
0.18
140
0.18
147
0.09
73
0
74
0
77
1
271
2
275
0
278
52
280
0
340
11
0
ENDTAB
0
TABLE
2
VIEW
5
1c5
100
AcDbSymbolTable
0
ENDTAB
0
TABLE
2
UCS
5
1c6
100
AcDbSymbolTable
0
ENDTAB
0
TABLE
2
APPID
5
1c7
100
AcDbSymbolTable
0
APPID
5
12
100
AcDbSymbolTableRecord
100
AcDbRegAppTableRecord
2
ACAD
70
0
0
ENDTAB
0
TABLE
2
BLOCK_RECORD
5
1c8
100
AcDbSymbolTable
0
BLOCK_RECORD
5
1F
100
AcDbSymbolTableRecord
100
AcDbBlockTableRecord
2
*Model_Space
340
0
70
0
0
BLOCK_RECORD
5
1B
100
AcDbSymbolTableRecord
100
AcDbBlockTableRecord
2
*Paper_Space
340
0
70
0
0
BLOCK_RECORD
5
23
100
AcDbSymbolTableRecord
100
AcDbBlockTableRecord
2
*Paper_Space0
340
0
70
0
0
BLOCK_RECORD
5
F5
100
AcDbSymbolTableRecord
100
AcDbBlockTableRecord
2
DimnDraft3D1
340
0
70
0
0
BLOCK_RECORD
5
104
100
AcDbSymbolTableRecord
100
AcDbBlockTableRecord
2
_CLOSED
340
0
70
0
0
BLOCK_RECORD
5
10B
100
AcDbSymbolTableRecord
100
AcDbBlockTableRecord
2
DimnDraft3D2
340
0
70
0
0
BLOCK_RECORD
5
119
100
AcDbSymbolTableRecord
100
AcDbBlockTableRecord
2
DimnDraft3D3
340
0
70
0
0
BLOCK_RECORD
5
128
100
AcDbSymbolTableRecord
100
AcDbBlockTableRecord
2
DimnDraft3D4
340
0
70
0
0
BLOCK_RECORD
5
136
100
AcDbSymbolTableRecord
100
AcDbBlockTableRecord
2
DimnDraft3D5
340
0
70
0
0
BLOCK_RECORD
5
144
100
AcDbSymbolTableRecord
100
AcDbBlockTableRecord
2
DimnDraft3D6
340
0
70
0
0
ENDTAB
0
ENDSEC
0
SECTION
2
BLOCKS
0
BLOCK
5
20
100
AcDbEntity
8
0
100
AcDbBlockBegin
2
*Model_Space
70
0
10
0
20
0
30
0
3
*Model_Space
0
ENDBLK
5
21
100
AcDbEntity
8
0
100
AcDbBlockEnd
0
BLOCK
5
1C
100
AcDbEntity
8
0
100
AcDbBlockBegin
2
*Paper_Space
70
0
10
0
20
0
30
0
3
*Paper_Space
0
ENDBLK
5
1D
100
AcDbEntity
8
0
100
AcDbBlockEnd
0
BLOCK
5
24
100
AcDbEntity
8
0
100
AcDbBlockBegin
2
*Paper_Space0
70
0
10
0
20
0
30
0
3
*Paper_Space0
0
ENDBLK
5
25
100
AcDbEntity
8
0
100
AcDbBlockEnd
0
BLOCK
5
101
100
AcDbEntity
8
0
100
AcDbBlockBegin
2
DimnDraft3D1
70
0
10
0
20
0
30
0
3
DimnDraft3D1
0
MTEXT
5
F6
100
AcDbEntity
8
SK2
62
256
6
ByLayer
370
18
48
1
60
0
100
AcDbMText
10
23.997368
20
66.644467
30
0
210
0
220
0
230
1
1
\W0.6563;50
40
3
41
0
44
1.084337
50
0
71
7
72
5
7
iso_b_vert
0
LINE
5
F8
100
AcDbEntity
8
SK2
62
256
6
ByLayer
370
13
48
1
60
0
100
AcDbLine
10
0
20
41.2
30
0
11
0
21
68.894467
31
0
39
0
210
0
220
0
230
1
0
LINE
5
F9
100
AcDbEntity
8
SK2
62
256
6
ByLayer
370
13
48
1
60
0
100
AcDbLine
10
50
20
41.5
30
0
11
50
21
68.894467
31
0
39
0
210
0
220
0
230
1
0
LINE
5
FA
100
AcDbEntity
8
SK2
62
256
6
ByLayer
370
13
48
1
60
0
100
AcDbLine
10
0
20
65.894467
30
0
11
50
21
65.894467
31
0
39
0
210
0
220
0
230
1
0
LINE
5
FB
100
AcDbEntity
8
SK2
62
256
6
ByLayer
370
13
48
1
60
0
100
AcDbLine
10
0
20
65.894467
30
0
11
2.999998
21
66.423448
31
0
39
0
210
0
220
0
230
1
0
LINE
5
FC
100
AcDbEntity
8
SK2
62
256
6
ByLayer
370
13
48
1
60
0
100
AcDbLine
10
0
20
65.894467
30
0
11
3.000002
21
65.365486
31
0
39
0
210
0
220
0
230
1
0
LINE
5
FD
100
AcDbEntity
8
SK2
62
256
6
ByLayer
370
13
48
1
60
0
100
AcDbLine
10
2.999998
20
66.423448
30
0
11
3.000002
21
65.365486
31
0
39
0
210
0
220
0
230
1
0
LINE
5
FE
100
AcDbEntity
8
SK2
62
256
6
ByLayer
370
13
48
1
60
0
100
AcDbLine
10
50
20
65.894467
30
0
11
47.000002
21
65.365486
31
0
39
0
210
0
220
0
230
1
0
LINE
5
FF
100
AcDbEntity
8
SK2
62
256
6
ByLayer
370
13
48
1
60
0
100
AcDbLine
10
50
20
65.894467
30
0
11
46.999998
21
66.423448
31
0
39
0
210
0
220
0
230
1
0
LINE
5
100
100
AcDbEntity
8
SK2
62
256
6
ByLayer
370
13
48
1
60
0
100
AcDbLine
10
47.000002
20
65.365486
30
0
11
46.999998
21
66.423448
31
0
39
0
210
0
220
0
230
1
0
ENDBLK
5
102
100
AcDbEntity
8
0
100
AcDbBlockEnd
0
BLOCK
5
105
100
AcDbEntity
8
0
100
AcDbBlockBegin
2
_CLOSED
70
0
10
0
20
0
30
0
3
_CLOSED
0
LINE
5
107
100
AcDbEntity
8
0
62
256
6
ByLayer
370
-2
48
1
60
0
100
AcDbLine
10
-1
20
0.166667
30
0
11
0
21
0
31
0
39
0
210
0
220
0
230
1
0
LINE
5
108
100
AcDbEntity
8
0
62
256
6
ByLayer
370
-2
48
1
60
0
100
AcDbLine
10
0
20
0
30
0
11
-1
21
-0.166667
31
0
39
0
210
0
220
0
230
1
0
LINE
5
109
100
AcDbEntity
8
0
62
256
6
ByLayer
370
-2
48
1
60
0
100
AcDbLine
10
-1
20
0.166667
30
0
11
-1
21
-0.166667
31
0
39
0
210
0
220
0
230
1
0
LINE
5
10A
100
AcDbEntity
8
0
62
256
6
ByLayer
370
-2
48
1
60
0
100
AcDbLine
10
0
20
0
30
0
11
-1
21
0
31
0
39
0
210
0
220
0
230
1
0
ENDBLK
5
106
100
AcDbEntity
8
0
100
AcDbBlockEnd
0
BLOCK
5
116
100
AcDbEntity
8
0
100
AcDbBlockBegin
2
DimnDraft3D2
70
0
10
0
20
0
30
0
3
DimnDraft3D2
0
MTEXT
5
10C
100
AcDbEntity
8
SK2
62
256
6
ByLayer
370
18
48
1
60
0
100
AcDbMText
10
-58.473709
20
-3.323684
30
0
210
0
220
0
230
1
1
\W0.7884;%%c 80
40
3
41
0
44
1.084337
50
90
71
7
72
5
7
iso_b_vert
0
LINE
5
10D
100
AcDbEntity
8
SK2
62
256
6
ByLayer
370
13
48
1
60
0
100
AcDbLine
10
-1.2
20
-40
30
0
11
-60.723709
21
-40
31
0
39
0
210
0
220
0
230
1
0
LINE
5
10E
100
AcDbEntity
8
SK2
62
256
6
ByLayer
370
13
48
1
60
0
100
AcDbLine
10
-1.2
20
40
30
0
11
-60.723709
21
40
31
0
39
0
210
0
220
0
230
1
0
LINE
5
10F
100
AcDbEntity
8
SK2
62
256
6
ByLayer
370
13
48
1
60
0
100
AcDbLine
10
-57.723709
20
-40
30
0
11
-57.723709
21
40
31
0
39
0
210
0
220
0
230
1
0
LINE
5
110
100
AcDbEntity
8
SK2
62
256
6
ByLayer
370
13
48
1
60
0
100
AcDbLine
10
-57.723709
20
-40
30
0
11
-58.25269
21
-37.000002
31
0
39
0
210
0
220
0
230
1
0
LINE
5
111
100
AcDbEntity
8
SK2
62
256
6
ByLayer
370
13
48
1
60
0
100
AcDbLine
10
-57.723709
20
-40
30
0
11
-57.194728
21
-36.999998
31
0
39
0
210
0
220
0
230
1
0
LINE
5
112
100
AcDbEntity
8
SK2
62
256
6
ByLayer
370
13
48
1
60
0
100
AcDbLine
10
-58.25269
20
-37.000002
30
0
11
-57.194728
21
-36.999998
31
0
39
0
210
0
220
0
230
1
0
LINE
5
113
100
AcDbEntity
8
SK2
62
256
6
ByLayer
370
13
48
1
60
0
100
AcDbLine
10
-57.723709
20
40
30
0
11
-57.194728
21
37.000002
31
0
39
0
210
0
220
0
230
1
0
LINE
5
114
100
AcDbEntity
8
SK2
62
256
6
ByLayer
370
13
48
1
60
0
100
AcDbLine
10
-57.723709
20
40
30
0
11
-58.25269
21
36.999998
31
0
39
0
210
0
220
0
230
1
0
LINE
5
115
100
AcDbEntity
8
SK2
62
256
6
ByLayer
370
13
48
1
60
0
100
AcDbLine
10
-57.194728
20
37.000002
30
0
11
-58.25269
21
36.999998
31
0
39
0
210
0
220
0
230
1
0
ENDBLK
5
117
100
AcDbEntity
8
0
100
AcDbBlockEnd
0
BLOCK
5
125
100
AcDbEntity
8
0
100
AcDbBlockBegin
2
DimnDraft3D3
70
0
10
0
20
0
30
0
3
DimnDraft3D3
0
MTEXT
5
11A
100
AcDbEntity
8
2
62
256
6
ByLayer
370
18
48
1
60
0
100
AcDbMText
10
21.3
20
57.177765
30
0
210
0
220
0
230
1
1
\W0.7361;45
40
3
41
0
44
1.084337
50
0
71
7
72
5
7
iso_b_vert
0
LINE
5
11C
100
AcDbEntity
8
2
62
256
6
ByLayer
370
13
48
1
60
0
100
AcDbLine
10
0
20
41.2
30
0
11
0
21
59.427765
31
0
39
0
210
0
220
0
230
1
0
LINE
5
11D
100
AcDbEntity
8
2
62
256
6
ByLayer
370
13
48
1
60
0
100
AcDbLine
10
45
20
41.162374
30
0
11
45
21
59.427765
31
0
39
0
210
0
220
0
230
1
0
LINE
5
11E
100
AcDbEntity
8
2
62
256
6
ByLayer
370
13
48
1
60
0
100
AcDbLine
10
0
20
56.427765
30
0
11
45
21
56.427765
31
0
39
0
210
0
220
0
230
1
0
LINE
5
11F
100
AcDbEntity
8
2
62
256
6
ByLayer
370
13
48
1
60
0
100
AcDbLine
10
0
20
56.427765
30
0
11
2.999998
21
56.956746
31
0
39
0
210
0
220
0
230
1
0
LINE
5
120
100
AcDbEntity
8
2
62
256
6
ByLayer
370
13
48
1
60
0
100
AcDbLine
10
0
20
56.427765
30
0
11
3.000002
21
55.898784
31
0
39
0
210
0
220
0
230
1
0
LINE
5
121
100
AcDbEntity
8
2
62
256
6
ByLayer
370
13
48
1
60
0
100
AcDbLine
10
2.999998
20
56.956746
30
0
11
3.000002
21
55.898784
31
0
39
0
210
0
220
0
230
1
0
LINE
5
122
100
AcDbEntity
8
2
62
256
6
ByLayer
370
13
48
1
60
0
100
AcDbLine
10
45
20
56.427765
30
0
11
42.000002
21
55.898784
31
0
39
0
210
0
220
0
230
1
0
LINE
5
123
100
AcDbEntity
8
2
62
256
6
ByLayer
370
13
48
1
60
0
100
AcDbLine
10
45
20
56.427765
30
0
11
41.999998
21
56.956746
31
0
39
0
210
0
220
0
230
1
0
LINE
5
124
100
AcDbEntity
8
2
62
256
6
ByLayer
370
13
48
1
60
0
100
AcDbLine
10
42.000002
20
55.898784
30
0
11
41.999998
21
56.956746
31
0
39
0
210
0
220
0
230
1
0
ENDBLK
5
126
100
AcDbEntity
8
0
100
AcDbBlockEnd
0
BLOCK
5
133
100
AcDbEntity
8
0
100
AcDbBlockBegin
2
DimnDraft3D4
70
0
10
0
20
0
30
0
3
DimnDraft3D4
0
MTEXT
5
129
100
AcDbEntity
8
SK2
62
256
6
ByLayer
370
18
48
1
60
0
100
AcDbMText
10
95.752397
20
-1.042105
30
0
210
0
220
0
230
1
1
\W0.6740;82
40
3
41
0
44
1.084337
50
90
71
7
72
5
7
iso_b_vert
0
LINE
5
12A
100
AcDbEntity
8
SK2
62
256
6
ByLayer
370
13
48
1
60
0
100
AcDbLine
10
50.224823
20
41
30
0
11
99.502397
21
41
31
0
39
0
210
0
220
0
230
1
0
LINE
5
12B
100
AcDbEntity
8
SK2
62
256
6
ByLayer
370
13
48
1
60
0
100
AcDbLine
10
50.224823
20
-41
30
0
11
99.502397
21
-41
31
0
39
0
210
0
220
0
230
1
0
LINE
5
12C
100
AcDbEntity
8
SK2
62
256
6
ByLayer
370
13
48
1
60
0
100
AcDbLine
10
96.502397
20
41
30
0
11
96.502397
21
-41
31
0
39
0
210
0
220
0
230
1
0
LINE
5
12D
100
AcDbEntity
8
SK2
62
256
6
ByLayer
370
13
48
1
60
0
100
AcDbLine
10
96.502397
20
41
30
0
11
97.031378
21
38.000002
31
0
39
0
210
0
220
0
230
1
0
LINE
5
12E
100
AcDbEntity
8
SK2
62
256
6
ByLayer
370
13
48
1
60
0
100
AcDbLine
10
96.502397
20
41
30
0
11
95.973416
21
37.999998
31
0
39
0
210
0
220
0
230
1
0
LINE
5
12F
100
AcDbEntity
8
SK2
62
256
6
ByLayer
370
13
48
1
60
0
100
AcDbLine
10
97.031378
20
38.000002
30
0
11
95.973416
21
37.999998
31
0
39
0
210
0
220
0
230
1
0
LINE
5
130
100
AcDbEntity
8
SK2
62
256
6
ByLayer
370
13
48
1
60
0
100
AcDbLine
10
96.502397
20
-41
30
0
11
95.973416
21
-38.000002
31
0
39
0
210
0
220
0
230
1
0
LINE
5
131
100
AcDbEntity
8
SK2
62
256
6
ByLayer
370
13
48
1
60
0
100
AcDbLine
10
96.502397
20
-41
30
0
11
97.031378
21
-37.999998
31
0
39
0
210
0
220
0
230
1
0
LINE
5
132
100
AcDbEntity
8
SK2
62
256
6
ByLayer
370
13
48
1
60
0
100
AcDbLine
10
95.973416
20
-38.000002
30
0
11
97.031378
21
-37.999998
31
0
39
0
210
0
220
0
230
1
0
ENDBLK
5
134
100
AcDbEntity
8
0
100
AcDbBlockEnd
0
BLOCK
5
141
100
AcDbEntity
8
0
100
AcDbBlockBegin
2
DimnDraft3D5
70
0
10
0
20
0
30
0
3
DimnDraft3D5
0
MTEXT
5
137
100
AcDbEntity
8
SK2
62
256
6
ByLayer
370
18
48
1
60
0
100
AcDbMText
10
83.332318
20
-21.325
30
0
210
0
220
0
230
1
1
\W0.7092;41
40
3
41
0
44
1.084337
50
90
71
7
72
5
7
iso_b_vert
0
LINE
5
138
100
AcDbEntity
8
SK2
62
256
6
ByLayer
370
13
48
1
60
0
100
AcDbLine
10
58.680907
20
0
30
0
11
87.082318
21
0
31
0
39
0
210
0
220
0
230
1
0
LINE
5
139
100
AcDbEntity
8
SK2
62
256
6
ByLayer
370
13
48
1
60
0
100
AcDbLine
10
50.224823
20
-41
30
0
11
87.082318
21
-41
31
0
39
0
210
0
220
0
230
1
0
LINE
5
13A
100
AcDbEntity
8
SK2
62
256
6
ByLayer
370
13
48
1
60
0
100
AcDbLine
10
84.082318
20
0
30
0
11
84.082318
21
-41
31
0
39
0
210
0
220
0
230
1
0
LINE
5
13B
100
AcDbEntity
8
SK2
62
256
6
ByLayer
370
13
48
1
60
0
100
AcDbLine
10
84.082318
20
0
30
0
11
84.611299
21
-2.999998
31
0
39
0
210
0
220
0
230
1
0
LINE
5
13C
100
AcDbEntity
8
SK2
62
256
6
ByLayer
370
13
48
1
60
0
100
AcDbLine
10
84.082318
20
0
30
0
11
83.553337
21
-3.000002
31
0
39
0
210
0
220
0
230
1
0
LINE
5
13D
100
AcDbEntity
8
SK2
62
256
6
ByLayer
370
13
48
1
60
0
100
AcDbLine
10
84.611299
20
-2.999998
30
0
11
83.553337
21
-3.000002
31
0
39
0
210
0
220
0
230
1
0
LINE
5
13E
100
AcDbEntity
8
SK2
62
256
6
ByLayer
370
13
48
1
60
0
100
AcDbLine
10
84.082318
20
-41
30
0
11
83.553337
21
-38.000002
31
0
39
0
210
0
220
0
230
1
0
LINE
5
13F
100
AcDbEntity
8
SK2
62
256
6
ByLayer
370
13
48
1
60
0
100
AcDbLine
10
84.082318
20
-41
30
0
11
84.611299
21
-37.999998
31
0
39
0
210
0
220
0
230
1
0
LINE
5
140
100
AcDbEntity
8
SK2
62
256
6
ByLayer
370
13
48
1
60
0
100
AcDbLine
10
83.553337
20
-38.000002
30
0
11
84.611299
21
-37.999998
31
0
39
0
210
0
220
0
230
1
0
ENDBLK
5
142
100
AcDbEntity
8
0
100
AcDbBlockEnd
0
BLOCK
5
14F
100
AcDbEntity
8
0
100
AcDbBlockBegin
2
DimnDraft3D6
70
0
10
0
20
0
30
0
3
DimnDraft3D6
0
MTEXT
5
145
100
AcDbEntity
8
SK2
62
256
6
ByLayer
370
18
48
1
60
0
100
AcDbMText
10
71.426096
20
-19.042105
30
0
210
0
220
0
230
1
1
\W0.6740;36
40
3
41
0
44
1.084337
50
90
71
7
72
5
7
iso_b_vert
0
LINE
5
146
100
AcDbEntity
8
SK2
62
256
6
ByLayer
370
13
48
1
60
0
100
AcDbLine
10
58.680907
20
0
30
0
11
75.176096
21
0
31
0
39
0
210
0
220
0
230
1
0
LINE
5
147
100
AcDbEntity
8
SK2
62
256
6
ByLayer
370
13
48
1
60
0
100
AcDbLine
10
51.5
20
-36
30
0
11
75.176096
21
-36
31
0
39
0
210
0
220
0
230
1
0
LINE
5
148
100
AcDbEntity
8
SK2
62
256
6
ByLayer
370
13
48
1
60
0
100
AcDbLine
10
72.176096
20
0
30
0
11
72.176096
21
-36
31
0
39
0
210
0
220
0
230
1
0
LINE
5
149
100
AcDbEntity
8
SK2
62
256
6
ByLayer
370
13
48
1
60
0
100
AcDbLine
10
72.176096
20
0
30
0
11
72.705077
21
-2.999998
31
0
39
0
210
0
220
0
230
1
0
LINE
5
14A
100
AcDbEntity
8
SK2
62
256
6
ByLayer
370
13
48
1
60
0
100
AcDbLine
10
72.176096
20
0
30
0
11
71.647115
21
-3.000002
31
0
39
0
210
0
220
0
230
1
0
LINE
5
14B
100
AcDbEntity
8
SK2
62
256
6
ByLayer
370
13
48
1
60
0
100
AcDbLine
10
72.705077
20
-2.999998
30
0
11
71.647115
21
-3.000002
31
0
39
0
210
0
220
0
230
1
0
LINE
5
14C
100
AcDbEntity
8
SK2
62
256
6
ByLayer
370
13
48
1
60
0
100
AcDbLine
10
72.176096
20
-36
30
0
11
71.647115
21
-33.000002
31
0
39
0
210
0
220
0
230
1
0
LINE
5
14D
100
AcDbEntity
8
SK2
62
256
6
ByLayer
370
13
48
1
60
0
100
AcDbLine
10
72.176096
20
-36
30
0
11
72.705077
21
-32.999998
31
0
39
0
210
0
220
0
230
1
0
LINE
5
14E
100
AcDbEntity
8
SK2
62
256
6
ByLayer
370
13
48
1
60
0
100
AcDbLine
10
71.647115
20
-33.000002
30
0
11
72.705077
21
-32.999998
31
0
39
0
210
0
220
0
230
1
0
ENDBLK
5
150
100
AcDbEntity
8
0
100
AcDbBlockEnd
0
ENDSEC
0
SECTION
2
ENTITIES
0
ARC
5
C9
100
AcDbEntity
8
1
62
256
6
ByLayer
370
18
48
1
60
0
100
AcDbCircle
39
0
10
30.8
20
36.8
30
0
40
0.8
210
0
220
0
230
1
100
AcDbArc
50
180
51
270
0
ARC
5
CA
100
AcDbEntity
8
1
62
256
6
ByLayer
370
18
48
1
60
0
100
AcDbCircle
39
0
10
-30.8
20
-36.8
30
0
40
0.8
210
0
220
0
230
-1
100
AcDbArc
50
0
51
90
0
CIRCLE
5
C7
100
AcDbEntity
8
1
62
256
6
ByLayer
370
18
48
1
60
0
100
AcDbCircle
10
-37.5
20
6
30
0
40
2
39
0
210
0
220
0
230
-1
0
CIRCLE
5
C8
100
AcDbEntity
8
1
62
256
6
ByLayer
370
18
48
1
60
0
100
AcDbCircle
10
-37.5
20
-6
30
0
40
2
39
0
210
0
220
0
230
-1
0
ELLIPSE
5
CB
100
AcDbEntity
8
1
62
256
6
ByLayer
370
18
48
1
60
0
100
AcDbEllipse
10
92.087357
20
52.000005
30
0
11
59.7128356301545
21
4.29125459708729E-06
31
0
210
0
220
0
230
-1
40
0.267949
41
2.37428219517615
42
2.38355203147524
0
ELLIPSE
5
CC
100
AcDbEntity
8
1
62
256
6
ByLayer
370
18
48
1
60
0
100
AcDbEllipse
10
92.08697
20
-51.999907
30
0
11
59.7124286629463
21
7.27896364658116E-05
31
0
210
0
220
0
230
-1
40
0.267949
41
-2.383549471067
42
-2.37427959327385
0
ELLIPSE
5
CD
100
AcDbEntity
8
1
62
256
6
ByLayer
370
18
48
1
60
0
100
AcDbEllipse
10
47.729704
20
52
30
0
11
-9.7968508381267E-16
21
16.0000000123267
31
0
210
0
220
0
230
-1
40
0.267949
41
-2.45136583528816
42
-2.34259491846287
0
ELLIPSE
5
CE
100
AcDbEntity
8
1
62
256
6
ByLayer
370
18
48
1
60
0
100
AcDbEllipse
10
47.729704
20
-52
30
0
11
-9.79685083152135E-16
21
16.000000001539
31
0
210
0
220
0
230
-1
40
0.267949
41
-0.798997735192544
42
-0.690226818297578
0
ELLIPSE
5
CF
100
AcDbEntity
8
1
62
256
6
ByLayer
370
18
48
1
60
0
100
AcDbEllipse
10
43
20
37.70399
30
0
11
1.8
21
1.81915029914825E-15
31
0
210
0
220
0
230
-1
40
0.258819
41
0
42
6.28318530717959
0
ELLIPSE
5
D0
100
AcDbEntity
8
1
62
256
6
ByLayer
370
18
48
1
60
0
100
AcDbEllipse
10
43
20
37.510805
30
0
11
2
21
2.02127811016473E-15
31
0
210
0
220
0
230
-1
40
0.258819
41
0
42
6.28318530717959
0
ELLIPSE
5
D1
100
AcDbEntity
8
1
62
256
6
ByLayer
370
18
48
1
60
0
100
AcDbEllipse
10
43
20
-37.70399
30
0
11
1.80000000000001
21
1.81915029914826E-15
31
0
210
0
220
0
230
-1
40
0.258819
41
0
42
6.28318530717959
0
ELLIPSE
5
D2
100
AcDbEntity
8
1
62
256
6
ByLayer
370
18
48
1
60
0
100
AcDbEllipse
10
43
20
-37.510805
30
0
11
2
21
2.02127811016473E-15
31
0
210
0
220
0
230
-1
40
0.258819
41
0
42
6.28318530717959
0
POINT
5
6C
100
AcDbEntity
8
80
62
256
6
ByLayer
370
18
48
1
60
0
100
AcDbPoint
10
0
20
0
30
0
39
0
210
0
220
0
230
1
50
360
0
POINT
5
6E
100
AcDbEntity
8
81
62
256
6
ByLayer
370
18
48
1
60
0
100
AcDbPoint
10
45
20
41
30
0
39
0
210
0
220
0
230
1
50
360
0
POINT
5
70
100
AcDbEntity
8
82
62
256
6
ByLayer
370
18
48
1
60
0
100
AcDbPoint
10
45
20
-41
30
0
39
0
210
0
220
0
230
1
50
360
0
SPLINE
5
D3
100
AcDbEntity
8
SK1
62
256
6
ByLayer
370
18
48
1
60
0
100
AcDbSpline
70
4
71
3
72
18
73
14
40
0
40
0
40
0
40
0
40
0.0569555848021377
40
0.136222152362547
40
0.224844869066624
40
0.331192129111518
40
0.455263932497225
40
0.614784822564565
40
0.774305712631904
40
0.864683504996243
40
0.943950072556653
40
0.943950072556653
40
1
40
1
40
1
40
1
41
1
10
-2
20
-27.5264881683978
30
8E-16
41
1
10
-1.98362815086221
20
-27.4849142925605
30
4E-16
41
1
10
-1.93212659596743
20
-27.4023978973589
30
-3E-16
41
1
10
-1.7720775718255
20
-27.3252135341791
30
1E-16
41
1
10
-1.57157881887941
20
-27.3515305808663
30
0
41
1
10
-1.34013981280013
20
-27.342817759503
30
0
41
1
10
-1.05624920114527
20
-27.3445778699823
30
0
41
1
10
-0.735801332633054
20
-27.3502182536451
30
0
41
1
10
-0.432909305581911
20
-27.3279446748857
30
0
41
1
10
-0.205135459595272
20
-27.3768881671263
30
0
41
1
10
-0.073414712184169
20
-27.4196347043143
30
0
41
1
10
-0.0142906452999838
20
-27.4899300588353
30
0
41
1
10
-0.0031877361264007
20
-27.5295050778929
30
5E-16
41
1
10
-1E-16
20
-27.5764881683978
30
9E-16
0
SPLINE
5
D4
100
AcDbEntity
8
SK1
62
256
6
ByLayer
370
18
48
1
60
0
100
AcDbSpline
70
4
71
3
72
18
73
14
40
0
40
0
40
0
40
0
40
0.0569555848021377
40
0.136222152362547
40
0.224844869066624
40
0.331192129111518
40
0.455263932497225
40
0.614784822564565
40
0.774305712631904
40
0.864683504996243
40
0.943950072556653
40
0.943950072556653
40
1
40
1
40
1
40
1
41
1
10
-2
20
27.5264881683978
30
8E-16
41
1
10
-1.98362815086221
20
27.4849142925605
30
4E-16
41
1
10
-1.93212659596743
20
27.4023978973589
30
-3E-16
41
1
10
-1.7720775718255
20
27.3252135341791
30
1E-16
41
1
10
-1.57157881887941
20
27.3515305808663
30
0
41
1
10
-1.34013981280013
20
27.342817759503
30
0
41
1
10
-1.05624920114527
20
27.3445778699823
30
0
41
1
10
-0.735801332633054
20
27.3502182536451
30
0
41
1
10
-0.432909305581911
20
27.3279446748857
30
0
41
1
10
-0.205135459595272
20
27.3768881671263
30
0
41
1
10
-0.073414712184169
20
27.4196347043143
30
0
41
1
10
-0.0142906452999838
20
27.4899300588353
30
0
41
1
10
-0.0031877361264007
20
27.5295050778929
30
5E-16
41
1
10
-1E-16
20
27.5764881683978
30
9E-16
0
SPLINE
5
D5
100
AcDbEntity
8
1
62
256
6
ByLayer
370
18
48
1
60
0
100
AcDbSpline
70
4
71
3
72
12
73
8
40
0
40
0
40
0
40
0
40
0.541588629685871
40
0.541588629685871
40
0.962935722551689
40
0.962935722551689
40
1
40
1
40
1
40
1
41
1
10
10.25
20
-38.1154578595257
30
0
41
1
10
8.48265627828229
20
-36.0938852866295
30
0
41
1
10
7.52392902723031
20
-32.1526717193193
30
0
41
1
10
7.81917546470613
20
-23.1325554590873
30
0
41
1
10
8.60997807776499
20
-18.3372046667228
30
0
41
1
10
10.0118176236886
20
-13.0009741169461
30
0
41
1
10
10.1290496800296
20
-12.5677053152644
30
0
41
1
10
10.25
20
-12.1330899661221
30
0
0
SPLINE
5
D6
100
AcDbEntity
8
1
62
256
6
ByLayer
370
18
48
1
60
0
100
AcDbSpline
70
4
71
3
72
12
73
8
40
0
40
0
40
0
40
0
40
0.541588629685871
40
0.541588629685871
40
0.962935722551689
40
0.962935722551689
40
1
40
1
40
1
40
1
41
1
10
10.25
20
38.1154578595257
30
0
41
1
10
8.48265627828229
20
36.0938852866294
30
0
41
1
10
7.52392902723031
20
32.1526717193192
30
0
41
1
10
7.81917546470613
20
23.1325554590872
30
0
41
1
10
8.60997807776499
20
18.3372046667227
30
0
41
1
10
10.0118176236886
20
13.000974116946
30
0
41
1
10
10.1290496800296
20
12.5677053152643
30
0
41
1
10
10.25
20
12.133089966122
30
0
0
SPLINE
5
D7
100
AcDbEntity
8
1
62
256
6
ByLayer
370
18
48
1
60
0
100
AcDbSpline
70
4
71
3
72
12
73
8
40
0
40
0
40
0
40
0
40
0.541588629685871
40
0.541588629685871
40
0.962935722551689
40
0.962935722551689
40
1
40
1
40
1
40
1
41
1
10
13.75
20
-12.1330899674702
30
0
41
1
10
15.5173437217177
20
-18.4837528586862
30
0
41
1
10
16.4760709727697
20
-24.7733589935751
30
0
41
1
10
16.1808245352938
20
-33.0702721336167
30
0
41
1
10
15.390021922235
20
-35.9285600366463
30
0
41
1
10
13.9881823763113
20
-37.8309989976552
30
0
41
1
10
13.8709503199703
20
-37.9771090793846
30
0
41
1
10
13.75
20
-38.1154578603731
30
0
0
SPLINE
5
D8
100
AcDbEntity
8
1
62
256
6
ByLayer
370
18
48
1
60
0
100
AcDbSpline
70
4
71
3
72
12
73
8
40
0
40
0
40
0
40
0
40
0.541588629685871
40
0.541588629685871
40
0.962935722551689
40
0.962935722551689
40
1
40
1
40
1
40
1
41
1
10
13.75
20
12.1330899674701
30
0
41
1
10
15.5173437217177
20
18.4837528586861
30
0
41
1
10
16.4760709727697
20
24.773358993575
30
0
41
1
10
16.1808245352938
20
33.0702721336167
30
0
41
1
10
15.390021922235
20
35.9285600366463
30
0
41
1
10
13.9881823763113
20
37.8309989976552
30
0
41
1
10
13.8709503199703
20
37.9771090793846
30
0
41
1
10
13.75
20
38.1154578603731
30
0
0
SPLINE
5
D9
100
AcDbEntity
8
1
62
256
6
ByLayer
370
18
48
1
60
0
100
AcDbSpline
70
4
71
3
72
8
73
4
40
0
40
0
40
0
40
0
40
1
40
1
40
1
40
1
41
1
10
31.4383186059721
20
-25.4547526904022
30
1E-16
41
1
10
31.5242832067114
20
-25.9701109443025
30
1E-16
41
1
10
31.6117989646184
20
-26.4851866439147
30
1E-16
41
1
10
31.7007549273248
20
-27
30
1E-16
0
SPLINE
5
DA
100
AcDbEntity
8
1
62
256
6
ByLayer
370
18
48
1
60
0
100
AcDbSpline
70
4
71
3
72
18
73
14
40
0
40
0
40
0
40
0
40
0.125
40
0.125
40
0.25
40
0.25
40
0.5
40
0.5
40
0.625000000000002
40
0.625000000000002
40
0.750000000000004
40
0.750000000000004
40
1
40
1
40
1
40
1
41
1
10
30.8
20
-24.1976488200427
30
1E-16
41
1
10
30.8469620148927
20
-24.2351566288726
30
1E-16
41
1
10
30.8907395298217
20
-24.2762615259927
30
1E-16
41
1
10
30.9730341278202
20
-24.3644133010962
30
1E-16
41
1
10
31.0116015654714
20
-24.411625007819
30
1E-16
41
1
10
31.1179253542287
20
-24.557400660174
30
1E-16
41
1
10
31.177605401952
20
-24.6611172673418
30
1E-16
41
1
10
31.2546037268763
20
-24.8239943618811
30
1E-16
41
1
10
31.2782145938483
20
-24.8797477772802
30
1E-16
41
1
10
31.3210632654365
20
-24.9924023006541
30
1E-16
41
1
10
31.340287504662
20
-25.0492063354594
30
1E-16
41
1
10
31.3920344963444
20
-25.2209025775355
30
1E-16
41
1
10
31.4186879330037
20
-25.3370666980646
30
1E-16
41
1
10
31.4383186059721
20
-25.4547526904022
30
1E-16
0
SPLINE
5
DB
100
AcDbEntity
8
1
62
256
6
ByLayer
370
18
48
1
60
0
100
AcDbSpline
70
4
71
3
72
16
73
12
40
0
40
0
40
0
40
0
40
0.250000000000002
40
0.250000000000002
40
0.375000000000002
40
0.375000000000002
40
0.500000000000003
40
0.500000000000003
40
0.750000000000002
40
0.750000000000002
40
1
40
1
40
1
40
1
41
1
10
31.4383186059721
20
25.4547526904022
30
1E-16
41
1
10
31.4187233163456
20
25.337278821394
30
1E-16
41
1
10
31.3921344463784
20
25.2213490159286
30
1E-16
41
1
10
31.3405548891151
20
25.0500366412281
30
1E-16
41
1
10
31.3213983896529
20
24.9933659825887
30
1E-16
41
1
10
31.2787175119042
20
24.8809890186343
30
1E-16
41
1
10
31.2551106076737
20
24.8251439844682
30
1E-16
41
1
10
31.1781214839985
20
24.6620564341838
30
1E-16
41
1
10
31.1184852160919
20
24.5583266229705
30
1E-16
41
1
10
30.9770969819283
20
24.3641606665361
30
1E-16
41
1
10
30.8941536639601
20
24.2728478428378
30
1E-16
41
1
10
30.8000000000004
20
24.1976488200421
30
1E-16
0
SPLINE
5
DC
100
AcDbEntity
8
1
62
256
6
ByLayer
370
18
48
1
60
0
100
AcDbSpline
70
4
71
3
72
8
73
4
40
0
40
0
40
0
40
0
40
1
40
1
40
1
40
1
41
1
10
31.7007549273248
20
27
30
1E-16
41
1
10
31.6117871626512
20
26.4851183425869
30
1E-16
41
1
10
31.5242715192068
20
25.9700408776481
30
1E-16
41
1
10
31.4383186059721
20
25.4547526904022
30
1E-16
0
SPLINE
5
DD
100
AcDbEntity
8
1
62
256
6
ByLayer
370
18
48
1
60
0
100
AcDbSpline
70
4
71
3
72
8
73
4
40
0
40
0
40
0
40
0
40
1
40
1
40
1
40
1
41
1
10
32.968225478559
20
36
30
1E-16
41
1
10
32.4852617729277
20
33.0079459902346
30
1E-16
41
1
10
32.0555606014731
20
30.0088934865294
30
1E-16
41
1
10
31.7007549273248
20
27
30
1E-16
0
SPLINE
5
DE
100
AcDbEntity
8
1
62
256
6
ByLayer
370
18
48
1
60
0
100
AcDbSpline
70
4
71
3
72
12
73
8
40
0
40
0
40
0
40
0
40
0.499999999999997
40
0.499999999999997
40
0.749999999999998
40
0.749999999999998
40
1
40
1
40
1
40
1
41
1
10
30.2792076144253
20
-23.7408519719487
30
1E-16
41
1
10
30.3487269612647
20
-23.8216965551003
30
1E-16
41
1
10
30.4296391924263
20
-23.8970696000242
30
1E-16
41
1
10
30.5638225800144
20
-24.0100552121119
30
1E-16
41
1
10
30.6104823581542
20
-24.0475536319534
30
1E-16
41
1
10
30.7045643936852
20
-24.1221730581951
30
1E-16
41
1
10
30.7522556994942
20
-24.1595162122272
30
1E-16
41
1
10
30.7999999999999
20
-24.1976488200416
30
1E-16
0
SPLINE
5
DF
100
AcDbEntity
8
1
62
256
6
ByLayer
370
18
48
1
60
0
100
AcDbSpline
70
4
71
3
72
16
73
12
40
0
40
0
40
0
40
0
40
0.250000000000001
40
0.250000000000001
40
0.500000000000001
40
0.500000000000001
40
0.625000000000003
40
0.625000000000003
40
0.750000000000004
40
0.750000000000004
40
1
40
1
40
1
40
1
41
1
10
30
20
-22.8945408340067
30
1E-16
41
1
10
30
20
-22.9697957412808
30
1E-16
41
1
10
30.0051242901913
20
-23.0441255505366
30
1E-16
41
1
10
30.0258990007535
20
-23.1909166872215
30
1E-16
41
1
10
30.0415323383825
20
-23.2633803214217
30
1E-16
41
1
10
30.0740923567242
20
-23.3705169045034
30
1E-16
41
1
10
30.0864754666025
20
-23.4059676673909
30
1E-16
41
1
10
30.1147173564389
20
-23.47629001912
30
1E-16
41
1
10
30.1306507462798
20
-23.5113075650978
30
1E-16
41
1
10
30.1840435341993
20
-23.6142278854633
30
1E-16
41
1
10
30.2266333952471
20
-23.6797130080887
30
1E-16
41
1
10
30.2792076144253
20
-23.7408519719487
30
1E-16
0
SPLINE
5
E0
100
AcDbEntity
8
1
62
256
6
ByLayer
370
18
48
1
60
0
100
AcDbSpline
70
4
71
3
72
14
73
10
40
0
40
0
40
0
40
0
40
0.25
40
0.25
40
0.5
40
0.5
40
0.75
40
0.75
40
1
40
1
40
1
40
1
41
1
10
30.2792076144253
20
23.7408519719487
30
1E-16
41
1
10
30.2267193162846
20
23.6798129263241
30
1E-16
41
1
10
30.1843771137908
20
23.6146921995793
30
1E-16
41
1
10
30.1136327667637
20
23.4786794899229
30
1E-16
41
1
10
30.0853387325428
20
23.4073632495222
30
1E-16
41
1
10
30.0416213911549
20
23.263830706616
30
1E-16
41
1
10
30.0259339652414
20
23.1911337863388
30
1E-16
41
1
10
30.005113528367
20
23.0440794291748
30
1E-16
41
1
10
30
20
22.9697197159945
30
1E-16
41
1
10
30
20
22.8945408340067
30
1E-16
0
SPLINE
5
E1
100
AcDbEntity
8
1
62
256
6
ByLayer
370
18
48
1
60
0
100
AcDbSpline
70
4
71
3
72
12
73
8
40
0
40
0
40
0
40
0
40
0.499999999999992
40
0.499999999999992
40
0.749999999999996
40
0.749999999999996
40
1
40
1
40
1
40
1
41
1
10
30.8
20
24.1976488200427
30
1E-16
41
1
10
30.7045102249619
20
24.121382666737
30
1E-16
41
1
10
30.6096706439199
20
24.0486035337215
30
1E-16
41
1
10
30.4754162585797
20
23.9356428934567
30
1E-16
41
1
10
30.4322333585943
20
23.8975108603416
30
1E-16
41
1
10
30.351648862272
20
23.8204425307754
30
1E-16
41
1
10
30.3139734469186
20
23.7812814259586
30
1E-16
41
1
10
30.2792076144253
20
23.7408519719487
30
1E-16
0
SPLINE
5
E2
100
AcDbEntity
8
1
62
256
6
ByLayer
370
18
48
1
60
0
100
AcDbSpline
70
4
71
3
72
8
73
4
40
0
40
0
40
0
40
0
40
1
40
1
40
1
40
1
41
1
10
31.7007549273248
20
-27
30
1E-16
41
1
10
32.0555606014731
20
-30.0088934865295
30
1E-16
41
1
10
32.4852617729277
20
-33.0079459902346
30
1E-16
41
1
10
32.968225478559
20
-36
30
1E-16
0
SPLINE
5
E3
100
AcDbEntity
8
1
62
256
6
ByLayer
370
18
48
1
60
0
100
AcDbSpline
70
4
71
3
72
12
73
8
40
0
40
0
40
0
40
0
40
0.499999999999992
40
0.499999999999992
40
0.749999999999996
40
0.749999999999996
40
1
40
1
40
1
40
1
41
1
10
30.8
20
24.1976488200427
30
1E-16
41
1
10
30.7045102249619
20
24.121382666737
30
1E-16
41
1
10
30.6096706439199
20
24.0486035337215
30
1E-16
41
1
10
30.4754162585797
20
23.9356428934567
30
1E-16
41
1
10
30.4322333585943
20
23.8975108603416
30
1E-16
41
1
10
30.351648862272
20
23.8204425307754
30
1E-16
41
1
10
30.3139734469186
20
23.7812814259586
30
1E-16
41
1
10
30.2792076144253
20
23.7408519719487
30
1E-16
0
SPLINE
5
E4
100
AcDbEntity
8
1
62
256
6
ByLayer
370
18
48
1
60
0
100
AcDbSpline
70
4
71
3
72
16
73
12
40
0
40
0
40
0
40
0
40
0.250000000000002
40
0.250000000000002
40
0.375000000000002
40
0.375000000000002
40
0.500000000000003
40
0.500000000000003
40
0.750000000000002
40
0.750000000000002
40
1
40
1
40
1
40
1
41
1
10
31.4383186059721
20
25.4547526904022
30
1E-16
41
1
10
31.4187233163456
20
25.337278821394
30
1E-16
41
1
10
31.3921344463784
20
25.2213490159286
30
1E-16
41
1
10
31.3405548891151
20
25.0500366412281
30
1E-16
41
1
10
31.3213983896529
20
24.9933659825887
30
1E-16
41
1
10
31.2787175119042
20
24.8809890186343
30
1E-16
41
1
10
31.2551106076737
20
24.8251439844682
30
1E-16
41
1
10
31.1781214839985
20
24.6620564341838
30
1E-16
41
1
10
31.1184852160919
20
24.5583266229705
30
1E-16
41
1
10
30.9770969819283
20
24.3641606665361
30
1E-16
41
1
10
30.8941536639601
20
24.2728478428378
30
1E-16
41
1
10
30.8000000000004
20
24.1976488200421
30
1E-16
0
SPLINE
5
E5
100
AcDbEntity
8
1
62
256
6
ByLayer
370
18
48
1
60
0
100
AcDbSpline
70
4
71
3
72
14
73
10
40
0
40
0
40
0
40
0
40
0.25
40
0.25
40
0.5
40
0.5
40
0.75
40
0.75
40
1
40
1
40
1
40
1
41
1
10
30.2792076144253
20
36.1927312858978
30
1E-16
41
1
10
30.2222274958568
20
36.2415973170146
30
1E-16
41
1
10
30.1790537930744
20
36.2918187833834
30
1E-16
41
1
10
30.1083473046248
20
36.3932582025444
30
1E-16
41
1
10
30.0811244932599
20
36.4446063644827
30
1E-16
41
1
10
30.0389002952187
20
36.5473859272746
30
1E-16
41
1
10
30.024087817895
20
36.5984473542017
30
1E-16
41
1
10
30.0046229695289
20
36.6998073716976
30
1E-16
41
1
10
29.9999999999981
20
36.7501071113258
30
1E-16
41
1
10
29.9999999999981
20
36.7999999999999
30
1E-16
0
SPLINE
5
E6
100
AcDbEntity
8
1
62
256
6
ByLayer
370
18
48
1
60
0
100
AcDbSpline
70
4
71
3
72
12
73
8
40
0
40
0
40
0
40
0
40
0.499999999999996
40
0.499999999999996
40
0.749999999999998
40
0.749999999999998
40
1
40
1
40
1
40
1
41
1
10
30.8
20
36
30
1E-16
41
1
10
30.6999810388927
20
36
30
1E-16
41
1
10
30.6023912255238
20
36.0189786755475
30
1E-16
41
1
10
30.469199545081
20
36.0700466156834
30
1E-16
41
1
10
30.4267944498026
20
36.0909019683794
30
1E-16
41
1
10
30.3482207110836
20
36.1381859209321
30
1E-16
41
1
10
30.3120999105384
20
36.1645229211953
30
1E-16
41
1
10
30.2792076144253
20
36.1927312858978
30
1E-16
0
SPLINE
5
E7
100
AcDbEntity
8
1
62
256
6
ByLayer
370
18
48
1
60
0
100
AcDbSpline
70
4
71
3
72
12
73
8
40
0
40
0
40
0
40
0
40
0.250000000000002
40
0.250000000000002
40
0.500000000000003
40
0.500000000000003
40
1
40
1
40
1
40
1
41
1
10
30.7999999999999
20
-24.1976488200416
30
1E-16
41
1
10
30.7522556994942
20
-24.1595162122272
30
1E-16
41
1
10
30.7045643936852
20
-24.1221730581951
30
1E-16
41
1
10
30.6104823581542
20
-24.0475536319534
30
1E-16
41
1
10
30.5638225800144
20
-24.0100552121119
30
1E-16
41
1
10
30.4296391924263
20
-23.8970696000242
30
1E-16
41
1
10
30.3487269612647
20
-23.8216965551003
30
1E-16
41
1
10
30.2792076144253
20
-23.7408519719487
30
1E-16
0
SPLINE
5
E8
100
AcDbEntity
8
1
62
256
6
ByLayer
370
18
48
1
60
0
100
AcDbSpline
70
4
71
3
72
18
73
14
40
0
40
0
40
0
40
0
40
0.249999999999996
40
0.249999999999996
40
0.374999999999998
40
0.374999999999998
40
0.5
40
0.5
40
0.75
40
0.75
40
0.875
40
0.875
40
1
40
1
40
1
40
1
41
1
10
31.4383186059721
20
-25.4547526904022
30
1E-16
41
1
10
31.4186879330037
20
-25.3370666980646
30
1E-16
41
1
10
31.3920344963444
20
-25.2209025775355
30
1E-16
41
1
10
31.340287504662
20
-25.0492063354594
30
1E-16
41
1
10
31.3210632654365
20
-24.9924023006541
30
1E-16
41
1
10
31.2782145938483
20
-24.8797477772802
30
1E-16
41
1
10
31.2546037268763
20
-24.8239943618811
30
1E-16
41
1
10
31.177605401952
20
-24.6611172673418
30
1E-16
41
1
10
31.1179253542287
20
-24.557400660174
30
1E-16
41
1
10
31.0116015654714
20
-24.411625007819
30
1E-16
41
1
10
30.9730341278202
20
-24.3644133010962
30
1E-16
41
1
10
30.8907395298217
20
-24.2762615259927
30
1E-16
41
1
10
30.8469620148927
20
-24.2351566288726
30
1E-16
41
1
10
30.8
20
-24.1976488200427
30
1E-16
0
SPLINE
5
E9
100
AcDbEntity
8
1
62
256
6
ByLayer
370
18
48
1
60
0
100
AcDbSpline
70
4
71
3
72
14
73
10
40
0
40
0
40
0
40
0
40
0.25
40
0.25
40
0.5
40
0.5
40
0.75
40
0.75
40
1
40
1
40
1
40
1
41
1
10
30.2792076144252
20
-36.1927312858978
30
1E-16
41
1
10
30.2222803420004
20
-36.2415519962718
30
1E-16
41
1
10
30.1787960577582
20
-36.2920644547297
30
1E-16
41
1
10
30.1075576797118
20
-36.3945169681976
30
1E-16
41
1
10
30.0805177692972
20
-36.4458987247816
30
1E-16
41
1
10
30.0387281859711
20
-36.547992820393
30
1E-16
41
1
10
30.0240024572442
20
-36.5988168923683
30
1E-16
41
1
10
30.0046252940524
20
-36.6998705522929
30
1E-16
41
1
10
30
20
-36.7501016720777
30
1E-16
41
1
10
30
20
-36.8
30
1E-16
0
SPLINE
5
EA
100
AcDbEntity
8
1
62
256
6
ByLayer
370
18
48
1
60
0
100
AcDbSpline
70
4
71
3
72
12
73
8
40
0
40
0
40
0
40
0
40
0.499999999999996
40
0.499999999999996
40
0.749999999999998
40
0.749999999999998
40
1
40
1
40
1
40
1
41
1
10
30.2792076144253
20
-36.1927312858978
30
1E-16
41
1
10
30.3450197369329
20
-36.1362909465809
30
1E-16
41
1
10
30.4232822110069
20
-36.0879030396045
30
1E-16
41
1
10
30.5560159563715
20
-36.036638106897
30
1E-16
41
1
10
30.6027701801051
20
-36.0231138095461
30
1E-16
41
1
10
30.7000777129557
20
-36.0047218780039
30
1E-16
41
1
10
30.749929861851
20
-36
30
1E-16
41
1
10
30.8
20
-36
30
1E-16
0
SPLINE
5
EB
100
AcDbEntity
8
1
62
256
6
ByLayer
370
18
48
1
60
0
100
AcDbSpline
70
4
71
3
72
16
73
12
40
0
40
0
40
0
40
0
40
0.25
40
0.25
40
0.499999999999999
40
0.499999999999999
40
0.749999999999999
40
0.749999999999999
40
0.875
40
0.875
40
1
40
1
40
1
40
1
41
1
10
31.4383186059723
20
36.8888443935168
30
1E-16
41
1
10
31.4174528830887
20
36.8524867447519
30
1E-16
41
1
10
31.3887324840411
20
36.8177272266514
30
1E-16
41
1
10
31.3165071361508
20
36.752469727968
30
1E-16
41
1
10
31.2729726404147
20
36.7218047564001
30
1E-16
41
1
10
31.1689389404122
20
36.6643036649817
30
1E-16
41
1
10
31.1078459100376
20
36.6373048395431
30
1E-16
41
1
10
31.0035293742707
20
36.6013464223909
30
1E-16
41
1
10
30.9665489351071
20
36.5900600959328
30
1E-16
41
1
10
30.8873992052943
20
36.5689745854542
30
1E-16
41
1
10
30.8449140954131
20
36.5591119995677
30
1E-16
41
1
10
30.8000000000002
20
36.5502530151683
30
1E-16
0
SPLINE
5
EC
100
AcDbEntity
8
1
62
256
6
ByLayer
370
18
48
1
60
0
100
AcDbSpline
70
4
71
3
72
18
73
14
40
0
40
0
40
0
40
0
40
0.249999999999998
40
0.249999999999998
40
0.312499999999998
40
0.312499999999998
40
0.374999999999998
40
0.374999999999998
40
0.499999999999998
40
0.499999999999998
40
0.749999999999999
40
0.749999999999999
40
1
40
1
40
1
40
1
41
1
10
33.2117341558299
20
41
30
1E-16
41
1
10
33.045338496258
20
40.5370124482002
30
1E-16
41
1
10
32.881880015953
20
40.1014445102751
30
1E-16
41
1
10
32.6816963759125
20
39.5913436877304
30
1E-16
41
1
10
32.6418323902214
20
39.490960151456
30
1E-16
41
1
10
32.5628742566486
20
39.2944910059079
30
1E-16
41
1
10
32.5237473201728
20
39.198319659473
30
1E-16
41
1
10
32.4074365902655
20
38.9159316745619
30
1E-16
41
1
10
32.3313213069385
20
38.7358355125534
30
1E-16
41
1
10
32.1074167416236
20
38.2197328209061
30
1E-16
41
1
10
31.9640410093447
20
37.9078240563919
30
1E-16
41
1
10
31.6905903825576
20
37.3488426070543
30
1E-16
41
1
10
31.5605071968296
20
37.1017528987357
30
1E-16
41
1
10
31.4383186059721
20
36.8888443935168
30
1E-16
0
SPLINE
5
ED
100
AcDbEntity
8
1
62
256
6
ByLayer
370
18
48
1
60
0
100
AcDbSpline
70
4
71
3
72
8
73
4
40
0
40
0
40
0
40
0
40
1
40
1
40
1
40
1
41
1
10
44.6572593389688
20
40.8411945591051
30
1E-16
41
1
10
44.643657935377
20
40.8933554703398
30
1E-16
41
1
10
44.6353466625761
20
40.9462977731113
30
1E-16
41
1
10
44.6318670649431
20
41
30
1E-16
0
SPLINE
5
EE
100
AcDbEntity
8
1
62
256
6
ByLayer
370
18
48
1
60
0
100
AcDbSpline
70
4
71
3
72
18
73
14
40
0
40
0
40
0
40
0
40
0.250000000000001
40
0.250000000000001
40
0.312500000000002
40
0.312500000000002
40
0.375000000000003
40
0.375000000000003
40
0.500000000000003
40
0.500000000000003
40
0.750000000000001
40
0.750000000000001
40
1
40
1
40
1
40
1
41
1
10
31.4383186059721
20
-36.8888443935168
30
1E-16
41
1
10
31.5604665249196
20
-37.101682029635
30
1E-16
41
1
10
31.6912894957189
20
-37.3500450789357
30
1E-16
41
1
10
31.8643922282064
20
-37.7041835167929
30
1E-16
41
1
10
31.8995279032441
20
-37.777277124869
30
1E-16
41
1
10
31.9704245888968
20
-37.9271878180473
30
1E-16
41
1
10
32.006214098171
20
-38.0040609229768
30
1E-16
41
1
10
32.1145562637998
20
-38.2403469430721
30
1E-16
41
1
10
32.188080811625
20
-38.4054211336182
30
1E-16
41
1
10
32.4122129414457
20
-38.9228094615771
30
1E-16
41
1
10
32.5663565059967
20
-39.2972121919333
30
1E-16
41
1
10
32.8829363529397
20
-40.104366986063
30
1E-16
41
1
10
33.0453757184534
20
-40.5371160170862
30
1E-16
41
1
10
33.2117341558299
20
-41
30
1E-16
0
SPLINE
5
EF
100
AcDbEntity
8
1
62
256
6
ByLayer
370
18
48
1
60
0
100
AcDbSpline
70
4
71
3
72
18
73
14
40
0
40
0
40
0
40
0
40
0.125
40
0.125
40
0.25
40
0.25
40
0.375
40
0.375
40
0.5
40
0.5
40
0.75
40
0.75
40
1
40
1
40
1
40
1
41
1
10
30.8
20
-36.5502530151683
30
1E-16
41
1
10
30.8446487968021
20
-36.5590596713123
30
1E-16
41
1
10
30.8871936376553
20
-36.568917618314
30
1E-16
41
1
10
30.9669345780559
20
-36.5901650401696
30
1E-16
41
1
10
31.0040460888498
20
-36.6015091173369
30
1E-16
41
1
10
31.0736576726048
20
-36.6255356526051
30
1E-16
41
1
10
31.1061508984103
20
-36.6382193006882
30
1E-16
41
1
10
31.1670286871979
20
-36.6648989897601
30
1E-16
41
1
10
31.1954673290125
20
-36.6789407989788
30
1E-16
41
1
10
31.2737313617546
20
-36.7222760658343
30
1E-16
41
1
10
31.3171580001262
20
-36.7529816622174
30
1E-16
41
1
10
31.3890284456155
20
-36.8180717829462
30
1E-16
41
1
10
31.4174361754321
20
-36.85245763236
30
1E-16
41
1
10
31.4383186059721
20
-36.8888443935168
30
1E-16
0
SPLINE
5
F0
100
AcDbEntity
8
1
62
256
6
ByLayer
370
18
48
1
60
0
100
AcDbSpline
70
4
71
3
72
8
73
4
40
0
40
0
40
0
40
0
40
1
40
1
40
1
40
1
41
1
10
44.6318670649431
20
-41
30
1E-16
41
1
10
44.6353466625761
20
-40.9462977731113
30
1E-16
41
1
10
44.643657935377
20
-40.8933554703398
30
1E-16
41
1
10
44.6572593389688
20
-40.8411945591051
30
1E-16
0
LINE
5
72
100
AcDbEntity
8
SK1
62
256
6
ByLayer
370
18
48
1
60
0
100
AcDbLine
10
-48
20
-25.524896
30
0
11
-46.458239
21
-26.415032
31
0
39
0
210
0
220
0
230
1
0
LINE
5
74
100
AcDbEntity
8
SK1
62
256
6
ByLayer
370
18
48
1
60
0
100
AcDbLine
10
-2
20
-27.526488
30
0
11
-46.458239
21
-26.415032
31
0
39
0
210
0
220
0
230
1
0
LINE
5
75
100
AcDbEntity
8
1
62
256
6
ByLayer
370
18
48
1
60
0
100
AcDbLine
10
0
20
39.7
30
0
11
0
21
-39.7
31
0
39
0
210
0
220
0
230
1
0
LINE
5
77
100
AcDbEntity
8
1
62
256
6
ByLayer
370
18
48
1
60
0
100
AcDbLine
10
0.3
20
40
30
0
11
0
21
39.7
31
0
39
0
210
0
220
0
230
1
0
LINE
5
78
100
AcDbEntity
8
SK1
62
256
6
ByLayer
370
18
48
1
60
0
100
AcDbLine
10
-48
20
-25.524896
30
0
11
-48
21
25.524896
31
0
39
0
210
0
220
0
230
1
0
LINE
5
79
100
AcDbEntity
8
SK1
62
256
6
ByLayer
370
18
48
1
60
0
100
AcDbLine
10
-2
20
-27.526488
30
0
11
-2
21
27.523512
31
0
39
0
210
0
220
0
230
1
0
LINE
5
7A
100
AcDbEntity
8
SK1
62
256
6
ByLayer
370
18
48
1
60
0
100
AcDbLine
10
-46.5
20
-26.390922
30
0
11
-46.5
21
26.390922
31
0
39
0
210
0
220
0
230
1
0
LINE
5
7B
100
AcDbEntity
8
SK1
62
256
6
ByLayer
370
18
48
1
60
0
100
AcDbLine
10
-2
20
27.526488
30
0
11
-46.458239
21
26.415032
31
0
39
0
210
0
220
0
230
1
0
LINE
5
7C
100
AcDbEntity
8
SK1
62
256
6
ByLayer
370
18
48
1
60
0
100
AcDbLine
10
-48
20
25.524896
30
0
11
-46.458239
21
26.415032
31
0
39
0
210
0
220
0
230
1
0
LINE
5
7D
100
AcDbEntity
8
1
62
256
6
ByLayer
370
18
48
1
60
0
100
AcDbLine
10
0.3
20
-40
30
0
11
0
21
-39.7
31
0
39
0
210
0
220
0
230
1
0
LINE
5
7E
100
AcDbEntity
8
1
62
256
6
ByLayer
370
18
48
1
60
0
100
AcDbLine
10
30
20
-40
30
0
11
0.3
21
-40
31
0
39
0
210
0
220
0
230
1
0
LINE
5
7F
100
AcDbEntity
8
1
62
256
6
ByLayer
370
18
48
1
60
0
100
AcDbLine
10
10.25
20
-38.115458
30
0
11
10.25
21
-12.13309
31
0
39
0
210
0
220
0
230
1
0
LINE
5
80
100
AcDbEntity
8
1
62
256
6
ByLayer
370
18
48
1
60
0
100
AcDbLine
10
10.25
20
-38.115458
30
0
11
13.75
21
-38.115458
31
0
39
0
210
0
220
0
230
1
0
LINE
5
81
100
AcDbEntity
8
1
62
256
6
ByLayer
370
18
48
1
60
0
100
AcDbLine
10
13.75
20
-12.13309
30
0
11
10.25
21
-12.13309
31
0
39
0
210
0
220
0
230
1
0
LINE
5
82
100
AcDbEntity
8
1
62
256
6
ByLayer
370
18
48
1
60
0
100
AcDbLine
10
10.25
20
38.115458
30
0
11
10.25
21
12.13309
31
0
39
0
210
0
220
0
230
1
0
LINE
5
83
100
AcDbEntity
8
1
62
256
6
ByLayer
370
18
48
1
60
0
100
AcDbLine
10
13.75
20
12.13309
30
0
11
10.25
21
12.13309
31
0
39
0
210
0
220
0
230
1
0
LINE
5
84
100
AcDbEntity
8
1
62
256
6
ByLayer
370
18
48
1
60
0
100
AcDbLine
10
13.75
20
38.115458
30
0
11
10.25
21
38.115458
31
0
39
0
210
0
220
0
230
1
0
LINE
5
85
100
AcDbEntity
8
1
62
256
6
ByLayer
370
18
48
1
60
0
100
AcDbLine
10
13.75
20
-12.13309
30
0
11
13.75
21
-38.115458
31
0
39
0
210
0
220
0
230
1
0
LINE
5
86
100
AcDbEntity
8
1
62
256
6
ByLayer
370
18
48
1
60
0
100
AcDbLine
10
13.75
20
12.13309
30
0
11
13.75
21
38.115458
31
0
39
0
210
0
220
0
230
1
0
LINE
5
87
100
AcDbEntity
8
80
62
256
6
ByLayer
370
13
48
1
60
0
100
AcDbLine
10
0
20
0
30
0
11
-12
21
0
31
0
39
0
210
0
220
0
230
1
0
LINE
5
88
100
AcDbEntity
8
1
62
256
6
ByLayer
370
18
48
1
60
0
100
AcDbLine
10
30
20
-40
30
0
11
0.3
21
-40
31
0
39
0
210
0
220
0
230
1
0
LINE
5
89
100
AcDbEntity
8
1
62
256
6
ByLayer
370
18
48
1
60
0
100
AcDbLine
10
0.3
20
40
30
0
11
30
21
40
31
0
39
0
210
0
220
0
230
1
0
LINE
5
8A
100
AcDbEntity
8
1
62
256
6
ByLayer
370
18
48
1
60
0
100
AcDbLine
10
41
20
-27
30
0
11
41
21
27
31
0
39
0
210
0
220
0
230
1
0
LINE
5
8B
100
AcDbEntity
8
1
62
256
6
ByLayer
370
18
48
1
60
0
100
AcDbLine
10
41
20
27
30
0
11
31.700755
21
27
31
0
39
0
210
0
220
0
230
1
0
LINE
5
8C
100
AcDbEntity
8
1
62
256
6
ByLayer
370
18
48
1
60
0
100
AcDbLine
10
30
20
22.894541
30
0
11
30
21
-22.894541
31
0
39
0
210
0
220
0
230
1
0
LINE
5
8D
100
AcDbEntity
8
1
62
256
6
ByLayer
370
18
48
1
60
0
100
AcDbLine
10
30.8
20
24.197649
30
0
11
30.8
21
-24.197649
31
0
39
0
210
0
220
0
230
1
0
LINE
5
8E
100
AcDbEntity
8
1
62
256
6
ByLayer
370
18
48
1
60
0
100
AcDbLine
10
31.700755
20
-27
30
0
11
41
21
-27
31
0
39
0
210
0
220
0
230
1
0
LINE
5
8F
100
AcDbEntity
8
1
62
256
6
ByLayer
370
18
48
1
60
0
100
AcDbLine
10
50
20
35.5
30
0
11
50
21
-35.5
31
0
39
0
210
0
220
0
230
1
0
LINE
5
90
100
AcDbEntity
8
1
62
256
6
ByLayer
370
18
48
1
60
0
100
AcDbLine
10
31.438319
20
36
30
0
11
31.438319
21
25.454753
31
0
39
0
210
0
220
0
230
1
0
LINE
5
91
100
AcDbEntity
8
1
62
256
6
ByLayer
370
18
48
1
60
0
100
AcDbLine
10
30.8
20
36
30
0
11
31.438319
21
36
31
0
39
0
210
0
220
0
230
1
0
LINE
5
92
100
AcDbEntity
8
1
62
256
6
ByLayer
370
18
48
1
60
0
100
AcDbLine
10
30.279208
20
23.740852
30
0
11
30.279208
21
36.192731
31
0
39
0
210
0
220
0
230
1
0
LINE
5
93
100
AcDbEntity
8
1
62
256
6
ByLayer
370
18
48
1
60
0
100
AcDbLine
10
30.279208
20
-23.740852
30
0
11
30.279208
21
-36.192731
31
0
39
0
210
0
220
0
230
1
0
LINE
5
94
100
AcDbEntity
8
1
62
256
6
ByLayer
370
18
48
1
60
0
100
AcDbLine
10
31.438319
20
-36
30
0
11
31.438319
21
-25.454753
31
0
39
0
210
0
220
0
230
1
0
LINE
5
95
100
AcDbEntity
8
1
62
256
6
ByLayer
370
18
48
1
60
0
100
AcDbLine
10
30.8
20
-36
30
0
11
31.438319
21
-36
31
0
39
0
210
0
220
0
230
1
0
LINE
5
96
100
AcDbEntity
8
1
62
256
6
ByLayer
370
18
48
1
60
0
100
AcDbLine
10
50
20
40
30
0
11
49.107232
21
40.892768
31
0
39
0
210
0
220
0
230
1
0
LINE
5
97
100
AcDbEntity
8
1
62
256
6
ByLayer
370
18
48
1
60
0
100
AcDbLine
10
50
20
-40
30
0
11
50
21
40
31
0
39
0
210
0
220
0
230
1
0
LINE
5
98
100
AcDbEntity
8
1
62
256
6
ByLayer
370
18
48
1
60
0
100
AcDbLine
10
49.107232
20
-40.892768
30
0
11
50
21
-40
31
0
39
0
210
0
220
0
230
1
0
LINE
5
99
100
AcDbEntity
8
1
62
256
6
ByLayer
370
18
48
1
60
0
100
AcDbLine
10
30.8
20
36
30
0
11
44.85
21
36
31
0
39
0
210
0
220
0
230
1
0
LINE
5
9A
100
AcDbEntity
8
1
62
256
6
ByLayer
370
18
48
1
60
0
100
AcDbLine
10
30.8
20
36.550253
30
0
11
30.8
21
36
31
0
39
0
210
0
220
0
230
1
0
LINE
5
9B
100
AcDbEntity
8
1
62
256
6
ByLayer
370
18
48
1
60
0
100
AcDbLine
10
44.631867
20
41
30
0
11
33.211734
21
41
31
0
39
0
210
0
220
0
230
1
0
LINE
5
9C
100
AcDbEntity
8
1
62
256
6
ByLayer
370
18
48
1
60
0
100
AcDbLine
10
45
20
37.019099
30
0
11
45
21
39.662374
31
0
39
0
210
0
220
0
230
1
0
LINE
5
9D
100
AcDbEntity
8
1
62
256
6
ByLayer
370
18
48
1
60
0
100
AcDbLine
10
33.211734
20
-41
30
0
11
44.631867
21
-41
31
0
39
0
210
0
220
0
230
1
0
LINE
5
9E
100
AcDbEntity
8
1
62
256
6
ByLayer
370
18
48
1
60
0
100
AcDbLine
10
30.8
20
-36
30
0
11
30.8
21
-36.550253
31
0
39
0
210
0
220
0
230
1
0
LINE
5
9F
100
AcDbEntity
8
1
62
256
6
ByLayer
370
18
48
1
60
0
100
AcDbLine
10
44.85
20
-36
30
0
11
30.8
21
-36
31
0
39
0
210
0
220
0
230
1
0
LINE
5
A0
100
AcDbEntity
8
1
62
256
6
ByLayer
370
18
48
1
60
0
100
AcDbLine
10
45
20
-39.662374
30
0
11
45
21
-37.019099
31
0
39
0
210
0
220
0
230
1
0
LINE
5
A1
100
AcDbEntity
8
1
62
256
6
ByLayer
370
18
48
1
60
0
100
AcDbLine
10
50.4
20
14.25
30
0
11
50.4
21
23.75
31
0
39
0
210
0
220
0
230
1
0
LINE
5
A2
100
AcDbEntity
8
1
62
256
6
ByLayer
370
18
48
1
60
0
100
AcDbLine
10
52.75
20
16.5
30
0
11
52.75
21
21.5
31
0
39
0
210
0
220
0
230
1
0
LINE
5
A3
100
AcDbEntity
8
1
62
256
6
ByLayer
370
18
48
1
60
0
100
AcDbLine
10
50.4
20
-4.75
30
0
11
50.4
21
4.75
31
0
39
0
210
0
220
0
230
1
0
LINE
5
A4
100
AcDbEntity
8
1
62
256
6
ByLayer
370
18
48
1
60
0
100
AcDbLine
10
52.75
20
-2.5
30
0
11
52.75
21
2.5
31
0
39
0
210
0
220
0
230
1
0
LINE
5
A5
100
AcDbEntity
8
1
62
256
6
ByLayer
370
18
48
1
60
0
100
AcDbLine
10
50.4
20
-23.75
30
0
11
50.4
21
-14.25
31
0
39
0
210
0
220
0
230
1
0
LINE
5
A6
100
AcDbEntity
8
1
62
256
6
ByLayer
370
18
48
1
60
0
100
AcDbLine
10
52.75
20
-21.5
30
0
11
52.75
21
-16.5
31
0
39
0
210
0
220
0
230
1
0
LINE
5
A7
100
AcDbEntity
8
1
62
256
6
ByLayer
370
18
48
1
60
0
100
AcDbLine
10
30
20
40
30
0
11
30
21
36.8
31
0
39
0
210
0
220
0
230
1
0
LINE
5
A8
100
AcDbEntity
8
1
62
256
6
ByLayer
370
18
48
1
60
0
100
AcDbLine
10
30
20
-36.8
30
0
11
30
21
-40
31
0
39
0
210
0
220
0
230
1
0
LINE
5
A9
100
AcDbEntity
8
1
62
256
6
ByLayer
370
18
48
1
60
0
100
AcDbLine
10
50.4
20
23.75
30
0
11
52.75
21
21.5
31
0
39
0
210
0
220
0
230
1
0
LINE
5
AA
100
AcDbEntity
8
1
62
256
6
ByLayer
370
18
48
1
60
0
100
AcDbLine
10
52.75
20
16.5
30
0
11
50.4
21
14.25
31
0
39
0
210
0
220
0
230
1
0
LINE
5
AB
100
AcDbEntity
8
1
62
256
6
ByLayer
370
18
48
1
60
0
100
AcDbLine
10
50.4
20
23.75
30
0
11
50
21
23.75
31
0
39
0
210
0
220
0
230
1
0
LINE
5
AC
100
AcDbEntity
8
1
62
256
6
ByLayer
370
18
48
1
60
0
100
AcDbLine
10
50.4
20
14.25
30
0
11
50
21
14.25
31
0
39
0
210
0
220
0
230
1
0
LINE
5
AD
100
AcDbEntity
8
1
62
256
6
ByLayer
370
18
48
1
60
0
100
AcDbLine
10
50.4
20
4.75
30
0
11
50
21
4.75
31
0
39
0
210
0
220
0
230
1
0
LINE
5
AE
100
AcDbEntity
8
1
62
256
6
ByLayer
370
18
48
1
60
0
100
AcDbLine
10
50.4
20
4.75
30
0
11
52.75
21
2.5
31
0
39
0
210
0
220
0
230
1
0
LINE
5
AF
100
AcDbEntity
8
1
62
256
6
ByLayer
370
18
48
1
60
0
100
AcDbLine
10
52.75
20
-2.5
30
0
11
50.4
21
-4.75
31
0
39
0
210
0
220
0
230
1
0
LINE
5
B0
100
AcDbEntity
8
1
62
256
6
ByLayer
370
18
48
1
60
0
100
AcDbLine
10
50.4
20
-4.75
30
0
11
50
21
-4.75
31
0
39
0
210
0
220
0
230
1
0
LINE
5
B1
100
AcDbEntity
8
1
62
256
6
ByLayer
370
18
48
1
60
0
100
AcDbLine
10
50.4
20
-14.25
30
0
11
50
21
-14.25
31
0
39
0
210
0
220
0
230
1
0
LINE
5
B2
100
AcDbEntity
8
1
62
256
6
ByLayer
370
18
48
1
60
0
100
AcDbLine
10
50.4
20
-23.75
30
0
11
50
21
-23.75
31
0
39
0
210
0
220
0
230
1
0
LINE
5
B3
100
AcDbEntity
8
1
62
256
6
ByLayer
370
18
48
1
60
0
100
AcDbLine
10
50.4
20
-23.75
30
0
11
52.75
21
-21.5
31
0
39
0
210
0
220
0
230
1
0
LINE
5
B4
100
AcDbEntity
8
1
62
256
6
ByLayer
370
18
48
1
60
0
100
AcDbLine
10
52.75
20
-16.5
30
0
11
50.4
21
-14.25
31
0
39
0
210
0
220
0
230
1
0
LINE
5
B5
100
AcDbEntity
8
SK4
62
256
6
ByLayer
370
13
48
0.05
60
0
100
AcDbLine
10
-51.367528
20
0
30
0
11
57.180907
21
0
31
0
39
0
210
0
220
0
230
1
0
LINE
5
B7
100
AcDbEntity
8
4
62
256
6
ByLayer
370
13
48
0.05
60
0
100
AcDbLine
10
0
20
0
30
0
11
50
21
0
31
0
39
0
210
0
220
0
230
1
0
LINE
5
B9
100
AcDbEntity
8
1
62
256
6
ByLayer
370
18
48
1
60
0
100
AcDbLine
10
48.724823
20
41
30
0
11
44.631867
21
41
31
0
39
0
210
0
220
0
230
1
0
LINE
5
BA
100
AcDbEntity
8
1
62
256
6
ByLayer
370
18
48
1
60
0
100
AcDbLine
10
44.631867
20
-41
30
0
11
48.724823
21
-41
31
0
39
0
210
0
220
0
230
1
0
LINE
5
BB
100
AcDbEntity
8
1
62
256
6
ByLayer
370
18
48
1
60
0
100
AcDbLine
10
50
20
-36
30
0
11
41
21
-27
31
0
39
0
210
0
220
0
230
1
0
LINE
5
BC
100
AcDbEntity
8
1
62
256
6
ByLayer
370
18
48
1
60
0
100
AcDbLine
10
32.968225
20
-36
30
0
11
50
21
-36
31
0
39
0
210
0
220
0
230
1
0
LINE
5
BD
100
AcDbEntity
8
1
62
256
6
ByLayer
370
18
48
1
60
0
100
AcDbLine
10
41
20
27
30
0
11
50
21
36
31
0
39
0
210
0
220
0
230
1
0
LINE
5
BE
100
AcDbEntity
8
1
62
256
6
ByLayer
370
18
48
1
60
0
100
AcDbLine
10
50
20
36
30
0
11
32.968225
21
36
31
0
39
0
210
0
220
0
230
1
0
LINE
5
BF
100
AcDbEntity
8
1
62
256
6
ByLayer
370
18
48
1
60
0
100
AcDbLine
10
41
20
-37.510805
30
0
11
41
21
-36
31
0
39
0
210
0
220
0
230
1
0
LINE
5
C0
100
AcDbEntity
8
1
62
256
6
ByLayer
370
18
48
1
60
0
100
AcDbLine
10
45
20
-37.510805
30
0
11
45
21
-36
31
0
39
0
210
0
220
0
230
1
0
LINE
5
C1
100
AcDbEntity
8
1
62
256
6
ByLayer
370
18
48
1
60
0
100
AcDbLine
10
41
20
36
30
0
11
41
21
37.510805
31
0
39
0
210
0
220
0
230
1
0
LINE
5
C2
100
AcDbEntity
8
1
62
256
6
ByLayer
370
18
48
1
60
0
100
AcDbLine
10
45
20
37.510805
30
0
11
45
21
36
31
0
39
0
210
0
220
0
230
1
0
LINE
5
C3
100
AcDbEntity
8
SK3
62
256
6
ByLayer
370
13
48
0.05
60
0
100
AcDbLine
10
45
20
36
30
0
11
45
21
-36
31
0
39
0
210
0
220
0
230
1
0
LINE
5
C5
100
AcDbEntity
8
81
62
256
6
ByLayer
370
13
48
1
60
0
100
AcDbLine
10
45
20
41
30
0
11
45
21
51
31
0
39
0
210
0
220
0
230
1
0
LINE
5
C6
100
AcDbEntity
8
82
62
256
6
ByLayer
370
13
48
0.05
60
0
100
AcDbLine
10
45
20
-41
30
0
11
45
21
-51
31
0
39
0
210
0
220
0
230
1
0
MTEXT
5
F1
100
AcDbEntity
8
SK6
62
256
6
ByLayer
370
18
48
1
60
0
100
AcDbMText
10
-0.682236
20
-55.421964
30
0
210
0
220
0
230
1
1
\W0.7672;C8-APBA-050-25HP
40
3.5
41
0
44
1.084337
50
0
71
7
72
5
7
iso_b_vert
0
DIMENSION
5
103
100
AcDbEntity
8
SK2
62
256
6
ByLayer
370
13
48
1
60
0
100
AcDbDimension
2
DimnDraft3D1
10
50
20
65.894467
30
0
11
23.247368
21
65.894467
31
0
70
32
71
5
72
1
41
1
210
0
220
0
230
1
3
Standard
100
AcDbAlignedDimension
13
0
23
41.2
33
0
14
50
24
41.5
34
0
50
0
100
AcDbRotatedDimension
1001
ACAD
1000
DSTYLE
1002
{
1070
   279
1070
     0
1070
   173
1070
     1
1070
   340
1005
F2
1070
   271
1070
     0
1070
   272
1070
     2
1070
    77
1070
     1
1070
    73
1070
     0
1070
   171
1070
     4
1070
   274
1070
     4
1070
   177
1070
     7
1070
   176
1070
     7
1070
   178
1070
     7
1070
    41
1041
3.0
1070
   147
1041
1.5
1070
    42
1041
1.5
1070
    44
1041
3.0
1070
   140
1041
3.0
1070
   343
1005
104
1070
   344
1005
104
1002
}
0
DIMENSION
5
118
100
AcDbEntity
8
SK2
62
256
6
ByLayer
370
13
48
1
60
0
100
AcDbDimension
2
DimnDraft3D2
10
-57.723709
20
40
30
0
11
-57.723709
21
-4.073684
31
0
70
32
71
5
72
1
41
1
210
0
220
0
230
1
3
Standard
100
AcDbAlignedDimension
13
-1.2
23
-40
33
0
14
-1.2
24
40
34
0
50
90
100
AcDbRotatedDimension
1001
ACAD
1000
DSTYLE
1002
{
1070
    74
1070
     0
1070
   279
1070
     0
1070
   173
1070
     1
1070
   340
1005
F2
1070
   271
1070
     0
1070
   272
1070
     2
1070
    77
1070
     1
1070
    73
1070
     0
1070
   171
1070
     4
1070
   274
1070
     4
1070
   177
1070
     7
1070
   176
1070
     7
1070
   178
1070
     7
1070
    41
1041
3.0
1070
   147
1041
1.5
1070
    42
1041
1.5
1070
    44
1041
3.0
1070
   140
1041
3.0
1070
   343
1005
104
1070
   344
1005
104
1002
}
0
DIMENSION
5
127
100
AcDbEntity
8
2
62
256
6
ByLayer
370
13
48
1
60
0
100
AcDbDimension
2
DimnDraft3D3
10
45
20
56.427765
30
0
11
20.55
21
56.427765
31
0
70
32
71
5
72
1
41
1
210
0
220
0
230
1
3
Standard
100
AcDbAlignedDimension
13
0
23
41.2
33
0
14
45
24
41.162374
34
0
50
0
100
AcDbRotatedDimension
1001
ACAD
1000
DSTYLE
1002
{
1070
   279
1070
     0
1070
   173
1070
     1
1070
   340
1005
F2
1070
   271
1070
     0
1070
   272
1070
     2
1070
    77
1070
     1
1070
    73
1070
     0
1070
   171
1070
     4
1070
   274
1070
     4
1070
   177
1070
     7
1070
   176
1070
     7
1070
   178
1070
     7
1070
    41
1041
3.0
1070
   147
1041
1.5
1070
    42
1041
1.5
1070
    44
1041
3.0
1070
   140
1041
3.0
1070
   343
1005
104
1070
   344
1005
104
1002
}
0
DIMENSION
5
135
100
AcDbEntity
8
SK2
62
256
6
ByLayer
370
13
48
1
60
0
100
AcDbDimension
2
DimnDraft3D4
10
96.502397
20
-41
30
0
11
96.502397
21
-1.792105
31
0
70
32
71
5
72
1
41
1
210
0
220
0
230
1
3
Standard
100
AcDbAlignedDimension
13
50.224823
23
41
33
0
14
50.224823
24
-41
34
0
50
90
100
AcDbRotatedDimension
1001
ACAD
1000
DSTYLE
1002
{
1070
    74
1070
     0
1070
   279
1070
     0
1070
   173
1070
     1
1070
   340
1005
F2
1070
   271
1070
     0
1070
   272
1070
     2
1070
    77
1070
     1
1070
    73
1070
     0
1070
   171
1070
     4
1070
   274
1070
     4
1070
   177
1070
     7
1070
   176
1070
     7
1070
   178
1070
     7
1070
    41
1041
3.0
1070
   147
1041
1.5
1070
    42
1041
1.5
1070
    44
1041
3.0
1070
   140
1041
3.0
1070
   343
1005
0
1070
   344
1005
0
1002
}
0
DIMENSION
5
143
100
AcDbEntity
8
SK2
62
256
6
ByLayer
370
13
48
1
60
0
100
AcDbDimension
2
DimnDraft3D5
10
84.082318
20
-41
30
0
11
84.082318
21
-22.075
31
0
70
32
71
5
72
1
41
1
210
0
220
0
230
1
3
Standard
100
AcDbAlignedDimension
13
58.680907
23
0
33
0
14
50.224823
24
-41
34
0
50
90
100
AcDbRotatedDimension
1001
ACAD
1000
DSTYLE
1002
{
1070
    74
1070
     0
1070
   279
1070
     0
1070
   173
1070
     1
1070
   340
1005
F2
1070
   271
1070
     0
1070
   272
1070
     2
1070
    77
1070
     1
1070
    73
1070
     0
1070
   171
1070
     4
1070
   274
1070
     4
1070
   177
1070
     7
1070
   176
1070
     7
1070
   178
1070
     7
1070
    41
1041
3.0
1070
   147
1041
1.5
1070
    42
1041
1.5
1070
    44
1041
3.0
1070
   140
1041
3.0
1070
   343
1005
0
1070
   344
1005
0
1002
}
0
DIMENSION
5
151
100
AcDbEntity
8
SK2
62
256
6
ByLayer
370
13
48
1
60
0
100
AcDbDimension
2
DimnDraft3D6
10
72.176096
20
-36
30
0
11
72.176096
21
-19.792105
31
0
70
32
71
5
72
1
41
1
210
0
220
0
230
1
3
Standard
100
AcDbAlignedDimension
13
58.680907
23
0
33
0
14
51.5
24
-36
34
0
50
90
100
AcDbRotatedDimension
1001
ACAD
1000
DSTYLE
1002
{
1070
    74
1070
     0
1070
   279
1070
     0
1070
   173
1070
     1
1070
   340
1005
F2
1070
   271
1070
     0
1070
   272
1070
     2
1070
    77
1070
     1
1070
    73
1070
     0
1070
   171
1070
     4
1070
   274
1070
     4
1070
   177
1070
     7
1070
   176
1070
     7
1070
   178
1070
     7
1070
    41
1041
3.0
1070
   147
1041
1.5
1070
    42
1041
1.5
1070
    44
1041
3.0
1070
   140
1041
3.0
1070
   343
1005
0
1070
   344
1005
0
1002
}
0
ENDSEC
0
SECTION
2
OBJECTS
0
DICTIONARY
5
1bd
330
0
100
AcDbDictionary
280
0
281
1
3
ACAD_GROUP
350
1be
3
ACAD_MLINESTYLE
350
1bf
0
DICTIONARY
5
1be
330
0
100
AcDbDictionary
280
0
281
1
0
DICTIONARY
5
1bf
330
0
100
AcDbDictionary
280
0
281
1
3
Standard
350
18
0
MLINESTYLE
5
18
330
1bf
100
AcDbMlineStyle
2
Standard
70
0
3

62
256
51
90
52
90
71
2
49
-0.5
62
256
6
ByLayer
49
0.5
62
256
6
ByLayer
0
RASTERVARIABLES
5
1aa
330

100
AcDbRasterVariables
90
0
70
1
71
1
72
1
0
ENDSEC
0
EOF
