0
SECTION
2
HEADER
9
$ACADVER
1
AC1015
9
$DWGCODEPAGE
3
ANSI_1252
9
$HANDSEED
5
1a0
9
$ANGBASE
50
0
9
$ANGDIR
70
0
9
$ATTMODE
70
1
9
$AUNITS
70
0
9
$AUPREC
70
0
9
$CECOLOR
62
256
9
$CELTSCALE
40
1
9
$CELTYPE
6
ByLayer
9
$CELWEIGHT
370
18
9
$CLAYER
8
0
9
$CMLJUST
70
0
9
$CMLSCALE
40
1
9
$CMLSTYLE
2
Standard
9
$DIMSTYLE
2
Standard
9
$TEXTSIZE
40
0.2
9
$TEXTSTYLE
7
Standard
9
$LUNITS
70
2
9
$LUPREC
70
4
9
$EXTNAMES
290
1
9
$INSUNITS
70
4
9
$LTSCALE
40
1
9
$LWDISPLAY
290
1
9
$PDMODE
70
0
9
$PDSIZE
40
0
9
$PLINEGEN
70
0
0
ENDSEC
0
SECTION
2
CLASSES
0
CLASS
1
RASTERVARIABLES
2
AcDbRasterVariables
3
ISM
90
0
280
0
281
0
0
ENDSEC
0
SECTION
2
TABLES
0
TABLE
2
VPORT
5
196
100
AcDbSymbolTable
0
VPORT
5
1
100
AcDbSymbolTableRecord
100
AcDbViewportTableRecord
2
*Active
70
0
10
0
20
0
11
1
21
1
12
-1
22
1
13
0
23
0
14
0.5
24
0.5
15
10
25
10
16
0
26
0
36
1
17
0
27
0
37
0
0
ENDTAB
0
TABLE
2
LTYPE
5
197
100
AcDbSymbolTable
0
LTYPE
5
14
100
AcDbSymbolTableRecord
100
AcDbLinetypeTableRecord
70
0
2
ByBlock
3

72
65
73
0
40
0
0
LTYPE
5
15
100
AcDbSymbolTableRecord
100
AcDbLinetypeTableRecord
70
0
2
ByLayer
3

72
65
73
0
40
0
0
LTYPE
5
16
100
AcDbSymbolTableRecord
100
AcDbLinetypeTableRecord
70
0
2
CONTINUOUS
3
Solid line
72
65
73
0
40
0
0
LTYPE
5
6A
100
AcDbSymbolTableRecord
100
AcDbLinetypeTableRecord
70
0
2
CENTER
3
____ _ ____ _ ____ _ ____
72
65
73
4
40
47.5
49
22
74
0
49
-8.5
74
0
49
8.5
74
0
49
-8.5
74
0
0
LTYPE
5
6B
100
AcDbSymbolTableRecord
100
AcDbLinetypeTableRecord
70
0
2
DASHED
3
__ __ __ __ __ __ __ __ __
72
65
73
2
40
25.72
49
12.86
74
0
49
-12.86
74
0
0
ENDTAB
0
TABLE
2
LAYER
5
198
100
AcDbSymbolTable
0
LAYER
5
10
100
AcDbSymbolTableRecord
100
AcDbLayerTableRecord
2
0
70
0
62
7
6
CONTINUOUS
290
1
370
-3
390
0
0
LAYER
5
6D
100
AcDbSymbolTableRecord
100
AcDbLayerTableRecord
2
81
70
0
62
-3
6
CONTINUOUS
290
1
370
-3
390
0
0
LAYER
5
6F
100
AcDbSymbolTableRecord
100
AcDbLayerTableRecord
2
80
70
0
62
-6
6
CONTINUOUS
290
1
370
-3
390
0
0
LAYER
5
71
100
AcDbSymbolTableRecord
100
AcDbLayerTableRecord
2
1
70
0
62
4
6
CONTINUOUS
290
1
370
-3
390
0
0
LAYER
5
76
100
AcDbSymbolTableRecord
100
AcDbLayerTableRecord
2
4
70
0
62
-2
6
CENTER
290
1
370
-3
390
0
0
LAYER
5
100
100
AcDbSymbolTableRecord
100
AcDbLayerTableRecord
2
2
70
0
62
7
6
CONTINUOUS
290
1
370
-3
390
0
0
LAYER
5
182
100
AcDbSymbolTableRecord
100
AcDbLayerTableRecord
2
SK1
70
0
62
4
6
CONTINUOUS
290
1
370
-3
390
0
0
LAYER
5
183
100
AcDbSymbolTableRecord
100
AcDbLayerTableRecord
2
SK4
70
0
62
2
6
CENTER
290
1
370
-3
390
0
0
LAYER
5
184
100
AcDbSymbolTableRecord
100
AcDbLayerTableRecord
2
SK6
70
0
62
5
6
CONTINUOUS
290
1
370
-3
390
0
0
LAYER
5
185
100
AcDbSymbolTableRecord
100
AcDbLayerTableRecord
2
SK2
70
0
62
7
6
CONTINUOUS
290
1
370
-3
390
0
0
ENDTAB
0
TABLE
2
STYLE
5
199
100
AcDbSymbolTable
0
STYLE
5
11
100
AcDbSymbolTableRecord
100
AcDbTextStyleTableRecord
2
Standard
3
txt
70
0
71
0
40
0
41
1
42
0
50
0
0
STYLE
5
E6
100
AcDbSymbolTableRecord
100
AcDbTextStyleTableRecord
2
iso_b_vert
3
simplex.shx
70
0
71
0
40
0
41
1
42
0
50
0
0
STYLE
5
E7
100
AcDbSymbolTableRecord
100
AcDbTextStyleTableRecord
2
DWGDirectTextStyle
3
simplex
70
0
71
0
40
0
41
1
42
0
50
0
0
ENDTAB
0
TABLE
2
DIMSTYLE
5
19a
100
AcDbSymbolTable
100
AcDbDimStyleTable
0
DIMSTYLE
105
27
100
AcDbSymbolTableRecord
100
AcDbDimStyleTableRecord
2
Standard
70
0
3
<>
41
0.18
42
0.0625
44
0.18
140
0.18
147
0.09
73
0
74
0
77
1
271
2
275
0
278
52
280
0
340
11
0
ENDTAB
0
TABLE
2
VIEW
5
19b
100
AcDbSymbolTable
0
ENDTAB
0
TABLE
2
UCS
5
19c
100
AcDbSymbolTable
0
ENDTAB
0
TABLE
2
APPID
5
19d
100
AcDbSymbolTable
0
APPID
5
12
100
AcDbSymbolTableRecord
100
AcDbRegAppTableRecord
2
ACAD
70
0
0
ENDTAB
0
TABLE
2
BLOCK_RECORD
5
19e
100
AcDbSymbolTable
0
BLOCK_RECORD
5
1F
100
AcDbSymbolTableRecord
100
AcDbBlockTableRecord
2
*Model_Space
340
0
70
0
0
BLOCK_RECORD
5
1B
100
AcDbSymbolTableRecord
100
AcDbBlockTableRecord
2
*Paper_Space
340
0
70
0
0
BLOCK_RECORD
5
23
100
AcDbSymbolTableRecord
100
AcDbBlockTableRecord
2
*Paper_Space0
340
0
70
0
0
BLOCK_RECORD
5
E9
100
AcDbSymbolTableRecord
100
AcDbBlockTableRecord
2
DimnDraft3D1
340
0
70
0
0
BLOCK_RECORD
5
F4
100
AcDbSymbolTableRecord
100
AcDbBlockTableRecord
2
DimnDraft3D2
340
0
70
0
0
BLOCK_RECORD
5
FE
100
AcDbSymbolTableRecord
100
AcDbBlockTableRecord
2
DimnDraft3D3
340
0
70
0
0
BLOCK_RECORD
5
109
100
AcDbSymbolTableRecord
100
AcDbBlockTableRecord
2
DimnDraft3D4
340
0
70
0
0
BLOCK_RECORD
5
113
100
AcDbSymbolTableRecord
100
AcDbBlockTableRecord
2
DimnDraft3D5
340
0
70
0
0
BLOCK_RECORD
5
11E
100
AcDbSymbolTableRecord
100
AcDbBlockTableRecord
2
DimnDraft3D6
340
0
70
0
0
ENDTAB
0
ENDSEC
0
SECTION
2
BLOCKS
0
BLOCK
5
20
100
AcDbEntity
8
0
100
AcDbBlockBegin
2
*Model_Space
70
0
10
0
20
0
30
0
3
*Model_Space
0
ENDBLK
5
21
100
AcDbEntity
8
0
100
AcDbBlockEnd
0
BLOCK
5
1C
100
AcDbEntity
8
0
100
AcDbBlockBegin
2
*Paper_Space
70
0
10
0
20
0
30
0
3
*Paper_Space
0
ENDBLK
5
1D
100
AcDbEntity
8
0
100
AcDbBlockEnd
0
BLOCK
5
24
100
AcDbEntity
8
0
100
AcDbBlockBegin
2
*Paper_Space0
70
0
10
0
20
0
30
0
3
*Paper_Space0
0
ENDBLK
5
25
100
AcDbEntity
8
0
100
AcDbBlockEnd
0
BLOCK
5
F1
100
AcDbEntity
8
0
100
AcDbBlockBegin
2
DimnDraft3D1
70
0
10
0
20
0
30
0
3
DimnDraft3D1
0
MTEXT
5
EA
100
AcDbEntity
8
SK2
62
256
6
ByLayer
370
18
48
1
60
0
100
AcDbMText
10
13.830263
20
47.475
30
0
210
0
220
0
230
1
1
\W0.6740;30
40
3.5
41
0
44
1.084337
50
0
71
7
72
5
7
iso_b_vert
0
LINE
5
EC
100
AcDbEntity
8
SK2
62
256
6
ByLayer
370
13
48
1
60
0
100
AcDbLine
10
0
20
41.5875
30
0
11
0
21
48.6
31
0
39
0
210
0
220
0
230
1
0
LINE
5
ED
100
AcDbEntity
8
SK2
62
256
6
ByLayer
370
13
48
1
60
0
100
AcDbLine
10
30
20
41.5875
30
0
11
30
21
48.6
31
0
39
0
210
0
220
0
230
1
0
LINE
5
EE
100
AcDbEntity
8
SK2
62
256
6
ByLayer
370
13
48
1
60
0
100
AcDbLine
10
0
20
46.6
30
0
11
30
21
46.6
31
0
39
0
210
0
220
0
230
1
0
SOLID
5
EF
100
AcDbEntity
8
SK2
62
256
6
ByLayer
370
13
48
1
60
0
100
AcDbTrace
10
0
20
46.6
30
0
11
3.499998
21
47.060784
31
0
12
3.500002
22
46.139216
32
0
13
0
23
46.6
33
0
39
0
210
0
220
0
230
1
0
SOLID
5
F0
100
AcDbEntity
8
SK2
62
256
6
ByLayer
370
13
48
1
60
0
100
AcDbTrace
10
30
20
46.6
30
0
11
26.500002
21
46.139216
31
0
12
26.499998
22
47.060784
32
0
13
30
23
46.6
33
0
39
0
210
0
220
0
230
1
0
ENDBLK
5
F2
100
AcDbEntity
8
0
100
AcDbBlockEnd
0
BLOCK
5
FB
100
AcDbEntity
8
0
100
AcDbBlockBegin
2
DimnDraft3D2
70
0
10
0
20
0
30
0
3
DimnDraft3D2
0
MTEXT
5
F5
100
AcDbEntity
8
SK2
62
256
6
ByLayer
370
18
48
1
60
0
100
AcDbMText
10
46.767763
20
57.475
30
0
210
0
220
0
230
1
1
\W0.5321;15
40
3.5
41
0
44
1.084337
50
0
71
7
72
5
7
iso_b_vert
0
LINE
5
F6
100
AcDbEntity
8
SK2
62
256
6
ByLayer
370
13
48
1
60
0
100
AcDbLine
10
55
20
33.0875
30
0
11
55
21
58.6
31
0
39
0
210
0
220
0
230
1
0
LINE
5
F7
100
AcDbEntity
8
SK2
62
256
6
ByLayer
370
13
48
1
60
0
100
AcDbLine
10
40
20
33.0875
30
0
11
40
21
58.6
31
0
39
0
210
0
220
0
230
1
0
LINE
5
F8
100
AcDbEntity
8
SK2
62
256
6
ByLayer
370
13
48
1
60
0
100
AcDbLine
10
55
20
56.6
30
0
11
40
21
56.6
31
0
39
0
210
0
220
0
230
1
0
SOLID
5
F9
100
AcDbEntity
8
SK2
62
256
6
ByLayer
370
13
48
1
60
0
100
AcDbTrace
10
55
20
56.6
30
0
11
51.500002
21
56.139216
31
0
12
51.499998
22
57.060784
32
0
13
55
23
56.6
33
0
39
0
210
0
220
0
230
1
0
SOLID
5
FA
100
AcDbEntity
8
SK2
62
256
6
ByLayer
370
13
48
1
60
0
100
AcDbTrace
10
40
20
56.6
30
0
11
43.499998
21
57.060784
31
0
12
43.500002
22
56.139216
32
0
13
40
23
56.6
33
0
39
0
210
0
220
0
230
1
0
ENDBLK
5
FC
100
AcDbEntity
8
0
100
AcDbBlockEnd
0
BLOCK
5
106
100
AcDbEntity
8
0
100
AcDbBlockBegin
2
DimnDraft3D3
70
0
10
0
20
0
30
0
3
DimnDraft3D3
0
MTEXT
5
FF
100
AcDbEntity
8
2
62
256
6
ByLayer
370
18
48
1
60
0
100
AcDbMText
10
26.330263
20
67.475
30
0
210
0
220
0
230
1
1
\W0.6740;55
40
3.5
41
0
44
1.084337
50
0
71
7
72
5
7
iso_b_vert
0
LINE
5
101
100
AcDbEntity
8
2
62
256
6
ByLayer
370
13
48
1
60
0
100
AcDbLine
10
55
20
33.0875
30
0
11
55
21
68.6
31
0
39
0
210
0
220
0
230
1
0
LINE
5
102
100
AcDbEntity
8
2
62
256
6
ByLayer
370
13
48
1
60
0
100
AcDbLine
10
0
20
41.5875
30
0
11
0
21
68.6
31
0
39
0
210
0
220
0
230
1
0
LINE
5
103
100
AcDbEntity
8
2
62
256
6
ByLayer
370
13
48
1
60
0
100
AcDbLine
10
55
20
66.6
30
0
11
0
21
66.6
31
0
39
0
210
0
220
0
230
1
0
SOLID
5
104
100
AcDbEntity
8
2
62
256
6
ByLayer
370
13
48
1
60
0
100
AcDbTrace
10
55
20
66.6
30
0
11
51.500002
21
66.139216
31
0
12
51.499998
22
67.060784
32
0
13
55
23
66.6
33
0
39
0
210
0
220
0
230
1
0
SOLID
5
105
100
AcDbEntity
8
2
62
256
6
ByLayer
370
13
48
1
60
0
100
AcDbTrace
10
0
20
66.6
30
0
11
3.499998
21
67.060784
31
0
12
3.500002
22
66.139216
32
0
13
0
23
66.6
33
0
39
0
210
0
220
0
230
1
0
ENDBLK
5
107
100
AcDbEntity
8
0
100
AcDbBlockEnd
0
BLOCK
5
110
100
AcDbEntity
8
0
100
AcDbBlockBegin
2
DimnDraft3D4
70
0
10
0
20
0
30
0
3
DimnDraft3D4
0
MTEXT
5
10A
100
AcDbEntity
8
SK2
62
256
6
ByLayer
370
18
48
1
60
0
100
AcDbMText
10
-25.4
20
67.475
30
0
210
0
220
0
230
1
1
\W0.7361;48
40
3.5
41
0
44
1.084337
50
0
71
7
72
5
7
iso_b_vert
0
LINE
5
10B
100
AcDbEntity
8
SK2
62
256
6
ByLayer
370
13
48
1
60
0
100
AcDbLine
10
-48
20
29.0875
30
0
11
-48
21
68.6
31
0
39
0
210
0
220
0
230
1
0
LINE
5
10C
100
AcDbEntity
8
SK2
62
256
6
ByLayer
370
13
48
1
60
0
100
AcDbLine
10
0
20
41.5875
30
0
11
0
21
68.6
31
0
39
0
210
0
220
0
230
1
0
LINE
5
10D
100
AcDbEntity
8
SK2
62
256
6
ByLayer
370
13
48
1
60
0
100
AcDbLine
10
-48
20
66.6
30
0
11
0
21
66.6
31
0
39
0
210
0
220
0
230
1
0
SOLID
5
10E
100
AcDbEntity
8
SK2
62
256
6
ByLayer
370
13
48
1
60
0
100
AcDbTrace
10
-48
20
66.6
30
0
11
-44.500002
21
67.060784
31
0
12
-44.499998
22
66.139216
32
0
13
-48
23
66.6
33
0
39
0
210
0
220
0
230
1
0
SOLID
5
10F
100
AcDbEntity
8
SK2
62
256
6
ByLayer
370
13
48
1
60
0
100
AcDbTrace
10
0
20
66.6
30
0
11
-3.499998
21
66.139216
31
0
12
-3.500002
22
67.060784
32
0
13
0
23
66.6
33
0
39
0
210
0
220
0
230
1
0
ENDBLK
5
111
100
AcDbEntity
8
0
100
AcDbBlockEnd
0
BLOCK
5
11B
100
AcDbEntity
8
0
100
AcDbBlockBegin
2
DimnDraft3D5
70
0
10
0
20
0
30
0
3
DimnDraft3D5
0
MTEXT
5
114
100
AcDbEntity
8
SK2
62
256
6
ByLayer
370
18
48
1
60
0
100
AcDbMText
10
-71.35
20
2.330263
30
0
210
0
220
0
230
1
1
\W0.6740;80
40
3.5
41
0
44
1.084337
50
90
71
7
72
5
7
iso_b_vert
0
MTEXT
5
115
100
AcDbEntity
8
SK2
62
256
6
ByLayer
370
18
48
1
60
0
100
AcDbMText
10
-71.35
20
-2.892393
30
0
210
0
220
0
230
1
1
%%c
40
3.5
41
0
44
1.084337
50
90
71
7
72
5
7
iso_b_vert
0
LINE
5
116
100
AcDbEntity
8
SK2
62
256
6
ByLayer
370
13
48
1
60
0
100
AcDbLine
10
-1.5875
20
40
30
0
11
-71.6
21
40
31
0
39
0
210
0
220
0
230
1
0
LINE
5
117
100
AcDbEntity
8
SK2
62
256
6
ByLayer
370
13
48
1
60
0
100
AcDbLine
10
-1.5875
20
-40
30
0
11
-71.6
21
-40
31
0
39
0
210
0
220
0
230
1
0
LINE
5
118
100
AcDbEntity
8
SK2
62
256
6
ByLayer
370
13
48
1
60
0
100
AcDbLine
10
-69.6
20
40
30
0
11
-69.6
21
-40
31
0
39
0
210
0
220
0
230
1
0
SOLID
5
119
100
AcDbEntity
8
SK2
62
256
6
ByLayer
370
13
48
1
60
0
100
AcDbTrace
10
-69.6
20
40
30
0
11
-69.139216
21
36.500002
31
0
12
-70.060784
22
36.499998
32
0
13
-69.6
23
40
33
0
39
0
210
0
220
0
230
1
0
SOLID
5
11A
100
AcDbEntity
8
SK2
62
256
6
ByLayer
370
13
48
1
60
0
100
AcDbTrace
10
-69.6
20
-40
30
0
11
-70.060784
21
-36.500002
31
0
12
-69.139216
22
-36.499998
32
0
13
-69.6
23
-40
33
0
39
0
210
0
220
0
230
1
0
ENDBLK
5
11C
100
AcDbEntity
8
0
100
AcDbBlockEnd
0
BLOCK
5
126
100
AcDbEntity
8
0
100
AcDbBlockBegin
2
DimnDraft3D6
70
0
10
0
20
0
30
0
3
DimnDraft3D6
0
MTEXT
5
11F
100
AcDbEntity
8
SK2
62
256
6
ByLayer
370
18
48
1
60
0
100
AcDbMText
10
81.3
20
2.330263
30
0
210
0
220
0
230
1
1
\W0.6740;63
40
3.5
41
0
44
1.084337
50
90
71
7
72
5
7
iso_b_vert
0
MTEXT
5
120
100
AcDbEntity
8
SK2
62
256
6
ByLayer
370
18
48
1
60
0
100
AcDbMText
10
81.3
20
-2.892393
30
0
210
0
220
0
230
1
1
%%c
40
3.5
41
0
44
1.084337
50
90
71
7
72
5
7
iso_b_vert
0
LINE
5
121
100
AcDbEntity
8
SK2
62
256
6
ByLayer
370
13
48
1
60
0
100
AcDbLine
10
56.5875
20
31.5
30
0
11
85.05
21
31.5
31
0
39
0
210
0
220
0
230
1
0
LINE
5
122
100
AcDbEntity
8
SK2
62
256
6
ByLayer
370
13
48
1
60
0
100
AcDbLine
10
56.5875
20
-31.5
30
0
11
85.05
21
-31.5
31
0
39
0
210
0
220
0
230
1
0
LINE
5
123
100
AcDbEntity
8
SK2
62
256
6
ByLayer
370
13
48
1
60
0
100
AcDbLine
10
83.05
20
31.5
30
0
11
83.05
21
-31.5
31
0
39
0
210
0
220
0
230
1
0
SOLID
5
124
100
AcDbEntity
8
SK2
62
256
6
ByLayer
370
13
48
1
60
0
100
AcDbTrace
10
83.05
20
31.5
30
0
11
83.510784
21
28.000002
31
0
12
82.589216
22
27.999998
32
0
13
83.05
23
31.5
33
0
39
0
210
0
220
0
230
1
0
SOLID
5
125
100
AcDbEntity
8
SK2
62
256
6
ByLayer
370
13
48
1
60
0
100
AcDbTrace
10
83.05
20
-31.5
30
0
11
82.589216
21
-28.000002
31
0
12
83.510784
22
-27.999998
32
0
13
83.05
23
-31.5
33
0
39
0
210
0
220
0
230
1
0
ENDBLK
5
127
100
AcDbEntity
8
0
100
AcDbBlockEnd
0
ENDSEC
0
SECTION
2
ENTITIES
0
ARC
5
AC
100
AcDbEntity
8
1
62
256
6
ByLayer
370
18
48
1
60
0
100
AcDbCircle
39
0
10
30.435403
20
-39.2
30
0
40
0.8
210
0
220
0
230
1
100
AcDbArc
50
270
51
319.001898
0
ARC
5
AD
100
AcDbEntity
8
SK1
62
256
6
ByLayer
370
18
48
1
60
0
100
AcDbCircle
39
0
10
0.6
20
-29.6
30
0
40
1.00000000000001
210
6.12303176911189E-17
220
0
230
-1
100
AcDbArc
50
113.578178
51
126.869898
0
ARC
5
AE
100
AcDbEntity
8
1
62
256
6
ByLayer
370
18
48
1
60
0
100
AcDbCircle
39
0
10
-40
20
-35.474925
30
0
40
3.97492453963908
210
6.12303176911189E-17
220
0
230
-1
100
AcDbArc
50
40.998102
51
90
0
ARC
5
AF
100
AcDbEntity
8
1
62
256
6
ByLayer
370
18
48
1
60
0
100
AcDbCircle
39
0
10
-40
20
35.474925
30
0
40
3.97492453963908
210
6.12303176911189E-17
220
0
230
-1
100
AcDbArc
50
270
51
319.001898
0
ARC
5
B0
100
AcDbEntity
8
SK1
62
256
6
ByLayer
370
18
48
1
60
0
100
AcDbCircle
39
0
10
0.6
20
29.6
30
0
40
1.00000000000001
210
6.12303176911189E-17
220
0
230
-1
100
AcDbArc
50
233.130102
51
246.421822
0
ARC
5
B1
100
AcDbEntity
8
1
62
256
6
ByLayer
370
18
48
1
60
0
100
AcDbCircle
39
0
10
30.435403
20
39.2
30
0
40
0.8
210
0
220
0
230
1
100
AcDbArc
50
40.998102
51
90
0
CIRCLE
5
B2
100
AcDbEntity
8
SK1
62
256
6
ByLayer
370
18
48
1
60
0
100
AcDbCircle
10
-25
20
0
30
0
40
4.55
39
0
210
0
220
0
230
1
0
ELLIPSE
5
B3
100
AcDbEntity
8
1
62
256
6
ByLayer
370
18
48
1
60
0
100
AcDbEllipse
10
30.763884
20
0
30
0
11
18.734835759565
21
39.4834983055017
31
0
210
0
220
0
230
-1
40
0.341999
41
-2.98049364836085
42
-2.05364588642052
0
ELLIPSE
5
B4
100
AcDbEntity
8
1
62
256
6
ByLayer
370
18
48
1
60
0
100
AcDbEllipse
10
-6.763884
20
0
30
0
11
18.7348357595649
21
39.4834983055016
31
0
210
0
220
0
230
-1
40
0.341999
41
0.161099005228944
42
1.08794676716928
0
ELLIPSE
5
B5
100
AcDbEntity
8
1
62
256
6
ByLayer
370
18
48
1
60
0
100
AcDbEllipse
10
30.763884
20
0
30
0
11
18.7348357595637
21
-39.4834983055
31
0
210
0
220
0
230
-1
40
0.341999
41
2.05364588642049
42
2.98049364836085
0
ELLIPSE
5
B6
100
AcDbEntity
8
1
62
256
6
ByLayer
370
18
48
1
60
0
100
AcDbEllipse
10
-6.763884
20
0
30
0
11
18.7348357595648
21
-39.4834983055014
31
0
210
0
220
0
230
-1
40
0.341999
41
-1.08794676716928
42
-0.161099005228945
0
POINT
5
6C
100
AcDbEntity
8
81
62
256
6
ByLayer
370
18
48
1
60
0
100
AcDbPoint
10
55
20
0
30
0
39
0
210
0
220
0
230
1
50
360
0
POINT
5
6E
100
AcDbEntity
8
80
62
256
6
ByLayer
370
18
48
1
60
0
100
AcDbPoint
10
0
20
0
30
0
39
0
210
0
220
0
230
1
50
360
0
POINT
5
70
100
AcDbEntity
8
1
62
256
6
ByLayer
370
18
48
1
60
0
100
AcDbPoint
10
0
20
0
30
0
39
0
210
0
220
0
230
1
50
360
0
SPLINE
5
B7
100
AcDbEntity
8
SK1
62
256
6
ByLayer
370
18
48
1
60
0
100
AcDbSpline
70
4
71
3
72
13
73
9
40
0
40
0
40
0
40
0
40
0.239456135583861
40
0.368359721689444
40
0.499998983747698
40
0.631638415023511
40
0.760542467572899
40
1
40
1
40
1
40
1
41
1
10
-2.19999999999999
20
-27.5200986604247
30
-1E-16
41
1
10
-2.19909198642043
20
-27.4940411843415
30
-1E-16
41
1
10
-2.19103284106725
20
-27.4566686000527
30
-1E-16
41
1
10
-2.16563592203019
20
-27.4104494262793
30
-1E-16
41
1
10
-2.13886378678797
20
-27.3791678724619
30
-1E-16
41
1
10
-2.10627712749309
20
-27.3540005022953
30
-1E-16
41
1
10
-2.05884064232876
20
-27.3309566998601
30
-1E-16
41
1
10
-2.02111030872422
20
-27.3247844448489
30
-1E-16
41
1
10
-1.99503997793928
20
-27.3251860847967
30
-1E-16
0
SPLINE
5
B8
100
AcDbEntity
8
SK1
62
256
6
ByLayer
370
18
48
1
60
0
100
AcDbSpline
70
4
71
3
72
13
73
9
40
0
40
0
40
0
40
0
40
0.239457532422366
40
0.368361584969972
40
0.500001016245054
40
0.631640278303761
40
0.760543864410957
40
1
40
1
40
1
40
1
41
1
10
-1.99503997793928
20
27.3251860880175
30
-1E-16
41
1
10
-2.0211103087243
20
27.3247844480697
30
-1E-16
41
1
10
-2.0588406423289
20
27.3309567030812
30
-1E-16
41
1
10
-2.10627712749326
20
27.3540005055177
30
-1E-16
41
1
10
-2.13886378678808
20
27.3791678756855
30
-1E-16
41
1
10
-2.16563592203031
20
27.4104494295045
30
-1E-16
41
1
10
-2.19103284106734
20
27.4566686032802
30
-1E-16
41
1
10
-2.19909198642051
20
27.4940411875707
30
-1E-16
41
1
10
-2.19999999999999
20
27.520098663655
30
-1E-16
0
SPLINE
5
B9
100
AcDbEntity
8
SK1
62
256
6
ByLayer
370
18
48
1
60
0
100
AcDbSpline
70
4
71
2
72
6
73
3
40
0
40
0
40
0
40
1
40
1
40
1
41
1
10
-0.394976888875306
20
27.3653847152514
30
0
41
1
10
-1.19500843340728
20
27.3452852646243
30
-1E-16
41
1
10
-1.99503997793928
20
27.3251858139979
30
-1E-16
0
SPLINE
5
BA
100
AcDbEntity
8
SK1
62
256
6
ByLayer
370
18
48
1
60
0
100
AcDbSpline
70
4
71
2
72
6
73
3
40
0
40
0
40
0
40
1
40
1
40
1
41
1
10
-46.5
20
26.407103720226
30
-2E-16
41
1
10
-47.2499999994058
20
25.9740938984543
30
-2E-16
41
1
10
-48
20
25.5410840926423
30
-3E-16
0
SPLINE
5
BB
100
AcDbEntity
8
SK1
62
256
6
ByLayer
370
18
48
1
60
0
100
AcDbSpline
70
4
71
2
72
6
73
3
40
0
40
0
40
0
40
1
40
1
40
1
41
1
10
-46.5
20
-26.3937602673102
30
-2E-16
41
1
10
-24.349999999999
20
-26.9499705725249
30
3E-16
41
1
10
-2.19999999999999
20
-27.5061808177903
30
-1E-16
0
SPLINE
5
BC
100
AcDbEntity
8
SK1
62
256
6
ByLayer
370
18
48
1
60
0
100
AcDbSpline
70
4
71
2
72
6
73
3
40
0
40
0
40
0
40
1
40
1
40
1
41
1
10
-48
20
-25.5410841061086
30
-3E-16
41
1
10
-47.249999999406
20
-25.9740939119354
30
-2E-16
41
1
10
-46.5
20
-26.4071037337151
30
-2E-16
0
SPLINE
5
BD
100
AcDbEntity
8
SK1
62
256
6
ByLayer
370
18
48
1
60
0
100
AcDbSpline
70
4
71
2
72
6
73
3
40
0
40
0
40
0
40
1
40
1
40
1
41
1
10
-2.19999999999999
20
27.506180857905
30
-1E-16
41
1
10
-24.3499999999991
20
26.9499706126624
30
3E-16
41
1
10
-46.5
20
26.3937603074471
30
-2E-16
0
SPLINE
5
BE
100
AcDbEntity
8
SK1
62
256
6
ByLayer
370
18
48
1
60
0
100
AcDbSpline
70
4
71
2
72
6
73
3
40
0
40
0
40
0
40
1
40
1
40
1
41
1
10
-1.99503997793928
20
-27.3251858108711
30
-1E-16
41
1
10
-1.19500843340728
20
-27.3452852614966
30
-1E-16
41
1
10
-0.394976888875306
20
-27.3653847121227
30
0
0
SPLINE
5
BF
100
AcDbEntity
8
SK1
62
256
6
ByLayer
370
18
48
1
60
0
100
AcDbSpline
70
4
71
3
72
8
73
4
40
0
40
0
40
0
40
0
40
1
40
1
40
1
40
1
41
1
10
-39.75
20
4.9823172906066
30
1.1E-15
41
1
10
-42.0000318530238
20
4.93203215225253
30
1E-15
41
1
10
-44.2500328769297
20
4.88030687803254
30
8E-16
41
1
10
-46.5
20
4.82700790508895
30
7E-16
0
SPLINE
5
C0
100
AcDbEntity
8
1
62
256
6
ByLayer
370
18
48
1
60
0
100
AcDbSpline
70
4
71
3
72
16
73
12
40
0
40
0
40
0
40
0
40
0.25
40
0.25
40
0.499999999999999
40
0.499999999999999
40
0.749999999999999
40
0.749999999999999
40
0.875
40
0.875
40
1
40
1
40
1
40
1
41
1
10
13.8943375672974
20
-12.6576002058703
30
9E-16
41
1
10
13.8787561873888
20
-12.6003292036662
30
8E-16
41
1
10
13.8601238798743
20
-12.5441499637055
30
8E-16
41
1
10
13.8146289914014
20
-12.4347788334233
30
8E-16
41
1
10
13.7876921654474
20
-12.3812044282564
30
8E-16
41
1
10
13.7212171221612
20
-12.280557514874
30
8E-16
41
1
10
13.6816031920018
20
-12.2332416215828
30
8E-16
41
1
10
13.6089776935099
20
-12.1779443514617
30
8E-16
41
1
10
13.5819554640971
20
-12.1619018862398
30
8E-16
41
1
10
13.5241733156583
20
-12.1395106480537
30
8E-16
41
1
10
13.4929397308716
20
-12.1330899674705
30
8E-16
41
1
10
13.4613248654052
20
-12.1330899674705
30
8E-16
0
SPLINE
5
C1
100
AcDbEntity
8
SK1
62
256
6
ByLayer
370
18
48
1
60
0
100
AcDbSpline
70
4
71
3
72
28
73
24
40
0
40
0
40
0
40
0
40
0.249999999999998
40
0.249999999999998
40
0.499999999999997
40
0.499999999999997
40
0.624999999999995
40
0.624999999999995
40
0.687499999999995
40
0.687499999999995
40
0.749999999999995
40
0.749999999999995
40
0.812499999999995
40
0.812499999999995
40
0.843749999999996
40
0.843749999999996
40
0.874999999999997
40
0.874999999999997
40
0.906249999999998
40
0.906249999999998
40
0.937499999999999
40
0.937499999999999
40
1
40
1
40
1
40
1
41
1
10
-1.30710678118655
20
26.9276529415625
30
-1E-16
41
1
10
-1.27806977014245
20
26.9623772088139
30
-1E-16
41
1
10
-1.24496410204574
20
26.9946345240813
30
-1E-16
41
1
10
-1.16607673669478
20
27.0545982766263
30
-1E-16
41
1
10
-1.12051286100146
20
27.082338086394
30
-1E-16
41
1
10
-1.03498037326759
20
27.1203533569381
30
-1E-16
41
1
10
-1.00356891695134
20
27.1324436258709
30
-1E-16
41
1
10
-0.948839812167193
20
27.1497090084008
30
-1E-16
41
1
10
-0.929310210073623
20
27.1553189684249
30
-1E-16
41
1
10
-0.886410397373481
20
27.16623928859
30
-1E-16
41
1
10
-0.863049799131829
20
27.1715459802933
30
-1E-16
41
1
10
-0.811381329048118
20
27.181563870896
30
0
41
1
10
-0.783098177826417
20
27.1863127490921
30
0
41
1
10
-0.733311416182175
20
27.1928357623413
30
0
41
1
10
-0.715778743170091
20
27.1948634698142
30
0
41
1
10
-0.678017278036236
20
27.1985289438708
30
0
41
1
10
-0.657794614106734
20
27.2001551120066
30
0
41
1
10
-0.615791813458173
20
27.2027102499194
30
0
41
1
10
-0.593300666127845
20
27.2036650351984
30
0
41
1
10
-0.549233283362298
20
27.2046593762324
30
0
41
1
10
-0.527159022678688
20
27.2047199744241
30
0
41
1
10
-0.464335236334733
20
27.2037327368478
30
0
41
1
10
-0.427480204304118
20
27.2016081938193
30
0
41
1
10
-0.394976888875306
20
27.1987924685777
30
0
0
SPLINE
5
C2
100
AcDbEntity
8
SK1
62
256
6
ByLayer
370
18
48
1
60
0
100
AcDbSpline
70
4
71
3
72
154
73
150
40
0
40
0
40
0
40
0
40
0.0056519920111769
40
0.0156437014791182
40
0.0256354109470595
40
0.0456188298829422
40
0.0656022488188249
40
0.0755939582867662
40
0.0855856677547076
40
0.10556908669059
40
0.125552505626473
40
0.135544215094414
40
0.145535924562356
40
0.155527634030297
40
0.165519343498238
40
0.17551105296618
40
0.185502762434121
40
0.205486181370004
40
0.215477890837945
40
0.225469600305886
40
0.235461309773828
40
0.245453019241769
40
0.25544472870971
40
0.265436438177652
40
0.275428147645593
40
0.285419857113534
40
0.295411566581476
40
0.305403276049417
40
0.315394985517358
40
0.3253866949853
40
0.345370113921182
40
0.365353532857065
40
0.375345242325006
40
0.385336951792948
40
0.395328661260889
40
0.40532037072883
40
0.415312080196772
40
0.425303789664713
40
0.435295499132654
40
0.445287208600596
40
0.455278918068537
40
0.465270627536478
40
0.47526233700442
40
0.485254046472361
40
0.495245755940303
40
0.505237465408244
40
0.515229174876185
40
0.525220884344126
40
0.535212593812068
40
0.545204303280009
40
0.55020015801398
40
0.55519601274795
40
0.565187722215892
40
0.575179431683833
40
0.580175286417804
40
0.585171141151774
40
0.590166995885745
40
0.595162850619716
40
0.605154560087657
40
0.610150414821628
40
0.612648342188613
40
0.615146269555598
40
0.620142124289569
40
0.62513797902354
40
0.63013383375751
40
0.635129688491481
40
0.640125543225452
40
0.645121397959422
40
0.650117252693393
40
0.655113107427364
40
0.660108962161335
40
0.665104816895305
40
0.670100671629276
40
0.675096526363246
40
0.677594453730232
40
0.680092381097217
40
0.685088235831188
40
0.687586163198173
40
0.690084090565159
40
0.692582017932144
40
0.695079945299129
40
0.7000758000331
40
0.70507165476707
40
0.707569582134056
40
0.710067509501041
40
0.712565436868027
40
0.715063364235012
40
0.717561291601997
40
0.720059218968983
40
0.725055073702953
40
0.727553001069939
40
0.730050928436924
40
0.732548855803909
40
0.735046783170894
40
0.73754471053788
40
0.740042637904865
40
0.742540565271851
40
0.745038492638836
40
0.747536420005821
40
0.750034347372807
40
0.752532274739792
40
0.755030202106777
40
0.757528129473763
40
0.760026056840748
40
0.762523984207733
40
0.765021911574718
40
0.767519838941704
40
0.770017766308689
40
0.772515693675675
40
0.77501362104266
40
0.777511548409645
40
0.78000947577663
40
0.782507403143616
40
0.785005330510601
40
0.787503257877587
40
0.790001185244572
40
0.792499112611557
40
0.794997039978542
40
0.797494967345528
40
0.799992894712513
40
0.804988749446484
40
0.809984604180455
40
0.814980458914425
40
0.819976313648396
40
0.824972168382366
40
0.829968023116337
40
0.834963877850308
40
0.839959732584279
40
0.844955587318249
40
0.854947296786191
40
0.859943151520161
40
0.864939006254132
40
0.867436933621117
40
0.869934860988103
40
0.874930715722073
40
0.879926570456044
40
0.884922425190015
40
0.894914134657956
40
0.904905844125897
40
0.914897553593839
40
0.92488926306178
40
0.934880972529721
40
0.944872681997663
40
0.954864391465604
40
0.964856100933545
40
0.974847810401487
40
0.984839519869428
40
0.994831229337369
40
1
40
1
40
1
40
1
41
1
10
-48
20
-4.31962767660013
30
6E-16
41
1
10
-48
20
-4.3799826416176
30
6E-16
41
1
10
-48
20
-4.54709520375022
30
6E-16
41
1
10
-48
20
-4.82150124574903
30
6E-16
41
1
10
-48
20
-5.24884236961586
30
6E-16
41
1
10
-48
20
-5.77917842849112
30
6E-16
41
1
10
-48
20
-6.30813208413107
30
6E-16
41
1
10
-48
20
-6.73269239364373
30
6E-16
41
1
10
-48
20
-7.15657285828783
30
6E-16
41
1
10
-48
20
-7.68214247234891
30
6E-16
41
1
10
-48
20
-8.20580371611476
30
6E-16
41
1
10
-48
20
-8.62584395125759
30
6E-16
41
1
10
-48
20
-8.9391951745464
30
6E-16
41
1
10
-48
20
-9.25185026134952
30
6E-16
41
1
10
-48
20
-9.56377451019125
30
6E-16
41
1
10
-48
20
-9.87492998697695
30
6E-16
41
1
10
-48
20
-10.2900987256281
30
6E-16
41
1
10
-48
20
-10.6995073086418
30
6E-16
41
1
10
-48
20
-11.1112754360026
30
6E-16
41
1
10
-48
20
-11.418114101621
30
6E-16
41
1
10
-48
20
-11.7239779306354
30
6E-16
41
1
10
-48
20
-12.0288349983655
30
6E-16
41
1
10
-48
20
-12.3326373748447
30
6E-16
41
1
10
-48
20
-12.6353475328521
30
6E-16
41
1
10
-48
20
-12.9369253969942
30
6E-16
41
1
10
-48
20
-13.2373201309718
30
6E-16
41
1
10
-48
20
-13.5364921981646
30
6E-16
41
1
10
-48
20
-13.834390565872
30
6E-16
41
1
10
-48
20
-14.1309650542482
30
6E-16
41
1
10
-48
20
-14.5260393636627
30
6E-16
41
1
10
-48
20
-15.0128848856923
30
6E-16
41
1
10
-48
20
-15.494689652133
30
6E-16
41
1
10
-48
20
-15.8795987141088
30
6E-16
41
1
10
-48
20
-16.1653401252664
30
6E-16
41
1
10
-48
20
-16.4492792419797
30
6E-16
41
1
10
-48
20
-16.7313340179103
30
6E-16
41
1
10
-48
20
-17.0114289095589
30
6E-16
41
1
10
-48
20
-17.2894836117792
30
6E-16
41
1
10
-48
20
-17.56540901801
30
6E-16
41
1
10
-48
20
-17.8391123485555
30
6E-16
41
1
10
-48
20
-18.1104947448294
30
6E-16
41
1
10
-48
20
-18.3794526467847
30
6E-16
41
1
10
-48
20
-18.6458737183568
30
6E-16
41
1
10
-48
20
-18.9096394518432
30
6E-16
41
1
10
-48
20
-19.1706233463514
30
6E-16
41
1
10
-48
20
-19.4286892154588
30
6E-16
41
1
10
-48
20
-19.6836922626333
30
6E-16
41
1
10
-48
20
-19.9354753075139
30
6E-16
41
1
10
-48
20
-20.1838716722669
30
6E-16
41
1
10
-48
20
-20.3869305672462
30
6E-16
41
1
10
-48
20
-20.549327919965
30
6E-16
41
1
10
-48
20
-20.710394933754
30
6E-16
41
1
10
-48
20
-20.90686065868
30
6E-16
41
1
10
-48
20
-21.0999219495659
30
6E-16
41
1
10
-48
20
-21.2541035972101
30
6E-16
41
1
10
-48
20
-21.3677484855677
30
6E-16
41
1
10
-48
20
-21.4802183347435
30
6E-16
41
1
10
-48
20
-21.6296714269292
30
6E-16
41
1
10
-48
20
-21.773211730464
30
6E-16
41
1
10
-48
20
-21.8991817669715
30
6E-16
41
1
10
-48
20
-21.9707164470975
30
6E-16
41
1
10
-48
20
-22.0417826762237
30
6E-16
41
1
10
-48
20
-22.128385296331
30
6E-16
41
1
10
-48
20
-22.2316158883372
30
6E-16
41
1
10
-48
20
-22.3333760032152
30
6E-16
41
1
10
-48
20
-22.433618000369
30
6E-16
41
1
10
-48
20
-22.5323072823543
30
6E-16
41
1
10
-48
20
-22.6294005789551
30
6E-16
41
1
10
-48
20
-22.7248602991309
30
6E-16
41
1
10
-48
20
-22.8186491923873
30
6E-16
41
1
10
-48
20
-22.9107306858041
30
6E-16
41
1
10
-48
20
-23.0010739194349
30
6E-16
41
1
10
-48
20
-23.0896459658794
30
6E-16
41
1
10
-48
20
-23.1613199651623
30
6E-16
41
1
10
-48
20
-23.2189272491517
30
6E-16
41
1
10
-48
20
-23.275914525753
30
6E-16
41
1
10
-48
20
-23.3300102631929
30
6E-16
41
1
10
-48
20
-23.3851691356179
30
6E-16
41
1
10
-48
20
-23.425579801401
30
6E-16
41
1
10
-48
20
-23.4655178082954
30
6E-16
41
1
10
-48
20
-23.5188085799915
30
6E-16
41
1
10
-48
20
-23.5828040953959
30
6E-16
41
1
10
-48
20
-23.6452887403337
30
6E-16
41
1
10
-48
20
-23.6954996518131
30
6E-16
41
1
10
-48
20
-23.73221731819
30
6E-16
41
1
10
-48
20
-23.7684906319865
30
6E-16
41
1
10
-48
20
-23.8043149749481
30
6E-16
41
1
10
-48
20
-23.8396803311329
30
6E-16
41
1
10
-48
20
-23.886846046566
30
6E-16
41
1
10
-48
20
-23.9313622441446
30
6E-16
41
1
10
-48
20
-23.9767350750261
30
6E-16
41
1
10
-48
20
-24.0099122821854
30
6E-16
41
1
10
-48
20
-24.0426577515158
30
6E-16
41
1
10
-48
20
-24.0749682492685
30
6E-16
41
1
10
-48
20
-24.1068625359242
30
6E-16
41
1
10
-48
20
-24.1383398341139
30
6E-16
41
1
10
-48
20
-24.1693920917842
30
6E-16
41
1
10
-48
20
-24.2000314508833
30
6E-16
41
1
10
-48
20
-24.230266850031
30
6E-16
41
1
10
-48
20
-24.2600902114753
30
6E-16
41
1
10
-48
20
-24.2895041520899
30
6E-16
41
1
10
-48
20
-24.3185219410064
30
6E-16
41
1
10
-48
20
-24.3471420518168
30
6E-16
41
1
10
-48
20
-24.3753596223736
30
6E-16
41
1
10
-48
20
-24.4031822795111
30
6E-16
41
1
10
-48
20
-24.4306188452303
30
6E-16
41
1
10
-48
20
-24.4576652953435
30
6E-16
41
1
10
-48
20
-24.4843200893623
30
6E-16
41
1
10
-48
20
-24.5105911900844
30
6E-16
41
1
10
-48
20
-24.5364839427566
30
6E-16
41
1
10
-48
20
-24.5619948741231
30
6E-16
41
1
10
-48
20
-24.5871241687497
30
6E-16
41
1
10
-48
20
-24.6118787410371
30
6E-16
41
1
10
-48
20
-24.6362624285576
30
6E-16
41
1
10
-48
20
-24.6602727847437
30
6E-16
41
1
10
-48
20
-24.6839103379438
30
6E-16
41
1
10
-48
20
-24.7071810973906
30
6E-16
41
1
10
-48
20
-24.7300887832225
30
6E-16
41
1
10
-48
20
-24.7526316433032
30
6E-16
41
1
10
-48
20
-24.7824907984146
30
6E-16
41
1
10
-48
20
-24.8182940340568
30
6E-16
41
1
10
-48
20
-24.8601485721933
30
6E-16
41
1
10
-48
20
-24.900592540575
30
6E-16
41
1
10
-48
20
-24.9396455050693
30
6E-16
41
1
10
-48
20
-24.9773185815456
30
6E-16
41
1
10
-48
20
-25.0136312829937
30
6E-16
41
1
10
-48
20
-25.0485964715043
30
6E-16
41
1
10
-48
20
-25.0822301080011
30
6E-16
41
1
10
-48
20
-25.1256650082927
30
6E-16
41
1
10
-48
20
-25.1655434102454
30
6E-16
41
1
10
-48
20
-25.2037581732513
30
6E-16
41
1
10
-48
20
-25.2262959224746
30
6E-16
41
1
10
-48
20
-25.243932283577
30
6E-16
41
1
10
-48
20
-25.2611566441762
30
6E-16
41
1
10
-48
20
-25.2816600785462
30
6E-16
41
1
10
-48
20
-25.3051814159448
30
6E-16
41
1
10
-48
20
-25.3351442996692
30
6E-16
41
1
10
-48
20
-25.369214042719
30
6E-16
41
1
10
-48
20
-25.4056598784738
30
6E-16
41
1
10
-48
20
-25.4375703154659
30
6E-16
41
1
10
-48
20
-25.4650440962075
30
-3E-16
41
1
10
-48
20
-25.4881740828886
30
-3E-16
41
1
10
-48
20
-25.5070507711456
30
-3E-16
41
1
10
-48
20
-25.5217596375135
30
-3E-16
41
1
10
-48
20
-25.5323831188675
30
-3E-16
41
1
10
-48
20
-25.5389997522708
30
-3E-16
41
1
10
-48
20
-25.5416848644106
30
-3E-16
41
1
10
-48
20
-25.5406990546628
30
-3E-16
41
1
10
-48
20
-25.5386503474635
30
-3E-16
41
1
10
-48
20
-25.537784305115
30
-3E-16
0
SPLINE
5
C3
100
AcDbEntity
8
SK1
62
256
6
ByLayer
370
18
48
1
60
0
100
AcDbSpline
70
4
71
3
72
155
73
151
40
0
40
0
40
0
40
0
40
0.0051687164682411
40
0.0151604264806404
40
0.0251521364930402
40
0.03514384650544
40
0.0451355565178393
40
0.0551272665302391
40
0.0651189765426389
40
0.0751106865550377
40
0.0851023965674375
40
0.0950941065798373
40
0.105085816592237
40
0.115077526604636
40
0.120073381610836
40
0.125069236617036
40
0.130065091623236
40
0.132563019126336
40
0.135060946629435
40
0.140056801635636
40
0.145052656641835
40
0.155044366654235
40
0.160040221660435
40
0.165036076666635
40
0.170031931672835
40
0.175027786679034
40
0.180023641685234
40
0.185019496691434
40
0.190015351697633
40
0.195011206703833
40
0.200007061710033
40
0.202504989213133
40
0.205002916716233
40
0.207500844219333
40
0.209998771722433
40
0.212496699225532
40
0.214994626728632
40
0.217492554231732
40
0.219990481734832
40
0.222488409237932
40
0.224986336741032
40
0.227484264244132
40
0.229982191747232
40
0.232480119250332
40
0.234978046753432
40
0.237475974256532
40
0.239973901759632
40
0.242471829262731
40
0.244969756765831
40
0.247467684268931
40
0.249965611772031
40
0.252463539275131
40
0.254961466778231
40
0.257459394281331
40
0.259957321784431
40
0.262455249287531
40
0.26495317679063
40
0.26745110429373
40
0.269949031796831
40
0.27244695929993
40
0.27494488680303
40
0.27994074180923
40
0.28243866931233
40
0.28493659681543
40
0.28743452431853
40
0.28993245182163
40
0.29243037932473
40
0.294928306827829
40
0.299924161834029
40
0.304920016840229
40
0.307417944343329
40
0.309915871846429
40
0.312413799349528
40
0.314911726852628
40
0.319907581858828
40
0.322405509361928
40
0.324903436865028
40
0.329899291871228
40
0.334895146877428
40
0.339891001883627
40
0.344886856889827
40
0.349882711896027
40
0.354878566902227
40
0.359874421908427
40
0.364870276914626
40
0.369866131920826
40
0.374861986927026
40
0.379857841933226
40
0.384853696939426
40
0.387351624442526
40
0.389849551945626
40
0.394845406951825
40
0.404837116964225
40
0.409832971970425
40
0.414828826976624
40
0.419824681982825
40
0.424820536989024
40
0.434812247001424
40
0.444803957013823
40
0.449799812020023
40
0.454795667026223
40
0.464787377038622
40
0.474779087051022
40
0.484770797063422
40
0.494762507075821
40
0.504754217088221
40
0.51474592710062
40
0.52473763711302
40
0.53472934712542
40
0.544721057137819
40
0.554712767150219
40
0.564704477162618
40
0.574696187175018
40
0.584687897187418
40
0.594679607199817
40
0.604671317212217
40
0.614663027224616
40
0.624654737237016
40
0.634646447249415
40
0.654629867274215
40
0.674613287299014
40
0.684604997311413
40
0.694596707323813
40
0.704588417336213
40
0.714580127348612
40
0.724571837361012
40
0.734563547373411
40
0.744555257385811
40
0.754546967398211
40
0.76453867741061
40
0.77453038742301
40
0.784522097435409
40
0.794513807447809
40
0.814497227472608
40
0.824488937485008
40
0.834480647497407
40
0.844472357509807
40
0.854464067522207
40
0.864455777534606
40
0.874447487547006
40
0.884439197559405
40
0.894430907571805
40
0.914414327596604
40
0.924406037609004
40
0.934397747621403
40
0.954381167646203
40
0.974364587671002
40
0.984356297683401
40
0.994348007695801
40
1
40
1
40
1
40
1
41
1
10
-48
20
25.5377843150568
30
-3E-16
41
1
10
-48
20
25.5386503359031
30
-3E-16
41
1
10
-48
20
25.5406990103791
30
-3E-16
41
1
10
-48
20
25.541684875453
30
-3E-16
41
1
10
-48
20
25.5389998933296
30
-3E-16
41
1
10
-48
20
25.5323832086354
30
-3E-16
41
1
10
-48
20
25.5217598246064
30
-3E-16
41
1
10
-48
20
25.5070507125789
30
-3E-16
41
1
10
-48
20
25.4881737322236
30
-3E-16
41
1
10
-48
20
25.4650442061671
30
-3E-16
41
1
10
-48
20
25.4375703815289
30
6E-16
41
1
10
-48
20
25.4056598883097
30
6E-16
41
1
10
-48
20
25.3692141269892
30
6E-16
41
1
10
-48
20
25.3351443424438
30
6E-16
41
1
10
-48
20
25.3051813954703
30
6E-16
41
1
10
-48
20
25.2816600507294
30
6E-16
41
1
10
-48
20
25.2611566536469
30
6E-16
41
1
10
-48
20
25.2439323335485
30
6E-16
41
1
10
-48
20
25.2262960089839
30
6E-16
41
1
10
-48
20
25.2037582591162
30
6E-16
41
1
10
-48
20
25.1655433975228
30
6E-16
41
1
10
-48
20
25.1256649722399
30
6E-16
41
1
10
-48
20
25.0822301619021
30
6E-16
41
1
10
-48
20
25.0485965773839
30
6E-16
41
1
10
-48
20
25.0136313303049
30
6E-16
41
1
10
-48
20
24.9773185367258
30
6E-16
41
1
10
-48
20
24.9396454604461
30
6E-16
41
1
10
-48
20
24.9005926015016
30
6E-16
41
1
10
-48
20
24.8601486852138
30
6E-16
41
1
10
-48
20
24.8182940492333
30
6E-16
41
1
10
-48
20
24.7824907299817
30
6E-16
41
1
10
-48
20
24.7526315828866
30
6E-16
41
1
10
-48
20
24.7300887793871
30
6E-16
41
1
10
-48
20
24.7071811640916
30
6E-16
41
1
10
-48
20
24.6839104468199
30
6E-16
41
1
10
-48
20
24.6602728946617
30
6E-16
41
1
10
-48
20
24.6362624855001
30
6E-16
41
1
10
-48
20
24.6118787240826
30
6E-16
41
1
10
-48
20
24.5871241029689
30
6E-16
41
1
10
-48
20
24.5619948024852
30
6E-16
41
1
10
-48
20
24.5364839242889
30
6E-16
41
1
10
-48
20
24.5105912461293
30
6E-16
41
1
10
-48
20
24.4843201912413
30
6E-16
41
1
10
-48
20
24.4576653970236
30
6E-16
41
1
10
-48
20
24.4306188877464
30
6E-16
41
1
10
-48
20
24.4031822491015
30
6E-16
41
1
10
-48
20
24.3753595566488
30
6E-16
41
1
10
-48
20
24.3471419996425
30
6E-16
41
1
10
-48
20
24.3185219524945
30
6E-16
41
1
10
-48
20
24.2895042247264
30
6E-16
41
1
10
-48
20
24.2600903017438
30
6E-16
41
1
10
-48
20
24.2302669081522
30
6E-16
41
1
10
-48
20
24.200031447771
30
6E-16
41
1
10
-48
20
24.1693920477008
30
6E-16
41
1
10
-48
20
24.1383397900466
30
6E-16
41
1
10
-48
20
24.1068625318529
30
6E-16
41
1
10
-48
20
24.0749682908702
30
6E-16
41
1
10
-48
20
24.0426578132839
30
6E-16
41
1
10
-48
20
24.0099123313603
30
6E-16
41
1
10
-48
20
23.9767350904931
30
6E-16
41
1
10
-48
20
23.931362223658
30
6E-16
41
1
10
-48
20
23.8868460230306
30
6E-16
41
1
10
-48
20
23.8396803349101
30
6E-16
41
1
10
-48
20
23.80431500503
30
6E-16
41
1
10
-48
20
23.7684906816322
30
6E-16
41
1
10
-48
20
23.7322173648913
30
6E-16
41
1
10
-48
20
23.6954996709969
30
6E-16
41
1
10
-48
20
23.6452887017133
30
6E-16
41
1
10
-48
20
23.5828040572555
30
6E-16
41
1
10
-48
20
23.5188086300227
30
6E-16
41
1
10
-48
20
23.4655178994215
30
6E-16
41
1
10
-48
20
23.4255798540755
30
6E-16
41
1
10
-48
20
23.3851691052832
30
6E-16
41
1
10
-48
20
23.3300101572889
30
6E-16
41
1
10
-48
20
23.2759144749469
30
6E-16
41
1
10
-48
20
23.2189273278258
30
6E-16
41
1
10
-48
20
23.1613201031777
30
6E-16
41
1
10
-48
20
23.0896459581185
30
6E-16
41
1
10
-48
20
23.0010737694199
30
6E-16
41
1
10
-48
20
22.9107307083541
30
6E-16
41
1
10
-48
20
22.8186493620192
30
6E-16
41
1
10
-48
20
22.7248602721093
30
6E-16
41
1
10
-48
20
22.6294003829401
30
6E-16
41
1
10
-48
20
22.5323072768625
30
6E-16
41
1
10
-48
20
22.4336181994431
30
6E-16
41
1
10
-48
20
22.3333760510518
30
6E-16
41
1
10
-48
20
22.2316157005898
30
6E-16
41
1
10
-48
20
22.1283851448196
30
6E-16
41
1
10
-48
20
22.0417827560549
30
6E-16
41
1
10
-48
20
21.9707166680161
30
6E-16
41
1
10
-48
20
21.899181962453
30
6E-16
41
1
10
-48
20
21.7732115979765
30
6E-16
41
1
10
-48
20
21.6296712253601
30
6E-16
41
1
10
-48
20
21.4802184626993
30
6E-16
41
1
10
-48
20
21.3677487181843
30
6E-16
41
1
10
-48
20
21.2541036291917
30
6E-16
41
1
10
-48
20
21.0999216970908
30
6E-16
41
1
10
-48
20
20.9068606553803
30
6E-16
41
1
10
-48
20
20.7103951659731
30
6E-16
41
1
10
-48
20
20.549327901557
30
6E-16
41
1
10
-48
20
20.3869303010313
30
6E-16
41
1
10
-48
20
20.1838716452821
30
6E-16
41
1
10
-48
20
19.9354755058282
30
6E-16
41
1
10
-48
20
19.6836921276646
30
6E-16
41
1
10
-48
20
19.4286890423606
30
6E-16
41
1
10
-48
20
19.1706235201793
30
6E-16
41
1
10
-48
20
18.9096395241315
30
6E-16
41
1
10
-48
20
18.6458734827193
30
6E-16
41
1
10
-48
20
18.3794525759083
30
6E-16
41
1
10
-48
20
18.1104949484169
30
6E-16
41
1
10
-48
20
17.839112372518
30
6E-16
41
1
10
-48
20
17.5654088225574
30
6E-16
41
1
10
-48
20
17.2894837652989
30
6E-16
41
1
10
-48
20
17.0114292310895
30
6E-16
41
1
10
-48
20
16.7313328064198
30
6E-16
41
1
10
-48
20
16.449277813141
30
6E-16
41
1
10
-48
20
16.1653417857837
30
6E-16
41
1
10
-48
20
15.8796011967782
30
6E-16
41
1
10
-48
20
15.4946873319397
30
6E-16
41
1
10
-48
20
15.0128846908026
30
6E-16
41
1
10
-48
20
14.5260420966442
30
6E-16
41
1
10
-48
20
14.1309644751403
30
6E-16
41
1
10
-48
20
13.8343890392833
30
6E-16
41
1
10
-48
20
13.5364915789235
30
6E-16
41
1
10
-48
20
13.2373200733796
30
6E-16
41
1
10
-48
20
12.9369255301837
30
6E-16
41
1
10
-48
20
12.6353477532869
30
6E-16
41
1
10
-48
20
12.332637394058
30
6E-16
41
1
10
-48
20
12.0288349128655
30
6E-16
41
1
10
-48
20
11.7239780345696
30
6E-16
41
1
10
-48
20
11.4181140574531
30
6E-16
41
1
10
-48
20
11.1112754187232
30
6E-16
41
1
10
-48
20
10.6995072371838
30
6E-16
41
1
10
-48
20
10.2900990725148
30
6E-16
41
1
10
-48
20
9.87493002848544
30
6E-16
41
1
10
-48
20
9.5637730929877
30
6E-16
41
1
10
-48
20
9.25184903718699
30
6E-16
41
1
10
-48
20
8.93919659208788
30
6E-16
41
1
10
-48
20
8.6258465627443
30
6E-16
41
1
10
-48
20
8.3118222051076
30
6E-16
41
1
10
-48
20
7.99716002032153
30
6E-16
41
1
10
-48
20
7.57546512541987
30
6E-16
41
1
10
-48
20
7.15657313405407
30
6E-16
41
1
10
-48
20
6.73269238463391
30
6E-16
41
1
10
-48
20
6.30813207806699
30
6E-16
41
1
10
-48
20
5.77917841202475
30
6E-16
41
1
10
-48
20
5.24884236567635
30
6E-16
41
1
10
-48
20
4.82150125737036
30
6E-16
41
1
10
-48
20
4.54709520416486
30
6E-16
41
1
10
-48
20
4.37998263699529
30
6E-16
41
1
10
-48
20
4.31962767056984
30
6E-16
0
SPLINE
5
C4
100
AcDbEntity
8
SK1
62
256
6
ByLayer
370
18
48
1
60
0
100
AcDbSpline
70
4
71
3
72
24
73
20
40
0
40
0
40
0
40
0
40
0.249999999999987
40
0.249999999999987
40
0.499999999999974
40
0.499999999999974
40
0.624999999999976
40
0.624999999999976
40
0.749999999999978
40
0.749999999999978
40
0.812499999999979
40
0.812499999999979
40
0.87499999999998
40
0.87499999999998
40
0.906249999999985
40
0.906249999999985
40
0.93749999999999
40
0.93749999999999
40
1
40
1
40
1
40
1
41
1
10
-0.199999999999989
20
20.890593719199
30
0
41
1
10
-0.199999999999989
20
20.9371441575676
30
0
41
1
10
-0.201370224896181
20
20.9830135702877
30
0
41
1
10
-0.207931557952719
20
21.0730494344898
30
0
41
1
10
-0.213034753906612
20
21.1172556348416
30
0
41
1
10
-0.22577371795839
20
21.1816297574383
30
0
41
1
10
-0.230865811746156
20
21.2026958321078
30
0
41
1
10
-0.243817136428163
20
21.2436902841713
30
0
41
1
10
-0.251608954098401
20
21.2636789837451
30
0
41
1
10
-0.267310695713604
20
21.2915321766126
30
0
41
1
10
-0.273218876350484
20
21.300477388173
30
0
41
1
10
-0.287581741531881
20
21.3171594572104
30
0
41
1
10
-0.296059116619489
20
21.3250925923254
30
0
41
1
10
-0.312820523952809
20
21.3339988651795
30
0
41
1
10
-0.319036315930788
20
21.3364124723144
30
0
41
1
10
-0.333385421403932
20
21.3391167208395
30
0
41
1
10
-0.341627539192729
20
21.3392735185935
30
0
41
1
10
-0.3666407878531
20
21.3348990131656
30
0
41
1
10
-0.382346753004356
20
21.3260253368876
30
0
41
1
10
-0.394976888875476
20
21.3163207619745
30
0
0
SPLINE
5
C5
100
AcDbEntity
8
1
62
256
6
ByLayer
370
18
48
1
60
0
100
AcDbSpline
70
2053
71
3
72
90
73
86
40
0
40
0
40
0
40
0
40
0.0312500000000003
40
0.0312500000000003
40
0.0468750000000004
40
0.0468750000000004
40
0.0625000000000005
40
0.0625000000000005
40
0.0937500000000009
40
0.0937500000000009
40
0.125000000000001
40
0.125000000000001
40
0.156250000000002
40
0.156250000000002
40
0.171875000000002
40
0.171875000000002
40
0.187500000000002
40
0.203125000000002
40
0.203125000000002
40
0.218750000000002
40
0.218750000000002
40
0.250000000000002
40
0.250000000000002
40
0.281250000000003
40
0.281250000000003
40
0.312500000000003
40
0.312500000000003
40
0.328125000000003
40
0.328125000000003
40
0.343750000000003
40
0.343750000000003
40
0.375000000000003
40
0.375000000000003
40
0.406250000000004
40
0.406250000000004
40
0.421875000000004
40
0.421875000000004
40
0.437500000000004
40
0.437500000000004
40
0.468750000000004
40
0.468750000000004
40
0.500000000000005
40
0.500000000000005
40
0.531250000000005
40
0.531250000000005
40
0.546875000000005
40
0.546875000000005
40
0.562500000000005
40
0.578125000000006
40
0.578125000000006
40
0.593750000000006
40
0.593750000000006
40
0.625000000000006
40
0.625000000000006
40
0.640625000000006
40
0.640625000000006
40
0.656250000000006
40
0.656250000000006
40
0.687500000000006
40
0.687500000000006
40
0.703125000000006
40
0.703125000000006
40
0.718750000000006
40
0.718750000000006
40
0.750000000000006
40
0.750000000000006
40
0.781250000000006
40
0.781250000000006
40
0.796875000000005
40
0.796875000000005
40
0.812500000000005
40
0.812500000000005
40
0.843750000000004
40
0.843750000000004
40
0.875000000000004
40
0.875000000000004
40
0.906250000000003
40
0.906250000000003
40
0.921875000000002
40
0.921875000000002
40
0.937500000000002
40
0.937500000000002
40
0.968750000000001
40
0.968750000000001
40
1
40
1
40
1
40
1
41
1
10
14
20
2.5E-15
30
9E-16
41
1
10
14
20
-0.132151757737546
30
9E-16
41
1
10
13.9870307446253
20
-0.262091057415375
30
9E-16
41
1
10
13.9489214867526
20
-0.453817985639546
30
9E-16
41
1
10
13.9330860341466
20
-0.517192686656756
30
9E-16
41
1
10
13.8950077937959
20
-0.642849400712578
30
9E-16
41
1
10
13.8726588944398
20
-0.705297623422211
30
8E-16
41
1
10
13.7973634563979
20
-0.886943569639186
30
8E-16
41
1
10
13.735931193073
20
-1.00181013504928
30
8E-16
41
1
10
13.5907959771729
20
-1.21920007085873
30
8E-16
41
1
10
13.5063323791787
20
-1.32211185246416
30
8E-16
41
1
10
13.3218322698752
20
-1.50657772361899
30
8E-16
41
1
10
13.2211582066197
20
-1.58935987577092
30
8E-16
41
1
10
13.0571980290355
20
-1.69901600124299
30
8E-16
41
1
10
13.0003999077065
20
-1.73305619493772
30
8E-16
41
1
10
12.8849516551091
20
-1.79475466798971
30
8E-16
41
1
10
12.7670476546856
20
-1.85049756863245
30
8E-16
41
1
10
12.6443037169562
20
-1.89450613661228
30
8E-16
41
1
10
12.5191055000675
20
-1.93256571974791
30
8E-16
41
1
10
12.4549317894649
20
-1.94868362980088
30
8E-16
41
1
10
12.2613024324991
20
-1.98722025131809
30
8E-16
41
1
10
12.1315234074712
20
-1.99992993921021
30
7E-16
41
1
10
11.8706160400505
20
-2.00006948863532
30
7E-16
41
1
10
11.7381096960176
20
-1.9870870875707
30
7E-16
41
1
10
11.4815881052181
20
-1.93606578717223
30
7E-16
41
1
10
11.3569070882905
20
-1.89831467179653
30
7E-16
41
1
10
11.1752840975834
20
-1.82322117469698
30
7E-16
41
1
10
11.1153370769246
20
-1.79490540934629
30
7E-16
41
1
10
10.9994800878115
20
-1.73299562067513
30
7E-16
41
1
10
10.9434468869506
20
-1.6993942241032
30
7E-16
41
1
10
10.7808966269003
20
-1.59083871091175
30
7E-16
41
1
10
10.6798746107155
20
-1.50820922238722
30
7E-16
41
1
10
10.4930950154537
20
-1.32161396386272
30
6E-16
41
1
10
10.4102018608276
20
-1.22045610922399
30
6E-16
41
1
10
10.3015357233297
20
-1.05804627041508
30
6E-16
41
1
10
10.2679105093384
20
-1.00208266098468
30
6E-16
41
1
10
10.2059653843003
20
-0.886421717230462
30
6E-16
41
1
10
10.1775713415401
20
-0.826471137195284
30
6E-16
41
1
10
10.102230563506
20
-0.644727996197162
30
6E-16
41
1
10
10.0643845359671
20
-0.520063038379703
30
6E-16
41
1
10
10.0131733571449
20
-0.263804245101284
30
6E-16
41
1
10
10.0000467249604
20
-0.131242899862144
30
6E-16
41
1
10
9.99995352992329
20
0.129814939970998
30
6E-16
41
1
10
10.0125626527623
20
0.259555254877029
30
6E-16
41
1
10
10.0508596730802
20
0.452958078476627
30
6E-16
41
1
10
10.0669373963465
20
0.517260417927332
30
6E-16
41
1
10
10.104919618997
20
0.642619211232415
30
6E-16
41
1
10
10.1488469875917
20
0.765465770780708
30
6E-16
41
1
10
10.2044691368848
20
0.883371597329983
30
6E-16
41
1
10
10.2660103701123
20
0.998777464108343
30
6E-16
41
1
10
10.2999226932331
20
1.05549593130473
30
6E-16
41
1
10
10.4095666529846
20
1.21977859000691
30
6E-16
41
1
10
10.4923076739919
20
1.32055479774297
30
6E-16
41
1
10
10.6304713417178
20
1.45898647529032
30
7E-16
41
1
10
10.6788848934284
20
1.50299287722007
30
7E-16
41
1
10
10.7805687889918
20
1.58660651561905
30
7E-16
41
1
10
10.8336441546037
20
1.62600455002786
30
7E-16
41
1
10
10.9967144556555
20
1.73508649228643
30
7E-16
41
1
10
11.111521111
20
1.79659505582373
30
7E-16
41
1
10
11.292908344679
20
1.87197984061731
30
7E-16
41
1
10
11.3552715742923
20
1.89437215483784
30
7E-16
41
1
10
11.4810480712227
20
1.93261726670303
30
7E-16
41
1
10
11.5444567479349
20
1.94851956810376
30
7E-16
41
1
10
11.7362052100583
20
1.98680772998813
30
7E-16
41
1
10
11.866052664222
20
1.99986637939958
30
7E-16
41
1
10
12.1299269269249
20
2.00013160013901
30
7E-16
41
1
10
12.2603787518473
20
1.98725404833223
30
8E-16
41
1
10
12.4520985599965
20
1.94932060698227
30
8E-16
41
1
10
12.5154437838847
20
1.93355049746492
30
8E-16
41
1
10
12.6409894102062
20
1.89563509056876
30
8E-16
41
1
10
12.7034703133278
20
1.87334871477893
30
8E-16
41
1
10
12.8853943475445
20
1.79813803834011
30
8E-16
41
1
10
13.0003277512347
20
1.73677856335158
30
8E-16
41
1
10
13.2176872917266
20
1.59194630800641
30
8E-16
41
1
10
13.3207180030268
20
1.50756127666747
30
8E-16
41
1
10
13.5054565856134
20
1.3231165917104
30
8E-16
41
1
10
13.5882857437754
20
1.22253675709064
30
8E-16
41
1
10
13.6979573419142
20
1.05889224976815
30
8E-16
41
1
10
13.7321010430774
20
1.00205705811769
30
8E-16
41
1
10
13.7939682042173
20
0.886549746720817
30
8E-16
41
1
10
13.8219045498343
20
0.82759032232795
30
8E-16
41
1
10
13.896880309649
20
0.647157486348448
30
9E-16
41
1
10
13.9352715747056
20
0.52166238776951
30
9E-16
41
1
10
13.9870292492644
20
0.262911538820134
30
9E-16
41
1
10
14
20
0.132151757737546
30
9E-16
41
1
10
14
20
2.4E-15
30
9E-16
0
SPLINE
5
C6
100
AcDbEntity
8
SK1
62
256
6
ByLayer
370
18
48
1
60
0
100
AcDbSpline
70
4
71
3
72
24
73
20
40
0
40
0
40
0
40
0
40
0.0624999999999984
40
0.0624999999999984
40
0.0937499999999992
40
0.0937499999999992
40
0.125
40
0.125
40
0.187500000000002
40
0.187500000000002
40
0.250000000000003
40
0.250000000000003
40
0.375000000000001
40
0.375000000000001
40
0.499999999999999
40
0.499999999999999
40
0.75
40
0.75
40
1
40
1
40
1
40
1
41
1
10
-0.394976888875306
20
27.1987924685777
30
0
41
1
10
-0.382349964116088
20
27.1976986124495
30
0
41
1
10
-0.366613768654787
20
27.198185626277
30
0
41
1
10
-0.341634338384523
20
27.2045204221557
30
0
41
1
10
-0.333397026160156
20
27.2075133993406
30
0
41
1
10
-0.318988520955969
20
27.2141108040131
30
0
41
1
10
-0.312743256447703
20
27.2176663061609
30
0
41
1
10
-0.296018029478745
20
27.2284672633262
30
0
41
1
10
-0.287604834338794
20
27.2357099511214
30
0
41
1
10
-0.273096832408669
20
27.2498684802421
30
0
41
1
10
-0.267166879186334
20
27.2567338906934
30
0
41
1
10
-0.251432211917717
20
27.2769335026168
30
0
41
1
10
-0.243675314291238
20
27.2898897473708
30
0
41
1
10
-0.230717844125166
20
27.3150624889474
30
0
41
1
10
-0.225652950983005
20
27.3271732528586
30
0
41
1
10
-0.2129971977281
20
27.3624934965768
30
0
41
1
10
-0.207912732468884
20
27.3846995172472
30
0
41
1
10
-0.201370131249092
20
27.4272627330152
30
0
41
1
10
-0.200000000000159
20
27.447599582285
30
0
41
1
10
-0.200000000000159
20
27.4671667607655
30
0
0
SPLINE
5
C7
100
AcDbEntity
8
SK1
62
256
6
ByLayer
370
18
48
1
60
0
100
AcDbSpline
70
4
71
3
72
153
73
149
40
0
40
0
40
0
40
0
40
0.0029821311241843
40
0.013170181512791
40
0.0335462822900043
40
0.0539223830672176
40
0.0641104334558243
40
0.074298483844431
40
0.0946745846216443
40
0.104862635010251
40
0.115050685398858
40
0.125238735787464
40
0.135426786176071
40
0.145614836564678
40
0.155802886953284
40
0.165990937341891
40
0.176178987730498
40
0.196555088507711
40
0.206743138896318
40
0.216931189284924
40
0.227119239673531
40
0.237307290062138
40
0.247495340450744
40
0.257683390839351
40
0.267871441227958
40
0.278059491616564
40
0.288247542005171
40
0.298435592393778
40
0.308623642782384
40
0.318811693170991
40
0.339187793948204
40
0.359563894725418
40
0.369751945114024
40
0.379939995502631
40
0.390128045891238
40
0.400316096279844
40
0.410504146668451
40
0.420692197057058
40
0.430880247445664
40
0.441068297834271
40
0.451256348222878
40
0.461444398611484
40
0.471632449000091
40
0.481820499388698
40
0.492008549777304
40
0.502196600165911
40
0.512384650554518
40
0.522572700943124
40
0.532760751331731
40
0.542948801720338
40
0.548042826914641
40
0.553136852108944
40
0.563324902497551
40
0.573512952886158
40
0.578606978080461
40
0.583701003274764
40
0.588795028469068
40
0.593889053663371
40
0.604077104051978
40
0.609171129246281
40
0.611718141843433
40
0.614265154440584
40
0.619359179634888
40
0.624453204829191
40
0.629547230023494
40
0.634641255217798
40
0.639735280412101
40
0.644829305606404
40
0.649923330800708
40
0.655017355995011
40
0.660111381189314
40
0.665205406383618
40
0.670299431577921
40
0.675393456772224
40
0.677940469369376
40
0.680487481966528
40
0.685581507160831
40
0.688128519757983
40
0.690675532355134
40
0.693222544952286
40
0.695769557549438
40
0.700863582743741
40
0.705957607938044
40
0.708504620535196
40
0.711051633132348
40
0.713598645729499
40
0.716145658326651
40
0.718692670923803
40
0.721239683520954
40
0.726333708715258
40
0.728880721312409
40
0.731427733909561
40
0.733974746506713
40
0.736521759103864
40
0.739068771701016
40
0.741615784298168
40
0.744162796895319
40
0.746709809492471
40
0.749256822089623
40
0.751803834686774
40
0.754350847283926
40
0.756897859881078
40
0.759444872478229
40
0.761991885075381
40
0.764538897672533
40
0.767085910269684
40
0.769632922866836
40
0.772179935463988
40
0.774726948061139
40
0.777273960658291
40
0.779820973255443
40
0.782367985852594
40
0.784914998449746
40
0.787462011046898
40
0.790009023644049
40
0.792556036241201
40
0.795103048838353
40
0.797650061435504
40
0.800197074032656
40
0.802744086629808
40
0.807838111824111
40
0.812932137018414
40
0.818026162212718
40
0.823120187407021
40
0.828214212601324
40
0.833308237795628
40
0.838402262989931
40
0.843496288184234
40
0.848590313378538
40
0.858778363767144
40
0.863872388961448
40
0.868966414155751
40
0.871513426752903
40
0.874060439350054
40
0.879154464544358
40
0.884248489738661
40
0.889342514932964
40
0.899530565321571
40
0.909718615710178
40
0.919906666098784
40
0.930094716487391
40
0.940282766875998
40
0.950470817264604
40
0.960658867653211
40
0.970846918041818
40
0.981034968430424
40
0.991223018819031
40
1
40
1
40
1
40
1
41
1
10
-46.5
20
4.82700790508889
30
7E-16
41
1
10
-46.5
20
4.85892796501844
30
7E-16
41
1
10
-46.5
20
4.99988985389319
30
7E-16
41
1
10
-46.5
20
5.35870125458527
30
7E-16
41
1
10
-46.5
20
5.90104541596506
30
7E-16
41
1
10
-46.5
20
6.44205735304988
30
7E-16
41
1
10
-46.5
20
6.87526877917514
30
7E-16
41
1
10
-46.5
20
7.30783522348651
30
7E-16
41
1
10
-46.5
20
7.7371983796487
30
7E-16
41
1
10
-46.5
20
8.16766142358111
30
7E-16
41
1
10
-46.5
20
8.48936778616644
30
7E-16
41
1
10
-46.5
20
8.81046369707292
30
7E-16
41
1
10
-46.5
20
9.13091702475543
30
7E-16
41
1
10
-46.5
20
9.45070274611902
30
7E-16
41
1
10
-46.5
20
9.7697916439237
30
7E-16
41
1
10
-46.5
20
10.0881495163677
30
7E-16
41
1
10
-46.5
20
10.5123690030052
30
7E-16
41
1
10
-46.5
20
10.9327169156847
30
7E-16
41
1
10
-46.5
20
11.3536691065568
30
7E-16
41
1
10
-46.5
20
11.6679041659571
30
7E-16
41
1
10
-46.5
20
11.9812103954097
30
7E-16
41
1
10
-46.5
20
12.2935548131489
30
7E-16
41
1
10
-46.5
20
12.60489559679
30
7E-16
41
1
10
-46.5
20
12.9151954998473
30
7E-16
41
1
10
-46.5
20
13.2244156985162
30
7E-16
41
1
10
-46.5
20
13.5325107306832
30
7E-16
41
1
10
-46.5
20
13.8394406575254
30
7E-16
41
1
10
-46.5
20
14.1451589095571
30
7E-16
41
1
10
-46.5
20
14.4496194421083
30
7E-16
41
1
10
-46.5
20
14.8546485950547
30
7E-16
41
1
10
-46.5
20
15.3556270147345
30
7E-16
41
1
10
-46.5
20
15.851781161125
30
7E-16
41
1
10
-46.5
20
16.2471071389276
30
7E-16
41
1
10
-46.5
20
16.5412815530216
30
7E-16
41
1
10
-46.5
20
16.8337453892906
30
7E-16
41
1
10
-46.5
20
17.124427912667
30
7E-16
41
1
10
-46.5
20
17.4132562258284
30
7E-16
41
1
10
-46.5
20
17.7001528011431
30
7E-16
41
1
10
-46.5
20
17.9850357433583
30
7E-16
41
1
10
-46.5
20
18.2678190647201
30
7E-16
41
1
10
-46.5
20
18.5484103078408
30
7E-16
41
1
10
-46.5
20
18.8267124130947
30
7E-16
41
1
10
-46.5
20
19.1026213295552
30
7E-16
41
1
10
-46.5
20
19.3760268328739
30
7E-16
41
1
10
-46.5
20
19.6468105513841
30
7E-16
41
1
10
-46.5
20
19.9148456714132
30
7E-16
41
1
10
-46.5
20
20.1799973365514
30
7E-16
41
1
10
-46.5
20
20.4421194893073
30
7E-16
41
1
10
-46.5
20
20.7010552970549
30
7E-16
41
1
10
-46.5
20
20.9135010299444
30
7E-16
41
1
10
-46.5
20
21.0827107110901
30
7E-16
41
1
10
-46.5
20
21.2506856700283
30
7E-16
41
1
10
-46.5
20
21.4569887890277
30
7E-16
41
1
10
-46.5
20
21.660054927694
30
7E-16
41
1
10
-46.5
20
21.8215085204177
30
7E-16
41
1
10
-46.5
20
21.9410500249252
30
7E-16
41
1
10
-46.5
20
22.0594845023435
30
7E-16
41
1
10
-46.5
20
22.2164947118972
30
7E-16
41
1
10
-46.5
20
22.3692477366041
30
7E-16
41
1
10
-46.5
20
22.5022223549856
30
7E-16
41
1
10
-46.5
20
22.5776942937926
30
7E-16
41
1
10
-46.5
20
22.6527263591553
30
7E-16
41
1
10
-46.5
20
22.7449326376601
30
7E-16
41
1
10
-46.5
20
22.8546321957639
30
7E-16
41
1
10
-46.5
20
22.962931366646
30
7E-16
41
1
10
-46.5
20
23.0697843064496
30
7E-16
41
1
10
-46.5
20
23.175150897439
30
7E-16
41
1
10
-46.5
20
23.2789873205296
30
7E-16
41
1
10
-46.5
20
23.3812503524585
30
7E-16
41
1
10
-46.5
20
23.4818982267698
30
7E-16
41
1
10
-46.5
20
23.5808865582828
30
7E-16
41
1
10
-46.5
20
23.6781767370349
30
7E-16
41
1
10
-46.5
20
23.7737261469065
30
7E-16
41
1
10
-46.5
20
23.8515134182586
30
7E-16
41
1
10
-46.5
20
23.9134930516922
30
7E-16
41
1
10
-46.5
20
23.974857192748
30
7E-16
41
1
10
-46.5
20
24.0341976185653
30
7E-16
41
1
10
-46.5
20
24.0937095464722
30
7E-16
41
1
10
-46.5
20
24.1375957309947
30
7E-16
41
1
10
-46.5
20
24.1810020890387
30
7E-16
41
1
10
-46.5
20
24.2386080187153
30
7E-16
41
1
10
-46.5
20
24.3086034761083
30
7E-16
41
1
10
-46.5
20
24.3770040182904
30
7E-16
41
1
10
-46.5
20
24.4313909987554
30
7E-16
41
1
10
-46.5
20
24.4714252074336
30
7E-16
41
1
10
-46.5
20
24.5109785908905
30
7E-16
41
1
10
-46.5
20
24.5500476673533
30
7E-16
41
1
10
-46.5
20
24.588625072621
30
7E-16
41
1
10
-46.5
20
24.6397523466567
30
7E-16
41
1
10
-46.5
20
24.6889267342528
30
7E-16
41
1
10
-46.5
20
24.7381004401964
30
7E-16
41
1
10
-46.5
20
24.7742656141671
30
7E-16
41
1
10
-46.5
20
24.8099504868807
30
7E-16
41
1
10
-46.5
20
24.8451525721133
30
7E-16
41
1
10
-46.5
20
24.8798823966752
30
7E-16
41
1
10
-46.5
20
24.9141403389806
30
7E-16
41
1
10
-46.5
20
24.9479219399843
30
7E-16
41
1
10
-46.5
20
24.981234272757
30
7E-16
41
1
10
-46.5
20
25.014083346911
30
7E-16
41
1
10
-46.5
20
25.0464656319554
30
7E-16
41
1
10
-46.5
20
25.0783829554295
30
7E-16
41
1
10
-46.5
20
25.1098440364668
30
7E-16
41
1
10
-46.5
20
25.1408494880617
30
7E-16
41
1
10
-46.5
20
25.1713977683657
30
7E-16
41
1
10
-46.5
20
25.2014941441628
30
7E-16
41
1
10
-46.5
20
25.2311453524975
30
7E-16
41
1
10
-46.5
20
25.260350808759
30
7E-16
41
1
10
-46.5
20
25.2891109847181
30
7E-16
41
1
10
-46.5
20
25.317431818843
30
7E-16
41
1
10
-46.5
20
25.345318341831
30
7E-16
41
1
10
-46.5
20
25.3727704851234
30
7E-16
41
1
10
-46.5
20
25.3997899342056
30
7E-16
41
1
10
-46.5
20
25.4263822967894
30
7E-16
41
1
10
-46.5
20
25.4525518287925
30
7E-16
41
1
10
-46.5
20
25.4782990856341
30
7E-16
41
1
10
-46.5
20
25.5036260121478
30
7E-16
41
1
10
-46.5
20
25.5285378155076
30
7E-16
41
1
10
-46.5
20
25.5530387199146
30
7E-16
41
1
10
-46.5
20
25.5771297848421
30
7E-16
41
1
10
-46.5
20
25.6088679698876
30
7E-16
41
1
10
-46.5
20
25.6471854164017
30
7E-16
41
1
10
-46.5
20
25.6917528687099
30
7E-16
41
1
10
-46.5
20
25.734752483592
30
7E-16
41
1
10
-46.5
20
25.7762110993864
30
7E-16
41
1
10
-46.5
20
25.8161487389046
30
7E-16
41
1
10
-46.5
20
25.8545907197494
30
7E-16
41
1
10
-46.5
20
25.8915581551264
30
7E-16
41
1
10
-46.5
20
25.9270726265941
30
7E-16
41
1
10
-46.5
20
25.9727103257472
30
7E-16
41
1
10
-46.5
20
26.01499550928
30
7E-16
41
1
10
-46.5
20
26.0550329884378
30
7E-16
41
1
10
-46.5
20
26.0787644951989
30
7E-16
41
1
10
-46.5
20
26.0972111083439
30
7E-16
41
1
10
-46.5
20
26.1152171455905
30
7E-16
41
1
10
-46.5
20
26.1367598989903
30
7E-16
41
1
10
-46.5
20
26.1613901976487
30
7E-16
41
1
10
-46.5
20
26.1926412506436
30
7E-16
41
1
10
-46.5
20
26.2283241797214
30
7E-16
41
1
10
-46.5
20
26.2663520342597
30
7E-16
41
1
10
-46.5
20
26.2996015313431
30
7E-16
41
1
10
-46.5
20
26.328191651988
30
-2E-16
41
1
10
-46.5
20
26.3522324818741
30
-2E-16
41
1
10
-46.5
20
26.3718316446083
30
-2E-16
41
1
10
-46.5
20
26.3870880567457
30
-2E-16
41
1
10
-46.5
20
26.3980963073417
30
-2E-16
41
1
10
-46.5
20
26.4049466654271
30
-2E-16
41
1
10
-46.5
20
26.4075959614858
30
-2E-16
41
1
10
-46.5
20
26.4070139211371
30
-2E-16
41
1
10
-46.5
20
26.4062590125865
30
-2E-16
0
SPLINE
5
C8
100
AcDbEntity
8
SK1
62
256
6
ByLayer
370
18
48
1
60
0
100
AcDbSpline
70
4
71
3
72
152
73
148
40
0
40
0
40
0
40
0
40
0.0087037442063964
40
0.0188925473452725
40
0.0290813504841487
40
0.0392701536230248
40
0.0494589567619004
40
0.059647759900776
40
0.0698365630396521
40
0.0800253661785282
40
0.0902141693174044
40
0.10040297245628
40
0.110591775595156
40
0.115686177164594
40
0.120780578734032
40
0.12587498030347
40
0.128422181088189
40
0.130969381872908
40
0.136063783442345
40
0.141158185011784
40
0.15134698815066
40
0.156441389720098
40
0.161535791289535
40
0.166630192858974
40
0.171724594428412
40
0.176818995997849
40
0.181913397567287
40
0.187007799136725
40
0.192102200706164
40
0.197196602275602
40
0.19974380306032
40
0.202291003845039
40
0.204838204629758
40
0.207385405414477
40
0.209932606199196
40
0.212479806983915
40
0.215027007768635
40
0.217574208553353
40
0.220121409338072
40
0.222668610122791
40
0.22521581090751
40
0.227763011692229
40
0.230310212476948
40
0.232857413261667
40
0.235404614046386
40
0.237951814831105
40
0.240499015615824
40
0.243046216400543
40
0.245593417185262
40
0.248140617969981
40
0.2506878187547
40
0.253235019539419
40
0.255782220324138
40
0.258329421108857
40
0.260876621893576
40
0.263423822678294
40
0.265971023463014
40
0.268518224247733
40
0.271065425032452
40
0.273612625817171
40
0.278707027386609
40
0.281254228171328
40
0.283801428956047
40
0.286348629740765
40
0.288895830525484
40
0.291443031310204
40
0.293990232094923
40
0.299084633664361
40
0.304179035233798
40
0.306726236018518
40
0.309273436803236
40
0.311820637587955
40
0.314367838372674
40
0.319462239942113
40
0.322009440726831
40
0.324556641511551
40
0.329651043080988
40
0.334745444650426
40
0.339839846219864
40
0.344934247789302
40
0.350028649358741
40
0.355123050928178
40
0.360217452497616
40
0.365311854067054
40
0.370406255636492
40
0.37550065720593
40
0.380595058775368
40
0.385689460344806
40
0.388236661129525
40
0.390783861914244
40
0.395878263483682
40
0.406067066622558
40
0.411161468191996
40
0.416255869761434
40
0.421350271330872
40
0.42644467290031
40
0.436633476039186
40
0.446822279178062
40
0.4519166807475
40
0.457011082316937
40
0.467199885455813
40
0.47738868859469
40
0.487577491733565
40
0.497766294872441
40
0.507955098011317
40
0.518143901150193
40
0.528332704289069
40
0.538521507427945
40
0.548710310566821
40
0.558899113705697
40
0.569087916844572
40
0.579276719983449
40
0.589465523122324
40
0.5996543262612
40
0.609843129400077
40
0.620031932538952
40
0.630220735677828
40
0.640409538816704
40
0.660787145094456
40
0.681164751372208
40
0.691353554511083
40
0.701542357649959
40
0.711731160788836
40
0.721919963927711
40
0.732108767066587
40
0.742297570205463
40
0.75248637334434
40
0.762675176483215
40
0.772863979622091
40
0.783052782760967
40
0.793241585899843
40
0.803430389038719
40
0.823807995316471
40
0.833996798455347
40
0.844185601594222
40
0.854374404733098
40
0.864563207871974
40
0.87475201101085
40
0.884940814149726
40
0.905318420427478
40
0.92569602670523
40
0.935884829844106
40
0.946073632982982
40
0.966451239260734
40
0.986828845538485
40
0.997017648677362
40
1
40
1
40
1
40
1
41
1
10
-46.4999999999999
20
-26.4062780055285
30
-2E-16
41
1
10
-46.5
20
-26.4070184492016
30
-2E-16
41
1
10
-46.5
20
-26.4075892299878
30
-2E-16
41
1
10
-46.5
20
-26.4049465213071
30
-2E-16
41
1
10
-46.5
20
-26.3980962180074
30
-2E-16
41
1
10
-46.5
20
-26.3870878780763
30
-2E-16
41
1
10
-46.5
20
-26.3718317367534
30
-2E-16
41
1
10
-46.5
20
-26.3522328094326
30
-2E-16
41
1
10
-46.5
20
-26.3281915029107
30
-2E-16
41
1
10
-46.5
20
-26.2996014882383
30
7E-16
41
1
10
-46.5
20
-26.2663520162993
30
7E-16
41
1
10
-46.5
20
-26.2283241004913
30
7E-16
41
1
10
-46.5
20
-26.1926412252499
30
7E-16
41
1
10
-46.5
20
-26.1613902102887
30
7E-16
41
1
10
-46.5
20
-26.1367599044187
30
7E-16
41
1
10
-46.5
20
-26.1152171195721
30
7E-16
41
1
10
-46.5
20
-26.0972110570429
30
7E-16
41
1
10
-46.5
20
-26.078764425378
30
7E-16
41
1
10
-46.5
20
-26.0550329301748
30
7E-16
41
1
10
-46.5
20
-26.0149955219522
30
7E-16
41
1
10
-46.5
20
-25.9727103343454
30
7E-16
41
1
10
-46.5
20
-25.9270725726199
30
7E-16
41
1
10
-46.5
20
-25.8915580817869
30
7E-16
41
1
10
-46.5
20
-25.8545906933448
30
7E-16
41
1
10
-46.5
20
-25.816148763996
30
7E-16
41
1
10
-46.5
20
-25.776211110766
30
7E-16
41
1
10
-46.5
20
-25.7347524284128
30
7E-16
41
1
10
-46.5
20
-25.6917527960469
30
7E-16
41
1
10
-46.5
20
-25.6471854106749
30
7E-16
41
1
10
-46.5
20
-25.608868004704
30
7E-16
41
1
10
-46.5
20
-25.5771298077133
30
7E-16
41
1
10
-46.5
20
-25.5530387067712
30
7E-16
41
1
10
-46.5
20
-25.5285377630347
30
7E-16
41
1
10
-46.5
20
-25.5036259398217
30
7E-16
41
1
10
-46.5
20
-25.4782990183021
30
7E-16
41
1
10
-46.5
20
-25.4525517959885
30
7E-16
41
1
10
-46.5
20
-25.4263823060749
30
7E-16
41
1
10
-46.5
20
-25.3997899680097
30
7E-16
41
1
10
-46.5
20
-25.3727705174225
30
7E-16
41
1
10
-46.5
20
-25.345318340218
30
7E-16
41
1
10
-46.5
20
-25.317431775417
30
7E-16
41
1
10
-46.5
20
-25.2891109187782
30
7E-16
41
1
10
-46.5
20
-25.260350747674
30
7E-16
41
1
10
-46.5
20
-25.2311453283024
30
7E-16
41
1
10
-46.5
20
-25.2014941605671
30
7E-16
41
1
10
-46.5
20
-25.1713978016666
30
7E-16
41
1
10
-46.5
20
-25.1408495100833
30
7E-16
41
1
10
-46.5
20
-25.1098440207521
30
7E-16
41
1
10
-46.5
20
-25.0783829070239
30
7E-16
41
1
10
-46.5
20
-25.0464655769123
30
7E-16
41
1
10
-46.5
20
-25.014083313184
30
7E-16
41
1
10
-46.5
20
-24.9812342742657
30
7E-16
41
1
10
-46.5
20
-24.94792196297
30
7E-16
41
1
10
-46.5
20
-24.9141403596021
30
7E-16
41
1
10
-46.5
20
-24.879882393271
30
7E-16
41
1
10
-46.5
20
-24.8451525436796
30
7E-16
41
1
10
-46.5
20
-24.8099504489611
30
7E-16
41
1
10
-46.5
20
-24.7742655854362
30
7E-16
41
1
10
-46.5
20
-24.7381004314073
30
7E-16
41
1
10
-46.5
20
-24.6889267454101
30
7E-16
41
1
10
-46.5
20
-24.6397523576787
30
7E-16
41
1
10
-46.5
20
-24.5886250677213
30
7E-16
41
1
10
-46.5
20
-24.5500476481302
30
7E-16
41
1
10
-46.5
20
-24.5109785619908
30
7E-16
41
1
10
-46.5
20
-24.4714251819179
30
7E-16
41
1
10
-46.5
20
-24.431390989837
30
7E-16
41
1
10
-46.5
20
-24.3770040418507
30
7E-16
41
1
10
-46.5
20
-24.3086034956714
30
7E-16
41
1
10
-46.5
20
-24.2386079887548
30
7E-16
41
1
10
-46.5
20
-24.1810020398935
30
7E-16
41
1
10
-46.5
20
-24.1375957057968
30
7E-16
41
1
10
-46.5
20
-24.0937095684986
30
7E-16
41
1
10
-46.5
20
-24.0341976801581
30
7E-16
41
1
10
-46.5
20
-23.9748572190811
30
7E-16
41
1
10
-46.5
20
-23.9134930064959
30
7E-16
41
1
10
-46.5
20
-23.8515133444305
30
7E-16
41
1
10
-46.5
20
-23.7737261609588
30
7E-16
41
1
10
-46.5
20
-23.6781768238849
30
7E-16
41
1
10
-46.5
20
-23.5808865417781
30
7E-16
41
1
10
-46.5
20
-23.4818981366578
30
7E-16
41
1
10
-46.5
20
-23.3812503799223
30
7E-16
41
1
10
-46.5
20
-23.2789874344104
30
7E-16
41
1
10
-46.5
20
-23.1751508968419
30
7E-16
41
1
10
-46.5
20
-23.0697841988273
30
7E-16
41
1
10
-46.5
20
-22.9629313533674
30
7E-16
41
1
10
-46.5
20
-22.8546323101868
30
7E-16
41
1
10
-46.5
20
-22.7449327225071
30
7E-16
41
1
10
-46.5
20
-22.6527263130538
30
7E-16
41
1
10
-46.5
20
-22.5776941743401
30
7E-16
41
1
10
-46.5
20
-22.5022222558222
30
7E-16
41
1
10
-46.5
20
-22.3692478284799
30
7E-16
41
1
10
-46.5
20
-22.2164948241693
30
7E-16
41
1
10
-46.5
20
-22.0594844300155
30
7E-16
41
1
10
-46.5
20
-21.9410499034434
30
7E-16
41
1
10
-46.5
20
-21.8215085185374
30
7E-16
41
1
10
-46.5
20
-21.6600550802349
30
7E-16
41
1
10
-46.5
20
-21.4569887836266
30
7E-16
41
1
10
-46.5
20
-21.2506855501777
30
7E-16
41
1
10
-46.5
20
-21.0827107381813
30
7E-16
41
1
10
-46.5
20
-20.9135011896809
30
7E-16
41
1
10
-46.5
20
-20.7010553069782
30
7E-16
41
1
10
-46.5
20
-20.4421193888192
30
7E-16
41
1
10
-46.5
20
-20.1799974310524
30
7E-16
41
1
10
-46.5
20
-19.9148457683671
30
7E-16
41
1
10
-46.5
20
-19.646810455787
30
7E-16
41
1
10
-46.5
20
-19.376026810682
30
7E-16
41
1
10
-46.5
20
-19.102621473444
30
7E-16
41
1
10
-46.5
20
-18.8267124511453
30
7E-16
41
1
10
-46.5
20
-18.5484101998583
30
7E-16
41
1
10
-46.5
20
-18.2678190691654
30
7E-16
41
1
10
-46.5
20
-17.9850358635911
30
7E-16
41
1
10
-46.5
20
-17.7001527189995
30
7E-16
41
1
10
-46.5
20
-17.4132560708291
30
7E-16
41
1
10
-46.5
20
-17.1244286218152
30
7E-16
41
1
10
-46.5
20
-16.8337461229597
30
7E-16
41
1
10
-46.5
20
-16.5412805412759
30
7E-16
41
1
10
-46.5
20
-16.2471057977295
30
7E-16
41
1
10
-46.5
20
-15.8517825731278
30
7E-16
41
1
10
-46.5
20
-15.3556269176345
30
7E-16
41
1
10
-46.5
20
-14.8546471096911
30
7E-16
41
1
10
-46.5
20
-14.4496198475884
30
7E-16
41
1
10
-46.5
20
-14.1451597890608
30
7E-16
41
1
10
-46.5
20
-13.8394409993008
30
7E-16
41
1
10
-46.5
20
-13.5325107535211
30
7E-16
41
1
10
-46.5
20
-13.2244156163385
30
7E-16
41
1
10
-46.5
20
-12.9151953737325
30
7E-16
41
1
10
-46.5
20
-12.604895589683
30
7E-16
41
1
10
-46.5
20
-12.2935548590669
30
7E-16
41
1
10
-46.5
20
-11.9812103366023
30
7E-16
41
1
10
-46.5
20
-11.6679041936262
30
7E-16
41
1
10
-46.5
20
-11.3536691137507
30
7E-16
41
1
10
-46.5
20
-10.9327169587592
30
7E-16
41
1
10
-46.5
20
-10.5123688045452
30
7E-16
41
1
10
-46.5
20
-10.0881495136534
30
7E-16
41
1
10
-46.5
20
-9.76979243949961
30
7E-16
41
1
10
-46.5
20
-9.45070339727783
30
7E-16
41
1
10
-46.5
20
-9.13091619317717
30
7E-16
41
1
10
-46.5
20
-8.81046225377958
30
7E-16
41
1
10
-46.5
20
-8.38158621215143
30
7E-16
41
1
10
-46.5
20
-7.84562948006777
30
7E-16
41
1
10
-46.5
20
-7.30783507210012
30
7E-16
41
1
10
-46.5
20
-6.87526878601795
30
7E-16
41
1
10
-46.5
20
-6.44205735864023
30
7E-16
41
1
10
-46.5
20
-5.90104542683105
30
7E-16
41
1
10
-46.5
20
-5.35870125850985
30
7E-16
41
1
10
-46.5
20
-4.99988985213852
30
7E-16
41
1
10
-46.5
20
-4.85892796588951
30
7E-16
41
1
10
-46.5
20
-4.82700790782994
30
7E-16
0
SPLINE
5
C9
100
AcDbEntity
8
SK1
62
256
6
ByLayer
370
13
48
1
60
0
100
AcDbSpline
70
4
71
3
72
17
73
13
40
0
40
0
40
0
40
0
40
0.0194543439657353
40
0.13487697850157
40
0.250299613037407
40
0.365722247573238
40
0.481144882109073
40
0.596567516644909
40
0.711990151180744
40
0.827412785716575
40
0.942835420252412
40
1
40
1
40
1
40
1
41
1
10
-0.394976888875306
20
-27.3653833917459
30
0
41
1
10
-0.394976888875306
20
-27.3653769488769
30
0
41
1
10
-0.394976888875306
20
-27.3651969155213
30
0
41
1
10
-0.394976888875306
20
-27.3631150618
30
0
41
1
10
-0.394976888875306
20
-27.3560062031805
30
0
41
1
10
-0.394976888875306
20
-27.3445720179269
30
0
41
1
10
-0.394976888875306
20
-27.3287103178519
30
0
41
1
10
-0.394976888875306
20
-27.3083122343077
30
0
41
1
10
-0.394976888875306
20
-27.2832625540231
30
0
41
1
10
-0.394976888875306
20
-27.2534374285165
30
0
41
1
10
-0.394976888875306
20
-27.2245496739057
30
0
41
1
10
-0.394976888875306
20
-27.2053581271127
30
0
41
1
10
-0.394976888875306
20
-27.1987923911124
30
0
0
SPLINE
5
CA
100
AcDbEntity
8
1
62
256
6
ByLayer
370
18
48
1
60
0
100
AcDbSpline
70
4
71
3
72
16
73
12
40
0
40
0
40
0
40
0
40
0.124999999999998
40
0.124999999999998
40
0.249999999999996
40
0.249999999999996
40
0.499999999999997
40
0.499999999999997
40
0.749999999999999
40
0.749999999999999
40
1
40
1
40
1
40
1
41
1
10
10.5386751345948
20
38.1154578595255
30
6E-16
41
1
10
10.5070097812327
20
38.1154578595255
30
6E-16
41
1
10
10.4761852218639
20
38.1134542929028
30
6E-16
41
1
10
10.4179414896383
20
38.1062685963607
30
6E-16
41
1
10
10.3914602024633
20
38.101260466828
30
6E-16
41
1
10
10.3176492454754
20
38.0832729594607
30
6E-16
41
1
10
10.2787320432277
20
38.0682137252776
30
6E-16
41
1
10
10.2123318812525
20
38.0356330717498
30
6E-16
41
1
10
10.1856242795051
20
38.0183244490836
30
6E-16
41
1
10
10.1400321601288
20
37.9823481941392
30
6E-16
41
1
10
10.1212495620848
20
37.9636126331776
30
6E-16
41
1
10
10.1056624327025
20
37.9445010117191
30
6E-16
0
SPLINE
5
CB
100
AcDbEntity
8
1
62
256
6
ByLayer
370
18
48
1
60
0
100
AcDbSpline
70
4
71
3
72
16
73
12
40
0
40
0
40
0
40
0
40
0.250000000000001
40
0.250000000000001
40
0.500000000000002
40
0.500000000000002
40
0.750000000000003
40
0.750000000000003
40
0.875000000000002
40
0.875000000000002
40
1
40
1
40
1
40
1
41
1
10
10.1056624327026
20
12.6576002058704
30
6E-16
41
1
10
10.1212438126112
20
12.6003292036663
30
6E-16
41
1
10
10.1398761201257
20
12.5441499637055
30
6E-16
41
1
10
10.1853710085986
20
12.4347788334234
30
6E-16
41
1
10
10.2123078345526
20
12.3812044282565
30
6E-16
41
1
10
10.2787828778388
20
12.280557514874
30
6E-16
41
1
10
10.3183968079982
20
12.2332416215828
30
6E-16
41
1
10
10.3910223064901
20
12.1779443514617
30
6E-16
41
1
10
10.4180445359029
20
12.1619018862399
30
6E-16
41
1
10
10.4758266843417
20
12.1395106480537
30
6E-16
41
1
10
10.5070602691284
20
12.1330899674706
30
6E-16
41
1
10
10.5386751345948
20
12.1330899674706
30
6E-16
0
SPLINE
5
CC
100
AcDbEntity
8
1
62
256
6
ByLayer
370
18
48
1
60
0
100
AcDbSpline
70
4
71
3
72
16
73
12
40
0
40
0
40
0
40
0
40
0.124999999999998
40
0.124999999999998
40
0.249999999999996
40
0.249999999999996
40
0.499999999999997
40
0.499999999999997
40
0.749999999999999
40
0.749999999999999
40
1
40
1
40
1
40
1
41
1
10
13.4613248654052
20
12.1330899674707
30
8E-16
41
1
10
13.4929902187673
20
12.1330899674707
30
8E-16
41
1
10
13.5238147781361
20
12.1393880305613
30
8E-16
41
1
10
13.5820585103617
20
12.1619255694047
30
8E-16
41
1
10
13.6085397975367
20
12.177616249759
30
8E-16
41
1
10
13.6823507545246
20
12.2338002045595
30
8E-16
41
1
10
13.7212679567723
20
12.2806309384213
30
8E-16
41
1
10
13.7876681187476
20
12.3811715645304
30
8E-16
41
1
10
13.8143757204949
20
12.4342400380054
30
8E-16
41
1
10
13.8599678398713
20
12.543705389465
30
8E-16
41
1
10
13.8787504379152
20
12.6003080708704
30
8E-16
41
1
10
13.8943375672975
20
12.6576002058703
30
9E-16
0
SPLINE
5
CD
100
AcDbEntity
8
1
62
256
6
ByLayer
370
18
48
1
60
0
100
AcDbSpline
70
4
71
3
72
16
73
12
40
0
40
0
40
0
40
0
40
0.25
40
0.25
40
0.5
40
0.5
40
0.75
40
0.75
40
0.875
40
0.875
40
1
40
1
40
1
40
1
41
1
10
13.8943375672974
20
37.9445010117191
30
9E-16
41
1
10
13.8787561873888
20
37.9636055836586
30
8E-16
41
1
10
13.8601238798743
20
37.9822012953861
30
8E-16
41
1
10
13.8146289914014
20
38.0181481521524
30
8E-16
41
1
10
13.7876921654474
20
38.0356224517383
30
8E-16
41
1
10
13.7212171221612
20
38.0682374888742
30
8E-16
41
1
10
13.6816031920019
20
38.0834517571985
30
8E-16
41
1
10
13.6089776935099
20
38.1011554411599
30
8E-16
41
1
10
13.5819554640971
20
38.1062761312752
30
8E-16
41
1
10
13.5241733156583
20
38.1134152144531
30
8E-16
41
1
10
13.4929397308716
20
38.1154578595255
30
8E-16
41
1
10
13.4613248654052
20
38.1154578595255
30
8E-16
0
SPLINE
5
CE
100
AcDbEntity
8
1
62
256
6
ByLayer
370
18
48
1
60
0
100
AcDbSpline
70
4
71
3
72
16
73
12
40
0
40
0
40
0
40
0
40
0.249999999999999
40
0.249999999999999
40
0.499999999999997
40
0.499999999999997
40
0.749999999999996
40
0.749999999999996
40
0.874999999999998
40
0.874999999999998
40
1
40
1
40
1
40
1
41
1
10
10.1056624327026
20
-37.9445010117191
30
6E-16
41
1
10
10.1212438126112
20
-37.9636055836586
30
6E-16
41
1
10
10.1398761201257
20
-37.9822012953861
30
6E-16
41
1
10
10.1853710085986
20
-38.0181481521524
30
6E-16
41
1
10
10.2123078345526
20
-38.0356224517383
30
6E-16
41
1
10
10.2787828778388
20
-38.0682374888742
30
6E-16
41
1
10
10.3183968079982
20
-38.0834517571985
30
6E-16
41
1
10
10.3910223064901
20
-38.1011554411598
30
6E-16
41
1
10
10.4180445359029
20
-38.1062761312752
30
6E-16
41
1
10
10.4758266843417
20
-38.1134152144531
30
6E-16
41
1
10
10.5070602691284
20
-38.1154578595255
30
6E-16
41
1
10
10.5386751345948
20
-38.1154578595255
30
6E-16
0
SPLINE
5
CF
100
AcDbEntity
8
1
62
256
6
ByLayer
370
18
48
1
60
0
100
AcDbSpline
70
4
71
3
72
16
73
12
40
0
40
0
40
0
40
0
40
0.125000000000002
40
0.125000000000002
40
0.250000000000004
40
0.250000000000004
40
0.500000000000003
40
0.500000000000003
40
0.750000000000001
40
0.750000000000001
40
1
40
1
40
1
40
1
41
1
10
13.4613248654052
20
-38.1154578595255
30
8E-16
41
1
10
13.4929902187673
20
-38.1154578595255
30
8E-16
41
1
10
13.5238147781361
20
-38.1134542929028
30
8E-16
41
1
10
13.5820585103617
20
-38.1062685963607
30
8E-16
41
1
10
13.6085397975367
20
-38.1012604668281
30
8E-16
41
1
10
13.6823507545246
20
-38.0832729594607
30
8E-16
41
1
10
13.7212679567723
20
-38.0682137252776
30
8E-16
41
1
10
13.7876681187476
20
-38.0356330717498
30
8E-16
41
1
10
13.8143757204949
20
-38.0183244490836
30
8E-16
41
1
10
13.8599678398713
20
-37.9823481941392
30
8E-16
41
1
10
13.8787504379152
20
-37.9636126331777
30
8E-16
41
1
10
13.8943375672975
20
-37.9445010117191
30
9E-16
0
SPLINE
5
D0
100
AcDbEntity
8
SK1
62
256
6
ByLayer
370
18
48
1
60
0
100
AcDbSpline
70
4
71
3
72
161
73
157
40
0
40
0
40
0
40
0
40
0.0178238956184419
40
0.0356477912368839
40
0.0534716868553258
40
0.0623836346645468
40
0.0712955824737678
40
0.0891194780922097
40
0.106943373710652
40
0.124767269329094
40
0.133679217138314
40
0.142591164947535
40
0.160415060565978
40
0.178238956184419
40
0.18715090399364
40
0.196062851802861
40
0.213886747421303
40
0.222798695230524
40
0.231710643039745
40
0.240622590848966
40
0.249534538658187
40
0.258446486467408
40
0.267358434276629
40
0.27627038208585
40
0.285182329895071
40
0.303006225513513
40
0.311918173322734
40
0.320830121131955
40
0.329742068941176
40
0.338654016750397
40
0.347565964559618
40
0.356477912368839
40
0.36538986017806
40
0.374301807987281
40
0.383213755796502
40
0.392125703605723
40
0.401037651414944
40
0.409949599224165
40
0.427773494842607
40
0.445597390461049
40
0.45450933827027
40
0.46342128607949
40
0.472333233888711
40
0.481245181697932
40
0.490157129507153
40
0.499069077316374
40
0.507981025125595
40
0.516892972934816
40
0.525804920744037
40
0.534716868553258
40
0.543628816362479
40
0.5525407641717
40
0.561452711980921
40
0.570364659790142
40
0.579276607599363
40
0.588188555408584
40
0.597100503217805
40
0.606012451027026
40
0.610468424931636
40
0.614924398836247
40
0.623836346645468
40
0.632748294454689
40
0.637204268359299
40
0.64166024226391
40
0.64611621616852
40
0.650572190073131
40
0.659484137882352
40
0.663940111786962
40
0.666168098739268
40
0.668396085691573
40
0.672852059596183
40
0.677308033500794
40
0.681764007405404
40
0.686219981310015
40
0.690675955214625
40
0.695131929119236
40
0.699587903023846
40
0.704043876928457
40
0.708499850833067
40
0.712955824737678
40
0.717411798642288
40
0.721867772546898
40
0.724095759499204
40
0.726323746451509
40
0.730779720356119
40
0.733007707308425
40
0.73523569426073
40
0.737463681213035
40
0.73969166816534
40
0.744147642069951
40
0.748603615974561
40
0.750831602926867
40
0.753059589879172
40
0.755287576831477
40
0.757515563783782
40
0.759743550736088
40
0.761971537688393
40
0.766427511593003
40
0.768655498545309
40
0.770883485497614
40
0.773111472449919
40
0.775339459402224
40
0.77756744635453
40
0.779795433306835
40
0.78202342025914
40
0.784251407211445
40
0.786479394163751
40
0.788707381116056
40
0.790935368068361
40
0.793163355020666
40
0.795391341972972
40
0.797619328925277
40
0.799847315877582
40
0.802075302829887
40
0.804303289782193
40
0.806531276734498
40
0.808759263686803
40
0.810987250639108
40
0.813215237591413
40
0.815443224543719
40
0.817671211496024
40
0.819899198448329
40
0.822127185400634
40
0.82435517235294
40
0.826583159305245
40
0.82881114625755
40
0.831039133209855
40
0.833267120162161
40
0.837723094066771
40
0.842179067971382
40
0.846635041875992
40
0.851091015780603
40
0.855546989685213
40
0.860002963589824
40
0.864458937494434
40
0.868914911399045
40
0.873370885303655
40
0.882282833112876
40
0.886738807017487
40
0.891194780922097
40
0.893422767874402
40
0.895650754826707
40
0.900106728731318
40
0.904562702635928
40
0.909018676540539
40
0.91793062434976
40
0.926842572158981
40
0.935754519968202
40
0.944666467777423
40
0.953578415586644
40
0.962490363395865
40
0.971402311205086
40
0.980314259014307
40
0.989226206823528
40
0.998138154632749
40
1
40
1
40
1
40
1
41
1
10
-2.19999999999999
20
-9.1330321E-09
30
-1E-16
41
1
10
-2.19999999999999
20
0.225061802035356
30
-1E-16
41
1
10
-2.19999999999999
20
0.675263447156567
30
-1E-16
41
1
10
-2.19999999999999
20
1.35036452206549
30
-1E-16
41
1
10
-2.19999999999999
20
1.91269074312439
30
-1E-16
41
1
10
-2.19999999999999
20
2.36228373289347
30
-1E-16
41
1
10
-2.19999999999999
20
2.81168625398902
30
-1E-16
41
1
10
-2.19999999999999
20
3.37305990479402
30
-1E-16
41
1
10
-2.19999999999999
20
4.04587102711142
30
-1E-16
41
1
10
-2.19999999999999
20
4.6057340329798
30
-1E-16
41
1
10
-2.19999999999999
20
5.05301868207255
30
-1E-16
41
1
10
-2.19999999999999
20
5.49988610726609
30
-1E-16
41
1
10
-2.19999999999999
20
6.05766246506184
30
-1E-16
41
1
10
-2.19999999999999
20
6.61417105642414
30
-1E-16
41
1
10
-2.19999999999999
20
7.05850044535151
30
-1E-16
41
1
10
-2.19999999999999
20
7.50222928686011
30
-1E-16
41
1
10
-2.19999999999999
20
7.94504943201849
30
-1E-16
41
1
10
-2.19999999999999
20
8.38678083886154
30
-1E-16
41
1
10
-2.19999999999999
20
8.71754000741205
30
-1E-16
41
1
10
-2.19999999999999
20
9.04772390579535
30
-1E-16
41
1
10
-2.19999999999999
20
9.37730601804404
30
-1E-16
41
1
10
-2.19999999999999
20
9.70625905002342
30
-1E-16
41
1
10
-2.19999999999999
20
10.0345558250682
30
-1E-16
41
1
10
-2.19999999999999
20
10.3621679620693
30
-1E-16
41
1
10
-2.19999999999999
20
10.7980186004417
30
-1E-16
41
1
10
-2.19999999999999
20
11.2324257005624
30
-1E-16
41
1
10
-2.19999999999999
20
11.6651806960826
30
-1E-16
41
1
10
-2.19999999999999
20
11.9889212454173
30
-1E-16
41
1
10
-2.19999999999999
20
12.3117918652447
30
-1E-16
41
1
10
-2.19999999999999
20
12.6337588739617
30
-1E-16
41
1
10
-2.19999999999999
20
12.9547874865188
30
-1E-16
41
1
10
-2.19999999999999
20
13.2748410712126
30
-1E-16
41
1
10
-2.19999999999999
20
13.5938829074633
30
-1E-16
41
1
10
-2.19999999999999
20
13.9118742021154
30
-1E-16
41
1
10
-2.19999999999999
20
14.2287748430154
30
-1E-16
41
1
10
-2.19999999999999
20
14.5445439642215
30
-1E-16
41
1
10
-2.19999999999999
20
14.8591380073715
30
-1E-16
41
1
10
-2.19999999999999
20
15.2769563439209
30
-1E-16
41
1
10
-2.19999999999999
20
15.7961013813736
30
-1E-16
41
1
10
-2.19999999999999
20
16.3106993257585
30
-1E-16
41
1
10
-2.19999999999999
20
16.7194064022553
30
-1E-16
41
1
10
-2.19999999999999
20
17.0244195237537
30
-1E-16
41
1
10
-2.19999999999999
20
17.3278428504823
30
-1E-16
41
1
10
-2.19999999999999
20
17.6296130207294
30
-1E-16
41
1
10
-2.19999999999999
20
17.9296630966683
30
-1E-16
41
1
10
-2.19999999999999
20
18.2279229970925
30
-1E-16
41
1
10
-2.19999999999999
20
18.5243181408282
30
-1E-16
41
1
10
-2.19999999999999
20
18.8187703057437
30
-1E-16
41
1
10
-2.19999999999999
20
19.1111960425318
30
-1E-16
41
1
10
-2.19999999999999
20
19.4015071780006
30
-1E-16
41
1
10
-2.19999999999999
20
19.6896095842907
30
-1E-16
41
1
10
-2.19999999999999
20
19.9754032158955
30
-1E-16
41
1
10
-2.19999999999999
20
20.2587810211102
30
-1E-16
41
1
10
-2.19999999999999
20
20.5396285427339
30
-1E-16
41
1
10
-2.19999999999999
20
20.8178226276801
30
-1E-16
41
1
10
-2.19999999999999
20
21.093231628521
30
-1E-16
41
1
10
-2.19999999999999
20
21.3657124623482
30
-1E-16
41
1
10
-2.19999999999999
20
21.5902219719273
30
-1E-16
41
1
10
-2.19999999999999
20
21.7681861799788
30
-1E-16
41
1
10
-2.19999999999999
20
21.9450385437691
30
-1E-16
41
1
10
-2.19999999999999
20
22.1639844657179
30
-1E-16
41
1
10
-2.19999999999999
20
22.3799086275608
30
-1E-16
41
1
10
-2.19999999999999
20
22.5507073751826
30
-1E-16
41
1
10
-2.19999999999999
20
22.6778266420732
30
-1E-16
41
1
10
-2.19999999999999
20
22.8039266797805
30
-1E-16
41
1
10
-2.19999999999999
20
22.970649321681
30
-1E-16
41
1
10
-2.19999999999999
20
23.1352419611986
30
-1E-16
41
1
10
-2.19999999999999
20
23.2772180774609
30
-1E-16
41
1
10
-2.19999999999999
20
23.357749940877
30
-1E-16
41
1
10
-2.19999999999999
20
23.4378788712252
30
-1E-16
41
1
10
-2.19999999999999
20
23.537286973408
30
-1E-16
41
1
10
-2.19999999999999
20
23.6553001522897
30
-1E-16
41
1
10
-2.19999999999999
20
23.7720026704736
30
-1E-16
41
1
10
-2.19999999999999
20
23.8873514509045
30
-1E-16
41
1
10
-2.19999999999999
20
24.0012996303208
30
-1E-16
41
1
10
-2.19999999999999
20
24.1138022089544
30
-1E-16
41
1
10
-2.19999999999999
20
24.2248082813221
30
-1E-16
41
1
10
-2.19999999999999
20
24.334270703777
30
-1E-16
41
1
10
-2.19999999999999
20
24.4421355285306
30
-1E-16
41
1
10
-2.19999999999999
20
24.5483537767074
30
-1E-16
41
1
10
-2.19999999999999
20
24.652869943418
30
-1E-16
41
1
10
-2.19999999999999
20
24.7385134824207
30
-1E-16
41
1
10
-2.19999999999999
20
24.8061123051287
30
-1E-16
41
1
10
-2.19999999999999
20
24.8731015280506
30
-1E-16
41
1
10
-2.19999999999999
20
24.9391822216995
30
-1E-16
41
1
10
-2.19999999999999
20
25.0042883699175
30
-1E-16
41
1
10
-2.19999999999999
20
25.0526410012286
30
-1E-16
41
1
10
-2.19999999999999
20
25.1005046519159
30
-1E-16
41
1
10
-2.19999999999999
20
25.163656247963
30
-1E-16
41
1
10
-2.19999999999999
20
25.241362627819
30
-1E-16
41
1
10
-2.19999999999999
20
25.3173659698927
30
-1E-16
41
1
10
-2.19999999999999
20
25.3771197397846
30
-1E-16
41
1
10
-2.19999999999999
20
25.4214161584287
30
-1E-16
41
1
10
-2.19999999999999
20
25.4651849107165
30
-1E-16
41
1
10
-2.19999999999999
20
25.5084239727672
30
-1E-16
41
1
10
-2.19999999999999
20
25.5511293679947
30
-1E-16
41
1
10
-2.19999999999999
20
25.6073478634086
30
-1E-16
41
1
10
-2.19999999999999
20
25.6625087073349
30
-1E-16
41
1
10
-2.19999999999999
20
25.716567051335
30
-1E-16
41
1
10
-2.19999999999999
20
25.7565721594177
30
-1E-16
41
1
10
-2.19999999999999
20
25.7960345822211
30
-1E-16
41
1
10
-2.19999999999999
20
25.8349528091661
30
-1E-16
41
1
10
-2.19999999999999
20
25.8733267762626
30
-1E-16
41
1
10
-2.19999999999999
20
25.9111583072015
30
-1E-16
41
1
10
-2.19999999999999
20
25.9484475163971
30
-1E-16
41
1
10
-2.19999999999999
20
25.9851949613724
30
-1E-16
41
1
10
-2.19999999999999
20
26.0214029141672
30
-1E-16
41
1
10
-2.19999999999999
20
26.0570737516118
30
-1E-16
41
1
10
-2.19999999999999
20
26.0922083134278
30
-1E-16
41
1
10
-2.19999999999999
20
26.1268094632821
30
-1E-16
41
1
10
-2.19999999999999
20
26.1608805109227
30
-1E-16
41
1
10
-2.19999999999999
20
26.1944241139419
30
-1E-16
41
1
10
-2.19999999999999
20
26.2274425077134
30
-1E-16
41
1
10
-2.19999999999999
20
26.2599397642696
30
-1E-16
41
1
10
-2.19999999999999
20
26.2919197853838
30
-1E-16
41
1
10
-2.19999999999999
20
26.3233856869692
30
-1E-16
41
1
10
-2.19999999999999
20
26.3543407893128
30
-1E-16
41
1
10
-2.19999999999999
20
26.3847896965663
30
-1E-16
41
1
10
-2.19999999999999
20
26.4147366514242
30
-1E-16
41
1
10
-2.19999999999999
20
26.4441852198437
30
-1E-16
41
1
10
-2.19999999999999
20
26.4731393508859
30
-1E-16
41
1
10
-2.19999999999999
20
26.5016038611066
30
-1E-16
41
1
10
-2.19999999999999
20
26.5295832230265
30
-1E-16
41
1
10
-2.19999999999999
20
26.5570812444045
30
-1E-16
41
1
10
-2.19999999999999
20
26.5841020850929
30
-1E-16
41
1
10
-2.19999999999999
20
26.6106506006736
30
-1E-16
41
1
10
-2.19999999999999
20
26.6367314095701
30
-1E-16
41
1
10
-2.19999999999999
20
26.6708844351337
30
-1E-16
41
1
10
-2.19999999999999
20
26.7124329054702
30
-1E-16
41
1
10
-2.19999999999999
20
26.7604867263134
30
-1E-16
41
1
10
-2.19999999999999
20
26.806770790302
30
-1E-16
41
1
10
-2.19999999999999
20
26.8513211579777
30
-1E-16
41
1
10
-2.19999999999999
20
26.8941690947907
30
-1E-16
41
1
10
-2.19999999999999
20
26.9353473948668
30
-1E-16
41
1
10
-2.19999999999999
20
26.9748879370965
30
-1E-16
41
1
10
-2.19999999999999
20
27.0128196253185
30
-1E-16
41
1
10
-2.19999999999999
20
27.061288361049
30
-1E-16
41
1
10
-2.19999999999999
20
27.1066665834094
30
-1E-16
41
1
10
-2.19999999999999
20
27.1490463945794
30
-1E-16
41
1
10
-2.19999999999999
20
27.1743120547698
30
-1E-16
41
1
10
-2.19999999999999
20
27.1938000080828
30
-1E-16
41
1
10
-2.19999999999999
20
27.2128106669993
30
-1E-16
41
1
10
-2.19999999999999
20
27.2356891463471
30
-1E-16
41
1
10
-2.19999999999999
20
27.2617446141202
30
-1E-16
41
1
10
-2.19999999999999
20
27.2946510730697
30
-1E-16
41
1
10
-2.19999999999999
20
27.3324071304618
30
-1E-16
41
1
10
-2.19999999999999
20
27.3724682078017
30
-1E-16
41
1
10
-2.19999999999999
20
27.4074385220641
30
-1E-16
41
1
10
-2.19999999999999
20
27.4374632474901
30
-1E-16
41
1
10
-2.19999999999999
20
27.4626752370172
30
-1E-16
41
1
10
-2.19999999999999
20
27.4832025104741
30
-1E-16
41
1
10
-2.19999999999999
20
27.4991622838611
30
-1E-16
41
1
10
-2.19999999999999
20
27.5106651446804
30
-1E-16
41
1
10
-2.19999999999999
20
27.5178158074899
30
-1E-16
41
1
10
-2.19999999999996
20
27.5199484874314
30
-1E-16
41
1
10
-2.19999999999999
20
27.5201019568508
30
-1E-16
41
1
10
-2.19999999999999
20
27.5200983379277
30
-1E-16
0
SPLINE
5
D1
100
AcDbEntity
8
SK1
62
256
6
ByLayer
370
18
48
1
60
0
100
AcDbSpline
70
4
71
3
72
163
73
159
40
0
40
0
40
0
40
0
40
0.001867071575074
40
0.0107789727217251
40
0.0196908738683763
40
0.0286027750150274
40
0.0375146761616785
40
0.0464265773083297
40
0.0553384784549808
40
0.0642503796016319
40
0.073162280748283
40
0.0820741818949342
40
0.0909860830415853
40
0.0954420336149108
40
0.0998979841882364
40
0.104353934761562
40
0.106581910048225
40
0.108809885334888
40
0.113265835908213
40
0.117721786481539
40
0.12663368762819
40
0.131089638201515
40
0.135545588774841
40
0.140001539348166
40
0.144457489921492
40
0.148913440494818
40
0.153369391068143
40
0.157825341641469
40
0.162281292214794
40
0.16673724278812
40
0.168965218074783
40
0.171193193361445
40
0.173421168648108
40
0.175649143934771
40
0.177877119221434
40
0.180105094508097
40
0.182333069794759
40
0.184561045081422
40
0.186789020368085
40
0.189016995654748
40
0.19124497094141
40
0.193472946228073
40
0.195700921514736
40
0.197928896801399
40
0.200156872088061
40
0.202384847374724
40
0.204612822661387
40
0.20684079794805
40
0.209068773234713
40
0.211296748521375
40
0.213524723808038
40
0.215752699094701
40
0.217980674381364
40
0.220208649668027
40
0.222436624954689
40
0.224664600241352
40
0.226892575528015
40
0.229120550814678
40
0.23134852610134
40
0.233576501388003
40
0.238032451961329
40
0.240260427247992
40
0.242488402534654
40
0.244716377821317
40
0.24694435310798
40
0.249172328394643
40
0.251400303681306
40
0.255856254254631
40
0.260312204827957
40
0.262540180114619
40
0.264768155401282
40
0.266996130687945
40
0.269224105974608
40
0.273680056547933
40
0.275908031834596
40
0.278136007121259
40
0.282591957694585
40
0.28704790826791
40
0.291503858841236
40
0.295959809414561
40
0.300415759987887
40
0.304871710561212
40
0.309327661134538
40
0.313783611707863
40
0.318239562281189
40
0.322695512854514
40
0.32715146342784
40
0.331607414001166
40
0.333835389287828
40
0.336063364574491
40
0.340519315147817
40
0.349431216294468
40
0.353887166867793
40
0.358343117441119
40
0.362799068014445
40
0.36725501858777
40
0.376166919734421
40
0.385078820881072
40
0.389534771454398
40
0.393990722027724
40
0.402902623174375
40
0.411814524321026
40
0.420726425467677
40
0.429638326614328
40
0.438550227760979
40
0.44746212890763
40
0.456374030054281
40
0.465285931200932
40
0.474197832347584
40
0.483109733494235
40
0.492021634640886
40
0.500933535787537
40
0.509845436934188
40
0.518757338080839
40
0.52766923922749
40
0.536581140374142
40
0.545493041520793
40
0.554404942667444
40
0.572228744960746
40
0.590052547254048
40
0.598964448400699
40
0.60787634954735
40
0.616788250694002
40
0.625700151840653
40
0.634612052987304
40
0.643523954133955
40
0.652435855280606
40
0.661347756427257
40
0.670259657573908
40
0.67917155872056
40
0.688083459867211
40
0.696995361013862
40
0.714819163307164
40
0.723731064453815
40
0.732642965600466
40
0.741554866747117
40
0.750466767893769
40
0.75937866904042
40
0.768290570187071
40
0.786114372480373
40
0.803938174773675
40
0.812850075920326
40
0.821761977066978
40
0.83958577936028
40
0.857409581653582
40
0.866321482800233
40
0.875233383946884
40
0.893057186240186
40
0.910880988533489
40
0.928704790826791
40
0.937616691973442
40
0.946528593120093
40
0.955440494266744
40
0.964352395413396
40
0.973264296560047
40
0.982176197706698
40
0.991088098853349
40
1
40
1
40
1
40
1
41
1
10
-2.19999999999999
20
-27.5200983046171
30
-1E-16
41
1
10
-2.19999999999999
20
-27.5201020975571
30
-1E-16
41
1
10
-2.20000000000002
20
-27.5199490073222
30
-1E-16
41
1
10
-2.19999999999999
20
-27.5178156594359
30
-1E-16
41
1
10
-2.19999999999999
20
-27.5106650559034
30
-1E-16
41
1
10
-2.19999999999999
20
-27.4991621160173
30
-1E-16
41
1
10
-2.19999999999999
20
-27.4832026457725
30
-1E-16
41
1
10
-2.19999999999999
20
-27.4626755348806
30
-1E-16
41
1
10
-2.19999999999999
20
-27.4374630481407
30
-1E-16
41
1
10
-2.19999999999999
20
-27.4074385084641
30
-1E-16
41
1
10
-2.19999999999999
20
-27.3724681794002
30
-1E-16
41
1
10
-2.19999999999999
20
-27.3324070577091
30
-1E-16
41
1
10
-2.19999999999999
20
-27.2946510700132
30
-1E-16
41
1
10
-2.19999999999999
20
-27.261744616692
30
-1E-16
41
1
10
-2.19999999999999
20
-27.2356891230031
30
-1E-16
41
1
10
-2.19999999999999
20
-27.2128106197146
30
-1E-16
41
1
10
-2.19999999999999
20
-27.1937999550733
30
-1E-16
41
1
10
-2.19999999999999
20
-27.1743120063957
30
-1E-16
41
1
10
-2.19999999999999
20
-27.149046371789
30
-1E-16
41
1
10
-2.19999999999999
20
-27.106666596017
30
-1E-16
41
1
10
-2.19999999999999
20
-27.0612883343642
30
-1E-16
41
1
10
-2.19999999999999
20
-27.0128195712503
30
-1E-16
41
1
10
-2.19999999999999
20
-26.974887905576
30
-1E-16
41
1
10
-2.19999999999999
20
-26.9353473953303
30
-1E-16
41
1
10
-2.19999999999999
20
-26.8941690945283
30
-1E-16
41
1
10
-2.19999999999999
20
-26.8513211266345
30
-1E-16
41
1
10
-2.19999999999999
20
-26.8067707425093
30
-1E-16
41
1
10
-2.19999999999999
20
-26.7604867055158
30
-1E-16
41
1
10
-2.19999999999999
20
-26.7124329118879
30
-1E-16
41
1
10
-2.19999999999999
20
-26.670884426748
30
-1E-16
41
1
10
-2.19999999999999
20
-26.63673138419
30
-1E-16
41
1
10
-2.19999999999999
20
-26.6106505657102
30
-1E-16
41
1
10
-2.19999999999999
20
-26.5841020509053
30
-1E-16
41
1
10
-2.19999999999999
20
-26.5570812190505
30
-1E-16
41
1
10
-2.19999999999999
20
-26.5295832104239
30
-1E-16
41
1
10
-2.19999999999999
20
-26.5016038593244
30
-1E-16
41
1
10
-2.19999999999999
20
-26.4731393503158
30
-1E-16
41
1
10
-2.19999999999999
20
-26.444185212553
30
-1E-16
41
1
10
-2.19999999999999
20
-26.4147366331671
30
-1E-16
41
1
10
-2.19999999999999
20
-26.3847896691469
30
-1E-16
41
1
10
-2.19999999999999
20
-26.354340762104
30
-1E-16
41
1
10
-2.19999999999999
20
-26.3233856672166
30
-1E-16
41
1
10
-2.19999999999999
20
-26.2919197764698
30
-1E-16
41
1
10
-2.19999999999999
20
-26.2599397636197
30
-1E-16
41
1
10
-2.19999999999999
20
-26.2274425061188
30
-1E-16
41
1
10
-2.19999999999999
20
-26.1944241055736
30
-1E-16
41
1
10
-2.19999999999999
20
-26.1608804941936
30
-1E-16
41
1
10
-2.19999999999999
20
-26.1268094421358
30
-1E-16
41
1
10
-2.19999999999999
20
-26.0922082961623
30
-1E-16
41
1
10
-2.19999999999999
20
-26.0570737418386
30
-1E-16
41
1
10
-2.19999999999999
20
-26.0214029117903
30
-1E-16
41
1
10
-2.19999999999999
20
-25.98519496082
30
-1E-16
41
1
10
-2.19999999999999
20
-25.9484475122694
30
-1E-16
41
1
10
-2.19999999999999
20
-25.9111582976916
30
-1E-16
41
1
10
-2.19999999999999
20
-25.8733267632515
30
-1E-16
41
1
10
-2.19999999999999
20
-25.8349527976552
30
-1E-16
41
1
10
-2.19999999999999
20
-25.7960345749503
30
-1E-16
41
1
10
-2.19999999999999
20
-25.7565721569603
30
-1E-16
41
1
10
-2.19999999999999
20
-25.7165670511281
30
-1E-16
41
1
10
-2.19999999999999
20
-25.6625087065029
30
-1E-16
41
1
10
-2.19999999999999
20
-25.6073478583491
30
-1E-16
41
1
10
-2.19999999999999
20
-25.5511293616525
30
-1E-16
41
1
10
-2.19999999999999
20
-25.5084239674994
30
-1E-16
41
1
10
-2.19999999999999
20
-25.4651849084785
30
-1E-16
41
1
10
-2.19999999999999
20
-25.4214161601399
30
-1E-16
41
1
10
-2.19999999999999
20
-25.3771197440588
30
-1E-16
41
1
10
-2.19999999999999
20
-25.3173659740988
30
-1E-16
41
1
10
-2.19999999999999
20
-25.2413626235076
30
-1E-16
41
1
10
-2.19999999999999
20
-25.1636562437965
30
-1E-16
41
1
10
-2.19999999999999
20
-25.1005046567221
30
-1E-16
41
1
10
-2.19999999999999
20
-25.0526410113422
30
-1E-16
41
1
10
-2.19999999999999
20
-25.0042883812665
30
-1E-16
41
1
10
-2.19999999999999
20
-24.9391822263461
30
-1E-16
41
1
10
-2.19999999999999
20
-24.8731015229326
30
-1E-16
41
1
10
-2.19999999999999
20
-24.8061123029563
30
-1E-16
41
1
10
-2.19999999999999
20
-24.7385134910829
30
-1E-16
41
1
10
-2.19999999999999
20
-24.6528699655558
30
-1E-16
41
1
10
-2.19999999999999
20
-24.5483537823811
30
-1E-16
41
1
10
-2.19999999999999
20
-24.4421355197951
30
-1E-16
41
1
10
-2.19999999999999
20
-24.3342707158598
30
-1E-16
41
1
10
-2.19999999999999
20
-24.2248083093542
30
-1E-16
41
1
10
-2.19999999999999
20
-24.1138022172807
30
-1E-16
41
1
10
-2.19999999999999
20
-24.0012996218986
30
-1E-16
41
1
10
-2.19999999999999
20
-23.8873514608113
30
-1E-16
41
1
10
-2.19999999999999
20
-23.7720027016074
30
-1E-16
41
1
10
-2.19999999999999
20
-23.6553001724798
30
-1E-16
41
1
10
-2.19999999999999
20
-23.5372869725813
30
-1E-16
41
1
10
-2.19999999999999
20
-23.4378788684712
30
-1E-16
41
1
10
-2.19999999999999
20
-23.3577499518235
30
-1E-16
41
1
10
-2.19999999999999
20
-23.2772181020804
30
-1E-16
41
1
10
-2.19999999999999
20
-23.1352420008824
30
-1E-16
41
1
10
-2.19999999999999
20
-22.9706493191936
30
-1E-16
41
1
10
-2.19999999999999
20
-22.8039266789425
30
-1E-16
41
1
10
-2.19999999999999
20
-22.677826663416
30
-1E-16
41
1
10
-2.19999999999999
20
-22.5507074119871
30
-1E-16
41
1
10
-2.19999999999999
20
-22.3799086516717
30
-1E-16
41
1
10
-2.19999999999999
20
-22.163984449135
30
-1E-16
41
1
10
-2.19999999999999
20
-21.9450385683286
30
-1E-16
41
1
10
-2.19999999999999
20
-21.7681862182292
30
-1E-16
41
1
10
-2.19999999999999
20
-21.5902219948235
30
-1E-16
41
1
10
-2.19999999999999
20
-21.3657124503451
30
-1E-16
41
1
10
-2.19999999999999
20
-21.0932316537541
30
-1E-16
41
1
10
-2.19999999999999
20
-20.8178226701742
30
-1E-16
41
1
10
-2.19999999999999
20
-20.5396285418311
30
-1E-16
41
1
10
-2.19999999999999
20
-20.2587810260512
30
-1E-16
41
1
10
-2.19999999999999
20
-19.9754032580851
30
-1E-16
41
1
10
-2.19999999999999
20
-19.6896096102689
30
-1E-16
41
1
10
-2.19999999999999
20
-19.4015071738651
30
-1E-16
41
1
10
-2.19999999999999
20
-19.1111960574158
30
-1E-16
41
1
10
-2.19999999999999
20
-18.8187703466972
30
-1E-16
41
1
10
-2.19999999999999
20
-18.5243181643926
30
-1E-16
41
1
10
-2.19999999999999
20
-18.2279230066777
30
-1E-16
41
1
10
-2.19999999999999
20
-17.9296631556863
30
-1E-16
41
1
10
-2.19999999999999
20
-17.6296130842939
30
-1E-16
41
1
10
-2.19999999999999
20
-17.3278426907561
30
-1E-16
41
1
10
-2.19999999999999
20
-17.0244193457753
30
-1E-16
41
1
10
-2.19999999999999
20
-16.7194065280161
30
-1E-16
41
1
10
-2.19999999999999
20
-16.3106995706028
30
-1E-16
41
1
10
-2.19999999999999
20
-15.7961009090238
30
-1E-16
41
1
10
-2.19999999999999
20
-15.27695646193
30
-1E-16
41
1
10
-2.19999999999999
20
-14.8591381897145
30
-1E-16
41
1
10
-2.19999999999999
20
-14.5445440121255
30
-1E-16
41
1
10
-2.19999999999999
20
-14.2287748282068
30
-1E-16
41
1
10
-2.19999999999999
20
-13.9118741802889
30
-1E-16
41
1
10
-2.19999999999999
20
-13.5938828908433
30
-1E-16
41
1
10
-2.19999999999999
20
-13.2748410663129
30
-1E-16
41
1
10
-2.19999999999999
20
-12.9547874949705
30
-1E-16
41
1
10
-2.19999999999999
20
-12.6337588690112
30
-1E-16
41
1
10
-2.19999999999999
20
-12.3117918644319
30
-1E-16
41
1
10
-2.19999999999999
20
-11.988921251883
30
-1E-16
41
1
10
-2.19999999999999
20
-11.6651806903151
30
-1E-16
41
1
10
-2.19999999999999
20
-11.2324257071598
30
-1E-16
41
1
10
-2.19999999999999
20
-10.7980185927319
30
-1E-16
41
1
10
-2.19999999999999
20
-10.3621680092113
30
-1E-16
41
1
10
-2.19999999999999
20
-10.034555821761
30
-1E-16
41
1
10
-2.19999999999999
20
-9.70625896478811
30
-1E-16
41
1
10
-2.19999999999999
20
-9.37730593951488
30
-1E-16
41
1
10
-2.19999999999999
20
-9.04772396380255
30
-1E-16
41
1
10
-2.19999999999999
20
-8.6074926094698
30
-1E-16
41
1
10
-2.19999999999999
20
-8.05573436397168
30
-1E-16
41
1
10
-2.19999999999999
20
-7.50222929532018
30
-1E-16
41
1
10
-2.19999999999999
20
-7.05850044940942
30
-1E-16
41
1
10
-2.19999999999999
20
-6.61417106140573
30
-1E-16
41
1
10
-2.19999999999999
20
-6.05766246873051
30
-1E-16
41
1
10
-2.19999999999999
20
-5.49988611117149
30
-1E-16
41
1
10
-2.19999999999999
20
-5.05301868610982
30
-1E-16
41
1
10
-2.19999999999999
20
-4.60573403765591
30
-1E-16
41
1
10
-2.19999999999999
20
-4.04587103058162
30
-1E-16
41
1
10
-2.19999999999999
20
-3.3730599088309
30
-1E-16
41
1
10
-2.19999999999999
20
-2.81168625808746
30
-1E-16
41
1
10
-2.19999999999999
20
-2.36228373820154
30
-1E-16
41
1
10
-2.19999999999999
20
-2.02507921093039
30
-1E-16
41
1
10
-2.19999999999999
20
-1.687752379963
30
-1E-16
41
1
10
-2.19999999999999
20
-1.35032381128593
30
-1E-16
41
1
10
-2.19999999999999
20
-1.01281395840096
30
-1E-16
41
1
10
-2.19999999999999
20
-0.675243105603698
30
-1E-16
41
1
10
-2.19999999999999
20
-0.337631711964519
30
-1E-16
41
1
10
-2.19999999999999
20
-0.112530914717212
30
-1E-16
41
1
10
-2.19999999999999
20
-9.1330321E-09
30
-1E-16
0
SPLINE
5
D2
100
AcDbEntity
8
SK1
62
256
6
ByLayer
370
18
48
1
60
0
100
AcDbSpline
70
4
71
3
72
8
73
4
40
0
40
0
40
0
40
0
40
1
40
1
40
1
40
1
41
1
10
-47.7
20
-4.08218356521417
30
6E-16
41
1
10
-47.7998635679541
20
-4.16175823770246
30
6E-16
41
1
10
-47.8998720651825
20
-4.24089501901426
30
6E-16
41
1
10
-48
20
-4.31962767660016
30
6E-16
0
SPLINE
5
D3
100
AcDbEntity
8
SK1
62
256
6
ByLayer
370
18
48
1
60
0
100
AcDbSpline
70
4
71
3
72
8
73
4
40
0
40
0
40
0
40
0
40
1
40
1
40
1
40
1
41
1
10
-48
20
4.3196276705531
30
6E-16
41
1
10
-47.8998720652483
20
4.24089501352637
30
6E-16
41
1
10
-47.7998635679975
20
4.16175823328075
30
6E-16
41
1
10
-47.7000000000019
20
4.08218356188962
30
6E-16
0
SPLINE
5
D4
100
AcDbEntity
8
1
62
256
6
ByLayer
370
18
48
1
60
0
100
AcDbSpline
70
4
71
3
72
16
73
12
40
0
40
0
40
0
40
0
40
0.125000000000002
40
0.125000000000002
40
0.250000000000005
40
0.250000000000005
40
0.500000000000003
40
0.500000000000003
40
0.750000000000002
40
0.750000000000002
40
1
40
1
40
1
40
1
41
1
10
10.5386751345948
20
-12.1330899674707
30
6E-16
41
1
10
10.5070097812327
20
-12.1330899674707
30
6E-16
41
1
10
10.4761852218639
20
-12.1393880305614
30
6E-16
41
1
10
10.4179414896383
20
-12.1619255694047
30
6E-16
41
1
10
10.3914602024633
20
-12.177616249759
30
6E-16
41
1
10
10.3176492454754
20
-12.2338002045595
30
6E-16
41
1
10
10.2787320432277
20
-12.2806309384213
30
6E-16
41
1
10
10.2123318812525
20
-12.3811715645304
30
6E-16
41
1
10
10.1856242795051
20
-12.4342400380054
30
6E-16
41
1
10
10.1400321601288
20
-12.5437053894649
30
6E-16
41
1
10
10.1212495620848
20
-12.6003080708704
30
6E-16
41
1
10
10.1056624327025
20
-12.6576002058704
30
6E-16
0
SPLINE
5
D5
100
AcDbEntity
8
SK1
62
256
6
ByLayer
370
18
48
1
60
0
100
AcDbSpline
70
4
71
3
72
8
73
4
40
0
40
0
40
0
40
0
40
1
40
1
40
1
40
1
41
1
10
-46.5000000000003
20
4.82700790508861
30
7E-16
41
1
10
-46.9109635118404
20
4.60328755170716
30
7E-16
41
1
10
-47.3130223897835
20
4.35705583356321
30
7E-16
41
1
10
-47.7000000000006
20
4.08218356188769
30
6E-16
0
SPLINE
5
D6
100
AcDbEntity
8
SK1
62
256
6
ByLayer
370
18
48
1
60
0
100
AcDbSpline
70
4
71
3
72
24
73
20
40
0
40
0
40
0
40
0
40
0.249999999999998
40
0.249999999999998
40
0.499999999999996
40
0.499999999999996
40
0.624999999999998
40
0.624999999999998
40
0.749999999999999
40
0.749999999999999
40
0.812499999999997
40
0.812499999999997
40
0.874999999999995
40
0.874999999999995
40
0.906249999999996
40
0.906249999999996
40
0.937499999999998
40
0.937499999999998
40
1
40
1
40
1
40
1
41
1
10
-0.199999999999989
20
-27.4671666230452
30
0
41
1
10
-0.199999999999989
20
-27.447594032165
30
0
41
1
10
-0.201370201674308
20
-27.4272396841604
30
0
41
1
10
-0.207931523474201
20
-27.384599807734
30
0
41
1
10
-0.213034732527717
20
-27.3623263887384
30
0
41
1
10
-0.225773716901415
20
-27.3268678454447
30
0
41
1
10
-0.23086581853525
20
-27.3147403187154
30
0
41
1
10
-0.243817167560195
20
-27.2896495476071
30
0
41
1
10
-0.251609006750641
20
-27.2766750832789
30
0
41
1
10
-0.267310756234337
20
-27.2565651682759
30
0
41
1
10
-0.27321893410641
20
-27.2497441426328
30
0
41
1
10
-0.287581776151399
20
-27.2357375224533
30
0
41
1
10
-0.296059131080369
20
-27.2284328994368
30
0
41
1
10
-0.312820518203665
20
-27.2176202393924
30
0
41
1
10
-0.319036303829904
20
-27.2140876538149
30
0
41
1
10
-0.33338540960608
20
-27.2075198335421
30
0
41
1
10
-0.341627525584727
20
-27.2045217689256
30
0
41
1
10
-0.366640769985992
20
-27.1981793002157
30
0
41
1
10
-0.382346753396291
20
-27.1976982552739
30
0
41
1
10
-0.394976888875476
20
-27.1987923911108
30
0
0
SPLINE
5
D7
100
AcDbEntity
8
SK1
62
256
6
ByLayer
370
18
48
1
60
0
100
AcDbSpline
70
4
71
3
72
26
73
22
40
0
40
0
40
0
40
0
40
0.0312500000000001
40
0.0312500000000001
40
0.0625000000000002
40
0.0625000000000002
40
0.0937500000000003
40
0.0937500000000003
40
0.125
40
0.125
40
0.1875
40
0.1875
40
0.25
40
0.25
40
0.375
40
0.375
40
0.5
40
0.5
40
0.75
40
0.75
40
1
40
1
40
1
40
1
41
1
10
-0.394976888875306
20
-27.1987923911105
30
0
41
1
10
-0.411243622816471
20
-27.2002015617868
30
0
41
1
10
-0.428450127765274
20
-27.2014232008153
30
0
41
1
10
-0.465564661237863
20
-27.2033601090096
30
0
41
1
10
-0.485501946283904
20
-27.204066198527
30
0
41
1
10
-0.52707963771951
20
-27.2047177504412
30
0
41
1
10
-0.54943907890717
20
-27.2046579397417
30
0
41
1
10
-0.593606871130817
20
-27.2036547510103
30
0
41
1
10
-0.615789983577059
20
-27.2027136602479
30
0
41
1
10
-0.679608895927657
20
-27.1988212317899
30
0
41
1
10
-0.717333533469656
20
-27.1949349233987
30
0
41
1
10
-0.783016433602427
20
-27.1863175037047
30
0
41
1
10
-0.81190750974244
20
-27.1814730178469
30
0
41
1
10
-0.889508187604349
20
-27.1663930585982
30
-1E-16
41
1
10
-0.930488774718242
20
-27.1555010896964
30
-1E-16
41
1
10
-1.00382039815497
20
-27.1323612916748
30
-1E-16
41
1
10
-1.03559567710479
20
-27.1201097652684
30
-1E-16
41
1
10
-1.12127441220241
20
-27.0819387844326
30
-1E-16
41
1
10
-1.16641976065711
20
-27.0543611265421
30
-1E-16
41
1
10
-1.24501109241768
20
-26.9945749008656
30
-1E-16
41
1
10
-1.27807767920882
20
-26.9623677608016
30
-1E-16
41
1
10
-1.30710678118641
20
-26.9276529368723
30
-1E-16
0
SPLINE
5
D8
100
AcDbEntity
8
SK1
62
256
6
ByLayer
370
18
48
1
60
0
100
AcDbSpline
70
4
71
3
72
28
73
24
40
0
40
0
40
0
40
0
40
0.249999999999998
40
0.249999999999998
40
0.499999999999996
40
0.499999999999996
40
0.624999999999995
40
0.624999999999995
40
0.687499999999995
40
0.687499999999995
40
0.749999999999995
40
0.749999999999995
40
0.812499999999995
40
0.812499999999995
40
0.843749999999996
40
0.843749999999996
40
0.874999999999997
40
0.874999999999997
40
0.906249999999998
40
0.906249999999998
40
0.937499999999999
40
0.937499999999999
40
1
40
1
40
1
40
1
41
1
10
-1.30710678118655
20
-22.5344195650361
30
-1E-16
41
1
10
-1.27807092985051
20
-22.4050985938359
30
-1E-16
41
1
10
-1.24496694566199
20
-22.2749052019734
30
-1E-16
41
1
10
-1.16608060081745
20
-22.0138725958619
30
-1E-16
41
1
10
-1.12051608336782
20
-21.8827089554117
30
-1E-16
41
1
10
-1.03498034743396
20
-21.689974211072
30
-1E-16
41
1
10
-1.00356747160384
20
-21.6263345769452
30
-1E-16
41
1
10
-0.948838401630951
20
-21.5328788669008
30
-1E-16
41
1
10
-0.929309144572159
20
-21.502066812203
30
-1E-16
41
1
10
-0.886410119907907
20
-21.4415419064731
30
-1E-16
41
1
10
-0.863049899366587
20
-21.4118369810625
30
-1E-16
41
1
10
-0.811381897486626
20
-21.3559027945568
30
0
41
1
10
-0.783099045930555
20
-21.3294225280266
30
0
41
1
10
-0.733312136033021
20
-21.2944246519669
30
0
41
1
10
-0.715779424523248
20
-21.2838105868193
30
0
41
1
10
-0.678017973858942
20
-21.2656290504981
30
0
41
1
10
-0.657795198481068
20
-21.2581404826184
30
0
41
1
10
-0.615792331685839
20
-21.2482712461774
30
0
41
1
10
-0.593301183917731
20
-21.2458497526392
30
0
41
1
10
-0.549233635365198
20
-21.2472473357482
30
0
41
1
10
-0.527159375357911
20
-21.2510132982785
30
0
41
1
10
-0.464335369059341
20
-21.2697357286861
30
0
41
1
10
-0.427480274580518
20
-21.2913462399232
30
0
41
1
10
-0.394976888875306
20
-21.3163207485063
30
0
0
SPLINE
5
D9
100
AcDbEntity
8
SK1
62
256
6
ByLayer
370
18
48
1
60
0
100
AcDbSpline
70
4
71
3
72
24
73
20
40
0
40
0
40
0
40
0
40
0.0624999999999996
40
0.0624999999999996
40
0.0937499999999982
40
0.0937499999999982
40
0.124999999999997
40
0.124999999999997
40
0.187499999999998
40
0.187499999999998
40
0.25
40
0.25
40
0.375000000000002
40
0.375000000000002
40
0.500000000000005
40
0.500000000000005
40
0.750000000000003
40
0.750000000000003
40
1
40
1
40
1
40
1
41
1
10
-0.394976888875306
20
-21.3163207485063
30
0
41
1
10
-0.38234996551526
20
-21.3260228518101
30
0
41
1
10
-0.366613785015915
20
-21.3349047707578
30
0
41
1
10
-0.341634362270128
20
-21.3392717772514
30
0
41
1
10
-0.333397050192758
20
-21.3391210512549
30
0
41
1
10
-0.318988537079065
20
-21.3364012870416
30
0
41
1
10
-0.312743268224239
20
-21.333964955833
30
0
41
1
10
-0.296018017563938
20
-21.325056304476
30
0
41
1
10
-0.287604805032572
20
-21.3171963488633
30
0
41
1
10
-0.273096778868677
20
-21.3003253911432
30
0
41
1
10
-0.26716682403503
20
-21.2913089199107
30
0
41
1
10
-0.251432168957706
20
-21.2633000291641
30
0
41
1
10
-0.243675296395338
20
-21.2433169025036
30
0
41
1
10
-0.230717856606447
20
-21.2021501855168
30
0
41
1
10
-0.225652972908108
20
-21.1810894553263
30
0
41
1
10
-0.212997240785569
20
-21.1169238357483
30
0
41
1
10
-0.207912783550967
20
-21.0728446192844
30
0
41
1
10
-0.201370159452296
20
-20.9829594108558
30
0
41
1
10
-0.200000000000159
20
-20.9371310990518
30
0
41
1
10
-0.200000000000159
20
-20.8905935280258
30
0
0
SPLINE
5
DA
100
AcDbEntity
8
SK1
62
256
6
ByLayer
370
13
48
1
60
0
100
AcDbSpline
70
4
71
3
72
122
73
118
40
0
40
0
40
0
40
0
40
0.0012060370327955
40
0.0086507230426864
40
0.0160954090525772
40
0.0235400950624681
40
0.0309847810723589
40
0.0384294670822498
40
0.0458741530921406
40
0.0533188391020315
40
0.0607635251119223
40
0.0682082111218132
40
0.075652897131704
40
0.0830975831415949
40
0.0905422691514857
40
0.0979869551613766
40
0.105431641171267
40
0.112876327181158
40
0.120321013191049
40
0.12776569920094
40
0.142655071220722
40
0.157544443240503
40
0.164989129250394
40
0.172433815260285
40
0.179878501270176
40
0.187323187280067
40
0.194767873289958
40
0.202212559299848
40
0.209657245309739
40
0.21710193131963
40
0.224546617329521
40
0.231991303339412
40
0.239435989349303
40
0.246880675359194
40
0.261770047378975
40
0.269214733388866
40
0.276659419398757
40
0.284104105408648
40
0.291548791418539
40
0.29899347742843
40
0.30643816343832
40
0.321327535458102
40
0.336216907477884
40
0.343661593487775
40
0.351106279497665
40
0.365995651517447
40
0.380885023537229
40
0.38832970954712
40
0.39577439555701
40
0.410663767576792
40
0.425553139596574
40
0.440442511616356
40
0.447887197626247
40
0.455331883636137
40
0.462776569646028
40
0.470221255655919
40
0.47766594166581
40
0.485110627675701
40
0.492555313685592
40
0.499999999695482
40
0.499999999695482
40
0.514889371715264
40
0.529778743735046
40
0.544668115754828
40
0.552112801764718
40
0.559557487774609
40
0.574446859794391
40
0.589336231814173
40
0.604225603833954
40
0.611670289843845
40
0.619114975853736
40
0.634004347873518
40
0.648893719893299
40
0.65633840590319
40
0.663783091913081
40
0.678672463932863
40
0.686117149942754
40
0.693561835952645
40
0.701006521962535
40
0.708451207972426
40
0.715895893982317
40
0.723340579992208
40
0.730785266002099
40
0.73822995201199
40
0.753119324031771
40
0.760564010041662
40
0.768008696051553
40
0.775453382061444
40
0.782898068071335
40
0.790342754081226
40
0.797787440091116
40
0.805232126101007
40
0.812676812110898
40
0.820121498120789
40
0.82756618413068
40
0.835010870140571
40
0.842455556150462
40
0.857344928170243
40
0.872234300190025
40
0.879678986199916
40
0.887123672209807
40
0.894568358219697
40
0.902013044229588
40
0.909457730239479
40
0.91690241624937
40
0.924347102259261
40
0.931791788269152
40
0.939236474279043
40
0.946681160288933
40
0.954125846298824
40
0.961570532308715
40
0.969015218318606
40
0.976459904328497
40
0.983904590338388
40
0.991349276348279
40
0.998793962358169
40
1
40
1
40
1
40
1
41
1
10
-0.394976888875306
20
-21.3163207485064
30
0
41
1
10
-0.394976888875306
20
-21.3018227239952
30
0
41
1
10
-0.394976888875306
20
-21.1977310243633
30
0
41
1
10
-0.394976888875306
20
-21.0027201523903
30
0
41
1
10
-0.394976888875306
20
-20.7291582061337
30
0
41
1
10
-0.394976888875306
20
-20.452777118662
30
0
41
1
10
-0.394976888875306
20
-20.1737106348329
30
0
41
1
10
-0.394976888875306
20
-19.8920835833406
30
0
41
1
10
-0.394976888875306
20
-19.6080120419108
30
0
41
1
10
-0.394976888875306
20
-19.3216046192194
30
0
41
1
10
-0.394976888875306
20
-19.0329628622248
30
0
41
1
10
-0.394976888875306
20
-18.7421822834809
30
0
41
1
10
-0.394976888875306
20
-18.4493522125389
30
0
41
1
10
-0.394976888875306
20
-18.1545573465826
30
0
41
1
10
-0.394976888875306
20
-17.8578771011416
30
0
41
1
10
-0.394976888875306
20
-17.5593870931291
30
0
41
1
10
-0.394976888875306
20
-17.2591580343944
30
0
41
1
10
-0.394976888875306
20
-16.9572579345757
30
0
41
1
10
-0.394976888875306
20
-16.6537517239283
30
0
41
1
10
-0.394976888875306
20
-16.2469052471354
30
0
41
1
10
-0.394976888875306
20
-15.7348703587494
30
0
41
1
10
-0.394976888875306
20
-15.2182509888962
30
0
41
1
10
-0.394976888875306
20
-14.8022108025679
30
0
41
1
10
-0.394976888875306
20
-14.4890253748684
30
0
41
1
10
-0.394976888875306
20
-14.1746533021908
30
0
41
1
10
-0.394976888875306
20
-13.859138645776
30
0
41
1
10
-0.394976888875306
20
-13.5425230263143
30
0
41
1
10
-0.394976888875306
20
-13.2248465057009
30
0
41
1
10
-0.394976888875306
20
-12.9061488141037
30
0
41
1
10
-0.394976888875306
20
-12.5864669082106
30
0
41
1
10
-0.394976888875306
20
-12.265837530566
30
0
41
1
10
-0.394976888875306
20
-11.944296480594
30
0
41
1
10
-0.394976888875306
20
-11.6218772816627
30
0
41
1
10
-0.394976888875306
20
-11.1907630166369
30
0
41
1
10
-0.394976888875306
20
-10.7583102465904
30
0
41
1
10
-0.394976888875306
20
-10.324076535943
30
0
41
1
10
-0.394976888875306
20
-9.99775090727056
30
0
41
1
10
-0.394976888875306
20
-9.67073403407659
30
0
41
1
10
-0.394976888875306
20
-9.3430551550301
30
0
41
1
10
-0.394976888875306
20
-9.01474207304909
30
0
41
1
10
-0.394976888875306
20
-8.57608922745698
30
0
41
1
10
-0.394976888875306
20
-8.02652755969206
30
0
41
1
10
-0.394976888875306
20
-7.47520643928186
30
0
41
1
10
-0.394976888875306
20
-7.03302930742041
30
0
41
1
10
-0.394976888875306
20
-6.59024543370441
30
0
41
1
10
-0.394976888875306
20
-6.03589104102917
30
0
41
1
10
-0.394976888875306
20
-5.48025992123092
30
0
41
1
10
-0.394976888875306
20
-5.03491903052424
30
0
41
1
10
-0.394976888875306
20
-4.58915670558488
30
0
41
1
10
-0.394976888875306
20
-4.03141865505137
30
0
41
1
10
-0.394976888875306
20
-3.36102867556545
30
0
41
1
10
-0.394976888875306
20
-2.80176814496676
30
0
41
1
10
-0.394976888875306
20
-2.35387209185564
30
0
41
1
10
-0.394976888875306
20
-2.01787137342723
30
0
41
1
10
-0.394976888875306
20
-1.68174755108464
30
0
41
1
10
-0.394976888875306
20
-1.34552081559994
30
0
41
1
10
-0.394976888875306
20
-1.00921222779297
30
0
41
1
10
-0.394976888875306
20
-0.672842400960462
30
0
41
1
10
-0.394976888875306
20
-0.336431338424092
30
0
41
1
10
-0.394976888875306
20
-0.112230779717692
30
0
41
1
10
-0.394976888875306
20
0.224461742940463
30
0
41
1
10
-0.394976888875306
20
0.672862576914355
30
0
41
1
10
-0.394976888875306
20
1.34556142711159
30
0
41
1
10
-0.394976888875306
20
1.90578370656439
30
0
41
1
10
-0.394976888875306
20
2.35387209789798
30
0
41
1
10
-0.394976888875306
20
2.80176814028943
30
0
41
1
10
-0.394976888875306
20
3.36102867243457
30
0
41
1
10
-0.394976888875306
20
4.03141865047618
30
0
41
1
10
-0.394976888875306
20
4.58915670079745
30
0
41
1
10
-0.394976888875306
20
5.03491902771114
30
0
41
1
10
-0.394976888875306
20
5.48025991732288
30
0
41
1
10
-0.394976888875306
20
6.03589103636
30
0
41
1
10
-0.394976888875306
20
6.59024542863818
30
0
41
1
10
-0.394976888875306
20
7.03302930297536
30
0
41
1
10
-0.394976888875306
20
7.47520645304215
30
0
41
1
10
-0.394976888875306
20
7.91615593419453
30
0
41
1
10
-0.394976888875306
20
8.35632091923927
30
0
41
1
10
-0.394976888875306
20
8.68582165187388
30
0
41
1
10
-0.394976888875306
20
9.01474222373855
30
0
41
1
10
-0.394976888875306
20
9.34305533824104
30
0
41
1
10
-0.394976888875306
20
9.67073401694529
30
0
41
1
10
-0.394976888875306
20
9.99775079952451
30
0
41
1
10
-0.394976888875306
20
10.3240764957316
30
0
41
1
10
-0.394976888875306
20
10.7583102808165
30
0
41
1
10
-0.394976888875306
20
11.1907630049688
30
0
41
1
10
-0.394976888875306
20
11.6218772856284
30
0
41
1
10
-0.394976888875306
20
11.9442964711808
30
0
41
1
10
-0.394976888875306
20
12.2658375394407
30
0
41
1
10
-0.394976888875306
20
12.5864669060899
30
0
41
1
10
-0.394976888875306
20
12.9061488078149
30
0
41
1
10
-0.394976888875306
20
13.2248465274508
30
0
41
1
10
-0.394976888875306
20
13.5425230520475
30
0
41
1
10
-0.394976888875306
20
13.8591386613936
30
0
41
1
10
-0.394976888875306
20
14.1746532674305
30
0
41
1
10
-0.394976888875306
20
14.4890252113632
30
0
41
1
10
-0.394976888875306
20
14.8022105892065
30
0
41
1
10
-0.394976888875306
20
15.2182510937728
30
0
41
1
10
-0.394976888875306
20
15.7348707789355
30
0
41
1
10
-0.394976888875306
20
16.2469048400437
30
0
41
1
10
-0.394976888875306
20
16.6537518020903
30
0
41
1
10
-0.394976888875306
20
16.9572582284566
30
0
41
1
10
-0.394976888875306
20
17.2591580699291
30
0
41
1
10
-0.394976888875306
20
17.5593869398216
30
0
41
1
10
-0.394976888875306
20
17.8578770718742
30
0
41
1
10
-0.394976888875306
20
18.1545573497486
30
0
41
1
10
-0.394976888875306
20
18.4493521755366
30
0
41
1
10
-0.394976888875306
20
18.7421822476025
30
0
41
1
10
-0.394976888875306
20
19.0329628644207
30
0
41
1
10
-0.394976888875306
20
19.3216046174907
30
0
41
1
10
-0.394976888875306
20
19.6080119995418
30
0
41
1
10
-0.394976888875306
20
19.8920835501006
30
0
41
1
10
-0.394976888875306
20
20.1737106438677
30
0
41
1
10
-0.394976888875306
20
20.4527771059616
30
0
41
1
10
-0.394976888875306
20
20.7291581564101
30
0
41
1
10
-0.394976888875306
20
21.0027201446337
30
0
41
1
10
-0.394976888875306
20
21.1977310360293
30
0
41
1
10
-0.394976888875306
20
21.3018227319127
30
0
41
1
10
-0.394976888875306
20
21.316320761974
30
0
0
SPLINE
5
DB
100
AcDbEntity
8
SK1
62
256
6
ByLayer
370
18
48
1
60
0
100
AcDbSpline
70
4
71
3
72
22
73
18
40
0
40
0
40
0
40
0
40
0.25
40
0.25
40
0.3125
40
0.3125
40
0.375
40
0.375
40
0.499999999999999
40
0.499999999999999
40
0.624999999999999
40
0.624999999999999
40
0.687499999999999
40
0.687499999999999
40
0.749999999999999
40
0.749999999999999
40
1
40
1
40
1
40
1
41
1
10
-1.30710678118655
20
26.9276529415625
30
-1E-16
41
1
10
-1.43200815237154
20
26.7782880986556
30
-1E-16
41
1
10
-1.54097070429043
20
26.5864124640885
30
-1E-16
41
1
10
-1.63962101837853
20
26.2744001411876
30
-1E-16
41
1
10
-1.65743347896964
20
26.2083375648426
30
-1E-16
41
1
10
-1.68862620973846
20
26.0682054353583
30
-1E-16
41
1
10
-1.7020295533915
20
25.9939354327914
30
-1E-16
41
1
10
-1.73448177809703
20
25.7596348648701
30
-1E-16
41
1
10
-1.74566488786226
20
25.5884394162283
30
-1E-16
41
1
10
-1.74566383988289
20
25.2150700884676
30
-1E-16
41
1
10
-1.7344779340319
20
25.0128952810014
30
-1E-16
41
1
10
-1.70239090648334
20
24.6876585492944
30
-1E-16
41
1
10
-1.68916294825496
20
24.5755982169528
30
-1E-16
41
1
10
-1.65810003590352
20
24.344550748742
30
-1E-16
41
1
10
-1.6402290759934
20
24.2253708625328
30
-1E-16
41
1
10
-1.54131489667799
20
23.617485740365
30
-1E-16
41
1
10
-1.43206022259395
20
23.0909416140945
30
-1E-16
41
1
10
-1.30710678118655
20
22.5344196913573
30
-1E-16
0
SPLINE
5
DC
100
AcDbEntity
8
SK1
62
256
6
ByLayer
370
13
48
1
60
0
100
AcDbSpline
70
4
71
3
72
161
73
157
40
0
40
0
40
0
40
0
40
0.017843066597055
40
0.03568613319411
40
0.053529199791165
40
0.0624507330896925
40
0.07137226638822
40
0.089215332985275
40
0.10705839958233
40
0.124901466179385
40
0.133822999477913
40
0.14274453277644
40
0.160587599373495
40
0.17843066597055
40
0.187352199269078
40
0.196273732567605
40
0.21411679916466
40
0.223038332463188
40
0.231959865761715
40
0.240881399060243
40
0.24980293235877
40
0.258724465657298
40
0.267645998955825
40
0.276567532254353
40
0.28548906555288
40
0.303332132149935
40
0.312253665448463
40
0.32117519874699
40
0.330096732045518
40
0.339018265344045
40
0.347939798642573
40
0.3568613319411
40
0.365782865239628
40
0.374704398538155
40
0.383625931836683
40
0.39254746513521
40
0.401468998433738
40
0.410390531732265
40
0.42823359832932
40
0.446076664926375
40
0.454998198224903
40
0.46391973152343
40
0.472841264821958
40
0.481762798120485
40
0.490684331419013
40
0.49960586471754
40
0.508527398016068
40
0.517448931314595
40
0.526370464613123
40
0.53529199791165
40
0.544213531210178
40
0.553135064508705
40
0.562056597807233
40
0.57097813110576
40
0.579899664404288
40
0.588821197702815
40
0.597742731001343
40
0.60666426429987
40
0.611125030949134
40
0.615585797598398
40
0.624507330896925
40
0.633428864195453
40
0.637889630844717
40
0.64235039749398
40
0.646811164143244
40
0.651271930792508
40
0.660193464091035
40
0.664654230740299
40
0.666884614064931
40
0.669114997389563
40
0.673575764038827
40
0.67803653068809
40
0.682497297337354
40
0.686958063986618
40
0.691418830635882
40
0.695879597285145
40
0.700340363934409
40
0.704801130583673
40
0.709261897232937
40
0.7137226638822
40
0.718183430531464
40
0.722644197180728
40
0.72487458050536
40
0.727104963829992
40
0.731565730479255
40
0.733796113803887
40
0.736026497128519
40
0.738256880453151
40
0.740487263777783
40
0.744948030427047
40
0.74940879707631
40
0.751639180400942
40
0.753869563725574
40
0.756099947050206
40
0.758330330374838
40
0.76056071369947
40
0.762791097024102
40
0.767251863673365
40
0.769482246997997
40
0.771712630322629
40
0.773943013647261
40
0.776173396971893
40
0.778403780296525
40
0.780634163621157
40
0.782864546945788
40
0.78509493027042
40
0.787325313595052
40
0.789555696919684
40
0.791786080244316
40
0.794016463568948
40
0.79624684689358
40
0.798477230218212
40
0.800707613542843
40
0.802937996867475
40
0.805168380192107
40
0.807398763516739
40
0.809629146841371
40
0.811859530166003
40
0.814089913490635
40
0.816320296815267
40
0.818550680139899
40
0.82078106346453
40
0.823011446789162
40
0.825241830113794
40
0.827472213438426
40
0.829702596763058
40
0.83193298008769
40
0.834163363412322
40
0.838624130061585
40
0.843084896710849
40
0.847545663360113
40
0.852006430009377
40
0.85646719665864
40
0.860927963307904
40
0.865388729957168
40
0.869849496606432
40
0.874310263255695
40
0.883231796554223
40
0.887692563203487
40
0.89215332985275
40
0.894383713177382
40
0.896614096502014
40
0.901074863151278
40
0.905535629800542
40
0.909996396449805
40
0.918917929748333
40
0.92783946304686
40
0.936760996345388
40
0.945682529643915
40
0.954604062942443
40
0.96352559624097
40
0.972447129539498
40
0.981368662838025
40
0.990290196136553
40
0.99921172943508
40
1
40
1
40
1
40
1
41
1
10
-1.99503997793928
20
7.94346136E-08
30
-1E-16
41
1
10
-1.99503997793928
20
0.224305830951977
30
-1E-16
41
1
10
-1.99503997793928
20
0.672238764265273
30
-1E-16
41
1
10
-1.99503997793928
20
1.34431344988474
30
-1E-16
41
1
10
-1.99503997793928
20
1.90398906697999
30
-1E-16
41
1
10
-1.99503997793928
20
2.35168652192752
30
-1E-16
41
1
10
-1.99503997793928
20
2.79919113938703
30
-1E-16
41
1
10
-1.99503997793928
20
3.35790262472165
30
-1E-16
41
1
10
-1.99503997793928
20
4.02766352235821
30
-1E-16
41
1
10
-1.99503997793928
20
4.58484945031745
30
-1E-16
41
1
10
-1.99503997793928
20
5.03021623572519
30
-1E-16
41
1
10
-1.99503997793928
20
5.4751604890721
30
-1E-16
41
1
10
-1.99503997793928
20
6.03023421560655
30
-1E-16
41
1
10
-1.99503997793928
20
6.58402888724112
30
-1E-16
41
1
10
-1.99503997793928
20
7.02641119404092
30
-1E-16
41
1
10
-1.99503997793928
20
7.46818517165306
30
-1E-16
41
1
10
-1.99503997793928
20
7.90864860243562
30
-1E-16
41
1
10
-1.99503997793928
20
8.3484065876707
30
-1E-16
41
1
10
-1.99503997793928
20
8.67758034376635
30
-1E-16
41
1
10
-1.99503997793928
20
9.00617266837784
30
-1E-16
41
1
10
-1.99503997793928
20
9.33415606208501
30
-1E-16
41
1
10
-1.99503997793928
20
9.66150362847907
30
-1E-16
41
1
10
-1.99503997793928
20
9.98818783353002
30
-1E-16
41
1
10
-1.99503997793928
20
10.3141792767544
30
-1E-16
41
1
10
-1.99503997793928
20
10.7479929585306
30
-1E-16
41
1
10
-1.99503997793928
20
11.1799378816245
30
-1E-16
41
1
10
-1.99503997793928
20
11.6106258590773
30
-1E-16
41
1
10
-1.99503997793928
20
11.9327017176863
30
-1E-16
41
1
10
-1.99503997793928
20
12.2538973315894
30
-1E-16
41
1
10
-1.99503997793928
20
12.5741791417455
30
-1E-16
41
1
10
-1.99503997793928
20
12.893511130661
30
-1E-16
41
1
10
-1.99503997793928
20
13.2118565589658
30
-1E-16
41
1
10
-1.99503997793928
20
13.5291783377438
30
-1E-16
41
1
10
-1.99503997793928
20
13.8454365059088
30
-1E-16
41
1
10
-1.99503997793928
20
14.1605909816627
30
-1E-16
41
1
10
-1.99503997793928
20
14.4745999002053
30
-1E-16
41
1
10
-1.99503997793928
20
14.787419267749
30
-1E-16
41
1
10
-1.99503997793928
20
15.2029978422788
30
-1E-16
41
1
10
-1.99503997793928
20
15.7189613709053
30
-1E-16
41
1
10
-1.99503997793928
20
16.2303292640588
30
-1E-16
41
1
10
-1.99503997793928
20
16.6366929168026
30
-1E-16
41
1
10
-1.99503997793928
20
16.9398078620031
30
-1E-16
41
1
10
-1.99503997793928
20
17.2413118597699
30
-1E-16
41
1
10
-1.99503997793928
20
17.5411402571002
30
-1E-16
41
1
10
-1.99503997793928
20
17.8392250724844
30
-1E-16
41
1
10
-1.99503997793928
20
18.135494920628
30
-1E-16
41
1
10
-1.99503997793928
20
18.4298739394469
30
-1E-16
41
1
10
-1.99503997793928
20
18.7222825468207
30
-1E-16
41
1
10
-1.99503997793928
20
19.0126357158624
30
-1E-16
41
1
10
-1.99503997793928
20
19.3008437171044
30
-1E-16
41
1
10
-1.99503997793928
20
19.5868106848665
30
-1E-16
41
1
10
-1.99503997793928
20
19.8704347910278
30
-1E-16
41
1
10
-1.99503997793928
20
20.1516070014251
30
-1E-16
41
1
10
-1.99503997793928
20
20.4302106948763
30
-1E-16
41
1
10
-1.99503997793928
20
20.7061206686989
30
-1E-16
41
1
10
-1.99503997793928
20
20.9792027518392
30
-1E-16
41
1
10
-1.99503997793928
20
21.2493114534092
30
-1E-16
41
1
10
-1.99503997793928
20
21.4717082410444
30
-1E-16
41
1
10
-1.99503997793928
20
21.6481392740731
30
-1E-16
41
1
10
-1.99503997793928
20
21.8234369432997
30
-1E-16
41
1
10
-1.99503997793928
20
22.0401687387846
30
-1E-16
41
1
10
-1.99503997793928
20
22.2538410827748
30
-1E-16
41
1
10
-1.99503997793928
20
22.4230032190492
30
-1E-16
41
1
10
-1.99503997793928
20
22.5487953969789
30
-1E-16
41
1
10
-1.99503997793928
20
22.6735529697308
30
-1E-16
41
1
10
-1.99503997793928
20
22.8385746792056
30
-1E-16
41
1
10
-1.99503997793928
20
23.0010938541142
30
-1E-16
41
1
10
-1.99503997793928
20
23.1414935434755
30
-1E-16
41
1
10
-1.99503997793928
20
23.2211392653431
30
-1E-16
41
1
10
-1.99503997793928
20
23.300375584797
30
-1E-16
41
1
10
-1.99503997793928
20
23.3985224359377
30
-1E-16
41
1
10
-1.99503997793928
20
23.5150796554211
30
-1E-16
41
1
10
-1.99503997793928
20
23.6303105004546
30
-1E-16
41
1
10
-1.99503997793928
20
23.7441714094347
30
-1E-16
41
1
10
-1.99503997793928
20
23.8566167004397
30
-1E-16
41
1
10
-1.99503997793928
20
23.967601580474
30
-1E-16
41
1
10
-1.99503997793928
20
24.0770764894368
30
-1E-16
41
1
10
-1.99503997793928
20
24.1849952253856
30
-1E-16
41
1
10
-1.99503997793928
20
24.2913055152256
30
-1E-16
41
1
10
-1.99503997793928
20
24.3959601959826
30
-1E-16
41
1
10
-1.99503997793928
20
24.49890601997
30
-1E-16
41
1
10
-1.99503997793928
20
24.5831736955521
30
-1E-16
41
1
10
-1.99503997793928
20
24.6497884330276
30
-1E-16
41
1
10
-1.99503997793928
20
24.7157925387511
30
-1E-16
41
1
10
-1.99503997793928
20
24.7806928133553
30
-1E-16
41
1
10
-1.99503997793928
20
24.8448192491405
30
-1E-16
41
1
10
-1.99503997793928
20
24.8923896743162
30
-1E-16
41
1
10
-1.99503997793928
20
24.9394727220282
30
-1E-16
41
1
10
-1.99503997793928
20
25.0016531088648
30
-1E-16
41
1
10
-1.99503997793928
20
25.0780090795153
30
-1E-16
41
1
10
-1.99503997793928
20
25.1526809478242
30
-1E-16
41
1
10
-1.99503997793928
20
25.211494835117
30
-1E-16
41
1
10
-1.99503997793928
20
25.2550448154975
30
-1E-16
41
1
10
-1.99503997793928
20
25.2980753327814
30
-1E-16
41
1
10
-1.99503997793928
20
25.3405841077683
30
-1E-16
41
1
10
-1.99503997793928
20
25.382566570601
30
-1E-16
41
1
10
-1.99503997793928
20
25.4378934434821
30
-1E-16
41
1
10
-1.99503997793928
20
25.4920058829179
30
-1E-16
41
1
10
-1.99503997793928
20
25.5452087831979
30
-1E-16
41
1
10
-1.99503997793928
20
25.5845414059328
30
-1E-16
41
1
10
-1.99503997793928
20
25.6233422686648
30
-1E-16
41
1
10
-1.99503997793928
20
25.6616096899505
30
-1E-16
41
1
10
-1.99503997793928
20
25.6993454605603
30
-1E-16
41
1
10
-1.99503997793928
20
25.7365511510746
30
-1E-16
41
1
10
-1.99503997793928
20
25.7732260749608
30
-1E-16
41
1
10
-1.99503997793928
20
25.8093719308055
30
-1E-16
41
1
10
-1.99503997793928
20
25.8449916452075
30
-1E-16
41
1
10
-1.99503997793928
20
25.8800865604514
30
-1E-16
41
1
10
-1.99503997793928
20
25.9146576892548
30
-1E-16
41
1
10
-1.99503997793928
20
25.9487089207489
30
-1E-16
41
1
10
-1.99503997793928
20
25.9822430924008
30
-1E-16
41
1
10
-1.99503997793928
20
26.0152621263574
30
-1E-16
41
1
10
-1.99503997793928
20
26.0477687888814
30
-1E-16
41
1
10
-1.99503997793928
20
26.0797676187272
30
-1E-16
41
1
10
-1.99503997793928
20
26.1112617319703
30
-1E-16
41
1
10
-1.99503997793928
20
26.1422537814568
30
-1E-16
41
1
10
-1.99503997793928
20
26.1727475459942
30
-1E-16
41
1
10
-1.99503997793928
20
26.202747704435
30
-1E-16
41
1
10
-1.99503997793928
20
26.2322577444464
30
-1E-16
41
1
10
-1.99503997793928
20
26.2612809026598
30
-1E-16
41
1
10
-1.99503997793928
20
26.2898214186147
30
-1E-16
41
1
10
-1.99503997793928
20
26.3178840106828
30
-1E-16
41
1
10
-1.99503997793928
20
26.345472465385
30
-1E-16
41
1
10
-1.99503997793928
20
26.3725902642274
30
-1E-16
41
1
10
-1.99503997793928
20
26.399241750479
30
-1E-16
41
1
10
-1.99503997793928
20
26.4254316691484
30
-1E-16
41
1
10
-1.99503997793928
20
26.4511640153824
30
-1E-16
41
1
10
-1.99503997793928
20
26.4848941313809
30
-1E-16
41
1
10
-1.99503997793928
20
26.5258767544618
30
-1E-16
41
1
10
-1.99503997793928
20
26.5733200096838
30
-1E-16
41
1
10
-1.99503997793928
20
26.6190288700791
30
-1E-16
41
1
10
-1.99503997793928
20
26.6630377811104
30
-1E-16
41
1
10
-1.99503997793928
20
26.7053760393115
30
-1E-16
41
1
10
-1.99503997793928
20
26.7460751294491
30
-1E-16
41
1
10
-1.99503997793928
20
26.7851650450258
30
-1E-16
41
1
10
-1.99503997793928
20
26.8226734075339
30
-1E-16
41
1
10
-1.99503997793928
20
26.8706463455342
30
-1E-16
41
1
10
-1.99503997793928
20
26.915482885868
30
-1E-16
41
1
10
-1.99503997793928
20
26.9574524858439
30
-1E-16
41
1
10
-1.99503997793928
20
26.9824494706684
30
-1E-16
41
1
10
-1.99503997793928
20
27.0017550547051
30
-1E-16
41
1
10
-1.99503997793928
20
27.0205897748338
30
-1E-16
41
1
10
-1.99503997793928
20
27.043234329301
30
-1E-16
41
1
10
-1.99503997793928
20
27.0690402080657
30
-1E-16
41
1
10
-1.99503997793928
20
27.1016567567677
30
-1E-16
41
1
10
-1.99503997793928
20
27.139049748447
30
-1E-16
41
1
10
-1.99503997793928
20
27.1787547487026
30
-1E-16
41
1
10
-1.99503997793928
20
27.2134236972891
30
-1E-16
41
1
10
-1.99503997793928
20
27.2431971812441
30
-1E-16
41
1
10
-1.99503997793928
20
27.2682040662888
30
-1E-16
41
1
10
-1.99503997793928
20
27.2885688002739
30
-1E-16
41
1
10
-1.99503997793928
20
27.3044053944291
30
-1E-16
41
1
10
-1.99503997793928
20
27.315821634458
30
-1E-16
41
1
10
-1.99503997793928
20
27.322919705082
30
-1E-16
41
1
10
-1.99503997793928
20
27.3249214867811
30
-1E-16
41
1
10
-1.99503997793928
20
27.3251489772661
30
-1E-16
41
1
10
-1.99503997793928
20
27.3251620791928
30
-1E-16
0
SPLINE
5
DD
100
AcDbEntity
8
SK1
62
256
6
ByLayer
370
13
48
1
60
0
100
AcDbSpline
70
4
71
3
72
163
73
159
40
0
40
0
40
0
40
0
40
0.0008473703000092
40
0.0097683759223305
40
0.0186893815446519
40
0.0276103871669732
40
0.0365313927892946
40
0.0454523984116159
40
0.0543734040339373
40
0.0632944096562586
40
0.07221541527858
40
0.0811364209009013
40
0.0900574265232227
40
0.0945179293343833
40
0.098978432145544
40
0.103438934956705
40
0.105669186362285
40
0.107899437767865
40
0.112359940579026
40
0.116820443390187
40
0.125741449012508
40
0.130201951823669
40
0.134662454634829
40
0.13912295744599
40
0.143583460257151
40
0.148043963068311
40
0.152504465879472
40
0.156964968690633
40
0.161425471501793
40
0.165885974312954
40
0.168116225718534
40
0.170346477124115
40
0.172576728529695
40
0.174806979935275
40
0.177037231340856
40
0.179267482746436
40
0.181497734152017
40
0.183727985557597
40
0.185958236963177
40
0.188188488368758
40
0.190418739774338
40
0.192648991179918
40
0.194879242585498
40
0.197109493991079
40
0.199339745396659
40
0.201569996802239
40
0.20380024820782
40
0.2060304996134
40
0.208260751018981
40
0.210491002424561
40
0.212721253830141
40
0.214951505235722
40
0.217181756641302
40
0.219412008046882
40
0.221642259452462
40
0.223872510858043
40
0.226102762263623
40
0.228333013669204
40
0.230563265074784
40
0.232793516480364
40
0.237254019291525
40
0.239484270697105
40
0.241714522102686
40
0.243944773508266
40
0.246175024913846
40
0.248405276319427
40
0.250635527725007
40
0.255096030536168
40
0.259556533347328
40
0.261786784752909
40
0.264017036158489
40
0.266247287564069
40
0.26847753896965
40
0.27293804178081
40
0.275168293186391
40
0.277398544591971
40
0.281859047403132
40
0.286319550214292
40
0.290780053025453
40
0.295240555836614
40
0.299701058647774
40
0.304161561458935
40
0.308622064270096
40
0.313082567081256
40
0.317543069892417
40
0.322003572703578
40
0.326464075514738
40
0.330924578325899
40
0.333154829731479
40
0.33538508113706
40
0.33984558394822
40
0.348766589570542
40
0.353227092381702
40
0.357687595192863
40
0.362148098004024
40
0.366608600815184
40
0.375529606437506
40
0.384450612059827
40
0.388911114870988
40
0.393371617682149
40
0.40229262330447
40
0.411213628926791
40
0.420134634549112
40
0.429055640171434
40
0.437976645793755
40
0.446897651416077
40
0.455818657038398
40
0.464739662660719
40
0.47366066828304
40
0.482581673905362
40
0.491502679527683
40
0.500423685150005
40
0.509344690772326
40
0.518265696394647
40
0.527186702016969
40
0.53610770763929
40
0.545028713261611
40
0.553949718883933
40
0.571791730128575
40
0.589633741373218
40
0.598554746995539
40
0.607475752617861
40
0.616396758240182
40
0.625317763862503
40
0.634238769484825
40
0.643159775107146
40
0.652080780729468
40
0.661001786351789
40
0.66992279197411
40
0.678843797596432
40
0.687764803218753
40
0.696685808841074
40
0.714527820085717
40
0.723448825708038
40
0.73236983133036
40
0.741290836952681
40
0.750211842575002
40
0.759132848197324
40
0.768053853819645
40
0.785895865064288
40
0.80373787630893
40
0.812658881931252
40
0.821579887553573
40
0.839421898798216
40
0.857263910042859
40
0.86618491566518
40
0.875105921287501
40
0.892947932532144
40
0.910789943776787
40
0.928631955021429
40
0.937552960643751
40
0.946473966266072
40
0.955394971888393
40
0.964315977510715
40
0.973236983133036
40
0.982157988755357
40
0.991078994377679
40
1
40
1
40
1
40
1
41
1
10
-1.99503997793928
20
-27.3251649253114
30
-1E-16
41
1
10
-1.99503997793928
20
-27.3251517029201
30
-1E-16
41
1
10
-1.99503997793928
20
-27.3249277895918
30
-1E-16
41
1
10
-1.99503997793928
20
-27.3229195577169
30
-1E-16
41
1
10
-1.99503997793928
20
-27.3158215455832
30
-1E-16
41
1
10
-1.99503997793928
20
-27.3044052246893
30
-1E-16
41
1
10
-1.99503997793928
20
-27.2885689280149
30
-1E-16
41
1
10
-1.99503997793928
20
-27.2682043693526
30
-1E-16
41
1
10
-1.99503997793928
20
-27.2431969906987
30
-1E-16
41
1
10
-1.99503997793928
20
-27.2134236785219
30
-1E-16
41
1
10
-1.99503997793928
20
-27.1787547221295
30
-1E-16
41
1
10
-1.99503997793928
20
-27.1390496745599
30
-1E-16
41
1
10
-1.99503997793928
20
-27.1016567497992
30
-1E-16
41
1
10
-1.99503997793928
20
-27.0690402124007
30
-1E-16
41
1
10
-1.99503997793928
20
-27.0432343109959
30
-1E-16
41
1
10
-1.99503997793928
20
-27.0205897312735
30
-1E-16
41
1
10
-1.99503997793928
20
-27.0017550019948
30
-1E-16
41
1
10
-1.99503997793928
20
-26.9824494185384
30
-1E-16
41
1
10
-1.99503997793928
20
-26.9574524568411
30
-1E-16
41
1
10
-1.99503997793928
20
-26.9154828984869
30
-1E-16
41
1
10
-1.99503997793928
20
-26.8706463250283
30
-1E-16
41
1
10
-1.99503997793928
20
-26.8226733534821
30
-1E-16
41
1
10
-1.99503997793928
20
-26.7851650061816
30
-1E-16
41
1
10
-1.99503997793928
20
-26.7460751252071
30
-1E-16
41
1
10
-1.99503997793928
20
-26.7053760434892
30
-1E-16
41
1
10
-1.99503997793928
20
-26.6630377572492
30
-1E-16
41
1
10
-1.99503997793928
20
-26.6190288209927
30
-1E-16
41
1
10
-1.99503997793928
20
-26.573319979803
30
-1E-16
41
1
10
-1.99503997793928
20
-26.5258767587526
30
-1E-16
41
1
10
-1.99503997793928
20
-26.484894130561
30
-1E-16
41
1
10
-1.99503997793928
20
-26.4511639984524
30
-1E-16
41
1
10
-1.99503997793928
20
-26.4254316380063
30
-1E-16
41
1
10
-1.99503997793928
20
-26.3992417130891
30
-1E-16
41
1
10
-1.99503997793928
20
-26.3725902306471
30
-1E-16
41
1
10
-1.99503997793928
20
-26.3454724431977
30
-1E-16
41
1
10
-1.99503997793928
20
-26.3178840034677
30
-1E-16
41
1
10
-1.99503997793928
20
-26.2898214197706
30
-1E-16
41
1
10
-1.99503997793928
20
-26.261280902566
30
-1E-16
41
1
10
-1.99503997793928
20
-26.2322577350432
30
-1E-16
41
1
10
-1.99503997793928
20
-26.202747681535
30
-1E-16
41
1
10
-1.99503997793928
20
-26.1727475159453
30
-1E-16
41
1
10
-1.99503997793928
20
-26.1422537536154
30
-1E-16
41
1
10
-1.99503997793928
20
-26.1112617139195
30
-1E-16
41
1
10
-1.99503997793928
20
-26.0797676139538
30
-1E-16
41
1
10
-1.99503997793928
20
-26.0477687904389
30
-1E-16
41
1
10
-1.99503997793928
20
-26.0152621252865
30
-1E-16
41
1
10
-1.99503997793928
20
-25.9822430824581
30
-1E-16
41
1
10
-1.99503997793928
20
-25.9487089005538
30
-1E-16
41
1
10
-1.99503997793928
20
-25.9146576665357
30
-1E-16
41
1
10
-1.99503997793928
20
-25.88008654275
30
-1E-16
41
1
10
-1.99503997793928
20
-25.8449916373402
30
-1E-16
41
1
10
-1.99503997793928
20
-25.809371930614
30
-1E-16
41
1
10
-1.99503997793928
20
-25.7732260755814
30
-1E-16
41
1
10
-1.99503997793928
20
-25.7365511468416
30
-1E-16
41
1
10
-1.99503997793928
20
-25.6993454492316
30
-1E-16
41
1
10
-1.99503997793928
20
-25.6616096754758
30
-1E-16
41
1
10
-1.99503997793928
20
-25.6233422560264
30
-1E-16
41
1
10
-1.99503997793928
20
-25.5845413988742
30
-1E-16
41
1
10
-1.99503997793928
20
-25.545208781488
30
-1E-16
41
1
10
-1.99503997793928
20
-25.4920058841855
30
-1E-16
41
1
10
-1.99503997793928
20
-25.437893441239
30
-1E-16
41
1
10
-1.99503997793928
20
-25.3825665645114
30
-1E-16
41
1
10
-1.99503997793928
20
-25.3405841000565
30
-1E-16
41
1
10
-1.99503997793928
20
-25.2980753258742
30
-1E-16
41
1
10
-1.99503997793928
20
-25.2550448124404
30
-1E-16
41
1
10
-1.99503997793928
20
-25.2114948370807
30
-1E-16
41
1
10
-1.99503997793928
20
-25.1526809554198
30
-1E-16
41
1
10
-1.99503997793928
20
-25.078009079385
30
-1E-16
41
1
10
-1.99503997793928
20
-25.001653100181
30
-1E-16
41
1
10
-1.99503997793928
20
-24.9394727173859
30
-1E-16
41
1
10
-1.99503997793928
20
-24.8923896782458
30
-1E-16
41
1
10
-1.99503997793928
20
-24.8448192623593
30
-1E-16
41
1
10
-1.99503997793928
20
-24.7806928279748
30
-1E-16
41
1
10
-1.99503997793928
20
-24.7157925391412
30
-1E-16
41
1
10
-1.99503997793928
20
-24.6497884233205
30
-1E-16
41
1
10
-1.99503997793928
20
-24.5831736897677
30
-1E-16
41
1
10
-1.99503997793928
20
-24.4989060406918
30
-1E-16
41
1
10
-1.99503997793928
20
-24.3959602158727
30
-1E-16
41
1
10
-1.99503997793928
20
-24.2913055051294
30
-1E-16
41
1
10
-1.99503997793928
20
-24.1849952195711
30
-1E-16
41
1
10
-1.99503997793928
20
-24.0770765173693
30
-1E-16
41
1
10
-1.99503997793928
20
-23.9676016072859
30
-1E-16
41
1
10
-1.99503997793928
20
-23.8566166933879
30
-1E-16
41
1
10
-1.99503997793928
20
-23.7441713987587
30
-1E-16
41
1
10
-1.99503997793928
20
-23.6303105238105
30
-1E-16
41
1
10
-1.99503997793928
20
-23.5150796921141
30
-1E-16
41
1
10
-1.99503997793928
20
-23.398522450115
30
-1E-16
41
1
10
-1.99503997793928
20
-23.3003755744515
30
-1E-16
41
1
10
-1.99503997793928
20
-23.2211392534528
30
-1E-16
41
1
10
-1.99503997793928
20
-23.141493546417
30
-1E-16
41
1
10
-1.99503997793928
20
-23.0010939029383
30
-1E-16
41
1
10
-1.99503997793928
20
-22.838574696816
30
-1E-16
41
1
10
-1.99503997793928
20
-22.6735529563728
30
-1E-16
41
1
10
-1.99503997793928
20
-22.5487953933089
30
-1E-16
41
1
10
-1.99503997793928
20
-22.4230032490789
30
-1E-16
41
1
10
-1.99503997793928
20
-22.2538411293775
30
-1E-16
41
1
10
-1.99503997793928
20
-22.0401687241599
30
-1E-16
41
1
10
-1.99503997793928
20
-21.8234369425688
30
-1E-16
41
1
10
-1.99503997793928
20
-21.6481393103691
30
-1E-16
41
1
10
-1.99503997793928
20
-21.4717082879054
30
-1E-16
41
1
10
-1.99503997793928
20
-21.2493114452461
30
-1E-16
41
1
10
-1.99503997793928
20
-20.9792027550548
30
-1E-16
41
1
10
-1.99503997793928
20
-20.7061207203009
30
-1E-16
41
1
10
-1.99503997793928
20
-20.4302107111111
30
-1E-16
41
1
10
-1.99503997793928
20
-20.151606988759
30
-1E-16
41
1
10
-1.99503997793928
20
-19.8704348219423
30
-1E-16
41
1
10
-1.99503997793928
20
-19.5868107314943
30
-1E-16
41
1
10
-1.99503997793928
20
-19.3008437203569
30
-1E-16
41
1
10
-1.99503997793928
20
-19.0126357092288
30
-1E-16
41
1
10
-1.99503997793928
20
-18.7222825813804
30
-1E-16
41
1
10
-1.99503997793928
20
-18.4298739799408
30
-1E-16
41
1
10
-1.99503997793928
20
-18.1354949141487
30
-1E-16
41
1
10
-1.99503997793928
20
-17.8392250940217
30
-1E-16
41
1
10
-1.99503997793928
20
-17.5411404337254
30
-1E-16
41
1
10
-1.99503997793928
20
-17.2413118565035
30
-1E-16
41
1
10
-1.99503997793928
20
-16.9398075380075
30
-1E-16
41
1
10
-1.99503997793928
20
-16.6366927856559
30
-1E-16
41
1
10
-1.99503997793928
20
-16.2303297133068
30
-1E-16
41
1
10
-1.99503997793928
20
-15.7189609642728
30
-1E-16
41
1
10
-1.99503997793928
20
-15.2029976794902
30
-1E-16
41
1
10
-1.99503997793928
20
-14.7874194891699
30
-1E-16
41
1
10
-1.99503997793928
20
-14.4746000937469
30
-1E-16
41
1
10
-1.99503997793928
20
-14.1605910293024
30
-1E-16
41
1
10
-1.99503997793928
20
-13.8454364919044
30
-1E-16
41
1
10
-1.99503997793928
20
-13.5291783096427
30
-1E-16
41
1
10
-1.99503997793928
20
-13.2118565328377
30
-1E-16
41
1
10
-1.99503997793928
20
-12.8935111363879
30
-1E-16
41
1
10
-1.99503997793928
20
-12.5741791457036
30
-1E-16
41
1
10
-1.99503997793928
20
-12.25389732062
30
-1E-16
41
1
10
-1.99503997793928
20
-11.9327017278654
30
-1E-16
41
1
10
-1.99503997793928
20
-11.6106258555797
30
-1E-16
41
1
10
-1.99503997793928
20
-11.1799378946102
30
-1E-16
41
1
10
-1.99503997793928
20
-10.7479929174148
30
-1E-16
41
1
10
-1.99503997793928
20
-10.3141793151651
30
-1E-16
41
1
10
-1.99503997793928
20
-9.98818797013078
30
-1E-16
41
1
10
-1.99503997793928
20
-9.661503672208
30
-1E-16
41
1
10
-1.99503997793928
20
-9.33415585167484
30
-1E-16
41
1
10
-1.99503997793928
20
-9.00617246346317
30
-1E-16
41
1
10
-1.99503997793928
20
-8.56792975820343
30
-1E-16
41
1
10
-1.99503997793928
20
-8.01893882223004
30
-1E-16
41
1
10
-1.99503997793928
20
-7.4681851521193
30
-1E-16
41
1
10
-1.99503997793928
20
-7.02641119858654
30
-1E-16
41
1
10
-1.99503997793928
20
-6.58402889232929
30
-1E-16
41
1
10
-1.99503997793928
20
-6.0302342205357
30
-1E-16
41
1
10
-1.99503997793928
20
-5.47516049298085
30
-1E-16
41
1
10
-1.99503997793928
20
-5.03021623822022
30
-1E-16
41
1
10
-1.99503997793928
20
-4.58484945513382
30
-1E-16
41
1
10
-1.99503997793928
20
-4.02766352722048
30
-1E-16
41
1
10
-1.99503997793928
20
-3.35790262761714
30
-1E-16
41
1
10
-1.99503997793928
20
-2.79919114421477
30
-1E-16
41
1
10
-1.99503997793928
20
-2.35168651293603
30
-1E-16
41
1
10
-1.99503997793928
20
-2.01599857741857
30
-1E-16
41
1
10
-1.99503997793928
20
-1.68018733006815
30
-1E-16
41
1
10
-1.99503997793928
20
-1.34427286416562
30
-1E-16
41
1
10
-1.99503997793928
20
-1.00827639832903
30
-1E-16
41
1
10
-1.99503997793928
20
-0.672218631338609
30
-1E-16
41
1
10
-1.99503997793928
20
-0.336119448099936
30
-1E-16
41
1
10
-1.99503997793928
20
-0.112152796324068
30
-1E-16
41
1
10
-1.99503997793928
20
7.94346136E-08
30
-1E-16
0
SPLINE
5
DE
100
AcDbEntity
8
SK1
62
256
6
ByLayer
370
18
48
1
60
0
100
AcDbSpline
70
2053
71
3
72
108
73
104
40
0
40
0
40
0
40
0
40
0.0312499999999998
40
0.0312499999999998
40
0.0468749999999996
40
0.0468749999999996
40
0.0624999999999995
40
0.0624999999999995
40
0.0937499999999992
40
0.0937499999999992
40
0.109374999999999
40
0.109374999999999
40
0.124999999999999
40
0.140624999999999
40
0.140624999999999
40
0.156249999999999
40
0.156249999999999
40
0.187499999999998
40
0.187499999999998
40
0.203124999999998
40
0.203124999999998
40
0.218749999999998
40
0.218749999999998
40
0.249999999999998
40
0.249999999999998
40
0.265624999999998
40
0.265624999999998
40
0.281249999999998
40
0.281249999999998
40
0.312499999999998
40
0.312499999999998
40
0.328124999999998
40
0.328124999999998
40
0.343749999999998
40
0.343749999999998
40
0.359374999999998
40
0.359374999999998
40
0.374999999999998
40
0.374999999999998
40
0.406249999999997
40
0.406249999999997
40
0.421874999999997
40
0.421874999999997
40
0.437499999999997
40
0.437499999999997
40
0.468749999999997
40
0.468749999999997
40
0.476562499999997
40
0.476562499999997
40
0.484374999999997
40
0.484374999999997
40
0.499999999999997
40
0.499999999999997
40
0.531249999999997
40
0.531249999999997
40
0.562499999999997
40
0.562499999999997
40
0.578124999999997
40
0.578124999999997
40
0.593749999999997
40
0.593749999999997
40
0.624999999999997
40
0.624999999999997
40
0.640624999999997
40
0.640624999999997
40
0.656249999999997
40
0.656249999999997
40
0.671874999999997
40
0.671874999999997
40
0.687499999999997
40
0.687499999999997
40
0.718749999999997
40
0.718749999999997
40
0.734374999999997
40
0.734374999999997
40
0.749999999999997
40
0.749999999999997
40
0.781249999999997
40
0.781249999999997
40
0.796874999999997
40
0.796874999999997
40
0.812499999999997
40
0.812499999999997
40
0.843749999999998
40
0.843749999999998
40
0.851562499999998
40
0.851562499999998
40
0.859374999999998
40
0.859374999999998
40
0.874999999999997
40
0.874999999999997
40
0.906249999999997
40
0.906249999999997
40
0.914062499999998
40
0.914062499999998
40
0.921874999999998
40
0.921874999999998
40
0.937499999999998
40
0.953124999999999
40
0.953124999999999
40
0.968749999999999
40
0.968749999999999
40
1
40
1
40
1
40
1
41
1
10
-29.95
20
3.076597692E-07
30
1.7E-15
41
1
10
-29.9500000198237
20
-0.326960379819468
30
1.7E-15
41
1
10
-29.9151141589391
20
-0.648192453496193
30
1.7E-15
41
1
10
-29.8126690541219
20
-1.1218149936121
30
1.7E-15
41
1
10
-29.7701024896564
20
-1.27830757620936
30
1.7E-15
41
1
10
-29.6677201050264
20
-1.58846351551341
30
1.7E-15
41
1
10
-29.6086545217645
20
-1.7397936468746
30
1.7E-15
41
1
10
-29.4094758459037
20
-2.1814707453054
30
1.8E-15
41
1
10
-29.2473533611314
20
-2.46034051686527
30
1.8E-15
41
1
10
-28.960365192286
20
-2.85542809620171
30
-1.8E-15
41
1
10
-28.8577912840833
20
-2.98246790092168
30
-1.8E-15
41
1
10
-28.6424406716654
20
-3.22367977612953
30
-1.8E-15
41
1
10
-28.4160140443361
20
-3.45325834655964
30
-1.7E-15
41
1
10
-28.167968628517
20
-3.66015658699499
30
-1.7E-15
41
1
10
-27.909062739962
20
-3.85567425720583
30
-1.7E-15
41
1
10
-27.7736750301118
20
-3.94797267583061
30
-1.7E-15
41
1
10
-27.3592380130264
20
-4.20244892046756
30
-1.7E-15
41
1
10
-27.069827871637
20
-4.34430532410298
30
-1.7E-15
41
1
10
-26.6166495521568
20
-4.51675683532969
30
-1.6E-15
41
1
10
-26.4619924564196
20
-4.5675791041696
30
-1.6E-15
41
1
10
-26.1478366369351
20
-4.65486222469522
30
-1.6E-15
41
1
10
-25.9898854217087
20
-4.69093545028173
30
-1.6E-15
41
1
10
-25.5135097773705
20
-4.77728105335365
30
-1.6E-15
41
1
10
-25.1925856017324
20
-4.80587011726817
30
-1.5E-15
41
1
10
-24.7061521726268
20
-4.80494645622124
30
-1.5E-15
41
1
10
-24.5425509878413
20
-4.79717383867285
30
-1.5E-15
41
1
10
-24.2198672956905
20
-4.76707025888794
30
-1.5E-15
41
1
10
-24.0601356696658
20
-4.74479230042701
30
-1.5E-15
41
1
10
-23.5856766054682
20
-4.65668233969737
30
-1.4E-15
41
1
10
-23.27564095299
20
-4.56977735464866
30
-1.4E-15
41
1
10
-22.8203891598531
20
-4.39521212632638
30
-1.4E-15
41
1
10
-22.6712323486582
20
-4.32989136236435
30
-1.4E-15
41
1
10
-22.3821737510632
20
-4.18698296210277
30
-1.4E-15
41
1
10
-22.2416297543974
20
-4.10915626602224
30
-1.4E-15
41
1
10
-21.968483787182
20
-3.94077546800725
30
-1.3E-15
41
1
10
-21.8358813216387
20
-3.85022221599647
30
-1.3E-15
41
1
10
-21.578817756995
20
-3.65603777113606
30
-1.3E-15
41
1
10
-21.4539290198465
20
-3.55201149153109
30
-1.3E-15
41
1
10
-21.0950196463926
20
-3.22182603252841
30
-1.3E-15
41
1
10
-20.8809206935306
20
-2.98202432165428
30
-1.3E-15
41
1
10
-20.5973054910948
20
-2.59285679142209
30
-1.3E-15
41
1
10
-20.509066742856
20
-2.45818911420528
30
-1.3E-15
41
1
10
-20.3457299174521
20
-2.17851871480079
30
-1.2E-15
41
1
10
-20.2704385406898
20
-2.03287190561926
30
-1.2E-15
41
1
10
-20.070245150128
20
-1.59040788440549
30
-1.2E-15
41
1
10
-19.9687936271286
20
-1.28527159689651
30
-1.2E-15
41
1
10
-19.8825633275714
20
-0.890940725893074
30
-1.2E-15
41
1
10
-19.8673656402314
20
-0.811422993269559
30
-1.2E-15
41
1
10
-19.841160873673
20
-0.651054105206327
30
-1.2E-15
41
1
10
-19.8301291983234
20
-0.569941880281476
30
-1.2E-15
41
1
10
-19.8037324090066
20
-0.326750505359598
30
-1.2E-15
41
1
10
-19.7950024738947
20
-0.165042347292513
30
-1.2E-15
41
1
10
-19.7946028768919
20
0.318862123376562
30
-1.2E-15
41
1
10
-19.8284623109742
20
0.63985063259608
30
-1.2E-15
41
1
10
-19.9665261704429
20
1.27850210271839
30
-1.2E-15
41
1
10
-20.0684763659165
20
1.5853961615114
30
-1.2E-15
41
1
10
-20.267267413997
20
2.02640376730974
30
-1.2E-15
41
1
10
-20.3412610984598
20
2.17026811846205
30
-1.2E-15
41
1
10
-20.5049144151733
20
2.45164701854568
30
-1.3E-15
41
1
10
-20.5940309782297
20
2.5880833656658
30
-1.3E-15
41
1
10
-20.8789071256934
20
2.97980940880908
30
-1.3E-15
41
1
10
-21.0933404955164
20
3.21998200733944
30
-1.3E-15
41
1
10
-21.4510550011226
20
3.54951479476702
30
-1.3E-15
41
1
10
-21.5765426813018
20
3.65422451728179
30
-1.3E-15
41
1
10
-21.8344097872067
20
3.84920393588376
30
-1.3E-15
41
1
10
-21.9673908170137
20
3.94006932303915
30
-1.3E-15
41
1
10
-22.2412286489011
20
4.10894121018549
30
-1.4E-15
41
1
10
-22.3820860381423
20
4.18694669249561
30
-1.4E-15
41
1
10
-22.6716876210398
20
4.3301093349078
30
-1.4E-15
41
1
10
-22.8211462229968
20
4.39552706317281
30
-1.4E-15
41
1
10
-23.2762180974231
20
4.56994918876637
30
-1.4E-15
41
1
10
-23.5864193342882
20
4.65689632346025
30
-1.4E-15
41
1
10
-24.0615933551816
20
4.74502474765782
30
-1.5E-15
41
1
10
-24.2216414830826
20
4.76730194296525
30
-1.5E-15
41
1
10
-24.5451275804469
20
4.79734714092194
30
-1.5E-15
41
1
10
-24.7085997473208
20
4.80501647976968
30
-1.5E-15
41
1
10
-25.194221473726
20
4.80574113321867
30
-1.5E-15
41
1
10
-25.5149306697924
20
4.77711799449165
30
-1.6E-15
41
1
10
-25.9914415234097
20
4.6906058115448
30
-1.6E-15
41
1
10
-26.1495146288256
20
4.65445811586642
30
-1.6E-15
41
1
10
-26.4640686201429
20
4.56693942591608
30
-1.6E-15
41
1
10
-26.6182707909401
20
4.51618956080429
30
-1.6E-15
41
1
10
-27.0708274794898
20
4.34382488263867
30
-1.7E-15
41
1
10
-27.359702772984
20
4.2021501095499
30
-1.7E-15
41
1
10
-27.7042933498884
20
3.99057837506206
30
-1.7E-15
41
1
10
-27.7723790598803
20
3.94652496329084
30
-1.7E-15
41
1
10
-27.9068432370711
20
3.85484996797493
30
-1.7E-15
41
1
10
-27.9733082653207
20
3.80714935021555
30
-1.7E-15
41
1
10
-28.1679042794579
20
3.66022248478828
30
-1.7E-15
41
1
10
-28.2919649219469
20
3.55672152097193
30
-1.7E-15
41
1
10
-28.6473852734588
20
3.22979357638732
30
-1.8E-15
41
1
10
-28.8621574178717
20
2.99011239305915
30
-1.8E-15
41
1
10
-29.101224027557
20
2.66163659949066
30
1.8E-15
41
1
10
-29.1476847445595
20
2.59427333023649
30
1.8E-15
41
1
10
-29.2366738809021
20
2.45788841861034
30
1.8E-15
41
1
10
-29.279244706304
20
2.38883420130634
30
1.8E-15
41
1
10
-29.4012606174915
20
2.17911830959753
30
1.8E-15
41
1
10
-29.5487857734575
20
1.89270114309778
30
1.7E-15
41
1
10
-29.6660875090535
20
1.5927243075418
30
1.7E-15
41
1
10
-29.7678662223923
20
1.28577748888432
30
1.7E-15
41
1
10
-29.8111578865827
20
1.12800046178572
30
1.7E-15
41
1
10
-29.9150808109676
20
0.649991339430443
30
1.7E-15
41
1
10
-29.9499999801763
20
0.326960995139018
30
1.7E-15
41
1
10
-29.95
20
3.076597692E-07
30
1.7E-15
0
SPLINE
5
DF
100
AcDbEntity
8
SK1
62
256
6
ByLayer
370
18
48
1
60
0
100
AcDbSpline
70
4
71
3
72
22
73
18
40
0
40
0
40
0
40
0
40
0.25
40
0.25
40
0.3125
40
0.3125
40
0.375000000000001
40
0.375000000000001
40
0.5
40
0.5
40
0.625
40
0.625
40
0.687499999999999
40
0.687499999999999
40
0.749999999999999
40
0.749999999999999
40
1
40
1
40
1
40
1
41
1
10
-1.30710678118655
20
-22.5344195650362
30
-1E-16
41
1
10
-1.4320030385224
20
-23.0906872325829
30
-1E-16
41
1
10
-1.54096999786574
20
-23.6160563871697
30
-1E-16
41
1
10
-1.63962391285582
20
-24.2214820293744
30
-1E-16
41
1
10
-1.65743567614572
20
-24.3399666859714
30
-1E-16
41
1
10
-1.68862822788614
20
-24.5712766979751
30
-1E-16
41
1
10
-1.70203395195381
20
-24.6843721640579
30
-1E-16
41
1
10
-1.73447734303161
20
-25.0122363868018
30
-1E-16
41
1
10
-1.74566624189157
20
-25.2151351376861
30
-1E-16
41
1
10
-1.7456624785251
20
-25.5884968077177
30
-1E-16
41
1
10
-1.73448255026719
20
-25.7589716193071
30
-1E-16
41
1
10
-1.70238689558468
20
-25.9916786673478
30
-1E-16
41
1
10
-1.68916122968813
20
-26.0654358358992
30
-1E-16
41
1
10
-1.65809825884901
20
-26.2057031085712
30
-1E-16
41
1
10
-1.6402265419253
20
-26.2722993659134
30
-1E-16
41
1
10
-1.54131594446147
20
-26.5860501107193
30
-1E-16
41
1
10
-1.43206535735823
20
-26.778219620829
30
-1E-16
41
1
10
-1.30710678118643
20
-26.9276529368723
30
-1E-16
0
SPLINE
5
E0
100
AcDbEntity
8
SK1
62
256
6
ByLayer
370
18
48
1
60
0
100
AcDbSpline
70
4
71
3
72
34
73
30
40
0
40
0
40
0
40
0
40
0.125000000000001
40
0.125000000000001
40
0.250000000000002
40
0.250000000000002
40
0.312500000000002
40
0.312500000000002
40
0.343750000000003
40
0.343750000000003
40
0.375000000000003
40
0.375000000000003
40
0.500000000000002
40
0.500000000000002
40
0.531250000000002
40
0.531250000000002
40
0.562500000000002
40
0.562500000000002
40
0.625000000000002
40
0.625000000000002
40
0.656250000000002
40
0.656250000000002
40
0.687500000000002
40
0.687500000000002
40
0.750000000000001
40
0.750000000000001
40
0.875000000000001
40
0.875000000000001
40
1
40
1
40
1
40
1
41
1
10
-39.75
20
-4.98231729207956
30
1.1E-15
41
1
10
-39.4552758041572
20
-4.6182681847275
30
1.1E-15
41
1
10
-39.1693635015135
20
-4.24834765819531
30
1.2E-15
41
1
10
-38.6270551805028
20
-3.48932801074045
30
1.2E-15
41
1
10
-38.3703102364939
20
-3.10044925584722
30
1.2E-15
41
1
10
-38.0249833355855
20
-2.49169572380694
30
1.2E-15
41
1
10
-37.916622271366
20
-2.28446631003251
30
1.2E-15
41
1
10
-37.7682656980227
20
-1.96460664265905
30
1.2E-15
41
1
10
-37.7211940048041
20
-1.85647390303706
30
1.2E-15
41
1
10
-37.6327348720758
20
-1.6366032964938
30
1.2E-15
41
1
10
-37.5912062147764
20
-1.52443410263621
30
1.3E-15
41
1
10
-37.4023315473017
20
-0.958042114681689
30
1.3E-15
41
1
10
-37.314323478851
20
-0.495131013744185
30
1.3E-15
41
1
10
-37.311522077767
20
0.100122966879553
30
1.3E-15
41
1
10
-37.3163356385327
20
0.220712330672001
30
1.3E-15
41
1
10
-37.336440499442
20
0.45915230953716
30
1.3E-15
41
1
10
-37.3516448427224
20
0.577068818975732
30
1.3E-15
41
1
10
-37.4113353823585
20
0.927255401682288
30
1.3E-15
41
1
10
-37.4698791367052
20
1.15596778654984
30
1.3E-15
41
1
10
-37.5801975456798
20
1.49333253588287
30
1.3E-15
41
1
10
-37.6207233284502
20
1.60483612898366
30
1.2E-15
41
1
10
-37.7084087382878
20
1.8261597412255
30
1.2E-15
41
1
10
-37.7556856433908
20
1.93620573399727
30
1.2E-15
41
1
10
-37.9045745158982
20
2.26062803785555
30
1.2E-15
41
1
10
-38.0135416057085
20
2.47044053389314
30
1.2E-15
41
1
10
-38.361016350483
20
3.08609274560607
30
1.2E-15
41
1
10
-38.6196064495582
20
3.47846844446192
30
1.2E-15
41
1
10
-39.1656273521413
20
4.24354396780768
30
1.2E-15
41
1
10
-39.4534349758304
20
4.61599435388032
30
1.1E-15
41
1
10
-39.75
20
4.9823172906066
30
1.1E-15
0
SPLINE
5
E1
100
AcDbEntity
8
SK1
62
256
6
ByLayer
370
18
48
1
60
0
100
AcDbSpline
70
4
71
3
72
8
73
4
40
0
40
0
40
0
40
0
40
1
40
1
40
1
40
1
41
1
10
-46.5
20
-4.82700790782994
30
7E-16
41
1
10
-44.2500328769239
20
-4.88030688021573
30
8E-16
41
1
10
-42.0000318530171
20
-4.93203215399504
30
1E-15
41
1
10
-39.75
20
-4.98231729207959
30
1.1E-15
0
SPLINE
5
E2
100
AcDbEntity
8
SK1
62
256
6
ByLayer
370
18
48
1
60
0
100
AcDbSpline
70
4
71
3
72
8
73
4
40
0
40
0
40
0
40
0
40
1
40
1
40
1
40
1
41
1
10
-47.7
20
-4.08218356521419
30
6E-16
41
1
10
-47.3132049348359
20
-4.35692617727412
30
7E-16
41
1
10
-46.9109666775431
20
-4.60328583344455
30
7E-16
41
1
10
-46.5
20
-4.82700790782968
30
7E-16
0
SPLINE
5
E3
100
AcDbEntity
8
SK1
62
256
6
ByLayer
370
13
48
1
60
0
100
AcDbSpline
70
4
71
3
72
17
73
13
40
0
40
0
40
0
40
0
40
0.0571603590453265
40
0.172574642360017
40
0.287988925674708
40
0.403403208989399
40
0.518817492304089
40
0.63423177561878
40
0.74964605893347
40
0.865060342248161
40
0.980474625562852
40
1
40
1
40
1
40
1
41
1
10
-0.394976888875306
20
27.1987924685802
30
0
41
1
10
-0.394976888875306
20
27.2053581899007
30
0
41
1
10
-0.394976888875306
20
27.224549707791
30
0
41
1
10
-0.394976888875306
20
27.253437446218
30
0
41
1
10
-0.394976888875306
20
27.2832627463842
30
0
41
1
10
-0.394976888875306
20
27.3083119323164
30
0
41
1
10
-0.394976888875306
20
27.3287101885523
30
0
41
1
10
-0.394976888875306
20
27.3445721872757
30
0
41
1
10
-0.394976888875306
20
27.3560062920351
30
0
41
1
10
-0.394976888875306
20
27.3631152093071
30
0
41
1
10
-0.394976888875334
20
27.3651975670911
30
0
41
1
10
-0.394976888875334
20
27.3653771528155
30
0
41
1
10
-0.394976888875362
20
27.3653834685792
30
0
0
SPLINE
5
E4
100
AcDbEntity
8
SK1
62
256
6
ByLayer
370
18
48
1
60
0
100
AcDbSpline
70
4
71
3
72
26
73
22
40
0
40
0
40
0
40
0
40
0.0312500000000005
40
0.0312500000000005
40
0.062500000000001
40
0.062500000000001
40
0.0937500000000016
40
0.0937500000000016
40
0.125000000000002
40
0.125000000000002
40
0.187500000000002
40
0.187500000000002
40
0.250000000000002
40
0.250000000000002
40
0.375000000000001
40
0.375000000000001
40
0.500000000000001
40
0.500000000000001
40
0.750000000000001
40
0.750000000000001
40
1
40
1
40
1
40
1
41
1
10
-0.394976888875306
20
21.3163207619701
30
0
41
1
10
-0.411243697372271
20
21.3038218891737
30
0
41
1
10
-0.428450293887835
20
21.2922974580659
30
0
41
1
10
-0.465565032350668
20
21.272068523088
30
0
41
1
10
-0.485502422849066
20
21.2634213756369
30
0
41
1
10
-0.52708033858346
20
21.2510431560078
30
0
41
1
10
-0.549439902351622
20
21.247217866388
30
0
41
1
10
-0.593607876508628
20
21.2458632275743
30
0
41
1
10
-0.615791093978288
20
21.248247658074
30
0
41
1
10
-0.679610148656224
20
21.2633132996258
30
0
41
1
10
-0.71733486591063
20
21.2831562289138
30
0
41
1
10
-0.783017829833653
20
21.3294029129098
30
0
41
1
10
-0.811908887754726
20
21.3564090004257
30
0
41
1
10
-0.889508981074982
20
21.4406116231696
30
-1E-16
41
1
10
-0.930488283626602
20
21.5015303551683
30
-1E-16
41
1
10
-1.00381971116499
20
21.6267793950131
30
-1E-16
41
1
10
-1.03559629442338
20
21.6912461518683
30
-1E-16
41
1
10
-1.12127811017123
20
21.8846624897146
30
-1E-16
41
1
10
-1.16642401694858
20
22.0149391129719
30
-1E-16
41
1
10
-1.24501406038377
20
22.2751313548993
30
-1E-16
41
1
10
-1.27807884197071
20
22.405134060137
30
-1E-16
41
1
10
-1.30710678118655
20
22.5344196913574
30
-1E-16
0
LINE
5
72
100
AcDbEntity
8
81
62
256
6
ByLayer
370
18
48
1
60
0
100
AcDbLine
10
55
20
0
30
0
11
57.367097
21
0
31
0
39
0
210
0
220
0
230
1
0
LINE
5
73
100
AcDbEntity
8
1
62
256
6
ByLayer
370
18
48
1
60
0
100
AcDbLine
10
0.3
20
40
30
0
11
0
21
39.7
31
0
39
0
210
0
220
0
230
1
0
LINE
5
74
100
AcDbEntity
8
80
62
256
6
ByLayer
370
18
48
1
60
0
100
AcDbLine
10
0
20
0
30
0
11
-6.08897
21
0
31
0
39
0
210
0
220
0
230
1
0
LINE
5
75
100
AcDbEntity
8
4
62
256
6
ByLayer
370
18
48
0.05
60
0
100
AcDbLine
10
0
20
0
30
0
11
55
21
0
31
0
39
0
210
0
220
0
230
1
0
LINE
5
77
100
AcDbEntity
8
1
62
256
6
ByLayer
370
18
48
1
60
0
100
AcDbLine
10
0
20
-39.7
30
0
11
0.3
21
-40
31
0
39
0
210
0
220
0
230
1
0
LINE
5
78
100
AcDbEntity
8
1
62
256
6
ByLayer
370
18
48
1
60
0
100
AcDbLine
10
0.3
20
-40
30
0
11
30.435403
21
-40
31
0
39
0
210
0
220
0
230
1
0
LINE
5
79
100
AcDbEntity
8
1
62
256
6
ByLayer
370
18
48
1
60
0
100
AcDbLine
10
30.435403
20
40
30
0
11
0.3
21
40
31
0
39
0
210
0
220
0
230
1
0
LINE
5
7A
100
AcDbEntity
8
1
62
256
6
ByLayer
370
18
48
1
60
0
100
AcDbLine
10
40
20
-31.5
30
0
11
54.7
21
-31.5
31
0
39
0
210
0
220
0
230
1
0
LINE
5
7B
100
AcDbEntity
8
1
62
256
6
ByLayer
370
18
48
1
60
0
100
AcDbLine
10
54.7
20
31.5
30
0
11
40
21
31.5
31
0
39
0
210
0
220
0
230
1
0
LINE
5
7C
100
AcDbEntity
8
1
62
256
6
ByLayer
370
18
48
1
60
0
100
AcDbLine
10
54.7
20
-31.5
30
0
11
55
21
-31.2
31
0
39
0
210
0
220
0
230
1
0
LINE
5
7D
100
AcDbEntity
8
1
62
256
6
ByLayer
370
18
48
1
60
0
100
AcDbLine
10
55
20
31.2
30
0
11
54.7
21
31.5
31
0
39
0
210
0
220
0
230
1
0
LINE
5
7E
100
AcDbEntity
8
SK1
62
256
6
ByLayer
370
18
48
1
60
0
100
AcDbLine
10
61.45
20
-10
30
0
11
62.95
21
-8.5
31
0
39
0
210
0
220
0
230
1
0
LINE
5
80
100
AcDbEntity
8
SK1
62
256
6
ByLayer
370
18
48
1
60
0
100
AcDbLine
10
62.95
20
8.5
30
0
11
61.45
21
10
31
0
39
0
210
0
220
0
230
1
0
LINE
5
81
100
AcDbEntity
8
SK1
62
256
6
ByLayer
370
18
48
1
60
0
100
AcDbLine
10
61.45
20
10
30
0
11
55
21
10
31
0
39
0
210
0
220
0
230
1
0
LINE
5
82
100
AcDbEntity
8
SK1
62
256
6
ByLayer
370
18
48
1
60
0
100
AcDbLine
10
55
20
-10
30
0
11
61.45
21
-10
31
0
39
0
210
0
220
0
230
1
0
LINE
5
83
100
AcDbEntity
8
1
62
256
6
ByLayer
370
18
48
1
60
0
100
AcDbLine
10
31.039188
20
-39.724827
30
0
11
37
21
-32.867239
31
0
39
0
210
0
220
0
230
1
0
LINE
5
84
100
AcDbEntity
8
1
62
256
6
ByLayer
370
18
48
1
60
0
100
AcDbLine
10
37
20
32.867239
30
0
11
31.039188
21
39.724827
31
0
39
0
210
0
220
0
230
1
0
LINE
5
85
100
AcDbEntity
8
SK4
62
256
6
ByLayer
370
18
48
0.05
60
0
100
AcDbLine
10
-53
20
0
30
0
11
60
21
0
31
0
39
0
210
0
220
0
230
1
0
LINE
5
87
100
AcDbEntity
8
1
62
256
6
ByLayer
370
18
48
1
60
0
100
AcDbLine
10
13.461325
20
-12.13309
30
0
11
10.538675
21
-12.13309
31
0
39
0
210
0
220
0
230
1
0
LINE
5
88
100
AcDbEntity
8
1
62
256
6
ByLayer
370
13
48
1
60
0
100
AcDbLine
10
30.435403
20
40
30
0
11
30.435403
21
0
31
0
39
0
210
0
220
0
230
1
0
LINE
5
89
100
AcDbEntity
8
1
62
256
6
ByLayer
370
13
48
1
60
0
100
AcDbLine
10
30.435403
20
0
30
0
11
30.435403
21
-40
31
0
39
0
210
0
220
0
230
1
0
LINE
5
8A
100
AcDbEntity
8
SK1
62
256
6
ByLayer
370
18
48
1
60
0
100
AcDbLine
10
61.45
20
-10
30
0
11
61.45
21
10
31
0
39
0
210
0
220
0
230
1
0
LINE
5
8B
100
AcDbEntity
8
1
62
256
6
ByLayer
370
18
48
1
60
0
100
AcDbLine
10
0
20
39.7
30
0
11
0
21
0
31
0
39
0
210
0
220
0
230
1
0
LINE
5
8C
100
AcDbEntity
8
1
62
256
6
ByLayer
370
18
48
1
60
0
100
AcDbLine
10
0
20
0
30
0
11
0
21
-39.7
31
0
39
0
210
0
220
0
230
1
0
LINE
5
8D
100
AcDbEntity
8
1
62
256
6
ByLayer
370
18
48
1
60
0
100
AcDbLine
10
10.538675
20
12.13309
30
0
11
13.461325
21
12.13309
31
0
39
0
210
0
220
0
230
1
0
LINE
5
8E
100
AcDbEntity
8
1
62
256
6
ByLayer
370
18
48
1
60
0
100
AcDbLine
10
13.461325
20
38.115458
30
0
11
10.538675
21
38.115458
31
0
39
0
210
0
220
0
230
1
0
LINE
5
8F
100
AcDbEntity
8
1
62
256
6
ByLayer
370
18
48
1
60
0
100
AcDbLine
10
0.3
20
40
30
0
11
0.3
21
0
31
0
39
0
210
0
220
0
230
1
0
LINE
5
90
100
AcDbEntity
8
1
62
256
6
ByLayer
370
18
48
1
60
0
100
AcDbLine
10
0.3
20
0
30
0
11
0.3
21
-40
31
0
39
0
210
0
220
0
230
1
0
LINE
5
91
100
AcDbEntity
8
1
62
256
6
ByLayer
370
18
48
1
60
0
100
AcDbLine
10
10.538675
20
-38.115458
30
0
11
13.461325
21
-38.115458
31
0
39
0
210
0
220
0
230
1
0
LINE
5
92
100
AcDbEntity
8
1
62
256
6
ByLayer
370
13
48
1
60
0
100
AcDbLine
10
31.039188
20
-39.724827
30
0
11
31.039188
21
39.724827
31
0
39
0
210
0
220
0
230
1
0
LINE
5
93
100
AcDbEntity
8
1
62
256
6
ByLayer
370
13
48
1
60
0
100
AcDbLine
10
37
20
32.867239
30
0
11
37
21
0
31
0
39
0
210
0
220
0
230
1
0
LINE
5
94
100
AcDbEntity
8
1
62
256
6
ByLayer
370
13
48
1
60
0
100
AcDbLine
10
37
20
0
30
0
11
37
21
-32.867239
31
0
39
0
210
0
220
0
230
1
0
LINE
5
95
100
AcDbEntity
8
1
62
256
6
ByLayer
370
13
48
1
60
0
100
AcDbLine
10
13.461325
20
-12.13309
30
0
11
13.461325
21
-38.115458
31
0
39
0
210
0
220
0
230
1
0
LINE
5
96
100
AcDbEntity
8
1
62
256
6
ByLayer
370
13
48
1
60
0
100
AcDbLine
10
13.894338
20
-12.6576
30
0
11
13.894338
21
-37.944501
31
0
39
0
210
0
220
0
230
1
0
LINE
5
97
100
AcDbEntity
8
1
62
256
6
ByLayer
370
13
48
1
60
0
100
AcDbLine
10
10.105662
20
37.944501
30
0
11
10.105662
21
12.6576
31
0
39
0
210
0
220
0
230
1
0
LINE
5
98
100
AcDbEntity
8
1
62
256
6
ByLayer
370
13
48
1
60
0
100
AcDbLine
10
10.538675
20
38.115458
30
0
11
10.538675
21
12.13309
31
0
39
0
210
0
220
0
230
1
0
LINE
5
99
100
AcDbEntity
8
1
62
256
6
ByLayer
370
13
48
1
60
0
100
AcDbLine
10
13.461325
20
38.115458
30
0
11
13.461325
21
12.13309
31
0
39
0
210
0
220
0
230
1
0
LINE
5
9A
100
AcDbEntity
8
1
62
256
6
ByLayer
370
13
48
1
60
0
100
AcDbLine
10
13.894338
20
37.944501
30
0
11
13.894338
21
12.6576
31
0
39
0
210
0
220
0
230
1
0
LINE
5
9B
100
AcDbEntity
8
1
62
256
6
ByLayer
370
13
48
1
60
0
100
AcDbLine
10
10.105662
20
-12.6576
30
0
11
10.105662
21
-37.944501
31
0
39
0
210
0
220
0
230
1
0
LINE
5
9C
100
AcDbEntity
8
1
62
256
6
ByLayer
370
13
48
1
60
0
100
AcDbLine
10
10.538675
20
-12.13309
30
0
11
10.538675
21
-38.115458
31
0
39
0
210
0
220
0
230
1
0
LINE
5
9D
100
AcDbEntity
8
SK1
62
256
6
ByLayer
370
18
48
1
60
0
100
AcDbLine
10
-48
20
-4.319628
30
0
11
-48
21
4.319628
31
0
39
0
210
0
220
0
230
1
0
LINE
5
9E
100
AcDbEntity
8
1
62
256
6
ByLayer
370
13
48
1
60
0
100
AcDbLine
10
40
20
31.5
30
0
11
40
21
0
31
0
39
0
210
0
220
0
230
1
0
LINE
5
9F
100
AcDbEntity
8
1
62
256
6
ByLayer
370
13
48
1
60
0
100
AcDbLine
10
40
20
0
30
0
11
40
21
-31.5
31
0
39
0
210
0
220
0
230
1
0
LINE
5
A0
100
AcDbEntity
8
SK1
62
256
6
ByLayer
370
18
48
1
60
0
100
AcDbLine
10
-0.2
20
28.683485
30
0
11
-0.2
21
27.467167
31
0
39
0
210
0
220
0
230
1
0
LINE
5
A1
100
AcDbEntity
8
1
62
256
6
ByLayer
370
18
48
1
60
0
100
AcDbLine
10
54.7
20
31.5
30
0
11
54.7
21
0
31
0
39
0
210
0
220
0
230
1
0
LINE
5
A2
100
AcDbEntity
8
1
62
256
6
ByLayer
370
18
48
1
60
0
100
AcDbLine
10
54.7
20
0
30
0
11
54.7
21
-31.5
31
0
39
0
210
0
220
0
230
1
0
LINE
5
A3
100
AcDbEntity
8
SK1
62
256
6
ByLayer
370
13
48
1
60
0
100
AcDbLine
10
-1.307107
20
-26.927653
30
0
11
-1.307107
21
-22.53442
31
0
39
0
210
0
220
0
230
1
0
LINE
5
A4
100
AcDbEntity
8
1
62
256
6
ByLayer
370
18
48
1
60
0
100
AcDbLine
10
55
20
31.2
30
0
11
55
21
0
31
0
39
0
210
0
220
0
230
1
0
LINE
5
A5
100
AcDbEntity
8
1
62
256
6
ByLayer
370
18
48
1
60
0
100
AcDbLine
10
55
20
0
30
0
11
55
21
-31.2
31
0
39
0
210
0
220
0
230
1
0
LINE
5
A6
100
AcDbEntity
8
SK1
62
256
6
ByLayer
370
18
48
1
60
0
100
AcDbLine
10
-0.2
20
-27.467167
30
0
11
-0.2
21
-28.683485
31
0
39
0
210
0
220
0
230
1
0
LINE
5
A7
100
AcDbEntity
8
SK1
62
256
6
ByLayer
370
13
48
1
60
0
100
AcDbLine
10
-1.307107
20
22.53442
30
0
11
-1.307107
21
26.927653
31
0
39
0
210
0
220
0
230
1
0
LINE
5
A8
100
AcDbEntity
8
SK1
62
256
6
ByLayer
370
18
48
1
60
0
100
AcDbLine
10
-0.2
20
-20.890594
30
0
11
-0.2
21
20.890594
31
0
39
0
210
0
220
0
230
1
0
LINE
5
A9
100
AcDbEntity
8
SK1
62
256
6
ByLayer
370
18
48
1
60
0
100
AcDbLine
10
-39.75
20
4.982317
30
0
11
-39.75
21
-4.982317
31
0
39
0
210
0
220
0
230
1
0
LINE
5
AA
100
AcDbEntity
8
SK1
62
256
6
ByLayer
370
18
48
1
60
0
100
AcDbLine
10
-47.7
20
4.082184
30
0
11
-47.7
21
-4.082184
31
0
39
0
210
0
220
0
230
1
0
LINE
5
AB
100
AcDbEntity
8
SK1
62
256
6
ByLayer
370
18
48
1
60
0
100
AcDbLine
10
62.95
20
-8.5
30
0
11
62.95
21
8.5
31
0
39
0
210
0
220
0
230
1
0
MTEXT
5
E5
100
AcDbEntity
8
SK6
62
256
6
ByLayer
370
18
48
1
60
0
100
AcDbMText
10
0.875
20
-55.875
30
0
210
0
220
0
230
1
1
\W0.7477;C8-391.02R-63055A
40
3.5
41
0
44
1.084337
50
0
71
7
72
5
7
iso_b_vert
0
DIMENSION
5
F3
100
AcDbEntity
8
SK2
62
256
6
ByLayer
370
13
48
1
60
0
100
AcDbDimension
2
DimnDraft3D1
10
30
20
46.6
30
0
11
12.955263
21
46.6
31
0
70
32
71
5
72
1
41
1
210
0
220
0
230
1
3
Standard
100
AcDbAlignedDimension
13
0
23
41.5875
33
0
14
30
24
41.5875
34
0
50
0
100
AcDbRotatedDimension
1001
ACAD
1000
DSTYLE
1002
{
1070
   279
1070
     0
1070
   172
1070
     1
1070
   173
1070
     1
1070
   340
1005
E6
1070
   271
1070
     1
1070
   272
1070
     2
1070
    77
1070
     1
1070
    73
1070
     0
1070
   171
1070
     3
1070
   274
1070
     4
1070
   177
1070
     2
1070
   176
1070
     2
1070
   178
1070
     2
1070
    78
1070
     8
1070
    48
1040
-0.005
1070
    41
1041
3.5
1070
   147
1041
1.75
1070
    42
1041
1.5875
1070
    44
1041
2.0
1070
   140
1041
3.5
1070
   343
1005
0
1070
   344
1005
0
1002
}
0
DIMENSION
5
FD
100
AcDbEntity
8
SK2
62
256
6
ByLayer
370
13
48
1
60
0
100
AcDbDimension
2
DimnDraft3D2
10
40
20
56.6
30
0
11
45.892763
21
56.6
31
0
70
32
71
5
72
1
41
1
210
0
220
0
230
1
3
Standard
100
AcDbAlignedDimension
13
55
23
33.0875
33
0
14
40
24
33.0875
34
0
50
0
100
AcDbRotatedDimension
1001
ACAD
1000
DSTYLE
1002
{
1070
   279
1070
     0
1070
   172
1070
     1
1070
   173
1070
     1
1070
   340
1005
E6
1070
   271
1070
     1
1070
   272
1070
     2
1070
    77
1070
     1
1070
    73
1070
     0
1070
   171
1070
     3
1070
   274
1070
     4
1070
   177
1070
     2
1070
   176
1070
     2
1070
   178
1070
     2
1070
    78
1070
     8
1070
    48
1040
-0.005
1070
    41
1041
3.5
1070
   147
1041
1.75
1070
    42
1041
1.5875
1070
    44
1041
2.0
1070
   140
1041
3.5
1070
   343
1005
0
1070
   344
1005
0
1002
}
0
DIMENSION
5
108
100
AcDbEntity
8
2
62
256
6
ByLayer
370
13
48
1
60
0
100
AcDbDimension
2
DimnDraft3D3
10
0
20
66.6
30
0
11
25.455263
21
66.6
31
0
70
32
71
5
72
1
41
1
210
0
220
0
230
1
3
Standard
100
AcDbAlignedDimension
13
55
23
33.0875
33
0
14
0
24
41.5875
34
0
50
0
100
AcDbRotatedDimension
1001
ACAD
1000
DSTYLE
1002
{
1070
   279
1070
     0
1070
   172
1070
     1
1070
   173
1070
     1
1070
   340
1005
E6
1070
   271
1070
     1
1070
   272
1070
     2
1070
    77
1070
     1
1070
    73
1070
     0
1070
   171
1070
     3
1070
   274
1070
     4
1070
   177
1070
     2
1070
   176
1070
     2
1070
   178
1070
     2
1070
    78
1070
     8
1070
    48
1040
-0.005
1070
    41
1041
3.5
1070
   147
1041
1.75
1070
    42
1041
1.5875
1070
    44
1041
2.0
1070
   140
1041
3.5
1070
   343
1005
0
1070
   344
1005
0
1002
}
0
DIMENSION
5
112
100
AcDbEntity
8
SK2
62
256
6
ByLayer
370
13
48
1
60
0
100
AcDbDimension
2
DimnDraft3D4
10
0
20
66.6
30
0
11
-26.275
21
66.6
31
0
70
32
71
5
72
1
41
1
210
0
220
0
230
1
3
Standard
100
AcDbAlignedDimension
13
-48
23
29.0875
33
0
14
0
24
41.5875
34
0
50
0
100
AcDbRotatedDimension
1001
ACAD
1000
DSTYLE
1002
{
1070
   279
1070
     0
1070
   172
1070
     1
1070
   173
1070
     1
1070
   340
1005
E6
1070
   271
1070
     1
1070
   272
1070
     2
1070
    77
1070
     1
1070
    73
1070
     0
1070
   171
1070
     3
1070
   274
1070
     4
1070
   177
1070
     2
1070
   176
1070
     2
1070
   178
1070
     2
1070
    78
1070
     8
1070
    48
1040
-0.005
1070
    41
1041
3.5
1070
   147
1041
1.75
1070
    42
1041
1.5875
1070
    44
1041
2.0
1070
   140
1041
3.5
1070
   343
1005
0
1070
   344
1005
0
1002
}
0
DIMENSION
5
11D
100
AcDbEntity
8
SK2
62
256
6
ByLayer
370
13
48
1
60
0
100
AcDbDimension
2
DimnDraft3D5
10
-71.6
20
-40
30
0
11
-72.225
21
1.455263
31
0
70
33
71
5
72
1
41
1
210
0
220
0
230
1
3
Standard
100
AcDbAlignedDimension
13
-1.5875
23
40
33
0
14
-1.5875
24
-40
34
0
1001
ACAD
1000
DSTYLE
1002
{
1070
   279
1070
     0
1070
    74
1070
     0
1070
   173
1070
     1
1070
   340
1005
E6
1070
   271
1070
     1
1070
   272
1070
     2
1070
    77
1070
     1
1070
    73
1070
     0
1070
   171
1070
     3
1070
   274
1070
     4
1070
   177
1070
     2
1070
   176
1070
     2
1070
   178
1070
     2
1070
    78
1070
     8
1070
    48
1040
-0.005
1070
    41
1041
3.5
1070
   147
1041
1.75
1070
    42
1041
1.5875
1070
    44
1041
2.0
1070
   140
1041
3.5
1070
   343
1005
0
1070
   344
1005
0
1002
}
0
DIMENSION
5
128
100
AcDbEntity
8
SK2
62
256
6
ByLayer
370
13
48
1
60
0
100
AcDbDimension
2
DimnDraft3D6
10
85.05
20
-31.5
30
0
11
80.425
21
1.455263
31
0
70
33
71
5
72
1
41
1
210
0
220
0
230
1
3
Standard
100
AcDbAlignedDimension
13
56.5875
23
31.5
33
0
14
56.5875
24
-31.5
34
0
1001
ACAD
1000
DSTYLE
1002
{
1070
   279
1070
     0
1070
    74
1070
     0
1070
   173
1070
     1
1070
   340
1005
E6
1070
   271
1070
     1
1070
   272
1070
     2
1070
    77
1070
     1
1070
    73
1070
     0
1070
   171
1070
     3
1070
   274
1070
     4
1070
   177
1070
     2
1070
   176
1070
     2
1070
   178
1070
     2
1070
    78
1070
     8
1070
    48
1040
-0.005
1070
    41
1041
3.5
1070
   147
1041
1.75
1070
    42
1041
1.5875
1070
    44
1041
2.0
1070
   140
1041
3.5
1070
   343
1005
0
1070
   344
1005
0
1002
}
0
ENDSEC
0
SECTION
2
OBJECTS
0
DICTIONARY
5
193
330
0
100
AcDbDictionary
280
0
281
1
3
ACAD_GROUP
350
194
3
ACAD_MLINESTYLE
350
195
0
DICTIONARY
5
194
330
0
100
AcDbDictionary
280
0
281
1
0
DICTIONARY
5
195
330
0
100
AcDbDictionary
280
0
281
1
3
Standard
350
18
0
MLINESTYLE
5
18
330
195
100
AcDbMlineStyle
2
Standard
70
0
3

62
256
51
90
52
90
71
2
49
-0.5
62
256
6
ByLayer
49
0.5
62
256
6
ByLayer
0
RASTERVARIABLES
5
181
330

100
AcDbRasterVariables
90
0
70
1
71
1
72
1
0
ENDSEC
0
EOF
