0
SECTION
2
HEADER
9
$ACADVER
1
AC1015
9
$DWGCODEPAGE
3
ANSI_1252
9
$HANDSEED
5
189
9
$ANGBASE
50
0
9
$ANGDIR
70
0
9
$ATTMODE
70
1
9
$AUNITS
70
0
9
$AUPREC
70
0
9
$CECOLOR
62
256
9
$CELTSCALE
40
1
9
$CELTYPE
6
ByLayer
9
$CELWEIGHT
370
18
9
$CLAYER
8
0
9
$CMLJUST
70
0
9
$CMLSCALE
40
1
9
$CMLSTYLE
2
Standard
9
$DIMSTYLE
2
Standard
9
$TEXTSIZE
40
0.2
9
$TEXTSTYLE
7
Standard
9
$LUNITS
70
2
9
$LUPREC
70
4
9
$EXTNAMES
290
1
9
$INSUNITS
70
4
9
$LTSCALE
40
1
9
$LWDISPLAY
290
1
9
$PDMODE
70
0
9
$PDSIZE
40
0
9
$PLINEGEN
70
0
0
ENDSEC
0
SECTION
2
CLASSES
0
CLASS
1
RASTERVARIABLES
2
AcDbRasterVariables
3
ISM
90
0
280
0
281
0
0
ENDSEC
0
SECTION
2
TABLES
0
TABLE
2
VPORT
5
17f
100
AcDbSymbolTable
0
VPORT
5
1
100
AcDbSymbolTableRecord
100
AcDbViewportTableRecord
2
*Active
70
0
10
0
20
0
11
1
21
1
12
-1
22
1
13
0
23
0
14
0.5
24
0.5
15
10
25
10
16
0
26
0
36
1
17
0
27
0
37
0
0
ENDTAB
0
TABLE
2
LTYPE
5
180
100
AcDbSymbolTable
0
LTYPE
5
14
100
AcDbSymbolTableRecord
100
AcDbLinetypeTableRecord
70
0
2
ByBlock
3

72
65
73
0
40
0
0
LTYPE
5
15
100
AcDbSymbolTableRecord
100
AcDbLinetypeTableRecord
70
0
2
ByLayer
3

72
65
73
0
40
0
0
LTYPE
5
16
100
AcDbSymbolTableRecord
100
AcDbLinetypeTableRecord
70
0
2
CONTINUOUS
3
Solid line
72
65
73
0
40
0
0
LTYPE
5
6A
100
AcDbSymbolTableRecord
100
AcDbLinetypeTableRecord
70
0
2
CENTER
3
____ _ ____ _ ____ _ ____
72
65
73
4
40
47.5
49
22
74
0
49
-8.5
74
0
49
8.5
74
0
49
-8.5
74
0
0
LTYPE
5
6B
100
AcDbSymbolTableRecord
100
AcDbLinetypeTableRecord
70
0
2
DASHED
3
__ __ __ __ __ __ __ __ __
72
65
73
2
40
25.72
49
12.86
74
0
49
-12.86
74
0
0
ENDTAB
0
TABLE
2
LAYER
5
181
100
AcDbSymbolTable
0
LAYER
5
10
100
AcDbSymbolTableRecord
100
AcDbLayerTableRecord
2
0
70
0
62
7
6
CONTINUOUS
290
1
370
-3
390
0
0
LAYER
5
6D
100
AcDbSymbolTableRecord
100
AcDbLayerTableRecord
2
81
70
0
62
-3
6
CONTINUOUS
290
1
370
-3
390
0
0
LAYER
5
6F
100
AcDbSymbolTableRecord
100
AcDbLayerTableRecord
2
80
70
0
62
-6
6
CONTINUOUS
290
1
370
-3
390
0
0
LAYER
5
71
100
AcDbSymbolTableRecord
100
AcDbLayerTableRecord
2
1
70
0
62
4
6
CONTINUOUS
290
1
370
-3
390
0
0
LAYER
5
76
100
AcDbSymbolTableRecord
100
AcDbLayerTableRecord
2
4
70
0
62
-2
6
CENTER
290
1
370
-3
390
0
0
LAYER
5
E9
100
AcDbSymbolTableRecord
100
AcDbLayerTableRecord
2
2
70
0
62
7
6
CONTINUOUS
290
1
370
-3
390
0
0
LAYER
5
16b
100
AcDbSymbolTableRecord
100
AcDbLayerTableRecord
2
SK1
70
0
62
4
6
CONTINUOUS
290
1
370
-3
390
0
0
LAYER
5
16c
100
AcDbSymbolTableRecord
100
AcDbLayerTableRecord
2
SK4
70
0
62
2
6
CENTER
290
1
370
-3
390
0
0
LAYER
5
16d
100
AcDbSymbolTableRecord
100
AcDbLayerTableRecord
2
SK6
70
0
62
5
6
CONTINUOUS
290
1
370
-3
390
0
0
LAYER
5
16e
100
AcDbSymbolTableRecord
100
AcDbLayerTableRecord
2
SK2
70
0
62
7
6
CONTINUOUS
290
1
370
-3
390
0
0
ENDTAB
0
TABLE
2
STYLE
5
182
100
AcDbSymbolTable
0
STYLE
5
11
100
AcDbSymbolTableRecord
100
AcDbTextStyleTableRecord
2
Standard
3
txt
70
0
71
0
40
0
41
1
42
0
50
0
0
STYLE
5
CF
100
AcDbSymbolTableRecord
100
AcDbTextStyleTableRecord
2
iso_b_vert
3
simplex.shx
70
0
71
0
40
0
41
1
42
0
50
0
0
STYLE
5
D0
100
AcDbSymbolTableRecord
100
AcDbTextStyleTableRecord
2
DWGDirectTextStyle
3
simplex
70
0
71
0
40
0
41
1
42
0
50
0
0
ENDTAB
0
TABLE
2
DIMSTYLE
5
183
100
AcDbSymbolTable
100
AcDbDimStyleTable
0
DIMSTYLE
105
27
100
AcDbSymbolTableRecord
100
AcDbDimStyleTableRecord
2
Standard
70
0
3
<>
41
0.18
42
0.0625
44
0.18
140
0.18
147
0.09
73
0
74
0
77
1
271
2
275
0
278
52
280
0
340
11
0
ENDTAB
0
TABLE
2
VIEW
5
184
100
AcDbSymbolTable
0
ENDTAB
0
TABLE
2
UCS
5
185
100
AcDbSymbolTable
0
ENDTAB
0
TABLE
2
APPID
5
186
100
AcDbSymbolTable
0
APPID
5
12
100
AcDbSymbolTableRecord
100
AcDbRegAppTableRecord
2
ACAD
70
0
0
ENDTAB
0
TABLE
2
BLOCK_RECORD
5
187
100
AcDbSymbolTable
0
BLOCK_RECORD
5
1F
100
AcDbSymbolTableRecord
100
AcDbBlockTableRecord
2
*Model_Space
340
0
70
0
0
BLOCK_RECORD
5
1B
100
AcDbSymbolTableRecord
100
AcDbBlockTableRecord
2
*Paper_Space
340
0
70
0
0
BLOCK_RECORD
5
23
100
AcDbSymbolTableRecord
100
AcDbBlockTableRecord
2
*Paper_Space0
340
0
70
0
0
BLOCK_RECORD
5
D2
100
AcDbSymbolTableRecord
100
AcDbBlockTableRecord
2
DimnDraft3D1
340
0
70
0
0
BLOCK_RECORD
5
DD
100
AcDbSymbolTableRecord
100
AcDbBlockTableRecord
2
DimnDraft3D2
340
0
70
0
0
BLOCK_RECORD
5
E7
100
AcDbSymbolTableRecord
100
AcDbBlockTableRecord
2
DimnDraft3D3
340
0
70
0
0
BLOCK_RECORD
5
F2
100
AcDbSymbolTableRecord
100
AcDbBlockTableRecord
2
DimnDraft3D4
340
0
70
0
0
BLOCK_RECORD
5
FC
100
AcDbSymbolTableRecord
100
AcDbBlockTableRecord
2
DimnDraft3D5
340
0
70
0
0
BLOCK_RECORD
5
107
100
AcDbSymbolTableRecord
100
AcDbBlockTableRecord
2
DimnDraft3D6
340
0
70
0
0
ENDTAB
0
ENDSEC
0
SECTION
2
BLOCKS
0
BLOCK
5
20
100
AcDbEntity
8
0
100
AcDbBlockBegin
2
*Model_Space
70
0
10
0
20
0
30
0
3
*Model_Space
0
ENDBLK
5
21
100
AcDbEntity
8
0
100
AcDbBlockEnd
0
BLOCK
5
1C
100
AcDbEntity
8
0
100
AcDbBlockBegin
2
*Paper_Space
70
0
10
0
20
0
30
0
3
*Paper_Space
0
ENDBLK
5
1D
100
AcDbEntity
8
0
100
AcDbBlockEnd
0
BLOCK
5
24
100
AcDbEntity
8
0
100
AcDbBlockBegin
2
*Paper_Space0
70
0
10
0
20
0
30
0
3
*Paper_Space0
0
ENDBLK
5
25
100
AcDbEntity
8
0
100
AcDbBlockEnd
0
BLOCK
5
DA
100
AcDbEntity
8
0
100
AcDbBlockBegin
2
DimnDraft3D1
70
0
10
0
20
0
30
0
3
DimnDraft3D1
0
MTEXT
5
D3
100
AcDbEntity
8
SK2
62
256
6
ByLayer
370
18
48
1
60
0
100
AcDbMText
10
13.830263
20
47.475
30
0
210
0
220
0
230
1
1
\W0.6740;30
40
3.5
41
0
44
1.084337
50
0
71
7
72
5
7
iso_b_vert
0
LINE
5
D5
100
AcDbEntity
8
SK2
62
256
6
ByLayer
370
13
48
1
60
0
100
AcDbLine
10
0
20
41.5875
30
0
11
0
21
48.6
31
0
39
0
210
0
220
0
230
1
0
LINE
5
D6
100
AcDbEntity
8
SK2
62
256
6
ByLayer
370
13
48
1
60
0
100
AcDbLine
10
30
20
41.5875
30
0
11
30
21
48.6
31
0
39
0
210
0
220
0
230
1
0
LINE
5
D7
100
AcDbEntity
8
SK2
62
256
6
ByLayer
370
13
48
1
60
0
100
AcDbLine
10
0
20
46.6
30
0
11
30
21
46.6
31
0
39
0
210
0
220
0
230
1
0
SOLID
5
D8
100
AcDbEntity
8
SK2
62
256
6
ByLayer
370
13
48
1
60
0
100
AcDbTrace
10
0
20
46.6
30
0
11
3.499998
21
47.060784
31
0
12
3.500002
22
46.139216
32
0
13
0
23
46.6
33
0
39
0
210
0
220
0
230
1
0
SOLID
5
D9
100
AcDbEntity
8
SK2
62
256
6
ByLayer
370
13
48
1
60
0
100
AcDbTrace
10
30
20
46.6
30
0
11
26.500002
21
46.139216
31
0
12
26.499998
22
47.060784
32
0
13
30
23
46.6
33
0
39
0
210
0
220
0
230
1
0
ENDBLK
5
DB
100
AcDbEntity
8
0
100
AcDbBlockEnd
0
BLOCK
5
E4
100
AcDbEntity
8
0
100
AcDbBlockBegin
2
DimnDraft3D2
70
0
10
0
20
0
30
0
3
DimnDraft3D2
0
MTEXT
5
DE
100
AcDbEntity
8
SK2
62
256
6
ByLayer
370
18
48
1
60
0
100
AcDbMText
10
54.332895
20
57.475
30
0
210
0
220
0
230
1
1
\W0.7836;44,5
40
3.5
41
0
44
1.084337
50
0
71
7
72
5
7
iso_b_vert
0
LINE
5
DF
100
AcDbEntity
8
SK2
62
256
6
ByLayer
370
13
48
1
60
0
100
AcDbLine
10
80
20
33.0875
30
0
11
80
21
58.6
31
0
39
0
210
0
220
0
230
1
0
LINE
5
E0
100
AcDbEntity
8
SK2
62
256
6
ByLayer
370
13
48
1
60
0
100
AcDbLine
10
35.5
20
33.0875
30
0
11
35.5
21
58.6
31
0
39
0
210
0
220
0
230
1
0
LINE
5
E1
100
AcDbEntity
8
SK2
62
256
6
ByLayer
370
13
48
1
60
0
100
AcDbLine
10
80
20
56.6
30
0
11
35.5
21
56.6
31
0
39
0
210
0
220
0
230
1
0
SOLID
5
E2
100
AcDbEntity
8
SK2
62
256
6
ByLayer
370
13
48
1
60
0
100
AcDbTrace
10
80
20
56.6
30
0
11
76.500002
21
56.139216
31
0
12
76.499998
22
57.060784
32
0
13
80
23
56.6
33
0
39
0
210
0
220
0
230
1
0
SOLID
5
E3
100
AcDbEntity
8
SK2
62
256
6
ByLayer
370
13
48
1
60
0
100
AcDbTrace
10
35.5
20
56.6
30
0
11
38.999998
21
57.060784
31
0
12
39.000002
22
56.139216
32
0
13
35.5
23
56.6
33
0
39
0
210
0
220
0
230
1
0
ENDBLK
5
E5
100
AcDbEntity
8
0
100
AcDbBlockEnd
0
BLOCK
5
EF
100
AcDbEntity
8
0
100
AcDbBlockBegin
2
DimnDraft3D3
70
0
10
0
20
0
30
0
3
DimnDraft3D3
0
MTEXT
5
E8
100
AcDbEntity
8
2
62
256
6
ByLayer
370
18
48
1
60
0
100
AcDbMText
10
38.830263
20
67.475
30
0
210
0
220
0
230
1
1
\W0.6740;80
40
3.5
41
0
44
1.084337
50
0
71
7
72
5
7
iso_b_vert
0
LINE
5
EA
100
AcDbEntity
8
2
62
256
6
ByLayer
370
13
48
1
60
0
100
AcDbLine
10
80
20
33.0875
30
0
11
80
21
68.6
31
0
39
0
210
0
220
0
230
1
0
LINE
5
EB
100
AcDbEntity
8
2
62
256
6
ByLayer
370
13
48
1
60
0
100
AcDbLine
10
0
20
41.5875
30
0
11
0
21
68.6
31
0
39
0
210
0
220
0
230
1
0
LINE
5
EC
100
AcDbEntity
8
2
62
256
6
ByLayer
370
13
48
1
60
0
100
AcDbLine
10
80
20
66.6
30
0
11
0
21
66.6
31
0
39
0
210
0
220
0
230
1
0
SOLID
5
ED
100
AcDbEntity
8
2
62
256
6
ByLayer
370
13
48
1
60
0
100
AcDbTrace
10
80
20
66.6
30
0
11
76.500002
21
66.139216
31
0
12
76.499998
22
67.060784
32
0
13
80
23
66.6
33
0
39
0
210
0
220
0
230
1
0
SOLID
5
EE
100
AcDbEntity
8
2
62
256
6
ByLayer
370
13
48
1
60
0
100
AcDbTrace
10
0
20
66.6
30
0
11
3.499998
21
67.060784
31
0
12
3.500002
22
66.139216
32
0
13
0
23
66.6
33
0
39
0
210
0
220
0
230
1
0
ENDBLK
5
F0
100
AcDbEntity
8
0
100
AcDbBlockEnd
0
BLOCK
5
F9
100
AcDbEntity
8
0
100
AcDbBlockBegin
2
DimnDraft3D4
70
0
10
0
20
0
30
0
3
DimnDraft3D4
0
MTEXT
5
F3
100
AcDbEntity
8
SK2
62
256
6
ByLayer
370
18
48
1
60
0
100
AcDbMText
10
-25.4
20
67.475
30
0
210
0
220
0
230
1
1
\W0.7361;48
40
3.5
41
0
44
1.084337
50
0
71
7
72
5
7
iso_b_vert
0
LINE
5
F4
100
AcDbEntity
8
SK2
62
256
6
ByLayer
370
13
48
1
60
0
100
AcDbLine
10
-48
20
29.0875
30
0
11
-48
21
68.6
31
0
39
0
210
0
220
0
230
1
0
LINE
5
F5
100
AcDbEntity
8
SK2
62
256
6
ByLayer
370
13
48
1
60
0
100
AcDbLine
10
0
20
41.5875
30
0
11
0
21
68.6
31
0
39
0
210
0
220
0
230
1
0
LINE
5
F6
100
AcDbEntity
8
SK2
62
256
6
ByLayer
370
13
48
1
60
0
100
AcDbLine
10
-48
20
66.6
30
0
11
0
21
66.6
31
0
39
0
210
0
220
0
230
1
0
SOLID
5
F7
100
AcDbEntity
8
SK2
62
256
6
ByLayer
370
13
48
1
60
0
100
AcDbTrace
10
-48
20
66.6
30
0
11
-44.500002
21
67.060784
31
0
12
-44.499998
22
66.139216
32
0
13
-48
23
66.6
33
0
39
0
210
0
220
0
230
1
0
SOLID
5
F8
100
AcDbEntity
8
SK2
62
256
6
ByLayer
370
13
48
1
60
0
100
AcDbTrace
10
0
20
66.6
30
0
11
-3.499998
21
66.139216
31
0
12
-3.500002
22
67.060784
32
0
13
0
23
66.6
33
0
39
0
210
0
220
0
230
1
0
ENDBLK
5
FA
100
AcDbEntity
8
0
100
AcDbBlockEnd
0
BLOCK
5
104
100
AcDbEntity
8
0
100
AcDbBlockBegin
2
DimnDraft3D5
70
0
10
0
20
0
30
0
3
DimnDraft3D5
0
MTEXT
5
FD
100
AcDbEntity
8
SK2
62
256
6
ByLayer
370
18
48
1
60
0
100
AcDbMText
10
-71.35
20
2.330263
30
0
210
0
220
0
230
1
1
\W0.6740;80
40
3.5
41
0
44
1.084337
50
90
71
7
72
5
7
iso_b_vert
0
MTEXT
5
FE
100
AcDbEntity
8
SK2
62
256
6
ByLayer
370
18
48
1
60
0
100
AcDbMText
10
-71.35
20
-2.892393
30
0
210
0
220
0
230
1
1
%%c
40
3.5
41
0
44
1.084337
50
90
71
7
72
5
7
iso_b_vert
0
LINE
5
FF
100
AcDbEntity
8
SK2
62
256
6
ByLayer
370
13
48
1
60
0
100
AcDbLine
10
-1.5875
20
40
30
0
11
-71.6
21
40
31
0
39
0
210
0
220
0
230
1
0
LINE
5
100
100
AcDbEntity
8
SK2
62
256
6
ByLayer
370
13
48
1
60
0
100
AcDbLine
10
-1.5875
20
-40
30
0
11
-71.6
21
-40
31
0
39
0
210
0
220
0
230
1
0
LINE
5
101
100
AcDbEntity
8
SK2
62
256
6
ByLayer
370
13
48
1
60
0
100
AcDbLine
10
-69.6
20
40
30
0
11
-69.6
21
-40
31
0
39
0
210
0
220
0
230
1
0
SOLID
5
102
100
AcDbEntity
8
SK2
62
256
6
ByLayer
370
13
48
1
60
0
100
AcDbTrace
10
-69.6
20
40
30
0
11
-69.139216
21
36.500002
31
0
12
-70.060784
22
36.499998
32
0
13
-69.6
23
40
33
0
39
0
210
0
220
0
230
1
0
SOLID
5
103
100
AcDbEntity
8
SK2
62
256
6
ByLayer
370
13
48
1
60
0
100
AcDbTrace
10
-69.6
20
-40
30
0
11
-70.060784
21
-36.500002
31
0
12
-69.139216
22
-36.499998
32
0
13
-69.6
23
-40
33
0
39
0
210
0
220
0
230
1
0
ENDBLK
5
105
100
AcDbEntity
8
0
100
AcDbBlockEnd
0
BLOCK
5
10F
100
AcDbEntity
8
0
100
AcDbBlockBegin
2
DimnDraft3D6
70
0
10
0
20
0
30
0
3
DimnDraft3D6
0
MTEXT
5
108
100
AcDbEntity
8
SK2
62
256
6
ByLayer
370
18
48
1
60
0
100
AcDbMText
10
105.05
20
2.330263
30
0
210
0
220
0
230
1
1
\W0.6740;63
40
3.5
41
0
44
1.084337
50
90
71
7
72
5
7
iso_b_vert
0
MTEXT
5
109
100
AcDbEntity
8
SK2
62
256
6
ByLayer
370
18
48
1
60
0
100
AcDbMText
10
105.05
20
-2.892393
30
0
210
0
220
0
230
1
1
%%c
40
3.5
41
0
44
1.084337
50
90
71
7
72
5
7
iso_b_vert
0
LINE
5
10A
100
AcDbEntity
8
SK2
62
256
6
ByLayer
370
13
48
1
60
0
100
AcDbLine
10
81.5875
20
31.5
30
0
11
108.8
21
31.5
31
0
39
0
210
0
220
0
230
1
0
LINE
5
10B
100
AcDbEntity
8
SK2
62
256
6
ByLayer
370
13
48
1
60
0
100
AcDbLine
10
81.5875
20
-31.5
30
0
11
108.8
21
-31.5
31
0
39
0
210
0
220
0
230
1
0
LINE
5
10C
100
AcDbEntity
8
SK2
62
256
6
ByLayer
370
13
48
1
60
0
100
AcDbLine
10
106.8
20
31.5
30
0
11
106.8
21
-31.5
31
0
39
0
210
0
220
0
230
1
0
SOLID
5
10D
100
AcDbEntity
8
SK2
62
256
6
ByLayer
370
13
48
1
60
0
100
AcDbTrace
10
106.8
20
31.5
30
0
11
107.260784
21
28.000002
31
0
12
106.339216
22
27.999998
32
0
13
106.8
23
31.5
33
0
39
0
210
0
220
0
230
1
0
SOLID
5
10E
100
AcDbEntity
8
SK2
62
256
6
ByLayer
370
13
48
1
60
0
100
AcDbTrace
10
106.8
20
-31.5
30
0
11
106.339216
21
-28.000002
31
0
12
107.260784
22
-27.999998
32
0
13
106.8
23
-31.5
33
0
39
0
210
0
220
0
230
1
0
ENDBLK
5
110
100
AcDbEntity
8
0
100
AcDbBlockEnd
0
ENDSEC
0
SECTION
2
ENTITIES
0
ARC
5
A7
100
AcDbEntity
8
1
62
256
6
ByLayer
370
18
48
1
60
0
100
AcDbCircle
39
0
10
30.189546
20
-39.2
30
0
40
0.8
210
0
220
0
230
1
100
AcDbArc
50
270
51
344.692123
0
ARC
5
A8
100
AcDbEntity
8
1
62
256
6
ByLayer
370
18
48
1
60
0
100
AcDbCircle
39
0
10
30.189546
20
39.2
30
0
40
0.8
210
0
220
0
230
1
100
AcDbArc
50
15.307877
51
90
0
ARC
5
A9
100
AcDbEntity
8
SK1
62
256
6
ByLayer
370
18
48
1
60
0
100
AcDbCircle
39
0
10
0.6
20
-29.6
30
0
40
1.00000000000001
210
6.12303176911189E-17
220
0
230
-1
100
AcDbArc
50
113.578178
51
126.869898
0
ARC
5
AA
100
AcDbEntity
8
SK1
62
256
6
ByLayer
370
18
48
1
60
0
100
AcDbCircle
39
0
10
0.6
20
29.6
30
0
40
1.00000000000001
210
6.12303176911189E-17
220
0
230
-1
100
AcDbArc
50
233.130102
51
246.421822
0
ARC
5
AB
100
AcDbEntity
8
1
62
256
6
ByLayer
370
18
48
1
60
0
100
AcDbCircle
39
0
10
-35.5
20
-34.610352
30
0
40
3.11035175305036
210
6.12303176911189E-17
220
0
230
-1
100
AcDbArc
50
15.307877
51
90
0
ARC
5
AC
100
AcDbEntity
8
1
62
256
6
ByLayer
370
18
48
1
60
0
100
AcDbCircle
39
0
10
-35.5
20
34.610352
30
0
40
3.11035175305036
210
6.12303176911189E-17
220
0
230
-1
100
AcDbArc
50
270
51
344.692123
0
ELLIPSE
5
AD
100
AcDbEntity
8
1
62
256
6
ByLayer
370
18
48
1
60
0
100
AcDbEllipse
10
-6.763884
20
0
30
0
11
18.7348357595657
21
39.4834983055025
31
0
210
0
220
0
230
-1
40
0.341999
41
0.161099005228942
42
1.08794676716926
0
ELLIPSE
5
AE
100
AcDbEntity
8
1
62
256
6
ByLayer
370
18
48
1
60
0
100
AcDbEllipse
10
30.763884
20
0
30
0
11
18.734835759564
21
39.4834983055004
31
0
210
0
220
0
230
-1
40
0.341999
41
-2.98049364836085
42
-2.05364588642049
0
ELLIPSE
5
AF
100
AcDbEntity
8
1
62
256
6
ByLayer
370
18
48
1
60
0
100
AcDbEllipse
10
-6.763884
20
0
30
0
11
18.7348357595649
21
-39.4834983055015
31
0
210
0
220
0
230
-1
40
0.341999
41
-1.08794676716928
42
-0.161099005228942
0
ELLIPSE
5
B0
100
AcDbEntity
8
1
62
256
6
ByLayer
370
18
48
1
60
0
100
AcDbEllipse
10
30.763884
20
0
30
0
11
18.7348357595649
21
-39.4834983055014
31
0
210
0
220
0
230
-1
40
0.341999
41
2.05364588642052
42
2.98049364836085
0
POINT
5
6C
100
AcDbEntity
8
81
62
256
6
ByLayer
370
18
48
1
60
0
100
AcDbPoint
10
80
20
0
30
0
39
0
210
0
220
0
230
1
50
360
0
POINT
5
6E
100
AcDbEntity
8
80
62
256
6
ByLayer
370
18
48
1
60
0
100
AcDbPoint
10
0
20
0
30
0
39
0
210
0
220
0
230
1
50
360
0
POINT
5
70
100
AcDbEntity
8
1
62
256
6
ByLayer
370
18
48
1
60
0
100
AcDbPoint
10
0
20
0
30
0
39
0
210
0
220
0
230
1
50
360
0
SPLINE
5
B1
100
AcDbEntity
8
SK1
62
256
6
ByLayer
370
18
48
1
60
0
100
AcDbSpline
70
4
71
2
72
6
73
3
40
0
40
0
40
0
40
1
40
1
40
1
41
1
10
-46.5
20
-26.3937603074471
30
-2E-16
41
1
10
-24.349999999999
20
-26.9499706126624
30
3E-16
41
1
10
-2.19999999999999
20
-27.506180857905
30
-1E-16
0
SPLINE
5
B2
100
AcDbEntity
8
SK1
62
256
6
ByLayer
370
18
48
1
60
0
100
AcDbSpline
70
4
71
2
72
6
73
3
40
0
40
0
40
0
40
1
40
1
40
1
41
1
10
-0.394976888875277
20
-27.3653849898141
30
0
41
1
10
-0.246472925183497
20
-27.3879745093611
30
0
41
1
10
-0.224159717647836
20
-27.3676216035264
30
0
0
SPLINE
5
B3
100
AcDbEntity
8
SK1
62
256
6
ByLayer
370
18
48
1
60
0
100
AcDbSpline
70
4
71
2
72
6
73
3
40
0
40
0
40
0
40
1
40
1
40
1
41
1
10
-0.394976888875277
20
27.3653847121227
30
0
41
1
10
-1.19500843340728
20
27.3452852614966
30
-1E-16
41
1
10
-1.99503997793928
20
27.3251858108711
30
-1E-16
0
SPLINE
5
B4
100
AcDbEntity
8
SK1
62
256
6
ByLayer
370
18
48
1
60
0
100
AcDbSpline
70
4
71
2
72
6
73
3
40
0
40
0
40
0
40
1
40
1
40
1
41
1
10
-2.19999999999999
20
27.5061808177903
30
-1E-16
41
1
10
-24.349999999999
20
26.9499705725249
30
3E-16
41
1
10
-46.5
20
26.3937602673102
30
-2E-16
0
SPLINE
5
B5
100
AcDbEntity
8
SK1
62
256
6
ByLayer
370
18
48
1
60
0
100
AcDbSpline
70
4
71
2
72
6
73
3
40
0
40
0
40
0
40
1
40
1
40
1
41
1
10
-1.99503997793928
20
-27.3251858139979
30
-1E-16
41
1
10
-1.19500843340728
20
-27.3452852646244
30
-1E-16
41
1
10
-0.394976888875277
20
-27.3653847152514
30
0
0
SPLINE
5
B6
100
AcDbEntity
8
SK1
62
256
6
ByLayer
370
18
48
1
60
0
100
AcDbSpline
70
4
71
2
72
6
73
3
40
0
40
0
40
0
40
1
40
1
40
1
41
1
10
-0.223871815739955
20
27.367719629979
30
0
41
1
10
-0.246723667353393
20
27.3878893822225
30
0
41
1
10
-0.394976888875277
20
27.3653849865937
30
0
0
SPLINE
5
B7
100
AcDbEntity
8
SK1
62
256
6
ByLayer
370
18
48
1
60
0
100
AcDbSpline
70
4
71
3
72
13
73
9
40
0
40
0
40
0
40
0
40
0.239457532427091
40
0.368361584976465
40
0.500001016252292
40
0.631640278310521
40
0.760543864416113
40
1
40
1
40
1
40
1
41
1
10
-1.99503997793928
20
27.3251860847967
30
-1E-16
41
1
10
-2.02111030872422
20
27.3247844448489
30
-1E-16
41
1
10
-2.05884064232873
20
27.3309566998601
30
-1E-16
41
1
10
-2.10627712749309
20
27.3540005022953
30
-1E-16
41
1
10
-2.13886378678794
20
27.3791678724619
30
-1E-16
41
1
10
-2.16563592203019
20
27.4104494262793
30
-1E-16
41
1
10
-2.19103284106723
20
27.4566686000527
30
-1E-16
41
1
10
-2.19909198642043
20
27.4940411843415
30
-1E-16
41
1
10
-2.19999999999999
20
27.5200986604247
30
-1E-16
0
SPLINE
5
B8
100
AcDbEntity
8
SK1
62
256
6
ByLayer
370
18
48
1
60
0
100
AcDbSpline
70
4
71
2
72
6
73
3
40
0
40
0
40
0
40
1
40
1
40
1
41
1
10
-46.5
20
26.4071037337151
30
-2E-16
41
1
10
-47.249999999406
20
25.9740939119354
30
-2E-16
41
1
10
-48
20
25.5410841061086
30
-3E-16
0
SPLINE
5
B9
100
AcDbEntity
8
SK1
62
256
6
ByLayer
370
18
48
1
60
0
100
AcDbSpline
70
4
71
2
72
6
73
3
40
0
40
0
40
0
40
1
40
1
40
1
41
1
10
-48
20
-25.5410840926423
30
-3E-16
41
1
10
-47.2499999994058
20
-25.9740938984543
30
-2E-16
41
1
10
-46.5
20
-26.407103720226
30
-2E-16
0
SPLINE
5
BA
100
AcDbEntity
8
SK1
62
256
6
ByLayer
370
18
48
1
60
0
100
AcDbSpline
70
4
71
3
72
13
73
9
40
0
40
0
40
0
40
0
40
0.239456135589056
40
0.368359721696293
40
0.499998983754981
40
0.63163841503005
40
0.76054246757764
40
1
40
1
40
1
40
1
41
1
10
-2.19999999999999
20
-27.520098663655
30
-1E-16
41
1
10
-2.19909198642051
20
-27.4940411875707
30
-1E-16
41
1
10
-2.19103284106731
20
-27.4566686032802
30
-1E-16
41
1
10
-2.16563592203031
20
-27.4104494295045
30
-1E-16
41
1
10
-2.13886378678808
20
-27.3791678756855
30
-1E-16
41
1
10
-2.10627712749326
20
-27.3540005055177
30
-1E-16
41
1
10
-2.0588406423289
20
-27.3309567030813
30
-1E-16
41
1
10
-2.0211103087243
20
-27.3247844480697
30
-1E-16
41
1
10
-1.99503997793928
20
-27.3251860880175
30
-1E-16
0
SPLINE
5
BB
100
AcDbEntity
8
1
62
256
6
ByLayer
370
18
48
1
60
0
100
AcDbSpline
70
4
71
3
72
16
73
12
40
0
40
0
40
0
40
0
40
0.249999999999999
40
0.249999999999999
40
0.499999999999997
40
0.499999999999997
40
0.749999999999996
40
0.749999999999996
40
0.874999999999998
40
0.874999999999998
40
1
40
1
40
1
40
1
41
1
10
13.8943375672974
20
37.9445010117191
30
9E-16
41
1
10
13.8787561873888
20
37.9636055836586
30
8E-16
41
1
10
13.8601238798743
20
37.9822012953861
30
8E-16
41
1
10
13.8146289914014
20
38.0181481521524
30
8E-16
41
1
10
13.7876921654474
20
38.0356224517383
30
8E-16
41
1
10
13.7212171221612
20
38.0682374888743
30
8E-16
41
1
10
13.6816031920018
20
38.0834517571985
30
8E-16
41
1
10
13.6089776935099
20
38.1011554411599
30
8E-16
41
1
10
13.5819554640971
20
38.1062761312752
30
8E-16
41
1
10
13.5241733156583
20
38.1134152144531
30
8E-16
41
1
10
13.4929397308716
20
38.1154578595255
30
8E-16
41
1
10
13.4613248654052
20
38.1154578595255
30
8E-16
0
SPLINE
5
BC
100
AcDbEntity
8
1
62
256
6
ByLayer
370
18
48
1
60
0
100
AcDbSpline
70
4
71
3
72
16
73
12
40
0
40
0
40
0
40
0
40
0.125
40
0.125
40
0.25
40
0.25
40
0.5
40
0.5
40
0.75
40
0.75
40
1
40
1
40
1
40
1
41
1
10
10.5386751345948
20
38.1154578595255
30
6E-16
41
1
10
10.5070097812327
20
38.1154578595255
30
6E-16
41
1
10
10.4761852218639
20
38.1134542929027
30
6E-16
41
1
10
10.4179414896383
20
38.1062685963607
30
6E-16
41
1
10
10.3914602024633
20
38.101260466828
30
6E-16
41
1
10
10.3176492454754
20
38.0832729594607
30
6E-16
41
1
10
10.2787320432277
20
38.0682137252776
30
6E-16
41
1
10
10.2123318812525
20
38.0356330717497
30
6E-16
41
1
10
10.1856242795051
20
38.0183244490836
30
6E-16
41
1
10
10.1400321601288
20
37.9823481941392
30
6E-16
41
1
10
10.1212495620848
20
37.9636126331776
30
6E-16
41
1
10
10.1056624327025
20
37.9445010117191
30
6E-16
0
SPLINE
5
BD
100
AcDbEntity
8
1
62
256
6
ByLayer
370
18
48
1
60
0
100
AcDbSpline
70
4
71
3
72
16
73
12
40
0
40
0
40
0
40
0
40
0.25
40
0.25
40
0.5
40
0.5
40
0.75
40
0.75
40
0.875
40
0.875
40
1
40
1
40
1
40
1
41
1
10
13.8943375672974
20
-12.6576002058704
30
9E-16
41
1
10
13.8787561873888
20
-12.6003292036662
30
8E-16
41
1
10
13.8601238798743
20
-12.5441499637055
30
8E-16
41
1
10
13.8146289914014
20
-12.4347788334234
30
8E-16
41
1
10
13.7876921654474
20
-12.3812044282565
30
8E-16
41
1
10
13.7212171221612
20
-12.280557514874
30
8E-16
41
1
10
13.6816031920019
20
-12.2332416215828
30
8E-16
41
1
10
13.6089776935099
20
-12.1779443514617
30
8E-16
41
1
10
13.5819554640971
20
-12.1619018862398
30
8E-16
41
1
10
13.5241733156583
20
-12.1395106480537
30
8E-16
41
1
10
13.4929397308716
20
-12.1330899674705
30
8E-16
41
1
10
13.4613248654052
20
-12.1330899674705
30
8E-16
0
SPLINE
5
BE
100
AcDbEntity
8
1
62
256
6
ByLayer
370
18
48
1
60
0
100
AcDbSpline
70
4
71
3
72
16
73
12
40
0
40
0
40
0
40
0
40
0.125
40
0.125
40
0.25
40
0.25
40
0.5
40
0.5
40
0.75
40
0.75
40
1
40
1
40
1
40
1
41
1
10
13.4613248654052
20
12.1330899674707
30
8E-16
41
1
10
13.4929902187673
20
12.1330899674707
30
8E-16
41
1
10
13.5238147781361
20
12.1393880305613
30
8E-16
41
1
10
13.5820585103617
20
12.1619255694047
30
8E-16
41
1
10
13.6085397975367
20
12.177616249759
30
8E-16
41
1
10
13.6823507545246
20
12.2338002045595
30
8E-16
41
1
10
13.7212679567723
20
12.2806309384212
30
8E-16
41
1
10
13.7876681187476
20
12.3811715645304
30
8E-16
41
1
10
13.8143757204949
20
12.4342400380054
30
8E-16
41
1
10
13.8599678398713
20
12.543705389465
30
8E-16
41
1
10
13.8787504379152
20
12.6003080708704
30
8E-16
41
1
10
13.8943375672975
20
12.6576002058703
30
9E-16
0
SPLINE
5
BF
100
AcDbEntity
8
1
62
256
6
ByLayer
370
18
48
1
60
0
100
AcDbSpline
70
4
71
3
72
16
73
12
40
0
40
0
40
0
40
0
40
0.124999999999999
40
0.124999999999999
40
0.249999999999997
40
0.249999999999997
40
0.499999999999998
40
0.499999999999998
40
0.749999999999999
40
0.749999999999999
40
1
40
1
40
1
40
1
41
1
10
10.5386751345948
20
-12.1330899674707
30
6E-16
41
1
10
10.5070097812327
20
-12.1330899674707
30
6E-16
41
1
10
10.4761852218639
20
-12.1393880305614
30
6E-16
41
1
10
10.4179414896383
20
-12.1619255694047
30
6E-16
41
1
10
10.3914602024633
20
-12.177616249759
30
6E-16
41
1
10
10.3176492454754
20
-12.2338002045595
30
6E-16
41
1
10
10.2787320432277
20
-12.2806309384213
30
6E-16
41
1
10
10.2123318812525
20
-12.3811715645304
30
6E-16
41
1
10
10.1856242795051
20
-12.4342400380054
30
6E-16
41
1
10
10.1400321601288
20
-12.5437053894649
30
6E-16
41
1
10
10.1212495620848
20
-12.6003080708704
30
6E-16
41
1
10
10.1056624327025
20
-12.6576002058703
30
6E-16
0
SPLINE
5
C0
100
AcDbEntity
8
1
62
256
6
ByLayer
370
18
48
1
60
0
100
AcDbSpline
70
4
71
3
72
16
73
12
40
0
40
0
40
0
40
0
40
0.25
40
0.25
40
0.500000000000001
40
0.500000000000001
40
0.750000000000001
40
0.750000000000001
40
0.875
40
0.875
40
1
40
1
40
1
40
1
41
1
10
10.1056624327026
20
12.6576002058704
30
6E-16
41
1
10
10.1212438126112
20
12.6003292036662
30
6E-16
41
1
10
10.1398761201257
20
12.5441499637055
30
6E-16
41
1
10
10.1853710085986
20
12.4347788334234
30
6E-16
41
1
10
10.2123078345526
20
12.3812044282565
30
6E-16
41
1
10
10.2787828778388
20
12.280557514874
30
6E-16
41
1
10
10.3183968079982
20
12.2332416215828
30
6E-16
41
1
10
10.3910223064901
20
12.1779443514617
30
6E-16
41
1
10
10.4180445359029
20
12.1619018862399
30
6E-16
41
1
10
10.4758266843417
20
12.1395106480537
30
6E-16
41
1
10
10.5070602691284
20
12.1330899674706
30
6E-16
41
1
10
10.5386751345948
20
12.1330899674706
30
6E-16
0
SPLINE
5
C1
100
AcDbEntity
8
1
62
256
6
ByLayer
370
18
48
1
60
0
100
AcDbSpline
70
4
71
3
72
16
73
12
40
0
40
0
40
0
40
0
40
0.125000000000002
40
0.125000000000002
40
0.250000000000004
40
0.250000000000004
40
0.500000000000003
40
0.500000000000003
40
0.750000000000001
40
0.750000000000001
40
1
40
1
40
1
40
1
41
1
10
13.4613248654052
20
-38.1154578595255
30
8E-16
41
1
10
13.4929902187673
20
-38.1154578595255
30
8E-16
41
1
10
13.5238147781361
20
-38.1134542929028
30
8E-16
41
1
10
13.5820585103617
20
-38.1062685963607
30
8E-16
41
1
10
13.6085397975367
20
-38.1012604668281
30
8E-16
41
1
10
13.6823507545246
20
-38.0832729594607
30
8E-16
41
1
10
13.7212679567723
20
-38.0682137252776
30
8E-16
41
1
10
13.7876681187476
20
-38.0356330717498
30
8E-16
41
1
10
13.8143757204949
20
-38.0183244490836
30
8E-16
41
1
10
13.8599678398713
20
-37.9823481941392
30
8E-16
41
1
10
13.8787504379152
20
-37.9636126331776
30
8E-16
41
1
10
13.8943375672975
20
-37.9445010117191
30
9E-16
0
SPLINE
5
C2
100
AcDbEntity
8
1
62
256
6
ByLayer
370
18
48
1
60
0
100
AcDbSpline
70
4
71
3
72
16
73
12
40
0
40
0
40
0
40
0
40
0.250000000000003
40
0.250000000000003
40
0.500000000000005
40
0.500000000000005
40
0.750000000000008
40
0.750000000000008
40
0.875000000000004
40
0.875000000000004
40
1
40
1
40
1
40
1
41
1
10
10.1056624327026
20
-37.9445010117191
30
6E-16
41
1
10
10.1212438126112
20
-37.9636055836586
30
6E-16
41
1
10
10.1398761201257
20
-37.9822012953861
30
6E-16
41
1
10
10.1853710085986
20
-38.0181481521524
30
6E-16
41
1
10
10.2123078345526
20
-38.0356224517383
30
6E-16
41
1
10
10.2787828778388
20
-38.0682374888742
30
6E-16
41
1
10
10.3183968079982
20
-38.0834517571985
30
6E-16
41
1
10
10.3910223064901
20
-38.1011554411598
30
6E-16
41
1
10
10.4180445359029
20
-38.1062761312752
30
6E-16
41
1
10
10.4758266843417
20
-38.1134152144531
30
6E-16
41
1
10
10.5070602691284
20
-38.1154578595255
30
6E-16
41
1
10
10.5386751345948
20
-38.1154578595255
30
6E-16
0
SPLINE
5
C3
100
AcDbEntity
8
SK1
62
256
6
ByLayer
370
18
48
1
60
0
100
AcDbSpline
70
4
71
3
72
28
73
24
40
0
40
0
40
0
40
0
40
0.25
40
0.25
40
0.499999999999999
40
0.499999999999999
40
0.624999999999998
40
0.624999999999998
40
0.687499999999998
40
0.687499999999998
40
0.749999999999998
40
0.749999999999998
40
0.812499999999998
40
0.812499999999998
40
0.843749999999998
40
0.843749999999998
40
0.874999999999998
40
0.874999999999998
40
0.906249999999999
40
0.906249999999999
40
0.937499999999999
40
0.937499999999999
40
1
40
1
40
1
40
1
41
1
10
-1.30710678118655
20
4.39323937970204
30
-1E-16
41
1
10
-1.27807156294216
20
4.55728578669132
30
-1E-16
41
1
10
-1.24496336974437
20
4.71973533160028
30
-1E-16
41
1
10
-1.16607860111955
20
5.0407319550261
30
-1E-16
41
1
10
-1.1205161180292
20
5.19963508727912
30
-1E-16
41
1
10
-1.03498128866929
20
5.43038219900063
30
-1E-16
41
1
10
-1.00356748257124
20
5.50611038118018
30
-1E-16
41
1
10
-0.948836683011137
20
5.61682998569378
30
-1E-16
41
1
10
-0.929306813344141
20
5.65325165428479
30
-1E-16
41
1
10
-0.88640701167526
20
5.72469636556377
30
-1E-16
41
1
10
-0.863046539494889
20
5.7597079963254
30
-1E-16
41
1
10
-0.81137857072963
20
5.82566030070512
30
0
41
1
10
-0.783095962941786
20
5.85688967768854
30
0
41
1
10
-0.733309570496687
20
5.89841079112159
30
0
41
1
10
-0.715777016447618
20
5.91105263131413
30
0
41
1
10
-0.678015781761673
20
5.93289970518879
30
0
41
1
10
-0.657793110825367
20
5.9420144229874
30
0
41
1
10
-0.615790388270568
20
5.95443864745007
30
0
41
1
10
-0.593299286563052
20
5.95781478621089
30
0
41
1
10
-0.549231954733756
20
5.95741118630212
30
0
41
1
10
-0.527157757150718
20
5.95370558688924
30
0
41
1
10
-0.464334375972726
20
5.93399527965414
30
0
41
1
10
-0.427479743259994
20
5.91025974760839
30
0
41
1
10
-0.394976888875306
20
5.88246916452647
30
0
0
SPLINE
5
C4
100
AcDbEntity
8
SK1
62
256
6
ByLayer
370
18
48
1
60
0
100
AcDbSpline
70
4
71
3
72
26
73
22
40
0
40
0
40
0
40
0
40
0.03125
40
0.03125
40
0.0624999999999999
40
0.0624999999999999
40
0.0937499999999999
40
0.0937499999999999
40
0.125
40
0.125
40
0.1875
40
0.1875
40
0.25
40
0.25
40
0.375
40
0.375
40
0.5
40
0.5
40
0.75
40
0.75
40
1
40
1
40
1
40
1
41
1
10
-0.394976888875306
20
-5.88246902087485
30
0
41
1
10
-0.411243448014119
20
-5.89637723850254
30
0
41
1
10
-0.428449793960141
20
-5.90912350803339
30
0
41
1
10
-0.465564082935231
20
-5.9312897696465
30
0
41
1
10
-0.485501260594049
20
-5.94064321807932
30
0
41
1
10
-0.527078862046835
20
-5.95367340640223
30
0
41
1
10
-0.549438320144901
20
-5.95743908997457
30
0
41
1
10
-0.593606088483739
20
-5.95779086324146
30
0
41
1
10
-0.615789294920603
20
-5.9544654528637
30
0
41
1
10
-0.679608123678122
20
-5.93550756082416
30
0
41
1
10
-0.717332651322977
20
-5.91177816162457
30
0
41
1
10
-0.78301501207946
20
-5.85691368285359
30
0
41
1
10
-0.811905746603998
20
-5.82506288928454
30
0
41
1
10
-0.889505535911809
20
-5.72578032377575
30
-1E-16
41
1
10
-0.930486085809804
20
-5.65396988322573
30
-1E-16
41
1
10
-1.00381992840016
20
-5.50558272391777
30
-1E-16
41
1
10
-1.03559750467301
20
-5.42886588385059
30
-1E-16
41
1
10
-1.12127825547444
20
-5.19728125876009
30
-1E-16
41
1
10
-1.16642207539593
20
-5.03942758364948
30
-1E-16
41
1
10
-1.24501063644411
20
-4.71944904321026
30
-1E-16
41
1
10
-1.27807953909772
20
-4.55724063340097
30
-1E-16
41
1
10
-1.30710678118655
20
-4.3932391538923
30
-1E-16
0
SPLINE
5
C5
100
AcDbEntity
8
SK1
62
256
6
ByLayer
370
18
48
1
60
0
100
AcDbSpline
70
4
71
3
72
299
73
295
40
0
40
0
40
0
40
0
40
0.0016934360089397
40
0.0052026355666117
40
0.0087118351242837
40
0.0122210346819557
40
0.0157302342396277
40
0.0192394337972998
40
0.0227486333549718
40
0.0297670324703158
40
0.0367854315856598
40
0.0402946311433319
40
0.0438038307010039
40
0.0473130302586759
40
0.0508222298163479
40
0.05433142937402
40
0.0578406289316919
40
0.0613498284893639
40
0.064859028047036
40
0.07187742716238
40
0.075386626720052
40
0.078895826277724
40
0.0824050258353961
40
0.0859142253930681
40
0.0894234249507401
40
0.0929326245084122
40
0.0964418240660841
40
0.0999510236237561
40
0.103460223181428
40
0.1069694227391
40
0.110478622296772
40
0.112233222075608
40
0.113987821854444
40
0.117497021412116
40
0.121006220969788
40
0.128024620085132
40
0.135043019200476
40
0.138552218758148
40
0.14206141831582
40
0.149079817431164
40
0.156098216546508
40
0.163116615661853
40
0.166625815219524
40
0.170135014777196
40
0.17715341389254
40
0.184171813007884
40
0.191190212123229
40
0.198208611238573
40
0.205227010353917
40
0.212245409469261
40
0.215754609026933
40
0.219263808584605
40
0.226282207699949
40
0.233300606815293
40
0.240319005930637
40
0.243828205488309
40
0.247337405045981
40
0.254355804161325
40
0.261374203276669
40
0.264883402834341
40
0.268392602392013
40
0.275411001507357
40
0.282429400622701
40
0.285938600180373
40
0.289447799738045
40
0.296466198853389
40
0.299975398411061
40
0.303484597968733
40
0.305239197747569
40
0.306993797526405
40
0.310502997084077
40
0.314012196641749
40
0.317521396199421
40
0.321030595757093
40
0.324539795314765
40
0.328048994872437
40
0.331558194430109
40
0.335067393987781
40
0.338576593545453
40
0.345594992660797
40
0.349104192218469
40
0.352613391776141
40
0.356122591333813
40
0.359631790891485
40
0.363140990449157
40
0.36665019000683
40
0.373668589122173
40
0.380686988237518
40
0.384196187795189
40
0.387705387352862
40
0.391214586910534
40
0.394723786468206
40
0.398232986025877
40
0.40174218558355
40
0.405251385141222
40
0.408760584698894
40
0.412269784256566
40
0.415778983814238
40
0.41928818337191
40
0.422797382929582
40
0.426306582487254
40
0.429815782044926
40
0.433324981602598
40
0.43683418116027
40
0.438588780939106
40
0.440343380717942
40
0.443852580275614
40
0.447361779833286
40
0.449116379612122
40
0.450870979390958
40
0.45438017894863
40
0.456134778727466
40
0.457889378506302
40
0.45876667839572
40
0.459643978285138
40
0.461398578063974
40
0.46315317784281
40
0.464907777621646
40
0.466662377400482
40
0.468416977179318
40
0.470171576958154
40
0.471048876847572
40
0.47192617673699
40
0.472803476626408
40
0.473680776515826
40
0.474558076405244
40
0.475435376294662
40
0.477189976073498
40
0.478067275962916
40
0.478944575852334
40
0.48069917563117
40
0.481576475520588
40
0.482453775410006
40
0.484208375188842
40
0.48508567507826
40
0.485962974967678
40
0.487717574746514
40
0.48947217452535
40
0.491226774304186
40
0.492104074193604
40
0.492981374083022
40
0.49385867397244
40
0.494735973861858
40
0.495613273751276
40
0.496490573640694
40
0.497367873530112
40
0.49824517341953
40
0.499122473308948
40
0.499999773198366
40
0.500877073087784
40
0.501754372977202
40
0.50263167286662
40
0.503508972756038
40
0.504386272645456
40
0.505263572534874
40
0.506140872424292
40
0.50701817231371
40
0.507895472203128
40
0.508772772092546
40
0.510527371871382
40
0.512281971650218
40
0.514036571429054
40
0.514913871318472
40
0.51579117120789
40
0.517545770986726
40
0.518423070876144
40
0.519300370765562
40
0.521054970544398
40
0.521932270433816
40
0.522809570323234
40
0.52456417010207
40
0.525441469991488
40
0.526318769880906
40
0.527196069770324
40
0.528073369659742
40
0.52895066954916
40
0.529827969438578
40
0.531582569217414
40
0.53333716899625
40
0.535091768775086
40
0.536846368553922
40
0.538600968332758
40
0.540355568111594
40
0.541232868001012
40
0.54211016789043
40
0.543864767669266
40
0.545619367448102
40
0.549128567005774
40
0.55088316678461
40
0.552637766563446
40
0.556146966121118
40
0.55965616567879
40
0.561410765457626
40
0.563165365236462
40
0.566674564794134
40
0.570183764351806
40
0.573692963909478
40
0.57720216346715
40
0.580711363024823
40
0.584220562582494
40
0.587729762140166
40
0.591238961697839
40
0.594748161255511
40
0.598257360813182
40
0.601766560370855
40
0.605275759928526
40
0.608784959486199
40
0.612294159043871
40
0.615803358601543
40
0.619312558159215
40
0.622821757716887
40
0.626330957274559
40
0.633349356389903
40
0.636858555947575
40
0.640367755505247
40
0.643876955062919
40
0.647386154620591
40
0.650895354178263
40
0.654404553735935
40
0.661422952851279
40
0.664932152408951
40
0.668441351966623
40
0.671950551524295
40
0.675459751081967
40
0.678968950639639
40
0.682478150197311
40
0.685987349754983
40
0.689496549312655
40
0.693005748870327
40
0.696514948427999
40
0.700024147985671
40
0.703533347543343
40
0.710551746658687
40
0.714060946216359
40
0.717570145774031
40
0.724588544889375
40
0.731606944004719
40
0.735116143562391
40
0.738625343120063
40
0.745643742235407
40
0.752662141350751
40
0.756171340908423
40
0.759680540466095
40
0.766698939581439
40
0.773717338696783
40
0.780735737812127
40
0.7842449373698
40
0.787754136927472
40
0.794772536042816
40
0.801790935158159
40
0.808809334273504
40
0.815827733388848
40
0.822846132504192
40
0.829864531619536
40
0.833373731177208
40
0.83688293073488
40
0.843901329850224
40
0.850919728965568
40
0.857938128080912
40
0.861447327638584
40
0.864956527196256
40
0.8719749263116
40
0.878993325426944
40
0.882502524984616
40
0.886011724542288
40
0.893030123657632
40
0.896539323215304
40
0.900048522772976
40
0.903557722330648
40
0.90706692188832
40
0.910576121445992
40
0.914085321003664
40
0.917594520561336
40
0.921103720119008
40
0.92461291967668
40
0.928122119234352
40
0.935140518349696
40
0.938649717907368
40
0.94215891746504
40
0.945668117022712
40
0.949177316580384
40
0.952686516138056
40
0.956195715695728
40
0.9597049152534
40
0.963214114811072
40
0.970232513926416
40
0.97725091304176
40
0.980760112599432
40
0.984269312157104
40
0.987778511714776
40
0.991287711272448
40
0.99479691083012
40
0.998306110387792
40
1
40
1
40
1
40
1
41
1
10
-48
20
25.5377836842661
30
-3E-16
41
1
10
-48
20
25.5369757192767
30
-3E-16
41
1
10
-48
20
25.5340454829338
30
-3E-16
41
1
10
-48
20
25.526853527344
30
-3E-16
41
1
10
-48
20
25.5145008149315
30
-3E-16
41
1
10
-48
20
25.498546052428
30
-3E-16
41
1
10
-48
20
25.4790475285131
30
-3E-16
41
1
10
-48
20
25.4560605539616
30
2E-16
41
1
10
-48
20
25.4206809385045
30
2E-16
41
1
10
-48
20
25.3683435244347
30
2E-16
41
1
10
-48
20
25.3050935983469
30
2E-16
41
1
10
-48
20
25.2477155824513
30
-1E-16
41
1
10
-48
20
25.2016868330385
30
-1E-16
41
1
10
-48
20
25.152540227847
30
-1E-16
41
1
10
-48
20
25.1003164469937
30
-1E-16
41
1
10
-48
20
25.0450517289096
30
-1E-16
41
1
10
-48
20
24.9867824066374
30
0
41
1
10
-48
20
24.9255447176865
30
0
41
1
10
-48
20
24.839671739525
30
0
41
1
10
-48
20
24.7489365887333
30
-1E-16
41
1
10
-48
20
24.6515544180899
30
-1E-16
41
1
10
-48
20
24.5759533043403
30
-1E-16
41
1
10
-48
20
24.4975687629489
30
-1E-16
41
1
10
-48
20
24.4164276140701
30
2E-16
41
1
10
-48
20
24.3325592473395
30
2E-16
41
1
10
-48
20
24.2459871695687
30
2E-16
41
1
10
-48
20
24.1567364141525
30
2E-16
41
1
10
-48
20
24.0648340874221
30
2E-16
41
1
10
-48
20
23.9703007183102
30
2E-16
41
1
10
-48
20
23.8731600668768
30
2E-16
41
1
10
-48
20
23.7902703050809
30
-3E-16
41
1
10
-48
20
23.7222924438482
30
-3E-16
41
1
10
-48
20
23.653458955013
30
-3E-16
41
1
10
-48
20
23.5663193127548
30
-3E-16
41
1
10
-48
20
23.4227344317565
30
-3E-16
41
1
10
-48
20
23.2380159335195
30
-3E-16
41
1
10
-48
20
23.0451147378601
30
-3E-16
41
1
10
-48
20
22.8850691532134
30
-3E-16
41
1
10
-48
20
22.7217969969803
30
-3E-16
41
1
10
-48
20
22.5128489113235
30
-3E-16
41
1
10
-48
20
22.2520665958364
30
6E-16
41
1
10
-48
20
22.0275248400849
30
6E-16
41
1
10
-48
20
21.8423074664778
30
6E-16
41
1
10
-48
20
21.6540306628311
30
6E-16
41
1
10
-48
20
21.4142718291048
30
6E-16
41
1
10
-48
20
21.1168973606635
30
6E-16
41
1
10
-48
20
20.8106419723679
30
6E-16
41
1
10
-48
20
20.4956027387563
30
6E-16
41
1
10
-48
20
20.1718725887445
30
6E-16
41
1
10
-48
20
19.8955820016259
30
6E-16
41
1
10
-48
20
19.6691006662323
30
6E-16
41
1
10
-48
20
19.4397871520623
30
6E-16
41
1
10
-48
20
19.149410368202
30
6E-16
41
1
10
-48
20
18.7917723606454
30
6E-16
41
1
10
-48
20
18.4875640285875
30
6E-16
41
1
10
-48
20
18.2387699032321
30
6E-16
41
1
10
-48
20
17.9872478599777
30
6E-16
41
1
10
-48
20
17.6694739204115
30
6E-16
41
1
10
-48
20
17.3449849911693
30
6E-16
41
1
10
-48
20
17.0799573159189
30
6E-16
41
1
10
-48
20
16.8122724002143
30
6E-16
41
1
10
-48
20
16.4745711156787
30
6E-16
41
1
10
-48
20
16.1303137979014
30
6E-16
41
1
10
-48
20
15.8494407221551
30
6E-16
41
1
10
-48
20
15.5659773316764
30
6E-16
41
1
10
-48
20
15.2813516937416
30
6E-16
41
1
10
-48
20
14.9901200233614
30
6E-16
41
1
10
-48
20
14.8075644243928
30
6E-16
41
1
10
-48
20
14.6597110063681
30
6E-16
41
1
10
-48
20
14.5112241351638
30
6E-16
41
1
10
-48
20
14.325523032543
30
6E-16
41
1
10
-48
20
14.100206062781
30
6E-16
41
1
10
-48
20
13.8730097919851
30
6E-16
41
1
10
-48
20
13.6439374060174
30
6E-16
41
1
10
-48
20
13.4130051173935
30
6E-16
41
1
10
-48
20
13.180217534584
30
6E-16
41
1
10
-48
20
12.9455817705228
30
6E-16
41
1
10
-48
20
12.7091124446063
30
6E-16
41
1
10
-48
20
12.3902773743984
30
6E-16
41
1
10
-48
20
12.0712141126493
30
6E-16
41
1
10
-48
20
11.7450471308309
30
6E-16
41
1
10
-48
20
11.499537429511
30
6E-16
41
1
10
-48
20
11.2522509655356
30
6E-16
41
1
10
-48
20
11.0031990533662
30
6E-16
41
1
10
-48
20
10.7523971889997
30
6E-16
41
1
10
-48
20
10.4143930662711
30
6E-16
41
1
10
-48
20
9.99059437973426
30
6E-16
41
1
10
-48
20
9.56108850247725
30
6E-16
41
1
10
-48
20
9.21157829691111
30
6E-16
41
1
10
-48
20
8.94892889623651
30
6E-16
41
1
10
-48
20
8.68465969448138
30
6E-16
41
1
10
-48
20
8.41879489376456
30
6E-16
41
1
10
-48
20
8.1513584304715
30
6E-16
41
1
10
-48
20
7.88237762223332
30
6E-16
41
1
10
-48
20
7.61188258574541
30
6E-16
41
1
10
-48
20
7.33990573648225
30
6E-16
41
1
10
-48
20
7.06648317582801
30
6E-16
41
1
10
-48
20
6.79165403169532
30
6E-16
41
1
10
-48
20
6.51546273390829
30
6E-16
41
1
10
-48
20
6.23795844891293
30
6E-16
41
1
10
-48
20
5.95919386675251
30
6E-16
41
1
10
-48
20
5.67923124039956
30
6E-16
41
1
10
-48
20
5.39813608998188
30
6E-16
41
1
10
-48
20
5.16409942590656
30
6E-16
41
1
10
-48
20
4.97430334712462
30
6E-16
41
1
10
-48
20
4.7842335597642
30
6E-16
41
1
10
-48
20
4.54886462907325
30
6E-16
41
1
10
-48
20
4.31277534686873
30
6E-16
41
1
10
-48
20
4.12122851639978
30
6E-16
41
1
10
-48
20
3.92953181194159
30
6E-16
41
1
10
-48
20
3.74171250564351
30
6E-16
41
1
10
-48
20
3.54939053469457
30
6E-16
41
1
10
-48
20
3.43078723702686
30
6E-16
41
1
10
-48
20
3.33452834177101
30
6E-16
41
1
10
-48
20
3.23827071234683
30
6E-16
41
1
10
-48
20
3.11968323888183
30
6E-16
41
1
10
-48
20
2.9763972576242
30
6E-16
41
1
10
-48
20
2.83312966280692
30
6E-16
41
1
10
-48
20
2.68989995735709
30
6E-16
41
1
10
-48
20
2.54673093615281
30
6E-16
41
1
10
-48
20
2.42835340498934
30
6E-16
41
1
10
-48
20
2.33210483961736
30
6E-16
41
1
10
-48
20
2.26063536694386
30
6E-16
41
1
10
-48
20
2.18920496049071
30
6E-16
41
1
10
-48
20
2.11781396766756
30
6E-16
41
1
10
-48
20
2.04645318736363
30
6E-16
41
1
10
-48
20
1.95042373572571
30
6E-16
41
1
10
-48
20
1.85738517673588
30
6E-16
41
1
10
-48
20
1.76148268994555
30
6E-16
41
1
10
-48
20
1.66566845968211
30
6E-16
41
1
10
-48
20
1.57300568038053
30
6E-16
41
1
10
-48
20
1.47735113591224
30
6E-16
41
1
10
-48
20
1.38179732051373
30
6E-16
41
1
10
-48
20
1.28954369165814
30
6E-16
41
1
10
-48
20
1.19416572492489
30
6E-16
41
1
10
-48
20
1.09890005736773
30
6E-16
41
1
10
-48
20
0.98245221211539
30
6E-16
41
1
10
-48
20
0.841586183466262
30
6E-16
41
1
10
-48
20
0.725505983440371
30
6E-16
41
1
10
-48
20
0.630667457966069
30
6E-16
41
1
10
-48
20
0.560480352627565
30
6E-16
41
1
10
-48
20
0.490320947144568
30
6E-16
41
1
10
-48
20
0.420191796768449
30
6E-16
41
1
10
-48
20
0.350113667187827
30
6E-16
41
1
10
-48
20
0.280062256420109
30
6E-16
41
1
10
-48
20
0.210017157782517
30
6E-16
41
1
10
-48
20
0.139999797922002
30
6E-16
41
1
10
-48
20
0.0700069276308
30
6E-16
41
1
10
-48
20
4.76035495E-08
30
6E-16
41
1
10
-48
20
-0.070006852265891
30
6E-16
41
1
10
-48
20
-0.139999771278355
30
6E-16
41
1
10
-48
20
-0.210017192178867
30
6E-16
41
1
10
-48
20
-0.280062327764426
30
6E-16
41
1
10
-48
20
-0.350113717602739
30
6E-16
41
1
10
-48
20
-0.420191773132984
30
6E-16
41
1
10
-48
20
-0.490320831948736
30
6E-16
41
1
10
-48
20
-0.560480204117283
30
6E-16
41
1
10
-48
20
-0.630667364061651
30
6E-16
41
1
10
-48
20
-0.725506055183985
30
6E-16
41
1
10
-48
20
-0.841586301072908
30
6E-16
41
1
10
-48
20
-0.982452087600734
30
6E-16
41
1
10
-48
20
-1.0988998543464
30
6E-16
41
1
10
-48
20
-1.19416572065762
30
6E-16
41
1
10
-48
20
-1.28954388060518
30
6E-16
41
1
10
-48
20
-1.38179747741995
30
6E-16
41
1
10
-48
20
-1.47735105462405
30
6E-16
41
1
10
-48
20
-1.57300541448592
30
6E-16
41
1
10
-48
20
-1.66566826608278
30
6E-16
41
1
10
-48
20
-1.7614827566702
30
6E-16
41
1
10
-48
20
-1.85738542747043
30
6E-16
41
1
10
-48
20
-1.95042391104269
30
6E-16
41
1
10
-48
20
-2.04645309751422
30
6E-16
41
1
10
-48
20
-2.11781369872008
30
6E-16
41
1
10
-48
20
-2.1892046545733
30
6E-16
41
1
10
-48
20
-2.26063516689573
30
6E-16
41
1
10
-48
20
-2.33210483720981
30
6E-16
41
1
10
-48
20
-2.42835363712962
30
6E-16
41
1
10
-48
20
-2.54673116818745
30
6E-16
41
1
10
-48
20
-2.68989982354518
30
6E-16
41
1
10
-48
20
-2.83312933609361
30
6E-16
41
1
10
-48
20
-2.9763972238697
30
6E-16
41
1
10
-48
20
-3.1196835191557
30
6E-16
41
1
10
-48
20
-3.23827092858158
30
6E-16
41
1
10
-48
20
-3.33452833265792
30
6E-16
41
1
10
-48
20
-3.43078700052166
30
6E-16
41
1
10
-48
20
-3.54939021067565
30
6E-16
41
1
10
-48
20
-3.74171256557347
30
6E-16
41
1
10
-48
20
-3.92953209444403
30
6E-16
41
1
10
-48
20
-4.12122845571991
30
6E-16
41
1
10
-48
20
-4.31277503954936
30
6E-16
41
1
10
-48
20
-4.54886466434414
30
6E-16
41
1
10
-48
20
-4.78423382727124
30
6E-16
41
1
10
-48
20
-4.97430327353658
30
6E-16
41
1
10
-48
20
-5.16409912297942
30
6E-16
41
1
10
-48
20
-5.39813607390266
30
6E-16
41
1
10
-48
20
-5.67923146024086
30
6E-16
41
1
10
-48
20
-5.95919374753973
30
6E-16
41
1
10
-48
20
-6.23795855201797
30
6E-16
41
1
10
-48
20
-6.51546317325875
30
6E-16
41
1
10
-48
20
-6.79165340259817
30
6E-16
41
1
10
-48
20
-7.06648207689202
30
6E-16
41
1
10
-48
20
-7.33990643048304
30
6E-16
41
1
10
-48
20
-7.61188395990186
30
6E-16
41
1
10
-48
20
-7.88237631719019
30
6E-16
41
1
10
-48
20
-8.15135709229654
30
6E-16
41
1
10
-48
20
-8.41879605362203
30
6E-16
41
1
10
-48
20
-8.68466042952298
30
6E-16
41
1
10
-48
20
-8.94892880419638
30
6E-16
41
1
10
-48
20
-9.211578053919
30
6E-16
41
1
10
-48
20
-9.47258829745539
30
6E-16
41
1
10
-48
20
-9.73193781693985
30
6E-16
41
1
10
-48
20
-10.0769274508058
30
6E-16
41
1
10
-48
20
-10.414392862813
30
6E-16
41
1
10
-48
20
-10.7523970809122
30
6E-16
41
1
10
-48
20
-11.0031992619305
30
6E-16
41
1
10
-48
20
-11.2522511703231
30
6E-16
41
1
10
-48
20
-11.4995374559565
30
6E-16
41
1
10
-48
20
-11.7450470242589
30
6E-16
41
1
10
-48
20
-12.0712140924269
30
6E-16
41
1
10
-48
20
-12.3902774266109
30
6E-16
41
1
10
-48
20
-12.7091123929265
30
6E-16
41
1
10
-48
20
-12.9455818593715
30
6E-16
41
1
10
-48
20
-13.180217502072
30
6E-16
41
1
10
-48
20
-13.4130051102497
30
6E-16
41
1
10
-48
20
-13.6439372705323
30
6E-16
41
1
10
-48
20
-13.8730093523109
30
6E-16
41
1
10
-48
20
-14.1002065298018
30
6E-16
41
1
10
-48
20
-14.3255243550819
30
6E-16
41
1
10
-48
20
-14.5489565829083
30
6E-16
41
1
10
-48
20
-14.770489234737
30
6E-16
41
1
10
-48
20
-14.9901189866895
30
6E-16
41
1
10
-48
20
-15.281352479629
30
6E-16
41
1
10
-48
20
-15.5659774253293
30
6E-16
41
1
10
-48
20
-15.8494406493609
30
6E-16
41
1
10
-48
20
-16.1303138068004
30
6E-16
41
1
10
-48
20
-16.4745711051771
30
6E-16
41
1
10
-48
20
-16.8122723965627
30
6E-16
41
1
10
-48
20
-17.0799573317746
30
6E-16
41
1
10
-48
20
-17.3449849938592
30
6E-16
41
1
10
-48
20
-17.6694739164695
30
6E-16
41
1
10
-48
20
-17.9872478593115
30
6E-16
41
1
10
-48
20
-18.2387699128343
30
6E-16
41
1
10
-48
20
-18.4875640333771
30
6E-16
41
1
10
-48
20
-18.7917723547731
30
6E-16
41
1
10
-48
20
-19.1494103733366
30
6E-16
41
1
10
-48
20
-19.4397871566123
30
6E-16
41
1
10
-48
20
-19.669100665748
30
6E-16
41
1
10
-48
20
-19.895582003726
30
6E-16
41
1
10
-48
20
-20.1718725940103
30
6E-16
41
1
10
-48
20
-20.4956027399135
30
6E-16
41
1
10
-48
20
-20.8106419777062
30
6E-16
41
1
10
-48
20
-21.1168973616587
30
6E-16
41
1
10
-48
20
-21.4142718340937
30
6E-16
41
1
10
-48
20
-21.6540306704864
30
6E-16
41
1
10
-48
20
-21.8423074648877
30
6E-16
41
1
10
-48
20
-22.027524843194
30
6E-16
41
1
10
-48
20
-22.2520666060929
30
6E-16
41
1
10
-48
20
-22.5128489142549
30
-3E-16
41
1
10
-48
20
-22.7217969951793
30
-3E-16
41
1
10
-48
20
-22.8850691676055
30
-3E-16
41
1
10
-48
20
-23.0451147420464
30
-3E-16
41
1
10
-48
20
-23.2380159650749
30
-3E-16
41
1
10
-48
20
-23.4227343577602
30
-3E-16
41
1
10
-48
20
-23.56631942935
30
-3E-16
41
1
10
-48
20
-23.7065276517659
30
-3E-16
41
1
10
-48
20
-23.8403627529258
30
-3E-16
41
1
10
-48
20
-23.9703009446161
30
2E-16
41
1
10
-48
20
-24.0648335402232
30
2E-16
41
1
10
-48
20
-24.1567363770153
30
2E-16
41
1
10
-48
20
-24.2459872479919
30
2E-16
41
1
10
-48
20
-24.332559240169
30
2E-16
41
1
10
-48
20
-24.4164275727652
30
2E-16
41
1
10
-48
20
-24.4975687788098
30
-1E-16
41
1
10
-48
20
-24.5759532931461
30
-1E-16
41
1
10
-48
20
-24.6515543847243
30
-1E-16
41
1
10
-48
20
-24.7489365992492
30
-1E-16
41
1
10
-48
20
-24.8396716901456
30
0
41
1
10
-48
20
-24.9255447336429
30
0
41
1
10
-48
20
-24.9867823634066
30
0
41
1
10
-48
20
-25.0450517307762
30
-1E-16
41
1
10
-48
20
-25.1003164440549
30
-1E-16
41
1
10
-48
20
-25.1525401455547
30
-1E-16
41
1
10
-48
20
-25.2016867590413
30
-1E-16
41
1
10
-48
20
-25.2477155324425
30
-1E-16
41
1
10
-48
20
-25.3050936187466
30
2E-16
41
1
10
-48
20
-25.3683434953549
30
2E-16
41
1
10
-48
20
-25.4206808727754
30
2E-16
41
1
10
-48
20
-25.4560606117695
30
2E-16
41
1
10
-48
20
-25.479047573671
30
-3E-16
41
1
10
-48
20
-25.4985460495789
30
-3E-16
41
1
10
-48
20
-25.5145008161446
30
-3E-16
41
1
10
-48
20
-25.5268535709615
30
-3E-16
41
1
10
-48
20
-25.5340458788454
30
-3E-16
41
1
10
-48
20
-25.5369762210346
30
-3E-16
41
1
10
-48
20
-25.5377843160575
30
-3E-16
0
SPLINE
5
C6
100
AcDbEntity
8
SK1
62
256
6
ByLayer
370
18
48
1
60
0
100
AcDbSpline
70
4
71
3
72
297
73
293
40
0
40
0
40
0
40
0
40
0.0034180910298051
40
0.0069399467168079
40
0.0104618024038107
40
0.0139836580908135
40
0.0175055137778162
40
0.021027369464819
40
0.0280710808388246
40
0.0351147922128301
40
0.0386366478998329
40
0.0421585035868356
40
0.0456803592738384
40
0.0492022149608412
40
0.052724070647844
40
0.0562459263348468
40
0.0597677820218495
40
0.0632896377088523
40
0.0703333490828579
40
0.0738552047698607
40
0.0773770604568634
40
0.0808989161438662
40
0.084420771830869
40
0.0879426275178718
40
0.0914644832048745
40
0.0949863388918773
40
0.0985081945788801
40
0.102030050265883
40
0.105551905952886
40
0.112595617326891
40
0.116117473013894
40
0.119639328700897
40
0.126683040074902
40
0.133726751448908
40
0.137248607135911
40
0.140770462822914
40
0.147814174196919
40
0.154857885570925
40
0.16190159694493
40
0.165423452631933
40
0.168945308318936
40
0.175989019692941
40
0.183032731066947
40
0.190076442440952
40
0.197120153814958
40
0.204163865188963
40
0.211207576562969
40
0.214729432249972
40
0.218251287936974
40
0.22529499931098
40
0.232338710684986
40
0.239382422058991
40
0.242904277745994
40
0.246426133432997
40
0.253469844807002
40
0.260513556181008
40
0.26403541186801
40
0.267557267555013
40
0.274600978929019
40
0.281644690303024
40
0.285166545990027
40
0.28868840167703
40
0.295732113051035
40
0.299253968738038
40
0.302775824425041
40
0.306297680112044
40
0.309819535799047
40
0.313341391486049
40
0.316863247173052
40
0.320385102860055
40
0.323906958547058
40
0.327428814234061
40
0.330950669921063
40
0.334472525608066
40
0.337994381295069
40
0.345038092669074
40
0.348559948356077
40
0.35208180404308
40
0.355603659730083
40
0.359125515417086
40
0.362647371104088
40
0.366169226791091
40
0.373212938165097
40
0.3767347938521
40
0.380256649539102
40
0.383778505226105
40
0.387300360913108
40
0.390822216600111
40
0.394344072287113
40
0.397865927974116
40
0.401387783661119
40
0.404909639348122
40
0.408431495035124
40
0.411953350722127
40
0.41547520640913
40
0.418997062096133
40
0.422518917783136
40
0.426040773470138
40
0.429562629157141
40
0.433084484844144
40
0.436606340531147
40
0.438367268374648
40
0.440128196218149
40
0.443650051905152
40
0.447171907592155
40
0.448932835435656
40
0.450693763279158
40
0.45421561896616
40
0.455976546809662
40
0.457737474653163
40
0.458617938574914
40
0.459498402496665
40
0.461259330340166
40
0.463020258183667
40
0.464781186027169
40
0.46654211387067
40
0.468303041714172
40
0.470063969557673
40
0.470944433479424
40
0.471824897401174
40
0.472705361322925
40
0.473585825244676
40
0.474466289166427
40
0.475346753088177
40
0.477107680931678
40
0.477988144853429
40
0.47886860877518
40
0.480629536618681
40
0.481510000540432
40
0.482390464462183
40
0.484151392305684
40
0.485031856227435
40
0.485912320149186
40
0.487673247992687
40
0.489434175836188
40
0.49119510367969
40
0.49207556760144
40
0.492956031523191
40
0.493836495444942
40
0.494716959366692
40
0.495597423288443
40
0.496477887210194
40
0.497358351131945
40
0.498238815053695
40
0.499119278975446
40
0.499999742897197
40
0.500880206818947
40
0.501760670740698
40
0.502641134662449
40
0.503521598584199
40
0.50440206250595
40
0.505282526427701
40
0.506162990349452
40
0.507043454271202
40
0.507923918192953
40
0.508804382114704
40
0.510565309958205
40
0.512326237801706
40
0.514087165645208
40
0.514967629566959
40
0.515848093488709
40
0.517609021332211
40
0.518489485253961
40
0.519369949175712
40
0.521130877019213
40
0.522011340940964
40
0.522891804862715
40
0.524652732706216
40
0.525533196627967
40
0.526413660549717
40
0.527294124471468
40
0.528174588393219
40
0.52905505231497
40
0.52993551623672
40
0.531696444080222
40
0.533457371923723
40
0.535218299767224
40
0.536979227610726
40
0.538740155454227
40
0.540501083297729
40
0.541381547219479
40
0.54226201114123
40
0.544022938984731
40
0.545783866828233
40
0.549305722515236
40
0.551066650358737
40
0.552827578202238
40
0.556349433889241
40
0.559871289576244
40
0.561632217419745
40
0.563393145263247
40
0.566915000950249
40
0.570436856637252
40
0.573958712324255
40
0.577480568011258
40
0.581002423698261
40
0.584524279385263
40
0.588046135072266
40
0.591567990759269
40
0.595089846446272
40
0.598611702133274
40
0.602133557820277
40
0.60565541350728
40
0.609177269194283
40
0.612699124881286
40
0.616220980568288
40
0.619742836255291
40
0.626786547629297
40
0.633830259003302
40
0.637352114690305
40
0.640873970377308
40
0.64439582606431
40
0.647917681751313
40
0.651439537438316
40
0.654961393125319
40
0.662005104499324
40
0.665526960186327
40
0.66904881587333
40
0.672570671560333
40
0.676092527247335
40
0.679614382934338
40
0.683136238621341
40
0.686658094308344
40
0.690179949995347
40
0.693701805682349
40
0.695462733525851
40
0.697223661369352
40
0.700745517056355
40
0.704267372743358
40
0.711311084117363
40
0.714832939804366
40
0.718354795491369
40
0.725398506865374
40
0.73244221823938
40
0.735964073926383
40
0.739485929613385
40
0.746529640987391
40
0.753573352361397
40
0.757095208048399
40
0.760617063735402
40
0.767660775109408
40
0.774704486483413
40
0.781748197857419
40
0.785270053544421
40
0.788791909231424
40
0.79583562060543
40
0.802879331979435
40
0.809923043353441
40
0.816966754727447
40
0.824010466101452
40
0.831054177475458
40
0.83457603316246
40
0.838097888849463
40
0.845141600223469
40
0.852185311597474
40
0.85922902297148
40
0.862750878658483
40
0.866272734345486
40
0.873316445719491
40
0.880360157093497
40
0.883882012780499
40
0.887403868467502
40
0.889164796311003
40
0.890925724154505
40
0.894447579841508
40
0.89796943552851
40
0.901491291215513
40
0.905013146902516
40
0.908535002589519
40
0.912056858276522
40
0.915578713963524
40
0.919100569650527
40
0.92262242533753
40
0.926144281024533
40
0.929666136711536
40
0.936709848085541
40
0.940231703772544
40
0.943753559459546
40
0.947275415146549
40
0.950797270833552
40
0.954319126520555
40
0.957840982207558
40
0.96136283789456
40
0.964884693581563
40
0.971928404955569
40
0.978972116329574
40
0.982493972016577
40
0.98601582770358
40
0.989537683390583
40
0.993059539077585
40
0.996581394764588
40
1
40
1
40
1
40
1
41
1
10
-46.5
20
-26.4005309822375
30
-2E-16
41
1
10
-46.5
20
-26.398213592245
30
-2E-16
41
1
10
-46.5
20
-26.3922844714122
30
-2E-16
41
1
10
-46.5
20
-26.3796666797908
30
-2E-16
41
1
10
-46.5
20
-26.3632177086405
30
-2E-16
41
1
10
-46.5
20
-26.3431264926158
30
-2E-16
41
1
10
-46.5
20
-26.3194531526336
30
-2E-16
41
1
10
-46.5
20
-26.2831057174253
30
-2E-16
41
1
10
-46.5
20
-26.2291930886236
30
-2E-16
41
1
10
-46.5
20
-26.1640888761727
30
-2E-16
41
1
10
-46.5
20
-26.1052520927383
30
0
41
1
10
-46.5
20
-26.0579887211792
30
0
41
1
10
-46.5
20
-26.0075410833254
30
0
41
1
10
-46.5
20
-25.9539520563292
30
0
41
1
10
-46.5
20
-25.8972596671494
30
0
41
1
10
-46.5
20
-25.8375026350058
30
0
41
1
10
-46.5
20
-25.7747185038326
30
0
41
1
10
-46.5
20
-25.6868434692657
30
0
41
1
10
-46.5
20
-25.5935790625544
30
0
41
1
10
-46.5
20
-25.4939882216236
30
0
41
1
10
-46.5
20
-25.4165702112604
30
0
41
1
10
-46.5
20
-25.3363180229216
30
-2E-16
41
1
10
-46.5
20
-25.253260222017
30
-2E-16
41
1
10
-46.5
20
-25.1674263269857
30
-2E-16
41
1
10
-46.5
20
-25.0788408868142
30
-2E-16
41
1
10
-46.5
20
-24.9875302738737
30
-2E-16
41
1
10
-46.5
20
-24.8935210874343
30
-2E-16
41
1
10
-46.5
20
-24.7968362527739
30
-2E-16
41
1
10
-46.5
20
-24.6641535645997
30
-2E-16
41
1
10
-46.5
20
-24.5269227085665
30
-2E-16
41
1
10
-46.5
20
-24.3838015939208
30
-2E-16
41
1
10
-46.5
20
-24.2372525971634
30
-2E-16
41
1
10
-46.5
20
-24.0482725228686
30
-2E-16
41
1
10
-46.5
20
-23.850955898421
30
-2E-16
41
1
10
-46.5
20
-23.6876786019557
30
-2E-16
41
1
10
-46.5
20
-23.5211247254417
30
-2E-16
41
1
10
-46.5
20
-23.3074726991927
30
-2E-16
41
1
10
-46.5
20
-23.0411451576491
30
7E-16
41
1
10
-46.5
20
-22.811603290218
30
7E-16
41
1
10
-46.5
20
-22.6227365313406
30
7E-16
41
1
10
-46.5
20
-22.430759131675
30
7E-16
41
1
10
-46.5
20
-22.1857080938538
30
7E-16
41
1
10
-46.5
20
-21.8821131574231
30
7E-16
41
1
10
-46.5
20
-21.5694639882747
30
7E-16
41
1
10
-46.5
20
-21.2478549114363
30
7E-16
41
1
10
-46.5
20
-20.9173756153364
30
7E-16
41
1
10
-46.5
20
-20.6350195698474
30
7E-16
41
1
10
-46.5
20
-20.4041184359554
30
7E-16
41
1
10
-46.5
20
-20.1703249928589
30
7E-16
41
1
10
-46.5
20
-19.8735485854937
30
7E-16
41
1
10
-46.5
20
-19.5084001148029
30
7E-16
41
1
10
-46.5
20
-19.197443340025
30
7E-16
41
1
10
-46.5
20
-18.9437303760813
30
7E-16
41
1
10
-46.5
20
-18.6872198879946
30
7E-16
41
1
10
-46.5
20
-18.3623163297431
30
7E-16
41
1
10
-46.5
20
-18.030505573842
30
7E-16
41
1
10
-46.5
20
-17.7601375367851
30
7E-16
41
1
10
-46.5
20
-17.4870326238008
30
7E-16
41
1
10
-46.5
20
-17.1415784199831
30
7E-16
41
1
10
-46.5
20
-16.7893526613563
30
7E-16
41
1
10
-46.5
20
-16.5026611888573
30
7E-16
41
1
10
-46.5
20
-16.2132867359671
30
7E-16
41
1
10
-46.5
20
-15.9214104773833
30
7E-16
41
1
10
-46.5
20
-15.6239999053159
30
7E-16
41
1
10
-46.5
20
-15.3993479391742
30
7E-16
41
1
10
-46.5
20
-15.1727131739385
30
7E-16
41
1
10
-46.5
20
-14.9440989510648
30
7E-16
41
1
10
-46.5
20
-14.7135145143937
30
7E-16
41
1
10
-46.5
20
-14.4809638211463
30
7E-16
41
1
10
-46.5
20
-14.246450720846
30
7E-16
41
1
10
-46.5
20
-14.0099844817144
30
7E-16
41
1
10
-46.5
20
-13.7715679573404
30
7E-16
41
1
10
-46.5
20
-13.5312065194643
30
7E-16
41
1
10
-46.5
20
-13.2889085465965
30
7E-16
41
1
10
-46.5
20
-12.9626507598827
30
7E-16
41
1
10
-46.5
20
-12.6344409449825
30
7E-16
41
1
10
-46.5
20
-12.3004440311799
30
7E-16
41
1
10
-46.5
20
-12.0485415833541
30
7E-16
41
1
10
-46.5
20
-11.7947361066789
30
7E-16
41
1
10
-46.5
20
-11.5390343183575
30
7E-16
41
1
10
-46.5
20
-11.2814444878531
30
7E-16
41
1
10
-46.5
20
-10.9347667406994
30
7E-16
41
1
10
-46.5
20
-10.586566157494
30
7E-16
41
1
10
-46.5
20
-10.232343426472
30
7E-16
41
1
10
-46.5
20
-9.96542491303109
30
7E-16
41
1
10
-46.5
20
-9.69666702608521
30
7E-16
41
1
10
-46.5
20
-9.42608142898106
30
7E-16
41
1
10
-46.5
20
-9.15367874030954
30
7E-16
41
1
10
-46.5
20
-8.87947149804478
30
7E-16
41
1
10
-46.5
20
-8.60347117534141
30
7E-16
41
1
10
-46.5
20
-8.32569604592521
30
7E-16
41
1
10
-46.5
20
-8.0461621387675
30
7E-16
41
1
10
-46.5
20
-7.7648841800679
30
7E-16
41
1
10
-46.5
20
-7.48188354614015
30
7E-16
41
1
10
-46.5
20
-7.19718401656115
30
7E-16
41
1
10
-46.5
20
-6.91080958282794
30
7E-16
41
1
10
-46.5
20
-6.62278719976101
30
7E-16
41
1
10
-46.5
20
-6.33314802823858
30
7E-16
41
1
10
-46.5
20
-6.04192849679629
30
7E-16
41
1
10
-46.5
20
-5.74916632270845
30
7E-16
41
1
10
-46.5
20
-5.50455825405032
30
7E-16
41
1
10
-46.5
20
-5.30698791061079
30
7E-16
41
1
10
-46.5
20
-5.10896440271245
30
7E-16
41
1
10
-46.5
20
-4.86210999380617
30
7E-16
41
1
10
-46.5
20
-4.61410932418949
30
7E-16
41
1
10
-46.5
20
-4.41377359776476
30
7E-16
41
1
10
-46.5
20
-4.21306090369293
30
7E-16
41
1
10
-46.5
20
-4.01407322556273
30
7E-16
41
1
10
-46.5
20
-3.81214209897183
30
7E-16
41
1
10
-46.5
20
-3.68664870804329
30
7E-16
41
1
10
-46.5
20
-3.58538042142962
30
7E-16
41
1
10
-46.5
20
-3.48404272537243
30
7E-16
41
1
10
-46.5
20
-3.35820741865729
30
7E-16
41
1
10
-46.5
20
-3.20645087454699
30
7E-16
41
1
10
-46.5
20
-3.05450118032692
30
7E-16
41
1
10
-46.5
20
-2.90237254212099
30
7E-16
41
1
10
-46.5
20
-2.75008154091458
30
7E-16
41
1
10
-46.5
20
-2.62353075560304
30
7E-16
41
1
10
-46.5
20
-2.52133341402544
30
7E-16
41
1
10
-46.5
20
-2.44503916247595
30
7E-16
41
1
10
-46.5
20
-2.36872116745508
30
7E-16
41
1
10
-46.5
20
-2.29238035464519
30
7E-16
41
1
10
-46.5
20
-2.21601232318562
30
7E-16
41
1
10
-46.5
20
-2.11363864625324
30
7E-16
41
1
10
-46.5
20
-2.01284840665636
30
7E-16
41
1
10
-46.5
20
-1.91037868910027
30
7E-16
41
1
10
-46.5
20
-1.80790519746154
30
7E-16
41
1
10
-46.5
20
-1.70711241828641
30
7E-16
41
1
10
-46.5
20
-1.60457738401559
30
7E-16
41
1
10
-46.5
20
-1.50205137220064
30
7E-16
41
1
10
-46.5
20
-1.40129786220385
30
7E-16
41
1
10
-46.5
20
-1.29873778818728
30
7E-16
41
1
10
-46.5
20
-1.19620002438899
30
7E-16
41
1
10
-46.5
20
-1.06942535695816
30
7E-16
41
1
10
-46.5
20
-0.916562784856836
30
7E-16
41
1
10
-46.5
20
-0.789831419581247
30
7E-16
41
1
10
-46.5
20
-0.68730636387329
30
7E-16
41
1
10
-46.5
20
-0.610920589347273
30
7E-16
41
1
10
-46.5
20
-0.534534693051597
30
7E-16
41
1
10
-46.5
20
-0.458151977723844
30
7E-16
41
1
10
-46.5
20
-0.38178586307771
30
7E-16
41
1
10
-46.5
20
-0.305424686924255
30
7E-16
41
1
10
-46.5
20
-0.229059030613598
30
7E-16
41
1
10
-46.5
20
-0.152702843052964
30
7E-16
41
1
10
-46.5
20
-0.0763563105774381
30
7E-16
41
1
10
-46.5
20
2.8073174E-08
30
7E-16
41
1
10
-46.5
20
0.076356355661062
30
7E-16
41
1
10
-46.5
20
0.152702860966684
30
7E-16
41
1
10
-46.5
20
0.229059014473165
30
7E-16
41
1
10
-46.5
20
0.305424650134711
30
7E-16
41
1
10
-46.5
20
0.381785837912474
30
7E-16
41
1
10
-46.5
20
0.458151993845604
30
7E-16
41
1
10
-46.5
20
0.534534760307764
30
7E-16
41
1
10
-46.5
20
0.610920675348439
30
7E-16
41
1
10
-46.5
20
0.687306419565971
30
7E-16
41
1
10
-46.5
20
0.789831382942964
30
7E-16
41
1
10
-46.5
20
0.916562722132852
30
7E-16
41
1
10
-46.5
20
1.06942542909599
30
7E-16
41
1
10
-46.5
20
1.19620014128841
30
7E-16
41
1
10
-46.5
20
1.29873779453155
30
7E-16
41
1
10
-46.5
20
1.40129776039692
30
7E-16
41
1
10
-46.5
20
1.50205128730931
30
7E-16
41
1
10
-46.5
20
1.6045774318271
30
7E-16
41
1
10
-46.5
20
1.70711256984478
30
7E-16
41
1
10
-46.5
20
1.80790531000531
30
7E-16
41
1
10
-46.5
20
1.91037865662702
30
7E-16
41
1
10
-46.5
20
2.01284827062042
30
7E-16
41
1
10
-46.5
20
2.11363855078116
30
7E-16
41
1
10
-46.5
20
2.21601237541182
30
7E-16
41
1
10
-46.5
20
2.29238050761498
30
7E-16
41
1
10
-46.5
20
2.3687213422848
30
7E-16
41
1
10
-46.5
20
2.44503927940085
30
7E-16
41
1
10
-46.5
20
2.52133342108166
30
7E-16
41
1
10
-46.5
20
2.62353063115774
30
7E-16
41
1
10
-46.5
20
2.75008141374229
30
7E-16
41
1
10
-46.5
20
2.90237261804765
30
7E-16
41
1
10
-46.5
20
3.05450136741507
30
7E-16
41
1
10
-46.5
20
3.20645090100774
30
7E-16
41
1
10
-46.5
20
3.35820726744203
30
7E-16
41
1
10
-46.5
20
3.48404260664444
30
7E-16
41
1
10
-46.5
20
3.58538042770658
30
7E-16
41
1
10
-46.5
20
3.6866488419891
30
7E-16
41
1
10
-46.5
20
3.81214228534716
30
7E-16
41
1
10
-46.5
20
4.01407320205544
30
7E-16
41
1
10
-46.5
20
4.21306074878717
30
7E-16
41
1
10
-46.5
20
4.41377363153026
30
7E-16
41
1
10
-46.5
20
4.6141095005429
30
7E-16
41
1
10
-46.5
20
4.86210998685607
30
7E-16
41
1
10
-46.5
20
5.10896425509631
30
7E-16
41
1
10
-46.5
20
5.30698795114367
30
7E-16
41
1
10
-46.5
20
5.50455842781798
30
7E-16
41
1
10
-46.5
20
5.74916634577852
30
7E-16
41
1
10
-46.5
20
6.04192837587701
30
7E-16
41
1
10
-46.5
20
6.33314809321138
30
7E-16
41
1
10
-46.5
20
6.622787153037
30
7E-16
41
1
10
-46.5
20
6.91080932637593
30
7E-16
41
1
10
-46.5
20
7.19718434586193
30
7E-16
41
1
10
-46.5
20
7.48188420282091
30
7E-16
41
1
10
-46.5
20
7.76488385459561
30
7E-16
41
1
10
-46.5
20
8.04616134412484
30
7E-16
41
1
10
-46.5
20
8.3256967195303
30
7E-16
41
1
10
-46.5
20
8.60347202441497
30
7E-16
41
1
10
-46.5
20
8.87947089935204
30
7E-16
41
1
10
-46.5
20
9.1536783112208
30
7E-16
41
1
10
-46.5
20
9.42608146076122
30
7E-16
41
1
10
-46.5
20
9.69666715624226
30
7E-16
41
1
10
-46.5
20
10.0558459740262
30
7E-16
41
1
10
-46.5
20
10.4984187798349
30
7E-16
41
1
10
-46.5
20
10.934766834136
30
7E-16
41
1
10
-46.5
20
11.2814445510786
30
7E-16
41
1
10
-46.5
20
11.5390341996307
30
7E-16
41
1
10
-46.5
20
11.7947359709946
30
7E-16
41
1
10
-46.5
20
12.0485415470732
30
7E-16
41
1
10
-46.5
20
12.3004440719815
30
7E-16
41
1
10
-46.5
20
12.6344409590497
30
7E-16
41
1
10
-46.5
20
12.9626507143561
30
7E-16
41
1
10
-46.5
20
13.288908575541
30
7E-16
41
1
10
-46.5
20
13.5312064646771
30
7E-16
41
1
10
-46.5
20
13.7715679648216
30
7E-16
41
1
10
-46.5
20
14.0099844885449
30
7E-16
41
1
10
-46.5
20
14.2464507858614
30
7E-16
41
1
10
-46.5
20
14.4809640927087
30
7E-16
41
1
10
-46.5
20
14.7135143004554
30
7E-16
41
1
10
-46.5
20
14.9440981523704
30
7E-16
41
1
10
-46.5
20
15.1343352185844
30
7E-16
41
1
10
-46.5
20
15.28602382984
30
7E-16
41
1
10
-46.5
20
15.4370522522143
30
7E-16
41
1
10
-46.5
20
15.6240006368157
30
7E-16
41
1
10
-46.5
20
15.9214100558917
30
7E-16
41
1
10
-46.5
20
16.2132866640401
30
7E-16
41
1
10
-46.5
20
16.5026612295204
30
7E-16
41
1
10
-46.5
20
16.7893526547043
30
7E-16
41
1
10
-46.5
20
17.1415784247604
30
7E-16
41
1
10
-46.5
20
17.4870326281006
30
7E-16
41
1
10
-46.5
20
17.7601375272069
30
7E-16
41
1
10
-46.5
20
18.0305055709471
30
7E-16
41
1
10
-46.5
20
18.362316331505
30
7E-16
41
1
10
-46.5
20
18.687219888641
30
7E-16
41
1
10
-46.5
20
18.9437303704574
30
7E-16
41
1
10
-46.5
20
19.1974433350662
30
7E-16
41
1
10
-46.5
20
19.5084001184169
30
7E-16
41
1
10
-46.5
20
19.8735485821408
30
7E-16
41
1
10
-46.5
20
20.1703249889741
30
7E-16
41
1
10
-46.5
20
20.4041184350775
30
7E-16
41
1
10
-46.5
20
20.6350195683323
30
7E-16
41
1
10
-46.5
20
20.9173756105157
30
7E-16
41
1
10
-46.5
20
21.2478549102086
30
7E-16
41
1
10
-46.5
20
21.5694639835235
30
7E-16
41
1
10
-46.5
20
21.8821131555324
30
7E-16
41
1
10
-46.5
20
22.1857080904646
30
7E-16
41
1
10
-46.5
20
22.430759124426
30
7E-16
41
1
10
-46.5
20
22.6227365307309
30
7E-16
41
1
10
-46.5
20
22.8116032876094
30
7E-16
41
1
10
-46.5
20
23.0411451496901
30
7E-16
41
1
10
-46.5
20
23.3074726934439
30
-2E-16
41
1
10
-46.5
20
23.5211247275232
30
-2E-16
41
1
10
-46.5
20
23.6876785906568
30
-2E-16
41
1
10
-46.5
20
23.8509558936155
30
-2E-16
41
1
10
-46.5
20
24.0482725027174
30
-2E-16
41
1
10
-46.5
20
24.2372526165608
30
-2E-16
41
1
10
-46.5
20
24.3838015951593
30
-2E-16
41
1
10
-46.5
20
24.4729784939732
30
-2E-16
41
1
10
-46.5
20
24.5432464906717
30
-2E-16
41
1
10
-46.5
20
24.6126465048792
30
-2E-16
41
1
10
-46.5
20
24.6974986639861
30
-2E-16
41
1
10
-46.5
20
24.7968359305099
30
-2E-16
41
1
10
-46.5
20
24.8935214266578
30
-2E-16
41
1
10
-46.5
20
24.9875303375032
30
-2E-16
41
1
10
-46.5
20
25.078840846753
30
-2E-16
41
1
10
-46.5
20
25.1674263270685
30
-2E-16
41
1
10
-46.5
20
25.2532602572421
30
-2E-16
41
1
10
-46.5
20
25.3363180183904
30
-2E-16
41
1
10
-46.5
20
25.4165702144948
30
0
41
1
10
-46.5
20
25.4939882551942
30
0
41
1
10
-46.5
20
25.5935790481261
30
0
41
1
10
-46.5
20
25.6868435181955
30
0
41
1
10
-46.5
20
25.7747184891248
30
0
41
1
10
-46.5
20
25.8375026707194
30
0
41
1
10
-46.5
20
25.8972596743867
30
0
41
1
10
-46.5
20
25.9539520524798
30
0
41
1
10
-46.5
20
26.0075411501124
30
0
41
1
10
-46.5
20
26.0579887905965
30
0
41
1
10
-46.5
20
26.1052521520729
30
0
41
1
10
-46.5
20
26.1640888628635
30
-2E-16
41
1
10
-46.5
20
26.2291931100504
30
-2E-16
41
1
10
-46.5
20
26.2831057898448
30
-2E-16
41
1
10
-46.5
20
26.3194531047684
30
-2E-16
41
1
10
-46.5
20
26.3431264444613
30
-2E-16
41
1
10
-46.5
20
26.3632177076783
30
-2E-16
41
1
10
-46.5
20
26.3796666810734
30
-2E-16
41
1
10
-46.5
20
26.3922850491617
30
-2E-16
41
1
10
-46.5
20
26.3982144426891
30
-2E-16
41
1
10
-46.5
20
26.4005320157555
30
-2E-16
0
SPLINE
5
C7
100
AcDbEntity
8
SK1
62
256
6
ByLayer
370
18
48
1
60
0
100
AcDbSpline
70
4
71
3
72
297
73
293
40
0
40
0
40
0
40
0
40
0.0006515279527692
40
0.0041931065632617
40
0.0077346851737542
40
0.0112762637842467
40
0.0148178423947392
40
0.0183594210052317
40
0.0254425782262167
40
0.0325257354472017
40
0.0360673140576942
40
0.0396088926681867
40
0.0431504712786792
40
0.0466920498891717
40
0.0502336284996643
40
0.0537752071101568
40
0.0573167857206493
40
0.0608583643311418
40
0.0679415215521268
40
0.0714831001626193
40
0.0750246787731118
40
0.0785662573836043
40
0.0821078359940968
40
0.0856494146045893
40
0.0891909932150818
40
0.0927325718255743
40
0.0962741504360668
40
0.0998157290465593
40
0.103357307657052
40
0.110440464878037
40
0.113982043488529
40
0.117523622099022
40
0.124606779320007
40
0.131689936540992
40
0.135231515151484
40
0.138773093761977
40
0.145856250982962
40
0.152939408203947
40
0.160022565424932
40
0.163564144035424
40
0.167105722645917
40
0.174188879866902
40
0.181272037087887
40
0.188355194308872
40
0.195438351529857
40
0.202521508750842
40
0.209604665971827
40
0.213146244582319
40
0.216687823192812
40
0.223770980413797
40
0.230854137634782
40
0.237937294855767
40
0.241478873466259
40
0.245020452076752
40
0.252103609297737
40
0.259186766518722
40
0.262728345129214
40
0.266269923739707
40
0.273353080960692
40
0.280436238181677
40
0.283977816792169
40
0.287519395402662
40
0.294602552623647
40
0.298144131234139
40
0.301685709844632
40
0.305227288455124
40
0.308768867065617
40
0.312310445676109
40
0.315852024286602
40
0.319393602897094
40
0.322935181507587
40
0.32647676011808
40
0.330018338728572
40
0.333559917339064
40
0.337101495949557
40
0.344184653170542
40
0.347726231781035
40
0.351267810391527
40
0.354809389002019
40
0.358350967612512
40
0.361892546223004
40
0.365434124833497
40
0.372517282054482
40
0.376058860664975
40
0.379600439275467
40
0.383142017885959
40
0.386683596496452
40
0.390225175106944
40
0.393766753717437
40
0.397308332327929
40
0.400849910938422
40
0.404391489548915
40
0.407933068159407
40
0.411474646769899
40
0.415016225380392
40
0.418557803990884
40
0.422099382601377
40
0.42564096121187
40
0.429182539822362
40
0.432724118432855
40
0.436265697043347
40
0.438036486348593
40
0.439807275653839
40
0.443348854264332
40
0.446890432874825
40
0.448661222180071
40
0.450432011485317
40
0.45397359009581
40
0.455744379401056
40
0.457515168706302
40
0.458400563358925
40
0.459285958011548
40
0.461056747316795
40
0.462827536622041
40
0.464598325927287
40
0.466369115232533
40
0.468139904537779
40
0.469910693843026
40
0.470796088495649
40
0.471681483148272
40
0.472566877800895
40
0.473452272453518
40
0.474337667106141
40
0.475223061758765
40
0.476993851064011
40
0.477879245716634
40
0.478764640369257
40
0.480535429674503
40
0.481420824327126
40
0.48230621897975
40
0.484077008284996
40
0.484962402937619
40
0.485847797590242
40
0.487618586895488
40
0.489389376200735
40
0.491160165505981
40
0.492045560158604
40
0.492930954811227
40
0.49381634946385
40
0.494701744116473
40
0.495587138769096
40
0.49647253342172
40
0.497357928074343
40
0.498243322726966
40
0.499128717379589
40
0.500014112032212
40
0.500899506684835
40
0.501784901337458
40
0.502670295990081
40
0.503555690642705
40
0.504441085295328
40
0.505326479947951
40
0.506211874600574
40
0.507097269253197
40
0.50798266390582
40
0.508868058558443
40
0.51063884786369
40
0.512409637168936
40
0.514180426474182
40
0.515065821126805
40
0.515951215779428
40
0.517722005084675
40
0.518607399737298
40
0.519492794389921
40
0.521263583695167
40
0.52214897834779
40
0.523034373000413
40
0.52480516230566
40
0.525690556958283
40
0.526575951610906
40
0.527461346263529
40
0.528346740916152
40
0.529232135568775
40
0.530117530221398
40
0.531888319526645
40
0.533659108831891
40
0.535429898137137
40
0.537200687442383
40
0.53897147674763
40
0.540742266052876
40
0.541627660705499
40
0.542513055358122
40
0.544283844663368
40
0.546054633968615
40
0.549596212579107
40
0.551367001884353
40
0.5531377911896
40
0.556679369800092
40
0.560220948410585
40
0.561991737715831
40
0.563762527021077
40
0.56730410563157
40
0.570845684242062
40
0.574387262852555
40
0.577928841463047
40
0.58147042007354
40
0.585011998684032
40
0.588553577294525
40
0.592095155905017
40
0.59563673451551
40
0.599178313126002
40
0.602719891736495
40
0.606261470346987
40
0.60980304895748
40
0.613344627567972
40
0.616886206178465
40
0.620427784788957
40
0.627510942009942
40
0.634594099230927
40
0.63813567784142
40
0.641677256451912
40
0.645218835062405
40
0.648760413672897
40
0.65230199228339
40
0.655843570893882
40
0.662926728114867
40
0.66646830672536
40
0.670009885335852
40
0.673551463946345
40
0.677093042556837
40
0.68063462116733
40
0.684176199777822
40
0.687717778388315
40
0.691259356998807
40
0.6948009356093
40
0.696571724914546
40
0.698342514219792
40
0.701884092830285
40
0.705425671440777
40
0.712508828661762
40
0.716050407272255
40
0.719591985882747
40
0.726675143103732
40
0.733758300324717
40
0.73729987893521
40
0.740841457545702
40
0.747924614766687
40
0.755007771987672
40
0.758549350598165
40
0.762090929208657
40
0.769174086429642
40
0.776257243650627
40
0.783340400871612
40
0.786881979482105
40
0.790423558092597
40
0.797506715313582
40
0.804589872534567
40
0.811673029755552
40
0.818756186976537
40
0.825839344197522
40
0.832922501418507
40
0.836464080029
40
0.840005658639492
40
0.847088815860477
40
0.854171973081462
40
0.861255130302447
40
0.86479670891294
40
0.868338287523432
40
0.875421444744417
40
0.882504601965402
40
0.886046180575895
40
0.889587759186387
40
0.891358548491634
40
0.89312933779688
40
0.896670916407372
40
0.900212495017865
40
0.903754073628357
40
0.90729565223885
40
0.910837230849342
40
0.914378809459835
40
0.917920388070327
40
0.92146196668082
40
0.925003545291312
40
0.928545123901805
40
0.932086702512297
40
0.939169859733282
40
0.942711438343775
40
0.946253016954267
40
0.94979459556476
40
0.953336174175252
40
0.956877752785745
40
0.960419331396237
40
0.96396091000673
40
0.967502488617222
40
0.974585645838207
40
0.981668803059192
40
0.985210381669685
40
0.988751960280177
40
0.99229353889067
40
0.995835117501162
40
0.999376696111655
40
1
40
1
40
1
40
1
41
1
10
-2.20000000000002
20
-27.5061346829079
30
-1E-16
41
1
10
-2.20000000000002
20
-27.5054867232489
30
-1E-16
41
1
10
-2.20000000000002
20
-27.501173999863
30
-1E-16
41
1
10
-2.19999999999999
20
-27.4915322394785
30
-1E-16
41
1
10
-2.19999999999999
20
-27.4744481426486
30
-1E-16
41
1
10
-2.19999999999999
20
-27.4535951682728
30
-1E-16
41
1
10
-2.19999999999999
20
-27.4290397313646
30
-1E-16
41
1
10
-2.19999999999999
20
-27.391448663995
30
-1E-16
41
1
10
-2.19999999999999
20
-27.3355116051596
30
-1E-16
41
1
10
-2.19999999999999
20
-27.2680242980374
30
-1E-16
41
1
10
-2.19999999999999
20
-27.2073128739481
30
1E-16
41
1
10
-2.19999999999999
20
-27.1584628619196
30
1E-16
41
1
10
-2.19999999999999
20
-27.1063432161342
30
1E-16
41
1
10
-2.19999999999999
20
-27.0509995447849
30
0
41
1
10
-2.19999999999999
20
-26.9924723817988
30
0
41
1
10
-2.19999999999999
20
-26.9308034813114
30
0
41
1
10
-2.19999999999999
20
-26.8660318680525
30
0
41
1
10
-2.19999999999999
20
-26.7755839801004
30
0
41
1
10
-2.19999999999999
20
-26.6790690300398
30
1E-16
41
1
10
-2.19999999999999
20
-26.5766397788825
30
1E-16
41
1
10
-2.19999999999999
20
-26.496886760278
30
1E-16
41
1
10
-2.19999999999999
20
-26.4142343357678
30
-1E-16
41
1
10
-2.19999999999999
20
-26.3287134281848
30
-1E-16
41
1
10
-2.19999999999999
20
-26.2403534959289
30
-1E-16
41
1
10
-2.19999999999999
20
-26.1491804785364
30
-1E-16
41
1
10
-2.19999999999999
20
-26.0552227938057
30
-1E-16
41
1
10
-2.19999999999999
20
-25.9585066378384
30
-1E-16
41
1
10
-2.19999999999999
20
-25.8590558590047
30
-1E-16
41
1
10
-2.19999999999999
20
-25.7228460886287
30
-1E-16
41
1
10
-2.19999999999999
20
-25.5812511874436
30
-1E-16
41
1
10
-2.19999999999999
20
-25.4343865772609
30
-1E-16
41
1
10
-2.19999999999999
20
-25.2840285001251
30
-1E-16
41
1
10
-2.19999999999999
20
-25.0895715372854
30
-1E-16
41
1
10
-2.19999999999999
20
-24.8865804716972
30
-1E-16
41
1
10
-2.19999999999999
20
-24.7191499364504
30
-1E-16
41
1
10
-2.19999999999999
20
-24.5483785868417
30
-1E-16
41
1
10
-2.19999999999999
20
-24.3286812980358
30
-1E-16
41
1
10
-2.19999999999999
20
-24.055227314874
30
-1E-16
41
1
10
-2.19999999999999
20
-23.8192595766845
30
-1E-16
41
1
10
-2.19999999999999
20
-23.6257028262786
30
-1E-16
41
1
10
-2.19999999999999
20
-23.4289696038095
30
-1E-16
41
1
10
-2.19999999999999
20
-23.1771173076971
30
-1E-16
41
1
10
-2.19999999999999
20
-22.8655281588585
30
-1E-16
41
1
10
-2.19999999999999
20
-22.5446620340323
30
-1E-16
41
1
10
-2.19999999999999
20
-22.2146097463897
30
-1E-16
41
1
10
-2.19999999999999
20
-21.8754567982465
30
-1E-16
41
1
10
-2.19999999999999
20
-21.5853057494763
30
-1E-16
41
1
10
-2.19999999999999
20
-21.3487245268705
30
-1E-16
41
1
10
-2.19999999999999
20
-21.1091737088127
30
-1E-16
41
1
10
-2.19999999999999
20
-20.8041728419317
30
-1E-16
41
1
10
-2.19999999999999
20
-20.4293723340896
30
-1E-16
41
1
10
-2.19999999999999
20
-20.1097428027781
30
-1E-16
41
1
10
-2.19999999999999
20
-19.8497084005983
30
-1E-16
41
1
10
-2.19999999999999
20
-19.5867870393815
30
-1E-16
41
1
10
-2.19999999999999
20
-19.2527208752522
30
-1E-16
41
1
10
-2.19999999999999
20
-18.9115004851851
30
-1E-16
41
1
10
-2.19999999999999
20
-18.634269279738
30
-1E-16
41
1
10
-2.19999999999999
20
-18.3541988970414
30
-1E-16
41
1
10
-2.19999999999999
20
-17.9987810588702
30
-1E-16
41
1
10
-2.19999999999999
20
-17.636314655197
30
-1E-16
41
1
10
-2.19999999999999
20
-17.342145790903
30
-1E-16
41
1
10
-2.19999999999999
20
-17.0451745383014
30
-1E-16
41
1
10
-2.19999999999999
20
-16.7439792746615
30
-1E-16
41
1
10
-2.19999999999999
20
-16.4386302461311
30
-1E-16
41
1
10
-2.19999999999999
20
-16.2075239950657
30
-1E-16
41
1
10
-2.19999999999999
20
-15.9743322626435
30
-1E-16
41
1
10
-2.19999999999999
20
-15.73905841291
30
-1E-16
41
1
10
-2.19999999999999
20
-15.501705604915
30
-1E-16
41
1
10
-2.19999999999999
20
-15.2622748554345
30
-1E-16
41
1
10
-2.19999999999999
20
-15.0207692449601
30
-1E-16
41
1
10
-2.19999999999999
20
-14.7771908994275
30
-1E-16
41
1
10
-2.19999999999999
20
-14.5315403886931
30
-1E-16
41
1
10
-2.19999999999999
20
-14.2838204606995
30
-1E-16
41
1
10
-2.19999999999999
20
-14.034031998634
30
-1E-16
41
1
10
-2.19999999999999
20
-13.6982347944475
30
-1E-16
41
1
10
-2.19999999999999
20
-13.3582704046987
30
-1E-16
41
1
10
-2.19999999999999
20
-13.0142109860464
30
-1E-16
41
1
10
-2.19999999999999
20
-12.7540927464655
30
-1E-16
41
1
10
-2.19999999999999
20
-12.4919091491304
30
-1E-16
41
1
10
-2.19999999999999
20
-12.2276612856809
30
-1E-16
41
1
10
-2.19999999999999
20
-11.9613483258762
30
-1E-16
41
1
10
-2.19999999999999
20
-11.6035238164173
30
-1E-16
41
1
10
-2.19999999999999
20
-11.2415269571056
30
-1E-16
41
1
10
-2.19999999999999
20
-10.8754383363526
30
-1E-16
41
1
10
-2.19999999999999
20
-10.5987925508876
30
-1E-16
41
1
10
-2.19999999999999
20
-10.3200778010582
30
-1E-16
41
1
10
-2.19999999999999
20
-10.0392928286736
30
-1E-16
41
1
10
-2.19999999999999
20
-9.7564363484619
30
-1E-16
41
1
10
-2.19999999999999
20
-9.47150729415071
30
-1E-16
41
1
10
-2.19999999999999
20
-9.1845043611271
30
-1E-16
41
1
10
-2.19999999999999
20
-8.8954271911569
30
-1E-16
41
1
10
-2.19999999999999
20
-8.60427356074339
30
-1E-16
41
1
10
-2.19999999999999
20
-8.31104318061551
30
-1E-16
41
1
10
-2.19999999999999
20
-8.01573561602433
30
-1E-16
41
1
10
-2.19999999999999
20
-7.71835058358695
30
-1E-16
41
1
10
-2.19999999999999
20
-7.41888794723957
30
-1E-16
41
1
10
-2.19999999999999
20
-7.11734869113025
30
-1E-16
41
1
10
-2.19999999999999
20
-6.81373435633816
30
-1E-16
41
1
10
-2.19999999999999
20
-6.50804760816206
30
-1E-16
41
1
10
-2.19999999999999
20
-6.20029189348728
30
-1E-16
41
1
10
-2.19999999999999
20
-5.94209838158557
30
-1E-16
41
1
10
-2.19999999999999
20
-5.73453666830338
30
-1E-16
41
1
10
-2.19999999999999
20
-5.52629101970234
30
-1E-16
41
1
10
-2.19999999999999
20
-5.2646763781224
30
-1E-16
41
1
10
-2.19999999999999
20
-5.00136826160576
30
-1E-16
41
1
10
-2.19999999999999
20
-4.78973719244794
30
-1E-16
41
1
10
-2.19999999999999
20
-4.57743718277371
30
-1E-16
41
1
10
-2.19999999999999
20
-4.36409678795761
30
-1E-16
41
1
10
-2.19999999999999
20
-4.14981697452481
30
-1E-16
41
1
10
-2.19999999999999
20
-4.01546868648907
30
-1E-16
41
1
10
-2.19999999999999
20
-3.90776230194615
30
-1E-16
41
1
10
-2.19999999999999
20
-3.79989568244895
30
-1E-16
41
1
10
-2.19999999999999
20
-3.66474576021935
30
-1E-16
41
1
10
-2.19999999999999
20
-3.5021036988395
30
-1E-16
41
1
10
-2.19999999999999
20
-3.33899660464965
30
-1E-16
41
1
10
-2.19999999999999
20
-3.17543127927689
30
-1E-16
41
1
10
-2.19999999999999
20
-3.01141672008131
30
-1E-16
41
1
10
-2.19999999999999
20
-2.87436209926597
30
-1E-16
41
1
10
-2.19999999999999
20
-2.76452000553434
30
-1E-16
41
1
10
-2.19999999999999
20
-2.68202545651479
30
-1E-16
41
1
10
-2.19999999999999
20
-2.5994263263795
30
-1E-16
41
1
10
-2.19999999999999
20
-2.51672421834661
30
-1E-16
41
1
10
-2.19999999999999
20
-2.43392090149777
30
-1E-16
41
1
10
-2.19999999999999
20
-2.32339361988261
30
-1E-16
41
1
10
-2.19999999999999
20
-2.21264123208616
30
-1E-16
41
1
10
-2.19999999999999
20
-2.10173189222928
30
-1E-16
41
1
10
-2.19999999999999
20
-1.9907006034768
30
-1E-16
41
1
10
-2.19999999999999
20
-1.87945966995704
30
-1E-16
41
1
10
-2.19999999999999
20
-1.76808195565891
30
-1E-16
41
1
10
-2.19999999999999
20
-1.65659533844251
30
-1E-16
41
1
10
-2.19999999999999
20
-1.54491818810743
30
-1E-16
41
1
10
-2.19999999999999
20
-1.43312829673272
30
-1E-16
41
1
10
-2.19999999999999
20
-1.32124507363099
30
-1E-16
41
1
10
-2.19999999999999
20
-1.18119881783468
30
-1E-16
41
1
10
-2.19999999999999
20
-1.01291860933941
30
-1E-16
41
1
10
-2.19999999999999
20
-0.87249898691482
30
-1E-16
41
1
10
-2.19999999999999
20
-0.760095820637474
30
-1E-16
41
1
10
-2.19999999999999
20
-0.675743913418643
30
-1E-16
41
1
10
-2.19999999999999
20
-0.591356016553533
30
-1E-16
41
1
10
-2.19999999999999
20
-0.506936431545654
30
-1E-16
41
1
10
-2.19999999999999
20
-0.422489234806477
30
-1E-16
41
1
10
-2.19999999999999
20
-0.338019053908852
30
-1E-16
41
1
10
-2.19999999999999
20
-0.253530597556249
30
-1E-16
41
1
10
-2.19999999999999
20
-0.169028161239794
30
-1E-16
41
1
10
-2.19999999999999
20
-0.0845162996800468
30
-1E-16
41
1
10
-2.19999999999999
20
2.9737635E-09
30
-1E-16
41
1
10
-2.19999999999999
20
0.0845163058477283
30
-1E-16
41
1
10
-2.19999999999999
20
0.169028167934272
30
-1E-16
41
1
10
-2.19999999999999
20
0.253530604877341
30
-1E-16
41
1
10
-2.19999999999999
20
0.338019061527263
30
-1E-16
41
1
10
-2.19999999999999
20
0.422489242090819
30
-1E-16
41
1
10
-2.19999999999999
20
0.506936438011195
30
-1E-16
41
1
10
-2.19999999999999
20
0.591356022200159
30
-1E-16
41
1
10
-2.19999999999999
20
0.675743919086329
30
-1E-16
41
1
10
-2.19999999999999
20
0.760095827222472
30
-1E-16
41
1
10
-2.19999999999999
20
0.872498995392078
30
-1E-16
41
1
10
-2.19999999999999
20
1.0129186171477
30
-1E-16
41
1
10
-2.19999999999999
20
1.18119882266058
30
-1E-16
41
1
10
-2.19999999999999
20
1.32124507985105
30
-1E-16
41
1
10
-2.19999999999999
20
1.43312830574621
30
-1E-16
41
1
10
-2.19999999999999
20
1.54491819828837
30
-1E-16
41
1
10
-2.19999999999999
20
1.65659534610089
30
-1E-16
41
1
10
-2.19999999999999
20
1.76808196044797
30
-1E-16
41
1
10
-2.19999999999999
20
1.87945967457651
30
-1E-16
41
1
10
-2.19999999999999
20
1.99070061185216
30
-1E-16
41
1
10
-2.19999999999999
20
2.1017319037741
30
-1E-16
41
1
10
-2.19999999999999
20
2.21264124345481
30
-1E-16
41
1
10
-2.19999999999999
20
2.32339362702302
30
-1E-16
41
1
10
-2.19999999999999
20
2.43392090537259
30
-1E-16
41
1
10
-2.19999999999999
20
2.51672422226801
30
-1E-16
41
1
10
-2.19999999999999
20
2.59942633274221
30
-1E-16
41
1
10
-2.19999999999999
20
2.68202546661414
30
-1E-16
41
1
10
-2.19999999999999
20
2.76452001856484
30
-1E-16
41
1
10
-2.19999999999999
20
2.87436211322455
30
-1E-16
41
1
10
-2.19999999999999
20
3.01141672767267
30
-1E-16
41
1
10
-2.19999999999999
20
3.17543128081249
30
-1E-16
41
1
10
-2.19999999999999
20
3.33899661229887
30
-1E-16
41
1
10
-2.19999999999999
20
3.50210371592672
30
-1E-16
41
1
10
-2.19999999999999
20
3.66474577486338
30
-1E-16
41
1
10
-2.19999999999999
20
3.7998956890315
30
-1E-16
41
1
10
-2.19999999999999
20
3.90776230457831
30
-1E-16
41
1
10
-2.19999999999999
20
4.01546868863096
30
-1E-16
41
1
10
-2.19999999999999
20
4.14981698400791
30
-1E-16
41
1
10
-2.19999999999999
20
4.3640968112588
30
-1E-16
41
1
10
-2.19999999999999
20
4.5774371918485
30
-1E-16
41
1
10
-2.19999999999999
20
4.78973719162454
30
-1E-16
41
1
10
-2.19999999999999
20
5.00136826964859
30
-1E-16
41
1
10
-2.19999999999999
20
5.2646764075686
30
-1E-16
41
1
10
-2.19999999999999
20
5.5262910261637
30
-1E-16
41
1
10
-2.19999999999999
20
5.73453666635555
30
-1E-16
41
1
10
-2.19999999999999
20
5.9420983893643
30
-1E-16
41
1
10
-2.19999999999999
20
6.20029192554162
30
-1E-16
41
1
10
-2.19999999999999
20
6.50804761437217
30
-1E-16
41
1
10
-2.19999999999999
20
6.81373435160455
30
-1E-16
41
1
10
-2.19999999999999
20
7.11734871686417
30
-1E-16
41
1
10
-2.19999999999999
20
7.41888792583902
30
-1E-16
41
1
10
-2.19999999999999
20
7.71835052760531
30
-1E-16
41
1
10
-2.19999999999999
20
8.01573570434201
30
-1E-16
41
1
10
-2.19999999999999
20
8.31104332875668
30
-1E-16
41
1
10
-2.19999999999999
20
8.60427351086133
30
-1E-16
41
1
10
-2.19999999999999
20
8.89542705327116
30
-1E-16
41
1
10
-2.19999999999999
20
9.18450458163332
30
-1E-16
41
1
10
-2.19999999999999
20
9.47150741663737
30
-1E-16
41
1
10
-2.19999999999999
20
9.75643631256762
30
-1E-16
41
1
10
-2.19999999999999
20
10.0392927830108
30
-1E-16
41
1
10
-2.19999999999999
20
10.3200777862056
30
-1E-16
41
1
10
-2.19999999999999
20
10.6916821947193
30
-1E-16
41
1
10
-2.19999999999999
20
11.1510479282636
30
-1E-16
41
1
10
-2.19999999999999
20
11.6035237684601
30
-1E-16
41
1
10
-2.19999999999999
20
11.9613483314474
30
-1E-16
41
1
10
-2.19999999999999
20
12.2276612824087
30
-1E-16
41
1
10
-2.19999999999999
20
12.491909102254
30
-1E-16
41
1
10
-2.19999999999999
20
12.7540926975445
30
-1E-16
41
1
10
-2.19999999999999
20
13.0142109423232
30
-1E-16
41
1
10
-2.19999999999999
20
13.3582704108556
30
-1E-16
41
1
10
-2.19999999999999
20
13.6982347575132
30
-1E-16
41
1
10
-2.19999999999999
20
14.0340319983603
30
-1E-16
41
1
10
-2.19999999999999
20
14.2838204496865
30
-1E-16
41
1
10
-2.19999999999999
20
14.5315403640059
30
-1E-16
41
1
10
-2.19999999999999
20
14.7771909058554
30
-1E-16
41
1
10
-2.19999999999999
20
15.0207692194115
30
-1E-16
41
1
10
-2.19999999999999
20
15.2622749109486
30
-1E-16
41
1
10
-2.19999999999999
20
15.5017057162253
30
-1E-16
41
1
10
-2.19999999999999
20
15.7390582874331
30
-1E-16
41
1
10
-2.19999999999999
20
15.9351247349383
30
-1E-16
41
1
10
-2.19999999999999
20
16.0909280537241
30
-1E-16
41
1
10
-2.19999999999999
20
16.2460368243143
30
-1E-16
41
1
10
-2.19999999999999
20
16.4386305854399
30
-1E-16
41
1
10
-2.19999999999999
20
16.7439793214723
30
-1E-16
41
1
10
-2.19999999999999
20
17.0451744942955
30
-1E-16
41
1
10
-2.19999999999999
20
17.342145790273
30
-1E-16
41
1
10
-2.19999999999999
20
17.6363146514327
30
-1E-16
41
1
10
-2.19999999999999
20
17.9987810562909
30
-1E-16
41
1
10
-2.19999999999999
20
18.3541989021743
30
-1E-16
41
1
10
-2.19999999999999
20
18.6342692782274
30
-1E-16
41
1
10
-2.19999999999999
20
18.9115004820266
30
-1E-16
41
1
10
-2.19999999999999
20
19.2527208742123
30
-1E-16
41
1
10
-2.19999999999999
20
19.5867870400026
30
-1E-16
41
1
10
-2.19999999999999
20
19.8497084000872
30
-1E-16
41
1
10
-2.19999999999999
20
20.1097427976019
30
-1E-16
41
1
10
-2.19999999999999
20
20.4293723348014
30
-1E-16
41
1
10
-2.19999999999999
20
20.8041728408687
30
-1E-16
41
1
10
-2.19999999999999
20
21.1091737057829
30
-1E-16
41
1
10
-2.19999999999999
20
21.348724524242
30
-1E-16
41
1
10
-2.19999999999999
20
21.5853057487131
30
-1E-16
41
1
10
-2.19999999999999
20
21.8754567939979
30
-1E-16
41
1
10
-2.19999999999999
20
22.2146097450714
30
-1E-16
41
1
10
-2.19999999999999
20
22.5446620300357
30
-1E-16
41
1
10
-2.19999999999999
20
22.865528155817
30
-1E-16
41
1
10
-2.19999999999999
20
23.1771173063638
30
-1E-16
41
1
10
-2.19999999999999
20
23.4289695970825
30
-1E-16
41
1
10
-2.19999999999999
20
23.625702822842
30
-1E-16
41
1
10
-2.19999999999999
20
23.8192595747193
30
-1E-16
41
1
10
-2.19999999999999
20
24.0552273098675
30
-1E-16
41
1
10
-2.19999999999999
20
24.3286812886663
30
-1E-16
41
1
10
-2.19999999999999
20
24.5483785892839
30
-1E-16
41
1
10
-2.19999999999999
20
24.7191499291268
30
-1E-16
41
1
10
-2.19999999999999
20
24.8865804660961
30
-1E-16
41
1
10
-2.19999999999999
20
25.0895715317904
30
-1E-16
41
1
10
-2.19999999999999
20
25.284028449355
30
-1E-16
41
1
10
-2.19999999999999
20
25.4343867299332
30
-1E-16
41
1
10
-2.19999999999999
20
25.5261818034759
30
-1E-16
41
1
10
-2.19999999999999
20
25.5982933540586
30
-1E-16
41
1
10
-2.19999999999999
20
25.6695210442987
30
-1E-16
41
1
10
-2.19999999999999
20
25.7568951729796
30
-1E-16
41
1
10
-2.19999999999999
20
25.8590554134204
30
-1E-16
41
1
10
-2.19999999999999
20
25.9585067097828
30
-1E-16
41
1
10
-2.19999999999999
20
26.0552228914818
30
-1E-16
41
1
10
-2.19999999999999
20
26.1491804877762
30
-1E-16
41
1
10
-2.19999999999999
20
26.2403534869032
30
-1E-16
41
1
10
-2.19999999999999
20
26.3287134555965
30
-1E-16
41
1
10
-2.19999999999999
20
26.414234345797
30
-1E-16
41
1
10
-2.19999999999999
20
26.4968867532828
30
1E-16
41
1
10
-2.19999999999999
20
26.5766398127168
30
1E-16
41
1
10
-2.19999999999999
20
26.6790690105836
30
1E-16
41
1
10
-2.19999999999999
20
26.7755840284526
30
0
41
1
10
-2.19999999999999
20
26.8660318549495
30
0
41
1
10
-2.19999999999999
20
26.9308035073645
30
0
41
1
10
-2.19999999999999
20
26.9924724007358
30
0
41
1
10
-2.19999999999999
20
27.0509995322117
30
0
41
1
10
-2.19999999999999
20
27.1063432629947
30
1E-16
41
1
10
-2.19999999999999
20
27.1584629254513
30
1E-16
41
1
10
-2.19999999999999
20
27.2073129452677
30
1E-16
41
1
10
-2.19999999999999
20
27.2680242938405
30
-1E-16
41
1
10
-2.19999999999999
20
27.335511616751
30
-1E-16
41
1
10
-2.19999999999999
20
27.3914487450129
30
-1E-16
41
1
10
-2.19999999999999
20
27.4290396962773
30
-1E-16
41
1
10
-2.19999999999999
20
27.4535951162672
30
-1E-16
41
1
10
-2.19999999999999
20
27.4744481367885
30
-1E-16
41
1
10
-2.19999999999999
20
27.4915322439685
30
-1E-16
41
1
10
-2.19999999999999
20
27.5011387876907
30
-1E-16
41
1
10
-2.20000000000002
20
27.5054285907869
30
-1E-16
41
1
10
-2.20000000000002
20
27.5060503169268
30
-1E-16
0
SPLINE
5
C8
100
AcDbEntity
8
SK1
62
256
6
ByLayer
370
13
48
1
60
0
100
AcDbSpline
70
4
71
3
72
301
73
297
40
0
40
0
40
0
40
0
40
0.0031724939290672
40
0.0066469395322166
40
0.010121385135366
40
0.0135958307385154
40
0.0170702763416648
40
0.0205447219448142
40
0.0240191675479636
40
0.0274936131511129
40
0.0344425043574117
40
0.0413913955637105
40
0.0448658411668599
40
0.0483402867700093
40
0.0518147323731587
40
0.0552891779763081
40
0.0587636235794575
40
0.0622380691826068
40
0.0657125147857562
40
0.0691869603889056
40
0.0761358515952044
40
0.0796102971983538
40
0.0830847428015032
40
0.0865591884046526
40
0.090033634007802
40
0.0935080796109514
40
0.0969825252141007
40
0.10045697081725
40
0.1039314164204
40
0.107405862023549
40
0.110880307626698
40
0.117829198832997
40
0.121303644436146
40
0.124778090039296
40
0.131726981245595
40
0.138675872451893
40
0.142150318055043
40
0.145624763658192
40
0.152573654864491
40
0.15952254607079
40
0.166471437277088
40
0.169945882880238
40
0.173420328483387
40
0.180369219689686
40
0.187318110895985
40
0.194267002102284
40
0.201215893308582
40
0.208164784514881
40
0.21511367572118
40
0.218588121324329
40
0.222062566927479
40
0.229011458133778
40
0.235960349340076
40
0.242909240546375
40
0.246383686149524
40
0.249858131752674
40
0.256807022958973
40
0.263755914165271
40
0.267230359768421
40
0.27070480537157
40
0.277653696577869
40
0.284602587784168
40
0.288077033387317
40
0.291551478990467
40
0.298500370196765
40
0.301974815799915
40
0.305449261403064
40
0.308923707006214
40
0.312398152609363
40
0.315872598212512
40
0.319347043815662
40
0.322821489418811
40
0.326295935021961
40
0.32977038062511
40
0.333244826228259
40
0.336719271831409
40
0.340193717434558
40
0.347142608640857
40
0.350617054244006
40
0.354091499847156
40
0.357565945450305
40
0.361040391053454
40
0.364514836656604
40
0.367989282259753
40
0.374938173466052
40
0.378412619069201
40
0.381887064672351
40
0.3853615102755
40
0.388835955878649
40
0.392310401481799
40
0.395784847084948
40
0.399259292688098
40
0.402733738291247
40
0.406208183894396
40
0.409682629497546
40
0.413157075100695
40
0.416631520703845
40
0.420105966306994
40
0.423580411910144
40
0.427054857513293
40
0.430529303116442
40
0.434003748719592
40
0.437478194322741
40
0.439215417124316
40
0.44095263992589
40
0.44442708552904
40
0.447901531132189
40
0.449638753933764
40
0.451375976735339
40
0.454850422338488
40
0.456587645140063
40
0.458324867941637
40
0.459193479342425
40
0.460062090743212
40
0.461799313544787
40
0.463536536346361
40
0.465273759147936
40
0.467010981949511
40
0.468748204751085
40
0.47048542755266
40
0.471354038953448
40
0.472222650354235
40
0.473091261755022
40
0.47395987315581
40
0.474828484556597
40
0.475697095957384
40
0.477434318758959
40
0.478302930159746
40
0.479171541560534
40
0.480908764362108
40
0.481777375762896
40
0.482645987163683
40
0.484383209965258
40
0.485251821366045
40
0.486120432766832
40
0.487857655568407
40
0.489594878369982
40
0.491332101171557
40
0.492200712572344
40
0.493069323973131
40
0.493937935373919
40
0.494806546774706
40
0.495675158175493
40
0.496543769576281
40
0.497412380977068
40
0.498280992377855
40
0.499149603778643
40
0.50001821517943
40
0.500886826580217
40
0.501755437981005
40
0.502624049381792
40
0.503492660782579
40
0.504361272183367
40
0.505229883584154
40
0.506098494984941
40
0.506967106385729
40
0.507835717786516
40
0.508704329187303
40
0.510441551988878
40
0.512178774790453
40
0.513915997592027
40
0.514784608992815
40
0.515653220393602
40
0.517390443195177
40
0.518259054595964
40
0.519127665996752
40
0.520864888798326
40
0.521733500199114
40
0.522602111599901
40
0.524339334401476
40
0.525207945802263
40
0.52607655720305
40
0.526945168603838
40
0.527813780004625
40
0.528682391405412
40
0.5295510028062
40
0.531288225607774
40
0.533025448409349
40
0.534762671210924
40
0.536499894012499
40
0.538237116814073
40
0.539974339615648
40
0.540842951016435
40
0.541711562417223
40
0.543448785218797
40
0.545186008020372
40
0.548660453623521
40
0.550397676425096
40
0.552134899226671
40
0.55560934482982
40
0.55908379043297
40
0.560821013234544
40
0.562558236036119
40
0.566032681639268
40
0.569507127242418
40
0.572981572845567
40
0.576456018448717
40
0.579930464051866
40
0.583404909655015
40
0.586879355258165
40
0.590353800861314
40
0.593828246464464
40
0.597302692067613
40
0.600777137670762
40
0.604251583273912
40
0.607726028877061
40
0.61120047448021
40
0.61467492008336
40
0.618149365686509
40
0.625098256892808
40
0.632047148099107
40
0.635521593702256
40
0.638996039305406
40
0.642470484908555
40
0.645944930511704
40
0.649419376114854
40
0.652893821718003
40
0.659842712924302
40
0.663317158527451
40
0.666791604130601
40
0.67026604973375
40
0.6737404953369
40
0.677214940940049
40
0.680689386543198
40
0.684163832146348
40
0.687638277749497
40
0.691112723352646
40
0.692849946154221
40
0.694587168955796
40
0.698061614558945
40
0.701536060162095
40
0.708484951368393
40
0.711959396971543
40
0.715433842574692
40
0.722382733780991
40
0.72933162498729
40
0.732806070590439
40
0.736280516193588
40
0.743229407399887
40
0.750178298606186
40
0.753652744209335
40
0.757127189812485
40
0.764076081018784
40
0.771024972225082
40
0.777973863431381
40
0.781448309034531
40
0.78492275463768
40
0.791871645843979
40
0.798820537050277
40
0.805769428256576
40
0.812718319462875
40
0.819667210669174
40
0.826616101875473
40
0.830090547478622
40
0.833564993081771
40
0.84051388428807
40
0.847462775494369
40
0.854411666700668
40
0.857886112303817
40
0.861360557906967
40
0.868309449113265
40
0.875258340319564
40
0.878732785922713
40
0.882207231525863
40
0.883944454327438
40
0.885681677129012
40
0.889156122732162
40
0.892630568335311
40
0.89610501393846
40
0.89957945954161
40
0.903053905144759
40
0.906528350747909
40
0.910002796351058
40
0.913477241954207
40
0.916951687557357
40
0.920426133160506
40
0.923900578763656
40
0.930849469969954
40
0.934323915573104
40
0.937798361176253
40
0.941272806779403
40
0.944747252382552
40
0.948221697985701
40
0.951696143588851
40
0.955170589192
40
0.95864503479515
40
0.965593926001448
40
0.972542817207747
40
0.976017262810896
40
0.979491708414046
40
0.982966154017195
40
0.986440599620345
40
0.989915045223494
40
0.993389490826643
40
0.996863936429793
40
1
40
1
40
1
40
1
41
1
10
-1.99503997793928
20
-27.325161430031
30
-1E-16
41
1
10
-1.99503997793928
20
-27.3252986484308
30
-1E-16
41
1
10
-1.99503997793928
20
-27.3243853253932
30
-1E-16
41
1
10
-1.99503997793928
20
-27.319236569139
30
-1E-16
41
1
10
-1.99503997793928
20
-27.3099684620727
30
-1E-16
41
1
10
-1.99503997793928
20
-27.2968118938473
30
-1E-16
41
1
10
-1.99503997793928
20
-27.2798390261951
30
-1E-16
41
1
10
-1.99503997793928
20
-27.2591194581005
30
-1E-16
41
1
10
-1.99503997793928
20
-27.2347185022954
30
-1E-16
41
1
10
-1.99503997793928
20
-27.197345231477
30
-1E-16
41
1
10
-1.99503997793928
20
-27.1417627098538
30
-1E-16
41
1
10
-1.99503997793928
20
-27.0746927526657
30
-1E-16
41
1
10
-1.99503997793928
20
-27.0143096332649
30
1E-16
41
1
10
-1.99503997793928
20
-26.965737488626
30
1E-16
41
1
10
-1.99503997793928
20
-26.9139106605823
30
1E-16
41
1
10
-1.99503997793928
20
-26.8588742790416
30
0
41
1
10
-1.99503997793928
20
-26.8006684388868
30
0
41
1
10
-1.99503997793928
20
-26.7393343627507
30
0
41
1
10
-1.99503997793928
20
-26.6749108160321
30
0
41
1
10
-1.99503997793928
20
-26.5849135103433
30
0
41
1
10
-1.99503997793928
20
-26.4889678259812
30
1E-16
41
1
10
-1.99503997793928
20
-26.3870356638969
30
1E-16
41
1
10
-1.99503997793928
20
-26.307691573879
30
1E-16
41
1
10
-1.99503997793928
20
-26.2254595012835
30
-1E-16
41
1
10
-1.99503997793928
20
-26.1403699560892
30
-1E-16
41
1
10
-1.99503997793928
20
-26.0524524072106
30
-1E-16
41
1
10
-1.99503997793928
20
-25.961732550658
30
-1E-16
41
1
10
-1.99503997793928
20
-25.8682384460151
30
-1E-16
41
1
10
-1.99503997793928
20
-25.7719963599905
30
-1E-16
41
1
10
-1.99503997793928
20
-25.6730299792935
30
-1E-16
41
1
10
-1.99503997793928
20
-25.5374379046987
30
-1E-16
41
1
10
-1.99503997793928
20
-25.396607276112
30
-1E-16
41
1
10
-1.99503997793928
20
-25.2503982620474
30
-1E-16
41
1
10
-1.99503997793928
20
-25.1007072668634
30
-1E-16
41
1
10
-1.99503997793928
20
-24.9072094682151
30
-1E-16
41
1
10
-1.99503997793928
20
-24.7052121640854
30
-1E-16
41
1
10
-1.99503997793928
20
-24.5385089830443
30
-1E-16
41
1
10
-1.99503997793928
20
-24.3684762369579
30
-1E-16
41
1
10
-1.99503997793928
20
-24.1498376513416
30
-1E-16
41
1
10
-1.99503997793928
20
-23.8776317176071
30
-1E-16
41
1
10
-1.99503997793928
20
-23.6427893382923
30
-1E-16
41
1
10
-1.99503997793928
20
-23.4500539432773
30
-1E-16
41
1
10
-1.99503997793928
20
-23.2541536051906
30
-1E-16
41
1
10
-1.99503997793928
20
-23.0034924093454
30
-1E-16
41
1
10
-1.99503997793928
20
-22.6933032821098
30
-1E-16
41
1
10
-1.99503997793928
20
-22.3738761877812
30
-1E-16
41
1
10
-1.99503997793928
20
-22.0453025545601
30
-1E-16
41
1
10
-1.99503997793928
20
-21.7076686178739
30
-1E-16
41
1
10
-1.99503997793928
20
-21.4188827033322
30
-1E-16
41
1
10
-1.99503997793928
20
-21.183296231241
30
-1E-16
41
1
10
-1.99503997793928
20
-20.9447536987916
30
-1E-16
41
1
10
-1.99503997793928
20
-20.6411931765509
30
-1E-16
41
1
10
-1.99503997793928
20
-20.2680830241603
30
-1E-16
41
1
10
-1.99503997793928
20
-19.9499723474756
30
-1E-16
41
1
10
-1.99503997793928
20
-19.6910450149659
30
-1E-16
41
1
10
-1.99503997793928
20
-19.4292463860981
30
-1E-16
41
1
10
-1.99503997793928
20
-19.0967848636163
30
-1E-16
41
1
10
-1.99503997793928
20
-18.7572123771119
30
-1E-16
41
1
10
-1.99503997793928
20
-18.4811831142103
30
-1E-16
41
1
10
-1.99503997793928
20
-18.2023325900281
30
-1E-16
41
1
10
-1.99503997793928
20
-17.8486596771386
30
-1E-16
41
1
10
-1.99503997793928
20
-17.487986711463
30
-1E-16
41
1
10
-1.99503997793928
20
-17.1951273582893
30
-1E-16
41
1
10
-1.99503997793928
20
-16.8994865286445
30
-1E-16
41
1
10
-1.99503997793928
20
-16.5999232967459
30
-1E-16
41
1
10
-1.99503997793928
20
-16.2959645253135
30
-1E-16
41
1
10
-1.99503997793928
20
-16.0659886092783
30
-1E-16
41
1
10
-1.99503997793928
20
-15.8339451945693
30
-1E-16
41
1
10
-1.99503997793928
20
-15.5998376412757
30
-1E-16
41
1
10
-1.99503997793928
20
-15.3636701740732
30
-1E-16
41
1
10
-1.99503997793928
20
-15.1254443246959
30
-1E-16
41
1
10
-1.99503997793928
20
-14.8851633083157
30
-1E-16
41
1
10
-1.99503997793928
20
-14.6428305016925
30
-1E-16
41
1
10
-1.99503997793928
20
-14.3984468746313
30
-1E-16
41
1
10
-1.99503997793928
20
-14.1520156345789
30
-1E-16
41
1
10
-1.99503997793928
20
-13.903538977374
30
-1E-16
41
1
10
-1.99503997793928
20
-13.5694124056225
30
-1E-16
41
1
10
-1.99503997793928
20
-13.2315065874855
30
-1E-16
41
1
10
-1.99503997793928
20
-12.8892094092454
30
-1E-16
41
1
10
-1.99503997793928
20
-12.630529996325
30
-1E-16
41
1
10
-1.99503997793928
20
-12.3698136542137
30
-1E-16
41
1
10
-1.99503997793928
20
-12.1070624597528
30
-1E-16
41
1
10
-1.99503997793928
20
-11.8422771763273
30
-1E-16
41
1
10
-1.99503997793928
20
-11.4864047926357
30
-1E-16
41
1
10
-1.99503997793928
20
-11.1268240668469
30
-1E-16
41
1
10
-1.99503997793928
20
-10.7628135122141
30
-1E-16
41
1
10
-1.99503997793928
20
-10.4878712580384
30
-1E-16
41
1
10
-1.99503997793928
20
-10.2109002476074
30
-1E-16
41
1
10
-1.99503997793928
20
-9.93190148567106
30
-1E-16
41
1
10
-1.99503997793928
20
-9.65087577167401
30
-1E-16
41
1
10
-1.99503997793928
20
-9.36782442184719
30
-1E-16
41
1
10
-1.99503997793928
20
-9.08274836934052
30
-1E-16
41
1
10
-1.99503997793928
20
-8.79565051892371
30
-1E-16
41
1
10
-1.99503997793928
20
-8.50653184364373
30
-1E-16
41
1
10
-1.99503997793928
20
-8.21539468387994
30
-1E-16
41
1
10
-1.99503997793928
20
-7.92224242464158
30
-1E-16
41
1
10
-1.99503997793928
20
-7.62707899667751
30
-1E-16
41
1
10
-1.99503997793928
20
-7.32990848936902
30
-1E-16
41
1
10
-1.99503997793928
20
-7.03073643509245
30
-1E-16
41
1
10
-1.99503997793928
20
-6.72956956222453
30
-1E-16
41
1
10
-1.99503997793928
20
-6.42641644899931
30
-1E-16
41
1
10
-1.99503997793928
20
-6.12128654405475
30
-1E-16
41
1
10
-1.99503997793928
20
-5.86547224264382
30
-1E-16
41
1
10
-1.99503997793928
20
-5.65966031194296
30
-1E-16
41
1
10
-1.99503997793928
20
-5.45320486068488
30
-1E-16
41
1
10
-1.99503997793928
20
-5.19417516976088
30
-1E-16
41
1
10
-1.99503997793928
20
-4.93354783719795
30
-1E-16
41
1
10
-1.99503997793928
20
-4.72389491460817
30
-1E-16
41
1
10
-1.99503997793928
20
-4.51362418453465
30
-1E-16
41
1
10
-1.99503997793928
20
-4.30279737234505
30
-1E-16
41
1
10
-1.99503997793928
20
-4.09068017699948
30
-1E-16
41
1
10
-1.99503997793928
20
-3.95788264175957
30
-1E-16
41
1
10
-1.99503997793928
20
-3.85130375742838
30
-1E-16
41
1
10
-1.99503997793928
20
-3.74458054435991
30
-1E-16
41
1
10
-1.99503997793928
20
-3.61106188513384
30
-1E-16
41
1
10
-1.99503997793928
20
-3.45032619783549
30
-1E-16
41
1
10
-1.99503997793928
20
-3.28917309238062
30
-1E-16
41
1
10
-1.99503997793928
20
-3.12761066714143
30
-1E-16
41
1
10
-1.99503997793928
20
-2.96564924759372
30
-1E-16
41
1
10
-1.99503997793928
20
-2.83043415716216
30
-1E-16
41
1
10
-1.99503997793928
20
-2.72193088426971
30
-1E-16
41
1
10
-1.99503997793928
20
-2.64052218961078
30
-1E-16
41
1
10
-1.99503997793928
20
-2.55902307088405
30
-1E-16
41
1
10
-1.99503997793928
20
-2.47743501265126
30
-1E-16
41
1
10
-1.99503997793928
20
-2.39575870345573
30
-1E-16
41
1
10
-1.99503997793928
20
-2.28665935771656
30
-1E-16
41
1
10
-1.99503997793928
20
-2.17765163493269
30
-1E-16
41
1
10
-1.99503997793928
20
-2.06822032104492
30
-1E-16
41
1
10
-1.99503997793928
20
-1.95868775414536
30
-1E-16
41
1
10
-1.99503997793928
20
-1.84927659960155
30
-1E-16
41
1
10
-1.99503997793928
20
-1.73944749852939
30
-1E-16
41
1
10
-1.99503997793928
20
-1.62953014673869
30
-1E-16
41
1
10
-1.99503997793928
20
-1.51976604695517
30
-1E-16
41
1
10
-1.99503997793928
20
-1.40959256793391
30
-1E-16
41
1
10
-1.99503997793928
20
-1.29934600948991
30
-1E-16
41
1
10
-1.99503997793928
20
-1.16162399896865
30
-1E-16
41
1
10
-1.99503997793928
20
-0.99604387184678
30
-1E-16
41
1
10
-1.99503997793928
20
-0.858021465650296
30
-1E-16
41
1
10
-1.99503997793928
20
-0.747348246925924
30
-1E-16
41
1
10
-1.99503997793928
20
-0.664391443726458
30
-1E-16
41
1
10
-1.99503997793928
20
-0.581404932400318
30
-1E-16
41
1
10
-1.99503997793928
20
-0.498392839537729
30
-1E-16
41
1
10
-1.99503997793928
20
-0.415360877837117
30
-1E-16
41
1
10
-1.99503997793928
20
-0.332310822055121
30
-1E-16
41
1
10
-1.99503997793928
20
-0.249244906780348
30
-1E-16
41
1
10
-1.99503997793928
20
-0.166169118100839
30
-1E-16
41
1
10
-1.99503997793928
20
-0.0830872457044336
30
-1E-16
41
1
10
-1.99503997793928
20
7.3694082E-09
30
-1E-16
41
1
10
-1.99503997793928
20
0.083087258687442
30
-1E-16
41
1
10
-1.99503997793928
20
0.166169126760138
30
-1E-16
41
1
10
-1.99503997793928
20
0.249244909992626
30
-1E-16
41
1
10
-1.99503997793928
20
0.332310821896414
30
-1E-16
41
1
10
-1.99503997793928
20
0.415360879438595
30
-1E-16
41
1
10
-1.99503997793928
20
0.498392847694362
30
-1E-16
41
1
10
-1.99503997793928
20
0.581404948836564
30
-1E-16
41
1
10
-1.99503997793928
20
0.664391463462891
30
-1E-16
41
1
10
-1.99503997793928
20
0.74734826211116
30
-1E-16
41
1
10
-1.99503997793928
20
0.858021466226489
30
-1E-16
41
1
10
-1.99503997793928
20
0.996043867302802
30
-1E-16
41
1
10
-1.99503997793928
20
1.16162401558285
30
-1E-16
41
1
10
-1.99503997793928
20
1.29934603509318
30
-1E-16
41
1
10
-1.99503997793928
20
1.40959257647998
30
-1E-16
41
1
10
-1.99503997793928
20
1.51976603752374
30
-1E-16
41
1
10
-1.99503997793928
20
1.6295301381889
30
-1E-16
41
1
10
-1.99503997793928
20
1.73944751085296
30
-1E-16
41
1
10
-1.99503997793928
20
1.84927662995438
30
-1E-16
41
1
10
-1.99503997793928
20
1.95868778076368
30
-1E-16
41
1
10
-1.99503997793928
20
2.06822032488085
30
-1E-16
41
1
10
-1.99503997793928
20
2.17765162048644
30
-1E-16
41
1
10
-1.99503997793928
20
2.28665934688649
30
-1E-16
41
1
10
-1.99503997793928
20
2.39575871579828
30
-1E-16
41
1
10
-1.99503997793928
20
2.47743504267538
30
-1E-16
41
1
10
-1.99503997793928
20
2.55902310675029
30
-1E-16
41
1
10
-1.99503997793928
20
2.64052221841842
30
-1E-16
41
1
10
-1.99503997793928
20
2.72193089625395
30
-1E-16
41
1
10
-1.99503997793928
20
2.83043414688217
30
-1E-16
41
1
10
-1.99503997793928
20
2.96564923158397
30
-1E-16
41
1
10
-1.99503997793928
20
3.12761068170508
30
-1E-16
41
1
10
-1.99503997793928
20
3.28917313145487
30
-1E-16
41
1
10
-1.99503997793928
20
3.45032621656429
30
-1E-16
41
1
10
-1.99503997793928
20
3.61106187073102
30
-1E-16
41
1
10
-1.99503997793928
20
3.74458052899692
30
-1E-16
41
1
10
-1.99503997793928
20
3.85130376069884
30
-1E-16
41
1
10
-1.99503997793928
20
3.95788266698418
30
-1E-16
41
1
10
-1.99503997793928
20
4.0906802174616
30
-1E-16
41
1
10
-1.99503997793928
20
4.30279738744869
30
-1E-16
41
1
10
-1.99503997793928
20
4.51362416489164
30
-1E-16
41
1
10
-1.99503997793928
20
4.72389491984228
30
-1E-16
41
1
10
-1.99503997793928
20
4.93354787471691
30
-1E-16
41
1
10
-1.99503997793928
20
5.194175192833
30
-1E-16
41
1
10
-1.99503997793928
20
5.45320484016275
30
-1E-16
41
1
10
-1.99503997793928
20
5.65966031743471
30
-1E-16
41
1
10
-1.99503997793928
20
5.86547227949208
30
-1E-16
41
1
10
-1.99503997793928
20
6.12128657453567
30
-1E-16
41
1
10
-1.99503997793928
20
6.42641643294533
30
-1E-16
41
1
10
-1.99503997793928
20
6.72956956969855
30
-1E-16
41
1
10
-1.99503997793928
20
7.03073644813685
30
-1E-16
41
1
10
-1.99503997793928
20
7.32990842680402
30
-1E-16
41
1
10
-1.99503997793928
20
7.62707900817011
30
-1E-16
41
1
10
-1.99503997793928
20
7.92224261249635
30
-1E-16
41
1
10
-1.99503997793928
20
8.21539474907743
30
-1E-16
41
1
10
-1.99503997793928
20
8.5065316633322
30
-1E-16
41
1
10
-1.99503997793928
20
8.79565052315382
30
-1E-16
41
1
10
-1.99503997793928
20
9.08274869992735
30
-1E-16
41
1
10
-1.99503997793928
20
9.36782441803413
30
-1E-16
41
1
10
-1.99503997793928
20
9.6508756669198
30
-1E-16
41
1
10
-1.99503997793928
20
9.93190145357084
30
-1E-16
41
1
10
-1.99503997793928
20
10.2109002581502
30
-1E-16
41
1
10
-1.99503997793928
20
10.5803285804451
30
-1E-16
41
1
10
-1.99503997793928
20
11.036753378672
30
-1E-16
41
1
10
-1.99503997793928
20
11.4864047694406
30
-1E-16
41
1
10
-1.99503997793928
20
11.8422771919955
30
-1E-16
41
1
10
-1.99503997793928
20
12.1070624362612
30
-1E-16
41
1
10
-1.99503997793928
20
12.3698135917844
30
-1E-16
41
1
10
-1.99503997793928
20
12.6305299496176
30
-1E-16
41
1
10
-1.99503997793928
20
12.8892093803249
30
-1E-16
41
1
10
-1.99503997793928
20
13.2315065950277
30
-1E-16
41
1
10
-1.99503997793928
20
13.5694123671834
30
-1E-16
41
1
10
-1.99503997793928
20
13.9035389822172
30
-1E-16
41
1
10
-1.99503997793928
20
14.1520156158998
30
-1E-16
41
1
10
-1.99503997793928
20
14.3984468555777
30
-1E-16
41
1
10
-1.99503997793928
20
14.6428305081908
30
-1E-16
41
1
10
-1.99503997793928
20
14.8851632986275
30
-1E-16
41
1
10
-1.99503997793928
20
15.1254444180464
30
-1E-16
41
1
10
-1.99503997793928
20
15.3636702284228
30
-1E-16
41
1
10
-1.99503997793928
20
15.5998373978987
30
-1E-16
41
1
10
-1.99503997793928
20
15.7948829493702
30
-1E-16
41
1
10
-1.99503997793928
20
15.9499656619051
30
-1E-16
41
1
10
-1.99503997793928
20
16.1043598435705
30
-1E-16
41
1
10
-1.99503997793928
20
16.2959649333064
30
-1E-16
41
1
10
-1.99503997793928
20
16.5999232615433
30
-1E-16
41
1
10
-1.99503997793928
20
16.8994864797488
30
-1E-16
41
1
10
-1.99503997793928
20
17.195127364891
30
-1E-16
41
1
10
-1.99503997793928
20
17.487986707193
30
-1E-16
41
1
10
-1.99503997793928
20
17.8486596758477
30
-1E-16
41
1
10
-1.99503997793928
20
18.2023325950151
30
-1E-16
41
1
10
-1.99503997793928
20
18.4811831112867
30
-1E-16
41
1
10
-1.99503997793928
20
18.7572123739995
30
-1E-16
41
1
10
-1.99503997793928
20
19.096784863067
30
-1E-16
41
1
10
-1.99503997793928
20
19.4292463867236
30
-1E-16
41
1
10
-1.99503997793928
20
19.6910450135594
30
-1E-16
41
1
10
-1.99503997793928
20
19.9499723423375
30
-1E-16
41
1
10
-1.99503997793928
20
20.2680830253803
30
-1E-16
41
1
10
-1.99503997793928
20
20.6411931750868
30
-1E-16
41
1
10
-1.99503997793928
20
20.9447536956121
30
-1E-16
41
1
10
-1.99503997793928
20
21.1832962289191
30
-1E-16
41
1
10
-1.99503997793928
20
21.4188827024374
30
-1E-16
41
1
10
-1.99503997793928
20
21.7076686135251
30
-1E-16
41
1
10
-1.99503997793928
20
22.0453025532577
30
-1E-16
41
1
10
-1.99503997793928
20
22.3738761836524
30
-1E-16
41
1
10
-1.99503997793928
20
22.6933032792698
30
-1E-16
41
1
10
-1.99503997793928
20
23.003492407652
30
-1E-16
41
1
10
-1.99503997793928
20
23.2541535983722
30
-1E-16
41
1
10
-1.99503997793928
20
23.4500539403358
30
-1E-16
41
1
10
-1.99503997793928
20
23.6427893362144
30
-1E-16
41
1
10
-1.99503997793928
20
23.8776317120835
30
-1E-16
41
1
10
-1.99503997793928
20
24.1498376426061
30
-1E-16
41
1
10
-1.99503997793928
20
24.3684762393368
30
-1E-16
41
1
10
-1.99503997793928
20
24.5385089750245
30
-1E-16
41
1
10
-1.99503997793928
20
24.7052121586235
30
-1E-16
41
1
10
-1.99503997793928
20
24.9072094601534
30
-1E-16
41
1
10
-1.99503997793928
20
25.1007072283818
30
-1E-16
41
1
10
-1.99503997793928
20
25.2503983881991
30
-1E-16
41
1
10
-1.99503997793928
20
25.3417349423789
30
-1E-16
41
1
10
-1.99503997793928
20
25.4135236324805
30
-1E-16
41
1
10
-1.99503997793928
20
25.4844312429181
30
-1E-16
41
1
10
-1.99503997793928
20
25.5713637005868
30
-1E-16
41
1
10
-1.99503997793928
20
25.6730295553062
30
-1E-16
41
1
10
-1.99503997793928
20
25.7719964787433
30
-1E-16
41
1
10
-1.99503997793928
20
25.8682385377286
30
-1E-16
41
1
10
-1.99503997793928
20
25.9617325512637
30
-1E-16
41
1
10
-1.99503997793928
20
26.0524523997801
30
-1E-16
41
1
10
-1.99503997793928
20
26.1403699848692
30
-1E-16
41
1
10
-1.99503997793928
20
26.2254595087626
30
-1E-16
41
1
10
-1.99503997793928
20
26.3076915686753
30
1E-16
41
1
10
-1.99503997793928
20
26.387035697685
30
1E-16
41
1
10
-1.99503997793928
20
26.4889678074055
30
1E-16
41
1
10
-1.99503997793928
20
26.5849135587966
30
0
41
1
10
-1.99503997793928
20
26.674910802648
30
0
41
1
10
-1.99503997793928
20
26.7393343904956
30
0
41
1
10
-1.99503997793928
20
26.8006684557748
30
0
41
1
10
-1.99503997793928
20
26.8588742679962
30
0
41
1
10
-1.99503997793928
20
26.9139107109326
30
1E-16
41
1
10
-1.99503997793928
20
26.9657375531884
30
1E-16
41
1
10
-1.99503997793928
20
27.0143097024856
30
1E-16
41
1
10
-1.99503997793928
20
27.074692746873
30
-1E-16
41
1
10
-1.99503997793928
20
27.1417627231677
30
-1E-16
41
1
10
-1.99503997793928
20
27.1973453109891
30
-1E-16
41
1
10
-1.99503997793928
20
27.2347184649703
30
-1E-16
41
1
10
-1.99503997793928
20
27.2591194067692
30
-1E-16
41
1
10
-1.99503997793928
20
27.2798390211927
30
-1E-16
41
1
10
-1.99503997793928
20
27.2968118977756
30
-1E-16
41
1
10
-1.99503997793928
20
27.309968420024
30
-1E-16
41
1
10
-1.99503997793928
20
27.319236545434
30
-1E-16
41
1
10
-1.99503997793928
20
27.324366850114
30
-1E-16
41
1
10
-1.99503997793928
20
27.3252885795476
30
-1E-16
41
1
10
-1.99503997793926
20
27.3251659180248
30
-1E-16
0
SPLINE
5
C9
100
AcDbEntity
8
SK1
62
256
6
ByLayer
370
13
48
1
60
0
100
AcDbSpline
70
4
71
3
72
110
73
106
40
0
40
0
40
0
40
0
40
0.0065953834769083
40
0.0145536000300371
40
0.022511816583166
40
0.0304700331362948
40
0.0384282496894237
40
0.0463864662425525
40
0.0543446827956814
40
0.0623028993488102
40
0.0702611159019391
40
0.078219332455068
40
0.0861775490081968
40
0.0941357655613257
40
0.102093982114455
40
0.110052198667583
40
0.118010415220712
40
0.125968631773841
40
0.141885064880099
40
0.157801497986357
40
0.165759714539485
40
0.173717931092614
40
0.181676147645743
40
0.189634364198872
40
0.197592580752001
40
0.20555079730513
40
0.221467230411387
40
0.229425446964516
40
0.237383663517645
40
0.245341880070774
40
0.253300096623903
40
0.261258313177032
40
0.269216529730161
40
0.277174746283289
40
0.285132962836418
40
0.293091179389547
40
0.297070287666111
40
0.301049395942676
40
0.309007612495805
40
0.316965829048934
40
0.332882262155191
40
0.34084047870832
40
0.348798695261449
40
0.364715128367707
40
0.380631561473964
40
0.388589778027093
40
0.396547994580222
40
0.41246442768648
40
0.428380860792738
40
0.436339077345867
40
0.444297293898995
40
0.460213727005253
40
0.476130160111511
40
0.492046593217769
40
0.500004809770897
40
0.507963026324026
40
0.523879459430284
40
0.539795892536542
40
0.555712325642799
40
0.571628758749057
40
0.587545191855315
40
0.603461624961573
40
0.611419841514701
40
0.61937805806783
40
0.635294491174088
40
0.651210924280346
40
0.667127357386603
40
0.675085573939732
40
0.683043790492861
40
0.698960223599119
40
0.714876656705376
40
0.722834873258505
40
0.730793089811634
40
0.734772198088199
40
0.738751306364763
40
0.746709522917892
40
0.754667739471021
40
0.76262595602415
40
0.770584172577278
40
0.778542389130407
40
0.786500605683536
40
0.794458822236665
40
0.802417038789794
40
0.810375255342923
40
0.818333471896052
40
0.82629168844918
40
0.842208121555438
40
0.850166338108567
40
0.858124554661696
40
0.866082771214825
40
0.874040987767954
40
0.881999204321082
40
0.889957420874211
40
0.89791563742734
40
0.905873853980469
40
0.921790287086727
40
0.937706720192985
40
0.945664936746113
40
0.953623153299242
40
0.961581369852371
40
0.9695395864055
40
0.977497802958629
40
0.985456019511758
40
0.993414236064887
40
1
40
1
40
1
40
1
41
1
10
-0.394976888875306
20
5.8824691645265
30
0
41
1
10
-0.394976888875306
20
5.96764092579403
30
0
41
1
10
-0.394976888875306
20
6.15502928738746
30
0
41
1
10
-0.394976888875306
20
6.44325210311729
30
0
41
1
10
-0.394976888875306
20
6.74692777135016
30
0
41
1
10
-0.394976888875306
20
7.04859942112893
30
0
41
1
10
-0.394976888875306
20
7.34825961897883
30
0
41
1
10
-0.394976888875306
20
7.64590290818538
30
0
41
1
10
-0.394976888875306
20
7.94152469111091
30
0
41
1
10
-0.394976888875306
20
8.23512137696338
30
0
41
1
10
-0.394976888875306
20
8.52669000819793
30
0
41
1
10
-0.394976888875306
20
8.81622850233529
30
0
41
1
10
-0.394976888875306
20
9.10373490192168
30
0
41
1
10
-0.394976888875306
20
9.3892080699232
30
0
41
1
10
-0.394976888875306
20
9.67264656600767
30
0
41
1
10
-0.394976888875306
20
9.95404991412451
30
0
41
1
10
-0.394976888875306
20
10.2334171055167
30
0
41
1
10
-0.394976888875306
20
10.6032942253079
30
0
41
1
10
-0.394976888875306
20
11.0603255640274
30
0
41
1
10
-0.394976888875306
20
11.51055947116
30
0
41
1
10
-0.394976888875306
20
11.8668345044804
30
0
41
1
10
-0.394976888875306
20
12.1319348240102
30
0
41
1
10
-0.394976888875306
20
12.3949946525974
30
0
41
1
10
-0.394976888875306
20
12.656013614478
30
0
41
1
10
-0.394976888875306
20
12.9149897871743
30
0
41
1
10
-0.394976888875306
20
13.2576504503011
30
0
41
1
10
-0.394976888875306
20
13.595980784257
30
0
41
1
10
-0.394976888875306
20
13.9304519502906
30
0
41
1
10
-0.394976888875306
20
14.1791991341329
30
0
41
1
10
-0.394976888875306
20
14.4258961509421
30
0
41
1
10
-0.394976888875306
20
14.6705410876498
30
0
41
1
10
-0.394976888875306
20
14.9131307556186
30
0
41
1
10
-0.394976888875306
20
15.1536644316209
30
0
41
1
10
-0.394976888875306
20
15.3921387609621
30
0
41
1
10
-0.394976888875306
20
15.6285504084944
30
0
41
1
10
-0.394976888875306
20
15.8238065102557
30
0
41
1
10
-0.394976888875306
20
15.9790378411121
30
0
41
1
10
-0.394976888875306
20
16.1335794000815
30
0
41
1
10
-0.394976888875306
20
16.3253883940748
30
0
41
1
10
-0.394976888875306
20
16.6296334809576
30
0
41
1
10
-0.394976888875306
20
16.9295332745893
30
0
41
1
10
-0.394976888875306
20
17.2254485445637
30
0
41
1
10
-0.394976888875306
20
17.5185779629222
30
0
41
1
10
-0.394976888875306
20
17.8796208110748
30
0
41
1
10
-0.394976888875306
20
18.2336536051105
30
0
41
1
10
-0.394976888875306
20
18.5127557060901
30
0
41
1
10
-0.394976888875306
20
18.789032857947
30
0
41
1
10
-0.394976888875306
20
19.1289452116702
30
0
41
1
10
-0.394976888875306
20
19.4617376778078
30
0
41
1
10
-0.394976888875306
20
19.7237678579095
30
0
41
1
10
-0.394976888875306
20
19.9829235092941
30
0
41
1
10
-0.394976888875306
20
20.3013474418474
30
0
41
1
10
-0.394976888875306
20
20.6748062117951
30
0
41
1
10
-0.394976888875306
20
20.9786637899232
30
0
41
1
10
-0.394976888875306
20
21.2174142726431
30
0
41
1
10
-0.394976888875306
20
21.453205904272
30
0
41
1
10
-0.394976888875306
20
21.7422733615616
30
0
41
1
10
-0.394976888875306
20
22.0802205832225
30
0
41
1
10
-0.394976888875306
20
22.4090991723375
30
0
41
1
10
-0.394976888875306
20
22.728823054511
30
0
41
1
10
-0.394976888875306
20
23.0393009244131
30
0
41
1
10
-0.394976888875306
20
23.2902077684041
30
0
41
1
10
-0.394976888875306
20
23.4862798848862
30
0
41
1
10
-0.394976888875306
20
23.6791846777825
30
0
41
1
10
-0.394976888875306
20
23.9142591485119
30
0
41
1
10
-0.394976888875306
20
24.1867224773567
30
0
41
1
10
-0.394976888875306
20
24.4055794218944
30
0
41
1
10
-0.394976888875306
20
24.5757644878036
30
0
41
1
10
-0.394976888875306
20
24.7426176812545
30
0
41
1
10
-0.394976888875306
20
24.9448199373791
30
0
41
1
10
-0.394976888875306
20
25.1385155212165
30
0
41
1
10
-0.394976888875306
20
25.2883442684716
30
0
41
1
10
-0.394976888875306
20
25.3797753879955
30
0
41
1
10
-0.394976888875306
20
25.4516306650615
30
0
41
1
10
-0.394976888875306
20
25.5226042889744
30
0
41
1
10
-0.394976888875306
20
25.609627837172
30
0
41
1
10
-0.394976888875306
20
25.7113956543375
30
0
41
1
10
-0.394976888875306
20
25.810462475175
30
0
41
1
10
-0.394976888875306
20
25.90680231755
30
0
41
1
10
-0.394976888875306
20
26.0003919407076
30
0
41
1
10
-0.394976888875306
20
26.0912052473129
30
0
41
1
10
-0.394976888875306
20
26.1792140698964
30
0
41
1
10
-0.394976888875306
20
26.2643925590692
30
0
41
1
10
-0.394976888875306
20
26.3467113117502
30
0
41
1
10
-0.394976888875306
20
26.4261397788477
30
0
41
1
10
-0.394976888875306
20
26.5281744083644
30
0
41
1
10
-0.394976888875306
20
26.6242375656596
30
0
41
1
10
-0.394976888875277
20
26.7143277379811
30
0
41
1
10
-0.394976888875277
20
26.7788231109009
30
0
41
1
10
-0.394976888875277
20
26.8402262313527
30
0
41
1
10
-0.394976888875277
20
26.8984983126749
30
0
41
1
10
-0.394976888875277
20
26.953598130865
30
0
41
1
10
-0.394976888875277
20
27.0054853645575
30
0
41
1
10
-0.394976888875277
20
27.0541148220588
30
0
41
1
10
-0.394976888875277
20
27.1145655761239
30
0
41
1
10
-0.394976888875277
20
27.1817216262674
30
0
41
1
10
-0.394976888875277
20
27.2373773347495
30
0
41
1
10
-0.394976888875277
20
27.27479540739
30
0
41
1
10
-0.394976888875277
20
27.2992282088757
30
0
41
1
10
-0.394976888875277
20
27.3199753370632
30
0
41
1
10
-0.394976888875277
20
27.3369711539198
30
0
41
1
10
-0.394976888875277
20
27.3501457877119
30
0
41
1
10
-0.394976888875277
20
27.3594269183726
30
0
41
1
10
-0.394976888875306
20
27.3644317002884
30
0
41
1
10
-0.394976888875306
20
27.3654109959353
30
0
41
1
10
-0.394976888875277
20
27.3653838084661
30
0
0
SPLINE
5
CA
100
AcDbEntity
8
SK1
62
256
6
ByLayer
370
13
48
1
60
0
100
AcDbSpline
70
4
71
3
72
108
73
104
40
0
40
0
40
0
40
0
40
0.0065737197771466
40
0.0145320327913333
40
0.02249034580552
40
0.0304486588197068
40
0.0384069718338935
40
0.0463652848480802
40
0.054323597862267
40
0.0622819108764537
40
0.0781985369048272
40
0.0941151629332007
40
0.102073475947387
40
0.110031788961574
40
0.117990101975761
40
0.125948414989948
40
0.133906728004134
40
0.141865041018321
40
0.149823354032508
40
0.157781667046695
40
0.173698293075068
40
0.181656606089255
40
0.189614919103442
40
0.197573232117628
40
0.205531545131815
40
0.213489858146002
40
0.221448171160189
40
0.229406484174375
40
0.237364797188562
40
0.245323110202749
40
0.253281423216935
40
0.269198049245309
40
0.277156362259496
40
0.285114675273682
40
0.301031301302056
40
0.316947927330429
40
0.324906240344616
40
0.332864553358803
40
0.348781179387176
40
0.36469780541555
40
0.380614431443923
40
0.38857274445811
40
0.396531057472297
40
0.41244768350067
40
0.428364309529044
40
0.444280935557417
40
0.460197561585791
40
0.476114187614164
40
0.492030813642538
40
0.499989126656725
40
0.507947439670911
40
0.523864065699285
40
0.539780691727658
40
0.555697317756032
40
0.563655630770218
40
0.571613943784405
40
0.587530569812779
40
0.603447195841152
40
0.611405508855339
40
0.619363821869526
40
0.635280447897899
40
0.651197073926273
40
0.659155386940459
40
0.667113699954646
40
0.683030325983019
40
0.690988638997206
40
0.698946952011393
40
0.70690526502558
40
0.714863578039767
40
0.722821891053953
40
0.73078020406814
40
0.738738517082327
40
0.746696830096513
40
0.7546551431107
40
0.762613456124887
40
0.770571769139074
40
0.77853008215326
40
0.794446708181634
40
0.802405021195821
40
0.810363334210007
40
0.818321647224194
40
0.826279960238381
40
0.834238273252568
40
0.842196586266754
40
0.858113212295128
40
0.866071525309315
40
0.874029838323501
40
0.881988151337688
40
0.889946464351875
40
0.897904777366061
40
0.905863090380248
40
0.913821403394435
40
0.921779716408622
40
0.929738029422808
40
0.937696342436995
40
0.945654655451182
40
0.953612968465369
40
0.961571281479555
40
0.969529594493742
40
0.977487907507929
40
0.985446220522116
40
0.993404533536302
40
1
40
1
40
1
40
1
41
1
10
-0.394976888875306
20
-27.3653839590638
30
0
41
1
10
-0.394976888875277
20
-27.3654093419053
30
0
41
1
10
-0.394976888875249
20
-27.3644289490069
30
0
41
1
10
-0.394976888875277
20
-27.3594269422325
30
0
41
1
10
-0.394976888875277
20
-27.3501458297252
30
0
41
1
10
-0.394976888875277
20
-27.3369711498757
30
0
41
1
10
-0.394976888875277
20
-27.3199753422425
30
0
41
1
10
-0.394976888875277
20
-27.299228260346
30
0
41
1
10
-0.394976888875277
20
-27.2747954442536
30
0
41
1
10
-0.394976888875277
20
-27.2373772549269
30
0
41
1
10
-0.394976888875277
20
-27.1817216133088
30
0
41
1
10
-0.394976888875277
20
-27.1145655815875
30
0
41
1
10
-0.394976888875277
20
-27.0541147524053
30
0
41
1
10
-0.394976888875277
20
-27.0054853002076
30
0
41
1
10
-0.394976888875277
20
-26.9535980812345
30
0
41
1
10
-0.394976888875277
20
-26.8984983240354
30
0
41
1
10
-0.394976888875277
20
-26.8402262140422
30
0
41
1
10
-0.394976888875277
20
-26.778823083505
30
0
41
1
10
-0.394976888875277
20
-26.7143277513073
30
0
41
1
10
-0.394976888875306
20
-26.6242375172272
30
0
41
1
10
-0.394976888875306
20
-26.5281744271217
30
0
41
1
10
-0.394976888875306
20
-26.4261397450501
30
0
41
1
10
-0.394976888875306
20
-26.3467113173234
30
0
41
1
10
-0.394976888875306
20
-26.2643925510642
30
0
41
1
10
-0.394976888875306
20
-26.1792140413985
30
0
41
1
10
-0.394976888875306
20
-26.0912052550724
30
0
41
1
10
-0.394976888875306
20
-26.0003919383211
30
0
41
1
10
-0.394976888875306
20
-25.9068022246068
30
0
41
1
10
-0.394976888875306
20
-25.810462366076
30
0
41
1
10
-0.394976888875306
20
-25.7113960827791
30
0
41
1
10
-0.394976888875306
20
-25.5756766141878
30
0
41
1
10
-0.394976888875306
20
-25.4346883615025
30
0
41
1
10
-0.394976888875306
20
-25.2883441368503
30
0
41
1
10
-0.394976888875306
20
-25.1385155622326
30
0
41
1
10
-0.394976888875306
20
-24.9448199449114
30
0
41
1
10
-0.394976888875306
20
-24.7426176867451
30
0
41
1
10
-0.394976888875306
20
-24.5757644956798
30
0
41
1
10
-0.394976888875306
20
-24.4055794195024
30
0
41
1
10
-0.394976888875306
20
-24.1867224862229
30
0
41
1
10
-0.394976888875306
20
-23.9142591539289
30
0
41
1
10
-0.394976888875306
20
-23.6791846798372
30
0
41
1
10
-0.394976888875306
20
-23.4862798879298
30
0
41
1
10
-0.394976888875306
20
-23.2902077752037
30
0
41
1
10
-0.394976888875306
20
-23.0393009260323
30
0
41
1
10
-0.394976888875306
20
-22.7288230573926
30
0
41
1
10
-0.394976888875306
20
-22.4090991764391
30
0
41
1
10
-0.394976888875306
20
-22.0802205845281
30
0
41
1
10
-0.394976888875306
20
-21.7422733658897
30
0
41
1
10
-0.394976888875306
20
-21.4532059051397
30
0
41
1
10
-0.394976888875306
20
-21.2174142750283
30
0
41
1
10
-0.394976888875306
20
-20.9786637930718
30
0
41
1
10
-0.394976888875306
20
-20.6748062131765
30
0
41
1
10
-0.394976888875306
20
-20.3013474407322
30
0
41
1
10
-0.394976888875306
20
-19.98292351444
30
0
41
1
10
-0.394976888875306
20
-19.7237678591314
30
0
41
1
10
-0.394976888875306
20
-19.4617376771832
30
0
41
1
10
-0.394976888875306
20
-19.1289452123206
30
0
41
1
10
-0.394976888875306
20
-18.7890328610688
30
0
41
1
10
-0.394976888875306
20
-18.5127557087222
30
0
41
1
10
-0.394976888875306
20
-18.2336536000934
30
0
41
1
10
-0.394976888875306
20
-17.8796208126314
30
0
41
1
10
-0.394976888875306
20
-17.518577967088
30
0
41
1
10
-0.394976888875306
20
-17.2254485394535
30
0
41
1
10
-0.394976888875306
20
-16.9295333224765
30
0
41
1
10
-0.394976888875306
20
-16.6296334992457
30
0
41
1
10
-0.394976888875306
20
-16.3253880002473
30
0
41
1
10
-0.394976888875306
20
-16.0951789631496
30
0
41
1
10
-0.394976888875306
20
-15.8628987186173
30
0
41
1
10
-0.394976888875306
20
-15.6285506275557
30
0
41
1
10
-0.394976888875306
20
-15.3921386948648
30
0
41
1
10
-0.394976888875306
20
-15.1536643460738
30
0
41
1
10
-0.394976888875306
20
-14.9131307685779
30
0
41
1
10
-0.394976888875306
20
-14.6705410811659
30
0
41
1
10
-0.394976888875306
20
-14.4258961711575
30
0
41
1
10
-0.394976888875306
20
-14.1791991512309
30
0
41
1
10
-0.394976888875306
20
-13.9304519465026
30
0
41
1
10
-0.394976888875306
20
-13.5959808223858
30
0
41
1
10
-0.394976888875306
20
-13.2576504430446
30
0
41
1
10
-0.394976888875306
20
-12.9149898191478
30
0
41
1
10
-0.394976888875306
20
-12.6560136616419
30
0
41
1
10
-0.394976888875306
20
-12.394994711819
30
0
41
1
10
-0.394976888875306
20
-12.1319348433318
30
0
41
1
10
-0.394976888875306
20
-11.8668344908947
30
0
41
1
10
-0.394976888875306
20
-11.510559499462
30
0
41
1
10
-0.394976888875306
20
-11.1504804686583
30
0
41
1
10
-0.394976888875306
20
-10.7860413322607
30
0
41
1
10
-0.394976888875306
20
-10.5107477406376
30
0
41
1
10
-0.394976888875306
20
-10.2334171002114
30
0
41
1
10
-0.394976888875306
20
-9.95404994902185
30
0
41
1
10
-0.394976888875306
20
-9.67264665656018
30
0
41
1
10
-0.394976888875306
20
-9.38920804768813
30
0
41
1
10
-0.394976888875306
20
-9.10373459403795
30
0
41
1
10
-0.394976888875306
20
-8.81622852741523
30
0
41
1
10
-0.394976888875306
20
-8.52669016160959
30
0
41
1
10
-0.394976888875306
20
-8.23512129465951
30
0
41
1
10
-0.394976888875306
20
-7.94152452378472
30
0
41
1
10
-0.394976888875306
20
-7.6459029106087
30
0
41
1
10
-0.394976888875306
20
-7.34825967305403
30
0
41
1
10
-0.394976888875306
20
-7.04859940546743
30
0
41
1
10
-0.394976888875306
20
-6.74692776639381
30
0
41
1
10
-0.394976888875306
20
-6.44325211457954
30
0
41
1
10
-0.394976888875306
20
-6.15502922001536
30
0
41
1
10
-0.394976888875306
20
-5.96764081676275
30
0
41
1
10
-0.394976888875306
20
-5.88246902087042
30
0
0
SPLINE
5
CB
100
AcDbEntity
8
SK1
62
256
6
ByLayer
370
18
48
1
60
0
100
AcDbSpline
70
4
71
3
72
22
73
18
40
0
40
0
40
0
40
0
40
0.25
40
0.25
40
0.3125
40
0.3125
40
0.375
40
0.375
40
0.5
40
0.5
40
0.625
40
0.625
40
0.6875
40
0.6875
40
0.75
40
0.75
40
1
40
1
40
1
40
1
41
1
10
-1.30710678118655
20
4.39323937970207
30
-1E-16
41
1
10
-1.43200052969661
20
3.68760078156765
30
-1E-16
41
1
10
-1.54096915123304
20
2.97036065166398
30
-1E-16
41
1
10
-1.63962286912499
20
2.05292564755396
30
-1E-16
41
1
10
-1.65743175171485
20
1.8683765568494
30
-1E-16
41
1
10
-1.68862850343609
20
1.4969353831012
30
-1E-16
41
1
10
-1.70203107558439
20
1.30957156780747
30
-1E-16
41
1
10
-1.73448227948862
20
0.747398775749133
30
-1E-16
41
1
10
-1.7456652473125
20
0.373309638071788
30
-1E-16
41
1
10
-1.74566298261817
20
-0.373423897839444
30
-1E-16
41
1
10
-1.73448345443984
20
-0.746068577695695
30
-1E-16
41
1
10
-1.70238872850291
20
-1.30401975761953
30
-1E-16
41
1
10
-1.6891642602298
20
-1.48983541056799
30
-1E-16
41
1
10
-1.65809696113621
20
-1.86115004723774
30
-1E-16
41
1
10
-1.64022877292871
20
-2.0469274623126
30
-1E-16
41
1
10
-1.54131598259153
20
-2.96856392861614
30
-1E-16
41
1
10
-1.43205802899382
20
-3.68727509970665
30
-1E-16
41
1
10
-1.30710678118658
20
-4.39323915389227
30
-1E-16
0
SPLINE
5
CC
100
AcDbEntity
8
SK1
62
256
6
ByLayer
370
18
48
1
60
0
100
AcDbSpline
70
4
71
3
72
24
73
20
40
0
40
0
40
0
40
0
40
0.0625000000000053
40
0.0625000000000053
40
0.0937500000000062
40
0.0937500000000062
40
0.125000000000007
40
0.125000000000007
40
0.187500000000007
40
0.187500000000007
40
0.250000000000006
40
0.250000000000006
40
0.375000000000005
40
0.375000000000005
40
0.500000000000004
40
0.500000000000004
40
0.750000000000002
40
0.750000000000002
40
1
40
1
40
1
40
1
41
1
10
-0.394976888875306
20
5.8824691645265
30
0
41
1
10
-0.382350069157496
20
5.87167298403497
30
0
41
1
10
-0.366613896349804
20
5.86327777511374
30
0
41
1
10
-0.341634356786017
20
5.86524569625414
30
0
41
1
10
-0.33339701162032
20
5.86838955924898
30
0
41
1
10
-0.318988631583068
20
5.87770695780827
30
0
41
1
10
-0.312743382214563
20
5.88369895138624
30
0
41
1
10
-0.296018369933137
20
5.90340879022776
30
0
41
1
10
-0.287605201971957
20
5.9185116313715
30
0
41
1
10
-0.273097316105805
20
5.9495412330034
30
0
41
1
10
-0.267167369392268
20
5.96542317564121
30
0
41
1
10
-0.251432668896797
20
6.0136318735623
30
0
41
1
10
-0.243675661567949
20
6.04657147511207
30
0
41
1
10
-0.230718056341715
20
6.11291108254431
30
0
41
1
10
-0.225653098735904
20
6.14608265895734
30
0
41
1
10
-0.212997246629669
20
6.24556878217334
30
0
41
1
10
-0.207912798922962
20
6.31185420825219
30
0
41
1
10
-0.201370158980382
20
6.44430304126934
30
0
41
1
10
-0.200000000000131
20
6.51046842154437
30
0
41
1
10
-0.200000000000131
20
6.5765733851174
30
0
0
SPLINE
5
CD
100
AcDbEntity
8
SK1
62
256
6
ByLayer
370
18
48
1
60
0
100
AcDbSpline
70
4
71
3
72
24
73
20
40
0
40
0
40
0
40
0
40
0.249999999999995
40
0.249999999999995
40
0.49999999999999
40
0.49999999999999
40
0.624999999999989
40
0.624999999999989
40
0.749999999999989
40
0.749999999999989
40
0.812499999999991
40
0.812499999999991
40
0.874999999999992
40
0.874999999999992
40
0.906249999999993
40
0.906249999999993
40
0.937499999999994
40
0.937499999999994
40
1
40
1
40
1
40
1
41
1
10
-0.199999999999989
20
-6.57657332251966
30
0
41
1
10
-0.199999999999989
20
-6.51045005265189
30
0
41
1
10
-0.201370223899318
20
-6.44422604141062
30
0
41
1
10
-0.207931565681093
20
-6.31154981196997
30
0
41
1
10
-0.213034744860863
20
-6.24506994782283
30
0
41
1
10
-0.225773826026625
20
-6.14523693213599
30
0
41
1
10
-0.230865993702281
20
-6.11204321968498
30
0
41
1
10
-0.243817490224075
20
-6.04595778475249
30
0
41
1
10
-0.25160941149116
20
-6.01299451379086
30
0
41
1
10
-0.26731118443891
20
-5.96503123140513
30
0
41
1
10
-0.273219353624143
20
-5.94926493252871
30
0
41
1
10
-0.28758209198395
20
-5.91857610087365
30
0
41
1
10
-0.296059368926222
20
-5.90333821711971
30
0
41
1
10
-0.312820576486047
20
-5.88361899214846
30
0
41
1
10
-0.319036350199639
20
-5.87767263152895
30
0
41
1
10
-0.333385369898622
20
-5.86840030244355
30
0
41
1
10
-0.341627499784664
20
-5.86524528836296
30
0
41
1
10
-0.366640861536695
20
-5.86327716887266
30
0
41
1
10
-0.3823468451439
20
-5.87167009312168
30
0
41
1
10
-0.394976888875476
20
-5.88246902087073
30
0
0
LINE
5
72
100
AcDbEntity
8
81
62
256
6
ByLayer
370
18
48
1
60
0
100
AcDbLine
10
80
20
0
30
0
11
82.367097
21
0
31
0
39
0
210
0
220
0
230
1
0
LINE
5
73
100
AcDbEntity
8
1
62
256
6
ByLayer
370
18
48
1
60
0
100
AcDbLine
10
0.3
20
-40
30
0
11
30.189546
21
-40
31
0
39
0
210
0
220
0
230
1
0
LINE
5
74
100
AcDbEntity
8
80
62
256
6
ByLayer
370
18
48
1
60
0
100
AcDbLine
10
0
20
0
30
0
11
-6.08897
21
0
31
0
39
0
210
0
220
0
230
1
0
LINE
5
75
100
AcDbEntity
8
4
62
256
6
ByLayer
370
18
48
0.05
60
0
100
AcDbLine
10
0
20
0
30
0
11
80
21
0
31
0
39
0
210
0
220
0
230
1
0
LINE
5
77
100
AcDbEntity
8
1
62
256
6
ByLayer
370
18
48
1
60
0
100
AcDbLine
10
30.189546
20
40
30
0
11
0.3
21
40
31
0
39
0
210
0
220
0
230
1
0
LINE
5
78
100
AcDbEntity
8
1
62
256
6
ByLayer
370
18
48
1
60
0
100
AcDbLine
10
0.3
20
40
30
0
11
0
21
39.7
31
0
39
0
210
0
220
0
230
1
0
LINE
5
79
100
AcDbEntity
8
1
62
256
6
ByLayer
370
18
48
1
60
0
100
AcDbLine
10
0
20
-39.7
30
0
11
0.3
21
-40
31
0
39
0
210
0
220
0
230
1
0
LINE
5
7A
100
AcDbEntity
8
1
62
256
6
ByLayer
370
18
48
1
60
0
100
AcDbLine
10
30.961163
20
-39.411205
30
0
11
32.5
21
-33.789201
31
0
39
0
210
0
220
0
230
1
0
LINE
5
7B
100
AcDbEntity
8
1
62
256
6
ByLayer
370
18
48
1
60
0
100
AcDbLine
10
32.5
20
33.789201
30
0
11
30.961163
21
39.411205
31
0
39
0
210
0
220
0
230
1
0
LINE
5
7C
100
AcDbEntity
8
1
62
256
6
ByLayer
370
18
48
1
60
0
100
AcDbLine
10
35.5
20
-31.5
30
0
11
79.7
21
-31.5
31
0
39
0
210
0
220
0
230
1
0
LINE
5
7D
100
AcDbEntity
8
1
62
256
6
ByLayer
370
18
48
1
60
0
100
AcDbLine
10
79.7
20
31.5
30
0
11
35.5
21
31.5
31
0
39
0
210
0
220
0
230
1
0
LINE
5
7E
100
AcDbEntity
8
1
62
256
6
ByLayer
370
18
48
1
60
0
100
AcDbLine
10
79.7
20
-31.5
30
0
11
80
21
-31.2
31
0
39
0
210
0
220
0
230
1
0
LINE
5
7F
100
AcDbEntity
8
1
62
256
6
ByLayer
370
18
48
1
60
0
100
AcDbLine
10
80
20
31.2
30
0
11
79.7
21
31.5
31
0
39
0
210
0
220
0
230
1
0
LINE
5
80
100
AcDbEntity
8
SK1
62
256
6
ByLayer
370
18
48
1
60
0
100
AcDbLine
10
85.2
20
-10
30
0
11
86.7
21
-8.5
31
0
39
0
210
0
220
0
230
1
0
LINE
5
82
100
AcDbEntity
8
SK1
62
256
6
ByLayer
370
18
48
1
60
0
100
AcDbLine
10
86.7
20
8.5
30
0
11
85.2
21
10
31
0
39
0
210
0
220
0
230
1
0
LINE
5
83
100
AcDbEntity
8
SK1
62
256
6
ByLayer
370
18
48
1
60
0
100
AcDbLine
10
85.2
20
10
30
0
11
80
21
10
31
0
39
0
210
0
220
0
230
1
0
LINE
5
84
100
AcDbEntity
8
SK1
62
256
6
ByLayer
370
18
48
1
60
0
100
AcDbLine
10
80
20
-10
30
0
11
85.2
21
-10
31
0
39
0
210
0
220
0
230
1
0
LINE
5
85
100
AcDbEntity
8
SK4
62
256
6
ByLayer
370
18
48
0.05
60
0
100
AcDbLine
10
-53
20
0
30
0
11
85
21
0
31
0
39
0
210
0
220
0
230
1
0
LINE
5
87
100
AcDbEntity
8
SK1
62
256
6
ByLayer
370
18
48
1
60
0
100
AcDbLine
10
85.2
20
-10
30
0
11
85.2
21
10
31
0
39
0
210
0
220
0
230
1
0
LINE
5
88
100
AcDbEntity
8
SK1
62
256
6
ByLayer
370
18
48
1
60
0
100
AcDbLine
10
86.7
20
-8.5
30
0
11
86.7
21
8.5
31
0
39
0
210
0
220
0
230
1
0
LINE
5
89
100
AcDbEntity
8
1
62
256
6
ByLayer
370
18
48
1
60
0
100
AcDbLine
10
0
20
0
30
0
11
0
21
39.7
31
0
39
0
210
0
220
0
230
1
0
LINE
5
8A
100
AcDbEntity
8
1
62
256
6
ByLayer
370
18
48
1
60
0
100
AcDbLine
10
0
20
-39.7
30
0
11
0
21
0
31
0
39
0
210
0
220
0
230
1
0
LINE
5
8B
100
AcDbEntity
8
1
62
256
6
ByLayer
370
18
48
1
60
0
100
AcDbLine
10
10.538675
20
-38.115458
30
0
11
13.461325
21
-38.115458
31
0
39
0
210
0
220
0
230
1
0
LINE
5
8C
100
AcDbEntity
8
1
62
256
6
ByLayer
370
13
48
1
60
0
100
AcDbLine
10
30.961163
20
39.411205
30
0
11
30.961163
21
-39.411205
31
0
39
0
210
0
220
0
230
1
0
LINE
5
8D
100
AcDbEntity
8
1
62
256
6
ByLayer
370
18
48
1
60
0
100
AcDbLine
10
13.461325
20
38.115458
30
0
11
10.538675
21
38.115458
31
0
39
0
210
0
220
0
230
1
0
LINE
5
8E
100
AcDbEntity
8
1
62
256
6
ByLayer
370
13
48
1
60
0
100
AcDbLine
10
10.538675
20
-12.13309
30
0
11
10.538675
21
-38.115458
31
0
39
0
210
0
220
0
230
1
0
LINE
5
8F
100
AcDbEntity
8
1
62
256
6
ByLayer
370
13
48
1
60
0
100
AcDbLine
10
10.538675
20
38.115458
30
0
11
10.538675
21
12.13309
31
0
39
0
210
0
220
0
230
1
0
LINE
5
90
100
AcDbEntity
8
1
62
256
6
ByLayer
370
18
48
1
60
0
100
AcDbLine
10
80
20
0
30
0
11
80
21
31.2
31
0
39
0
210
0
220
0
230
1
0
LINE
5
91
100
AcDbEntity
8
1
62
256
6
ByLayer
370
18
48
1
60
0
100
AcDbLine
10
80
20
-31.2
30
0
11
80
21
0
31
0
39
0
210
0
220
0
230
1
0
LINE
5
92
100
AcDbEntity
8
1
62
256
6
ByLayer
370
13
48
1
60
0
100
AcDbLine
10
10.105662
20
-12.6576
30
0
11
10.105662
21
-37.944501
31
0
39
0
210
0
220
0
230
1
0
LINE
5
93
100
AcDbEntity
8
1
62
256
6
ByLayer
370
13
48
1
60
0
100
AcDbLine
10
13.894338
20
37.944501
30
0
11
13.894338
21
12.6576
31
0
39
0
210
0
220
0
230
1
0
LINE
5
94
100
AcDbEntity
8
1
62
256
6
ByLayer
370
13
48
1
60
0
100
AcDbLine
10
10.105662
20
37.944501
30
0
11
10.105662
21
12.6576
31
0
39
0
210
0
220
0
230
1
0
LINE
5
95
100
AcDbEntity
8
1
62
256
6
ByLayer
370
18
48
1
60
0
100
AcDbLine
10
79.7
20
0
30
0
11
79.7
21
31.5
31
0
39
0
210
0
220
0
230
1
0
LINE
5
96
100
AcDbEntity
8
1
62
256
6
ByLayer
370
18
48
1
60
0
100
AcDbLine
10
79.7
20
-31.5
30
0
11
79.7
21
0
31
0
39
0
210
0
220
0
230
1
0
LINE
5
97
100
AcDbEntity
8
1
62
256
6
ByLayer
370
13
48
1
60
0
100
AcDbLine
10
13.894338
20
-12.6576
30
0
11
13.894338
21
-37.944501
31
0
39
0
210
0
220
0
230
1
0
LINE
5
98
100
AcDbEntity
8
1
62
256
6
ByLayer
370
13
48
1
60
0
100
AcDbLine
10
13.461325
20
38.115458
30
0
11
13.461325
21
12.13309
31
0
39
0
210
0
220
0
230
1
0
LINE
5
99
100
AcDbEntity
8
1
62
256
6
ByLayer
370
13
48
1
60
0
100
AcDbLine
10
35.5
20
0
30
0
11
35.5
21
31.5
31
0
39
0
210
0
220
0
230
1
0
LINE
5
9A
100
AcDbEntity
8
1
62
256
6
ByLayer
370
13
48
1
60
0
100
AcDbLine
10
35.5
20
-31.5
30
0
11
35.5
21
0
31
0
39
0
210
0
220
0
230
1
0
LINE
5
9B
100
AcDbEntity
8
1
62
256
6
ByLayer
370
18
48
1
60
0
100
AcDbLine
10
13.461325
20
-12.13309
30
0
11
10.538675
21
-12.13309
31
0
39
0
210
0
220
0
230
1
0
LINE
5
9C
100
AcDbEntity
8
1
62
256
6
ByLayer
370
18
48
1
60
0
100
AcDbLine
10
10.538675
20
12.13309
30
0
11
13.461325
21
12.13309
31
0
39
0
210
0
220
0
230
1
0
LINE
5
9D
100
AcDbEntity
8
1
62
256
6
ByLayer
370
18
48
1
60
0
100
AcDbLine
10
0.3
20
0
30
0
11
0.3
21
40
31
0
39
0
210
0
220
0
230
1
0
LINE
5
9E
100
AcDbEntity
8
1
62
256
6
ByLayer
370
18
48
1
60
0
100
AcDbLine
10
0.3
20
-40
30
0
11
0.3
21
0
31
0
39
0
210
0
220
0
230
1
0
LINE
5
9F
100
AcDbEntity
8
1
62
256
6
ByLayer
370
13
48
1
60
0
100
AcDbLine
10
13.461325
20
-12.13309
30
0
11
13.461325
21
-38.115458
31
0
39
0
210
0
220
0
230
1
0
LINE
5
A0
100
AcDbEntity
8
1
62
256
6
ByLayer
370
13
48
1
60
0
100
AcDbLine
10
32.5
20
0
30
0
11
32.5
21
33.789201
31
0
39
0
210
0
220
0
230
1
0
LINE
5
A1
100
AcDbEntity
8
1
62
256
6
ByLayer
370
13
48
1
60
0
100
AcDbLine
10
32.5
20
-33.789201
30
0
11
32.5
21
0
31
0
39
0
210
0
220
0
230
1
0
LINE
5
A2
100
AcDbEntity
8
1
62
256
6
ByLayer
370
13
48
1
60
0
100
AcDbLine
10
30.189546
20
0
30
0
11
30.189546
21
40
31
0
39
0
210
0
220
0
230
1
0
LINE
5
A3
100
AcDbEntity
8
1
62
256
6
ByLayer
370
13
48
1
60
0
100
AcDbLine
10
30.189546
20
-40
30
0
11
30.189546
21
0
31
0
39
0
210
0
220
0
230
1
0
LINE
5
A4
100
AcDbEntity
8
SK1
62
256
6
ByLayer
370
18
48
1
60
0
100
AcDbLine
10
-0.2
20
6.576573
30
0
11
-0.2
21
28.683485
31
0
39
0
210
0
220
0
230
1
0
LINE
5
A5
100
AcDbEntity
8
SK1
62
256
6
ByLayer
370
13
48
1
60
0
100
AcDbLine
10
-1.307107
20
-4.393239
30
0
11
-1.307107
21
4.393239
31
0
39
0
210
0
220
0
230
1
0
LINE
5
A6
100
AcDbEntity
8
SK1
62
256
6
ByLayer
370
18
48
1
60
0
100
AcDbLine
10
-0.2
20
-28.683485
30
0
11
-0.2
21
-6.576573
31
0
39
0
210
0
220
0
230
1
0
MTEXT
5
CE
100
AcDbEntity
8
SK6
62
256
6
ByLayer
370
18
48
1
60
0
100
AcDbMText
10
0.875
20
-55.875
30
0
210
0
220
0
230
1
1
\W0.7298;C8-391.02-63080B
40
3.5
41
0
44
1.084337
50
0
71
7
72
5
7
iso_b_vert
0
DIMENSION
5
DC
100
AcDbEntity
8
SK2
62
256
6
ByLayer
370
13
48
1
60
0
100
AcDbDimension
2
DimnDraft3D1
10
30
20
46.6
30
0
11
12.955263
21
46.6
31
0
70
32
71
5
72
1
41
1
210
0
220
0
230
1
3
Standard
100
AcDbAlignedDimension
13
0
23
41.5875
33
0
14
30
24
41.5875
34
0
50
0
100
AcDbRotatedDimension
1001
ACAD
1000
DSTYLE
1002
{
1070
   279
1070
     0
1070
   172
1070
     1
1070
   173
1070
     1
1070
   340
1005
CF
1070
   271
1070
     1
1070
   272
1070
     2
1070
    77
1070
     1
1070
    73
1070
     0
1070
   171
1070
     3
1070
   274
1070
     4
1070
   177
1070
     2
1070
   176
1070
     2
1070
   178
1070
     2
1070
    78
1070
     8
1070
    48
1040
-0.005
1070
    41
1041
3.5
1070
   147
1041
1.75
1070
    42
1041
1.5875
1070
    44
1041
2.0
1070
   140
1041
3.5
1070
   343
1005
0
1070
   344
1005
0
1002
}
0
DIMENSION
5
E6
100
AcDbEntity
8
SK2
62
256
6
ByLayer
370
13
48
1
60
0
100
AcDbDimension
2
DimnDraft3D2
10
35.5
20
56.6
30
0
11
53.457895
21
56.6
31
0
70
32
71
5
72
1
41
1
210
0
220
0
230
1
3
Standard
100
AcDbAlignedDimension
13
80
23
33.0875
33
0
14
35.5
24
33.0875
34
0
50
0
100
AcDbRotatedDimension
1001
ACAD
1000
DSTYLE
1002
{
1070
   279
1070
     0
1070
   172
1070
     1
1070
   173
1070
     1
1070
   340
1005
CF
1070
   271
1070
     1
1070
   272
1070
     2
1070
    77
1070
     1
1070
    73
1070
     0
1070
   171
1070
     3
1070
   274
1070
     4
1070
   177
1070
     2
1070
   176
1070
     2
1070
   178
1070
     2
1070
    78
1070
     8
1070
    48
1040
-0.005
1070
    41
1041
3.5
1070
   147
1041
1.75
1070
    42
1041
1.5875
1070
    44
1041
2.0
1070
   140
1041
3.5
1070
   343
1005
0
1070
   344
1005
0
1002
}
0
DIMENSION
5
F1
100
AcDbEntity
8
2
62
256
6
ByLayer
370
13
48
1
60
0
100
AcDbDimension
2
DimnDraft3D3
10
0
20
66.6
30
0
11
37.955263
21
66.6
31
0
70
32
71
5
72
1
41
1
210
0
220
0
230
1
3
Standard
100
AcDbAlignedDimension
13
80
23
33.0875
33
0
14
0
24
41.5875
34
0
50
0
100
AcDbRotatedDimension
1001
ACAD
1000
DSTYLE
1002
{
1070
   279
1070
     0
1070
   172
1070
     1
1070
   173
1070
     1
1070
   340
1005
CF
1070
   271
1070
     1
1070
   272
1070
     2
1070
    77
1070
     1
1070
    73
1070
     0
1070
   171
1070
     3
1070
   274
1070
     4
1070
   177
1070
     2
1070
   176
1070
     2
1070
   178
1070
     2
1070
    78
1070
     8
1070
    48
1040
-0.005
1070
    41
1041
3.5
1070
   147
1041
1.75
1070
    42
1041
1.5875
1070
    44
1041
2.0
1070
   140
1041
3.5
1070
   343
1005
0
1070
   344
1005
0
1002
}
0
DIMENSION
5
FB
100
AcDbEntity
8
SK2
62
256
6
ByLayer
370
13
48
1
60
0
100
AcDbDimension
2
DimnDraft3D4
10
0
20
66.6
30
0
11
-26.275
21
66.6
31
0
70
32
71
5
72
1
41
1
210
0
220
0
230
1
3
Standard
100
AcDbAlignedDimension
13
-48
23
29.0875
33
0
14
0
24
41.5875
34
0
50
0
100
AcDbRotatedDimension
1001
ACAD
1000
DSTYLE
1002
{
1070
   279
1070
     0
1070
   172
1070
     1
1070
   173
1070
     1
1070
   340
1005
CF
1070
   271
1070
     1
1070
   272
1070
     2
1070
    77
1070
     1
1070
    73
1070
     0
1070
   171
1070
     3
1070
   274
1070
     4
1070
   177
1070
     2
1070
   176
1070
     2
1070
   178
1070
     2
1070
    78
1070
     8
1070
    48
1040
-0.005
1070
    41
1041
3.5
1070
   147
1041
1.75
1070
    42
1041
1.5875
1070
    44
1041
2.0
1070
   140
1041
3.5
1070
   343
1005
0
1070
   344
1005
0
1002
}
0
DIMENSION
5
106
100
AcDbEntity
8
SK2
62
256
6
ByLayer
370
13
48
1
60
0
100
AcDbDimension
2
DimnDraft3D5
10
-71.6
20
-40
30
0
11
-72.225
21
1.455263
31
0
70
33
71
5
72
1
41
1
210
0
220
0
230
1
3
Standard
100
AcDbAlignedDimension
13
-1.5875
23
40
33
0
14
-1.5875
24
-40
34
0
1001
ACAD
1000
DSTYLE
1002
{
1070
   279
1070
     0
1070
    74
1070
     0
1070
   173
1070
     1
1070
   340
1005
CF
1070
   271
1070
     1
1070
   272
1070
     2
1070
    77
1070
     1
1070
    73
1070
     0
1070
   171
1070
     3
1070
   274
1070
     4
1070
   177
1070
     2
1070
   176
1070
     2
1070
   178
1070
     2
1070
    78
1070
     8
1070
    48
1040
-0.005
1070
    41
1041
3.5
1070
   147
1041
1.75
1070
    42
1041
1.5875
1070
    44
1041
2.0
1070
   140
1041
3.5
1070
   343
1005
0
1070
   344
1005
0
1002
}
0
DIMENSION
5
111
100
AcDbEntity
8
SK2
62
256
6
ByLayer
370
13
48
1
60
0
100
AcDbDimension
2
DimnDraft3D6
10
108.8
20
-31.5
30
0
11
104.175
21
1.455263
31
0
70
33
71
5
72
1
41
1
210
0
220
0
230
1
3
Standard
100
AcDbAlignedDimension
13
81.5875
23
31.5
33
0
14
81.5875
24
-31.5
34
0
1001
ACAD
1000
DSTYLE
1002
{
1070
   279
1070
     0
1070
    74
1070
     0
1070
   173
1070
     1
1070
   340
1005
CF
1070
   271
1070
     1
1070
   272
1070
     2
1070
    77
1070
     1
1070
    73
1070
     0
1070
   171
1070
     3
1070
   274
1070
     4
1070
   177
1070
     2
1070
   176
1070
     2
1070
   178
1070
     2
1070
    78
1070
     8
1070
    48
1040
-0.005
1070
    41
1041
3.5
1070
   147
1041
1.75
1070
    42
1041
1.5875
1070
    44
1041
2.0
1070
   140
1041
3.5
1070
   343
1005
0
1070
   344
1005
0
1002
}
0
ENDSEC
0
SECTION
2
OBJECTS
0
DICTIONARY
5
17c
330
0
100
AcDbDictionary
280
0
281
1
3
ACAD_GROUP
350
17d
3
ACAD_MLINESTYLE
350
17e
0
DICTIONARY
5
17d
330
0
100
AcDbDictionary
280
0
281
1
0
DICTIONARY
5
17e
330
0
100
AcDbDictionary
280
0
281
1
3
Standard
350
18
0
MLINESTYLE
5
18
330
17e
100
AcDbMlineStyle
2
Standard
70
0
3

62
256
51
90
52
90
71
2
49
-0.5
62
256
6
ByLayer
49
0.5
62
256
6
ByLayer
0
RASTERVARIABLES
5
16a
330

100
AcDbRasterVariables
90
0
70
1
71
1
72
1
0
ENDSEC
0
EOF
