0
SECTION
2
HEADER
9
$ACADVER
1
AC1015
9
$DWGCODEPAGE
3
ANSI_1252
9
$HANDSEED
5
17d
9
$ANGBASE
50
0
9
$ANGDIR
70
0
9
$ATTMODE
70
1
9
$AUNITS
70
0
9
$AUPREC
70
0
9
$CECOLOR
62
256
9
$CELTSCALE
40
1
9
$CELTYPE
6
ByLayer
9
$CELWEIGHT
370
-1
9
$CLAYER
8
0
9
$CMLJUST
70
0
9
$CMLSCALE
40
1
9
$CMLSTYLE
2
Standard
9
$DIMSTYLE
2
Standard
9
$TEXTSIZE
40
0.2
9
$TEXTSTYLE
7
Standard
9
$LUNITS
70
2
9
$LUPREC
70
4
9
$EXTNAMES
290
1
9
$INSUNITS
70
4
9
$LTSCALE
40
1
9
$LWDISPLAY
290
0
9
$PDMODE
70
0
9
$PDSIZE
40
0
9
$PLINEGEN
70
0
0
ENDSEC
0
SECTION
2
CLASSES
0
CLASS
1
RASTERVARIABLES
2
AcDbRasterVariables
3
ISM
90
0
280
0
281
0
0
ENDSEC
0
SECTION
2
TABLES
0
TABLE
2
VPORT
5
173
100
AcDbSymbolTable
0
VPORT
5
1
100
AcDbSymbolTableRecord
100
AcDbViewportTableRecord
2
*Active
70
0
10
0
20
0
11
1
21
1
12
-1
22
1
13
0
23
0
14
0.5
24
0.5
15
10
25
10
16
0
26
0
36
1
17
0
27
0
37
0
0
ENDTAB
0
TABLE
2
LTYPE
5
174
100
AcDbSymbolTable
0
LTYPE
5
14
100
AcDbSymbolTableRecord
100
AcDbLinetypeTableRecord
70
0
2
ByBlock
3

72
65
73
0
40
0
0
LTYPE
5
15
100
AcDbSymbolTableRecord
100
AcDbLinetypeTableRecord
70
0
2
ByLayer
3

72
65
73
0
40
0
0
LTYPE
5
16
100
AcDbSymbolTableRecord
100
AcDbLinetypeTableRecord
70
0
2
CONTINUOUS
3
Solid line
72
65
73
0
40
0
0
LTYPE
5
3B
100
AcDbSymbolTableRecord
100
AcDbLinetypeTableRecord
70
0
2
DASHED
3
__ __ __ __ __ __ __ __ __
72
65
73
2
40
25.72
49
12.86
74
0
49
-12.86
74
0
0
LTYPE
5
3C
100
AcDbSymbolTableRecord
100
AcDbLinetypeTableRecord
70
0
2
HIDDEN
3
_ _ _ _ _ _ _ _ _ _ _ _ _ _ _
72
65
73
2
40
0.5
49
0.25
74
0
49
-0.25
74
0
0
LTYPE
5
3D
100
AcDbSymbolTableRecord
100
AcDbLinetypeTableRecord
70
0
2
PHANTOM
3
____ _ _ ____ _ _ _____ _ _ ____
72
65
73
6
40
50.5
49
18
74
0
49
-6.5
74
0
49
6.5
74
0
49
-6.5
74
0
49
6.5
74
0
49
-6.5
74
0
0
LTYPE
5
3E
100
AcDbSymbolTableRecord
100
AcDbLinetypeTableRecord
70
0
2
CENTER
3
____ _ ____ _ ____ _ ____
72
65
73
4
40
47.5
49
22
74
0
49
-8.5
74
0
49
8.5
74
0
49
-8.5
74
0
0
LTYPE
5
3F
100
AcDbSymbolTableRecord
100
AcDbLinetypeTableRecord
70
0
2
DOT
3
.........................
72
65
73
2
40
10
49
0
74
0
49
-10
74
0
0
LTYPE
5
40
100
AcDbSymbolTableRecord
100
AcDbLinetypeTableRecord
70
0
2
DASHDOT
3
_._._._._._._._._._._._._._._._.
72
65
73
4
40
70
49
31
74
0
49
-13
74
0
49
13
74
0
49
-13
74
0
0
ENDTAB
0
TABLE
2
LAYER
5
175
100
AcDbSymbolTable
0
LAYER
5
10
100
AcDbSymbolTableRecord
100
AcDbLayerTableRecord
2
0
70
0
62
7
6
CONTINUOUS
290
1
370
-3
390
0
0
LAYER
5
42
100
AcDbSymbolTableRecord
100
AcDbLayerTableRecord
2
2
70
0
62
7
6
CONTINUOUS
290
1
370
-3
390
0
0
LAYER
5
4A
100
AcDbSymbolTableRecord
100
AcDbLayerTableRecord
2
81
70
0
62
-3
6
CONTINUOUS
290
1
370
-3
390
0
0
LAYER
5
4C
100
AcDbSymbolTableRecord
100
AcDbLayerTableRecord
2
80
70
0
62
-6
6
CONTINUOUS
290
1
370
-3
390
0
0
LAYER
5
4F
100
AcDbSymbolTableRecord
100
AcDbLayerTableRecord
2
1
70
0
62
4
6
CONTINUOUS
290
1
370
-3
390
0
0
LAYER
5
5A
100
AcDbSymbolTableRecord
100
AcDbLayerTableRecord
2
4
70
0
62
-2
6
CENTER
290
1
370
-3
390
0
0
LAYER
5
15f
100
AcDbSymbolTableRecord
100
AcDbLayerTableRecord
2
SK2
70
0
62
7
6
CONTINUOUS
290
1
370
-3
390
0
0
LAYER
5
160
100
AcDbSymbolTableRecord
100
AcDbLayerTableRecord
2
SK4
70
0
62
2
6
CENTER
290
1
370
-3
390
0
0
LAYER
5
161
100
AcDbSymbolTableRecord
100
AcDbLayerTableRecord
2
SK1
70
0
62
4
6
CONTINUOUS
290
1
370
-3
390
0
0
LAYER
5
162
100
AcDbSymbolTableRecord
100
AcDbLayerTableRecord
2
SK6
70
0
62
5
6
CONTINUOUS
290
1
370
-3
390
0
0
ENDTAB
0
TABLE
2
STYLE
5
176
100
AcDbSymbolTable
0
STYLE
5
11
100
AcDbSymbolTableRecord
100
AcDbTextStyleTableRecord
2
Standard
3
txt
70
0
71
0
40
0
41
1
42
0
50
0
0
STYLE
5
DC
100
AcDbSymbolTableRecord
100
AcDbTextStyleTableRecord
2
DEFAULT
3
simplex.shx
70
0
71
0
40
0
41
1
42
0
50
0
0
STYLE
5
FF
100
AcDbSymbolTableRecord
100
AcDbTextStyleTableRecord
2
DWGDirectTextStyle
3
SIMPLEX
70
0
71
0
40
0
41
1
42
0
50
0
0
ENDTAB
0
TABLE
2
DIMSTYLE
5
177
100
AcDbSymbolTable
100
AcDbDimStyleTable
0
DIMSTYLE
105
27
100
AcDbSymbolTableRecord
100
AcDbDimStyleTableRecord
2
Standard
70
0
3
<>
41
0.18
42
0.0625
44
0.18
140
0.18
147
0.09
73
0
74
0
77
1
271
2
275
0
278
52
280
0
340
11
0
ENDTAB
0
TABLE
2
VIEW
5
178
100
AcDbSymbolTable
0
ENDTAB
0
TABLE
2
UCS
5
179
100
AcDbSymbolTable
0
ENDTAB
0
TABLE
2
APPID
5
17a
100
AcDbSymbolTable
0
APPID
5
12
100
AcDbSymbolTableRecord
100
AcDbRegAppTableRecord
2
ACAD
70
0
0
ENDTAB
0
TABLE
2
BLOCK_RECORD
5
17b
100
AcDbSymbolTable
0
BLOCK_RECORD
5
1F
100
AcDbSymbolTableRecord
100
AcDbBlockTableRecord
2
*Model_Space
340
0
70
0
0
BLOCK_RECORD
5
1B
100
AcDbSymbolTableRecord
100
AcDbBlockTableRecord
2
*Paper_Space
340
0
70
0
0
BLOCK_RECORD
5
23
100
AcDbSymbolTableRecord
100
AcDbBlockTableRecord
2
*Paper_Space0
340
0
70
0
0
BLOCK_RECORD
5
101
100
AcDbSymbolTableRecord
100
AcDbBlockTableRecord
2
DimnDraft3D11
340
0
70
0
0
BLOCK_RECORD
5
10F
100
AcDbSymbolTableRecord
100
AcDbBlockTableRecord
2
DimnDraft3D2
340
0
70
0
0
BLOCK_RECORD
5
11D
100
AcDbSymbolTableRecord
100
AcDbBlockTableRecord
2
_CLOSED
340
0
70
0
0
BLOCK_RECORD
5
124
100
AcDbSymbolTableRecord
100
AcDbBlockTableRecord
2
DimnDraft3D3
340
0
70
0
0
BLOCK_RECORD
5
132
100
AcDbSymbolTableRecord
100
AcDbBlockTableRecord
2
DimnDraft3D4
340
0
70
0
0
ENDTAB
0
ENDSEC
0
SECTION
2
BLOCKS
0
BLOCK
5
20
100
AcDbEntity
8
0
100
AcDbBlockBegin
2
*Model_Space
70
0
10
0
20
0
30
0
3
*Model_Space
0
ENDBLK
5
21
100
AcDbEntity
8
0
100
AcDbBlockEnd
0
BLOCK
5
1C
100
AcDbEntity
8
0
100
AcDbBlockBegin
2
*Paper_Space
70
0
10
0
20
0
30
0
3
*Paper_Space
0
ENDBLK
5
1D
100
AcDbEntity
8
0
100
AcDbBlockEnd
0
BLOCK
5
24
100
AcDbEntity
8
0
100
AcDbBlockBegin
2
*Paper_Space0
70
0
10
0
20
0
30
0
3
*Paper_Space0
0
ENDBLK
5
25
100
AcDbEntity
8
0
100
AcDbBlockEnd
0
BLOCK
5
102
100
AcDbEntity
8
0
100
AcDbBlockBegin
2
DimnDraft3D11
70
0
10
0
20
0
30
0
3
DimnDraft3D11
0
LINE
5
104
100
AcDbEntity
8
2
62
256
6
ByLayer
370
-1
48
1
60
0
100
AcDbLine
10
65
20
47
30
0
11
65
21
66.75
31
0
39
0
210
0
220
0
230
1
0
LINE
5
105
100
AcDbEntity
8
2
62
256
6
ByLayer
370
-1
48
1
60
0
100
AcDbLine
10
0
20
33.5
30
0
11
0
21
66.75
31
0
39
0
210
0
220
0
230
1
0
LINE
5
106
100
AcDbEntity
8
2
62
256
6
ByLayer
370
-1
48
1
60
0
100
AcDbLine
10
65
20
64.75
30
0
11
0
21
64.75
31
0
39
0
210
0
220
0
230
1
0
LINE
5
107
100
AcDbEntity
8
2
62
256
6
ByLayer
370
-1
48
1
60
0
100
AcDbLine
10
65
20
64.75
30
0
11
61.825002
21
64.332003
31
0
39
0
210
0
220
0
230
1
0
LINE
5
108
100
AcDbEntity
8
2
62
256
6
ByLayer
370
-1
48
1
60
0
100
AcDbLine
10
65
20
64.75
30
0
11
61.824998
21
65.167997
31
0
39
0
210
0
220
0
230
1
0
LINE
5
109
100
AcDbEntity
8
2
62
256
6
ByLayer
370
-1
48
1
60
0
100
AcDbLine
10
61.825002
20
64.332003
30
0
11
61.824998
21
65.167997
31
0
39
0
210
0
220
0
230
1
0
LINE
5
10A
100
AcDbEntity
8
2
62
256
6
ByLayer
370
-1
48
1
60
0
100
AcDbLine
10
0
20
64.75
30
0
11
3.174998
21
65.167997
31
0
39
0
210
0
220
0
230
1
0
LINE
5
10B
100
AcDbEntity
8
2
62
256
6
ByLayer
370
-1
48
1
60
0
100
AcDbLine
10
0
20
64.75
30
0
11
3.175002
21
64.332003
31
0
39
0
210
0
220
0
230
1
0
LINE
5
10C
100
AcDbEntity
8
2
62
256
6
ByLayer
370
-1
48
1
60
0
100
AcDbLine
10
3.174998
20
65.167997
30
0
11
3.175002
21
64.332003
31
0
39
0
210
0
220
0
230
1
0
MTEXT
5
10D
100
AcDbEntity
8
2
62
256
6
ByLayer
370
-1
48
1
60
0
100
AcDbMText
10
30.996053
20
65.875
30
0
210
0
220
0
230
1
1
\W00.656;\fsimplex.shx,bigfont.shx;65 
40
4.5
41
0
44
1.084337
50
0
71
7
72
5
7
DEFAULT
0
ENDBLK
5
103
100
AcDbEntity
8
0
100
AcDbBlockEnd
0
BLOCK
5
11A
100
AcDbEntity
8
0
100
AcDbBlockBegin
2
DimnDraft3D2
70
0
10
0
20
0
30
0
3
DimnDraft3D2
0
MTEXT
5
110
100
AcDbEntity
8
2
62
256
6
ByLayer
370
-1
48
1
60
0
100
AcDbMText
10
51.548859
20
50.575144
30
0
210
0
220
0
230
1
1
\W01.000;\fsimplex.shx,bigfont.shx;93%%d0' 
40
4.5
41
0
44
1.084337
50
46.5000000000004
71
7
72
5
7
DEFAULT
0
LINE
5
111
100
AcDbEntity
8
2
62
256
6
ByLayer
370
-1
48
1
60
0
100
AcDbLine
10
65
20
47
30
0
11
65
21
59.483093
31
0
39
0
210
0
220
0
230
1
0
LINE
5
112
100
AcDbEntity
8
2
62
256
6
ByLayer
370
-1
48
1
60
0
100
AcDbLine
10
61.16882
20
44.841904
30
0
11
50.579385
21
44.286936
31
0
39
0
210
0
220
0
230
1
0
ARC
5
113
100
AcDbEntity
8
2
62
256
6
ByLayer
370
-1
48
1
60
0
100
AcDbCircle
39
0
10
65
20
45.042688
30
0
40
12.4404046838469
210
0
220
0
230
1
100
AcDbArc
50
90
51
183
0
LINE
5
114
100
AcDbEntity
8
2
62
256
6
ByLayer
370
-1
48
1
60
0
100
AcDbLine
10
65
20
57.483093
30
0
11
61.857902
21
56.864583
31
0
39
0
210
0
220
0
230
1
0
LINE
5
115
100
AcDbEntity
8
2
62
256
6
ByLayer
370
-1
48
1
60
0
100
AcDbLine
10
65
20
57.483093
30
0
11
61.804881
21
57.698894
31
0
39
0
210
0
220
0
230
1
0
LINE
5
116
100
AcDbEntity
8
2
62
256
6
ByLayer
370
-1
48
1
60
0
100
AcDbLine
10
61.857902
20
56.864583
30
0
11
61.804881
21
57.698894
31
0
39
0
210
0
220
0
230
1
0
LINE
5
117
100
AcDbEntity
8
2
62
256
6
ByLayer
370
-1
48
1
60
0
100
AcDbLine
10
52.576644
20
44.391607
30
0
11
52.19392
21
47.571051
31
0
39
0
210
0
220
0
230
1
0
LINE
5
118
100
AcDbEntity
8
2
62
256
6
ByLayer
370
-1
48
1
60
0
100
AcDbLine
10
52.576644
20
44.391607
30
0
11
53.029861
21
47.561773
31
0
39
0
210
0
220
0
230
1
0
LINE
5
119
100
AcDbEntity
8
2
62
256
6
ByLayer
370
-1
48
1
60
0
100
AcDbLine
10
52.19392
20
47.571051
30
0
11
53.029861
21
47.561773
31
0
39
0
210
0
220
0
230
1
0
ENDBLK
5
11B
100
AcDbEntity
8
0
100
AcDbBlockEnd
0
BLOCK
5
11E
100
AcDbEntity
8
0
100
AcDbBlockBegin
2
_CLOSED
70
0
10
0
20
0
30
0
3
_CLOSED
0
LINE
5
120
100
AcDbEntity
8
0
62
256
6
ByLayer
370
-2
48
1
60
0
100
AcDbLine
10
-1
20
0.166667
30
0
11
0
21
0
31
0
39
0
210
0
220
0
230
1
0
LINE
5
121
100
AcDbEntity
8
0
62
256
6
ByLayer
370
-2
48
1
60
0
100
AcDbLine
10
0
20
0
30
0
11
-1
21
-0.166667
31
0
39
0
210
0
220
0
230
1
0
LINE
5
122
100
AcDbEntity
8
0
62
256
6
ByLayer
370
-2
48
1
60
0
100
AcDbLine
10
-1
20
0.166667
30
0
11
-1
21
-0.166667
31
0
39
0
210
0
220
0
230
1
0
LINE
5
123
100
AcDbEntity
8
0
62
256
6
ByLayer
370
-2
48
1
60
0
100
AcDbLine
10
0
20
0
30
0
11
-1
21
0
31
0
39
0
210
0
220
0
230
1
0
ENDBLK
5
11F
100
AcDbEntity
8
0
100
AcDbBlockEnd
0
BLOCK
5
12F
100
AcDbEntity
8
0
100
AcDbBlockBegin
2
DimnDraft3D3
70
0
10
0
20
0
30
0
3
DimnDraft3D3
0
MTEXT
5
125
100
AcDbEntity
8
SK2
62
256
6
ByLayer
370
-1
48
1
60
0
100
AcDbMText
10
-48.875
20
-3.659211
30
0
210
0
220
0
230
1
1
\W01.000;\fsimplex.shx,bigfont.shx;%%c63 
40
4.5
41
0
44
1.084337
50
90
71
7
72
5
7
DEFAULT
0
LINE
5
126
100
AcDbEntity
8
SK2
62
256
6
ByLayer
370
-1
48
1
60
0
100
AcDbLine
10
-2
20
-31.5
30
0
11
-49.75
21
-31.5
31
0
39
0
210
0
220
0
230
1
0
LINE
5
127
100
AcDbEntity
8
SK2
62
256
6
ByLayer
370
-1
48
1
60
0
100
AcDbLine
10
-2
20
31.5
30
0
11
-49.75
21
31.5
31
0
39
0
210
0
220
0
230
1
0
LINE
5
128
100
AcDbEntity
8
SK2
62
256
6
ByLayer
370
-1
48
1
60
0
100
AcDbLine
10
-47.75
20
-31.5
30
0
11
-47.75
21
31.5
31
0
39
0
210
0
220
0
230
1
0
LINE
5
129
100
AcDbEntity
8
SK2
62
256
6
ByLayer
370
-1
48
1
60
0
100
AcDbLine
10
-47.75
20
-31.5
30
0
11
-48.167997
21
-28.325002
31
0
39
0
210
0
220
0
230
1
0
LINE
5
12A
100
AcDbEntity
8
SK2
62
256
6
ByLayer
370
-1
48
1
60
0
100
AcDbLine
10
-47.75
20
-31.5
30
0
11
-47.332003
21
-28.324998
31
0
39
0
210
0
220
0
230
1
0
LINE
5
12B
100
AcDbEntity
8
SK2
62
256
6
ByLayer
370
-1
48
1
60
0
100
AcDbLine
10
-48.167997
20
-28.325002
30
0
11
-47.332003
21
-28.324998
31
0
39
0
210
0
220
0
230
1
0
LINE
5
12C
100
AcDbEntity
8
SK2
62
256
6
ByLayer
370
-1
48
1
60
0
100
AcDbLine
10
-47.75
20
31.5
30
0
11
-47.332003
21
28.325002
31
0
39
0
210
0
220
0
230
1
0
LINE
5
12D
100
AcDbEntity
8
SK2
62
256
6
ByLayer
370
-1
48
1
60
0
100
AcDbLine
10
-47.75
20
31.5
30
0
11
-48.167997
21
28.324998
31
0
39
0
210
0
220
0
230
1
0
LINE
5
12E
100
AcDbEntity
8
SK2
62
256
6
ByLayer
370
-1
48
1
60
0
100
AcDbLine
10
-47.332003
20
28.325002
30
0
11
-48.167997
21
28.324998
31
0
39
0
210
0
220
0
230
1
0
ENDBLK
5
130
100
AcDbEntity
8
0
100
AcDbBlockEnd
0
BLOCK
5
13D
100
AcDbEntity
8
0
100
AcDbBlockBegin
2
DimnDraft3D4
70
0
10
0
20
0
30
0
3
DimnDraft3D4
0
MTEXT
5
133
100
AcDbEntity
8
2
62
256
6
ByLayer
370
-1
48
1
60
0
100
AcDbMText
10
91.125
20
20.759211
30
0
210
0
220
0
230
1
1
\W01.000;\fsimplex.shx,bigfont.shx;45 
40
4.5
41
0
44
1.084337
50
90
71
7
72
5
7
DEFAULT
0
LINE
5
134
100
AcDbEntity
8
2
62
256
6
ByLayer
370
-1
48
1
60
0
100
AcDbLine
10
67
20
0
30
0
11
94.25
21
0
31
0
39
0
210
0
220
0
230
1
0
LINE
5
135
100
AcDbEntity
8
2
62
256
6
ByLayer
370
-1
48
1
60
0
100
AcDbLine
10
67
20
45
30
0
11
94.25
21
45
31
0
39
0
210
0
220
0
230
1
0
LINE
5
136
100
AcDbEntity
8
2
62
256
6
ByLayer
370
-1
48
1
60
0
100
AcDbLine
10
92.25
20
0
30
0
11
92.25
21
45
31
0
39
0
210
0
220
0
230
1
0
LINE
5
137
100
AcDbEntity
8
2
62
256
6
ByLayer
370
-1
48
1
60
0
100
AcDbLine
10
92.25
20
0
30
0
11
91.832003
21
3.174998
31
0
39
0
210
0
220
0
230
1
0
LINE
5
138
100
AcDbEntity
8
2
62
256
6
ByLayer
370
-1
48
1
60
0
100
AcDbLine
10
92.25
20
0
30
0
11
92.667997
21
3.175002
31
0
39
0
210
0
220
0
230
1
0
LINE
5
139
100
AcDbEntity
8
2
62
256
6
ByLayer
370
-1
48
1
60
0
100
AcDbLine
10
91.832003
20
3.174998
30
0
11
92.667997
21
3.175002
31
0
39
0
210
0
220
0
230
1
0
LINE
5
13A
100
AcDbEntity
8
2
62
256
6
ByLayer
370
-1
48
1
60
0
100
AcDbLine
10
92.25
20
45
30
0
11
92.667997
21
41.825002
31
0
39
0
210
0
220
0
230
1
0
LINE
5
13B
100
AcDbEntity
8
2
62
256
6
ByLayer
370
-1
48
1
60
0
100
AcDbLine
10
92.25
20
45
30
0
11
91.832003
21
41.824998
31
0
39
0
210
0
220
0
230
1
0
LINE
5
13C
100
AcDbEntity
8
2
62
256
6
ByLayer
370
-1
48
1
60
0
100
AcDbLine
10
92.667997
20
41.825002
30
0
11
91.832003
21
41.824998
31
0
39
0
210
0
220
0
230
1
0
ENDBLK
5
13E
100
AcDbEntity
8
0
100
AcDbBlockEnd
0
ENDSEC
0
SECTION
2
ENTITIES
0
ARC
5
7B
100
AcDbEntity
8
SK1
62
256
6
ByLayer
370
-1
48
1
60
0
100
AcDbCircle
39
0
10
0.6
20
-23.45
30
0
40
0.999999999999999
210
0
220
0
230
-1
100
AcDbArc
50
113.578178
51
126.869898
0
ARC
5
7C
100
AcDbEntity
8
SK1
62
256
6
ByLayer
370
-1
48
1
60
0
100
AcDbCircle
39
0
10
0.6
20
23.45
30
0
40
0.999999999999999
210
0
220
0
230
-1
100
AcDbArc
50
233.130102
51
246.421822
0
ARC
5
7D
100
AcDbEntity
8
1
62
256
6
ByLayer
370
-1
48
1
60
0
100
AcDbCircle
39
0
10
67.401457
20
34.296135
30
0
40
8.09999999999997
210
0
220
0
230
1
100
AcDbArc
50
173.118355
51
186.147821
0
ARC
5
7E
100
AcDbEntity
8
1
62
256
6
ByLayer
370
-1
48
1
60
0
100
AcDbCircle
39
0
10
-50.678813
20
35.434788
30
0
40
1.86000000000004
210
0
220
0
230
-1
100
AcDbArc
50
212
51
303.755891
0
ARC
5
7F
100
AcDbEntity
8
1
62
256
6
ByLayer
370
-1
48
1
60
0
100
AcDbCircle
39
0
10
-48.873521
20
35.174582
30
0
40
1.5
210
0
220
0
230
-1
100
AcDbArc
50
239.034924
51
101.942321
0
ARC
5
80
100
AcDbEntity
8
1
62
256
6
ByLayer
370
-1
48
1
60
0
100
AcDbCircle
39
0
10
-48.873521
20
35.174582
30
0
40
1.5
210
0
220
0
230
-1
100
AcDbArc
50
197.054899
51
229.346036
0
ARC
5
81
100
AcDbEntity
8
1
62
256
6
ByLayer
370
-1
48
1
60
0
100
AcDbCircle
39
0
10
33.318611
20
-27.475336
30
0
40
10.2
210
0
220
0
230
1
100
AcDbArc
50
148
51
150.326729
0
ARC
5
82
100
AcDbEntity
8
1
62
256
6
ByLayer
370
-1
48
1
60
0
100
AcDbCircle
39
0
10
50.678813
20
35.434788
30
0
40
1.625
210
0
220
0
230
1
100
AcDbArc
50
239.364477
51
328
0
ARC
5
83
100
AcDbEntity
8
1
62
256
6
ByLayer
370
-1
48
1
60
0
100
AcDbCircle
39
0
10
56.800509
20
39.843935
30
0
40
1.2065
210
0
220
0
230
1
100
AcDbArc
50
180.579943
51
240.420057
0
ARC
5
84
100
AcDbEntity
8
1
62
256
6
ByLayer
370
-1
48
1
60
0
100
AcDbCircle
39
0
10
-59.071243
20
35.988993
30
0
40
0.794000000000005
210
0
220
0
230
-1
100
AcDbArc
50
212
51
267
0
ARC
5
85
100
AcDbEntity
8
1
62
256
6
ByLayer
370
-1
48
1
60
0
100
AcDbCircle
39
0
10
56.800509
20
39.843935
30
0
40
1.2065
210
0
220
0
230
1
100
AcDbArc
50
240.420057
51
296.544721
0
ARC
5
86
100
AcDbEntity
8
1
62
256
6
ByLayer
370
-1
48
1
60
0
100
AcDbCircle
39
0
10
-56.800509
20
39.843935
30
0
40
1.2065
210
0
220
0
230
-1
100
AcDbArc
50
55.544721
51
63.455279
0
ARC
5
87
100
AcDbEntity
8
1
62
256
6
ByLayer
370
-1
48
1
60
0
100
AcDbCircle
39
0
10
56.800509
20
39.843935
30
0
40
1.2065
210
0
220
0
230
1
100
AcDbArc
50
60.420057
51
116.544721
0
ARC
5
88
100
AcDbEntity
8
1
62
256
6
ByLayer
370
-1
48
1
60
0
100
AcDbCircle
39
0
10
-56.800509
20
39.843935
30
0
40
1.6765
210
0
220
0
230
-1
100
AcDbArc
50
329.5
51
29.340113
0
ARC
5
89
100
AcDbEntity
8
1
62
256
6
ByLayer
370
-1
48
1
60
0
100
AcDbCircle
39
0
10
56.800509
20
39.843935
30
0
40
1.2065
210
0
220
0
230
1
100
AcDbArc
50
124.455279
51
180.579943
0
ARC
5
8A
100
AcDbEntity
8
1
62
256
6
ByLayer
370
-1
48
1
60
0
100
AcDbCircle
39
0
10
56.800509
20
39.843935
30
0
40
1.2065
210
0
220
0
230
1
100
AcDbArc
50
0.579943
51
60.420057
0
ARC
5
8B
100
AcDbEntity
8
1
62
256
6
ByLayer
370
-1
48
1
60
0
100
AcDbCircle
39
0
10
-56.800509
20
39.843935
30
0
40
1.6765
210
0
220
0
230
-1
100
AcDbArc
50
149.5
51
209.340113
0
ARC
5
8C
100
AcDbEntity
8
1
62
256
6
ByLayer
370
-1
48
1
60
0
100
AcDbCircle
39
0
10
-56.800509
20
39.843935
30
0
40
1.6765
210
0
220
0
230
-1
100
AcDbArc
50
89.659887
51
149.5
0
ARC
5
8D
100
AcDbEntity
8
1
62
256
6
ByLayer
370
-1
48
1
60
0
100
AcDbCircle
39
0
10
-56.800509
20
39.843935
30
0
40
1.2065
210
0
220
0
230
-1
100
AcDbArc
50
235.544721
51
243.455279
0
ARC
5
8E
100
AcDbEntity
8
1
62
256
6
ByLayer
370
-1
48
1
60
0
100
AcDbCircle
39
0
10
-64.205783
20
44.205975
30
0
40
0.79399999999999
210
0
220
0
230
-1
100
AcDbArc
50
87
51
212
0
ARC
5
8F
100
AcDbEntity
8
1
62
256
6
ByLayer
370
-1
48
1
60
0
100
AcDbCircle
39
0
10
-56.800509
20
39.843935
30
0
40
1.6765
210
0
220
0
230
-1
100
AcDbArc
50
269.659887
51
329.5
0
ARC
5
90
100
AcDbEntity
8
1
62
256
6
ByLayer
370
-1
48
1
60
0
100
AcDbCircle
39
0
10
-56.800509
20
39.843935
30
0
40
1.6765
210
0
220
0
230
-1
100
AcDbArc
50
209.340113
51
269.659887
0
ARC
5
91
100
AcDbEntity
8
1
62
256
6
ByLayer
370
-1
48
1
60
0
100
AcDbCircle
39
0
10
-56.800509
20
39.843935
30
0
40
1.6765
210
0
220
0
230
-1
100
AcDbArc
50
29.340113
51
89.659887
0
ARC
5
96
100
AcDbEntity
8
1
62
256
6
ByLayer
370
-1
48
1
60
0
100
AcDbCircle
39
0
10
56.800509
20
39.843935
30
0
40
1.2065
210
0
220
0
230
1
100
AcDbArc
50
304.455279
51
0.579943
0
ARC
5
97
100
AcDbEntity
8
1
62
256
6
ByLayer
370
-1
48
1
60
0
100
AcDbCircle
39
0
10
-54.529774
20
43.698877
30
0
40
0.794000000000005
210
0
220
0
230
-1
100
AcDbArc
50
32
51
87
0
ARC
5
98
100
AcDbEntity
8
1
62
256
6
ByLayer
370
-1
48
1
60
0
100
AcDbCircle
39
0
10
-49.395234
20
35.481895
30
0
40
0.79399999999999
210
0
220
0
230
-1
100
AcDbArc
50
267
51
32
0
CIRCLE
5
92
100
AcDbEntity
8
1
62
256
6
ByLayer
370
-1
48
1
60
0
100
AcDbCircle
10
-56.800509
20
39.843935
30
0
40
3
39
0
210
0
220
0
230
-1
0
CIRCLE
5
93
100
AcDbEntity
8
1
62
256
6
ByLayer
370
-1
48
1
60
0
100
AcDbCircle
10
-56.800509
20
39.843935
30
0
40
2.94486584643911
39
0
210
0
220
0
230
-1
0
CIRCLE
5
94
100
AcDbEntity
8
1
62
256
6
ByLayer
370
-1
48
1
60
0
100
AcDbCircle
10
-56.800509
20
39.843935
30
0
40
1.8
39
0
210
0
220
0
230
-1
0
CIRCLE
5
95
100
AcDbEntity
8
1
62
256
6
ByLayer
370
-1
48
1
60
0
100
AcDbCircle
10
-56.800509
20
39.843935
30
0
40
2.625
39
0
210
0
220
0
230
-1
0
CIRCLE
5
99
100
AcDbEntity
8
1
62
256
6
ByLayer
370
-1
48
1
60
0
100
AcDbCircle
10
-56.800509
20
39.843935
30
0
40
3.07132534818237
39
0
210
0
220
0
230
-1
0
ELLIPSE
5
9A
100
AcDbEntity
8
1
62
256
6
ByLayer
370
-1
48
1
60
0
100
AcDbEllipse
10
26.347154
20
0
30
0
11
-14.7536831606557
21
-31.0932549155804
31
0
210
0
220
0
230
1
40
0.341999
41
-1.09123958575284
42
-0.157806186645435
0
ELLIPSE
5
9B
100
AcDbEntity
8
1
62
256
6
ByLayer
370
-1
48
1
60
0
100
AcDbEllipse
10
-2.347154
20
0
30
0
11
-14.7536831606544
21
31.0932549155788
31
0
210
0
220
0
230
1
40
0.341999
41
-2.98378646694435
42
-2.05035306783691
0
ELLIPSE
5
9C
100
AcDbEntity
8
1
62
256
6
ByLayer
370
-1
48
1
60
0
100
AcDbEllipse
10
26.347154
20
0
30
0
11
-14.7536831606557
21
31.0932549155804
31
0
210
0
220
0
230
1
40
0.341999
41
0.157806186645434
42
1.09123958575284
0
ELLIPSE
5
9D
100
AcDbEntity
8
1
62
256
6
ByLayer
370
-1
48
1
60
0
100
AcDbEllipse
10
19.325329
20
11.387162
30
0
11
-0.0703046783261971
21
-6.78256912370812
31
0
210
0
220
0
230
1
40
0.072097
41
-0.26725667580088
42
1.25077205009614
0
ELLIPSE
5
9E
100
AcDbEntity
8
1
62
256
6
ByLayer
370
-1
48
1
60
0
100
AcDbEllipse
10
19.325329
20
11.387162
30
0
11
-0.0703046783261971
21
-6.78256912370812
31
0
210
0
220
0
230
1
40
0.072097
41
1.63620608042994
42
-0.26725667580088
0
ELLIPSE
5
9F
100
AcDbEntity
8
1
62
256
6
ByLayer
370
-1
48
1
60
0
100
AcDbEllipse
10
20.755893
20
0
30
0
11
1.92875500727024E-15
21
31.5
31
0
210
0
220
0
230
1
40
0.087489
41
0.103402484396546
42
3.03819016919325
0
ELLIPSE
5
A0
100
AcDbEntity
8
1
62
256
6
ByLayer
370
-1
48
1
60
0
100
AcDbEllipse
10
-2.347154
20
0
30
0
11
-14.7536831606537
21
-31.0932549155778
31
0
210
0
220
0
230
1
40
0.341999
41
2.05035306783689
42
2.98378646694435
0
ELLIPSE
5
A1
100
AcDbEntity
8
1
62
256
6
ByLayer
370
-1
48
1
60
0
100
AcDbEllipse
10
19.510138
20
11.51818
30
0
11
1.15668905392117
21
-1.63158525138558
31
0
210
0
220
0
230
1
40
0.128144
41
1.74962057428077
42
2.33526275436357
0
ELLIPSE
5
A2
100
AcDbEntity
8
1
62
256
6
ByLayer
370
-1
48
1
60
0
100
AcDbEllipse
10
19.510138
20
11.51818
30
0
11
1.15668905392117
21
-1.63158525138558
31
0
210
0
220
0
230
1
40
0.128144
41
0
42
1.74961022138207
0
ELLIPSE
5
A3
100
AcDbEntity
8
1
62
256
6
ByLayer
370
-1
48
1
60
0
100
AcDbEllipse
10
19.671951
20
11.632895
30
0
11
-1.04102014852906
21
1.46842672624702
31
0
210
0
220
0
230
1
40
0.128144
41
-3.01202310719916
42
-0.52594314024453
0
POINT
5
41
100
AcDbEntity
8
2
62
256
6
ByLayer
370
-1
48
1
60
0
100
AcDbPoint
10
65
20
45
30
0
39
0
210
0
220
0
230
1
50
360
0
POINT
5
43
100
AcDbEntity
8
SK2
62
256
6
ByLayer
370
-1
48
1
60
0
100
AcDbPoint
10
65
20
45
30
0
39
0
210
0
220
0
230
1
50
360
0
POINT
5
45
100
AcDbEntity
8
SK2
62
256
6
ByLayer
370
-1
48
1
60
0
100
AcDbPoint
10
115
20
95
30
0
39
0
210
0
220
0
230
1
50
360
0
POINT
5
46
100
AcDbEntity
8
SK2
62
256
6
ByLayer
370
-1
48
1
60
0
100
AcDbPoint
10
65
20
45
30
0
39
0
210
0
220
0
230
1
50
360
0
POINT
5
47
100
AcDbEntity
8
SK2
62
256
6
ByLayer
370
-1
48
1
60
0
100
AcDbPoint
10
115
20
95
30
0
39
0
210
0
220
0
230
1
50
360
0
POINT
5
48
100
AcDbEntity
8
SK2
62
256
6
ByLayer
370
-1
48
1
60
0
100
AcDbPoint
10
65
20
45
30
0
39
0
210
0
220
0
230
1
50
360
0
POINT
5
49
100
AcDbEntity
8
81
62
256
6
ByLayer
370
-1
48
1
60
0
100
AcDbPoint
10
65
20
45
30
0
39
0
210
0
220
0
230
1
50
360
0
POINT
5
4B
100
AcDbEntity
8
80
62
256
6
ByLayer
370
-1
48
1
60
0
100
AcDbPoint
10
0
20
0
30
0
39
0
210
0
220
0
230
1
50
360
0
POINT
5
4D
100
AcDbEntity
8
SK2
62
256
6
ByLayer
370
-1
48
1
60
0
100
AcDbPoint
10
65
20
45
30
0
39
0
210
0
220
0
230
1
50
360
0
SPLINE
5
A4
100
AcDbEntity
8
SK1
62
256
6
ByLayer
370
-1
48
1
60
0
100
AcDbSpline
70
4
71
3
72
13
73
9
40
0
40
0
40
0
40
0
40
0.239456135763293
40
0.36835972193326
40
0.499998984020783
40
0.63163841528349
40
0.760542467778012
40
1
40
1
40
1
40
1
41
1
10
-2.19999999999999
20
-22.0200986606755
30
0
41
1
10
-2.19909198642273
20
-21.9940411845603
30
0
41
1
10
-2.19103284106944
20
-21.9566686002239
30
0
41
1
10
-2.16563592203345
20
-21.9104494263859
30
0
41
1
10
-2.13886378679267
20
-21.8791678725254
30
0
41
1
10
-2.10627712749874
20
-21.854000502323
30
0
41
1
10
-2.05884064234083
20
-21.8309566998545
30
0
41
1
10
-2.02111030873027
20
-21.8247844448324
30
0
41
1
10
-1.9950399779393
20
-21.825186084775
30
0
0
SPLINE
5
A5
100
AcDbEntity
8
SK1
62
256
6
ByLayer
370
-1
48
1
60
0
100
AcDbSpline
70
4
71
3
72
13
73
9
40
0
40
0
40
0
40
0
40
0.23945753215315
40
0.368361584623414
40
0.500001015876472
40
0.631640277971597
40
0.760543864164749
40
1
40
1
40
1
40
1
41
1
10
-1.9950399779393
20
21.8251861015554
30
0
41
1
10
-2.02111030873168
20
21.8247844616134
30
0
41
1
10
-2.05884064234347
20
21.8309567166392
30
0
41
1
10
-2.10627712750083
20
21.854000519123
30
0
41
1
10
-2.13886378679463
20
21.8791678893422
30
0
41
1
10
-2.16563592203494
20
21.9104494432232
30
0
41
1
10
-2.19103284107057
20
21.956668617092
30
0
41
1
10
-2.19909198642385
20
21.994041201451
30
0
41
1
10
-2.2
20
22.0200986775813
30
0
0
SPLINE
5
A6
100
AcDbEntity
8
SK1
62
256
6
ByLayer
370
-1
48
1
60
0
100
AcDbSpline
70
4
71
2
72
6
73
3
40
0
40
0
40
0
40
1
40
1
40
1
41
1
10
-36.5
20
-21.1521177089669
30
0
41
1
10
-19.34999999997
20
-21.5828554470541
30
0
41
1
10
-2.19999999999999
20
-22.0135928951589
30
0
0
SPLINE
5
A7
100
AcDbEntity
8
SK1
62
256
6
ByLayer
370
-1
48
1
60
0
100
AcDbSpline
70
4
71
2
72
6
73
3
40
0
40
0
40
0
40
1
40
1
40
1
41
1
10
-2.19999999999999
20
22.0135927638551
30
0
41
1
10
-19.349999999987
20
21.5828539542124
30
0
41
1
10
-36.5
20
21.1521149580209
30
0
0
SPLINE
5
A8
100
AcDbEntity
8
SK1
62
256
6
ByLayer
370
-1
48
1
60
0
100
AcDbSpline
70
4
71
2
72
6
73
3
40
0
40
0
40
0
40
1
40
1
40
1
41
1
10
-1.9950399779393
20
-21.8251812553753
30
0
41
1
10
-1.19500843340728
20
-21.8452807024746
30
0
41
1
10
-0.394976888875291
20
-21.8653801495793
30
0
0
SPLINE
5
A9
100
AcDbEntity
8
SK1
62
256
6
ByLayer
370
-1
48
1
60
0
100
AcDbSpline
70
4
71
2
72
6
73
3
40
0
40
0
40
0
40
1
40
1
40
1
41
1
10
-0.394976888875291
20
21.8653802062992
30
0
41
1
10
-1.19500843340728
20
21.8452807593862
30
0
41
1
10
-1.9950399779393
20
21.8251813124779
30
0
0
SPLINE
5
AA
100
AcDbEntity
8
SK1
62
256
6
ByLayer
370
-1
48
1
60
0
100
AcDbSpline
70
4
71
2
72
6
73
3
40
0
40
0
40
0
40
1
40
1
40
1
41
1
10
-38
20
-20.289405225553
30
0
41
1
10
-37.2500000000012
20
-20.7223540793631
30
0
41
1
10
-36.5
20
-21.1553029418638
30
0
0
SPLINE
5
AB
100
AcDbEntity
8
SK1
62
256
6
ByLayer
370
-1
48
1
60
0
100
AcDbSpline
70
4
71
2
72
6
73
3
40
0
40
0
40
0
40
1
40
1
40
1
41
1
10
-36.5
20
21.155302724897
30
0
41
1
10
-37.2500000000012
20
20.7223538609616
30
0
41
1
10
-38
20
20.2894050057151
30
0
0
SPLINE
5
AC
100
AcDbEntity
8
SK1
62
256
6
ByLayer
370
-1
48
1
60
0
100
AcDbSpline
70
4
71
2
72
6
73
3
40
0
40
0
40
0
40
1
40
1
40
1
41
1
10
-0.394976888875291
20
-21.8653849865467
30
0
41
1
10
-0.265172990617032
20
-21.868901290676
30
0
41
1
10
-0.240502439654293
20
-21.9465691723769
30
0
0
SPLINE
5
AD
100
AcDbEntity
8
SK1
62
256
6
ByLayer
370
-1
48
1
60
0
100
AcDbSpline
70
4
71
2
72
6
73
3
40
0
40
0
40
0
40
1
40
1
40
1
41
1
10
-0.239684768755765
20
21.9481214799356
30
0
41
1
10
-0.264174311740348
20
21.8692639605625
30
0
41
1
10
-0.394976888875291
20
21.865385003355
30
0
0
SPLINE
5
AE
100
AcDbEntity
8
1
62
256
6
ByLayer
370
-1
48
1
60
0
100
AcDbSpline
70
4
71
3
72
8
73
4
40
0
40
0
40
0
40
0
40
1
40
1
40
1
40
1
41
1
10
24.4562130625467
20
-22.4257914693643
30
0
41
1
10
24.1106011034104
20
-23.0323710791078
30
0
41
1
10
23.8263699675884
20
-23.6776250653448
30
0
41
1
10
23.6122798938204
20
-24.3405100933493
30
0
0
SPLINE
5
AF
100
AcDbEntity
8
1
62
256
6
ByLayer
370
-1
48
1
60
0
100
AcDbSpline
70
4
71
3
72
16
73
12
40
0
40
0
40
0
40
0
40
0.463423600832262
40
0.463423600832262
40
0.646243952932856
40
0.646243952932856
40
0.831657283224518
40
0.831657283224518
40
0.94750434429086
40
0.94750434429086
40
1
40
1
40
1
40
1
41
1
10
10.1056624327026
20
-29.9139548464691
30
0
41
1
10
10.1343390747265
20
-29.9485407466772
30
0
41
1
10
10.1736499876091
20
-29.982269090612
30
0
41
1
10
10.2546180633468
20
-30.0239686896252
30
0
41
1
10
10.2809130191141
20
-30.0352936109065
30
0
41
1
10
10.3420137796675
20
-30.0555697561518
30
0
41
1
10
10.3777400094533
20
-30.0647246060481
30
0
41
1
10
10.443351653645
20
-30.0751823136668
30
0
41
1
10
10.4710402024013
20
-30.0781795790239
30
0
41
1
10
10.5123223625249
20
-30.0802576981002
30
0
41
1
10
10.5255210031399
20
-30.0805927603169
30
0
41
1
10
10.5386751345948
20
-30.0805927603169
30
0
0
SPLINE
5
B0
100
AcDbEntity
8
1
62
256
6
ByLayer
370
-1
48
1
60
0
100
AcDbSpline
70
4
71
3
72
10
73
6
40
0
40
0
40
0
40
0
40
0.581003352534588
40
0.581003352534588
40
1
40
1
40
1
40
1
41
1
10
20.4714342701797
20
-31.3317498300881
30
0
41
1
10
20.510105589806
20
-31.3776188956487
30
0
41
1
10
20.6250976533773
20
-31.4135977374268
30
0
41
1
10
20.9394097531165
20
-31.457218107382
30
0
41
1
10
21.1081623562797
20
-31.4704394969676
30
0
41
1
10
21.3065974547556
20
-31.4795723641443
30
0
0
SPLINE
5
B1
100
AcDbEntity
8
1
62
256
6
ByLayer
370
-1
48
1
60
0
100
AcDbSpline
70
4
71
3
72
8
73
4
40
0
40
0
40
0
40
0
40
1
40
1
40
1
40
1
41
1
10
22.92079238
20
31.4998610163209
30
0
41
1
10
23.4311026874612
20
33.4037432439409
30
0
41
1
10
23.9432227127049
20
35.3135025900171
30
0
41
1
10
24.4562130625467
20
37.2281191469833
30
0
0
SPLINE
5
B2
100
AcDbEntity
8
1
62
256
6
ByLayer
370
-1
48
1
60
0
100
AcDbSpline
70
4
71
3
72
16
73
12
40
0
40
0
40
0
40
0
40
0.113316224833593
40
0.113316224833593
40
0.252990411571579
40
0.252990411571579
40
0.473309013928354
40
0.473309013928354
40
0.896716357718913
40
0.896716357718913
40
1
40
1
40
1
40
1
41
1
10
10.5386751345948
20
-9.34922131452512
30
0
41
1
10
10.5105874404282
20
-9.34922131452512
30
0
41
1
10
10.482150642237
20
-9.35431657338984
30
0
41
1
10
10.4232029654275
20
-9.37467777536568
30
0
41
1
10
10.3927526278712
20
-9.39213979793414
30
0
41
1
10
10.3230856363398
20
-9.44503542604386
30
0
41
1
10
10.2871733492349
20
-9.48569380431883
30
0
41
1
10
10.1985362549164
20
-9.6110592336681
30
0
41
1
10
10.1576291602469
20
-9.70465429390072
30
0
41
1
10
10.1190965262402
20
-9.82244573862477
30
0
41
1
10
10.112102816203
20
-9.84586944318031
30
0
41
1
10
10.1056624327025
20
-9.86941261896618
30
0
0
SPLINE
5
B3
100
AcDbEntity
8
1
62
256
6
ByLayer
370
-1
48
1
60
0
100
AcDbSpline
70
4
71
3
72
14
73
10
40
0
40
0
40
0
40
0
40
0.308962483236023
40
0.308962483236023
40
0.61797240377212
40
0.61797240377212
40
0.926205708871196
40
0.926205708871196
40
1
40
1
40
1
40
1
41
1
10
22.92079238
20
31.4998610163209
30
0
41
1
10
22.5080463878244
20
31.5003707068872
30
0
41
1
10
22.1191816450675
20
31.4997561051059
30
0
41
1
10
21.4535160325305
20
31.4879828110838
30
0
41
1
10
21.1675548291072
20
31.4764356945078
30
0
41
1
10
20.7373467716816
20
31.4349311225323
30
0
41
1
10
20.586843267601
20
31.4042614164256
30
0
41
1
10
20.4945442083291
20
31.3534216636244
30
0
41
1
10
20.4808151615349
20
31.3428767511435
30
0
41
1
10
20.4714342701797
20
31.3317498300881
30
0
0
SPLINE
5
B4
100
AcDbEntity
8
1
62
256
6
ByLayer
370
-1
48
1
60
0
100
AcDbSpline
70
4
71
3
72
16
73
12
40
0
40
0
40
0
40
0
40
0.113316224833596
40
0.113316224833596
40
0.252990411571581
40
0.252990411571581
40
0.473309013928343
40
0.473309013928343
40
0.896716357718895
40
0.896716357718895
40
1
40
1
40
1
40
1
41
1
10
13.4613248654052
20
-30.0805927603169
30
0
41
1
10
13.4894125595718
20
-30.0805927603169
30
0
41
1
10
13.517849357763
20
-30.0790101689567
30
0
41
1
10
13.5767970345725
20
-30.0726712338969
30
0
41
1
10
13.6072473721288
20
-30.0672275748685
30
0
41
1
10
13.6769143636602
20
-30.0506647867052
30
0
41
1
10
13.7128266507651
20
-30.0378702684275
30
0
41
1
10
13.8014637450836
20
-29.9980833386355
30
0
41
1
10
13.8423708397531
20
-29.967975934908
30
0
41
1
10
13.8809034737598
20
-29.9294196064672
30
0
41
1
10
13.887897183797
20
-29.9217223689309
30
0
41
1
10
13.8943375672975
20
-29.9139548464691
30
0
0
SPLINE
5
B5
100
AcDbEntity
8
1
62
256
6
ByLayer
370
-1
48
1
60
0
100
AcDbSpline
70
4
71
3
72
16
73
12
40
0
40
0
40
0
40
0
40
0.113316224833594
40
0.113316224833594
40
0.252990411571577
40
0.252990411571577
40
0.473309013928351
40
0.473309013928351
40
0.896716357718897
40
0.896716357718897
40
1
40
1
40
1
40
1
41
1
10
10.5386751345948
20
30.0805927603169
30
0
41
1
10
10.5105874404282
20
30.0805927603169
30
0
41
1
10
10.482150642237
20
30.0790101689566
30
0
41
1
10
10.4232029654275
20
30.0726712338969
30
0
41
1
10
10.3927526278712
20
30.0672275748685
30
0
41
1
10
10.3230856363398
20
30.0506647867052
30
0
41
1
10
10.2871733492349
20
30.0378702684275
30
0
41
1
10
10.1985362549164
20
29.9980833386355
30
0
41
1
10
10.1576291602469
20
29.967975934908
30
0
41
1
10
10.1190965262402
20
29.9294196064672
30
0
41
1
10
10.112102816203
20
29.9217223689309
30
0
41
1
10
10.1056624327025
20
29.9139548464691
30
0
0
SPLINE
5
B6
100
AcDbEntity
8
1
62
256
6
ByLayer
370
-1
48
1
60
0
100
AcDbSpline
70
4
71
3
72
16
73
12
40
0
40
0
40
0
40
0
40
0.463423600832241
40
0.463423600832241
40
0.646243952932834
40
0.646243952932834
40
0.831657283224497
40
0.831657283224497
40
0.947504344290847
40
0.947504344290847
40
1
40
1
40
1
40
1
41
1
10
13.8943375672974
20
29.9139548464691
30
0
41
1
10
13.8656609252735
20
29.9485407466772
30
0
41
1
10
13.8263500123909
20
29.982269090612
30
0
41
1
10
13.7453819366532
20
30.0239686896252
30
0
41
1
10
13.7190869808859
20
30.0352936109065
30
0
41
1
10
13.6579862203325
20
30.0555697561518
30
0
41
1
10
13.6222599905467
20
30.0647246060481
30
0
41
1
10
13.556648346355
20
30.0751823136668
30
0
41
1
10
13.5289597975987
20
30.0781795790239
30
0
41
1
10
13.4876776374751
20
30.0802576981002
30
0
41
1
10
13.47447899686
20
30.0805927603169
30
0
41
1
10
13.4613248654052
20
30.0805927603169
30
0
0
SPLINE
5
B7
100
AcDbEntity
8
1
62
256
6
ByLayer
370
-1
48
1
60
0
100
AcDbSpline
70
4
71
3
72
16
73
12
40
0
40
0
40
0
40
0
40
0.463423600832209
40
0.463423600832209
40
0.646243952932815
40
0.646243952932815
40
0.831657283224495
40
0.831657283224495
40
0.947504344290837
40
0.947504344290837
40
1
40
1
40
1
40
1
41
1
10
13.8943375672974
20
-9.86941261896621
30
0
41
1
10
13.8656609252735
20
-9.76458357826289
30
0
41
1
10
13.8263500123909
20
-9.66039292789941
30
0
41
1
10
13.7453819366532
20
-9.52957658281042
30
0
41
1
10
13.7190869808859
20
-9.49380155568073
30
0
41
1
10
13.6579862203325
20
-9.42941539787637
30
0
41
1
10
13.6222599905467
20
-9.40014891155712
30
0
41
1
10
13.556648346355
20
-9.36662118733784
30
0
41
1
10
13.5289597975987
20
-9.35698328824239
30
0
41
1
10
13.4876776374751
20
-9.35029954873104
30
0
41
1
10
13.47447899686
20
-9.34922131452501
30
0
41
1
10
13.4613248654052
20
-9.34922131452501
30
0
0
SPLINE
5
B8
100
AcDbEntity
8
1
62
256
6
ByLayer
370
-1
48
1
60
0
100
AcDbSpline
70
4
71
3
72
8
73
4
40
0
40
0
40
0
40
0
40
1
40
1
40
1
40
1
41
1
10
49.8507540828674
20
34.0365950449145
30
0
41
1
10
49.7879917940171
20
33.9826986370752
30
0
41
1
10
49.7195491432897
20
33.9329160431142
30
0
41
1
10
49.6452937719114
20
33.8883604948292
30
0
0
SPLINE
5
B9
100
AcDbEntity
8
1
62
256
6
ByLayer
370
-1
48
1
60
0
100
AcDbSpline
70
4
71
3
72
16
73
12
40
0
40
0
40
0
40
0
40
0.463423600832241
40
0.463423600832241
40
0.646243952932837
40
0.646243952932837
40
0.831657283224505
40
0.831657283224505
40
0.947504344290848
40
0.947504344290848
40
1
40
1
40
1
40
1
41
1
10
10.1056624327026
20
9.86941261896621
30
0
41
1
10
10.1343390747265
20
9.76458357826289
30
0
41
1
10
10.1736499876091
20
9.66039292789938
30
0
41
1
10
10.2546180633468
20
9.52957658281042
30
0
41
1
10
10.2809130191141
20
9.49380155568073
30
0
41
1
10
10.3420137796675
20
9.42941539787637
30
0
41
1
10
10.3777400094532
20
9.40014891155712
30
0
41
1
10
10.443351653645
20
9.36662118733787
30
0
41
1
10
10.4710402024013
20
9.35698328824239
30
0
41
1
10
10.5123223625249
20
9.35029954873107
30
0
41
1
10
10.5255210031399
20
9.34922131452504
30
0
41
1
10
10.5386751345948
20
9.34922131452504
30
0
0
SPLINE
5
BA
100
AcDbEntity
8
1
62
256
6
ByLayer
370
-1
48
1
60
0
100
AcDbSpline
70
4
71
3
72
16
73
12
40
0
40
0
40
0
40
0
40
0.113316224833592
40
0.113316224833592
40
0.252990411571568
40
0.252990411571568
40
0.473309013928318
40
0.473309013928318
40
0.896716357718825
40
0.896716357718825
40
1
40
1
40
1
40
1
41
1
10
13.4613248654052
20
9.3492213145251
30
0
41
1
10
13.4894125595718
20
9.3492213145251
30
0
41
1
10
13.517849357763
20
9.35431657338981
30
0
41
1
10
13.5767970345725
20
9.37467777536565
30
0
41
1
10
13.6072473721288
20
9.39213979793414
30
0
41
1
10
13.6769143636602
20
9.44503542604383
30
0
41
1
10
13.7128266507651
20
9.4856938043188
30
0
41
1
10
13.8014637450836
20
9.61105923366807
30
0
41
1
10
13.842370839753
20
9.70465429390066
30
0
41
1
10
13.8809034737598
20
9.82244573862474
30
0
41
1
10
13.8878971837969
20
9.84586944318031
30
0
41
1
10
13.8943375672975
20
9.86941261896621
30
0
0
SPLINE
5
BB
100
AcDbEntity
8
1
62
256
6
ByLayer
370
-1
48
1
60
0
100
AcDbSpline
70
4
71
3
72
8
73
4
40
0
40
0
40
0
40
0
40
1
40
1
40
1
40
1
41
1
10
24.4562130625467
20
37.2281191469834
30
0
41
1
10
24.9532416400768
20
39.083162120244
30
0
41
1
10
25.4502741517797
20
40.9382040425067
30
0
41
1
10
25.9473092395159
20
42.7932452765929
30
0
0
SPLINE
5
BC
100
AcDbEntity
8
SK1
62
256
6
ByLayer
370
-1
48
1
60
0
100
AcDbSpline
70
4
71
3
72
295
73
291
40
0
40
0
40
0
40
0
40
0.0029463126313565
40
0.0065222375122528
40
0.0100981623931492
40
0.0136740872740455
40
0.0172500121549419
40
0.0208259370358382
40
0.0279777867976309
40
0.0351296365594237
40
0.0422814863212164
40
0.0458574112021127
40
0.0494333360830091
40
0.0530092609639054
40
0.0565851858448018
40
0.0637370356065945
40
0.0673129604874908
40
0.0708888853683872
40
0.0744648102492836
40
0.0780407351301799
40
0.0816166600110763
40
0.0851925848919726
40
0.0923444346537653
40
0.0959203595346617
40
0.099496284415558
40
0.103072209296454
40
0.106648134177351
40
0.110224059058247
40
0.113799983939144
40
0.11737590882004
40
0.120951833700936
40
0.124527758581833
40
0.128103683462729
40
0.131679608343625
40
0.135255533224522
40
0.138831458105418
40
0.142407382986314
40
0.149559232748107
40
0.153135157629003
40
0.1567110825099
40
0.158499044950348
40
0.160287007390796
40
0.163862932271692
40
0.171014782033485
40
0.174590706914381
40
0.178166631795278
40
0.181742556676174
40
0.185318481557071
40
0.192470331318863
40
0.19604625619976
40
0.199622181080656
40
0.201410143521104
40
0.203198105961552
40
0.206774030842449
40
0.213925880604241
40
0.217501805485138
40
0.221077730366034
40
0.224653655246931
40
0.228229580127827
40
0.235381429889619
40
0.238957354770516
40
0.242533279651412
40
0.24432124209186
40
0.246109204532309
40
0.249685129413205
40
0.253261054294101
40
0.256836979174998
40
0.258624941615446
40
0.260412904055894
40
0.26398882893679
40
0.267564753817687
40
0.271140678698583
40
0.274716603579479
40
0.278292528460376
40
0.281868453341272
40
0.285444378222169
40
0.289020303103065
40
0.292596227983961
40
0.296172152864857
40
0.299748077745754
40
0.30332400262665
40
0.306899927507547
40
0.310475852388443
40
0.314051777269339
40
0.321203627031132
40
0.324779551912028
40
0.328355476792925
40
0.331931401673821
40
0.335507326554717
40
0.339083251435614
40
0.34265917631651
40
0.346235101197407
40
0.349811026078303
40
0.356962875840096
40
0.364114725601888
40
0.371266575363681
40
0.374842500244577
40
0.378418425125474
40
0.38199435000637
40
0.385570274887266
40
0.389146199768163
40
0.392722124649059
40
0.396298049529956
40
0.399873974410852
40
0.403449899291748
40
0.407025824172645
40
0.410601749053541
40
0.414177673934437
40
0.417753598815334
40
0.42132952369623
40
0.424905448577126
40
0.428481373458023
40
0.432057298338919
40
0.433845260779367
40
0.435633223219816
40
0.437421185660264
40
0.439209148100712
40
0.442785072981608
40
0.446360997862504
40
0.448148960302953
40
0.449936922743401
40
0.451724885183849
40
0.453512847624297
40
0.457088772505193
40
0.458876734945642
40
0.46066469738609
40
0.462452659826538
40
0.464240622266986
40
0.466028584707435
40
0.467816547147883
40
0.469604509588331
40
0.471392472028779
40
0.473180434469227
40
0.474968396909675
40
0.476756359350124
40
0.478544321790572
40
0.48033228423102
40
0.482120246671468
40
0.483908209111916
40
0.485696171552364
40
0.487484133992813
40
0.489272096433261
40
0.491060058873709
40
0.492848021314157
40
0.494635983754605
40
0.496423946195053
40
0.498211908635502
40
0.49999987107595
40
0.501787833516398
40
0.503575795956846
40
0.505363758397294
40
0.507151720837743
40
0.508939683278191
40
0.510727645718639
40
0.512515608159087
40
0.514303570599535
40
0.516091533039983
40
0.517879495480432
40
0.51966745792088
40
0.521455420361328
40
0.523243382801776
40
0.525031345242224
40
0.526819307682672
40
0.528607270123121
40
0.530395232563569
40
0.532183195004017
40
0.533971157444465
40
0.535759119884913
40
0.537547082325362
40
0.53933504476581
40
0.541123007206258
40
0.542910969646706
40
0.546486894527602
40
0.548274856968051
40
0.550062819408499
40
0.551850781848947
40
0.553638744289395
40
0.557214669170292
40
0.560790594051188
40
0.562578556491636
40
0.564366518932084
40
0.566154481372532
40
0.567942443812981
40
0.571518368693877
40
0.575094293574773
40
0.57867021845567
40
0.582246143336566
40
0.585822068217462
40
0.589397993098359
40
0.592973917979255
40
0.596549842860151
40
0.600125767741048
40
0.603701692621944
40
0.60727761750284
40
0.610853542383737
40
0.614429467264633
40
0.61800539214553
40
0.621581317026426
40
0.625157241907322
40
0.628733166788219
40
0.635885016550011
40
0.643036866311804
40
0.650188716073597
40
0.653764640954493
40
0.657340565835389
40
0.660916490716286
40
0.664492415597182
40
0.668068340478079
40
0.671644265358975
40
0.675220190239871
40
0.678796115120768
40
0.68594796488256
40
0.689523889763457
40
0.693099814644353
40
0.696675739525249
40
0.700251664406146
40
0.703827589287042
40
0.707403514167938
40
0.710979439048835
40
0.714555363929731
40
0.718131288810627
40
0.721707213691524
40
0.72528313857242
40
0.728859063453317
40
0.736010913215109
40
0.739586838096006
40
0.743162762976902
40
0.750314612738695
40
0.753890537619591
40
0.757466462500487
40
0.761042387381384
40
0.76461831226228
40
0.771770162024073
40
0.775346086904969
40
0.778922011785866
40
0.782497936666762
40
0.786073861547658
40
0.793225711309451
40
0.796801636190347
40
0.800377561071244
40
0.80395348595214
40
0.807529410833036
40
0.814681260594829
40
0.818257185475725
40
0.821833110356622
40
0.825409035237518
40
0.828984960118414
40
0.836136809880207
40
0.839712734761104
40
0.843288659642
40
0.846864584522896
40
0.850440509403793
40
0.857592359165585
40
0.861168284046482
40
0.864744208927378
40
0.868320133808274
40
0.871896058689171
40
0.875471983570067
40
0.879047908450963
40
0.88262383333186
40
0.886199758212756
40
0.889775683093652
40
0.893351607974549
40
0.896927532855445
40
0.900503457736342
40
0.904079382617238
40
0.907655307498134
40
0.914807157259927
40
0.918383082140823
40
0.92195900702172
40
0.925534931902616
40
0.929110856783512
40
0.932686781664409
40
0.936262706545305
40
0.943414556307098
40
0.946990481187994
40
0.950566406068891
40
0.954142330949787
40
0.957718255830683
40
0.964870105592476
40
0.968446030473372
40
0.972021955354269
40
0.975597880235165
40
0.979173805116061
40
0.982749729996958
40
0.986325654877854
40
0.98990157975875
40
0.993477504639647
40
0.997053429520543
40
1
40
1
40
1
40
1
41
1
10
-2.2
20
22.0135196845651
30
0
41
1
10
-2.2
20
22.01172761609
30
0
41
1
10
-2.2
20
22.0069596949357
30
0
41
1
10
-2.2
20
21.9968726461305
30
0
41
1
10
-2.2
20
21.9830583750197
30
0
41
1
10
-2.2
20
21.9661971621578
30
0
41
1
10
-2.2
20
21.9463373083127
30
0
41
1
10
-2.2
20
21.9159230944434
30
0
41
1
10
-2.2
20
21.870633664349
30
0
41
1
10
-2.2
20
21.8049949078793
30
0
41
1
10
-2.2
20
21.7411390111089
30
0
41
1
10
-2.2
20
21.6847072709128
30
0
41
1
10
-2.2
20
21.6397397481888
30
0
41
1
10
-2.2
20
21.5921615264853
30
0
41
1
10
-2.2
20
21.5252891523049
30
0
41
1
10
-2.2
20
21.453308753177
30
0
41
1
10
-2.2
20
21.3763547276269
30
0
41
1
10
-2.2
20
21.3161703964091
30
0
41
1
10
-2.2
20
21.2535469243879
30
0
41
1
10
-2.2
20
21.1885090229233
30
0
41
1
10
-2.2
20
21.121080083473
30
0
41
1
10
-2.2
20
21.0280237507364
30
0
41
1
10
-2.2
20
20.9302657445266
30
0
41
1
10
-2.2
20
20.8279188369072
30
0
41
1
10
-2.2
20
20.7488739070252
30
0
41
1
10
-2.2
20
20.6675681841826
30
0
41
1
10
-2.2
20
20.5840212184218
30
0
41
1
10
-2.2
20
20.4982502525025
30
0
41
1
10
-2.2
20
20.4102747128949
30
0
41
1
10
-2.2
20
20.3201119071544
30
0
41
1
10
-2.2
20
20.2277776663919
30
0
41
1
10
-2.2
20
20.1332899477274
30
0
41
1
10
-2.2
20
20.0366642357894
30
0
41
1
10
-2.2
20
19.9379151599299
30
0
41
1
10
-2.2
20
19.8370591957147
30
0
41
1
10
-2.2
20
19.7341102362335
30
0
41
1
10
-2.2
20
19.5940778412012
30
0
41
1
10
-2.2
20
19.4499005336558
30
0
41
1
10
-2.2
20
19.3016622310533
30
0
41
1
10
-2.2
20
19.2073184270571
30
0
41
1
10
-2.2
20
19.1308417758755
30
0
41
1
10
-2.2
20
19.0536957086557
30
0
41
1
10
-2.2
20
18.9169360704622
30
0
41
1
10
-2.2
20
18.756645794641
30
0
41
1
10
-2.2
20
18.5924362845557
30
0
41
1
10
-2.2
20
18.4673177976698
30
0
41
1
10
-2.2
20
18.3402521463352
30
0
41
1
10
-2.2
20
18.1682545122203
30
0
41
1
10
-2.2
20
17.9923842356821
30
0
41
1
10
-2.2
20
17.8127164551587
30
0
41
1
10
-2.2
20
17.6988333809735
30
0
41
1
10
-2.2
20
17.606787767091
30
0
41
1
10
-2.2
20
17.5141131161323
30
0
41
1
10
-2.2
20
17.3502824417036
30
0
41
1
10
-2.2
20
17.1592829447589
30
0
41
1
10
-2.2
20
16.9645867974536
30
0
41
1
10
-2.2
20
16.8167088060477
30
0
41
1
10
-2.2
20
16.6669871400996
30
0
41
1
10
-2.2
20
16.4649164953067
30
0
41
1
10
-2.2
20
16.2591646002876
30
0
41
1
10
-2.2
20
16.049802831716
30
0
41
1
10
-2.2
20
15.9174340084588
30
0
41
1
10
-2.2
20
15.8106442286412
30
0
41
1
10
-2.2
20
15.7032538676567
30
0
41
1
10
-2.2
20
15.567882396309
30
0
41
1
10
-2.2
20
15.4036502143979
30
0
41
1
10
-2.2
20
15.2652965264295
30
0
41
1
10
-2.2
20
15.1537302031574
30
0
41
1
10
-2.2
20
15.0415708470876
30
0
41
1
10
-2.2
20
14.90025131083
30
0
41
1
10
-2.2
20
14.7289012367181
30
0
41
1
10
-2.2
20
14.5557843226631
30
0
41
1
10
-2.2
20
14.3809062427341
30
0
41
1
10
-2.2
20
14.2042700822291
30
0
41
1
10
-2.2
20
14.0258803741545
30
0
41
1
10
-2.2
20
13.8457420253844
30
0
41
1
10
-2.2
20
13.6638579861817
30
0
41
1
10
-2.2
20
13.4802328481714
30
0
41
1
10
-2.2
20
13.2948705974071
30
0
41
1
10
-2.2
20
13.1077737485311
30
0
41
1
10
-2.2
20
12.9189467805057
30
0
41
1
10
-2.2
20
12.728392778749
30
0
41
1
10
-2.2
20
12.5361142588231
30
0
41
1
10
-2.2
20
12.2774598592137
30
0
41
1
10
-2.2
20
12.0153352592314
30
0
41
1
10
-2.2
20
11.7498207258852
30
0
41
1
10
-2.2
20
11.5489655826483
30
0
41
1
10
-2.2
20
11.3464032807099
30
0
41
1
10
-2.2
20
11.1421359853758
30
0
41
1
10
-2.2
20
10.9361655879759
30
0
41
1
10
-2.2
20
10.7284950970913
30
0
41
1
10
-2.2
20
10.5191258614377
30
0
41
1
10
-2.2
20
10.2377184130835
30
0
41
1
10
-2.2
20
9.88169304970987
30
0
41
1
10
-2.2
20
9.44771865839311
30
0
41
1
10
-2.2
20
9.08043848955603
30
0
41
1
10
-2.2
20
8.78327689677775
30
0
41
1
10
-2.2
20
8.55871419535617
30
0
41
1
10
-2.2
20
8.33247380011301
30
0
41
1
10
-2.2
20
8.10455852701506
30
0
41
1
10
-2.2
20
7.87497060194644
30
0
41
1
10
-2.2
20
7.6437128367312
30
0
41
1
10
-2.2
20
7.41078884464241
30
0
41
1
10
-2.2
20
7.17620220160032
30
0
41
1
10
-2.2
20
6.93995692090419
30
0
41
1
10
-2.2
20
6.70205758660663
30
0
41
1
10
-2.2
20
6.46250918569618
30
0
41
1
10
-2.2
20
6.2213178400012
30
0
41
1
10
-2.2
20
5.97849049576266
30
0
41
1
10
-2.2
20
5.73403521575827
30
0
41
1
10
-2.2
20
5.48796107357256
30
0
41
1
10
-2.2
20
5.24027911118978
30
0
41
1
10
-2.2
20
5.03253661023487
30
0
41
1
10
-2.2
20
4.86557359122418
30
0
41
1
10
-2.2
20
4.73994908127321
30
0
41
1
10
-2.2
20
4.61393371339017
30
0
41
1
10
-2.2
20
4.44540774959788
30
0
41
1
10
-2.2
20
4.23375652596863
30
0
41
1
10
-2.2
20
4.02083961713782
30
0
41
1
10
-2.2
20
3.84978439152417
30
0
41
1
10
-2.2
20
3.72111342731068
30
0
41
1
10
-2.2
20
3.59207749308624
30
0
41
1
10
-2.2
20
3.41956369464535
30
0
41
1
10
-2.2
20
3.24629481959221
30
0
41
1
10
-2.2
20
3.0723836150739
30
0
41
1
10
-2.2
20
2.94160046512798
30
0
41
1
10
-2.2
20
2.81048647644627
30
0
41
1
10
-2.2
20
2.67904892732182
30
0
41
1
10
-2.2
20
2.54729562722176
30
0
41
1
10
-2.2
20
2.41523551097489
30
0
41
1
10
-2.2
20
2.28287740252156
30
0
41
1
10
-2.2
20
2.15023166945255
30
0
41
1
10
-2.2
20
2.01730873413072
30
0
41
1
10
-2.2
20
1.88412021099791
30
0
41
1
10
-2.2
20
1.75067841854351
30
0
41
1
10
-2.2
20
1.61699634722072
30
0
41
1
10
-2.2
20
1.48308821885627
30
0
41
1
10
-2.2
20
1.34896859254377
30
0
41
1
10
-2.2
20
1.21465350310541
30
0
41
1
10
-2.2
20
1.0801592162689
30
0
41
1
10
-2.2
20
0.945503442662783
30
0
41
1
10
-2.2
20
0.810704113119073
30
0
41
1
10
-2.2
20
0.675780421912322
30
0
41
1
10
-2.2
20
0.540751787789588
30
0
41
1
10
-2.2
20
0.405638599098921
30
0
41
1
10
-2.2
20
0.270461428271432
30
0
41
1
10
-2.2
20
0.135241462279822
30
0
41
1
10
-2.2
20
-5.3654787E-09
30
0
41
1
10
-2.2
20
-0.135241472589996
30
0
41
1
10
-2.2
20
-0.270461437853925
30
0
41
1
10
-2.2
20
-0.405638608907907
30
0
41
1
10
-2.2
20
-0.540751798686529
30
0
41
1
10
-2.2
20
-0.675780432522174
30
0
41
1
10
-2.2
20
-0.810704122044939
30
0
41
1
10
-2.2
20
-0.945503451789534
30
0
41
1
10
-2.2
20
-1.08015922751395
30
0
41
1
10
-2.2
20
-1.21465351395383
30
0
41
1
10
-2.2
20
-1.34896860046499
30
0
41
1
10
-2.2
20
-1.48308822685564
30
0
41
1
10
-2.2
20
-1.61699635855226
30
0
41
1
10
-2.2
20
-1.75067843002711
30
0
41
1
10
-2.2
20
-1.88412021847037
30
0
41
1
10
-2.2
20
-2.01730874020455
30
0
41
1
10
-2.2
20
-2.15023167925048
30
0
41
1
10
-2.2
20
-2.28287741514001
30
0
41
1
10
-2.2
20
-2.41523552035437
30
0
41
1
10
-2.2
20
-2.54729563151926
30
0
41
1
10
-2.2
20
-2.67904893291683
30
0
41
1
10
-2.2
20
-2.81048648769612
30
0
41
1
10
-2.2
20
-2.94160047796311
30
0
41
1
10
-2.2
20
-3.072383622975
30
0
41
1
10
-2.2
20
-3.24629481975686
30
0
41
1
10
-2.2
20
-3.41956370437865
30
0
41
1
10
-2.2
20
-3.59207750684843
30
0
41
1
10
-2.2
20
-3.72111343644576
30
0
41
1
10
-2.2
20
-3.84978439330678
30
0
41
1
10
-2.2
20
-4.020839617489
30
0
41
1
10
-2.2
20
-4.23375654375474
30
0
41
1
10
-2.2
20
-4.44540775759583
30
0
41
1
10
-2.2
20
-4.61393371339872
30
0
41
1
10
-2.2
20
-4.73994907984499
30
0
41
1
10
-2.2
20
-4.86557359653659
30
0
41
1
10
-2.2
20
-5.03253662624778
30
0
41
1
10
-2.2
20
-5.24027911954084
30
0
41
1
10
-2.2
20
-5.48796106514416
30
0
41
1
10
-2.2
20
-5.73403522651989
30
0
41
1
10
-2.2
20
-5.97849051253721
30
0
41
1
10
-2.2
20
-6.22131783489101
30
0
41
1
10
-2.2
20
-6.46250917346816
30
0
41
1
10
-2.2
20
-6.70205756880287
30
0
41
1
10
-2.2
20
-6.93995689241024
30
0
41
1
10
-2.2
20
-7.17620223308296
30
0
41
1
10
-2.2
20
-7.41078904293681
30
0
41
1
10
-2.2
20
-7.64371312168015
30
0
41
1
10
-2.2
20
-7.87497052861914
30
0
41
1
10
-2.2
20
-8.10455846042146
30
0
41
1
10
-2.2
20
-8.33247384441506
30
0
41
1
10
-2.2
20
-8.55871423477029
30
0
41
1
10
-2.2
20
-8.78327691067398
30
0
41
1
10
-2.2
20
-9.08043846702645
30
0
41
1
10
-2.2
20
-9.44771866001565
30
0
41
1
10
-2.2
20
-9.88169305528194
30
0
41
1
10
-2.2
20
-10.2377183913447
30
0
41
1
10
-2.2
20
-10.5191258633122
30
0
41
1
10
-2.2
20
-10.7284951094206
30
0
41
1
10
-2.2
20
-10.9361655882296
30
0
41
1
10
-2.2
20
-11.1421359694817
30
0
41
1
10
-2.2
20
-11.3464032666245
30
0
41
1
10
-2.2
20
-11.5489655840494
30
0
41
1
10
-2.2
20
-11.7498207382014
30
0
41
1
10
-2.2
20
-12.015335258712
30
0
41
1
10
-2.2
20
-12.277459839655
30
0
41
1
10
-2.2
20
-12.5361142561418
30
0
41
1
10
-2.2
20
-12.7283927892775
30
0
41
1
10
-2.2
20
-12.9189467887917
30
0
41
1
10
-2.2
20
-13.1077737445537
30
0
41
1
10
-2.2
20
-13.2948705838035
30
0
41
1
10
-2.2
20
-13.4802328404438
30
0
41
1
10
-2.2
20
-13.6638579908945
30
0
41
1
10
-2.2
20
-13.845742035678
30
0
41
1
10
-2.2
20
-14.0258803815961
30
0
41
1
10
-2.2
20
-14.2042701267483
30
0
41
1
10
-2.2
20
-14.3809064511142
30
0
41
1
10
-2.2
20
-14.61406817927
30
0
41
1
10
-2.2
20
-14.8437340716545
30
0
41
1
10
-2.2
20
-15.069828938707
30
0
41
1
10
-2.2
20
-15.2935559429894
30
0
41
1
10
-2.2
20
-15.513744330902
30
0
41
1
10
-2.2
20
-15.7303232767805
30
0
41
1
10
-2.2
20
-15.8909649274654
30
0
41
1
10
-2.2
20
-16.0498023362736
30
0
41
1
10
-2.2
20
-16.2591647559547
30
0
41
1
10
-2.2
20
-16.4649171124643
30
0
41
1
10
-2.2
20
-16.666987304737
30
0
41
1
10
-2.2
20
-16.8167085043733
30
0
41
1
10
-2.2
20
-16.9645862898264
30
0
41
1
10
-2.2
20
-17.1592828976246
30
0
41
1
10
-2.2
20
-17.3502835148979
30
0
41
1
10
-2.2
20
-17.5375147595292
30
0
41
1
10
-2.2
20
-17.676060438985
30
0
41
1
10
-2.2
20
-17.8127154575359
30
0
41
1
10
-2.2
20
-17.9923842415009
30
0
41
1
10
-2.2
20
-18.1682547291306
30
0
41
1
10
-2.2
20
-18.3402522143585
30
0
41
1
10
-2.2
20
-18.4673177032107
30
0
41
1
10
-2.2
20
-18.5924361073221
30
0
41
1
10
-2.2
20
-18.7566457425986
30
0
41
1
10
-2.2
20
-18.9169371900015
30
0
41
1
10
-2.2
20
-19.0732305996174
30
0
41
1
10
-2.2
20
-19.1884526890887
30
0
41
1
10
-2.2
20
-19.3016611759423
30
0
41
1
10
-2.2
20
-19.4499005391959
30
0
41
1
10
-2.2
20
-19.5940785255289
30
0
41
1
10
-2.2
20
-19.7341104289282
30
0
41
1
10
-2.2
20
-19.8370589164793
30
0
41
1
10
-2.2
20
-19.9379146863563
30
0
41
1
10
-2.2
20
-20.0366640227898
30
0
41
1
10
-2.2
20
-20.133289903145
30
0
41
1
10
-2.2
20
-20.2277776697998
30
0
41
1
10
-2.2
20
-20.3201119082527
30
0
41
1
10
-2.2
20
-20.4102747220553
30
0
41
1
10
-2.2
20
-20.4982502752196
30
0
41
1
10
-2.2
20
-20.5840212474559
30
0
41
1
10
-2.2
20
-20.6675682022903
30
0
41
1
10
-2.2
20
-20.7488739108727
30
0
41
1
10
-2.2
20
-20.82791883753
30
0
41
1
10
-2.2
20
-20.9302657657864
30
0
41
1
10
-2.2
20
-21.0280237880878
30
0
41
1
10
-2.2
20
-21.1210800961781
30
0
41
1
10
-2.2
20
-21.1885090211437
30
0
41
1
10
-2.2
20
-21.2535469320083
30
0
41
1
10
-2.2
20
-21.3161704250344
30
0
41
1
10
-2.2
20
-21.3763547664481
30
0
41
1
10
-2.2
20
-21.4533087676779
30
0
41
1
10
-2.2
20
-21.5252891448141
30
0
41
1
10
-2.2
20
-21.5921615531195
30
0
41
1
10
-2.2
20
-21.6397397916631
30
0
41
1
10
-2.2
20
-21.6847072964973
30
0
41
1
10
-2.2
20
-21.7411389990572
30
0
41
1
10
-2.2
20
-21.7922265879071
30
0
41
1
10
-2.2
20
-21.8378144981283
30
0
41
1
10
-2.2
20
-21.8692221254414
30
0
41
1
10
-2.2
20
-21.8978063777089
30
0
41
1
10
-2.2
20
-21.9235254752891
30
0
41
1
10
-2.2
20
-21.9463373508774
30
0
41
1
10
-2.2
20
-21.9661972037607
30
0
41
1
10
-2.2
20
-21.9830583809744
30
0
41
1
10
-2.2
20
-21.9968726399857
30
0
41
1
10
-2.2
20
-22.0069599883
30
0
41
1
10
-2.2
20
-22.0117281124568
30
0
41
1
10
-2.2
20
-22.0135203162458
30
0
0
SPLINE
5
BD
100
AcDbEntity
8
SK1
62
256
6
ByLayer
370
-1
48
1
60
0
100
AcDbSpline
70
4
71
3
72
303
73
299
40
0
40
0
40
0
40
0
40
0.0005133437153451
40
0.0040062601049564
40
0.0074991764945677
40
0.0109920928841789
40
0.0144850092737903
40
0.0179779256634016
40
0.0214708420530129
40
0.0249637584426242
40
0.0284566748322355
40
0.0319495912218467
40
0.0389354240010694
40
0.045921256780292
40
0.0529070895595145
40
0.0564000059491259
40
0.0598929223387372
40
0.0633858387283484
40
0.0668787551179597
40
0.0738645878971824
40
0.0773575042867936
40
0.080850420676405
40
0.0843433370660163
40
0.0878362534556275
40
0.0913291698452388
40
0.0948220862348501
40
0.101807919014073
40
0.105300835403684
40
0.108793751793295
40
0.112286668182907
40
0.115779584572518
40
0.119272500962129
40
0.122765417351741
40
0.126258333741352
40
0.129751250130963
40
0.133244166520574
40
0.136737082910186
40
0.140229999299797
40
0.143722915689408
40
0.14721583207902
40
0.150708748468631
40
0.157694581247853
40
0.161187497637465
40
0.164680414027076
40
0.166426872221882
40
0.168173330416687
40
0.171666246806299
40
0.178652079585521
40
0.182144995975133
40
0.185637912364744
40
0.189130828754355
40
0.192623745143966
40
0.199609577923189
40
0.2031024943128
40
0.206595410702412
40
0.208341868897217
40
0.210088327092023
40
0.213581243481634
40
0.220567076260857
40
0.224059992650468
40
0.227552909040079
40
0.231045825429691
40
0.234538741819302
40
0.241524574598525
40
0.245017490988136
40
0.248510407377747
40
0.250256865572553
40
0.252003323767358
40
0.25549624015697
40
0.258989156546581
40
0.262482072936192
40
0.264228531130998
40
0.265974989325804
40
0.269467905715415
40
0.272960822105026
40
0.276453738494638
40
0.279946654884249
40
0.28343957127386
40
0.286932487663472
40
0.290425404053083
40
0.293918320442694
40
0.297411236832305
40
0.300904153221917
40
0.304397069611528
40
0.307889986001139
40
0.311382902390751
40
0.314875818780362
40
0.318368735169973
40
0.325354567949196
40
0.328847484338807
40
0.332340400728418
40
0.33583331711803
40
0.339326233507641
40
0.342819149897252
40
0.346312066286864
40
0.349804982676475
40
0.353297899066086
40
0.360283731845309
40
0.367269564624531
40
0.374255397403754
40
0.377748313793365
40
0.381241230182977
40
0.384734146572588
40
0.388227062962199
40
0.39171997935181
40
0.395212895741422
40
0.398705812131033
40
0.402198728520644
40
0.405691644910256
40
0.409184561299867
40
0.412677477689478
40
0.416170394079089
40
0.419663310468701
40
0.423156226858312
40
0.426649143247923
40
0.430142059637535
40
0.433634976027146
40
0.435381434221952
40
0.437127892416757
40
0.438874350611563
40
0.440620808806369
40
0.44411372519598
40
0.447606641585591
40
0.449353099780397
40
0.451099557975202
40
0.452846016170008
40
0.454592474364814
40
0.458085390754425
40
0.459831848949231
40
0.461578307144036
40
0.463324765338842
40
0.465071223533648
40
0.466817681728453
40
0.468564139923259
40
0.470310598118065
40
0.47205705631287
40
0.473803514507676
40
0.475549972702481
40
0.477296430897287
40
0.479042889092093
40
0.480789347286898
40
0.482535805481704
40
0.48428226367651
40
0.486028721871315
40
0.487775180066121
40
0.489521638260927
40
0.491268096455732
40
0.493014554650538
40
0.494761012845344
40
0.496507471040149
40
0.498253929234955
40
0.500000387429761
40
0.501746845624566
40
0.503493303819372
40
0.505239762014177
40
0.506986220208983
40
0.508732678403789
40
0.510479136598594
40
0.5122255947934
40
0.513972052988206
40
0.515718511183011
40
0.517464969377817
40
0.519211427572623
40
0.520957885767428
40
0.522704343962234
40
0.52445080215704
40
0.526197260351845
40
0.527943718546651
40
0.529690176741457
40
0.531436634936262
40
0.533183093131068
40
0.534929551325874
40
0.536676009520679
40
0.538422467715485
40
0.540168925910291
40
0.541915384105096
40
0.545408300494707
40
0.547154758689513
40
0.548901216884319
40
0.550647675079124
40
0.55239413327393
40
0.555887049663541
40
0.559379966053153
40
0.561126424247958
40
0.562872882442764
40
0.56461934063757
40
0.566365798832375
40
0.569858715221987
40
0.573351631611598
40
0.576844548001209
40
0.580337464390821
40
0.583830380780432
40
0.587323297170043
40
0.590816213559655
40
0.594309129949266
40
0.597802046338877
40
0.601294962728488
40
0.6047878791181
40
0.608280795507711
40
0.611773711897322
40
0.615266628286933
40
0.618759544676545
40
0.622252461066156
40
0.625745377455767
40
0.63273121023499
40
0.639717043014213
40
0.646702875793435
40
0.650195792183046
40
0.653688708572658
40
0.657181624962269
40
0.66067454135188
40
0.664167457741492
40
0.667660374131103
40
0.671153290520714
40
0.674646206910325
40
0.681632039689548
40
0.685124956079159
40
0.688617872468771
40
0.692110788858382
40
0.695603705247993
40
0.699096621637605
40
0.702589538027216
40
0.706082454416827
40
0.709575370806439
40
0.71306828719605
40
0.716561203585661
40
0.720054119975272
40
0.723547036364884
40
0.730532869144106
40
0.734025785533718
40
0.737518701923329
40
0.744504534702551
40
0.747997451092163
40
0.751490367481774
40
0.754983283871385
40
0.758476200260996
40
0.765462033040219
40
0.76895494942983
40
0.772447865819442
40
0.775940782209053
40
0.779433698598664
40
0.786419531377887
40
0.789912447767498
40
0.79340536415711
40
0.796898280546721
40
0.800391196936332
40
0.807377029715555
40
0.810869946105166
40
0.814362862494777
40
0.817855778884389
40
0.821348695274
40
0.828334528053223
40
0.831827444442834
40
0.835320360832445
40
0.838813277222056
40
0.842306193611668
40
0.84929202639089
40
0.852784942780502
40
0.856277859170113
40
0.859770775559724
40
0.863263691949336
40
0.866756608338947
40
0.870249524728558
40
0.873742441118169
40
0.877235357507781
40
0.880728273897392
40
0.884221190287003
40
0.887714106676615
40
0.891207023066226
40
0.894699939455837
40
0.898192855845448
40
0.905178688624671
40
0.908671605014282
40
0.912164521403894
40
0.915657437793505
40
0.919150354183116
40
0.922643270572728
40
0.926136186962339
40
0.933122019741562
40
0.936614936131173
40
0.940107852520784
40
0.943600768910395
40
0.947093685300007
40
0.954079518079229
40
0.957572434468841
40
0.961065350858452
40
0.964558267248063
40
0.968051183637675
40
0.971544100027286
40
0.975037016416897
40
0.978529932806508
40
0.98202284919612
40
0.985515765585731
40
0.989008681975342
40
0.992501598364953
40
0.995994514754565
40
0.999487431144176
40
1
40
1
40
1
40
1
41
1
10
-36.5
20
21.1555776065846
30
0
41
1
10
-36.5
20
21.1557858205655
30
0
41
1
10
-36.5
20
21.1573191509858
30
0
41
1
10
-36.5
20
21.1588544331657
30
0
41
1
10
-36.5
20
21.1578038223016
30
0
41
1
10
-36.5
20
21.1536126358382
30
0
41
1
10
-36.5
20
21.1463317213717
30
0
41
1
10
-36.5
20
21.1360112678938
30
0
41
1
10
-36.5
20
21.1226986497682
30
0
41
1
10
-36.5
20
21.1064402158535
30
0
41
1
10
-36.5
20
21.0872797426226
30
0
41
1
10
-36.5
20
21.0578537406018
30
0
41
1
10
-36.5
20
21.0141777773224
30
0
41
1
10
-36.5
20
20.950713074722
30
0
41
1
10
-36.5
20
20.8890285612071
30
0
41
1
10
-36.5
20
20.8342802658871
30
0
41
1
10
-36.5
20
20.7907267804185
30
0
41
1
10
-36.5
20
20.7446291690672
30
0
41
1
10
-36.5
20
20.6796864194097
30
0
41
1
10
-36.5
20
20.6101652524536
30
0
41
1
10
-36.5
20
20.5353747251341
30
0
41
1
10
-36.5
20
20.4769783324059
30
0
41
1
10
-36.5
20
20.4161995895792
30
0
41
1
10
-36.5
20
20.3530628196555
30
0
41
1
10
-36.5
20
20.2875896826626
30
0
41
1
10
-36.5
20
20.1970436182683
30
0
41
1
10
-36.5
20
20.1024192722933
30
0
41
1
10
-36.5
20
20.0027815031752
30
0
41
1
10
-36.5
20
19.9259535572617
30
0
41
1
10
-36.5
20
19.8469141355251
30
0
41
1
10
-36.5
20
19.7656833730651
30
0
41
1
10
-36.5
20
19.6822775189499
30
0
41
1
10
-36.5
20
19.5967148149262
30
0
41
1
10
-36.5
20
19.5090135394173
30
0
41
1
10
-36.5
20
19.4191882696517
30
0
41
1
10
-36.5
20
19.3272561697677
30
0
41
1
10
-36.5
20
19.2332338822713
30
0
41
1
10
-36.5
20
19.1371346902892
30
0
41
1
10
-36.5
20
19.0389746878943
30
0
41
1
10
-36.5
20
18.9387689752275
30
0
41
1
10
-36.5
20
18.8022215100789
30
0
41
1
10
-36.5
20
18.6623317385554
30
0
41
1
10
-36.5
20
18.5177544284038
30
0
41
1
10
-36.5
20
18.4260133905722
30
0
41
1
10
-36.5
20
18.3514175898237
30
0
41
1
10
-36.5
20
18.2761667145511
30
0
41
1
10
-36.5
20
18.1428549391526
30
0
41
1
10
-36.5
20
17.987269645424
30
0
41
1
10
-36.5
20
17.8270700659299
30
0
41
1
10
-36.5
20
17.705205542109
30
0
41
1
10
-36.5
20
17.5814423770725
30
0
41
1
10
-36.5
20
17.4136311437529
30
0
41
1
10
-36.5
20
17.2428939764416
30
0
41
1
10
-36.5
20
17.0675963011876
30
0
41
1
10
-36.5
20
16.9568152899196
30
0
41
1
10
-36.5
20
16.867008999151
30
0
41
1
10
-36.5
20
16.7765898513273
30
0
41
1
10
-36.5
20
16.6168596157572
30
0
41
1
10
-36.5
20
16.4314438788638
30
0
41
1
10
-36.5
20
16.2414991337765
30
0
41
1
10
-36.5
20
16.097474719741
30
0
41
1
10
-36.5
20
15.9516616651348
30
0
41
1
10
-36.5
20
15.7545445351489
30
0
41
1
10
-36.5
20
15.5548613446891
30
0
41
1
10
-36.5
20
15.350663385132
30
0
41
1
10
-36.5
20
15.2219600388738
30
0
41
1
10
-36.5
20
15.1178164480938
30
0
41
1
10
-36.5
20
15.0130920883853
30
0
41
1
10
-36.5
20
14.8814910451208
30
0
41
1
10
-36.5
20
14.7216281332594
30
0
41
1
10
-36.5
20
14.5871530954062
30
0
41
1
10
-36.5
20
14.4783873813363
30
0
41
1
10
-36.5
20
14.3690494022437
30
0
41
1
10
-36.5
20
14.2317235183089
30
0
41
1
10
-36.5
20
14.0650028858775
30
0
41
1
10
-36.5
20
13.8965816080865
30
0
41
1
10
-36.5
20
13.7264689694465
30
0
41
1
10
-36.5
20
13.5546710496343
30
0
41
1
10
-36.5
20
13.3811910773122
30
0
41
1
10
-36.5
20
13.2060373742644
30
0
41
1
10
-36.5
20
13.0292149133303
30
0
41
1
10
-36.5
20
12.850728177302
30
0
41
1
10
-36.5
20
12.6705857874604
30
0
41
1
10
-36.5
20
12.4887914218501
30
0
41
1
10
-36.5
20
12.3053503484466
30
0
41
1
10
-36.5
20
12.1202706879328
30
0
41
1
10
-36.5
20
11.9335555855444
30
0
41
1
10
-36.5
20
11.6819759204348
30
0
41
1
10
-36.5
20
11.4285505376587
30
0
41
1
10
-36.5
20
11.1704660874499
30
0
41
1
10
-36.5
20
10.9756651586938
30
0
41
1
10
-36.5
20
10.7792636737398
30
0
41
1
10
-36.5
20
10.5812696725585
30
0
41
1
10
-36.5
20
10.3816871154457
30
0
41
1
10
-36.5
20
10.180523710493
30
0
41
1
10
-36.5
20
9.97778558435027
30
0
41
1
10
-36.5
20
9.70483576808863
30
0
41
1
10
-36.5
20
9.36101276272154
30
0
41
1
10
-36.5
20
8.94153438933262
30
0
41
1
10
-36.5
20
8.58745787193689
30
0
41
1
10
-36.5
20
8.30004464023602
30
0
41
1
10
-36.5
20
8.08346950394392
30
0
41
1
10
-36.5
20
7.86540102208471
30
0
41
1
10
-36.5
20
7.64585131899614
30
0
41
1
10
-36.5
20
7.42483318088833
30
0
41
1
10
-36.5
20
7.20235735193418
30
0
41
1
10
-36.5
20
6.97843755879967
30
0
41
1
10
-36.5
20
6.75308981071325
30
0
41
1
10
-36.5
20
6.52633035082275
30
0
41
1
10
-36.5
20
6.29817753233076
30
0
41
1
10
-36.5
20
6.06865022444896
30
0
41
1
10
-36.5
20
5.83776884649418
30
0
41
1
10
-36.5
20
5.60555660448861
30
0
41
1
10
-36.5
20
5.37203985998678
30
0
41
1
10
-36.5
20
5.13724579696881
30
0
41
1
10
-36.5
20
4.90120595303733
30
0
41
1
10
-36.5
20
4.70396583147402
30
0
41
1
10
-36.5
20
4.54469638576828
30
0
41
1
10
-36.5
20
4.42533999597057
30
0
41
1
10
-36.5
20
4.30569972295402
30
0
41
1
10
-36.5
20
4.14529336499854
30
0
41
1
10
-36.5
20
3.94531865595207
30
0
41
1
10
-36.5
20
3.74444957084984
30
0
41
1
10
-36.5
20
3.58224076117995
30
0
41
1
10
-36.5
20
3.46078958963511
30
0
41
1
10
-36.5
20
3.33910702605107
30
0
41
1
10
-36.5
20
3.17597085922341
30
0
41
1
10
-36.5
20
3.01425651604552
30
0
41
1
10
-36.5
20
2.85023149996007
30
0
41
1
10
-36.5
20
2.72752154931175
30
0
41
1
10
-36.5
20
2.60463052157442
30
0
41
1
10
-36.5
20
2.48157378937663
30
0
41
1
10
-36.5
20
2.35835621123036
30
0
41
1
10
-36.5
20
2.23499061660055
30
0
41
1
10
-36.5
20
2.11148761081347
30
0
41
1
10
-36.5
20
1.9878545152765
30
0
41
1
10
-36.5
20
1.86410632124094
30
0
41
1
10
-36.5
20
1.74024827700825
30
0
41
1
10
-36.5
20
1.61629526151512
30
0
41
1
10
-36.5
20
1.49225310041959
30
0
41
1
10
-36.5
20
1.3681347814894
30
0
41
1
10
-36.5
20
1.2439473222278
30
0
41
1
10
-36.5
20
1.11970117534864
30
0
41
1
10
-36.5
20
0.995403485642782
30
0
41
1
10
-36.5
20
0.8710629170684
30
0
41
1
10
-36.5
20
0.746686102657719
30
0
41
1
10
-36.5
20
0.622280124115576
30
0
41
1
10
-36.5
20
0.497850420758397
30
0
41
1
10
-36.5
20
0.373402935182185
30
0
41
1
10
-36.5
20
0.248942238793148
30
0
41
1
10
-36.5
20
0.124473257200918
30
0
41
1
10
-36.5
20
9.2462358E-09
30
0
41
1
10
-36.5
20
-0.124473254673973
30
0
41
1
10
-36.5
20
-0.248942266430618
30
0
41
1
10
-36.5
20
-0.373402960091397
30
0
41
1
10
-36.5
20
-0.497850400790554
30
0
41
1
10
-36.5
20
-0.622280094010847
30
0
41
1
10
-36.5
20
-0.746686131491799
30
0
41
1
10
-36.5
20
-0.871062970095124
30
0
41
1
10
-36.5
20
-0.995403468230791
30
0
41
1
10
-36.5
20
-1.11970111692671
30
0
41
1
10
-36.5
20
-1.24394734076813
30
0
41
1
10
-36.5
20
-1.36813486147517
30
0
41
1
10
-36.5
20
-1.49225310642996
30
0
41
1
10
-36.5
20
-1.61629518356963
30
0
41
1
10
-36.5
20
-1.7402482546413
30
0
41
1
10
-36.5
20
-1.86410640329151
30
0
41
1
10
-36.5
20
-1.98785458048855
30
0
41
1
10
-36.5
20
-2.11148756075909
30
0
41
1
10
-36.5
20
-2.2349905278607
30
0
41
1
10
-36.5
20
-2.3583562279822
30
0
41
1
10
-36.5
20
-2.48157389743918
30
0
41
1
10
-36.5
20
-2.60463057106841
30
0
41
1
10
-36.5
20
-2.72752148004804
30
0
41
1
10
-36.5
20
-2.8502314065623
30
0
41
1
10
-36.5
20
-3.01425656877106
30
0
41
1
10
-36.5
20
-3.17597095993784
30
0
41
1
10
-36.5
20
-3.33910698167958
30
0
41
1
10
-36.5
20
-3.46078948211164
30
0
41
1
10
-36.5
20
-3.58224072191865
30
0
41
1
10
-36.5
20
-3.74444967050349
30
0
41
1
10
-36.5
20
-3.94531869048151
30
0
41
1
10
-36.5
20
-4.14529326648051
30
0
41
1
10
-36.5
20
-4.30569969171859
30
0
41
1
10
-36.5
20
-4.42534006396792
30
0
41
1
10
-36.5
20
-4.54469650094606
30
0
41
1
10
-36.5
20
-4.70396584910503
30
0
41
1
10
-36.5
20
-4.90120586463618
30
0
41
1
10
-36.5
20
-5.1372458114655
30
0
41
1
10
-36.5
20
-5.37203995090806
30
0
41
1
10
-36.5
20
-5.6055565552935
30
0
41
1
10
-36.5
20
-5.83776875015039
30
0
41
1
10
-36.5
20
-6.06865017711209
30
0
41
1
10
-36.5
20
-6.29817748211653
30
0
41
1
10
-36.5
20
-6.52633051401983
30
0
41
1
10
-36.5
20
-6.75309051279777
30
0
41
1
10
-36.5
20
-6.97843834484934
30
0
41
1
10
-36.5
20
-7.20235684280954
30
0
41
1
10
-36.5
20
-7.42483229470756
30
0
41
1
10
-36.5
20
-7.64585158611581
30
0
41
1
10
-36.5
20
-7.86540128403743
30
0
41
1
10
-36.5
20
-8.08346945831602
30
0
41
1
10
-36.5
20
-8.30004452993893
30
0
41
1
10
-36.5
20
-8.58745782596952
30
0
41
1
10
-36.5
20
-8.94153442741853
30
0
41
1
10
-36.5
20
-9.36101273737586
30
0
41
1
10
-36.5
20
-9.70483575174822
30
0
41
1
10
-36.5
20
-9.97778564072317
30
0
41
1
10
-36.5
20
-10.18052371466
30
0
41
1
10
-36.5
20
-10.3816870614505
30
0
41
1
10
-36.5
20
-10.5812696339219
30
0
41
1
10
-36.5
20
-10.7792636942327
30
0
41
1
10
-36.5
20
-10.9756652058486
30
0
41
1
10
-36.5
20
-11.1704660987636
30
0
41
1
10
-36.5
20
-11.4285504962004
30
0
41
1
10
-36.5
20
-11.6819759007756
30
0
41
1
10
-36.5
20
-11.9335556252714
30
0
41
1
10
-36.5
20
-12.1202707134412
30
0
41
1
10
-36.5
20
-12.3053503320752
30
0
41
1
10
-36.5
20
-12.4887913848281
30
0
41
1
10
-36.5
20
-12.6705857704289
30
0
41
1
10
-36.5
20
-12.8507281979538
30
0
41
1
10
-36.5
20
-13.0292149436136
30
0
41
1
10
-36.5
20
-13.2060373895955
30
0
41
1
10
-36.5
20
-13.3811911431361
30
0
41
1
10
-36.5
20
-13.5546713888901
30
0
41
1
10
-36.5
20
-13.7264696827894
30
0
41
1
10
-36.5
20
-13.9536769173599
30
0
41
1
10
-36.5
20
-14.176348576809
30
0
41
1
10
-36.5
20
-14.3967384349214
30
0
41
1
10
-36.5
20
-14.6148460432235
30
0
41
1
10
-36.5
20
-14.8284315021107
30
0
41
1
10
-36.5
20
-15.0396227184095
30
0
41
1
10
-36.5
20
-15.1960147192182
30
0
41
1
10
-36.5
20
-15.3506631330603
30
0
41
1
10
-36.5
20
-15.5548624364723
30
0
41
1
10
-36.5
20
-15.7545451164335
30
0
41
1
10
-36.5
20
-15.9516609547094
30
0
41
1
10
-36.5
20
-16.0974737380165
30
0
41
1
10
-36.5
20
-16.241498813278
30
0
41
1
10
-36.5
20
-16.4314450331352
30
0
41
1
10
-36.5
20
-16.6168608854212
30
0
41
1
10
-36.5
20
-16.7995343923805
30
0
41
1
10
-36.5
20
-16.9344844206004
30
0
41
1
10
-36.5
20
-17.0675955495037
30
0
41
1
10
-36.5
20
-17.2428947983014
30
0
41
1
10
-36.5
20
-17.4136313821348
30
0
41
1
10
-36.5
20
-17.5814422063202
30
0
41
1
10
-36.5
20
-17.7052052466277
30
0
41
1
10
-36.5
20
-17.827069915531
30
0
41
1
10
-36.5
20
-17.9872703841193
30
0
41
1
10
-36.5
20
-18.1428562465544
30
0
41
1
10
-36.5
20
-18.2953166794047
30
0
41
1
10
-36.5
20
-18.4075180436267
30
0
41
1
10
-36.5
20
-18.5177535555592
30
0
41
1
10
-36.5
20
-18.6623326618876
30
0
41
1
10
-36.5
20
-18.8022222651529
30
0
41
1
10
-36.5
20
-18.9387686023437
30
0
41
1
10
-36.5
20
-19.0389739868785
30
0
41
1
10
-36.5
20
-19.1371342717784
30
0
41
1
10
-36.5
20
-19.2332339353276
30
0
41
1
10
-36.5
20
-19.3272562516113
30
0
41
1
10
-36.5
20
-19.4191882978898
30
0
41
1
10
-36.5
20
-19.5090135437133
30
0
41
1
10
-36.5
20
-19.5967148362678
30
0
41
1
10
-36.5
20
-19.6822775521962
30
0
41
1
10
-36.5
20
-19.7656833992675
30
0
41
1
10
-36.5
20
-19.8469141406672
30
0
41
1
10
-36.5
20
-19.9259535527381
30
0
41
1
10
-36.5
20
-20.0027815100322
30
0
41
1
10
-36.5
20
-20.1024193061391
30
0
41
1
10
-36.5
20
-20.1970436522849
30
0
41
1
10
-36.5
20
-20.287589681624
30
0
41
1
10
-36.5
20
-20.353062816238
30
0
41
1
10
-36.5
20
-20.4161996091986
30
0
41
1
10
-36.5
20
-20.4769783724375
30
0
41
1
10
-36.5
20
-20.5353747607017
30
0
41
1
10
-36.5
20
-20.6101652553123
30
0
41
1
10
-36.5
20
-20.6796864153796
30
0
41
1
10
-36.5
20
-20.7446292080422
30
0
41
1
10
-36.5
20
-20.7907268231738
30
0
41
1
10
-36.5
20
-20.8342802793506
30
0
41
1
10
-36.5
20
-20.8890285523336
30
0
41
1
10
-36.5
20
-20.9382580424269
30
0
41
1
10
-36.5
20
-20.9824409225429
30
0
41
1
10
-36.5
20
-21.0128017234864
30
0
41
1
10
-36.5
20
-21.0404207944711
30
0
41
1
10
-36.5
20
-21.0652596303332
30
0
41
1
10
-36.5
20
-21.0872797892674
30
0
41
1
10
-36.5
20
-21.1064402531507
30
0
41
1
10
-36.5
20
-21.1226986516191
30
0
41
1
10
-36.5
20
-21.1360112646484
30
0
41
1
10
-36.5
20
-21.1463317710584
30
0
41
1
10
-36.5
20
-21.1536128319466
30
0
41
1
10
-36.5
20
-21.1578041644649
30
0
41
1
10
-36.5
20
-21.1588543296933
30
0
41
1
10
-36.5
20
-21.1573189715023
30
0
41
1
10
-36.5
20
-21.1557860298972
30
0
41
1
10
-36.5
20
-21.1555781611303
30
0
0
SPLINE
5
BE
100
AcDbEntity
8
SK1
62
256
6
ByLayer
370
-1
48
1
60
0
100
AcDbSpline
70
4
71
3
72
299
73
295
40
0
40
0
40
0
40
0
40
0.0032949103248466
40
0.0068176373914903
40
0.010340364458134
40
0.0138630915247777
40
0.0173858185914214
40
0.0209085456580651
40
0.0244312727247088
40
0.0279539997913525
40
0.0349994539246399
40
0.0420449080579273
40
0.0490903621912146
40
0.0526130892578583
40
0.056135816324502
40
0.0596585433911457
40
0.0631812704577894
40
0.0702267245910768
40
0.0737494516577205
40
0.0772721787243642
40
0.0807949057910079
40
0.0843176328576516
40
0.0878403599242953
40
0.091363086990939
40
0.0984085411242263
40
0.10193126819087
40
0.105453995257514
40
0.108976722324157
40
0.112499449390801
40
0.116022176457445
40
0.119544903524089
40
0.123067630590732
40
0.126590357657376
40
0.13011308472402
40
0.133635811790663
40
0.137158538857307
40
0.140681265923951
40
0.144203992990594
40
0.147726720057238
40
0.154772174190525
40
0.158294901257169
40
0.161817628323813
40
0.163578991857135
40
0.165340355390456
40
0.1688630824571
40
0.175908536590388
40
0.179431263657031
40
0.182953990723675
40
0.186476717790319
40
0.189999444856962
40
0.19704489899025
40
0.200567626056893
40
0.204090353123537
40
0.205851716656859
40
0.207613080190181
40
0.211135807256824
40
0.218181261390112
40
0.221703988456756
40
0.225226715523399
40
0.228749442590043
40
0.232272169656687
40
0.239317623789974
40
0.242840350856618
40
0.246363077923262
40
0.248124441456583
40
0.249885804989905
40
0.253408532056549
40
0.256931259123192
40
0.260453986189836
40
0.262215349723158
40
0.26397671325648
40
0.267499440323124
40
0.271022167389767
40
0.274544894456411
40
0.278067621523055
40
0.281590348589698
40
0.285113075656342
40
0.288635802722986
40
0.292158529789629
40
0.295681256856273
40
0.299203983922917
40
0.302726710989561
40
0.306249438056204
40
0.309772165122848
40
0.313294892189492
40
0.316817619256135
40
0.323863073389423
40
0.327385800456066
40
0.33090852752271
40
0.334431254589354
40
0.337953981655997
40
0.341476708722641
40
0.344999435789285
40
0.348522162855929
40
0.352044889922572
40
0.35909034405586
40
0.366135798189147
40
0.373181252322434
40
0.376703979389078
40
0.380226706455722
40
0.383749433522366
40
0.387272160589009
40
0.390794887655653
40
0.394317614722296
40
0.39784034178894
40
0.401363068855584
40
0.404885795922228
40
0.408408522988871
40
0.411931250055515
40
0.415453977122159
40
0.418976704188802
40
0.422499431255446
40
0.42602215832209
40
0.429544885388733
40
0.433067612455377
40
0.434828975988699
40
0.436590339522021
40
0.438351703055343
40
0.440113066588665
40
0.443635793655308
40
0.447158520721952
40
0.448919884255274
40
0.450681247788596
40
0.452442611321917
40
0.454203974855239
40
0.457726701921883
40
0.459488065455205
40
0.461249428988527
40
0.463010792521849
40
0.46477215605517
40
0.466533519588492
40
0.468294883121814
40
0.470056246655136
40
0.471817610188458
40
0.47357897372178
40
0.475340337255102
40
0.477101700788423
40
0.478863064321745
40
0.480624427855067
40
0.482385791388389
40
0.484147154921711
40
0.485908518455033
40
0.487669881988354
40
0.489431245521676
40
0.491192609054998
40
0.49295397258832
40
0.494715336121642
40
0.496476699654964
40
0.498238063188286
40
0.499999426721607
40
0.501760790254929
40
0.503522153788251
40
0.505283517321573
40
0.507044880854895
40
0.508806244388217
40
0.510567607921538
40
0.51232897145486
40
0.514090334988182
40
0.515851698521504
40
0.517613062054826
40
0.519374425588148
40
0.52113578912147
40
0.522897152654791
40
0.524658516188113
40
0.526419879721435
40
0.528181243254757
40
0.529942606788079
40
0.531703970321401
40
0.533465333854723
40
0.535226697388044
40
0.536988060921366
40
0.538749424454688
40
0.54051078798801
40
0.542272151521332
40
0.545794878587975
40
0.547556242121297
40
0.549317605654619
40
0.551078969187941
40
0.552840332721263
40
0.556363059787906
40
0.55988578685455
40
0.561647150387872
40
0.563408513921194
40
0.565169877454516
40
0.566931240987838
40
0.570453968054481
40
0.573976695121125
40
0.577499422187769
40
0.581022149254412
40
0.584544876321056
40
0.5880676033877
40
0.591590330454343
40
0.595113057520987
40
0.598635784587631
40
0.602158511654274
40
0.605681238720918
40
0.609203965787562
40
0.612726692854206
40
0.616249419920849
40
0.619772146987493
40
0.623294874054137
40
0.62681760112078
40
0.633863055254068
40
0.640908509387355
40
0.647953963520643
40
0.651476690587286
40
0.65499941765393
40
0.658522144720574
40
0.662044871787217
40
0.665567598853861
40
0.669090325920505
40
0.672613052987148
40
0.676135780053792
40
0.683181234187079
40
0.686703961253723
40
0.690226688320367
40
0.693749415387011
40
0.697272142453654
40
0.700794869520298
40
0.704317596586942
40
0.707840323653585
40
0.711363050720229
40
0.714885777786873
40
0.718408504853516
40
0.72193123192016
40
0.725453958986804
40
0.732499413120091
40
0.736022140186735
40
0.739544867253378
40
0.746590321386666
40
0.75011304845331
40
0.753635775519953
40
0.757158502586597
40
0.760681229653241
40
0.767726683786528
40
0.771249410853172
40
0.774772137919815
40
0.778294864986459
40
0.781817592053103
40
0.78886304618639
40
0.792385773253034
40
0.795908500319678
40
0.799431227386321
40
0.802953954452965
40
0.809999408586252
40
0.813522135652896
40
0.81704486271954
40
0.820567589786183
40
0.824090316852827
40
0.831135770986114
40
0.834658498052758
40
0.838181225119402
40
0.841703952186046
40
0.845226679252689
40
0.852272133385977
40
0.85579486045262
40
0.859317587519264
40
0.862840314585908
40
0.866363041652552
40
0.869885768719195
40
0.873408495785839
40
0.876931222852482
40
0.880453949919126
40
0.88397667698577
40
0.887499404052414
40
0.891022131119057
40
0.894544858185701
40
0.898067585252345
40
0.901590312318988
40
0.908635766452276
40
0.912158493518919
40
0.915681220585563
40
0.919203947652207
40
0.922726674718851
40
0.926249401785494
40
0.929772128852138
40
0.936817582985425
40
0.940340310052069
40
0.943863037118713
40
0.947385764185356
40
0.950908491252
40
0.957953945385287
40
0.961476672451931
40
0.964999399518575
40
0.968522126585219
40
0.972044853651862
40
0.975567580718506
40
0.97909030778515
40
0.982613034851793
40
0.986135761918437
40
0.989658488985081
40
0.993181216051724
40
0.996703943118368
40
1
40
1
40
1
40
1
41
1
10
-1.9950399779393
20
21.8251672743944
30
0
41
1
10
-1.99503997793931
20
21.8252770305716
30
0
41
1
10
-1.9950399779393
20
21.8245105356678
30
0
41
1
10
-1.9950399779393
20
21.8202836860757
30
0
41
1
10
-1.9950399779393
20
21.812783044142
30
0
41
1
10
-1.9950399779393
20
21.8021565364934
30
0
41
1
10
-1.9950399779393
20
21.7884557330328
30
0
41
1
10
-1.9950399779393
20
21.7717308612526
30
0
41
1
10
-1.9950399779393
20
21.7520291985819
30
0
41
1
10
-1.9950399779393
20
21.7218385059106
30
0
41
1
10
-1.9950399779393
20
21.6769140218914
30
0
41
1
10
-1.9950399779393
20
21.6117670092986
30
0
41
1
10
-1.9950399779393
20
21.5484022523455
30
0
41
1
10
-1.9950399779393
20
21.4923512863894
30
0
41
1
10
-1.9950399779393
20
21.4477036012609
30
0
41
1
10
-1.9950399779393
20
21.4004602751572
30
0
41
1
10
-1.9950399779393
20
21.3340243579833
30
0
41
1
10
-1.9950399779393
20
21.2626002065085
30
0
41
1
10
-1.9950399779393
20
21.1861355372814
30
0
41
1
10
-1.9950399779393
20
21.126355615456
30
0
41
1
10
-1.9950399779393
20
21.0641493981766
30
0
41
1
10
-1.9950399779393
20
20.9995415089612
30
0
41
1
10
-1.9950399779393
20
20.9325549476398
30
0
41
1
10
-1.9950399779393
20
20.8400664063016
30
0
41
1
10
-1.9950399779393
20
20.7430171949632
30
0
41
1
10
-1.9950399779393
20
20.6412830606924
30
0
41
1
10
-1.9950399779393
20
20.5627395849404
30
0
41
1
10
-1.9950399779393
20
20.4819464711493
30
0
41
1
10
-1.9950399779393
20
20.3989234016943
30
0
41
1
10
-1.9950399779393
20
20.3136873945745
30
0
41
1
10
-1.9950399779393
20
20.2262576082901
30
0
41
1
10
-1.9950399779393
20
20.136651569995
30
0
41
1
10
-1.9950399779393
20
20.0448848271876
30
0
41
1
10
-1.9950399779393
20
19.9509751576252
30
0
41
1
10
-1.9950399779393
20
19.8549383078336
30
0
41
1
10
-1.9950399779393
20
19.7567886026657
30
0
41
1
10
-1.9950399779393
20
19.6565424313982
30
0
41
1
10
-1.9950399779393
20
19.5542139601407
30
0
41
1
10
-1.9950399779393
20
19.4149698127943
30
0
41
1
10
-1.9950399779393
20
19.2717622924356
30
0
41
1
10
-1.9950399779393
20
19.1243520606764
30
0
41
1
10
-1.9950399779393
20
19.0305969699326
30
0
41
1
10
-1.9950399779393
20
18.9545457436666
30
0
41
1
10
-1.9950399779393
20
18.877828345234
30
0
41
1
10
-1.9950399779393
20
18.7418485706132
30
0
41
1
10
-1.9950399779393
20
18.5826225030747
30
0
41
1
10
-1.9950399779393
20
18.4193199892891
30
0
41
1
10
-1.9950399779393
20
18.2949375082747
30
0
41
1
10
-1.9950399779393
20
18.1686188381619
30
0
41
1
10
-1.9950399779393
20
17.9975681157064
30
0
41
1
10
-1.9950399779393
20
17.8228588844704
30
0
41
1
10
-1.9950399779393
20
17.6441795672679
30
0
41
1
10
-1.9950399779393
20
17.5309981410348
30
0
41
1
10
-1.9950399779393
20
17.4394590341184
30
0
41
1
10
-1.9950399779393
20
17.3472945498449
30
0
41
1
10
-1.9950399779393
20
17.1843913435575
30
0
41
1
10
-1.9950399779393
20
16.9946548235122
30
0
41
1
10
-1.9950399779393
20
16.8010333841432
30
0
41
1
10
-1.9950399779393
20
16.654027023888
30
0
41
1
10
-1.9950399779393
20
16.5051894370887
30
0
41
1
10
-1.9950399779393
20
16.3042392155796
30
0
41
1
10
-1.9950399779393
20
16.0998599858609
30
0
41
1
10
-1.9950399779393
20
15.8916662065006
30
0
41
1
10
-1.9950399779393
20
15.7601264684356
30
0
41
1
10
-1.9950399779393
20
15.6539352235828
30
0
41
1
10
-1.9950399779393
20
15.5471478788444
30
0
41
1
10
-1.9950399779393
20
15.4126292313156
30
0
41
1
10
-1.9950399779393
20
15.2493853238091
30
0
41
1
10
-1.9950399779393
20
15.1119089381336
30
0
41
1
10
-1.9950399779393
20
15.0009760777421
30
0
41
1
10
-1.9950399779393
20
14.8894548819647
30
0
41
1
10
-1.9950399779393
20
14.7490386600655
30
0
41
1
10
-1.9950399779393
20
14.578735707937
30
0
41
1
10
-1.9950399779393
20
14.4066808882548
30
0
41
1
10
-1.9950399779393
20
14.2328806917249
30
0
41
1
10
-1.9950399779393
20
14.0573388809364
30
0
41
1
10
-1.9950399779393
20
13.8800596938692
30
0
41
1
10
-1.9950399779393
20
13.7010488098078
30
0
41
1
10
-1.9950399779393
20
13.5203096364964
30
0
41
1
10
-1.9950399779393
20
13.3378467409434
30
0
41
1
10
-1.9950399779393
20
13.1536651576331
30
0
41
1
10
-1.9950399779393
20
12.967767664355
30
0
41
1
10
-1.9950399779393
20
12.7801589185361
30
0
41
1
10
-1.9950399779393
20
12.5908431445087
30
0
41
1
10
-1.9950399779393
20
12.3998230002593
30
0
41
1
10
-1.9950399779393
20
12.1427688173785
30
0
41
1
10
-1.9950399779393
20
11.8826118718573
30
0
41
1
10
-1.9950399779393
20
11.6187779306707
30
0
41
1
10
-1.9950399779393
20
11.4192921752591
30
0
41
1
10
-1.9950399779393
20
11.2181233733031
30
0
41
1
10
-1.9950399779393
20
11.0152750188843
30
0
41
1
10
-1.9950399779393
20
10.8107494713072
30
0
41
1
10
-1.9950399779393
20
10.6045508021232
30
0
41
1
10
-1.9950399779393
20
10.3966814407573
30
0
41
1
10
-1.9950399779393
20
10.1171870033238
30
0
41
1
10
-1.9950399779393
20
9.76392166117952
30
0
41
1
10
-1.9950399779393
20
9.33322608836653
30
0
41
1
10
-1.9950399779393
20
8.96893242084855
30
0
41
1
10
-1.9950399779393
20
8.67397578579323
30
0
41
1
10
-1.9950399779393
20
8.45121977200662
30
0
41
1
10
-1.9950399779393
20
8.22682776167494
30
0
41
1
10
-1.9950399779393
20
8.00080467620245
30
0
41
1
10
-1.9950399779393
20
7.77315513008728
30
0
41
1
10
-1.9950399779393
20
7.54388372935193
30
0
41
1
10
-1.9950399779393
20
7.31299637479285
30
0
41
1
10
-1.9950399779393
20
7.08049945458953
30
0
41
1
10
-1.9950399779393
20
6.8463997482805
30
0
41
1
10
-1.9950399779393
20
6.61070495432838
30
0
41
1
10
-1.9950399779393
20
6.37342319970753
30
0
41
1
10
-1.9950399779393
20
6.13456384015993
30
0
41
1
10
-1.9950399779393
20
5.89413749968628
30
0
41
1
10
-1.9950399779393
20
5.65215638001948
30
0
41
1
10
-1.9950399779393
20
5.4086336510897
30
0
41
1
10
-1.9950399779393
20
5.16358499073451
30
0
41
1
10
-1.9950399779393
20
4.95821799704331
30
0
41
1
10
-1.9950399779393
20
4.79299516838267
30
0
41
1
10
-1.9950399779393
20
4.66878842905288
30
0
41
1
10
-1.9950399779393
20
4.5442150281373
30
0
41
1
10
-1.9950399779393
20
4.37752561794156
30
0
41
1
10
-1.9950399779393
20
4.16851547631595
30
0
41
1
10
-1.9950399779393
20
3.95832363498766
30
0
41
1
10
-1.9950399779393
20
3.78926935835412
30
0
41
1
10
-1.9950399779393
20
3.66223142121836
30
0
41
1
10
-1.9950399779393
20
3.53485872774326
30
0
41
1
10
-1.9950399779393
20
3.36446603264318
30
0
41
1
10
-1.9950399779393
20
3.19381064862623
30
0
41
1
10
-1.9950399779393
20
3.02213557666008
30
0
41
1
10
-1.9950399779393
20
2.8931784837302
30
0
41
1
10
-1.9950399779393
20
2.76392442628162
30
0
41
1
10
-1.9950399779393
20
2.63438251344519
30
0
41
1
10
-1.9950399779393
20
2.50455988721876
30
0
41
1
10
-1.9950399779393
20
2.37446636334928
30
0
41
1
10
-1.9950399779393
20
2.24411116870439
30
0
41
1
10
-1.9950399779393
20
2.11350398186613
30
0
41
1
10
-1.9950399779393
20
1.98265625862297
30
0
41
1
10
-1.9950399779393
20
1.85157817347522
30
0
41
1
10
-1.9950399779393
20
1.72028262405345
30
0
41
1
10
-1.9950399779393
20
1.58878098022359
30
0
41
1
10
-1.9950399779393
20
1.45708718468359
30
0
41
1
10
-1.9950399779393
20
1.32521409071333
30
0
41
1
10
-1.9950399779393
20
1.19317647053177
30
0
41
1
10
-1.9950399779393
20
1.06098852682439
30
0
41
1
10
-1.9950399779393
20
0.928665923975672
30
0
41
1
10
-1.9950399779393
20
0.796224037396229
30
0
41
1
10
-1.9950399779393
20
0.663679321648374
30
0
41
1
10
-1.9950399779393
20
0.531048033506266
30
0
41
1
10
-1.9950399779393
20
0.398347293868937
30
0
41
1
10
-1.9950399779393
20
0.265594055935196
30
0
41
1
10
-1.9950399779393
20
0.132805828560237
30
0
41
1
10
-1.9950399779393
20
-2.0604887E-09
30
0
41
1
10
-1.9950399779393
20
-0.132805835966792
30
0
41
1
10
-1.9950399779393
20
-0.265594069601519
30
0
41
1
10
-1.9950399779393
20
-0.398347307093388
30
0
41
1
10
-1.9950399779393
20
-0.531048037421954
30
0
41
1
10
-1.9950399779393
20
-0.663679323049081
30
0
41
1
10
-1.9950399779393
20
-0.796224050825089
30
0
41
1
10
-1.9950399779393
20
-0.92866594303203
30
0
41
1
10
-1.9950399779393
20
-1.06098853158755
30
0
41
1
10
-1.9950399779393
20
-1.1931764657121
30
0
41
1
10
-1.9950399779393
20
-1.32521410103647
30
0
41
1
10
-1.9950399779393
20
-1.45708720896539
30
0
41
1
10
-1.9950399779393
20
-1.58878099035152
30
0
41
1
10
-1.9950399779393
20
-1.72028261530932
30
0
41
1
10
-1.9950399779393
20
-1.85157817419838
30
0
41
1
10
-1.9950399779393
20
-1.98265628188182
30
0
41
1
10
-1.9950399779393
20
-2.11350400419804
30
0
41
1
10
-1.9950399779393
20
-2.24411116714702
30
0
41
1
10
-1.9950399779393
20
-2.37446635053539
30
0
41
1
10
-1.9950399779393
20
-2.50455989433328
30
0
41
1
10
-1.9950399779393
20
-2.63438254221708
30
0
41
1
10
-1.9950399779393
20
-2.76392444618182
30
0
41
1
10
-1.9950399779393
20
-2.89317847799558
30
0
41
1
10
-1.9950399779393
20
-3.02213556164864
30
0
41
1
10
-1.9950399779393
20
-3.19381066067948
30
0
41
1
10
-1.9950399779393
20
-3.36446606295527
30
0
41
1
10
-1.9950399779393
20
-3.53485872835634
30
0
41
1
10
-1.9950399779393
20
-3.66223140396673
30
0
41
1
10
-1.9950399779393
20
-3.78926935085312
30
0
41
1
10
-1.9950399779393
20
-3.95832365779984
30
0
41
1
10
-1.9950399779393
20
-4.16851549788919
30
0
41
1
10
-1.9950399779393
20
-4.37752560184694
30
0
41
1
10
-1.9950399779393
20
-4.54421502107886
30
0
41
1
10
-1.9950399779393
20
-4.66878844332788
30
0
41
1
10
-1.9950399779393
20
-4.79299519854527
30
0
41
1
10
-1.9950399779393
20
-4.95821801342223
30
0
41
1
10
-1.9950399779393
20
-5.16358497720142
30
0
41
1
10
-1.9950399779393
20
-5.40863364784667
30
0
41
1
10
-1.9950399779393
20
-5.65215640891225
30
0
41
1
10
-1.9950399779393
20
-5.89413750153935
30
0
41
1
10
-1.9950399779393
20
-6.13456381441384
30
0
41
1
10
-1.9950399779393
20
-6.37342317953835
30
0
41
1
10
-1.9950399779393
20
-6.61070492919379
30
0
41
1
10
-1.9950399779393
20
-6.84639976314463
30
0
41
1
10
-1.9950399779393
20
-7.08049963775395
30
0
41
1
10
-1.9950399779393
20
-7.31299670603016
30
0
41
1
10
-1.9950399779393
20
-7.54388383469134
30
0
41
1
10
-1.9950399779393
20
-7.77315487290267
30
0
41
1
10
-1.9950399779393
20
-8.00080468509063
30
0
41
1
10
-1.9950399779393
20
-8.22682785520686
30
0
41
1
10
-1.9950399779393
20
-8.4512197921853
30
0
41
1
10
-1.9950399779393
20
-8.67397577159846
30
0
41
1
10
-1.9950399779393
20
-8.96893239301764
30
0
41
1
10
-1.9950399779393
20
-9.33322609823665
30
0
41
1
10
-1.9950399779393
20
-9.76392165975841
30
0
41
1
10
-1.9950399779393
20
-10.1171869828061
30
0
41
1
10
-1.9950399779393
20
-10.3966814549587
30
0
41
1
10
-1.9950399779393
20
-10.6045508126063
30
0
41
1
10
-1.9950399779393
20
-10.8107494592904
30
0
41
1
10
-1.9950399779393
20
-11.0152749978462
30
0
41
1
10
-1.9950399779393
20
-11.2181233670389
30
0
41
1
10
-1.9950399779393
20
-11.4192921870092
30
0
41
1
10
-1.9950399779393
20
-11.6187779427602
30
0
41
1
10
-1.9950399779393
20
-11.8826118620781
30
0
41
1
10
-1.9950399779393
20
-12.1427687977971
30
0
41
1
10
-1.9950399779393
20
-12.3998230071702
30
0
41
1
10
-1.9950399779393
20
-12.5908431584255
30
0
41
1
10
-1.9950399779393
20
-12.7801589212449
30
0
41
1
10
-1.9950399779393
20
-12.9677676529033
30
0
41
1
10
-1.9950399779393
20
-13.1536651432542
30
0
41
1
10
-1.9950399779393
20
-13.3378467396349
30
0
41
1
10
-1.9950399779393
20
-13.520309646993
30
0
41
1
10
-1.9950399779393
20
-13.7010488212408
30
0
41
1
10
-1.9950399779393
20
-13.8800597145162
30
0
41
1
10
-1.9950399779393
20
-14.0573389921213
30
0
41
1
10
-1.9950399779393
20
-14.2328810143213
30
0
41
1
10
-1.9950399779393
20
-14.4646959102749
30
0
41
1
10
-1.9950399779393
20
-14.6927797943809
30
0
41
1
10
-1.9950399779393
20
-14.9175842595472
30
0
41
1
10
-1.9950399779393
20
-15.1400402265273
30
0
41
1
10
-1.9950399779393
20
-15.3587351142266
30
0
41
1
10
-1.9950399779393
20
-15.574095422854
30
0
41
1
10
-1.9950399779393
20
-15.733775855726
30
0
41
1
10
-1.9950399779393
20
-15.8916657661057
30
0
41
1
10
-1.9950399779393
20
-16.0998603532658
30
0
41
1
10
-1.9950399779393
20
-16.3042398246232
30
0
41
1
10
-1.9950399779393
20
-16.5051894037979
30
0
41
1
10
-1.9950399779393
20
-16.6540265683948
30
0
41
1
10
-1.9950399779393
20
-16.8010329188422
30
0
41
1
10
-1.9950399779393
20
-16.9946550481209
30
0
41
1
10
-1.9950399779393
20
-17.1843924611907
30
0
41
1
10
-1.9950399779393
20
-17.3705928023913
30
0
41
1
10
-1.9950399779393
20
-17.5083251903719
30
0
41
1
10
-1.9950399779393
20
-17.6441786252734
30
0
41
1
10
-1.9950399779393
20
-17.8228590748674
30
0
41
1
10
-1.9950399779393
20
-17.9975683374733
30
0
41
1
10
-1.9950399779393
20
-18.1686188521771
30
0
41
1
10
-1.9950399779393
20
-18.2949373683468
30
0
41
1
10
-1.9950399779393
20
-18.4193198181252
30
0
41
1
10
-1.9950399779393
20
-18.5826226298873
30
0
41
1
10
-1.9950399779393
20
-18.7418497326446
30
0
41
1
10
-1.9950399779393
20
-18.8972761707097
30
0
41
1
10
-1.9950399779393
20
-19.0118150097952
30
0
41
1
10
-1.9950399779393
20
-19.1243510467918
30
0
41
1
10
-1.9950399779393
20
-19.2717625055688
30
0
41
1
10
-1.9950399779393
20
-19.414970513124
30
0
41
1
10
-1.9950399779393
20
-19.5542140249085
30
0
41
1
10
-1.9950399779393
20
-19.6565420567613
30
0
41
1
10
-1.9950399779393
20
-19.7567881415466
30
0
41
1
10
-1.9950399779393
20
-19.8549381550126
30
0
41
1
10
-1.9950399779393
20
-19.9509751416388
30
0
41
1
10
-1.9950399779393
20
-20.0448848362119
30
0
41
1
10
-1.9950399779393
20
-20.1366515718167
30
0
41
1
10
-1.9950399779393
20
-20.2262576202058
30
0
41
1
10
-1.9950399779393
20
-20.3136874196731
30
0
41
1
10
-1.9950399779393
20
-20.398923430088
30
0
41
1
10
-1.9950399779393
20
-20.4819464863244
30
0
41
1
10
-1.9950399779393
20
-20.5627395868944
30
0
41
1
10
-1.9950399779393
20
-20.6412830627252
30
0
41
1
10
-1.9950399779393
20
-20.7430172190698
30
0
41
1
10
-1.9950399779393
20
-20.8400664428987
30
0
41
1
10
-1.9950399779393
20
-20.9325549572362
30
0
41
1
10
-1.9950399779393
20
-20.9995415068112
30
0
41
1
10
-1.9950399779393
20
-21.064149408511
30
0
41
1
10
-1.9950399779393
20
-21.1263556466612
30
0
41
1
10
-1.9950399779393
20
-21.1861355753666
30
0
41
1
10
-1.9950399779393
20
-21.262600218376
30
0
41
1
10
-1.9950399779393
20
-21.3340243512753
30
0
41
1
10
-1.9950399779393
20
-21.4004603045828
30
0
41
1
10
-1.9950399779393
20
-21.4477036445725
30
0
41
1
10
-1.9950399779393
20
-21.4923513092323
30
0
41
1
10
-1.9950399779393
20
-21.5484022410126
30
0
41
1
10
-1.9950399779393
20
-21.5990695510926
30
0
41
1
10
-1.9950399779393
20
-21.6443396610233
30
0
41
1
10
-1.9950399779393
20
-21.6755105092645
30
0
41
1
10
-1.9950399779393
20
-21.7038764495607
30
0
41
1
10
-1.9950399779393
20
-21.7293964429163
30
0
41
1
10
-1.9950399779393
20
-21.7520292420694
30
0
41
1
10
-1.9950399779393
20
-21.7717309018817
30
0
41
1
10
-1.9950399779393
20
-21.7884557380592
30
0
41
1
10
-1.9950399779393
20
-21.8021565310045
30
0
41
1
10
-1.9950399779393
20
-21.8127830851058
30
0
41
1
10
-1.9950399779393
20
-21.8202838734724
30
0
41
1
10
-1.9950399779393
20
-21.8245113513366
30
0
41
1
10
-1.9950399779393
20
-21.8252773533296
30
0
41
1
10
-1.9950399779393
20
-21.8251670994757
30
0
0
SPLINE
5
BF
100
AcDbEntity
8
SK1
62
256
6
ByLayer
370
-1
48
1
60
0
100
AcDbSpline
70
4
71
3
72
111
73
107
40
0
40
0
40
0
40
0
40
0.0023113641620288
40
0.0108556432474676
40
0.0193999223329064
40
0.0279442014183452
40
0.036488480503784
40
0.0450327595892228
40
0.0535770386746617
40
0.0621213177601005
40
0.0706655968455393
40
0.0792098759309781
40
0.0877541550164169
40
0.0962984341018557
40
0.113386992272733
40
0.130475550443611
40
0.147564108614489
40
0.156108387699927
40
0.164652666785366
40
0.173196945870805
40
0.181741224956244
40
0.190285504041683
40
0.198829783127122
40
0.20737406221256
40
0.215918341297999
40
0.233006899468877
40
0.241551178554316
40
0.250095457639754
40
0.258639736725193
40
0.267184015810632
40
0.275728294896071
40
0.28427257398151
40
0.292816853066948
40
0.301361132152387
40
0.309905411237826
40
0.318449690323265
40
0.326993969408704
40
0.335538248494143
40
0.35262680666502
40
0.361171085750459
40
0.369715364835898
40
0.386803923006776
40
0.395348202092214
40
0.403892481177653
40
0.412436760263092
40
0.420981039348531
40
0.438069597519408
40
0.446613876604847
40
0.455158155690286
40
0.463702434775725
40
0.472246713861164
40
0.489335272032041
40
0.49787955111748
40
0.506423830202919
40
0.514968109288358
40
0.523512388373797
40
0.540600946544674
40
0.549145225630113
40
0.557689504715552
40
0.566233783800991
40
0.57477806288643
40
0.591866621057307
40
0.600410900142746
40
0.608955179228185
40
0.617499458313624
40
0.626043737399062
40
0.64313229556994
40
0.651676574655379
40
0.660220853740818
40
0.668765132826257
40
0.677309411911695
40
0.685853690997134
40
0.694397970082573
40
0.702942249168012
40
0.711486528253451
40
0.720030807338889
40
0.728575086424328
40
0.737119365509767
40
0.745663644595206
40
0.754207923680645
40
0.762752202766084
40
0.779840760936961
40
0.7883850400224
40
0.796929319107839
40
0.805473598193278
40
0.814017877278716
40
0.822562156364155
40
0.831106435449594
40
0.848194993620472
40
0.856739272705911
40
0.865283551791349
40
0.873827830876788
40
0.882372109962227
40
0.899460668133105
40
0.908004947218543
40
0.916549226303982
40
0.925093505389421
40
0.93363778447486
40
0.942182063560299
40
0.950726342645738
40
0.959270621731176
40
0.967814900816615
40
0.976359179902054
40
0.984903458987493
40
0.993447738072932
40
1
40
1
40
1
40
1
41
1
10
-0.394976888875291
20
-6.32694279392976
30
0
41
1
10
-0.394976888875291
20
-6.3484916311391
30
0
41
1
10
-0.394976888875291
20
-6.44960775400912
30
0
41
1
10
-0.394976888875291
20
-6.62954555948869
30
0
41
1
10
-0.394976888875291
20
-6.8656950488801
30
0
41
1
10
-0.394976888875291
20
-7.10023740586411
30
0
41
1
10
-0.394976888875291
20
-7.33316546385933
30
0
41
1
10
-0.394976888875291
20
-7.56447269448574
30
0
41
1
10
-0.394976888875291
20
-7.79415340272945
30
0
41
1
10
-0.394976888875291
20
-8.02220293401996
30
0
41
1
10
-0.394976888875291
20
-8.24861635560848
30
0
41
1
10
-0.394976888875291
20
-8.47338951886385
30
0
41
1
10
-0.394976888875291
20
-8.69651811258549
30
0
41
1
10
-0.394976888875291
20
-8.99192948127941
30
0
41
1
10
-0.394976888875291
20
-9.35683912175983
30
0
41
1
10
-0.394976888875291
20
-9.78821091217483
30
0
41
1
10
-0.394976888875291
20
-10.142045462177
30
0
41
1
10
-0.394976888875291
20
-10.4219344727077
30
0
41
1
10
-0.394976888875291
20
-10.6301131683678
30
0
41
1
10
-0.394976888875291
20
-10.8366153667066
30
0
41
1
10
-0.394976888875291
20
-11.0414388905992
30
0
41
1
10
-0.394976888875291
20
-11.2445799004538
30
0
41
1
10
-0.394976888875291
20
-11.4460361162834
30
0
41
1
10
-0.394976888875291
20
-11.6458042976885
30
0
41
1
10
-0.394976888875291
20
-11.9099848253352
30
0
41
1
10
-0.394976888875291
20
-12.1705475695385
30
0
41
1
10
-0.394976888875291
20
-12.4279318067111
30
0
41
1
10
-0.394976888875291
20
-12.6192114874981
30
0
41
1
10
-0.394976888875291
20
-12.8087826250924
30
0
41
1
10
-0.394976888875291
20
-12.9966426041155
30
0
41
1
10
-0.394976888875291
20
-13.182787448996
30
0
41
1
10
-0.394976888875291
20
-13.3672125455487
30
0
41
1
10
-0.394976888875291
20
-13.5499151547097
30
0
41
1
10
-0.394976888875291
20
-13.7308904478326
30
0
41
1
10
-0.394976888875291
20
-13.910133867705
30
0
41
1
10
-0.394976888875291
20
-14.0876421688895
30
0
41
1
10
-0.394976888875291
20
-14.2634098807097
30
0
41
1
10
-0.394976888875291
20
-14.4955025482493
30
0
41
1
10
-0.394976888875291
20
-14.7239127068147
30
0
41
1
10
-0.394976888875291
20
-14.9489833053404
30
0
41
1
10
-0.394976888875291
20
-15.171701411915
30
0
41
1
10
-0.394976888875291
20
-15.3907043201103
30
0
41
1
10
-0.394976888875291
20
-15.6063159613101
30
0
41
1
10
-0.394976888875291
20
-15.7661946363952
30
0
41
1
10
-0.394976888875291
20
-15.9242799594928
30
0
41
1
10
-0.394976888875291
20
-16.1327154012234
30
0
41
1
10
-0.394976888875291
20
-16.3373780173449
30
0
41
1
10
-0.394976888875291
20
-16.5385587125243
30
0
41
1
10
-0.394976888875291
20
-16.6875782011067
30
0
41
1
10
-0.394976888875291
20
-16.8347642769002
30
0
41
1
10
-0.394976888875291
20
-17.0286080073569
30
0
41
1
10
-0.394976888875291
20
-17.2186059445175
30
0
41
1
10
-0.394976888875291
20
-17.4050188999402
30
0
41
1
10
-0.394976888875291
20
-17.5429190217058
30
0
41
1
10
-0.394976888875291
20
-17.6789377757623
30
0
41
1
10
-0.394976888875291
20
-17.8578220601067
30
0
41
1
10
-0.394976888875291
20
-18.0327708145484
30
0
41
1
10
-0.394976888875291
20
-18.2040166330947
30
0
41
1
10
-0.394976888875291
20
-18.3304892054167
30
0
41
1
10
-0.394976888875291
20
-18.4550234389153
30
0
41
1
10
-0.394976888875291
20
-18.6185132745736
30
0
41
1
10
-0.394976888875291
20
-18.7779598884918
30
0
41
1
10
-0.394976888875291
20
-18.933565131357
30
0
41
1
10
-0.394976888875291
20
-19.048244884465
30
0
41
1
10
-0.394976888875291
20
-19.1609196079758
30
0
41
1
10
-0.394976888875291
20
-19.3085018143331
30
0
41
1
10
-0.394976888875291
20
-19.4519098709686
30
0
41
1
10
-0.394976888875291
20
-19.5913159811741
30
0
41
1
10
-0.394976888875291
20
-19.6937719762305
30
0
41
1
10
-0.394976888875291
20
-19.7941438028822
30
0
41
1
10
-0.394976888875291
20
-19.8924174211231
30
0
41
1
10
-0.394976888875291
20
-19.988575861591
30
0
41
1
10
-0.394976888875291
20
-20.082604778142
30
0
41
1
10
-0.394976888875291
20
-20.1744885559187
30
0
41
1
10
-0.394976888875291
20
-20.264209431984
30
0
41
1
10
-0.394976888875291
20
-20.3517517880635
30
0
41
1
10
-0.394976888875291
20
-20.437098129367
30
0
41
1
10
-0.394976888875291
20
-20.5202292348052
30
0
41
1
10
-0.394976888875291
20
-20.6011280559991
30
0
41
1
10
-0.394976888875291
20
-20.6797749513881
30
0
41
1
10
-0.394976888875291
20
-20.781635486227
30
0
41
1
10
-0.394976888875291
20
-20.8788308931333
30
0
41
1
10
-0.394976888875291
20
-20.9714365096391
30
0
41
1
10
-0.394976888875291
20
-21.0385142950144
30
0
41
1
10
-0.394976888875291
20
-21.1032108820957
30
0
41
1
10
-0.394976888875291
20
-21.1655031751743
30
0
41
1
10
-0.394976888875291
20
-21.2253665102307
30
0
41
1
10
-0.394976888875291
20
-21.301932078811
30
0
41
1
10
-0.394976888875291
20
-21.3734709318986
30
0
41
1
10
-0.394976888875291
20
-21.4399968999807
30
0
41
1
10
-0.394976888875291
20
-21.4873093096751
30
0
41
1
10
-0.394976888875291
20
-21.5320229383892
30
0
41
1
10
-0.394976888875291
20
-21.5881524005931
30
0
41
1
10
-0.394976888875291
20
-21.6389063892513
30
0
41
1
10
-0.394976888875291
20
-21.6842420425293
30
0
41
1
10
-0.394976888875291
20
-21.7154617242468
30
0
41
1
10
-0.394976888875291
20
-21.7438726893518
30
0
41
1
10
-0.394976888875291
20
-21.7694337460976
30
0
41
1
10
-0.394976888875291
20
-21.7921034780961
30
0
41
1
10
-0.394976888875291
20
-21.8118377637545
30
0
41
1
10
-0.394976888875291
20
-21.8285907189997
30
0
41
1
10
-0.394976888875291
20
-21.8423149132633
30
0
41
1
10
-0.394976888875291
20
-21.8529599173647
30
0
41
1
10
-0.394976888875291
20
-21.8604739519412
30
0
41
1
10
-0.394976888875291
20
-21.864465518263
30
0
41
1
10
-0.394976888875291
20
-21.8653271905241
30
0
41
1
10
-0.394976888875291
20
-21.8653787938368
30
0
0
SPLINE
5
C0
100
AcDbEntity
8
SK1
62
256
6
ByLayer
370
-1
48
1
60
0
100
AcDbSpline
70
4
71
3
72
115
73
111
40
0
40
0
40
0
40
0
40
0.0065652267889423
40
0.01510939445354
40
0.0236535621181377
40
0.0321977297827355
40
0.0407418974473332
40
0.0492860651119309
40
0.0578302327765287
40
0.0663744004411264
40
0.0834627357703219
40
0.100551071099517
40
0.117639406428713
40
0.126183574093311
40
0.134727741757908
40
0.143271909422506
40
0.151816077087104
40
0.168904412416299
40
0.177448580080897
40
0.185992747745495
40
0.194536915410092
40
0.20308108307469
40
0.211625250739288
40
0.220169418403886
40
0.237257753733081
40
0.245801921397679
40
0.254346089062277
40
0.262890256726874
40
0.271434424391472
40
0.27997859205607
40
0.288522759720668
40
0.297066927385265
40
0.305611095049863
40
0.314155262714461
40
0.322699430379059
40
0.331243598043656
40
0.339787765708254
40
0.348331933372852
40
0.356876101037449
40
0.373964436366645
40
0.382508604031243
40
0.391052771695841
40
0.395324855528139
40
0.399596939360438
40
0.408141107025036
40
0.425229442354231
40
0.433773610018829
40
0.442317777683427
40
0.450861945348025
40
0.459406113012622
40
0.476494448341818
40
0.485038616006416
40
0.493582783671013
40
0.497854867503312
40
0.502126951335611
40
0.510671119000209
40
0.527759454329404
40
0.536303621994002
40
0.5448477896586
40
0.553391957323197
40
0.561936124987795
40
0.579024460316991
40
0.587568627981588
40
0.596112795646186
40
0.600384879478485
40
0.604656963310784
40
0.613201130975382
40
0.621745298639979
40
0.630289466304577
40
0.634561550136876
40
0.638833633969175
40
0.647377801633773
40
0.65592196929837
40
0.664466136962968
40
0.673010304627566
40
0.681554472292163
40
0.690098639956761
40
0.698642807621359
40
0.707186975285957
40
0.715731142950554
40
0.724275310615152
40
0.73281947827975
40
0.741363645944348
40
0.749907813608946
40
0.758451981273543
40
0.766996148938141
40
0.784084484267336
40
0.792628651931934
40
0.801172819596532
40
0.80971698726113
40
0.818261154925727
40
0.826805322590325
40
0.835349490254923
40
0.843893657919521
40
0.852437825584118
40
0.869526160913314
40
0.886614496242509
40
0.903702831571705
40
0.912246999236303
40
0.9207911669009
40
0.929335334565498
40
0.937879502230096
40
0.946423669894694
40
0.954967837559291
40
0.963512005223889
40
0.972056172888487
40
0.980600340553084
40
0.989144508217682
40
0.99768867588228
40
1
40
1
40
1
40
1
41
1
10
-0.394976888875291
20
21.8653790908894
30
0
41
1
10
-0.394976888875291
20
21.8653285680556
30
0
41
1
10
-0.394976888875291
20
21.8644673834152
30
0
41
1
10
-0.394976888875291
20
21.8604737650697
30
0
41
1
10
-0.394976888875291
20
21.8529598769268
30
0
41
1
10
-0.394976888875291
20
21.8423149188875
30
0
41
1
10
-0.394976888875291
20
21.8285907137819
30
0
41
1
10
-0.394976888875291
20
21.8118377229246
30
0
41
1
10
-0.394976888875291
20
21.7921034347989
30
0
41
1
10
-0.394976888875291
20
21.7618666429643
30
0
41
1
10
-0.394976888875291
20
21.7168668922192
30
0
41
1
10
-0.394976888875291
20
21.651618462036
30
0
41
1
10
-0.394976888875291
20
21.5881524120742
30
0
41
1
10
-0.394976888875291
20
21.5320229149808
30
0
41
1
10
-0.394976888875291
20
21.4873092663299
30
0
41
1
10
-0.394976888875291
20
21.4399968711307
30
0
41
1
10
-0.394976888875291
20
21.3734709387681
30
0
41
1
10
-0.394976888875291
20
21.3019320664004
30
0
41
1
10
-0.394976888875291
20
21.2253664719936
30
0
41
1
10
-0.394976888875291
20
21.1655031445011
30
0
41
1
10
-0.394976888875291
20
21.1032108723211
30
0
41
1
10
-0.394976888875291
20
21.038514297088
30
0
41
1
10
-0.394976888875291
20
20.9714364994015
30
0
41
1
10
-0.394976888875291
20
20.8788308563806
30
0
41
1
10
-0.394976888875291
20
20.7816354627076
30
0
41
1
10
-0.394976888875291
20
20.6797749496461
30
0
41
1
10
-0.394976888875291
20
20.6011280536546
30
0
41
1
10
-0.394976888875291
20
20.5202292190253
30
0
41
1
10
-0.394976888875291
20
20.4370981008412
30
0
41
1
10
-0.394976888875291
20
20.3517517634561
30
0
41
1
10
-0.394976888875291
20
20.2642094206366
30
0
41
1
10
-0.394976888875291
20
20.1744885542463
30
0
41
1
10
-0.394976888875291
20
20.082604770276
30
0
41
1
10
-0.394976888875291
20
19.9885758834751
30
0
41
1
10
-0.394976888875291
20
19.8924175863555
30
0
41
1
10
-0.394976888875291
20
19.79414426657
30
0
41
1
10
-0.394976888875291
20
19.6937723311917
30
0
41
1
10
-0.394976888875291
20
19.5913158900225
30
0
41
1
10
-0.394976888875291
20
19.4519091739392
30
0
41
1
10
-0.394976888875291
20
19.308501644014
30
0
41
1
10
-0.394976888875291
20
19.160920630363
30
0
41
1
10
-0.394976888875291
20
19.0670441229991
30
0
41
1
10
-0.394976888875291
20
18.9909051568102
30
0
41
1
10
-0.394976888875291
20
18.9140993494365
30
0
41
1
10
-0.394976888875291
20
18.777958735224
30
0
41
1
10
-0.394976888875291
20
18.6185131846482
30
0
41
1
10
-0.394976888875291
20
18.4550236113311
30
0
41
1
10
-0.394976888875291
20
18.330489335967
30
0
41
1
10
-0.394976888875291
20
18.2040166079408
30
0
41
1
10
-0.394976888875291
20
18.0327705937831
30
0
41
1
10
-0.394976888875291
20
17.8578219077773
30
0
41
1
10
-0.394976888875291
20
17.6789387292296
30
0
41
1
10
-0.394976888875291
20
17.5656125946474
30
0
41
1
10
-0.394976888875291
20
17.4739690253912
30
0
41
1
10
-0.394976888875291
20
17.3816993239948
30
0
41
1
10
-0.394976888875291
20
17.2186048360495
30
0
41
1
10
-0.394976888875291
20
17.0286078387926
30
0
41
1
10
-0.394976888875291
20
16.8347647509306
30
0
41
1
10
-0.394976888875291
20
16.6875786248762
30
0
41
1
10
-0.394976888875291
20
16.5385587049943
30
0
41
1
10
-0.394976888875291
20
16.3373774066279
30
0
41
1
10
-0.394976888875291
20
16.1327150774874
30
0
41
1
10
-0.394976888875291
20
15.9242804112408
30
0
41
1
10
-0.394976888875291
20
15.7925696820839
30
0
41
1
10
-0.394976888875291
20
15.6862549949744
30
0
41
1
10
-0.394976888875291
20
15.5793432837569
30
0
41
1
10
-0.394976888875291
20
15.4446487492657
30
0
41
1
10
-0.394976888875291
20
15.2812010193763
30
0
41
1
10
-0.394976888875291
20
15.1435436982815
30
0
41
1
10
-0.394976888875291
20
15.0324801920763
30
0
41
1
10
-0.394976888875291
20
14.9208273816877
30
0
41
1
10
-0.394976888875291
20
14.7802248596231
30
0
41
1
10
-0.394976888875291
20
14.6097059483473
30
0
41
1
10
-0.394976888875291
20
14.4374320816019
30
0
41
1
10
-0.394976888875291
20
14.2634095816694
30
0
41
1
10
-0.394976888875291
20
14.0876420714538
30
0
41
1
10
-0.394976888875291
20
13.9101338497815
30
0
41
1
10
-0.394976888875291
20
13.7308904366346
30
0
41
1
10
-0.394976888875291
20
13.549915145406
30
0
41
1
10
-0.394976888875291
20
13.3672125481811
30
0
41
1
10
-0.394976888875291
20
13.182787463215
30
0
41
1
10
-0.394976888875291
20
12.9966426140257
30
0
41
1
10
-0.394976888875291
20
12.8087826212334
30
0
41
1
10
-0.394976888875291
20
12.6192114742801
30
0
41
1
10
-0.394976888875291
20
12.4279318017785
30
0
41
1
10
-0.394976888875291
20
12.1705475891153
30
0
41
1
10
-0.394976888875291
20
11.9099848332047
30
0
41
1
10
-0.394976888875291
20
11.6458042855523
30
0
41
1
10
-0.394976888875291
20
11.4460361066677
30
0
41
1
10
-0.394976888875291
20
11.2445799083311
30
0
41
1
10
-0.394976888875291
20
11.0414389105764
30
0
41
1
10
-0.394976888875291
20
10.8366153761928
30
0
41
1
10
-0.394976888875291
20
10.630113157504
30
0
41
1
10
-0.394976888875291
20
10.4219344610486
30
0
41
1
10
-0.394976888875291
20
10.1420454829465
30
0
41
1
10
-0.394976888875291
20
9.78821091215369
30
0
41
1
10
-0.394976888875291
20
9.3568391135907
30
0
41
1
10
-0.394976888875291
20
8.99192950801697
30
0
41
1
10
-0.394976888875291
20
8.69651812098675
30
0
41
1
10
-0.394976888875291
20
8.47338949471808
30
0
41
1
10
-0.394976888875291
20
8.24861627222975
30
0
41
1
10
-0.394976888875291
20
8.0222029406992
30
0
41
1
10
-0.394976888875291
20
7.79415362199521
30
0
41
1
10
-0.394976888875291
20
7.56447255210355
30
0
41
1
10
-0.394976888875291
20
7.33316516004027
30
0
41
1
10
-0.394976888875291
20
7.10023725398264
30
0
41
1
10
-0.394976888875291
20
6.86569504295815
30
0
41
1
10
-0.394976888875291
20
6.62954558311137
30
0
41
1
10
-0.394976888875291
20
6.44960786563362
30
0
41
1
10
-0.394976888875291
20
6.34849183540922
30
0
41
1
10
-0.394976888875291
20
6.32694309067119
30
0
0
SPLINE
5
C1
100
AcDbEntity
8
SK1
62
256
6
ByLayer
370
-1
48
1
60
0
100
AcDbSpline
70
4
71
3
72
299
73
295
40
0
40
0
40
0
40
0
40
0.0029480147080424
40
0.0064730859734945
40
0.0099981572389466
40
0.0135232285043988
40
0.0170482997698508
40
0.020573371035303
40
0.024098442300755
40
0.0276235135662072
40
0.0346736560971114
40
0.0417237986280156
40
0.0487739411589198
40
0.0522990124243719
40
0.055824083689824
40
0.0593491549552761
40
0.0628742262207282
40
0.0699243687516324
40
0.0734494400170846
40
0.0769745112825366
40
0.0804995825479887
40
0.0840246538134408
40
0.087549725078893
40
0.0910747963443451
40
0.0981249388752492
40
0.101650010140701
40
0.105175081406154
40
0.108700152671606
40
0.112225223937058
40
0.11575029520251
40
0.119275366467962
40
0.122800437733414
40
0.126325508998866
40
0.129850580264318
40
0.13337565152977
40
0.136900722795222
40
0.140425794060675
40
0.143950865326127
40
0.147475936591579
40
0.154526079122483
40
0.158051150387935
40
0.161576221653387
40
0.163338757286113
40
0.165101292918839
40
0.168626364184291
40
0.175676506715196
40
0.179201577980648
40
0.1827266492461
40
0.186251720511552
40
0.189776791777004
40
0.196826934307908
40
0.20035200557336
40
0.203877076838813
40
0.205639612471539
40
0.207402148104265
40
0.210927219369717
40
0.217977361900621
40
0.221502433166073
40
0.225027504431525
40
0.228552575696977
40
0.232077646962429
40
0.239127789493334
40
0.242652860758786
40
0.246177932024238
40
0.247940467656964
40
0.24970300328969
40
0.253228074555142
40
0.256753145820594
40
0.260278217086046
40
0.262040752718772
40
0.263803288351498
40
0.267328359616951
40
0.270853430882403
40
0.274378502147855
40
0.277903573413307
40
0.281428644678759
40
0.284953715944211
40
0.288478787209663
40
0.292003858475115
40
0.295528929740567
40
0.299054001006019
40
0.302579072271472
40
0.306104143536924
40
0.309629214802376
40
0.313154286067828
40
0.31667935733328
40
0.323729499864184
40
0.327254571129636
40
0.330779642395088
40
0.33430471366054
40
0.337829784925993
40
0.341354856191445
40
0.344879927456897
40
0.348404998722349
40
0.351930069987801
40
0.358980212518705
40
0.366030355049609
40
0.373080497580514
40
0.376605568845966
40
0.380130640111418
40
0.38365571137687
40
0.387180782642322
40
0.390705853907774
40
0.394230925173226
40
0.397755996438678
40
0.401281067704131
40
0.404806138969583
40
0.408331210235035
40
0.411856281500487
40
0.415381352765939
40
0.418906424031391
40
0.422431495296843
40
0.425956566562295
40
0.429481637827747
40
0.433006709093199
40
0.434769244725926
40
0.436531780358652
40
0.438294315991378
40
0.440056851624104
40
0.443581922889556
40
0.447106994155008
40
0.448869529787734
40
0.45063206542046
40
0.452394601053186
40
0.454157136685912
40
0.457682207951364
40
0.45944474358409
40
0.461207279216816
40
0.462969814849543
40
0.464732350482269
40
0.466494886114995
40
0.468257421747721
40
0.470019957380447
40
0.471782493013173
40
0.473545028645899
40
0.475307564278625
40
0.477070099911351
40
0.478832635544077
40
0.480595171176803
40
0.482357706809529
40
0.484120242442255
40
0.485882778074981
40
0.487645313707707
40
0.489407849340433
40
0.491170384973159
40
0.492932920605885
40
0.494695456238611
40
0.496457991871337
40
0.498220527504063
40
0.499983063136789
40
0.501745598769516
40
0.503508134402242
40
0.505270670034968
40
0.507033205667694
40
0.50879574130042
40
0.510558276933146
40
0.512320812565872
40
0.514083348198598
40
0.515845883831324
40
0.51760841946405
40
0.519370955096776
40
0.521133490729502
40
0.522896026362228
40
0.524658561994954
40
0.52642109762768
40
0.528183633260406
40
0.529946168893133
40
0.531708704525859
40
0.533471240158585
40
0.535233775791311
40
0.536996311424037
40
0.538758847056763
40
0.540521382689489
40
0.542283918322215
40
0.545808989587667
40
0.547571525220393
40
0.549334060853119
40
0.551096596485845
40
0.552859132118571
40
0.556384203384023
40
0.559909274649475
40
0.561671810282201
40
0.563434345914927
40
0.565196881547654
40
0.56695941718038
40
0.570484488445832
40
0.574009559711284
40
0.577534630976736
40
0.581059702242188
40
0.58458477350764
40
0.588109844773092
40
0.591634916038544
40
0.595159987303996
40
0.598685058569449
40
0.602210129834901
40
0.605735201100353
40
0.609260272365805
40
0.612785343631257
40
0.616310414896709
40
0.619835486162161
40
0.623360557427613
40
0.626885628693065
40
0.63393577122397
40
0.640985913754874
40
0.648036056285778
40
0.65156112755123
40
0.655086198816682
40
0.658611270082134
40
0.662136341347586
40
0.665661412613039
40
0.669186483878491
40
0.672711555143943
40
0.676236626409395
40
0.683286768940299
40
0.686811840205751
40
0.690336911471203
40
0.693861982736655
40
0.697387054002107
40
0.70091212526756
40
0.704437196533012
40
0.707962267798464
40
0.711487339063916
40
0.715012410329368
40
0.71853748159482
40
0.722062552860272
40
0.725587624125724
40
0.732637766656629
40
0.736162837922081
40
0.739687909187533
40
0.746738051718437
40
0.750263122983889
40
0.753788194249341
40
0.757313265514794
40
0.760838336780246
40
0.76788847931115
40
0.771413550576602
40
0.774938621842054
40
0.778463693107506
40
0.781988764372958
40
0.789038906903862
40
0.792563978169315
40
0.796089049434767
40
0.799614120700219
40
0.803139191965671
40
0.810189334496575
40
0.813714405762027
40
0.817239477027479
40
0.820764548292931
40
0.824289619558383
40
0.831339762089288
40
0.83486483335474
40
0.838389904620192
40
0.841914975885644
40
0.845440047151096
40
0.852490189682
40
0.856015260947452
40
0.859540332212904
40
0.863065403478357
40
0.866590474743809
40
0.870115546009261
40
0.873640617274713
40
0.877165688540165
40
0.880690759805617
40
0.884215831071069
40
0.887740902336521
40
0.891265973601974
40
0.894791044867426
40
0.898316116132878
40
0.90184118739833
40
0.908891329929234
40
0.912416401194686
40
0.915941472460138
40
0.91946654372559
40
0.922991614991042
40
0.926516686256495
40
0.930041757521947
40
0.937091900052851
40
0.940616971318303
40
0.944142042583755
40
0.947667113849207
40
0.951192185114659
40
0.958242327645563
40
0.961767398911016
40
0.965292470176468
40
0.96881754144192
40
0.972342612707372
40
0.975867683972824
40
0.979392755238276
40
0.982917826503728
40
0.98644289776918
40
0.989967969034633
40
0.993493040300085
40
0.997018111565537
40
1
40
1
40
1
40
1
41
1
10
-38
20
20.2923486452802
30
0
41
1
10
-38
20
20.2923551237785
30
0
41
1
10
-38
20
20.2915870930246
30
0
41
1
10
-38
20
20.2877827415225
30
0
41
1
10
-38
20
20.2807871950942
30
0
41
1
10
-38
20
20.270864225278
30
0
41
1
10
-38
20
20.2580557575388
30
0
41
1
10
-38
20
20.2424031034125
30
0
41
1
10
-38
20
20.2239454925533
30
0
41
1
10
-38
20
20.19551262204
30
0
41
1
10
-38
20
20.153458157969
30
0
41
1
10
-38
20
20.0921783324266
30
0
41
1
10
-38
20
20.0326760120608
30
0
41
1
10
-38
20
19.9796195423852
30
0
41
1
10
-38
20
19.9374871337363
30
0
41
1
10
-38
20
19.8928775037255
30
0
41
1
10
-38
20
19.8298739849263
30
0
41
1
10
-38
20
19.7628242930463
30
0
41
1
10
-38
20
19.6902080345968
30
0
41
1
10
-38
20
19.6336084813315
30
0
41
1
10
-38
20
19.5746836513967
30
0
41
1
10
-38
20
19.5134574775013
30
0
41
1
10
-38
20
19.4499498796239
30
0
41
1
10
-38
20
19.361926580552
30
0
41
1
10
-38
20
19.2704514952516
30
0
41
1
10
-38
20
19.1735363516591
30
0
41
1
10
-38
20
19.0989364266239
30
0
41
1
10
-38
20
19.0221745884206
30
0
41
1
10
-38
20
18.9432715601189
30
0
41
1
10
-38
20
18.8622425921487
30
0
41
1
10
-38
20
18.7791047356355
30
0
41
1
10
-38
20
18.6938772447032
30
0
41
1
10
-38
20
18.6065734364562
30
0
41
1
10
-38
20
18.5172096781029
30
0
41
1
10
-38
20
18.4258037757915
30
0
41
1
10
-38
20
18.3323676597213
30
0
41
1
10
-38
20
18.236917040573
30
0
41
1
10
-38
20
18.1394682315479
30
0
41
1
10
-38
20
18.006423045464
30
0
41
1
10
-38
20
17.870842154793
30
0
41
1
10
-38
20
17.7299440627733
30
0
41
1
10
-38
20
17.6408187485726
30
0
41
1
10
-38
20
17.5681131617785
30
0
41
1
10
-38
20
17.4947669133713
30
0
41
1
10
-38
20
17.3649201654158
30
0
41
1
10
-38
20
17.2140632768009
30
0
41
1
10
-38
20
17.0578935907134
30
0
41
1
10
-38
20
16.9392992293059
30
0
41
1
10
-38
20
16.8188549914818
30
0
41
1
10
-38
20
16.6552510003021
30
0
41
1
10
-38
20
16.489672496603
30
0
41
1
10
-38
20
16.3187666825072
30
0
41
1
10
-38
20
16.2111031772939
30
0
41
1
10
-38
20
16.1235473577608
30
0
41
1
10
-38
20
16.0353949417433
30
0
41
1
10
-38
20
15.8797855584285
30
0
41
1
10
-38
20
15.6999813794666
30
0
41
1
10
-38
20
15.5148116907138
30
0
41
1
10
-38
20
15.3746600384839
30
0
41
1
10
-38
20
15.2327750536327
30
0
41
1
10
-38
20
15.0406360987563
30
0
41
1
10
-38
20
14.8470518249568
30
0
41
1
10
-38
20
14.6480433816337
30
0
41
1
10
-38
20
14.5230237603812
30
0
41
1
10
-38
20
14.4215395322791
30
0
41
1
10
-38
20
14.319494446119
30
0
41
1
10
-38
20
14.1916826014269
30
0
41
1
10
-38
20
14.0362107113462
30
0
41
1
10
-38
20
13.905633632864
30
0
41
1
10
-38
20
13.7996824703933
30
0
41
1
10
-38
20
13.6931799140641
30
0
41
1
10
-38
20
13.5598675642285
30
0
41
1
10
-38
20
13.3977994204325
30
0
41
1
10
-38
20
13.2340971553998
30
0
41
1
10
-38
20
13.0687736820565
30
0
41
1
10
-38
20
12.9018380893652
30
0
41
1
10
-38
20
12.7332922951509
30
0
41
1
10
-38
20
12.5631480531082
30
0
41
1
10
-38
20
12.3914123687224
30
0
41
1
10
-38
20
12.2180896154105
30
0
41
1
10
-38
20
12.0431930727568
30
0
41
1
10
-38
20
11.8667275879997
30
0
41
1
10
-38
20
11.6886992220563
30
0
41
1
10
-38
20
11.5091211559413
30
0
41
1
10
-38
20
11.3279971676986
30
0
41
1
10
-38
20
11.0835274575533
30
0
41
1
10
-38
20
10.8388445996823
30
0
41
1
10
-38
20
10.5882272221232
30
0
41
1
10
-38
20
10.3995106478125
30
0
41
1
10
-38
20
10.2093006505112
30
0
41
1
10
-38
20
10.0176111741013
30
0
41
1
10
-38
20
9.82444825814403
30
0
41
1
10
-38
20
9.62982433363783
30
0
41
1
10
-38
20
9.43375032895256
30
0
41
1
10
-38
20
9.16930024978845
30
0
41
1
10
-38
20
8.83774034996793
30
0
41
1
10
-38
20
8.43283016067576
30
0
41
1
10
-38
20
8.09202302704495
30
0
41
1
10
-38
20
7.81440668711983
30
0
41
1
10
-38
20
7.60585888080686
30
0
41
1
10
-38
20
7.39600299493051
30
0
41
1
10
-38
20
7.18486050853949
30
0
41
1
10
-38
20
6.972454820743
30
0
41
1
10
-38
20
6.75880464755275
30
0
41
1
10
-38
20
6.54393387937549
30
0
41
1
10
-38
20
6.32787102064523
30
0
41
1
10
-38
20
6.11064460524278
30
0
41
1
10
-38
20
5.89228682406826
30
0
41
1
10
-38
20
5.67283049766698
30
0
41
1
10
-38
20
5.45231041402207
30
0
41
1
10
-38
20
5.2307661198837
30
0
41
1
10
-38
20
5.00824236668089
30
0
41
1
10
-38
20
4.78478453894905
30
0
41
1
10
-38
20
4.56044477194348
30
0
41
1
10
-38
20
4.3737593142329
30
0
41
1
10
-38
20
4.22222174308928
30
0
41
1
10
-38
20
4.10916467830538
30
0
41
1
10
-38
20
3.99593123757285
30
0
41
1
10
-38
20
3.84368490764803
30
0
41
1
10
-38
20
3.65544484289478
30
0
41
1
10
-38
20
3.46668355973628
30
0
41
1
10
-38
20
3.31336520651504
30
0
41
1
10
-38
20
3.19916977025284
30
0
41
1
10
-38
20
3.0848771849204
30
0
41
1
10
-38
20
2.93116533478539
30
0
41
1
10
-38
20
2.7810630459212
30
0
41
1
10
-38
20
2.62697343511894
30
0
41
1
10
-38
20
2.51237687493429
30
0
41
1
10
-38
20
2.39774974487253
30
0
41
1
10
-38
20
2.28311555219403
30
0
41
1
10
-38
20
2.16847618976473
30
0
41
1
10
-38
20
2.05384840107453
30
0
41
1
10
-38
20
1.93924458170406
30
0
41
1
10
-38
20
1.82466899171223
30
0
41
1
10
-38
20
1.71014121398446
30
0
41
1
10
-38
20
1.59566009898879
30
0
41
1
10
-38
20
1.48124309885608
30
0
41
1
10
-38
20
1.36688883878045
30
0
41
1
10
-38
20
1.25260906632701
30
0
41
1
10
-38
20
1.13840321986405
30
0
41
1
10
-38
20
1.02427614220741
30
0
41
1
10
-38
20
0.910225811803912
30
0
41
1
10
-38
20
0.796251800903974
30
0
41
1
10
-38
20
0.682349388495624
30
0
41
1
10
-38
20
0.568513483413511
30
0
41
1
10
-38
20
0.454735475948979
30
0
41
1
10
-38
20
0.341006791030111
30
0
41
1
10
-38
20
0.227315919379521
30
0
41
1
10
-38
20
0.113651444289076
30
0
41
1
10
-38
20
2.39306814E-08
30
0
41
1
10
-38
20
-0.113651428861147
30
0
41
1
10
-38
20
-0.227315965161807
30
0
41
1
10
-38
20
-0.341006831114754
30
0
41
1
10
-38
20
-0.454735424962735
30
0
41
1
10
-38
20
-0.568513412391525
30
0
41
1
10
-38
20
-0.682349437337052
30
0
41
1
10
-38
20
-0.796251898049235
30
0
41
1
10
-38
20
-0.910225765592202
30
0
41
1
10
-38
20
-1.02427601417025
30
0
41
1
10
-38
20
-1.13840324907633
30
0
41
1
10
-38
20
-1.25260921865757
30
0
41
1
10
-38
20
-1.36688883944316
30
0
41
1
10
-38
20
-1.48124293103632
30
0
41
1
10
-38
20
-1.59566004663384
30
0
41
1
10
-38
20
-1.71014137238996
30
0
41
1
10
-38
20
-1.82466911261432
30
0
41
1
10
-38
20
-1.93924446866484
30
0
41
1
10
-38
20
-2.05384821372689
30
0
41
1
10
-38
20
-2.1684762190329
30
0
41
1
10
-38
20
-2.28311576323418
30
0
41
1
10
-38
20
-2.39774983280105
30
0
41
1
10
-38
20
-2.51237672316307
30
0
41
1
10
-38
20
-2.62697323991799
30
0
41
1
10
-38
20
-2.78106315146928
30
0
41
1
10
-38
20
-2.93116552693385
30
0
41
1
10
-38
20
-3.08487708212581
30
0
41
1
10
-38
20
-3.19916954549007
30
0
41
1
10
-38
20
-3.31336512600546
30
0
41
1
10
-38
20
-3.46668375918677
30
0
41
1
10
-38
20
-3.65544489425088
30
0
41
1
10
-38
20
-3.84368470208372
30
0
41
1
10
-38
20
-3.99593117493791
30
0
41
1
10
-38
20
-4.10916481607396
30
0
41
1
10
-38
20
-4.22222196867938
30
0
41
1
10
-38
20
-4.37375933349006
30
0
41
1
10
-38
20
-4.56044458630845
30
0
41
1
10
-38
20
-4.78478457648492
30
0
41
1
10
-38
20
-5.00824253816086
30
0
41
1
10
-38
20
-5.23076600439052
30
0
41
1
10
-38
20
-5.45231022599046
30
0
41
1
10
-38
20
-5.67283041504652
30
0
41
1
10
-38
20
-5.89228674128222
30
0
41
1
10
-38
20
-6.11064496108523
30
0
41
1
10
-38
20
-6.32787239667013
30
0
41
1
10
-38
20
-6.54393525610644
30
0
41
1
10
-38
20
-6.75880334040127
30
0
41
1
10
-38
20
-6.97245311766207
30
0
41
1
10
-38
20
-7.18486111103374
30
0
41
1
10
-38
20
-7.39600347561742
30
0
41
1
10
-38
20
-7.60585874971361
30
0
41
1
10
-38
20
-7.8144064520111
30
0
41
1
10
-38
20
-8.09202295752311
30
0
41
1
10
-38
20
-8.43283023540656
30
0
41
1
10
-38
20
-8.83774029355055
30
0
41
1
10
-38
20
-9.16930023887323
30
0
41
1
10
-38
20
-9.43375044009511
30
0
41
1
10
-38
20
-9.62982432960192
30
0
41
1
10
-38
20
-9.82444814962994
30
0
41
1
10
-38
20
-10.0176111126089
30
0
41
1
10
-38
20
-10.2093007057547
30
0
41
1
10
-38
20
-10.3995107409486
30
0
41
1
10
-38
20
-10.5882272324294
30
0
41
1
10
-38
20
-10.8388445170812
30
0
41
1
10
-38
20
-11.0835274377931
30
0
41
1
10
-38
20
-11.327997250045
30
0
41
1
10
-38
20
-11.5091211965041
30
0
41
1
10
-38
20
-11.6886991809046
30
0
41
1
10
-38
20
-11.8667275177687
30
0
41
1
10
-38
20
-12.0431930522803
30
0
41
1
10
-38
20
-12.2180896645831
30
0
41
1
10
-38
20
-12.3914124247035
30
0
41
1
10
-38
20
-12.5631480735019
30
0
41
1
10
-38
20
-12.7332924196477
30
0
41
1
10
-38
20
-12.9018387248249
30
0
41
1
10
-38
20
-13.068774902876
30
0
41
1
10
-38
20
-13.2899980003418
30
0
41
1
10
-38
20
-13.5056406071554
30
0
41
1
10
-38
20
-13.7202970548285
30
0
41
1
10
-38
20
-13.9327572918622
30
0
41
1
10
-38
20
-14.1397069500695
30
0
41
1
10
-38
20
-14.3454836148157
30
0
41
1
10
-38
20
-14.4976048095277
30
0
41
1
10
-38
20
-14.6480433741443
30
0
41
1
10
-38
20
-14.8470538575164
30
0
41
1
10
-38
20
-15.0406366439893
30
0
41
1
10
-38
20
-15.2327734637881
30
0
41
1
10
-38
20
-15.3746583733236
30
0
41
1
10
-38
20
-15.5148115582755
30
0
41
1
10
-38
20
-15.6999837411247
30
0
41
1
10
-38
20
-15.8797870255403
30
0
41
1
10
-38
20
-16.0578801048401
30
0
41
1
10
-38
20
-16.189216581434
30
0
41
1
10
-38
20
-16.3187661779867
30
0
41
1
10
-38
20
-16.4896741385663
30
0
41
1
10
-38
20
-16.6552512602625
30
0
41
1
10
-38
20
-16.8188545807649
30
0
41
1
10
-38
20
-16.9392987318018
30
0
41
1
10
-38
20
-17.0578934672827
30
0
41
1
10
-38
20
-17.2140648101705
30
0
41
1
10
-38
20
-17.3649216616153
30
0
41
1
10
-38
20
-17.513530035822
30
0
41
1
10
-38
20
-17.6226956365842
30
0
41
1
10
-38
20
-17.7299433731025
30
0
41
1
10
-38
20
-17.8708440004863
30
0
41
1
10
-38
20
-18.0064238716364
30
0
41
1
10
-38
20
-18.1394672902698
30
0
41
1
10
-38
20
-18.236915915677
30
0
41
1
10
-38
20
-18.3323672965474
30
0
41
1
10
-38
20
-18.4258040962282
30
0
41
1
10
-38
20
-18.517209887002
30
0
41
1
10
-38
20
-18.6065734896479
30
0
41
1
10
-38
20
-18.6938772522127
30
0
41
1
10
-38
20
-18.7791047692188
30
0
41
1
10
-38
20
-18.8622426359768
30
0
41
1
10
-38
20
-18.9432715834756
30
0
41
1
10
-38
20
-19.0221745805325
30
0
41
1
10
-38
20
-19.0989364136873
30
0
41
1
10
-38
20
-19.1735363647814
30
0
41
1
10
-38
20
-19.2704515417461
30
0
41
1
10
-38
20
-19.3619266112172
30
0
41
1
10
-38
20
-19.4499498647732
30
0
41
1
10
-38
20
-19.5134574724377
30
0
41
1
10
-38
20
-19.5746836830748
30
0
41
1
10
-38
20
-19.6336085328263
30
0
41
1
10
-38
20
-19.6902080668946
30
0
41
1
10
-38
20
-19.7628242842049
30
0
41
1
10
-38
20
-19.829873984374
30
0
41
1
10
-38
20
-19.8928775551026
30
0
41
1
10
-38
20
-19.9374871757691
30
0
41
1
10
-38
20
-19.9796195436674
30
0
41
1
10
-38
20
-20.0326760063813
30
0
41
1
10
-38
20
-20.0800381474625
30
0
41
1
10
-38
20
-20.1228090027496
30
0
41
1
10
-38
20
-20.1521177658612
30
0
41
1
10
-38
20
-20.1787668505585
30
0
41
1
10
-38
20
-20.2027210424566
30
0
41
1
10
-38
20
-20.2239455432986
30
0
41
1
10
-38
20
-20.2424031363825
30
0
41
1
10
-38
20
-20.2580557552655
30
0
41
1
10
-38
20
-20.2708642249464
30
0
41
1
10
-38
20
-20.2807872561095
30
0
41
1
10
-38
20
-20.2877829489451
30
0
41
1
10
-38
20
-20.2916003071436
30
0
41
1
10
-38
20
-20.2923632017472
30
0
41
1
10
-38
20
-20.2923482583892
30
0
0
SPLINE
5
C2
100
AcDbEntity
8
1
62
256
6
ByLayer
370
-1
48
1
60
0
100
AcDbSpline
70
4
71
3
72
16
73
12
40
0
40
0
40
0
40
0
40
0.0629122300433111
40
0.0629122300433111
40
0.285786809133464
40
0.285786809133464
40
0.511455234977574
40
0.511455234977574
40
0.751578457748312
40
0.751578457748312
40
1
40
1
40
1
40
1
41
1
10
58.2450300843947
20
40.6948231169258
30
0
41
1
10
58.2407584028505
20
40.7020749931408
30
0
41
1
10
58.2361674603231
20
40.7091499542341
30
0
41
1
10
58.2141235348102
20
40.7401059210537
30
0
41
1
10
58.1930099080492
20
40.7617552524265
30
0
41
1
10
58.1462608535809
20
40.797180498656
30
0
41
1
10
58.1199913482273
20
40.8113241038094
30
0
41
1
10
58.0644356824657
20
40.8314923672781
30
0
41
1
10
58.0343792673649
20
40.8372215756573
30
0
41
1
10
57.9747187284773
20
40.8395999525681
30
0
41
1
10
57.9444951250747
20
40.8359840279764
30
0
41
1
10
57.9161897195274
20
40.8282196138728
30
0
0
SPLINE
5
C3
100
AcDbEntity
8
SK1
62
256
6
ByLayer
370
-1
48
1
60
0
100
AcDbSpline
70
4
71
3
72
10
73
6
40
0
40
0
40
0
40
0
40
0.5
40
0.5
40
1
40
1
40
1
40
1
41
1
10
-1.30710678118655
20
4.81101329740289
30
0
41
1
10
-1.57713284158248
20
3.28321078789992
30
0
41
1
10
-1.79449339715802
20
1.64680798700616
30
0
41
1
10
-1.79438545511842
20
-1.6481258022005
30
0
41
1
10
-1.57704898370507
20
-3.28368386467716
30
0
41
1
10
-1.30710678118665
20
-4.81101321788435
30
0
0
SPLINE
5
C4
100
AcDbEntity
8
1
62
256
6
ByLayer
370
-1
48
1
60
0
100
AcDbSpline
70
4
71
3
72
14
73
10
40
0
40
0
40
0
40
0
40
0.283781629690385
40
0.283781629690385
40
0.5701276901684
40
0.5701276901684
40
0.829311744930065
40
0.829311744930065
40
1
40
1
40
1
40
1
41
1
10
58.2022763170749
20
40.3425409482829
30
0
41
1
10
58.2256933100807
20
40.3665042335645
30
0
41
1
10
58.2456197587716
20
40.3953544158688
30
0
41
1
10
58.2742345310943
20
40.4591794386299
30
0
41
1
10
58.2832057467477
20
40.4952216070112
30
0
41
1
10
58.2867416035546
20
40.5650496982244
30
0
41
1
10
58.2825850827192
20
40.5997827307227
30
0
41
1
10
58.2658789267386
20
40.6540888856674
30
0
41
1
10
58.2565756345106
20
40.6752226623016
30
0
41
1
10
58.2450300843947
20
40.6948231169258
30
0
0
SPLINE
5
C5
100
AcDbEntity
8
1
62
256
6
ByLayer
370
-1
48
1
60
0
100
AcDbSpline
70
4
71
3
72
18
73
14
40
0
40
0
40
0
40
0
40
0.212437915935464
40
0.212437915935464
40
0.386573882570249
40
0.386573882570249
40
0.562391983425683
40
0.562391983425683
40
0.715355871380655
40
0.715355871380655
40
0.918207054231869
40
0.918207054231869
40
1
40
1
40
1
40
1
41
1
10
58.2022763170749
20
40.3425409482829
30
0
41
1
10
58.1526851400906
20
40.2917928645626
30
0
41
1
10
58.1094158458846
20
40.2315195380561
30
0
41
1
10
58.0495549671509
20
40.108987720789
30
0
41
1
10
58.0290292691512
20
40.0475930660613
30
0
41
1
10
58.0061743591356
20
39.919854421854
30
0
41
1
10
58.0038709583575
20
39.8515417068975
30
0
41
1
10
58.0176653760646
20
39.7291362869031
30
0
41
1
10
58.0314875666504
20
39.6728801826079
30
0
41
1
10
58.0768439953168
20
39.5525859558143
30
0
41
1
10
58.1132409720266
20
39.4898194541137
30
0
41
1
10
58.1736795280752
20
39.4138871964059
30
0
41
1
10
58.1923865989286
20
39.3931617314631
30
0
41
1
10
58.2120821042534
20
39.3738065381735
30
0
0
SPLINE
5
C6
100
AcDbEntity
8
1
62
256
6
ByLayer
370
-1
48
1
60
0
100
AcDbSpline
70
4
71
3
72
12
73
8
40
0
40
0
40
0
40
0
40
0.422118800761381
40
0.422118800761381
40
0.843213952314066
40
0.843213952314066
40
1
40
1
40
1
40
1
41
1
10
56.2613285241303
20
40.9232528375446
30
0
41
1
10
56.3152594672913
20
40.9645876277962
30
0
41
1
10
56.3626809793173
20
41.0140999442105
30
0
41
1
10
56.4384365911395
20
41.1191977701968
30
0
41
1
10
56.4680063019068
20
41.1761225397102
30
0
41
1
10
56.4968637366354
20
41.2557621961845
30
0
41
1
10
56.5035875298535
20
41.2777531055449
30
0
41
1
10
56.5091674051873
20
41.2998628591432
30
0
0
SPLINE
5
C7
100
AcDbEntity
8
1
62
256
6
ByLayer
370
-1
48
1
60
0
100
AcDbSpline
70
4
71
3
72
12
73
8
40
0
40
0
40
0
40
0
40
0.495913112050052
40
0.495913112050052
40
0.900351883345293
40
0.900351883345293
40
1
40
1
40
1
40
1
41
1
10
55.6683707535947
20
40.8045957816995
30
0
41
1
10
55.7373351350664
20
40.7863283257129
30
0
41
1
10
55.8114974918919
20
40.7783730927345
30
0
41
1
10
55.9480082704892
20
40.786872625421
30
0
41
1
10
56.0115364852621
20
40.7993506499573
30
0
41
1
10
56.0878216647368
20
40.8263068085883
30
0
41
1
10
56.1029673555807
20
40.8322666066899
30
0
41
1
10
56.1179159741985
20
40.8387763897151
30
0
0
SPLINE
5
C8
100
AcDbEntity
8
1
62
256
6
ByLayer
370
-1
48
1
60
0
100
AcDbSpline
70
4
71
3
72
18
73
14
40
0
40
0
40
0
40
0
40
0.212437915935466
40
0.212437915935466
40
0.386573882570249
40
0.386573882570249
40
0.562391983425679
40
0.562391983425679
40
0.715355871380643
40
0.715355871380643
40
0.918207054231851
40
0.918207054231851
40
1
40
1
40
1
40
1
41
1
10
55.398741276754
20
39.3453291545614
30
0
41
1
10
55.4483324537383
20
39.3960772382816
30
0
41
1
10
55.4916017479443
20
39.4563505647881
30
0
41
1
10
55.5514626266781
20
39.5788823820553
30
0
41
1
10
55.5719883246777
20
39.6402770367829
30
0
41
1
10
55.5948432346933
20
39.7680156809902
30
0
41
1
10
55.5971466354714
20
39.8363283959467
30
0
41
1
10
55.5833522177644
20
39.9587338159411
30
0
41
1
10
55.5695300271785
20
40.0149899202364
30
0
41
1
10
55.5241735985121
20
40.13528414703
30
0
41
1
10
55.4877766218023
20
40.1980506487305
30
0
41
1
10
55.4273380657537
20
40.2739829064383
30
0
41
1
10
55.4086309949003
20
40.2947083713811
30
0
41
1
10
55.3889354895755
20
40.3140635646707
30
0
0
SPLINE
5
C9
100
AcDbEntity
8
SK1
62
256
6
ByLayer
370
-1
48
1
60
0
100
AcDbSpline
70
4
71
3
72
22
73
18
40
0
40
0
40
0
40
0
40
0.025518692999354
40
0.025518692999354
40
0.0515625307794633
40
0.0515625307794633
40
0.0689220502117166
40
0.0689220502117166
40
0.0862030429090035
40
0.0862030429090035
40
0.113761926258803
40
0.113761926258803
40
0.167639902693809
40
0.167639902693809
40
0.357269752158031
40
0.357269752158031
40
1
40
1
40
1
40
1
41
1
10
-0.394976888875291
20
6.326943090669
30
0
41
1
10
-0.389699799773268
20
6.32229605774103
30
0
41
1
10
-0.383945540291066
20
6.31808234313019
30
0
41
1
10
-0.371336208800912
20
6.31155719556298
30
0
41
1
10
-0.364237316839024
20
6.30923328231674
30
0
41
1
10
-0.35209572007625
20
6.30844589498398
30
0
41
1
10
-0.347038791108773
20
6.3089739150856
30
0
41
1
10
-0.337436838154147
20
6.31166640764118
30
0
41
1
10
-0.332782752688161
20
6.31383711710231
30
0
41
1
10
-0.321723955926899
20
6.32078578121266
30
0
41
1
10
-0.315689795621651
20
6.32640446307903
30
0
41
1
10
-0.300083216036072
20
6.3442802085479
30
0
41
1
10
-0.29205715892563
20
6.35806878925098
30
0
41
1
10
-0.261294067338739
20
6.42092251611513
30
0
41
1
10
-0.248999237994838
20
6.47445017323312
30
0
41
1
10
-0.204624309665832
20
6.70435570668306
30
0
41
1
10
-0.200000000000969
20
6.88379158154922
30
0
41
1
10
-0.200000000000969
20
7.05951756777665
30
0
0
SPLINE
5
CA
100
AcDbEntity
8
1
62
256
6
ByLayer
370
-1
48
1
60
0
100
AcDbSpline
70
4
71
3
72
16
73
12
40
0
40
0
40
0
40
0
40
0.0570827577111469
40
0.0570827577111469
40
0.280041604295529
40
0.280041604295529
40
0.505461650692493
40
0.505461650692493
40
0.745065830758079
40
0.745065830758079
40
1
40
1
40
1
40
1
41
1
10
58.2619581681839
20
39.0224619933026
30
0
41
1
10
58.2657025212918
20
39.0291234199207
30
0
41
1
10
58.2691883196002
20
39.0359384310287
30
0
41
1
10
58.2848360929755
20
39.0697390757445
30
0
41
1
10
58.2931845140327
20
39.09883324984
30
0
41
1
10
58.3007775429844
20
39.1570137625237
30
0
41
1
10
58.3000405666572
20
39.1868344776204
30
0
41
1
10
58.2900256188938
20
39.2450441179565
30
0
41
1
10
58.2801190660267
20
39.2739593522467
30
0
41
1
10
58.2522710412185
20
39.3276552955612
30
0
41
1
10
58.2335543504067
20
39.3527053037647
30
0
41
1
10
58.2120821042534
20
39.3738065381735
30
0
0
SPLINE
5
CB
100
AcDbEntity
8
1
62
256
6
ByLayer
370
-1
48
1
60
0
100
AcDbSpline
70
4
71
3
72
18
73
14
40
0
40
0
40
0
40
0
40
0.2124913424055
40
0.2124913424055
40
0.386617985385025
40
0.386617985385025
40
0.562426135472234
40
0.562426135472234
40
0.715388203407986
40
0.715388203407986
40
0.918248932482266
40
0.918248932482266
40
1
40
1
40
1
40
1
41
1
10
56.527348140409
20
38.3814223927765
30
0
41
1
10
56.5083805560677
20
38.4498140400792
30
0
41
1
10
56.477995030478
20
38.5175252277868
30
0
41
1
10
56.4021063493468
20
38.6308528010245
30
0
41
1
10
56.3593330685564
20
38.6794402173174
30
0
41
1
10
56.2603678312085
20
38.7633679977993
30
0
41
1
10
56.2024609441778
20
38.799674969111
30
0
41
1
10
56.089697117655
20
38.8492378269922
30
0
41
1
10
56.0341125194333
20
38.8655472490575
30
0
41
1
10
55.9073127404307
20
38.8867621157703
30
0
41
1
10
55.8347542887707
20
38.8868229601867
30
0
41
1
10
55.7387488930704
20
38.8727114059734
30
0
41
1
10
55.7114446622733
20
38.8669517008752
30
0
41
1
10
55.6848278743015
20
38.8596504889714
30
0
0
SPLINE
5
CC
100
AcDbEntity
8
SK1
62
256
6
ByLayer
370
-1
48
1
60
0
100
AcDbSpline
70
4
71
3
72
22
73
18
40
0
40
0
40
0
40
0
40
0.366862607601256
40
0.366862607601256
40
0.737339621375052
40
0.737339621375052
40
0.838459586400285
40
0.838459586400285
40
0.872990642836393
40
0.872990642836393
40
0.908114554314301
40
0.908114554314301
40
0.93841147631739
40
0.93841147631739
40
0.978567405872927
40
0.978567405872927
40
1
40
1
40
1
40
1
41
1
10
-1.30710678118655
20
4.81101329740289
30
0
41
1
10
-1.26411319574365
20
5.05427021725674
30
0
41
1
10
-1.2129192661193
20
5.29463858107241
30
0
41
1
10
-1.0775163929171
20
5.76447191425098
30
0
41
1
10
-0.999993942630866
20
6.0024064332149
30
0
41
1
10
-0.818580317119483
20
6.26150782359156
30
0
41
1
10
-0.772786229091963
20
6.31609141287933
30
0
41
1
10
-0.69395817555143
20
6.37002132562083
30
0
41
1
10
-0.671742895995564
20
6.38213989760789
30
0
41
1
10
-0.624176343099663
20
6.39933264200099
30
0
41
1
10
-0.598041368844491
20
6.40433410743103
30
0
41
1
10
-0.55009587381268
20
6.4042038836908
30
0
41
1
10
-0.527645089252005
20
6.40038614973912
30
0
41
1
10
-0.479150674129698
20
6.38487542657816
30
0
41
1
10
-0.453444961156862
20
6.37100758594852
30
0
41
1
10
-0.417985764291785
20
6.34622757774423
30
0
41
1
10
-0.406197231050172
20
6.33682378409867
30
0
41
1
10
-0.394976888874737
20
6.32694309068151
30
0
0
SPLINE
5
CD
100
AcDbEntity
8
SK1
62
256
6
ByLayer
370
-1
48
1
60
0
100
AcDbSpline
70
4
71
3
72
26
73
22
40
0
40
0
40
0
40
0
40
0.462420532187944
40
0.462420532187944
40
0.662465761698283
40
0.662465761698283
40
0.830433309169693
40
0.830433309169693
40
0.87601894963741
40
0.87601894963741
40
0.905535493032455
40
0.905535493032455
40
0.92577818311669
40
0.92577818311669
40
0.946307111163799
40
0.946307111163799
40
0.963675313617857
40
0.963675313617857
40
0.991859972782862
40
0.991859972782862
40
1
40
1
40
1
40
1
41
1
10
-0.199999999999989
20
-7.05951749342083
30
0
41
1
10
-0.199999999999989
20
-6.93273416480454
30
0
41
1
10
-0.203968014086527
20
-6.80463429773329
30
0
41
1
10
-0.22322220630393
20
-6.62063667774228
30
0
41
1
10
-0.230822389897881
20
-6.56482953243432
30
0
41
1
10
-0.252035566714554
20
-6.46316921019911
30
0
41
1
10
-0.263798801619998
20
-6.41617607028249
30
0
41
1
10
-0.290531391619595
20
-6.36108887379029
30
0
41
1
10
-0.297103000772424
20
-6.34947181616241
30
0
41
1
10
-0.31031392876541
20
-6.33213067856883
30
0
41
1
10
-0.316208846631113
20
-6.32567949173321
30
0
41
1
10
-0.327595492701022
20
-6.31681373578161
30
0
41
1
10
-0.332739264568531
20
-6.31372817209197
30
0
41
1
10
-0.343644708736434
20
-6.30958040401461
30
0
41
1
10
-0.349575964479982
20
-6.30853210514005
30
0
41
1
10
-0.360183897281416
20
-6.30881607347521
30
0
41
1
10
-0.365032052617437
20
-6.30978620719449
30
0
41
1
10
-0.37692290916398
20
-6.31387292952667
30
0
41
1
10
-0.383695246431145
20
-6.3179475897727
30
0
41
1
10
-0.391564614808274
20
-6.32402624429125
30
0
41
1
10
-0.393293161608796
20
-6.32546009510432
30
0
41
1
10
-0.394976888875291
20
-6.32694279392757
30
0
0
SPLINE
5
CE
100
AcDbEntity
8
1
62
256
6
ByLayer
370
-1
48
1
60
0
100
AcDbSpline
70
4
71
3
72
16
73
12
40
0
40
0
40
0
40
0
40
0.0614836048264075
40
0.0614836048264075
40
0.282260881681872
40
0.282260881681872
40
0.505758108518364
40
0.505758108518364
40
0.743534760153589
40
0.743534760153589
40
1
40
1
40
1
40
1
41
1
10
56.7905569860934
20
41.5204055138703
30
0
41
1
10
56.7822524353445
20
41.5203562166594
30
0
41
1
10
56.7739407675781
20
41.519951647426
30
0
41
1
10
56.7362048096082
20
41.5164980216441
30
0
41
1
10
56.706866176525
20
41.5091520332721
30
0
41
1
10
56.6527216103155
20
41.4865889115223
30
0
41
1
10
56.6272776435627
20
41.4710105483314
30
0
41
1
10
56.5818894327282
20
41.4331629909574
30
0
41
1
10
56.5618115626116
20
41.4100804752451
30
0
41
1
10
56.5290472104315
20
41.3586703350244
30
0
41
1
10
56.5166383771445
20
41.3294659128379
30
0
41
1
10
56.5091674051873
20
41.2998628591432
30
0
0
SPLINE
5
CF
100
AcDbEntity
8
1
62
256
6
ByLayer
370
-1
48
1
60
0
100
AcDbSpline
70
4
71
3
72
14
73
10
40
0
40
0
40
0
40
0
40
0.282611672285227
40
0.282611672285227
40
0.569104663837437
40
0.569104663837437
40
0.828406714776442
40
0.828406714776442
40
1
40
1
40
1
40
1
41
1
10
57.0736694534199
20
41.306447710068
30
0
41
1
10
57.0647520071006
20
41.3386014536619
30
0
41
1
10
57.0499065418988
20
41.3701949687745
30
0
41
1
10
57.0092633156032
20
41.426951510693
30
0
41
1
10
56.9826353295938
20
41.4528638446495
30
0
41
1
10
56.9240681737374
20
41.4910968091893
30
0
41
1
10
56.8919552661247
20
41.5050006842668
30
0
41
1
10
56.8364949886119
20
41.5179386922354
30
0
41
1
10
56.8134248777535
20
41.520541261524
30
0
41
1
10
56.7905569860934
20
41.5204055138703
30
0
0
SPLINE
5
D0
100
AcDbEntity
8
SK1
62
256
6
ByLayer
370
-1
48
1
60
0
100
AcDbSpline
70
4
71
3
72
22
73
18
40
0
40
0
40
0
40
0
40
0.038427246458711
40
0.038427246458711
40
0.0775026456766427
40
0.0775026456766427
40
0.106475059033524
40
0.106475059033524
40
0.135305917881828
40
0.135305917881828
40
0.182167074412018
40
0.182167074412018
40
0.275660663800869
40
0.275660663800869
40
0.616530102228659
40
0.616530102228659
40
1
40
1
40
1
40
1
41
1
10
-0.394976888875291
20
-6.32694279392757
30
0
41
1
10
-0.414867561016209
20
-6.34445862132063
30
0
41
1
10
-0.436644357284209
20
-6.36058691921457
30
0
41
1
10
-0.484524151203374
20
-6.3868168818706
30
0
41
1
10
-0.511419954277358
20
-6.39702622866628
30
0
41
1
10
-0.560078773491583
20
-6.40490957850619
30
0
41
1
10
-0.58185248496946
20
-6.40512642059926
30
0
41
1
10
-0.623683911276842
20
-6.39912423041605
30
0
41
1
10
-0.644207278837669
20
-6.39293597600829
30
0
41
1
10
-0.694134540330921
20
-6.37121870092642
30
0
41
1
10
-0.722113964046528
20
-6.35215911803172
30
0
41
1
10
-0.796598131612939
20
-6.28903777408343
30
0
41
1
10
-0.836555557792792
20
-6.23798237717094
30
0
41
1
10
-0.997773060879837
20
-5.995390913813
30
0
41
1
10
-1.07178904300879
20
-5.77805690787602
30
0
41
1
10
-1.20827315239352
20
-5.31693201445015
30
0
41
1
10
-1.26212533694984
20
-5.06551762472202
30
0
41
1
10
-1.30710678118655
20
-4.81101321788441
30
0
0
SPLINE
5
D1
100
AcDbEntity
8
1
62
256
6
ByLayer
370
-1
48
1
60
0
100
AcDbSpline
70
4
71
3
72
14
73
10
40
0
40
0
40
0
40
0
40
0.282360997401743
40
0.282360997401743
40
0.567069390943439
40
0.567069390943439
40
0.824671716722375
40
0.824671716722375
40
1
40
1
40
1
40
1
41
1
10
57.9326468402343
20
38.8832743211448
30
0
41
1
10
57.9651409469517
20
38.8746672017649
30
0
41
1
10
58.0001758797221
20
38.8715426315504
30
0
41
1
10
58.0699976044866
20
38.878165603632
30
0
41
1
10
58.1058568062817
20
38.8881854957358
30
0
41
1
10
58.1684588168536
20
38.9196981614391
30
0
41
1
10
58.1966638797803
20
38.9405394293334
30
0
41
1
10
58.2362067446361
20
38.9826007718637
30
0
41
1
10
58.2504034706097
20
39.0019054998934
30
0
41
1
10
58.2619581681839
20
39.0224619933026
30
0
0
SPLINE
5
D2
100
AcDbEntity
8
1
62
256
6
ByLayer
370
-1
48
1
60
0
100
AcDbSpline
70
4
71
3
72
14
73
10
40
0
40
0
40
0
40
0
40
0.282611672285735
40
0.282611672285735
40
0.569104663837752
40
0.569104663837752
40
0.828406714776591
40
0.828406714776591
40
1
40
1
40
1
40
1
41
1
10
56.527348140409
20
38.3814223927765
30
0
41
1
10
56.5362655867282
20
38.3492686491825
30
0
41
1
10
56.5511110519301
20
38.3176751340698
30
0
41
1
10
56.5917542782257
20
38.2609185921513
30
0
41
1
10
56.6183822642352
20
38.2350062581947
30
0
41
1
10
56.6769494200915
20
38.1967732936549
30
0
41
1
10
56.7090623277042
20
38.1828694185774
30
0
41
1
10
56.764522605217
20
38.1699314106088
30
0
41
1
10
56.7875927160754
20
38.1673288413203
30
0
41
1
10
56.8104606077355
20
38.1674645889739
30
0
0
SPLINE
5
D3
100
AcDbEntity
8
1
62
256
6
ByLayer
370
-1
48
1
60
0
100
AcDbSpline
70
4
71
3
72
16
73
12
40
0
40
0
40
0
40
0
40
0.061483604826409
40
0.061483604826409
40
0.282260881681887
40
0.282260881681887
40
0.50575810851838
40
0.50575810851838
40
0.743534760153624
40
0.743534760153624
40
1
40
1
40
1
40
1
41
1
10
56.8104606077355
20
38.1674645889739
30
0
41
1
10
56.8187651584844
20
38.1675138861848
30
0
41
1
10
56.8270768262508
20
38.1679184554183
30
0
41
1
10
56.8648127842207
20
38.1713720812002
30
0
41
1
10
56.8941514173039
20
38.1787180695721
30
0
41
1
10
56.9482959835134
20
38.2012811913219
30
0
41
1
10
56.9737399502663
20
38.2168595545128
30
0
41
1
10
57.0191281611007
20
38.2547071118869
30
0
41
1
10
57.0392060312173
20
38.2777896275991
30
0
41
1
10
57.0719703833974
20
38.3291997678199
30
0
41
1
10
57.0843792166844
20
38.3584041900064
30
0
41
1
10
57.0918501886416
20
38.388007243701
30
0
0
SPLINE
5
D4
100
AcDbEntity
8
1
62
256
6
ByLayer
370
-1
48
1
60
0
100
AcDbSpline
70
4
71
3
72
16
73
12
40
0
40
0
40
0
40
0
40
0.0629122300433122
40
0.0629122300433122
40
0.285786809133469
40
0.285786809133469
40
0.511455234977583
40
0.511455234977583
40
0.751578457748325
40
0.751578457748325
40
1
40
1
40
1
40
1
41
1
10
55.3559875094343
20
38.9930469859185
30
0
41
1
10
55.3602591909784
20
38.9857951097034
30
0
41
1
10
55.3648501335058
20
38.9787201486101
30
0
41
1
10
55.3868940590187
20
38.9477641817905
30
0
41
1
10
55.4080076857797
20
38.9261148504178
30
0
41
1
10
55.454756740248
20
38.8906896041882
30
0
41
1
10
55.4810262456016
20
38.8765459990349
30
0
41
1
10
55.5365819113633
20
38.8563777355661
30
0
41
1
10
55.566638326464
20
38.850648527187
30
0
41
1
10
55.6262988653516
20
38.8482701502762
30
0
41
1
10
55.6565224687542
20
38.8518860748678
30
0
41
1
10
55.6848278743015
20
38.8596504889714
30
0
0
SPLINE
5
D5
100
AcDbEntity
8
1
62
256
6
ByLayer
370
-1
48
1
60
0
100
AcDbSpline
70
4
71
3
72
14
73
10
40
0
40
0
40
0
40
0
40
0.283781629690385
40
0.283781629690385
40
0.5701276901684
40
0.5701276901684
40
0.829311744930065
40
0.829311744930065
40
1
40
1
40
1
40
1
41
1
10
55.398741276754
20
39.3453291545614
30
0
41
1
10
55.3753242837482
20
39.3213658692797
30
0
41
1
10
55.3553978350573
20
39.2925156869754
30
0
41
1
10
55.3267830627346
20
39.2286906642144
30
0
41
1
10
55.3178118470812
20
39.192648495833
30
0
41
1
10
55.3142759902744
20
39.1228204046199
30
0
41
1
10
55.3184325111097
20
39.0880873721215
30
0
41
1
10
55.3351386670903
20
39.0337812171769
30
0
41
1
10
55.3444419593183
20
39.0126474405427
30
0
41
1
10
55.3559875094343
20
38.9930469859185
30
0
0
SPLINE
5
D6
100
AcDbEntity
8
1
62
256
6
ByLayer
370
-1
48
1
60
0
100
AcDbSpline
70
4
71
3
72
18
73
14
40
0
40
0
40
0
40
0
40
0.212491342405687
40
0.212491342405687
40
0.386617985385172
40
0.386617985385172
40
0.562426135472341
40
0.562426135472341
40
0.715388203408058
40
0.715388203408058
40
0.918248932482291
40
0.918248932482291
40
1
40
1
40
1
40
1
41
1
10
57.0736694534199
20
41.306447710068
30
0
41
1
10
57.0926370377611
20
41.2380560627652
30
0
41
1
10
57.1230225633509
20
41.1703448750575
30
0
41
1
10
57.1989112444821
20
41.0570173018198
30
0
41
1
10
57.2416845252725
20
41.0084298855268
30
0
41
1
10
57.3406497626204
20
40.924502105045
30
0
41
1
10
57.3985566496512
20
40.8881951337333
30
0
41
1
10
57.5113204761739
20
40.838632275852
30
0
41
1
10
57.5669050743956
20
40.8223228537868
30
0
41
1
10
57.6937048533982
20
40.8011079870739
30
0
41
1
10
57.7662633050582
20
40.8010471426576
30
0
41
1
10
57.8622687007585
20
40.8151586968708
30
0
41
1
10
57.8895729315556
20
40.8209184019691
30
0
41
1
10
57.9161897195274
20
40.8282196138728
30
0
0
SPLINE
5
D7
100
AcDbEntity
8
1
62
256
6
ByLayer
370
-1
48
1
60
0
100
AcDbSpline
70
4
71
3
72
14
73
10
40
0
40
0
40
0
40
0
40
0.282360997401773
40
0.282360997401773
40
0.567069390943469
40
0.567069390943469
40
0.824671716722364
40
0.824671716722364
40
1
40
1
40
1
40
1
41
1
10
55.6683707535947
20
40.8045957816995
30
0
41
1
10
55.6358766468772
20
40.8132029010793
30
0
41
1
10
55.6008417141068
20
40.8163274712939
30
0
41
1
10
55.5310199893422
20
40.8097044992122
30
0
41
1
10
55.4951607875472
20
40.7996846071084
30
0
41
1
10
55.4325587769753
20
40.7681719414051
30
0
41
1
10
55.4043537140486
20
40.7473306735109
30
0
41
1
10
55.3648108491928
20
40.7052693309805
30
0
41
1
10
55.3506141232192
20
40.6859646029508
30
0
41
1
10
55.3390594256451
20
40.6654081095417
30
0
0
SPLINE
5
D8
100
AcDbEntity
8
1
62
256
6
ByLayer
370
-1
48
1
60
0
100
AcDbSpline
70
4
71
3
72
16
73
12
40
0
40
0
40
0
40
0
40
0.0570827577111679
40
0.0570827577111679
40
0.28004160429552
40
0.28004160429552
40
0.505461650692469
40
0.505461650692469
40
0.74506583075804
40
0.74506583075804
40
1
40
1
40
1
40
1
41
1
10
55.3390594256451
20
40.6654081095417
30
0
41
1
10
55.3353150725371
20
40.6587466829236
30
0
41
1
10
55.3318292742287
20
40.6519316718155
30
0
41
1
10
55.3161815008534
20
40.6181310270998
30
0
41
1
10
55.3078330797962
20
40.5890368530042
30
0
41
1
10
55.3002400508445
20
40.5308563403205
30
0
41
1
10
55.3009770271717
20
40.5010356252239
30
0
41
1
10
55.3109919749352
20
40.4428259848877
30
0
41
1
10
55.3208985278022
20
40.4139107505976
30
0
41
1
10
55.3487465526105
20
40.3602148072831
30
0
41
1
10
55.3674632434222
20
40.3351647990795
30
0
41
1
10
55.3889354895755
20
40.3140635646707
30
0
0
SPLINE
5
D9
100
AcDbEntity
8
1
62
256
6
ByLayer
370
-1
48
1
60
0
100
AcDbSpline
70
4
71
3
72
12
73
8
40
0
40
0
40
0
40
0
40
0.422118800645988
40
0.422118800645988
40
0.84321395217767
40
0.84321395217767
40
1
40
1
40
1
40
1
41
1
10
57.3396890696986
20
38.7646172652996
30
0
41
1
10
57.2857581265523
20
38.7232824750593
30
0
41
1
10
57.2383366145375
20
38.6737701586609
30
0
41
1
10
57.1625810027181
20
38.5686723326958
30
0
41
1
10
57.133011291947
20
38.5117475631868
30
0
41
1
10
57.1041538572052
20
38.432107906698
30
0
41
1
10
57.0974300639802
20
38.4101169973185
30
0
41
1
10
57.0918501886416
20
38.388007243701
30
0
0
SPLINE
5
DA
100
AcDbEntity
8
1
62
256
6
ByLayer
370
-1
48
1
60
0
100
AcDbSpline
70
4
71
3
72
12
73
8
40
0
40
0
40
0
40
0
40
0.495913112050098
40
0.495913112050098
40
0.900351883335852
40
0.900351883335852
40
1
40
1
40
1
40
1
41
1
10
57.9326468402343
20
38.8832743211448
30
0
41
1
10
57.8636824587625
20
38.9015417771313
30
0
41
1
10
57.789520101937
20
38.9094970101098
30
0
41
1
10
57.6530093233412
20
38.9009974774234
30
0
41
1
10
57.5894811085698
20
38.8885194528876
30
0
41
1
10
57.5131959290949
20
38.861563294257
30
0
41
1
10
57.4980502382497
20
38.855603496155
30
0
41
1
10
57.4831016196305
20
38.8490937131291
30
0
0
INSERT
5
10E
100
AcDbEntity
8
2
62
256
6
ByLayer
370
-1
48
1
60
0
100
AcDbBlockReference
2
DimnDraft3D11
10
0
20
0
30
0
41
1
42
1
43
1
50
0
210
0
220
0
230
1
0
LINE
5
4E
100
AcDbEntity
8
1
62
256
6
ByLayer
370
-1
48
1
60
0
100
AcDbLine
10
18.850779
20
8.599134
30
0
11
20.666827
21
9.886595
31
0
39
0
210
0
220
0
230
1
0
LINE
5
50
100
AcDbEntity
8
1
62
256
6
ByLayer
370
-1
48
1
60
0
100
AcDbLine
10
20.684145
20
9.919423
30
0
11
20.728558
21
10.194014
31
0
39
0
210
0
220
0
230
1
0
LINE
5
51
100
AcDbEntity
8
1
62
256
6
ByLayer
370
-1
48
1
60
0
100
AcDbLine
10
0.3
20
-31.5
30
0
11
21.3
21
-31.5
31
0
39
0
210
0
220
0
230
1
0
LINE
5
52
100
AcDbEntity
8
1
62
256
6
ByLayer
370
-1
48
1
60
0
100
AcDbLine
10
22.73972
20
31.5
30
0
11
0.3
21
31.5
31
0
39
0
210
0
220
0
230
1
0
LINE
5
53
100
AcDbEntity
8
1
62
256
6
ByLayer
370
-1
48
1
60
0
100
AcDbLine
10
0.3
20
31.5
30
0
11
0
21
31.2
31
0
39
0
210
0
220
0
230
1
0
LINE
5
54
100
AcDbEntity
8
1
62
256
6
ByLayer
370
-1
48
1
60
0
100
AcDbLine
10
0
20
-31.2
30
0
11
0.3
21
-31.5
31
0
39
0
210
0
220
0
230
1
0
LINE
5
55
100
AcDbEntity
8
SK4
62
256
6
ByLayer
370
-1
48
0.05
60
0
100
AcDbLine
10
-43
20
0
30
0
11
65
21
0
31
0
39
0
210
0
220
0
230
1
0
LINE
5
57
100
AcDbEntity
8
81
62
256
6
ByLayer
370
-1
48
1
60
0
100
AcDbLine
10
65
20
45
30
0
11
75
21
45
31
0
39
0
210
0
220
0
230
1
0
LINE
5
58
100
AcDbEntity
8
80
62
256
6
ByLayer
370
-1
48
1
60
0
100
AcDbLine
10
0
20
0
30
0
11
-5
21
0
31
0
39
0
210
0
220
0
230
1
0
LINE
5
59
100
AcDbEntity
8
4
62
256
6
ByLayer
370
-1
48
0.05
60
0
100
AcDbLine
10
0
20
0
30
0
11
65
21
0
31
0
39
0
210
0
220
0
230
1
0
LINE
5
5B
100
AcDbEntity
8
1
62
256
6
ByLayer
370
-1
48
1
60
0
100
AcDbLine
10
24.456213
20
37.228119
30
0
11
24.456213
21
-22.425791
31
0
39
0
210
0
220
0
230
1
0
LINE
5
5C
100
AcDbEntity
8
1
62
256
6
ByLayer
370
-1
48
1
60
0
100
AcDbLine
10
10.105662
20
9.869413
30
0
11
10.105662
21
29.913955
31
0
39
0
210
0
220
0
230
1
0
LINE
5
5D
100
AcDbEntity
8
1
62
256
6
ByLayer
370
-1
48
1
60
0
100
AcDbLine
10
21.306597
20
-31.479572
30
0
11
23.61228
21
-24.34051
31
0
39
0
210
0
220
0
230
1
0
LINE
5
5E
100
AcDbEntity
8
1
62
256
6
ByLayer
370
-1
48
1
60
0
100
AcDbLine
10
0.3
20
-31.5
30
0
11
0.3
21
31.5
31
0
39
0
210
0
220
0
230
1
0
LINE
5
5F
100
AcDbEntity
8
1
62
256
6
ByLayer
370
-1
48
1
60
0
100
AcDbLine
10
24.668521
20
-22.07016
30
0
11
59.348041
21
33.428674
31
0
39
0
210
0
220
0
230
1
0
LINE
5
60
100
AcDbEntity
8
1
62
256
6
ByLayer
370
-1
48
1
60
0
100
AcDbLine
10
13.461325
20
30.080593
30
0
11
10.538675
21
30.080593
31
0
39
0
210
0
220
0
230
1
0
LINE
5
61
100
AcDbEntity
8
1
62
256
6
ByLayer
370
-1
48
1
60
0
100
AcDbLine
10
52.506583
20
34.849861
30
0
11
52.256183
21
34.449138
31
0
39
0
210
0
220
0
230
1
0
LINE
5
62
100
AcDbEntity
8
1
62
256
6
ByLayer
370
-1
48
1
60
0
100
AcDbLine
10
13.894338
20
9.869413
30
0
11
13.894338
21
29.913955
31
0
39
0
210
0
220
0
230
1
0
LINE
5
63
100
AcDbEntity
8
1
62
256
6
ByLayer
370
-1
48
1
60
0
100
AcDbLine
10
13.461325
20
-30.080593
30
0
11
13.461325
21
-9.349221
31
0
39
0
210
0
220
0
230
1
0
LINE
5
64
100
AcDbEntity
8
1
62
256
6
ByLayer
370
-1
48
1
60
0
100
AcDbLine
10
25.947309
20
42.793245
30
0
11
53.969487
21
44.261825
31
0
39
0
210
0
220
0
230
1
0
LINE
5
65
100
AcDbEntity
8
1
62
256
6
ByLayer
370
-1
48
1
60
0
100
AcDbLine
10
10.538675
20
-30.080593
30
0
11
13.461325
21
-30.080593
31
0
39
0
210
0
220
0
230
1
0
LINE
5
66
100
AcDbEntity
8
1
62
256
6
ByLayer
370
-1
48
1
60
0
100
AcDbLine
10
13.894338
20
-29.913955
30
0
11
13.894338
21
-9.869413
31
0
39
0
210
0
220
0
230
1
0
LINE
5
67
100
AcDbEntity
8
1
62
256
6
ByLayer
370
-1
48
1
60
0
100
AcDbLine
10
52.256183
20
34.449138
30
0
11
52.056892
21
34.573669
31
0
39
0
210
0
220
0
230
1
0
LINE
5
68
100
AcDbEntity
8
1
62
256
6
ByLayer
370
-1
48
1
60
0
100
AcDbLine
10
13.461325
20
9.349221
30
0
11
13.461325
21
30.080593
31
0
39
0
210
0
220
0
230
1
0
LINE
5
69
100
AcDbEntity
8
1
62
256
6
ByLayer
370
-1
48
1
60
0
100
AcDbLine
10
10.538675
20
9.349221
30
0
11
13.461325
21
9.349221
31
0
39
0
210
0
220
0
230
1
0
LINE
5
6A
100
AcDbEntity
8
1
62
256
6
ByLayer
370
-1
48
1
60
0
100
AcDbLine
10
0
20
-31.2
30
0
11
0
21
31.2
31
0
39
0
210
0
220
0
230
1
0
LINE
5
6B
100
AcDbEntity
8
1
62
256
6
ByLayer
370
-1
48
1
60
0
100
AcDbLine
10
10.538675
20
-30.080593
30
0
11
10.538675
21
-9.349221
31
0
39
0
210
0
220
0
230
1
0
LINE
5
6C
100
AcDbEntity
8
1
62
256
6
ByLayer
370
-1
48
1
60
0
100
AcDbLine
10
10.538675
20
9.349221
30
0
11
10.538675
21
30.080593
31
0
39
0
210
0
220
0
230
1
0
LINE
5
6D
100
AcDbEntity
8
1
62
256
6
ByLayer
370
-1
48
1
60
0
100
AcDbLine
10
13.461325
20
-9.349221
30
0
11
10.538675
21
-9.349221
31
0
39
0
210
0
220
0
230
1
0
LINE
5
6E
100
AcDbEntity
8
1
62
256
6
ByLayer
370
-1
48
1
60
0
100
AcDbLine
10
21.3
20
-31.5
30
0
11
21.306597
21
-31.479572
31
0
39
0
210
0
220
0
230
1
0
LINE
5
6F
100
AcDbEntity
8
1
62
256
6
ByLayer
370
-1
48
1
60
0
100
AcDbLine
10
10.105662
20
-29.913955
30
0
11
10.105662
21
-9.869413
31
0
39
0
210
0
220
0
230
1
0
LINE
5
70
100
AcDbEntity
8
1
62
256
6
ByLayer
370
-1
48
1
60
0
100
AcDbLine
10
52.056892
20
34.573669
30
0
11
52.220097
21
34.834852
31
0
39
0
210
0
220
0
230
1
0
LINE
5
71
100
AcDbEntity
8
1
62
256
6
ByLayer
370
-1
48
1
60
0
100
AcDbLine
10
20.471434
20
31.33175
30
0
11
20.471434
21
10.815328
31
0
39
0
210
0
220
0
230
1
0
LINE
5
72
100
AcDbEntity
8
1
62
256
6
ByLayer
370
-1
48
1
60
0
100
AcDbLine
10
20.471434
20
9.747112
30
0
11
20.471434
21
-31.33175
31
0
39
0
210
0
220
0
230
1
0
LINE
5
73
100
AcDbEntity
8
SK1
62
256
6
ByLayer
370
-1
48
1
60
0
100
AcDbLine
10
-0.2
20
7.059518
30
0
11
-0.2
21
22.533485
31
0
39
0
210
0
220
0
230
1
0
LINE
5
75
100
AcDbEntity
8
SK1
62
256
6
ByLayer
370
-1
48
1
60
0
100
AcDbLine
10
-0.2
20
-22.533485
30
0
11
-0.2
21
-7.059517
31
0
39
0
210
0
220
0
230
1
0
LINE
5
76
100
AcDbEntity
8
SK1
62
256
6
ByLayer
370
-1
48
1
60
0
100
AcDbLine
10
-1.307107
20
-4.811013
30
0
11
-1.307107
21
4.811013
31
0
39
0
210
0
220
0
230
1
0
LINE
5
77
100
AcDbEntity
8
1
62
256
6
ByLayer
370
-1
48
1
60
0
100
AcDbLine
10
49.436789
20
34.688983
30
0
11
59.112798
21
35.196081
31
0
39
0
210
0
220
0
230
1
0
LINE
5
78
100
AcDbEntity
8
1
62
256
6
ByLayer
370
-1
48
1
60
0
100
AcDbLine
10
64.164229
20
44.998887
30
0
11
54.48822
21
44.491789
31
0
39
0
210
0
220
0
230
1
0
LINE
5
79
100
AcDbEntity
8
1
62
256
6
ByLayer
370
-1
48
1
60
0
100
AcDbLine
10
53.856424
20
44.119633
30
0
11
48.721884
21
35.902651
31
0
39
0
210
0
220
0
230
1
0
LINE
5
7A
100
AcDbEntity
8
1
62
256
6
ByLayer
370
-1
48
1
60
0
100
AcDbLine
10
59.744593
20
35.568237
30
0
11
64.879134
21
43.785219
31
0
39
0
210
0
220
0
230
1
0
MTEXT
5
DB
100
AcDbEntity
8
SK6
62
256
6
ByLayer
370
-1
48
1
60
0
100
AcDbMText
10
13.605341
20
-43.963937
30
0
210
0
220
0
230
1
1
\W00.720;\fsimplex.shx,bigfont.shx;C6-SDJCR-45065-11 
40
3.5
41
0
44
1.084337
50
0
71
7
72
5
7
DEFAULT
0
DIMENSION
5
11C
100
AcDbEntity
8
2
62
256
6
ByLayer
370
-3
48
1
60
0
100
AcDbDimension
2
DimnDraft3D2
10
50.579385
20
44.286936
30
0
11
49.958414
21
50.533497
31
0
70
34
71
5
72
1
41
1
210
0
220
0
230
1
3
Standard
100
AcDb2LineAngularDimension
13
65
23
47
33
0
14
65
24
59.483093
34
0
15
61.16882
25
44.841904
35
0
16
52.711865
26
56.703693
36
0
40
0
0
DIMENSION
5
131
100
AcDbEntity
8
SK2
62
256
6
ByLayer
370
-3
48
1
60
0
100
AcDbDimension
2
DimnDraft3D3
10
-47.75
20
31.5
30
0
11
-47.75
21
-4.784211
31
0
70
32
71
5
72
1
41
1
210
0
220
0
230
1
3
Standard
100
AcDbAlignedDimension
13
-2
23
-31.5
33
0
14
-2
24
31.5
34
0
50
90
100
AcDbRotatedDimension
1001
ACAD
1000
DSTYLE
1002
{
1070
    74
1070
     0
1070
   279
1070
     0
1070
   172
1070
     1
1070
   173
1070
     1
1070
   340
1005
DC
1070
    77
1070
     1
1070
    73
1070
     0
1070
   171
1070
     3
1070
   274
1070
     4
1070
   177
1070
     2
1070
   176
1070
     2
1070
   178
1070
     7
1070
    78
1070
     8
1070
    41
1041
3.175
1070
   147
1041
2.25
1070
    42
1041
2.0
1070
    44
1041
2.0
1070
   140
1041
4.5
1070
   343
1005
11D
1070
   344
1005
11D
1002
}
0
DIMENSION
5
13F
100
AcDbEntity
8
2
62
256
6
ByLayer
370
-3
48
1
60
0
100
AcDbDimension
2
DimnDraft3D4
10
92.25
20
45
30
0
11
92.25
21
19.634211
31
0
70
32
71
5
72
1
41
1
210
0
220
0
230
1
3
Standard
100
AcDbAlignedDimension
13
67
23
0
33
0
14
67
24
45
34
0
50
90
100
AcDbRotatedDimension
1001
ACAD
1000
DSTYLE
1002
{
1070
    74
1070
     0
1070
   279
1070
     0
1070
   172
1070
     1
1070
   173
1070
     1
1070
   340
1005
DC
1070
    77
1070
     1
1070
    73
1070
     0
1070
   171
1070
     3
1070
   274
1070
     4
1070
   177
1070
     2
1070
   176
1070
     2
1070
   178
1070
     7
1070
    78
1070
     8
1070
    41
1041
3.175
1070
   147
1041
2.25
1070
    42
1041
2.0
1070
    44
1041
2.0
1070
   140
1041
4.5
1070
   343
1005
11D
1070
   344
1005
11D
1002
}
0
ENDSEC
0
SECTION
2
OBJECTS
0
DICTIONARY
5
170
330
0
100
AcDbDictionary
280
0
281
1
3
ACAD_GROUP
350
171
3
ACAD_MLINESTYLE
350
172
0
DICTIONARY
5
171
330
0
100
AcDbDictionary
280
0
281
1
0
DICTIONARY
5
172
330
0
100
AcDbDictionary
280
0
281
1
3
Standard
350
18
0
MLINESTYLE
5
18
330
172
100
AcDbMlineStyle
2
Standard
70
0
3

62
256
51
90
52
90
71
2
49
-0.5
62
256
6
ByLayer
49
0.5
62
256
6
ByLayer
0
RASTERVARIABLES
5
15e
330

100
AcDbRasterVariables
90
0
70
1
71
1
72
1
0
ENDSEC
0
EOF
