0
SECTION
2
HEADER
9
$ACADVER
1
AC1015
9
$DWGCODEPAGE
3
ANSI_1252
9
$HANDSEED
5
1da
9
$ANGBASE
50
0
9
$ANGDIR
70
0
9
$ATTMODE
70
1
9
$AUNITS
70
0
9
$AUPREC
70
0
9
$CECOLOR
62
256
9
$CELTSCALE
40
1
9
$CELTYPE
6
ByLayer
9
$CELWEIGHT
370
18
9
$CLAYER
8
0
9
$CMLJUST
70
0
9
$CMLSCALE
40
1
9
$CMLSTYLE
2
Standard
9
$DIMSTYLE
2
Standard
9
$TEXTSIZE
40
0.2
9
$TEXTSTYLE
7
Standard
9
$LUNITS
70
2
9
$LUPREC
70
4
9
$EXTNAMES
290
1
9
$INSUNITS
70
4
9
$LTSCALE
40
1
9
$LWDISPLAY
290
1
9
$PDMODE
70
0
9
$PDSIZE
40
0
9
$PLINEGEN
70
0
0
ENDSEC
0
SECTION
2
CLASSES
0
CLASS
1
RASTERVARIABLES
2
AcDbRasterVariables
3
ISM
90
0
280
0
281
0
0
ENDSEC
0
SECTION
2
TABLES
0
TABLE
2
VPORT
5
1d0
100
AcDbSymbolTable
0
VPORT
5
1
100
AcDbSymbolTableRecord
100
AcDbViewportTableRecord
2
*Active
70
0
10
0
20
0
11
1
21
1
12
-1
22
1
13
0
23
0
14
0.5
24
0.5
15
10
25
10
16
0
26
0
36
1
17
0
27
0
37
0
0
ENDTAB
0
TABLE
2
LTYPE
5
1d1
100
AcDbSymbolTable
0
LTYPE
5
14
100
AcDbSymbolTableRecord
100
AcDbLinetypeTableRecord
70
0
2
ByBlock
3

72
65
73
0
40
0
0
LTYPE
5
15
100
AcDbSymbolTableRecord
100
AcDbLinetypeTableRecord
70
0
2
ByLayer
3

72
65
73
0
40
0
0
LTYPE
5
16
100
AcDbSymbolTableRecord
100
AcDbLinetypeTableRecord
70
0
2
CONTINUOUS
3
Solid line
72
65
73
0
40
0
0
LTYPE
5
6A
100
AcDbSymbolTableRecord
100
AcDbLinetypeTableRecord
70
0
2
CENTER
3
____ _ ____ _ ____ _ ____
72
65
73
4
40
47.5
49
22
74
0
49
-8.5
74
0
49
8.5
74
0
49
-8.5
74
0
0
LTYPE
5
6B
100
AcDbSymbolTableRecord
100
AcDbLinetypeTableRecord
70
0
2
DASHED
3
__ __ __ __ __ __ __ __ __
72
65
73
2
40
25.72
49
12.86
74
0
49
-12.86
74
0
0
ENDTAB
0
TABLE
2
LAYER
5
1d2
100
AcDbSymbolTable
0
LAYER
5
10
100
AcDbSymbolTableRecord
100
AcDbLayerTableRecord
2
0
70
0
62
7
6
CONTINUOUS
290
1
370
-3
390
0
0
LAYER
5
6D
100
AcDbSymbolTableRecord
100
AcDbLayerTableRecord
2
80
70
0
62
-6
6
CONTINUOUS
290
1
370
-3
390
0
0
LAYER
5
6F
100
AcDbSymbolTableRecord
100
AcDbLayerTableRecord
2
2
70
0
62
7
6
CONTINUOUS
290
1
370
-3
390
0
0
LAYER
5
71
100
AcDbSymbolTableRecord
100
AcDbLayerTableRecord
2
81
70
0
62
-3
6
CONTINUOUS
290
1
370
-3
390
0
0
LAYER
5
74
100
AcDbSymbolTableRecord
100
AcDbLayerTableRecord
2
1
70
0
62
4
6
CONTINUOUS
290
1
370
-3
390
0
0
LAYER
5
7C
100
AcDbSymbolTableRecord
100
AcDbLayerTableRecord
2
4
70
0
62
-2
6
CENTER
290
1
370
-3
390
0
0
LAYER
5
C8
100
AcDbSymbolTableRecord
100
AcDbLayerTableRecord
2
62
70
0
62
-5
6
CONTINUOUS
290
1
370
-3
390
0
0
LAYER
5
1bc
100
AcDbSymbolTableRecord
100
AcDbLayerTableRecord
2
SK4
70
0
62
2
6
CENTER
290
1
370
-3
390
0
0
LAYER
5
1bd
100
AcDbSymbolTableRecord
100
AcDbLayerTableRecord
2
SK1
70
0
62
4
6
CONTINUOUS
290
1
370
-3
390
0
0
LAYER
5
1be
100
AcDbSymbolTableRecord
100
AcDbLayerTableRecord
2
SK6
70
0
62
5
6
CONTINUOUS
290
1
370
-3
390
0
0
LAYER
5
1bf
100
AcDbSymbolTableRecord
100
AcDbLayerTableRecord
2
SK2
70
0
62
7
6
CONTINUOUS
290
1
370
-3
390
0
0
ENDTAB
0
TABLE
2
STYLE
5
1d3
100
AcDbSymbolTable
0
STYLE
5
11
100
AcDbSymbolTableRecord
100
AcDbTextStyleTableRecord
2
Standard
3
txt
70
0
71
0
40
0
41
1
42
0
50
0
0
STYLE
5
112
100
AcDbSymbolTableRecord
100
AcDbTextStyleTableRecord
2
iso_b_vert
3
simplex.shx
70
0
71
0
40
0
41
1
42
0
50
0
0
STYLE
5
113
100
AcDbSymbolTableRecord
100
AcDbTextStyleTableRecord
2
DWGDirectTextStyle
3
simplex
70
0
71
0
40
0
41
1
42
0
50
0
0
ENDTAB
0
TABLE
2
DIMSTYLE
5
1d4
100
AcDbSymbolTable
100
AcDbDimStyleTable
0
DIMSTYLE
105
27
100
AcDbSymbolTableRecord
100
AcDbDimStyleTableRecord
2
Standard
70
0
3
<>
41
0.18
42
0.0625
44
0.18
140
0.18
147
0.09
73
0
74
0
77
1
271
2
275
0
278
52
280
0
340
11
0
ENDTAB
0
TABLE
2
VIEW
5
1d5
100
AcDbSymbolTable
0
ENDTAB
0
TABLE
2
UCS
5
1d6
100
AcDbSymbolTable
0
ENDTAB
0
TABLE
2
APPID
5
1d7
100
AcDbSymbolTable
0
APPID
5
12
100
AcDbSymbolTableRecord
100
AcDbRegAppTableRecord
2
ACAD
70
0
0
ENDTAB
0
TABLE
2
BLOCK_RECORD
5
1d8
100
AcDbSymbolTable
0
BLOCK_RECORD
5
1F
100
AcDbSymbolTableRecord
100
AcDbBlockTableRecord
2
*Model_Space
340
0
70
0
0
BLOCK_RECORD
5
1B
100
AcDbSymbolTableRecord
100
AcDbBlockTableRecord
2
*Paper_Space
340
0
70
0
0
BLOCK_RECORD
5
23
100
AcDbSymbolTableRecord
100
AcDbBlockTableRecord
2
*Paper_Space0
340
0
70
0
0
BLOCK_RECORD
5
115
100
AcDbSymbolTableRecord
100
AcDbBlockTableRecord
2
DimnDraft3D1
340
0
70
0
0
BLOCK_RECORD
5
124
100
AcDbSymbolTableRecord
100
AcDbBlockTableRecord
2
_CLOSED
340
0
70
0
0
BLOCK_RECORD
5
12B
100
AcDbSymbolTableRecord
100
AcDbBlockTableRecord
2
DimnDraft3D2
340
0
70
0
0
BLOCK_RECORD
5
139
100
AcDbSymbolTableRecord
100
AcDbBlockTableRecord
2
DimnDraft3D3
340
0
70
0
0
BLOCK_RECORD
5
147
100
AcDbSymbolTableRecord
100
AcDbBlockTableRecord
2
DimnDraft3D4
340
0
70
0
0
BLOCK_RECORD
5
155
100
AcDbSymbolTableRecord
100
AcDbBlockTableRecord
2
DimnDraft3D5
340
0
70
0
0
ENDTAB
0
ENDSEC
0
SECTION
2
BLOCKS
0
BLOCK
5
20
100
AcDbEntity
8
0
100
AcDbBlockBegin
2
*Model_Space
70
0
10
0
20
0
30
0
3
*Model_Space
0
ENDBLK
5
21
100
AcDbEntity
8
0
100
AcDbBlockEnd
0
BLOCK
5
1C
100
AcDbEntity
8
0
100
AcDbBlockBegin
2
*Paper_Space
70
0
10
0
20
0
30
0
3
*Paper_Space
0
ENDBLK
5
1D
100
AcDbEntity
8
0
100
AcDbBlockEnd
0
BLOCK
5
24
100
AcDbEntity
8
0
100
AcDbBlockBegin
2
*Paper_Space0
70
0
10
0
20
0
30
0
3
*Paper_Space0
0
ENDBLK
5
25
100
AcDbEntity
8
0
100
AcDbBlockEnd
0
BLOCK
5
121
100
AcDbEntity
8
0
100
AcDbBlockBegin
2
DimnDraft3D1
70
0
10
0
20
0
30
0
3
DimnDraft3D1
0
MTEXT
5
116
100
AcDbEntity
8
SK2
62
256
6
ByLayer
370
18
48
1
60
0
100
AcDbMText
10
-54.195
20
-1.563158
30
0
210
0
220
0
230
1
1
\W0.6740;63
40
4.5
41
0
44
1.084337
50
90
71
7
72
5
7
iso_b_vert
0
LINE
5
118
100
AcDbEntity
8
SK2
62
256
6
ByLayer
370
13
48
1
60
0
100
AcDbLine
10
-1.5
20
-31.5
30
0
11
-56.07
21
-31.5
31
0
39
0
210
0
220
0
230
1
0
LINE
5
119
100
AcDbEntity
8
SK2
62
256
6
ByLayer
370
13
48
1
60
0
100
AcDbLine
10
-1.5
20
31.5
30
0
11
-56.07
21
31.5
31
0
39
0
210
0
220
0
230
1
0
LINE
5
11A
100
AcDbEntity
8
SK2
62
256
6
ByLayer
370
13
48
1
60
0
100
AcDbLine
10
-53.07
20
-31.5
30
0
11
-53.07
21
31.5
31
0
39
0
210
0
220
0
230
1
0
LINE
5
11B
100
AcDbEntity
8
SK2
62
256
6
ByLayer
370
13
48
1
60
0
100
AcDbLine
10
-53.07
20
-31.5
30
0
11
-53.464957
21
-28.500001
31
0
39
0
210
0
220
0
230
1
0
LINE
5
11C
100
AcDbEntity
8
SK2
62
256
6
ByLayer
370
13
48
1
60
0
100
AcDbLine
10
-53.07
20
-31.5
30
0
11
-52.675043
21
-28.499999
31
0
39
0
210
0
220
0
230
1
0
LINE
5
11D
100
AcDbEntity
8
SK2
62
256
6
ByLayer
370
13
48
1
60
0
100
AcDbLine
10
-53.464957
20
-28.500001
30
0
11
-52.675043
21
-28.499999
31
0
39
0
210
0
220
0
230
1
0
LINE
5
11E
100
AcDbEntity
8
SK2
62
256
6
ByLayer
370
13
48
1
60
0
100
AcDbLine
10
-53.07
20
31.5
30
0
11
-52.675043
21
28.500001
31
0
39
0
210
0
220
0
230
1
0
LINE
5
11F
100
AcDbEntity
8
SK2
62
256
6
ByLayer
370
13
48
1
60
0
100
AcDbLine
10
-53.07
20
31.5
30
0
11
-53.464957
21
28.499999
31
0
39
0
210
0
220
0
230
1
0
LINE
5
120
100
AcDbEntity
8
SK2
62
256
6
ByLayer
370
13
48
1
60
0
100
AcDbLine
10
-52.675043
20
28.500001
30
0
11
-53.464957
21
28.499999
31
0
39
0
210
0
220
0
230
1
0
ENDBLK
5
122
100
AcDbEntity
8
0
100
AcDbBlockEnd
0
BLOCK
5
125
100
AcDbEntity
8
0
100
AcDbBlockBegin
2
_CLOSED
70
0
10
0
20
0
30
0
3
_CLOSED
0
LINE
5
127
100
AcDbEntity
8
0
62
256
6
ByLayer
370
-2
48
1
60
0
100
AcDbLine
10
-1
20
0.166667
30
0
11
0
21
0
31
0
39
0
210
0
220
0
230
1
0
LINE
5
128
100
AcDbEntity
8
0
62
256
6
ByLayer
370
-2
48
1
60
0
100
AcDbLine
10
0
20
0
30
0
11
-1
21
-0.166667
31
0
39
0
210
0
220
0
230
1
0
LINE
5
129
100
AcDbEntity
8
0
62
256
6
ByLayer
370
-2
48
1
60
0
100
AcDbLine
10
-1
20
0.166667
30
0
11
-1
21
-0.166667
31
0
39
0
210
0
220
0
230
1
0
LINE
5
12A
100
AcDbEntity
8
0
62
256
6
ByLayer
370
-2
48
1
60
0
100
AcDbLine
10
0
20
0
30
0
11
-1
21
0
31
0
39
0
210
0
220
0
230
1
0
ENDBLK
5
126
100
AcDbEntity
8
0
100
AcDbBlockEnd
0
BLOCK
5
136
100
AcDbEntity
8
0
100
AcDbBlockBegin
2
DimnDraft3D2
70
0
10
0
20
0
30
0
3
DimnDraft3D2
0
MTEXT
5
12C
100
AcDbEntity
8
2
62
256
6
ByLayer
370
18
48
1
60
0
100
AcDbMText
10
93.125
20
42.118421
30
0
210
0
220
0
230
1
1
\W0.5404;6
40
4.5
41
0
44
1.084337
50
90
71
7
72
5
7
iso_b_vert
0
LINE
5
12D
100
AcDbEntity
8
2
62
256
6
ByLayer
370
13
48
1
60
0
100
AcDbLine
10
81.5
20
39
30
0
11
97.25
21
39
31
0
39
0
210
0
220
0
230
1
0
LINE
5
12E
100
AcDbEntity
8
2
62
256
6
ByLayer
370
13
48
1
60
0
100
AcDbLine
10
81.5
20
45
30
0
11
97.25
21
45
31
0
39
0
210
0
220
0
230
1
0
LINE
5
12F
100
AcDbEntity
8
2
62
256
6
ByLayer
370
13
48
1
60
0
100
AcDbLine
10
94.25
20
27.75
30
0
11
94.25
21
56.25
31
0
39
0
210
0
220
0
230
1
0
LINE
5
130
100
AcDbEntity
8
2
62
256
6
ByLayer
370
13
48
1
60
0
100
AcDbLine
10
94.25
20
39
30
0
11
94.644957
21
36.000001
31
0
39
0
210
0
220
0
230
1
0
LINE
5
131
100
AcDbEntity
8
2
62
256
6
ByLayer
370
13
48
1
60
0
100
AcDbLine
10
94.25
20
39
30
0
11
93.855043
21
35.999999
31
0
39
0
210
0
220
0
230
1
0
LINE
5
132
100
AcDbEntity
8
2
62
256
6
ByLayer
370
13
48
1
60
0
100
AcDbLine
10
94.644957
20
36.000001
30
0
11
93.855043
21
35.999999
31
0
39
0
210
0
220
0
230
1
0
LINE
5
133
100
AcDbEntity
8
2
62
256
6
ByLayer
370
13
48
1
60
0
100
AcDbLine
10
94.25
20
45
30
0
11
93.855043
21
47.999999
31
0
39
0
210
0
220
0
230
1
0
LINE
5
134
100
AcDbEntity
8
2
62
256
6
ByLayer
370
13
48
1
60
0
100
AcDbLine
10
94.25
20
45
30
0
11
94.644957
21
48.000001
31
0
39
0
210
0
220
0
230
1
0
LINE
5
135
100
AcDbEntity
8
2
62
256
6
ByLayer
370
13
48
1
60
0
100
AcDbLine
10
93.855043
20
47.999999
30
0
11
94.644957
21
48.000001
31
0
39
0
210
0
220
0
230
1
0
ENDBLK
5
137
100
AcDbEntity
8
0
100
AcDbBlockEnd
0
BLOCK
5
144
100
AcDbEntity
8
0
100
AcDbBlockBegin
2
DimnDraft3D3
70
0
10
0
20
0
30
0
3
DimnDraft3D3
0
MTEXT
5
13A
100
AcDbEntity
8
2
62
256
6
ByLayer
370
18
48
1
60
0
100
AcDbMText
10
103.125
20
20.7
30
0
210
0
220
0
230
1
1
\W0.7361;45
40
4.5
41
0
44
1.084337
50
90
71
7
72
5
7
iso_b_vert
0
LINE
5
13B
100
AcDbEntity
8
2
62
256
6
ByLayer
370
13
48
1
60
0
100
AcDbLine
10
81.5
20
45
30
0
11
107.25
21
45
31
0
39
0
210
0
220
0
230
1
0
LINE
5
13C
100
AcDbEntity
8
2
62
256
6
ByLayer
370
13
48
1
60
0
100
AcDbLine
10
36.5
20
0
30
0
11
107.25
21
0
31
0
39
0
210
0
220
0
230
1
0
LINE
5
13D
100
AcDbEntity
8
2
62
256
6
ByLayer
370
13
48
1
60
0
100
AcDbLine
10
104.25
20
45
30
0
11
104.25
21
0
31
0
39
0
210
0
220
0
230
1
0
LINE
5
13E
100
AcDbEntity
8
2
62
256
6
ByLayer
370
13
48
1
60
0
100
AcDbLine
10
104.25
20
45
30
0
11
104.644957
21
42.000001
31
0
39
0
210
0
220
0
230
1
0
LINE
5
13F
100
AcDbEntity
8
2
62
256
6
ByLayer
370
13
48
1
60
0
100
AcDbLine
10
104.25
20
45
30
0
11
103.855043
21
41.999999
31
0
39
0
210
0
220
0
230
1
0
LINE
5
140
100
AcDbEntity
8
2
62
256
6
ByLayer
370
13
48
1
60
0
100
AcDbLine
10
104.644957
20
42.000001
30
0
11
103.855043
21
41.999999
31
0
39
0
210
0
220
0
230
1
0
LINE
5
141
100
AcDbEntity
8
2
62
256
6
ByLayer
370
13
48
1
60
0
100
AcDbLine
10
104.25
20
0
30
0
11
103.855043
21
2.999999
31
0
39
0
210
0
220
0
230
1
0
LINE
5
142
100
AcDbEntity
8
2
62
256
6
ByLayer
370
13
48
1
60
0
100
AcDbLine
10
104.25
20
0
30
0
11
104.644957
21
3.000001
31
0
39
0
210
0
220
0
230
1
0
LINE
5
143
100
AcDbEntity
8
2
62
256
6
ByLayer
370
13
48
1
60
0
100
AcDbLine
10
103.855043
20
2.999999
30
0
11
104.644957
21
3.000001
31
0
39
0
210
0
220
0
230
1
0
ENDBLK
5
145
100
AcDbEntity
8
0
100
AcDbBlockEnd
0
BLOCK
5
152
100
AcDbEntity
8
0
100
AcDbBlockBegin
2
DimnDraft3D4
70
0
10
0
20
0
30
0
3
DimnDraft3D4
0
MTEXT
5
148
100
AcDbEntity
8
2
62
256
6
ByLayer
370
18
48
1
60
0
100
AcDbMText
10
38.436842
20
55.875
30
0
210
0
220
0
230
1
1
\W0.6740;80
40
4.5
41
0
44
1.084337
50
0
71
7
72
5
7
iso_b_vert
0
LINE
5
149
100
AcDbEntity
8
2
62
256
6
ByLayer
370
13
48
1
60
0
100
AcDbLine
10
0
20
1.5
30
0
11
0
21
57.75
31
0
39
0
210
0
220
0
230
1
0
LINE
5
14A
100
AcDbEntity
8
2
62
256
6
ByLayer
370
13
48
1
60
0
100
AcDbLine
10
80
20
43.5
30
0
11
80
21
57.75
31
0
39
0
210
0
220
0
230
1
0
LINE
5
14B
100
AcDbEntity
8
2
62
256
6
ByLayer
370
13
48
1
60
0
100
AcDbLine
10
0
20
54.75
30
0
11
80
21
54.75
31
0
39
0
210
0
220
0
230
1
0
LINE
5
14C
100
AcDbEntity
8
2
62
256
6
ByLayer
370
13
48
1
60
0
100
AcDbLine
10
0
20
54.75
30
0
11
2.999999
21
55.144957
31
0
39
0
210
0
220
0
230
1
0
LINE
5
14D
100
AcDbEntity
8
2
62
256
6
ByLayer
370
13
48
1
60
0
100
AcDbLine
10
0
20
54.75
30
0
11
3.000001
21
54.355043
31
0
39
0
210
0
220
0
230
1
0
LINE
5
14E
100
AcDbEntity
8
2
62
256
6
ByLayer
370
13
48
1
60
0
100
AcDbLine
10
2.999999
20
55.144957
30
0
11
3.000001
21
54.355043
31
0
39
0
210
0
220
0
230
1
0
LINE
5
14F
100
AcDbEntity
8
2
62
256
6
ByLayer
370
13
48
1
60
0
100
AcDbLine
10
80
20
54.75
30
0
11
77.000001
21
54.355043
31
0
39
0
210
0
220
0
230
1
0
LINE
5
150
100
AcDbEntity
8
2
62
256
6
ByLayer
370
13
48
1
60
0
100
AcDbLine
10
80
20
54.75
30
0
11
76.999999
21
55.144957
31
0
39
0
210
0
220
0
230
1
0
LINE
5
151
100
AcDbEntity
8
2
62
256
6
ByLayer
370
13
48
1
60
0
100
AcDbLine
10
77.000001
20
54.355043
30
0
11
76.999999
21
55.144957
31
0
39
0
210
0
220
0
230
1
0
ENDBLK
5
153
100
AcDbEntity
8
0
100
AcDbBlockEnd
0
BLOCK
5
160
100
AcDbEntity
8
0
100
AcDbBlockBegin
2
DimnDraft3D5
70
0
10
0
20
0
30
0
3
DimnDraft3D5
0
MTEXT
5
156
100
AcDbEntity
8
2
62
256
6
ByLayer
370
18
48
1
60
0
100
AcDbMText
10
62.436842
20
-13.125
30
0
210
0
220
0
230
1
1
\W0.6740;32
40
4.5
41
0
44
1.084337
50
0
71
7
72
5
7
iso_b_vert
0
LINE
5
157
100
AcDbEntity
8
2
62
256
6
ByLayer
370
13
48
1
60
0
100
AcDbLine
10
48
20
36.5
30
0
11
48
21
-17.25
31
0
39
0
210
0
220
0
230
1
0
LINE
5
158
100
AcDbEntity
8
2
62
256
6
ByLayer
370
13
48
1
60
0
100
AcDbLine
10
80
20
37.5
30
0
11
80
21
-17.25
31
0
39
0
210
0
220
0
230
1
0
LINE
5
159
100
AcDbEntity
8
2
62
256
6
ByLayer
370
13
48
1
60
0
100
AcDbLine
10
48
20
-14.25
30
0
11
80
21
-14.25
31
0
39
0
210
0
220
0
230
1
0
LINE
5
15A
100
AcDbEntity
8
2
62
256
6
ByLayer
370
13
48
1
60
0
100
AcDbLine
10
48
20
-14.25
30
0
11
50.999999
21
-13.855043
31
0
39
0
210
0
220
0
230
1
0
LINE
5
15B
100
AcDbEntity
8
2
62
256
6
ByLayer
370
13
48
1
60
0
100
AcDbLine
10
48
20
-14.25
30
0
11
51.000001
21
-14.644957
31
0
39
0
210
0
220
0
230
1
0
LINE
5
15C
100
AcDbEntity
8
2
62
256
6
ByLayer
370
13
48
1
60
0
100
AcDbLine
10
50.999999
20
-13.855043
30
0
11
51.000001
21
-14.644957
31
0
39
0
210
0
220
0
230
1
0
LINE
5
15D
100
AcDbEntity
8
2
62
256
6
ByLayer
370
13
48
1
60
0
100
AcDbLine
10
80
20
-14.25
30
0
11
77.000001
21
-14.644957
31
0
39
0
210
0
220
0
230
1
0
LINE
5
15E
100
AcDbEntity
8
2
62
256
6
ByLayer
370
13
48
1
60
0
100
AcDbLine
10
80
20
-14.25
30
0
11
76.999999
21
-13.855043
31
0
39
0
210
0
220
0
230
1
0
LINE
5
15F
100
AcDbEntity
8
2
62
256
6
ByLayer
370
13
48
1
60
0
100
AcDbLine
10
77.000001
20
-14.644957
30
0
11
76.999999
21
-13.855043
31
0
39
0
210
0
220
0
230
1
0
ENDBLK
5
161
100
AcDbEntity
8
0
100
AcDbBlockEnd
0
ENDSEC
0
SECTION
2
ENTITIES
0
ARC
5
C5
100
AcDbEntity
8
SK1
62
256
6
ByLayer
370
18
48
1
60
0
100
AcDbCircle
39
0
10
0.6
20
-23.45
30
0
40
0.999999999999999
210
0
220
0
230
-1
100
AcDbArc
50
113.578178
51
126.869898
0
ARC
5
C6
100
AcDbEntity
8
SK1
62
256
6
ByLayer
370
18
48
1
60
0
100
AcDbCircle
39
0
10
0.6
20
23.45
30
0
40
0.999999999999999
210
0
220
0
230
-1
100
AcDbArc
50
233.130102
51
246.421822
0
ARC
5
CA
100
AcDbEntity
8
1
62
256
6
ByLayer
370
18
48
1
60
0
100
AcDbCircle
39
0
10
48.1
20
37.725
30
0
40
1.6
210
0
220
0
230
1
100
AcDbArc
50
90
51
180
0
ARC
5
CD
100
AcDbEntity
8
1
62
256
6
ByLayer
370
18
48
1
60
0
100
AcDbCircle
39
0
10
-37.707616
20
37.675
30
0
40
0.501259405157916
210
0
220
0
230
-1
100
AcDbArc
50
278.054217
51
81.945783
0
ARC
5
CF
100
AcDbEntity
8
1
62
256
6
ByLayer
370
18
48
1
60
0
100
AcDbCircle
39
0
10
-42.729045
20
36.099385
30
0
40
1.13980641809794
210
0
220
0
230
-1
100
AcDbArc
50
342.227341
51
77.772659
0
ARC
5
D0
100
AcDbEntity
8
1
62
256
6
ByLayer
370
18
48
1
60
0
100
AcDbCircle
39
0
10
-42.729045
20
39.250615
30
0
40
1.13980641809794
210
0
220
0
230
-1
100
AcDbArc
50
288.752695
51
17.772659
0
ARC
5
D1
100
AcDbEntity
8
1
62
256
6
ByLayer
370
18
48
1
60
0
100
AcDbCircle
39
0
10
-41.146192
20
35.689737
30
0
40
0.501259405157916
210
0
220
0
230
-1
100
AcDbArc
50
172.925818
51
321.945783
0
ARC
5
D2
100
AcDbEntity
8
1
62
256
6
ByLayer
370
18
48
1
60
0
100
AcDbCircle
39
0
10
-41.146192
20
39.660263
30
0
40
0.501259405157916
210
0
220
0
230
-1
100
AcDbArc
50
52.925818
51
187.074182
0
ARC
5
D3
100
AcDbEntity
8
1
62
256
6
ByLayer
370
18
48
1
60
0
100
AcDbCircle
39
0
10
-40
20
34.52377
30
0
40
1.13980641809794
210
0
220
0
230
-1
100
AcDbArc
50
48.752695
51
131.247305
0
ARC
5
D5
100
AcDbEntity
8
1
62
256
6
ByLayer
370
18
48
1
60
0
100
AcDbCircle
39
0
10
-40
20
40.82623
30
0
40
1.13980641809794
210
0
220
0
230
-1
100
AcDbArc
50
222.227341
51
317.772659
0
ARC
5
D6
100
AcDbEntity
8
1
62
256
6
ByLayer
370
18
48
1
60
0
100
AcDbCircle
39
0
10
-38.853808
20
39.660263
30
0
40
0.501259405157916
210
0
220
0
230
-1
100
AcDbArc
50
352.925818
51
127.074182
0
ARC
5
D7
100
AcDbEntity
8
1
62
256
6
ByLayer
370
18
48
1
60
0
100
AcDbCircle
39
0
10
-42.292384
20
37.675
30
0
40
0.501259405157916
210
0
220
0
230
-1
100
AcDbArc
50
98.054217
51
247.074182
0
ARC
5
D8
100
AcDbEntity
8
1
62
256
6
ByLayer
370
18
48
1
60
0
100
AcDbCircle
39
0
10
-37.270955
20
39.250615
30
0
40
1.13980641809794
210
0
220
0
230
-1
100
AcDbArc
50
162.227341
51
251.247305
0
ARC
5
D9
100
AcDbEntity
8
1
62
256
6
ByLayer
370
18
48
1
60
0
100
AcDbCircle
39
0
10
-37.270955
20
36.099385
30
0
40
1.13980641809794
210
0
220
0
230
-1
100
AcDbArc
50
108.752695
51
191.247305
0
ARC
5
DA
100
AcDbEntity
8
1
62
256
6
ByLayer
370
18
48
1
60
0
100
AcDbCircle
39
0
10
-38.853808
20
35.689737
30
0
40
0.501259405157916
210
0
220
0
230
-1
100
AcDbArc
50
218.054217
51
21.945783
0
ARC
5
DC
100
AcDbEntity
8
1
62
256
6
ByLayer
370
18
48
1
60
0
100
AcDbCircle
39
0
10
-79.7
20
44.7
30
0
40
0.3
210
0
220
0
230
-1
100
AcDbArc
50
86.667
51
180
0
ARC
5
DD
100
AcDbEntity
8
1
62
256
6
ByLayer
370
18
48
1
60
0
100
AcDbCircle
39
0
10
79.7
20
39.3
30
0
40
0.299999999999999
210
0
220
0
230
1
100
AcDbArc
50
266.667
51
360
0
CIRCLE
5
C7
100
AcDbEntity
8
62
62
256
6
ByLayer
370
18
48
1
60
0
100
AcDbCircle
10
40
20
37.675
30
0
40
5.5
39
0
210
0
220
0
230
1
0
CIRCLE
5
C9
100
AcDbEntity
8
62
62
256
6
ByLayer
370
18
48
1
60
0
100
AcDbCircle
10
40
20
37.675
30
0
40
5.5
39
0
210
0
220
0
230
1
0
CIRCLE
5
CB
100
AcDbEntity
8
1
62
256
6
ByLayer
370
18
48
1
60
0
100
AcDbCircle
10
-40
20
37.675
30
0
40
5.5
39
0
210
0
220
0
230
-1
0
CIRCLE
5
CC
100
AcDbEntity
8
1
62
256
6
ByLayer
370
18
48
1
60
0
100
AcDbCircle
10
-9.5
20
0
30
0
40
2
39
0
210
0
220
0
230
-1
0
CIRCLE
5
CE
100
AcDbEntity
8
1
62
256
6
ByLayer
370
18
48
1
60
0
100
AcDbCircle
10
40
20
37.675
30
0
40
4.4958
39
0
210
0
220
0
230
1
0
CIRCLE
5
D4
100
AcDbEntity
8
1
62
256
6
ByLayer
370
18
48
1
60
0
100
AcDbCircle
10
-40
20
37.675
30
0
40
5.0038
39
0
210
0
220
0
230
-1
0
CIRCLE
5
DB
100
AcDbEntity
8
1
62
256
6
ByLayer
370
18
48
1
60
0
100
AcDbCircle
10
-40
20
37.675
30
0
40
3.0330983114651
39
0
210
0
220
0
230
-1
0
ELLIPSE
5
DE
100
AcDbEntity
8
1
62
256
6
ByLayer
370
18
48
1
60
0
100
AcDbEllipse
10
26.347154
20
0
30
0
11
-14.7536831606554
21
-31.0932549155799
31
0
210
0
220
0
230
1
40
0.341999
41
-1.09123958575286
42
-0.157806186645435
0
ELLIPSE
5
DF
100
AcDbEntity
8
1
62
256
6
ByLayer
370
18
48
1
60
0
100
AcDbEllipse
10
-2.347154
20
0
30
0
11
-14.7536831606538
21
-31.0932549155779
31
0
210
0
220
0
230
1
40
0.341999
41
2.05035306783689
42
2.98378646694435
0
ELLIPSE
5
E0
100
AcDbEntity
8
1
62
256
6
ByLayer
370
18
48
1
60
0
100
AcDbEllipse
10
26.347154
20
0
30
0
11
-14.7536831606554
21
31.0932549155802
31
0
210
0
220
0
230
1
40
0.341999
41
0.157806186645435
42
1.09123958575285
0
ELLIPSE
5
E1
100
AcDbEntity
8
1
62
256
6
ByLayer
370
18
48
1
60
0
100
AcDbEllipse
10
72.667981
20
43.408476
30
0
11
-2.44108879071233E-08
21
-0.50000006034677
31
0
210
0
220
0
230
1
40
0.493963
41
1.91986224346363
42
2.00712869688287
0
ELLIPSE
5
E2
100
AcDbEntity
8
1
62
256
6
ByLayer
370
18
48
1
60
0
100
AcDbEllipse
10
20.755893
20
0
30
0
11
3.69007802829627E-14
21
31.5
31
0
210
0
220
0
230
1
40
0.087489
41
0.483773641259567
42
2.65781901233023
0
ELLIPSE
5
E3
100
AcDbEntity
8
1
62
256
6
ByLayer
370
18
48
1
60
0
100
AcDbEllipse
10
72.667981
20
40.591524
30
0
11
-1.7863984503751E-08
21
0.500000044077857
31
0
210
0
220
0
230
1
40
0.493963
41
-2.00712868168371
42
-1.91986222578392
0
ELLIPSE
5
E4
100
AcDbEntity
8
1
62
256
6
ByLayer
370
18
48
1
60
0
100
AcDbEllipse
10
-2.347154
20
0
30
0
11
-14.7536831606547
21
31.0932549155792
31
0
210
0
220
0
230
1
40
0.341999
41
-2.98378646694435
42
-2.05035306783692
0
ELLIPSE
5
E5
100
AcDbEntity
8
1
62
256
6
ByLayer
370
18
48
1
60
0
100
AcDbEllipse
10
18.656165
20
2.453387
30
0
11
-0.0119687603171791
21
-6.21324927436382
31
0
210
0
220
0
230
1
40
0.084464
41
0.0366780688575356
42
-0.643016523052617
0
ELLIPSE
5
E6
100
AcDbEntity
8
1
62
256
6
ByLayer
370
18
48
1
60
0
100
AcDbEllipse
10
72.498579
20
39.819265
30
0
11
-0.613959163678919
21
-0.0404900430119151
31
0
210
0
220
0
230
1
40
0.174891
41
1.96947735460509
42
2.78099342497695
0
ELLIPSE
5
E7
100
AcDbEntity
8
1
62
256
6
ByLayer
370
18
48
1
60
0
100
AcDbEllipse
10
72.498579
20
44.180735
30
0
11
-0.61395916367677
21
0.0404900430120986
31
0
210
0
220
0
230
1
40
0.174891
41
-2.78099342497769
42
-1.96947735460328
0
POINT
5
6C
100
AcDbEntity
8
80
62
256
6
ByLayer
370
18
48
1
60
0
100
AcDbPoint
10
0
20
0
30
0
39
0
210
0
220
0
230
1
50
360
0
POINT
5
6E
100
AcDbEntity
8
2
62
256
6
ByLayer
370
18
48
1
60
0
100
AcDbPoint
10
80
20
45
30
0
39
0
210
0
220
0
230
1
50
360
0
POINT
5
70
100
AcDbEntity
8
81
62
256
6
ByLayer
370
18
48
1
60
0
100
AcDbPoint
10
80
20
45
30
0
39
0
210
0
220
0
230
1
50
360
0
SPLINE
5
E8
100
AcDbEntity
8
SK1
62
256
6
ByLayer
370
18
48
1
60
0
100
AcDbSpline
70
4
71
3
72
13
73
9
40
0
40
0
40
0
40
0
40
0.239456135763718
40
0.368359721933656
40
0.499998984021097
40
0.63163841528373
40
0.760542467778167
40
1
40
1
40
1
40
1
41
1
10
-2.20000000000002
20
-22.0200986606755
30
0
41
1
10
-2.19909198642276
20
-21.9940411845603
30
0
41
1
10
-2.19103284106944
20
-21.9566686002238
30
0
41
1
10
-2.1656359220334
20
-21.9104494263858
30
0
41
1
10
-2.13886378679263
20
-21.8791678725253
30
0
41
1
10
-2.10627712749871
20
-21.8540005023229
30
0
41
1
10
-2.05884064234081
20
-21.8309566998545
30
0
41
1
10
-2.02111030873027
20
-21.8247844448324
30
0
41
1
10
-1.99503997793931
20
-21.825186084775
30
0
0
SPLINE
5
E9
100
AcDbEntity
8
SK1
62
256
6
ByLayer
370
18
48
1
60
0
100
AcDbSpline
70
4
71
3
72
13
73
9
40
0
40
0
40
0
40
0
40
0.239457532152995
40
0.368361584623188
40
0.500001015876169
40
0.631640277971204
40
0.760543864164266
40
1
40
1
40
1
40
1
41
1
10
-1.99503997793926
20
21.8251861015554
30
0
41
1
10
-2.02111030873164
20
21.8247844616134
30
0
41
1
10
-2.0588406423434
20
21.8309567166392
30
0
41
1
10
-2.10627712750073
20
21.854000519123
30
0
41
1
10
-2.13886378679453
20
21.8791678893421
30
0
41
1
10
-2.16563592203482
20
21.9104494432231
30
0
41
1
10
-2.19103284107052
20
21.9566686170919
30
0
41
1
10
-2.19909198642384
20
21.9940412014509
30
0
41
1
10
-2.19999999999996
20
22.0200986775813
30
0
0
SPLINE
5
EA
100
AcDbEntity
8
SK1
62
256
6
ByLayer
370
18
48
1
60
0
100
AcDbSpline
70
4
71
2
72
6
73
3
40
0
40
0
40
0
40
1
40
1
40
1
41
1
10
-36.5
20
-21.1521177089669
30
0
41
1
10
-19.3499999999701
20
-21.5828554470541
30
0
41
1
10
-2.20000000000002
20
-22.0135928951589
30
0
0
SPLINE
5
EB
100
AcDbEntity
8
SK1
62
256
6
ByLayer
370
18
48
1
60
0
100
AcDbSpline
70
4
71
2
72
6
73
3
40
0
40
0
40
0
40
1
40
1
40
1
41
1
10
-2.19999999999996
20
22.0135927638551
30
0
41
1
10
-19.3499999999869
20
21.5828539542124
30
0
41
1
10
-36.5
20
21.1521149580209
30
0
0
SPLINE
5
EC
100
AcDbEntity
8
SK1
62
256
6
ByLayer
370
18
48
1
60
0
100
AcDbSpline
70
4
71
2
72
6
73
3
40
0
40
0
40
0
40
1
40
1
40
1
41
1
10
-1.99503997793931
20
-21.8251812553753
30
0
41
1
10
-1.19500843340731
20
-21.8452807024746
30
0
41
1
10
-0.394976888875306
20
-21.8653801495793
30
0
0
SPLINE
5
ED
100
AcDbEntity
8
SK1
62
256
6
ByLayer
370
18
48
1
60
0
100
AcDbSpline
70
4
71
2
72
6
73
3
40
0
40
0
40
0
40
1
40
1
40
1
41
1
10
-0.394976888875249
20
21.8653802062992
30
0
41
1
10
-1.19500843340725
20
21.8452807593862
30
0
41
1
10
-1.99503997793926
20
21.8251813124779
30
0
0
SPLINE
5
EE
100
AcDbEntity
8
SK1
62
256
6
ByLayer
370
18
48
1
60
0
100
AcDbSpline
70
4
71
2
72
6
73
3
40
0
40
0
40
0
40
1
40
1
40
1
41
1
10
-38
20
-20.289405225553
30
0
41
1
10
-37.2500000000012
20
-20.7223540793631
30
0
41
1
10
-36.5
20
-21.1553029418637
30
0
0
SPLINE
5
EF
100
AcDbEntity
8
SK1
62
256
6
ByLayer
370
18
48
1
60
0
100
AcDbSpline
70
4
71
2
72
6
73
3
40
0
40
0
40
0
40
1
40
1
40
1
41
1
10
-36.5
20
21.155302724897
30
0
41
1
10
-37.2500000000012
20
20.7223538609617
30
0
41
1
10
-38
20
20.2894050057151
30
0
0
SPLINE
5
F0
100
AcDbEntity
8
SK1
62
256
6
ByLayer
370
18
48
1
60
0
100
AcDbSpline
70
4
71
2
72
6
73
3
40
0
40
0
40
0
40
1
40
1
40
1
41
1
10
-0.394976888875306
20
-21.8653849865467
30
0
41
1
10
-0.265172990617032
20
-21.8689012906761
30
0
41
1
10
-0.240502439654307
20
-21.9465691723769
30
0
0
SPLINE
5
F1
100
AcDbEntity
8
SK1
62
256
6
ByLayer
370
18
48
1
60
0
100
AcDbSpline
70
4
71
2
72
6
73
3
40
0
40
0
40
0
40
1
40
1
40
1
41
1
10
-0.239684768755751
20
21.9481214799356
30
0
41
1
10
-0.264174311740334
20
21.8692639605625
30
0
41
1
10
-0.394976888875249
20
21.865385003355
30
0
0
SPLINE
5
F2
100
AcDbEntity
8
1
62
256
6
ByLayer
370
18
48
1
60
0
100
AcDbSpline
70
4
71
3
72
8
73
4
40
0
40
0
40
0
40
0
40
1
40
1
40
1
40
1
41
1
10
22.92079238
20
29.5033714288833
30
0
41
1
10
23.0982372555071
20
30.219431503789
30
0
41
1
10
23.2777372108228
20
30.9354868775102
30
0
41
1
10
23.4588422983512
20
31.6510355255359
30
0
0
SPLINE
5
F3
100
AcDbEntity
8
1
62
256
6
ByLayer
370
18
48
1
60
0
100
AcDbSpline
70
4
71
3
72
8
73
4
40
0
40
0
40
0
40
0
40
1
40
1
40
1
40
1
41
1
10
23.8010200165557
20
-33
30
0
41
1
10
23.4899869106486
20
-33
30
0
41
1
10
23.3258100094863
20
-33
30
0
41
1
10
23.3255010165557
20
-33
30
0
0
SPLINE
5
F4
100
AcDbEntity
8
1
62
256
6
ByLayer
370
18
48
1
60
0
100
AcDbSpline
70
4
71
3
72
8
73
4
40
0
40
0
40
0
40
0
40
1
40
1
40
1
40
1
41
1
10
23.8010200165557
20
-33
30
0
41
1
10
23.6867325580973
20
-32.5504014853947
30
0
41
1
10
23.5726645605543
20
-32.1007488215359
30
0
41
1
10
23.4588422983511
20
-31.651035525536
30
0
0
SPLINE
5
F5
100
AcDbEntity
8
1
62
256
6
ByLayer
370
18
48
1
60
0
100
AcDbSpline
70
4
71
3
72
16
73
12
40
0
40
0
40
0
40
0
40
0.463423600832209
40
0.463423600832209
40
0.646243952932815
40
0.646243952932815
40
0.831657283224495
40
0.831657283224495
40
0.947504344290837
40
0.947504344290837
40
1
40
1
40
1
40
1
41
1
10
13.8943375672974
20
-9.86941261896621
30
0
41
1
10
13.8656609252734
20
-9.76458357826289
30
0
41
1
10
13.8263500123909
20
-9.66039292789941
30
0
41
1
10
13.7453819366532
20
-9.52957658281045
30
0
41
1
10
13.7190869808859
20
-9.49380155568076
30
0
41
1
10
13.6579862203325
20
-9.42941539787637
30
0
41
1
10
13.6222599905467
20
-9.40014891155712
30
0
41
1
10
13.556648346355
20
-9.36662118733787
30
0
41
1
10
13.5289597975987
20
-9.35698328824239
30
0
41
1
10
13.4876776374751
20
-9.35029954873107
30
0
41
1
10
13.47447899686
20
-9.34922131452504
30
0
41
1
10
13.4613248654052
20
-9.34922131452504
30
0
0
SPLINE
5
F6
100
AcDbEntity
8
1
62
256
6
ByLayer
370
18
48
1
60
0
100
AcDbSpline
70
4
71
3
72
8
73
4
40
0
40
0
40
0
40
0
40
1
40
1
40
1
40
1
41
1
10
26.808547418688
20
44.675
30
0
41
1
10
26.7444728660014
20
44.675
30
0
41
1
10
26.6886575362495
20
44.675
30
0
41
1
10
26.6414363580927
20
44.675
30
0
0
SPLINE
5
F7
100
AcDbEntity
8
1
62
256
6
ByLayer
370
18
48
1
60
0
100
AcDbSpline
70
4
71
3
72
8
73
4
40
0
40
0
40
0
40
0
40
1
40
1
40
1
40
1
41
1
10
23.4588422983512
20
31.6510355255359
30
0
41
1
10
24.5586851747397
20
35.9965295918864
30
0
41
1
10
25.6798182635495
20
40.3367123060623
30
0
41
1
10
26.808547418688
20
44.675
30
0
0
SPLINE
5
F8
100
AcDbEntity
8
1
62
256
6
ByLayer
370
18
48
1
60
0
100
AcDbSpline
70
4
71
3
72
8
73
4
40
0
40
0
40
0
40
0
40
1
40
1
40
1
40
1
41
1
10
26.6414363580927
20
44.675
30
0
41
1
10
25.5275156842885
20
40.4516639302085
30
0
41
1
10
24.4175207473887
20
36.2272360057091
30
0
41
1
10
23.3186553999595
20
32
30
0
0
SPLINE
5
F9
100
AcDbEntity
8
1
62
256
6
ByLayer
370
18
48
1
60
0
100
AcDbSpline
70
4
71
3
72
8
73
4
40
0
40
0
40
0
40
0
40
1
40
1
40
1
40
1
41
1
10
23.4588422983511
20
-31.651035525536
30
0
41
1
10
23.2777372108227
20
-30.9354868775103
30
0
41
1
10
23.0982372555071
20
-30.2194315037891
30
0
41
1
10
22.92079238
20
-29.5033714288834
30
0
0
SPLINE
5
FA
100
AcDbEntity
8
1
62
256
6
ByLayer
370
18
48
1
60
0
100
AcDbSpline
70
2053
71
3
72
44
73
40
40
0
40
0
40
0
40
0
40
0.0535886196886103
40
0.0535886196886103
40
0.107169995267639
40
0.107169995267639
40
0.160859964384606
40
0.160859964384606
40
0.214624439862941
40
0.214624439862941
40
0.268272114760092
40
0.268272114760092
40
0.321794544850831
40
0.321794544850831
40
0.375377493563055
40
0.375377493563055
40
0.429112807400744
40
0.429112807400744
40
0.482855479965357
40
0.482855479965357
40
0.536447662407792
40
0.536447662407792
40
0.589966775097614
40
0.589966775097614
40
0.643603826383992
40
0.643603826383992
40
0.697366000053616
40
0.697366000053616
40
0.7510655044382
40
0.7510655044382
40
0.804612881631084
40
0.804612881631084
40
0.858155421319626
40
0.858155421319626
40
0.911847408750255
40
0.911847408750255
40
0.965611501047897
40
0.965611501047897
40
1
40
1
40
1
40
1
41
1
10
9.50092050359446
20
-2.50750000000002
30
0
41
1
10
9.21984651020441
20
-2.50750000000002
30
0
41
1
10
8.93583164169962
20
-2.45920875061665
30
0
41
1
10
8.40717722567518
20
-2.27414158364607
30
0
41
1
10
8.15524954955947
20
-2.13484377383739
30
0
41
1
10
7.71714475872528
20
-1.78539957940262
30
0
41
1
10
7.52505076671181
20
-1.57029222762643
30
0
41
1
10
7.22668666261694
20
-1.09475754011973
30
0
41
1
10
7.11641567626867
20
-0.827678480524582
30
0
41
1
10
6.99246609395266
20
-0.280106619951141
30
0
41
1
10
6.9768789143107
20
0.0079172182419995
30
0
41
1
10
7.04089603814722
20
0.56449781630522
30
0
41
1
10
7.1211519243746
20
0.840750844835895
30
0
41
1
10
7.36500508053672
20
1.3445286612382
30
0
41
1
10
7.53203877585094
20
1.57893673814593
30
0
41
1
10
7.92921964963963
20
1.97458738124968
30
0
41
1
10
8.16503524257467
20
2.1410895568421
30
0
41
1
10
8.67168731631716
20
2.38333921519904
30
0
41
1
10
8.94954649561123
20
2.46241322799446
30
0
41
1
10
9.50734496336779
20
2.52309163181738
30
0
41
1
10
9.79496418342919
20
2.5057978589854
30
0
41
1
10
10.3403132818139
20
2.37901229143424
30
0
41
1
10
10.6055803193833
20
2.26791547752106
30
0
41
1
10
11.0785449083964
20
1.9683207216091
30
0
41
1
10
11.2926387268628
20
1.77553399123465
30
0
41
1
10
11.6407428202182
20
1.33553254609649
30
0
41
1
10
11.7793771180149
20
1.08209894907372
30
0
41
1
10
11.962233966515
20
0.551103253432046
30
0
41
1
10
12.0090800727664
20
0.266224346686727
30
0
41
1
10
12.0058406816686
20
-0.294427598515313
30
0
41
1
10
11.9559848673329
20
-0.577939305462706
30
0
41
1
10
11.7681385695037
20
-1.10517767015696
30
0
41
1
10
11.6275874936285
20
-1.35616100431173
30
0
41
1
10
11.275952040161
20
-1.79226792038077
30
0
41
1
10
11.0598231645066
20
-1.98322981196426
30
0
41
1
10
10.5827057689505
20
-2.27907777440879
30
0
41
1
10
10.3150460276443
20
-2.38793334860355
30
0
41
1
10
9.86364027013033
20
-2.48760497569523
30
0
41
1
10
9.68128926067988
20
-2.50750000000002
30
0
41
1
10
9.50092050359446
20
-2.50750000000002
30
0
0
SPLINE
5
FB
100
AcDbEntity
8
1
62
256
6
ByLayer
370
18
48
1
60
0
100
AcDbSpline
70
4
71
3
72
16
73
12
40
0
40
0
40
0
40
0
40
0.463423600832241
40
0.463423600832241
40
0.646243952932834
40
0.646243952932834
40
0.831657283224497
40
0.831657283224497
40
0.947504344290847
40
0.947504344290847
40
1
40
1
40
1
40
1
41
1
10
13.8943375672974
20
29.9139548464691
30
0
41
1
10
13.8656609252735
20
29.9485407466772
30
0
41
1
10
13.8263500123909
20
29.982269090612
30
0
41
1
10
13.7453819366532
20
30.0239686896252
30
0
41
1
10
13.7190869808859
20
30.0352936109064
30
0
41
1
10
13.6579862203325
20
30.0555697561518
30
0
41
1
10
13.6222599905468
20
30.0647246060481
30
0
41
1
10
13.5566483463551
20
30.0751823136668
30
0
41
1
10
13.5289597975988
20
30.0781795790238
30
0
41
1
10
13.4876776374751
20
30.0802576981002
30
0
41
1
10
13.4744789968601
20
30.0805927603169
30
0
41
1
10
13.4613248654052
20
30.0805927603169
30
0
0
SPLINE
5
FC
100
AcDbEntity
8
1
62
256
6
ByLayer
370
18
48
1
60
0
100
AcDbSpline
70
4
71
3
72
8
73
4
40
0
40
0
40
0
40
0
40
1
40
1
40
1
40
1
41
1
10
23.3186553999595
20
32
30
0
41
1
10
23.1671690221936
20
32
30
0
41
1
10
23.0785010960792
20
32
30
0
41
1
10
23.0589526607011
20
32
30
0
0
SPLINE
5
FD
100
AcDbEntity
8
1
62
256
6
ByLayer
370
18
48
1
60
0
100
AcDbSpline
70
4
71
3
72
10
73
6
40
0
40
0
40
0
40
0
40
0.5
40
0.5
40
1
40
1
40
1
40
1
41
1
10
19.4740635059841
20
-27.8852497057821
30
0
41
1
10
19.547746902166
20
-28.327758350273
30
0
41
1
10
19.8932223140802
20
-28.7126696182088
30
0
41
1
10
21.1068779081686
20
-29.2789546892442
30
0
41
1
10
21.9736278977364
20
-29.4552756622729
30
0
41
1
10
22.92079238
20
-29.5033714288834
30
0
0
SPLINE
5
FE
100
AcDbEntity
8
1
62
256
6
ByLayer
370
18
48
1
60
0
100
AcDbSpline
70
4
71
3
72
16
73
12
40
0
40
0
40
0
40
0
40
0.113316224833596
40
0.113316224833596
40
0.252990411571581
40
0.252990411571581
40
0.473309013928343
40
0.473309013928343
40
0.896716357718895
40
0.896716357718895
40
1
40
1
40
1
40
1
41
1
10
13.4613248654051
20
-30.0805927603169
30
0
41
1
10
13.4894125595718
20
-30.0805927603169
30
0
41
1
10
13.517849357763
20
-30.0790101689567
30
0
41
1
10
13.5767970345725
20
-30.0726712338969
30
0
41
1
10
13.6072473721288
20
-30.0672275748685
30
0
41
1
10
13.6769143636601
20
-30.0506647867053
30
0
41
1
10
13.712826650765
20
-30.0378702684276
30
0
41
1
10
13.8014637450836
20
-29.9980833386355
30
0
41
1
10
13.842370839753
20
-29.967975934908
30
0
41
1
10
13.8809034737598
20
-29.9294196064672
30
0
41
1
10
13.8878971837969
20
-29.9217223689309
30
0
41
1
10
13.8943375672974
20
-29.9139548464691
30
0
0
SPLINE
5
FF
100
AcDbEntity
8
1
62
256
6
ByLayer
370
18
48
1
60
0
100
AcDbSpline
70
4
71
3
72
16
73
12
40
0
40
0
40
0
40
0
40
0.463423600832241
40
0.463423600832241
40
0.646243952932837
40
0.646243952932837
40
0.831657283224505
40
0.831657283224505
40
0.947504344290848
40
0.947504344290848
40
1
40
1
40
1
40
1
41
1
10
10.1056624327026
20
9.86941261896618
30
0
41
1
10
10.1343390747266
20
9.76458357826286
30
0
41
1
10
10.1736499876091
20
9.66039292789938
30
0
41
1
10
10.2546180633468
20
9.52957658281042
30
0
41
1
10
10.2809130191141
20
9.49380155568073
30
0
41
1
10
10.3420137796675
20
9.42941539787637
30
0
41
1
10
10.3777400094532
20
9.40014891155712
30
0
41
1
10
10.443351653645
20
9.36662118733787
30
0
41
1
10
10.4710402024013
20
9.35698328824239
30
0
41
1
10
10.5123223625249
20
9.35029954873104
30
0
41
1
10
10.5255210031399
20
9.34922131452504
30
0
41
1
10
10.5386751345948
20
9.34922131452504
30
0
0
SPLINE
5
100
100
AcDbEntity
8
1
62
256
6
ByLayer
370
18
48
1
60
0
100
AcDbSpline
70
4
71
3
72
16
73
12
40
0
40
0
40
0
40
0
40
0.113316224833592
40
0.113316224833592
40
0.252990411571568
40
0.252990411571568
40
0.473309013928318
40
0.473309013928318
40
0.896716357718825
40
0.896716357718825
40
1
40
1
40
1
40
1
41
1
10
13.4613248654052
20
9.3492213145251
30
0
41
1
10
13.4894125595718
20
9.3492213145251
30
0
41
1
10
13.517849357763
20
9.35431657338978
30
0
41
1
10
13.5767970345725
20
9.37467777536565
30
0
41
1
10
13.6072473721288
20
9.39213979793411
30
0
41
1
10
13.6769143636602
20
9.44503542604383
30
0
41
1
10
13.7128266507651
20
9.4856938043188
30
0
41
1
10
13.8014637450836
20
9.61105923366804
30
0
41
1
10
13.842370839753
20
9.70465429390066
30
0
41
1
10
13.8809034737598
20
9.82244573862471
30
0
41
1
10
13.887897183797
20
9.84586944318028
30
0
41
1
10
13.8943375672975
20
9.86941261896618
30
0
0
SPLINE
5
101
100
AcDbEntity
8
1
62
256
6
ByLayer
370
18
48
1
60
0
100
AcDbSpline
70
4
71
3
72
16
73
12
40
0
40
0
40
0
40
0
40
0.463423600832262
40
0.463423600832262
40
0.646243952932856
40
0.646243952932856
40
0.831657283224518
40
0.831657283224518
40
0.94750434429086
40
0.94750434429086
40
1
40
1
40
1
40
1
41
1
10
10.1056624327025
20
-29.9139548464691
30
0
41
1
10
10.1343390747265
20
-29.9485407466772
30
0
41
1
10
10.1736499876091
20
-29.982269090612
30
0
41
1
10
10.2546180633468
20
-30.0239686896252
30
0
41
1
10
10.2809130191141
20
-30.0352936109065
30
0
41
1
10
10.3420137796675
20
-30.0555697561518
30
0
41
1
10
10.3777400094532
20
-30.0647246060481
30
0
41
1
10
10.4433516536449
20
-30.0751823136668
30
0
41
1
10
10.4710402024012
20
-30.0781795790239
30
0
41
1
10
10.5123223625249
20
-30.0802576981002
30
0
41
1
10
10.5255210031399
20
-30.080592760317
30
0
41
1
10
10.5386751345947
20
-30.080592760317
30
0
0
SPLINE
5
102
100
AcDbEntity
8
1
62
256
6
ByLayer
370
18
48
1
60
0
100
AcDbSpline
70
4
71
3
72
16
73
12
40
0
40
0
40
0
40
0
40
0.113316224833594
40
0.113316224833594
40
0.252990411571577
40
0.252990411571577
40
0.473309013928351
40
0.473309013928351
40
0.896716357718897
40
0.896716357718897
40
1
40
1
40
1
40
1
41
1
10
10.5386751345948
20
30.0805927603169
30
0
41
1
10
10.5105874404282
20
30.0805927603169
30
0
41
1
10
10.482150642237
20
30.0790101689566
30
0
41
1
10
10.4232029654275
20
30.0726712338969
30
0
41
1
10
10.3927526278712
20
30.0672275748685
30
0
41
1
10
10.3230856363398
20
30.0506647867052
30
0
41
1
10
10.2871733492349
20
30.0378702684275
30
0
41
1
10
10.1985362549164
20
29.9980833386354
30
0
41
1
10
10.157629160247
20
29.967975934908
30
0
41
1
10
10.1190965262402
20
29.9294196064672
30
0
41
1
10
10.1121028162031
20
29.9217223689309
30
0
41
1
10
10.1056624327026
20
29.9139548464691
30
0
0
SPLINE
5
103
100
AcDbEntity
8
1
62
256
6
ByLayer
370
18
48
1
60
0
100
AcDbSpline
70
4
71
3
72
16
73
12
40
0
40
0
40
0
40
0
40
0.113316224833593
40
0.113316224833593
40
0.252990411571579
40
0.252990411571579
40
0.473309013928354
40
0.473309013928354
40
0.896716357718913
40
0.896716357718913
40
1
40
1
40
1
40
1
41
1
10
10.5386751345948
20
-9.34922131452512
30
0
41
1
10
10.5105874404281
20
-9.34922131452512
30
0
41
1
10
10.482150642237
20
-9.35431657338984
30
0
41
1
10
10.4232029654275
20
-9.37467777536568
30
0
41
1
10
10.3927526278712
20
-9.39213979793416
30
0
41
1
10
10.3230856363398
20
-9.44503542604389
30
0
41
1
10
10.2871733492349
20
-9.48569380431883
30
0
41
1
10
10.1985362549164
20
-9.6110592336681
30
0
41
1
10
10.1576291602469
20
-9.70465429390072
30
0
41
1
10
10.1190965262402
20
-9.82244573862479
30
0
41
1
10
10.112102816203
20
-9.84586944318033
30
0
41
1
10
10.1056624327025
20
-9.86941261896621
30
0
0
SPLINE
5
104
100
AcDbEntity
8
1
62
256
6
ByLayer
370
18
48
1
60
0
100
AcDbSpline
70
4
71
3
72
10
73
6
40
0
40
0
40
0
40
0
40
0.838746030362255
40
0.838746030362255
40
1
40
1
40
1
40
1
41
1
10
26.4540214865043
20
44.675
30
0
41
1
10
25.5047334917694
20
41.1313215468789
30
0
41
1
10
24.5554931336681
20
37.5876303310559
30
0
41
1
10
23.4238896923006
20
33.362607251304
30
0
41
1
10
23.2414185337199
20
32.68130433343
30
0
41
1
10
23.0589526607011
20
32
30
0
0
SPLINE
5
105
100
AcDbEntity
8
1
62
256
6
ByLayer
370
18
48
1
60
0
100
AcDbSpline
70
4
71
3
72
16
73
12
40
0
40
0
40
0
40
0
40
0.228361658625017
40
0.228361658625017
40
0.456292648141418
40
0.456292648141418
40
0.69079021263361
40
0.69079021263361
40
0.942333633101634
40
0.942333633101634
40
1
40
1
40
1
40
1
41
1
10
22.92079238
20
29.5033714288833
30
0
41
1
10
22.4953641023797
20
29.4817687405086
30
0
41
1
10
22.0750108433354
20
29.4334995049896
30
0
41
1
10
21.3148888748975
20
29.2883449671249
30
0
41
1
10
20.9647670154184
20
29.1894906728851
30
0
41
1
10
20.3651222942287
20
28.9459457973981
30
0
41
1
10
20.1109413863746
20
28.7968403078758
30
0
41
1
10
19.7152731083712
20
28.4523227508475
30
0
41
1
10
19.5779004822454
20
28.2500088413518
30
0
41
1
10
19.4946055432022
20
27.9865332011343
30
0
41
1
10
19.4825465189695
20
27.936194786653
30
0
41
1
10
19.4740635059842
20
27.885249705782
30
0
0
SPLINE
5
106
100
AcDbEntity
8
SK1
62
256
6
ByLayer
370
18
48
1
60
0
100
AcDbSpline
70
4
71
3
72
22
73
18
40
0
40
0
40
0
40
0
40
0.366862607601256
40
0.366862607601256
40
0.737339621375052
40
0.737339621375052
40
0.838459586400285
40
0.838459586400285
40
0.872990642836393
40
0.872990642836393
40
0.908114554314301
40
0.908114554314301
40
0.93841147631739
40
0.93841147631739
40
0.978567405872927
40
0.978567405872927
40
1
40
1
40
1
40
1
41
1
10
-1.30710678118655
20
4.81101329740289
30
0
41
1
10
-1.26411319574365
20
5.05427021725674
30
0
41
1
10
-1.21291926611929
20
5.29463858107241
30
0
41
1
10
-1.07751639291709
20
5.76447191425098
30
0
41
1
10
-0.999993942630852
20
6.0024064332149
30
0
41
1
10
-0.818580317119483
20
6.26150782359156
30
0
41
1
10
-0.772786229091963
20
6.31609141287933
30
0
41
1
10
-0.693958175551415
20
6.37002132562083
30
0
41
1
10
-0.67174289599555
20
6.38213989760789
30
0
41
1
10
-0.624176343099663
20
6.39933264200099
30
0
41
1
10
-0.598041368844491
20
6.40433410743103
30
0
41
1
10
-0.550095873812666
20
6.4042038836908
30
0
41
1
10
-0.52764508925199
20
6.40038614973912
30
0
41
1
10
-0.479150674129698
20
6.38487542657816
30
0
41
1
10
-0.453444961156862
20
6.37100758594852
30
0
41
1
10
-0.417985764291785
20
6.34622757774426
30
0
41
1
10
-0.406197231050157
20
6.33682378409867
30
0
41
1
10
-0.394976888874737
20
6.32694309068151
30
0
0
SPLINE
5
107
100
AcDbEntity
8
SK1
62
256
6
ByLayer
370
18
48
1
60
0
100
AcDbSpline
70
4
71
3
72
22
73
18
40
0
40
0
40
0
40
0
40
0.025518692999354
40
0.025518692999354
40
0.0515625307794633
40
0.0515625307794633
40
0.0689220502117165
40
0.0689220502117165
40
0.0862030429090035
40
0.0862030429090035
40
0.113761926258803
40
0.113761926258803
40
0.167639902693809
40
0.167639902693809
40
0.357269752158031
40
0.357269752158031
40
1
40
1
40
1
40
1
41
1
10
-0.394976888875277
20
6.326943090669
30
0
41
1
10
-0.389699799773268
20
6.32229605774103
30
0
41
1
10
-0.383945540291052
20
6.31808234313019
30
0
41
1
10
-0.371336208800898
20
6.31155719556298
30
0
41
1
10
-0.364237316839024
20
6.30923328231674
30
0
41
1
10
-0.35209572007625
20
6.30844589498398
30
0
41
1
10
-0.347038791108759
20
6.3089739150856
30
0
41
1
10
-0.337436838154133
20
6.31166640764118
30
0
41
1
10
-0.332782752688161
20
6.31383711710231
30
0
41
1
10
-0.321723955926899
20
6.32078578121266
30
0
41
1
10
-0.315689795621637
20
6.32640446307903
30
0
41
1
10
-0.300083216036057
20
6.3442802085479
30
0
41
1
10
-0.292057158925616
20
6.35806878925098
30
0
41
1
10
-0.261294067338724
20
6.42092251611513
30
0
41
1
10
-0.248999237994838
20
6.47445017323312
30
0
41
1
10
-0.204624309665832
20
6.70435570668306
30
0
41
1
10
-0.200000000000955
20
6.88379158154922
30
0
41
1
10
-0.200000000000955
20
7.05951756777668
30
0
0
SPLINE
5
108
100
AcDbEntity
8
SK1
62
256
6
ByLayer
370
18
48
1
60
0
100
AcDbSpline
70
4
71
3
72
299
73
295
40
0
40
0
40
0
40
0
40
0.003294851839843
40
0.006817578878264
40
0.010340305916685
40
0.013863032955106
40
0.0173857599935269
40
0.0209084870319479
40
0.0244312140703689
40
0.0279539411087898
40
0.0349993951856318
40
0.0420448492624737
40
0.0490903033393157
40
0.0526130303777366
40
0.0561357574161576
40
0.0596584844545786
40
0.0631812114929996
40
0.0702266655698415
40
0.0737493926082625
40
0.0772721196466834
40
0.0807948466851044
40
0.0843175737235254
40
0.0878403007619463
40
0.0913630278003673
40
0.0984084818772093
40
0.10193120891563
40
0.105453935954051
40
0.108976662992472
40
0.112499390030893
40
0.116022117069314
40
0.119544844107735
40
0.123067571146156
40
0.126590298184577
40
0.130113025222998
40
0.133635752261419
40
0.13715847929984
40
0.140681206338261
40
0.144203933376682
40
0.147726660415103
40
0.154772114491945
40
0.158294841530366
40
0.161817568568787
40
0.163578932087997
40
0.165340295607208
40
0.168863022645629
40
0.175908476722471
40
0.179431203760892
40
0.182953930799313
40
0.186476657837734
40
0.189999384876155
40
0.197044838952996
40
0.200567565991418
40
0.204090293029838
40
0.205851656549049
40
0.207613020068259
40
0.21113574710668
40
0.218181201183522
40
0.221703928221943
40
0.225226655260364
40
0.228749382298785
40
0.232272109337206
40
0.239317563414048
40
0.242840290452469
40
0.24636301749089
40
0.248124381010101
40
0.249885744529311
40
0.253408471567732
40
0.256931198606153
40
0.260453925644574
40
0.262215289163784
40
0.263976652682995
40
0.267499379721416
40
0.271022106759837
40
0.274544833798258
40
0.278067560836679
40
0.2815902878751
40
0.285113014913521
40
0.288635741951942
40
0.292158468990363
40
0.295681196028784
40
0.299203923067205
40
0.302726650105626
40
0.306249377144047
40
0.309772104182467
40
0.313294831220889
40
0.31681755825931
40
0.323863012336151
40
0.327385739374572
40
0.330908466412993
40
0.334431193451414
40
0.337953920489835
40
0.341476647528256
40
0.344999374566677
40
0.348522101605098
40
0.352044828643519
40
0.359090282720361
40
0.366135736797203
40
0.373181190874045
40
0.376703917912466
40
0.380226644950887
40
0.383749371989308
40
0.387272099027729
40
0.39079482606615
40
0.394317553104571
40
0.397840280142992
40
0.401363007181413
40
0.404885734219834
40
0.408408461258255
40
0.411931188296676
40
0.415453915335097
40
0.418976642373518
40
0.422499369411939
40
0.42602209645036
40
0.429544823488781
40
0.433067550527202
40
0.434828914046412
40
0.436590277565623
40
0.438351641084833
40
0.440113004604044
40
0.443635731642464
40
0.447158458680886
40
0.448919822200096
40
0.450681185719306
40
0.452442549238517
40
0.454203912757727
40
0.457726639796148
40
0.459488003315359
40
0.461249366834569
40
0.46301073035378
40
0.46477209387299
40
0.466533457392201
40
0.468294820911411
40
0.470056184430622
40
0.471817547949832
40
0.473578911469043
40
0.475340274988253
40
0.477101638507464
40
0.478863002026674
40
0.480624365545885
40
0.482385729065095
40
0.484147092584306
40
0.485908456103516
40
0.487669819622727
40
0.489431183141937
40
0.491192546661148
40
0.492953910180358
40
0.494715273699569
40
0.496476637218779
40
0.49823800073799
40
0.4999993642572
40
0.50176072777641
40
0.503522091295621
40
0.505283454814832
40
0.507044818334042
40
0.508806181853252
40
0.510567545372463
40
0.512328908891673
40
0.514090272410884
40
0.515851635930094
40
0.517612999449305
40
0.519374362968515
40
0.521135726487726
40
0.522897090006936
40
0.524658453526147
40
0.526419817045357
40
0.528181180564568
40
0.529942544083778
40
0.531703907602989
40
0.533465271122199
40
0.53522663464141
40
0.53698799816062
40
0.538749361679831
40
0.540510725199041
40
0.542272088718252
40
0.545794815756673
40
0.547556179275883
40
0.549317542795094
40
0.551078906314304
40
0.552840269833515
40
0.556362996871936
40
0.559885723910357
40
0.561647087429567
40
0.563408450948777
40
0.565169814467988
40
0.566931177987199
40
0.570453905025619
40
0.57397663206404
40
0.577499359102461
40
0.581022086140882
40
0.584544813179303
40
0.588067540217724
40
0.591590267256145
40
0.595112994294566
40
0.598635721332987
40
0.602158448371408
40
0.605681175409829
40
0.60920390244825
40
0.612726629486671
40
0.616249356525092
40
0.619772083563513
40
0.623294810601934
40
0.626817537640355
40
0.633862991717197
40
0.640908445794039
40
0.647953899870881
40
0.651476626909302
40
0.654999353947723
40
0.658522080986144
40
0.662044808024565
40
0.665567535062986
40
0.669090262101407
40
0.672612989139828
40
0.676135716178249
40
0.683181170255091
40
0.686703897293512
40
0.690226624331932
40
0.693749351370353
40
0.697272078408774
40
0.700794805447195
40
0.704317532485616
40
0.707840259524037
40
0.711362986562458
40
0.714885713600879
40
0.7184084406393
40
0.721931167677721
40
0.725453894716142
40
0.732499348792984
40
0.736022075831405
40
0.739544802869826
40
0.746590256946668
40
0.750112983985089
40
0.75363571102351
40
0.757158438061931
40
0.760681165100352
40
0.767726619177194
40
0.771249346215615
40
0.774772073254036
40
0.778294800292457
40
0.781817527330878
40
0.78886298140772
40
0.792385708446141
40
0.795908435484562
40
0.799431162522983
40
0.802953889561404
40
0.809999343638246
40
0.813522070676666
40
0.817044797715087
40
0.820567524753508
40
0.824090251791929
40
0.831135705868771
40
0.834658432907192
40
0.838181159945613
40
0.841703886984034
40
0.845226614022455
40
0.852272068099297
40
0.855794795137718
40
0.859317522176139
40
0.86284024921456
40
0.866362976252981
40
0.869885703291402
40
0.873408430329823
40
0.876931157368244
40
0.880453884406665
40
0.883976611445086
40
0.887499338483507
40
0.891022065521928
40
0.894544792560349
40
0.89806751959877
40
0.901590246637191
40
0.908635700714033
40
0.912158427752454
40
0.915681154790875
40
0.919203881829296
40
0.922726608867717
40
0.926249335906138
40
0.929772062944559
40
0.9368175170214
40
0.940340244059821
40
0.943862971098242
40
0.947385698136663
40
0.950908425175084
40
0.957953879251926
40
0.961476606290347
40
0.964999333328768
40
0.968522060367189
40
0.97204478740561
40
0.975567514444031
40
0.979090241482452
40
0.982612968520873
40
0.986135695559294
40
0.989658422597715
40
0.993181149636136
40
0.996703876674557
40
1
40
1
40
1
40
1
41
1
10
-1.99503997793926
20
21.8251672802359
30
0
41
1
10
-1.99503997793926
20
21.8252770174267
30
0
41
1
10
-1.99503997793926
20
21.8245105117716
30
0
41
1
10
-1.99503997793926
20
21.8202836860757
30
0
41
1
10
-1.99503997793926
20
21.812783044142
30
0
41
1
10
-1.99503997793926
20
21.8021565364934
30
0
41
1
10
-1.99503997793926
20
21.7884557330328
30
0
41
1
10
-1.99503997793926
20
21.7717308612526
30
0
41
1
10
-1.99503997793926
20
21.7520291985819
30
0
41
1
10
-1.99503997793926
20
21.7218385059106
30
0
41
1
10
-1.99503997793926
20
21.6769140218914
30
0
41
1
10
-1.99503997793926
20
21.6117670092986
30
0
41
1
10
-1.99503997793926
20
21.5484022523455
30
0
41
1
10
-1.99503997793926
20
21.4923512863894
30
0
41
1
10
-1.99503997793926
20
21.4477036012609
30
0
41
1
10
-1.99503997793926
20
21.4004602751572
30
0
41
1
10
-1.99503997793926
20
21.3340243579833
30
0
41
1
10
-1.99503997793928
20
21.2626002065085
30
0
41
1
10
-1.99503997793928
20
21.1861355372814
30
0
41
1
10
-1.99503997793928
20
21.126355615456
30
0
41
1
10
-1.99503997793928
20
21.0641493981766
30
0
41
1
10
-1.99503997793928
20
20.9995415089612
30
0
41
1
10
-1.99503997793928
20
20.9325549476398
30
0
41
1
10
-1.99503997793928
20
20.8400664063016
30
0
41
1
10
-1.99503997793928
20
20.7430171949632
30
0
41
1
10
-1.99503997793928
20
20.6412830606924
30
0
41
1
10
-1.99503997793928
20
20.5627395849404
30
0
41
1
10
-1.99503997793928
20
20.4819464711493
30
0
41
1
10
-1.99503997793928
20
20.3989234016943
30
0
41
1
10
-1.99503997793928
20
20.3136873945745
30
0
41
1
10
-1.99503997793928
20
20.2262576082901
30
0
41
1
10
-1.99503997793928
20
20.136651569995
30
0
41
1
10
-1.99503997793928
20
20.0448848271876
30
0
41
1
10
-1.99503997793928
20
19.9509751576252
30
0
41
1
10
-1.99503997793928
20
19.8549383078336
30
0
41
1
10
-1.99503997793928
20
19.7567886026657
30
0
41
1
10
-1.99503997793928
20
19.6565424313982
30
0
41
1
10
-1.99503997793928
20
19.5542139601407
30
0
41
1
10
-1.99503997793928
20
19.4149698127943
30
0
41
1
10
-1.99503997793928
20
19.2717622924356
30
0
41
1
10
-1.99503997793928
20
19.1243520606764
30
0
41
1
10
-1.99503997793928
20
19.0305969699326
30
0
41
1
10
-1.99503997793928
20
18.9545457436666
30
0
41
1
10
-1.99503997793928
20
18.877828345234
30
0
41
1
10
-1.99503997793928
20
18.7418485706132
30
0
41
1
10
-1.99503997793928
20
18.5826225030747
30
0
41
1
10
-1.99503997793928
20
18.4193199892891
30
0
41
1
10
-1.99503997793928
20
18.2949375082747
30
0
41
1
10
-1.99503997793928
20
18.1686188381619
30
0
41
1
10
-1.99503997793928
20
17.9975681157064
30
0
41
1
10
-1.99503997793928
20
17.8228588844704
30
0
41
1
10
-1.99503997793928
20
17.6441795672679
30
0
41
1
10
-1.99503997793928
20
17.5309981410348
30
0
41
1
10
-1.99503997793928
20
17.4394590341185
30
0
41
1
10
-1.99503997793928
20
17.3472945498449
30
0
41
1
10
-1.99503997793928
20
17.1843913435575
30
0
41
1
10
-1.99503997793928
20
16.9946548235122
30
0
41
1
10
-1.99503997793928
20
16.8010333841432
30
0
41
1
10
-1.99503997793928
20
16.654027023888
30
0
41
1
10
-1.99503997793928
20
16.5051894370887
30
0
41
1
10
-1.99503997793928
20
16.3042392155796
30
0
41
1
10
-1.99503997793928
20
16.0998599858609
30
0
41
1
10
-1.99503997793928
20
15.8916662065006
30
0
41
1
10
-1.99503997793928
20
15.7601264684356
30
0
41
1
10
-1.99503997793928
20
15.6539352235828
30
0
41
1
10
-1.99503997793928
20
15.5471478788445
30
0
41
1
10
-1.99503997793928
20
15.4126292313156
30
0
41
1
10
-1.99503997793928
20
15.2493853238091
30
0
41
1
10
-1.99503997793928
20
15.1119089381336
30
0
41
1
10
-1.99503997793928
20
15.0009760777421
30
0
41
1
10
-1.99503997793928
20
14.8894548819647
30
0
41
1
10
-1.99503997793928
20
14.7490386600655
30
0
41
1
10
-1.99503997793928
20
14.5787357079371
30
0
41
1
10
-1.99503997793928
20
14.4066808882548
30
0
41
1
10
-1.99503997793928
20
14.2328806917249
30
0
41
1
10
-1.99503997793928
20
14.0573388809364
30
0
41
1
10
-1.99503997793928
20
13.8800596938692
30
0
41
1
10
-1.99503997793928
20
13.7010488098078
30
0
41
1
10
-1.99503997793928
20
13.5203096364964
30
0
41
1
10
-1.99503997793928
20
13.3378467409434
30
0
41
1
10
-1.99503997793928
20
13.1536651576331
30
0
41
1
10
-1.99503997793928
20
12.967767664355
30
0
41
1
10
-1.99503997793928
20
12.7801589185361
30
0
41
1
10
-1.99503997793928
20
12.5908431445087
30
0
41
1
10
-1.99503997793928
20
12.3998230002593
30
0
41
1
10
-1.99503997793928
20
12.1427688173785
30
0
41
1
10
-1.99503997793928
20
11.8826118718573
30
0
41
1
10
-1.99503997793928
20
11.6187779306707
30
0
41
1
10
-1.99503997793928
20
11.4192921752591
30
0
41
1
10
-1.99503997793928
20
11.2181233733031
30
0
41
1
10
-1.99503997793928
20
11.0152750188843
30
0
41
1
10
-1.99503997793928
20
10.8107494713072
30
0
41
1
10
-1.99503997793928
20
10.6045508021232
30
0
41
1
10
-1.99503997793928
20
10.3966814407573
30
0
41
1
10
-1.99503997793928
20
10.1171870033238
30
0
41
1
10
-1.99503997793928
20
9.76392166117952
30
0
41
1
10
-1.99503997793928
20
9.33322608836653
30
0
41
1
10
-1.99503997793928
20
8.96893242084855
30
0
41
1
10
-1.99503997793928
20
8.67397578579323
30
0
41
1
10
-1.99503997793928
20
8.45121977200662
30
0
41
1
10
-1.99503997793928
20
8.22682776167497
30
0
41
1
10
-1.99503997793928
20
8.00080467620245
30
0
41
1
10
-1.99503997793928
20
7.77315513008728
30
0
41
1
10
-1.99503997793928
20
7.54388372935193
30
0
41
1
10
-1.99503997793928
20
7.31299637479285
30
0
41
1
10
-1.99503997793928
20
7.08049945458953
30
0
41
1
10
-1.99503997793928
20
6.8463997482805
30
0
41
1
10
-1.99503997793928
20
6.61070495432838
30
0
41
1
10
-1.99503997793928
20
6.37342319970753
30
0
41
1
10
-1.99503997793928
20
6.13456384015993
30
0
41
1
10
-1.99503997793928
20
5.89413749968631
30
0
41
1
10
-1.99503997793928
20
5.65215638001948
30
0
41
1
10
-1.99503997793928
20
5.4086336510897
30
0
41
1
10
-1.99503997793928
20
5.16358499073451
30
0
41
1
10
-1.99503997793928
20
4.95821799704333
30
0
41
1
10
-1.99503997793928
20
4.79299516838267
30
0
41
1
10
-1.99503997793928
20
4.66878842905288
30
0
41
1
10
-1.99503997793928
20
4.5442150281373
30
0
41
1
10
-1.99503997793928
20
4.37752561794156
30
0
41
1
10
-1.99503997793928
20
4.16851547631595
30
0
41
1
10
-1.99503997793928
20
3.95832363498766
30
0
41
1
10
-1.99503997793928
20
3.78926935835412
30
0
41
1
10
-1.99503997793928
20
3.66223142121836
30
0
41
1
10
-1.99503997793928
20
3.53485872774326
30
0
41
1
10
-1.99503997793928
20
3.36446603264318
30
0
41
1
10
-1.99503997793928
20
3.19381064862623
30
0
41
1
10
-1.99503997793928
20
3.02213557666008
30
0
41
1
10
-1.99503997793928
20
2.8931784837302
30
0
41
1
10
-1.99503997793928
20
2.76392442628162
30
0
41
1
10
-1.99503997793928
20
2.63438251344519
30
0
41
1
10
-1.99503997793928
20
2.50455988721876
30
0
41
1
10
-1.99503997793928
20
2.37446636334928
30
0
41
1
10
-1.99503997793928
20
2.24411116870439
30
0
41
1
10
-1.99503997793928
20
2.11350398186613
30
0
41
1
10
-1.99503997793928
20
1.98265625862297
30
0
41
1
10
-1.99503997793928
20
1.85157817347522
30
0
41
1
10
-1.99503997793928
20
1.72028262405345
30
0
41
1
10
-1.99503997793928
20
1.58878098022359
30
0
41
1
10
-1.99503997793928
20
1.45708718468359
30
0
41
1
10
-1.99503997793928
20
1.32521409071333
30
0
41
1
10
-1.99503997793928
20
1.19317647053177
30
0
41
1
10
-1.99503997793928
20
1.06098852682439
30
0
41
1
10
-1.99503997793928
20
0.928665923975672
30
0
41
1
10
-1.99503997793928
20
0.796224037396229
30
0
41
1
10
-1.99503997793928
20
0.663679321648374
30
0
41
1
10
-1.99503997793928
20
0.531048033506266
30
0
41
1
10
-1.99503997793928
20
0.398347293868937
30
0
41
1
10
-1.99503997793928
20
0.265594055935196
30
0
41
1
10
-1.99503997793928
20
0.132805828560237
30
0
41
1
10
-1.99503997793928
20
-2.0604887E-09
30
0
41
1
10
-1.99503997793928
20
-0.132805835966792
30
0
41
1
10
-1.99503997793928
20
-0.265594069601519
30
0
41
1
10
-1.99503997793928
20
-0.398347307093388
30
0
41
1
10
-1.99503997793928
20
-0.531048037421954
30
0
41
1
10
-1.99503997793928
20
-0.663679323049081
30
0
41
1
10
-1.99503997793928
20
-0.796224050825089
30
0
41
1
10
-1.99503997793928
20
-0.92866594303203
30
0
41
1
10
-1.99503997793928
20
-1.06098853158755
30
0
41
1
10
-1.99503997793928
20
-1.1931764657121
30
0
41
1
10
-1.99503997793928
20
-1.32521410103647
30
0
41
1
10
-1.99503997793928
20
-1.45708720896539
30
0
41
1
10
-1.99503997793928
20
-1.58878099035152
30
0
41
1
10
-1.99503997793928
20
-1.72028261530932
30
0
41
1
10
-1.99503997793928
20
-1.85157817419835
30
0
41
1
10
-1.99503997793928
20
-1.98265628188179
30
0
41
1
10
-1.99503997793928
20
-2.11350400419804
30
0
41
1
10
-1.99503997793928
20
-2.24411116714702
30
0
41
1
10
-1.99503997793928
20
-2.37446635053539
30
0
41
1
10
-1.99503997793928
20
-2.50455989433328
30
0
41
1
10
-1.99503997793928
20
-2.63438254221708
30
0
41
1
10
-1.99503997793928
20
-2.76392444618182
30
0
41
1
10
-1.99503997793928
20
-2.89317847799558
30
0
41
1
10
-1.99503997793928
20
-3.02213556164864
30
0
41
1
10
-1.99503997793931
20
-3.19381066067948
30
0
41
1
10
-1.99503997793931
20
-3.36446606295527
30
0
41
1
10
-1.99503997793931
20
-3.53485872835634
30
0
41
1
10
-1.99503997793931
20
-3.66223140396673
30
0
41
1
10
-1.99503997793931
20
-3.78926935085312
30
0
41
1
10
-1.99503997793931
20
-3.95832365779984
30
0
41
1
10
-1.99503997793931
20
-4.16851549788919
30
0
41
1
10
-1.99503997793931
20
-4.37752560184694
30
0
41
1
10
-1.99503997793931
20
-4.54421502107886
30
0
41
1
10
-1.99503997793931
20
-4.66878844332788
30
0
41
1
10
-1.99503997793931
20
-4.79299519854527
30
0
41
1
10
-1.99503997793931
20
-4.95821801342223
30
0
41
1
10
-1.99503997793931
20
-5.1635849772014
30
0
41
1
10
-1.99503997793931
20
-5.40863364784667
30
0
41
1
10
-1.99503997793931
20
-5.65215640891225
30
0
41
1
10
-1.99503997793931
20
-5.89413750153935
30
0
41
1
10
-1.99503997793931
20
-6.13456381441384
30
0
41
1
10
-1.99503997793931
20
-6.37342317953835
30
0
41
1
10
-1.99503997793931
20
-6.61070492919379
30
0
41
1
10
-1.99503997793931
20
-6.84639976314463
30
0
41
1
10
-1.99503997793931
20
-7.08049963775395
30
0
41
1
10
-1.99503997793931
20
-7.31299670603016
30
0
41
1
10
-1.99503997793931
20
-7.54388383469134
30
0
41
1
10
-1.99503997793931
20
-7.77315487290267
30
0
41
1
10
-1.99503997793931
20
-8.00080468509063
30
0
41
1
10
-1.99503997793931
20
-8.22682785520686
30
0
41
1
10
-1.99503997793931
20
-8.4512197921853
30
0
41
1
10
-1.99503997793931
20
-8.67397577159846
30
0
41
1
10
-1.99503997793931
20
-8.96893239301764
30
0
41
1
10
-1.99503997793931
20
-9.33322609823665
30
0
41
1
10
-1.99503997793931
20
-9.76392165975841
30
0
41
1
10
-1.99503997793931
20
-10.1171869828061
30
0
41
1
10
-1.99503997793931
20
-10.3966814549587
30
0
41
1
10
-1.99503997793931
20
-10.6045508126063
30
0
41
1
10
-1.99503997793931
20
-10.8107494592904
30
0
41
1
10
-1.99503997793931
20
-11.0152749978462
30
0
41
1
10
-1.99503997793931
20
-11.2181233670389
30
0
41
1
10
-1.99503997793931
20
-11.4192921870092
30
0
41
1
10
-1.99503997793931
20
-11.6187779427602
30
0
41
1
10
-1.99503997793931
20
-11.8826118620781
30
0
41
1
10
-1.99503997793931
20
-12.1427687977971
30
0
41
1
10
-1.99503997793931
20
-12.3998230071702
30
0
41
1
10
-1.99503997793931
20
-12.5908431584255
30
0
41
1
10
-1.99503997793931
20
-12.7801589212449
30
0
41
1
10
-1.99503997793931
20
-12.9677676529032
30
0
41
1
10
-1.99503997793931
20
-13.1536651432542
30
0
41
1
10
-1.99503997793931
20
-13.3378467396349
30
0
41
1
10
-1.99503997793931
20
-13.520309646993
30
0
41
1
10
-1.99503997793931
20
-13.7010488212408
30
0
41
1
10
-1.99503997793931
20
-13.8800597145162
30
0
41
1
10
-1.99503997793931
20
-14.0573389921213
30
0
41
1
10
-1.99503997793931
20
-14.2328810143213
30
0
41
1
10
-1.99503997793931
20
-14.4646959102749
30
0
41
1
10
-1.99503997793931
20
-14.6927797943809
30
0
41
1
10
-1.99503997793931
20
-14.9175842595472
30
0
41
1
10
-1.99503997793931
20
-15.1400402265273
30
0
41
1
10
-1.99503997793931
20
-15.3587351142266
30
0
41
1
10
-1.99503997793931
20
-15.574095422854
30
0
41
1
10
-1.99503997793931
20
-15.733775855726
30
0
41
1
10
-1.99503997793931
20
-15.8916657661057
30
0
41
1
10
-1.99503997793931
20
-16.0998603532658
30
0
41
1
10
-1.99503997793931
20
-16.3042398246232
30
0
41
1
10
-1.99503997793931
20
-16.5051894037979
30
0
41
1
10
-1.99503997793931
20
-16.6540265683948
30
0
41
1
10
-1.99503997793931
20
-16.8010329188421
30
0
41
1
10
-1.99503997793931
20
-16.9946550481209
30
0
41
1
10
-1.99503997793931
20
-17.1843924611907
30
0
41
1
10
-1.99503997793931
20
-17.3705928023913
30
0
41
1
10
-1.99503997793931
20
-17.5083251903718
30
0
41
1
10
-1.99503997793931
20
-17.6441786252734
30
0
41
1
10
-1.99503997793931
20
-17.8228590748674
30
0
41
1
10
-1.99503997793931
20
-17.9975683374733
30
0
41
1
10
-1.99503997793931
20
-18.1686188521771
30
0
41
1
10
-1.99503997793931
20
-18.2949373683468
30
0
41
1
10
-1.99503997793931
20
-18.4193198181252
30
0
41
1
10
-1.99503997793931
20
-18.5826226298873
30
0
41
1
10
-1.99503997793931
20
-18.7418497326446
30
0
41
1
10
-1.99503997793931
20
-18.8972761707097
30
0
41
1
10
-1.99503997793931
20
-19.0118150097952
30
0
41
1
10
-1.99503997793931
20
-19.1243510467918
30
0
41
1
10
-1.99503997793931
20
-19.2717625055688
30
0
41
1
10
-1.99503997793931
20
-19.414970513124
30
0
41
1
10
-1.99503997793931
20
-19.5542140249085
30
0
41
1
10
-1.99503997793931
20
-19.6565420567613
30
0
41
1
10
-1.99503997793931
20
-19.7567881415466
30
0
41
1
10
-1.99503997793931
20
-19.8549381550126
30
0
41
1
10
-1.99503997793931
20
-19.9509751416388
30
0
41
1
10
-1.99503997793931
20
-20.0448848362118
30
0
41
1
10
-1.99503997793931
20
-20.1366515718167
30
0
41
1
10
-1.99503997793931
20
-20.2262576202058
30
0
41
1
10
-1.99503997793931
20
-20.3136874196731
30
0
41
1
10
-1.99503997793931
20
-20.3989234300879
30
0
41
1
10
-1.99503997793931
20
-20.4819464863244
30
0
41
1
10
-1.99503997793931
20
-20.5627395868944
30
0
41
1
10
-1.99503997793931
20
-20.6412830627252
30
0
41
1
10
-1.99503997793931
20
-20.7430172190697
30
0
41
1
10
-1.99503997793931
20
-20.8400664428987
30
0
41
1
10
-1.99503997793931
20
-20.9325549572362
30
0
41
1
10
-1.99503997793931
20
-20.9995415068112
30
0
41
1
10
-1.99503997793931
20
-21.064149408511
30
0
41
1
10
-1.99503997793931
20
-21.1263556466612
30
0
41
1
10
-1.99503997793931
20
-21.1861355753666
30
0
41
1
10
-1.99503997793931
20
-21.262600218376
30
0
41
1
10
-1.99503997793931
20
-21.3340243512753
30
0
41
1
10
-1.99503997793931
20
-21.4004603045828
30
0
41
1
10
-1.99503997793931
20
-21.4477036445725
30
0
41
1
10
-1.99503997793931
20
-21.4923513092323
30
0
41
1
10
-1.99503997793931
20
-21.5484022410126
30
0
41
1
10
-1.99503997793931
20
-21.5990695510926
30
0
41
1
10
-1.99503997793931
20
-21.6443396610233
30
0
41
1
10
-1.99503997793931
20
-21.6755105092645
30
0
41
1
10
-1.99503997793931
20
-21.7038764495607
30
0
41
1
10
-1.99503997793931
20
-21.7293964429163
30
0
41
1
10
-1.99503997793931
20
-21.7520292420694
30
0
41
1
10
-1.99503997793931
20
-21.7717309018817
30
0
41
1
10
-1.99503997793931
20
-21.7884557380592
30
0
41
1
10
-1.99503997793931
20
-21.8021565310044
30
0
41
1
10
-1.99503997793931
20
-21.8127830851058
30
0
41
1
10
-1.99503997793931
20
-21.8202838734724
30
0
41
1
10
-1.99503997793934
20
-21.8245113785087
30
0
41
1
10
-1.99503997793931
20
-21.8252773682635
30
0
41
1
10
-1.99503997793931
20
-21.8251670928048
30
0
0
SPLINE
5
109
100
AcDbEntity
8
SK1
62
256
6
ByLayer
370
18
48
1
60
0
100
AcDbSpline
70
4
71
3
72
26
73
22
40
0
40
0
40
0
40
0
40
0.462420532187944
40
0.462420532187944
40
0.662465761698283
40
0.662465761698283
40
0.830433309169693
40
0.830433309169693
40
0.87601894963741
40
0.87601894963741
40
0.905535493032455
40
0.905535493032455
40
0.92577818311669
40
0.92577818311669
40
0.946307111163799
40
0.946307111163799
40
0.963675313617857
40
0.963675313617857
40
0.991859972782862
40
0.991859972782862
40
1
40
1
40
1
40
1
41
1
10
-0.200000000000017
20
-7.05951749342083
30
0
41
1
10
-0.200000000000017
20
-6.93273416480454
30
0
41
1
10
-0.203968014086541
20
-6.80463429773329
30
0
41
1
10
-0.223222206303944
20
-6.62063667774228
30
0
41
1
10
-0.230822389897895
20
-6.56482953243432
30
0
41
1
10
-0.252035566714568
20
-6.46316921019911
30
0
41
1
10
-0.263798801619998
20
-6.41617607028249
30
0
41
1
10
-0.290531391619595
20
-6.36108887379029
30
0
41
1
10
-0.297103000772438
20
-6.34947181616241
30
0
41
1
10
-0.310313928765424
20
-6.33213067856883
30
0
41
1
10
-0.316208846631128
20
-6.32567949173321
30
0
41
1
10
-0.327595492701022
20
-6.31681373578161
30
0
41
1
10
-0.332739264568545
20
-6.31372817209197
30
0
41
1
10
-0.343644708736434
20
-6.30958040401461
30
0
41
1
10
-0.349575964479982
20
-6.30853210514005
30
0
41
1
10
-0.360183897281416
20
-6.30881607347521
30
0
41
1
10
-0.365032052617437
20
-6.30978620719449
30
0
41
1
10
-0.376922909163994
20
-6.31387292952667
30
0
41
1
10
-0.383695246431159
20
-6.3179475897727
30
0
41
1
10
-0.391564614808289
20
-6.32402624429125
30
0
41
1
10
-0.393293161608796
20
-6.32546009510432
30
0
41
1
10
-0.394976888875306
20
-6.32694279392757
30
0
0
SPLINE
5
10A
100
AcDbEntity
8
SK1
62
256
6
ByLayer
370
18
48
1
60
0
100
AcDbSpline
70
4
71
3
72
295
73
291
40
0
40
0
40
0
40
0
40
0.0029463034753248
40
0.0065222283567761
40
0.0100981532382274
40
0.0136740781196787
40
0.01725000300113
40
0.0208259278825814
40
0.027977777645484
40
0.0351296274083866
40
0.0422814771712893
40
0.0458574020527406
40
0.0494333269341919
40
0.0530092518156432
40
0.0565851766970945
40
0.0637370264599972
40
0.0673129513414485
40
0.0708888762228998
40
0.0744648011043511
40
0.0780407259858025
40
0.0816166508672538
40
0.0851925757487051
40
0.0923444255116077
40
0.0959203503930591
40
0.0994962752745104
40
0.103072200155962
40
0.106648125037413
40
0.110224049918864
40
0.113799974800316
40
0.117375899681767
40
0.120951824563218
40
0.12452774944467
40
0.128103674326121
40
0.131679599207572
40
0.135255524089024
40
0.138831448970475
40
0.142407373851926
40
0.149559223614829
40
0.15313514849628
40
0.156711073377731
40
0.158499035818457
40
0.160286998259183
40
0.163862923140634
40
0.171014772903537
40
0.174590697784988
40
0.178166622666439
40
0.181742547547891
40
0.185318472429342
40
0.192470322192245
40
0.196046247073696
40
0.199622171955147
40
0.201410134395873
40
0.203198096836599
40
0.20677402171805
40
0.213925871480953
40
0.217501796362404
40
0.221077721243855
40
0.224653646125307
40
0.228229571006758
40
0.235381420769661
40
0.238957345651112
40
0.242533270532563
40
0.244321232973289
40
0.246109195414014
40
0.249685120295466
40
0.253261045176917
40
0.256836970058368
40
0.258624932499094
40
0.26041289493982
40
0.263988819821271
40
0.267564744702722
40
0.271140669584174
40
0.274716594465625
40
0.278292519347076
40
0.281868444228528
40
0.285444369109979
40
0.28902029399143
40
0.292596218872882
40
0.296172143754333
40
0.299748068635784
40
0.303323993517236
40
0.306899918398687
40
0.310475843280138
40
0.314051768161589
40
0.321203617924492
40
0.324779542805944
40
0.328355467687395
40
0.331931392568846
40
0.335507317450297
40
0.339083242331749
40
0.3426591672132
40
0.346235092094651
40
0.349811016976103
40
0.356962866739005
40
0.364114716501908
40
0.371266566264811
40
0.374842491146262
40
0.378418416027713
40
0.381994340909165
40
0.385570265790616
40
0.389146190672067
40
0.392722115553519
40
0.39629804043497
40
0.399873965316421
40
0.403449890197873
40
0.407025815079324
40
0.410601739960775
40
0.414177664842227
40
0.417753589723678
40
0.421329514605129
40
0.42490543948658
40
0.428481364368032
40
0.432057289249483
40
0.433845251690209
40
0.435633214130934
40
0.43742117657166
40
0.439209139012386
40
0.442785063893837
40
0.446360988775288
40
0.448148951216014
40
0.44993691365674
40
0.451724876097465
40
0.453512838538191
40
0.457088763419642
40
0.458876725860368
40
0.460664688301094
40
0.462452650741819
40
0.464240613182545
40
0.466028575623271
40
0.467816538063996
40
0.469604500504722
40
0.471392462945448
40
0.473180425386173
40
0.474968387826899
40
0.476756350267625
40
0.47854431270835
40
0.480332275149076
40
0.482120237589802
40
0.483908200030527
40
0.485696162471253
40
0.487484124911979
40
0.489272087352704
40
0.49106004979343
40
0.492848012234156
40
0.494635974674881
40
0.496423937115607
40
0.498211899556332
40
0.499999861997058
40
0.501787824437784
40
0.50357578687851
40
0.505363749319235
40
0.507151711759961
40
0.508939674200686
40
0.510727636641412
40
0.512515599082138
40
0.514303561522863
40
0.516091523963589
40
0.517879486404315
40
0.51966744884504
40
0.521455411285766
40
0.523243373726492
40
0.525031336167217
40
0.526819298607943
40
0.528607261048669
40
0.530395223489394
40
0.53218318593012
40
0.533971148370846
40
0.535759110811571
40
0.537547073252297
40
0.539335035693023
40
0.541122998133748
40
0.542910960574474
40
0.546486885455925
40
0.548274847896651
40
0.550062810337377
40
0.551850772778102
40
0.553638735218828
40
0.557214660100279
40
0.560790584981731
40
0.562578547422456
40
0.564366509863182
40
0.566154472303908
40
0.567942434744633
40
0.571518359626085
40
0.575094284507536
40
0.578670209388987
40
0.582246134270439
40
0.58582205915189
40
0.589397984033341
40
0.592973908914793
40
0.596549833796244
40
0.600125758677695
40
0.603701683559146
40
0.607277608440598
40
0.610853533322049
40
0.6144294582035
40
0.618005383084952
40
0.621581307966403
40
0.625157232847854
40
0.628733157729306
40
0.635885007492208
40
0.643036857255111
40
0.650188707018014
40
0.653764631899465
40
0.657340556780916
40
0.660916481662368
40
0.664492406543819
40
0.66806833142527
40
0.671644256306722
40
0.675220181188173
40
0.678796106069624
40
0.685947955832527
40
0.689523880713978
40
0.69309980559543
40
0.696675730476881
40
0.700251655358332
40
0.703827580239783
40
0.707403505121235
40
0.710979430002686
40
0.714555354884137
40
0.718131279765589
40
0.72170720464704
40
0.725283129528491
40
0.728859054409943
40
0.736010904172845
40
0.739586829054297
40
0.743162753935748
40
0.750314603698651
40
0.753890528580102
40
0.757466453461553
40
0.761042378343004
40
0.764618303224456
40
0.771770152987358
40
0.77534607786881
40
0.778922002750261
40
0.782497927631712
40
0.786073852513164
40
0.793225702276066
40
0.796801627157518
40
0.800377552038969
40
0.80395347692042
40
0.807529401801872
40
0.814681251564774
40
0.818257176446226
40
0.821833101327677
40
0.825409026209128
40
0.82898495109058
40
0.836136800853482
40
0.839712725734934
40
0.843288650616385
40
0.846864575497836
40
0.850440500379287
40
0.85759235014219
40
0.861168275023641
40
0.864744199905093
40
0.868320124786544
40
0.871896049667995
40
0.875471974549447
40
0.879047899430898
40
0.882623824312349
40
0.886199749193801
40
0.889775674075252
40
0.893351598956703
40
0.896927523838155
40
0.900503448719606
40
0.904079373601057
40
0.907655298482509
40
0.914807148245411
40
0.918383073126863
40
0.921958998008314
40
0.925534922889765
40
0.929110847771216
40
0.932686772652668
40
0.936262697534119
40
0.943414547297022
40
0.946990472178473
40
0.950566397059924
40
0.954142321941376
40
0.957718246822827
40
0.96487009658573
40
0.968446021467181
40
0.972021946348632
40
0.975597871230084
40
0.979173796111535
40
0.982749720992986
40
0.986325645874438
40
0.989901570755889
40
0.99347749563734
40
0.997053420518792
40
1
40
1
40
1
40
1
41
1
10
-2.19999999999996
20
22.013519667857
30
0
41
1
10
-2.19999999999996
20
22.0117276027027
30
0
41
1
10
-2.19999999999996
20
22.0069596857892
30
0
41
1
10
-2.19999999999996
20
21.9968726461305
30
0
41
1
10
-2.19999999999996
20
21.9830583750197
30
0
41
1
10
-2.19999999999996
20
21.9661971621578
30
0
41
1
10
-2.19999999999996
20
21.9463373083127
30
0
41
1
10
-2.19999999999996
20
21.9159230944434
30
0
41
1
10
-2.19999999999996
20
21.870633664349
30
0
41
1
10
-2.19999999999996
20
21.8049949078793
30
0
41
1
10
-2.19999999999996
20
21.7411390111089
30
0
41
1
10
-2.19999999999996
20
21.6847072709128
30
0
41
1
10
-2.19999999999996
20
21.6397397481888
30
0
41
1
10
-2.19999999999996
20
21.5921615264853
30
0
41
1
10
-2.19999999999996
20
21.5252891523049
30
0
41
1
10
-2.19999999999996
20
21.453308753177
30
0
41
1
10
-2.19999999999996
20
21.3763547276269
30
0
41
1
10
-2.19999999999996
20
21.3161703964091
30
0
41
1
10
-2.19999999999996
20
21.2535469243879
30
0
41
1
10
-2.19999999999996
20
21.1885090229233
30
0
41
1
10
-2.19999999999996
20
21.121080083473
30
0
41
1
10
-2.19999999999996
20
21.0280237507364
30
0
41
1
10
-2.19999999999996
20
20.9302657445266
30
0
41
1
10
-2.19999999999996
20
20.8279188369072
30
0
41
1
10
-2.19999999999996
20
20.7488739070252
30
0
41
1
10
-2.19999999999996
20
20.6675681841826
30
0
41
1
10
-2.19999999999996
20
20.5840212184218
30
0
41
1
10
-2.19999999999996
20
20.4982502525025
30
0
41
1
10
-2.19999999999996
20
20.4102747128949
30
0
41
1
10
-2.19999999999996
20
20.3201119071544
30
0
41
1
10
-2.19999999999996
20
20.2277776663919
30
0
41
1
10
-2.19999999999996
20
20.1332899477274
30
0
41
1
10
-2.19999999999996
20
20.0366642357895
30
0
41
1
10
-2.19999999999996
20
19.9379151599299
30
0
41
1
10
-2.19999999999996
20
19.8370591957147
30
0
41
1
10
-2.19999999999996
20
19.7341102362335
30
0
41
1
10
-2.19999999999996
20
19.5940778412012
30
0
41
1
10
-2.19999999999996
20
19.4499005336558
30
0
41
1
10
-2.19999999999996
20
19.3016622310533
30
0
41
1
10
-2.19999999999996
20
19.2073184270571
30
0
41
1
10
-2.19999999999996
20
19.1308417758755
30
0
41
1
10
-2.19999999999996
20
19.0536957086557
30
0
41
1
10
-2.19999999999996
20
18.9169360704622
30
0
41
1
10
-2.19999999999996
20
18.756645794641
30
0
41
1
10
-2.19999999999996
20
18.5924362845557
30
0
41
1
10
-2.19999999999996
20
18.4673177976698
30
0
41
1
10
-2.19999999999996
20
18.3402521463352
30
0
41
1
10
-2.19999999999996
20
18.1682545122203
30
0
41
1
10
-2.19999999999999
20
17.9923842356821
30
0
41
1
10
-2.19999999999999
20
17.8127164551587
30
0
41
1
10
-2.19999999999999
20
17.6988333809735
30
0
41
1
10
-2.19999999999999
20
17.606787767091
30
0
41
1
10
-2.19999999999999
20
17.5141131161323
30
0
41
1
10
-2.19999999999999
20
17.3502824417036
30
0
41
1
10
-2.19999999999999
20
17.1592829447589
30
0
41
1
10
-2.19999999999999
20
16.9645867974536
30
0
41
1
10
-2.19999999999999
20
16.8167088060477
30
0
41
1
10
-2.19999999999999
20
16.6669871400996
30
0
41
1
10
-2.19999999999999
20
16.4649164953067
30
0
41
1
10
-2.19999999999999
20
16.2591646002876
30
0
41
1
10
-2.19999999999999
20
16.049802831716
30
0
41
1
10
-2.19999999999999
20
15.9174340084588
30
0
41
1
10
-2.19999999999999
20
15.8106442286412
30
0
41
1
10
-2.19999999999999
20
15.7032538676567
30
0
41
1
10
-2.19999999999999
20
15.567882396309
30
0
41
1
10
-2.19999999999999
20
15.4036502143979
30
0
41
1
10
-2.19999999999999
20
15.2652965264295
30
0
41
1
10
-2.19999999999999
20
15.1537302031574
30
0
41
1
10
-2.19999999999999
20
15.0415708470876
30
0
41
1
10
-2.19999999999999
20
14.90025131083
30
0
41
1
10
-2.19999999999999
20
14.7289012367181
30
0
41
1
10
-2.19999999999999
20
14.5557843226631
30
0
41
1
10
-2.19999999999999
20
14.3809062427341
30
0
41
1
10
-2.19999999999999
20
14.2042700822292
30
0
41
1
10
-2.19999999999999
20
14.0258803741545
30
0
41
1
10
-2.19999999999999
20
13.8457420253844
30
0
41
1
10
-2.19999999999999
20
13.6638579861817
30
0
41
1
10
-2.19999999999999
20
13.4802328481714
30
0
41
1
10
-2.19999999999999
20
13.2948705974071
30
0
41
1
10
-2.19999999999999
20
13.1077737485311
30
0
41
1
10
-2.19999999999999
20
12.9189467805057
30
0
41
1
10
-2.19999999999999
20
12.728392778749
30
0
41
1
10
-2.19999999999999
20
12.5361142588231
30
0
41
1
10
-2.19999999999999
20
12.2774598592137
30
0
41
1
10
-2.19999999999999
20
12.0153352592314
30
0
41
1
10
-2.19999999999999
20
11.7498207258852
30
0
41
1
10
-2.19999999999999
20
11.5489655826483
30
0
41
1
10
-2.19999999999999
20
11.3464032807099
30
0
41
1
10
-2.19999999999999
20
11.1421359853758
30
0
41
1
10
-2.19999999999999
20
10.9361655879759
30
0
41
1
10
-2.19999999999999
20
10.7284950970913
30
0
41
1
10
-2.19999999999999
20
10.5191258614377
30
0
41
1
10
-2.19999999999999
20
10.2377184130835
30
0
41
1
10
-2.19999999999999
20
9.88169304970987
30
0
41
1
10
-2.19999999999999
20
9.44771865839311
30
0
41
1
10
-2.19999999999999
20
9.08043848955603
30
0
41
1
10
-2.19999999999999
20
8.78327689677775
30
0
41
1
10
-2.19999999999999
20
8.55871419535617
30
0
41
1
10
-2.19999999999999
20
8.33247380011301
30
0
41
1
10
-2.19999999999999
20
8.10455852701506
30
0
41
1
10
-2.19999999999999
20
7.87497060194644
30
0
41
1
10
-2.19999999999999
20
7.6437128367312
30
0
41
1
10
-2.19999999999999
20
7.41078884464241
30
0
41
1
10
-2.19999999999999
20
7.17620220160032
30
0
41
1
10
-2.19999999999999
20
6.93995692090422
30
0
41
1
10
-2.19999999999999
20
6.70205758660663
30
0
41
1
10
-2.19999999999999
20
6.46250918569618
30
0
41
1
10
-2.19999999999999
20
6.2213178400012
30
0
41
1
10
-2.19999999999999
20
5.97849049576266
30
0
41
1
10
-2.19999999999999
20
5.73403521575827
30
0
41
1
10
-2.19999999999999
20
5.48796107357256
30
0
41
1
10
-2.19999999999999
20
5.24027911118978
30
0
41
1
10
-2.19999999999999
20
5.03253661023487
30
0
41
1
10
-2.19999999999999
20
4.86557359122421
30
0
41
1
10
-2.19999999999999
20
4.73994908127321
30
0
41
1
10
-2.19999999999999
20
4.61393371339017
30
0
41
1
10
-2.19999999999999
20
4.44540774959788
30
0
41
1
10
-2.19999999999999
20
4.23375652596863
30
0
41
1
10
-2.19999999999999
20
4.02083961713782
30
0
41
1
10
-2.19999999999999
20
3.84978439152417
30
0
41
1
10
-2.19999999999999
20
3.72111342731071
30
0
41
1
10
-2.19999999999999
20
3.59207749308624
30
0
41
1
10
-2.19999999999999
20
3.41956369464535
30
0
41
1
10
-2.19999999999999
20
3.24629481959221
30
0
41
1
10
-2.19999999999999
20
3.0723836150739
30
0
41
1
10
-2.19999999999999
20
2.94160046512801
30
0
41
1
10
-2.19999999999999
20
2.81048647644627
30
0
41
1
10
-2.19999999999999
20
2.67904892732182
30
0
41
1
10
-2.19999999999999
20
2.54729562722176
30
0
41
1
10
-2.19999999999999
20
2.41523551097489
30
0
41
1
10
-2.19999999999999
20
2.28287740252156
30
0
41
1
10
-2.19999999999999
20
2.15023166945255
30
0
41
1
10
-2.19999999999999
20
2.01730873413072
30
0
41
1
10
-2.19999999999999
20
1.88412021099791
30
0
41
1
10
-2.19999999999999
20
1.75067841854354
30
0
41
1
10
-2.19999999999999
20
1.61699634722072
30
0
41
1
10
-2.19999999999999
20
1.48308821885627
30
0
41
1
10
-2.19999999999999
20
1.34896859254377
30
0
41
1
10
-2.19999999999999
20
1.21465350310541
30
0
41
1
10
-2.19999999999999
20
1.08015921626893
30
0
41
1
10
-2.19999999999999
20
0.945503442662783
30
0
41
1
10
-2.19999999999999
20
0.810704113119101
30
0
41
1
10
-2.19999999999999
20
0.67578042191235
30
0
41
1
10
-2.19999999999999
20
0.540751787789617
30
0
41
1
10
-2.19999999999999
20
0.405638599098921
30
0
41
1
10
-2.19999999999999
20
0.270461428271432
30
0
41
1
10
-2.19999999999999
20
0.135241462279851
30
0
41
1
10
-2.19999999999999
20
-5.3654787E-09
30
0
41
1
10
-2.19999999999999
20
-0.135241472589996
30
0
41
1
10
-2.19999999999999
20
-0.270461437853925
30
0
41
1
10
-2.19999999999999
20
-0.405638608907879
30
0
41
1
10
-2.19999999999999
20
-0.540751798686529
30
0
41
1
10
-2.19999999999999
20
-0.675780432522146
30
0
41
1
10
-2.19999999999999
20
-0.810704122044939
30
0
41
1
10
-2.19999999999999
20
-0.945503451789534
30
0
41
1
10
-2.19999999999999
20
-1.08015922751395
30
0
41
1
10
-2.19999999999999
20
-1.21465351395383
30
0
41
1
10
-2.19999999999999
20
-1.34896860046499
30
0
41
1
10
-2.19999999999999
20
-1.48308822685564
30
0
41
1
10
-2.19999999999999
20
-1.61699635855226
30
0
41
1
10
-2.19999999999999
20
-1.75067843002711
30
0
41
1
10
-2.19999999999999
20
-1.88412021847037
30
0
41
1
10
-2.19999999999999
20
-2.01730874020455
30
0
41
1
10
-2.19999999999999
20
-2.15023167925045
30
0
41
1
10
-2.19999999999999
20
-2.28287741514001
30
0
41
1
10
-2.19999999999999
20
-2.41523552035437
30
0
41
1
10
-2.19999999999999
20
-2.54729563151926
30
0
41
1
10
-2.19999999999999
20
-2.67904893291683
30
0
41
1
10
-2.19999999999999
20
-2.81048648769612
30
0
41
1
10
-2.19999999999999
20
-2.94160047796311
30
0
41
1
10
-2.19999999999999
20
-3.072383622975
30
0
41
1
10
-2.19999999999999
20
-3.24629481975686
30
0
41
1
10
-2.19999999999999
20
-3.41956370437865
30
0
41
1
10
-2.19999999999999
20
-3.59207750684843
30
0
41
1
10
-2.19999999999999
20
-3.72111343644576
30
0
41
1
10
-2.19999999999999
20
-3.84978439330675
30
0
41
1
10
-2.19999999999999
20
-4.020839617489
30
0
41
1
10
-2.19999999999999
20
-4.23375654375474
30
0
41
1
10
-2.19999999999999
20
-4.44540775759583
30
0
41
1
10
-2.19999999999999
20
-4.61393371339872
30
0
41
1
10
-2.19999999999999
20
-4.73994907984499
30
0
41
1
10
-2.19999999999999
20
-4.86557359653659
30
0
41
1
10
-2.19999999999999
20
-5.03253662624778
30
0
41
1
10
-2.19999999999999
20
-5.24027911954084
30
0
41
1
10
-2.19999999999999
20
-5.48796106514416
30
0
41
1
10
-2.19999999999999
20
-5.73403522651989
30
0
41
1
10
-2.20000000000002
20
-5.97849051253721
30
0
41
1
10
-2.20000000000002
20
-6.22131783489101
30
0
41
1
10
-2.20000000000002
20
-6.46250917346813
30
0
41
1
10
-2.20000000000002
20
-6.70205756880284
30
0
41
1
10
-2.20000000000002
20
-6.93995689241021
30
0
41
1
10
-2.20000000000002
20
-7.17620223308296
30
0
41
1
10
-2.20000000000002
20
-7.41078904293681
30
0
41
1
10
-2.20000000000002
20
-7.64371312168015
30
0
41
1
10
-2.20000000000002
20
-7.87497052861912
30
0
41
1
10
-2.20000000000002
20
-8.10455846042146
30
0
41
1
10
-2.20000000000002
20
-8.33247384441506
30
0
41
1
10
-2.20000000000002
20
-8.55871423477029
30
0
41
1
10
-2.20000000000002
20
-8.78327691067395
30
0
41
1
10
-2.20000000000002
20
-9.08043846702645
30
0
41
1
10
-2.20000000000002
20
-9.44771866001565
30
0
41
1
10
-2.20000000000002
20
-9.88169305528194
30
0
41
1
10
-2.20000000000002
20
-10.2377183913447
30
0
41
1
10
-2.20000000000002
20
-10.5191258633122
30
0
41
1
10
-2.20000000000002
20
-10.7284951094206
30
0
41
1
10
-2.20000000000002
20
-10.9361655882296
30
0
41
1
10
-2.20000000000002
20
-11.1421359694817
30
0
41
1
10
-2.20000000000002
20
-11.3464032666245
30
0
41
1
10
-2.20000000000002
20
-11.5489655840494
30
0
41
1
10
-2.20000000000002
20
-11.7498207382014
30
0
41
1
10
-2.20000000000002
20
-12.015335258712
30
0
41
1
10
-2.20000000000002
20
-12.277459839655
30
0
41
1
10
-2.20000000000002
20
-12.5361142561418
30
0
41
1
10
-2.20000000000002
20
-12.7283927892775
30
0
41
1
10
-2.20000000000002
20
-12.9189467887917
30
0
41
1
10
-2.20000000000002
20
-13.1077737445537
30
0
41
1
10
-2.20000000000002
20
-13.2948705838035
30
0
41
1
10
-2.20000000000002
20
-13.4802328404438
30
0
41
1
10
-2.20000000000002
20
-13.6638579908945
30
0
41
1
10
-2.20000000000002
20
-13.845742035678
30
0
41
1
10
-2.20000000000002
20
-14.0258803815961
30
0
41
1
10
-2.20000000000002
20
-14.2042701267483
30
0
41
1
10
-2.20000000000002
20
-14.3809064511142
30
0
41
1
10
-2.20000000000002
20
-14.6140681792699
30
0
41
1
10
-2.20000000000002
20
-14.8437340716545
30
0
41
1
10
-2.20000000000002
20
-15.069828938707
30
0
41
1
10
-2.20000000000002
20
-15.2935559429894
30
0
41
1
10
-2.20000000000002
20
-15.513744330902
30
0
41
1
10
-2.20000000000002
20
-15.7303232767805
30
0
41
1
10
-2.20000000000002
20
-15.8909649274654
30
0
41
1
10
-2.20000000000002
20
-16.0498023362736
30
0
41
1
10
-2.20000000000002
20
-16.2591647559547
30
0
41
1
10
-2.20000000000002
20
-16.4649171124643
30
0
41
1
10
-2.20000000000002
20
-16.666987304737
30
0
41
1
10
-2.20000000000002
20
-16.8167085043733
30
0
41
1
10
-2.20000000000002
20
-16.9645862898264
30
0
41
1
10
-2.20000000000002
20
-17.1592828976246
30
0
41
1
10
-2.20000000000002
20
-17.3502835148979
30
0
41
1
10
-2.20000000000002
20
-17.5375147595292
30
0
41
1
10
-2.20000000000002
20
-17.676060438985
30
0
41
1
10
-2.20000000000002
20
-17.8127154575359
30
0
41
1
10
-2.20000000000002
20
-17.9923842415008
30
0
41
1
10
-2.20000000000002
20
-18.1682547291306
30
0
41
1
10
-2.20000000000002
20
-18.3402522143585
30
0
41
1
10
-2.20000000000002
20
-18.4673177032106
30
0
41
1
10
-2.20000000000002
20
-18.5924361073221
30
0
41
1
10
-2.20000000000002
20
-18.7566457425986
30
0
41
1
10
-2.20000000000002
20
-18.9169371900015
30
0
41
1
10
-2.20000000000002
20
-19.0732305996174
30
0
41
1
10
-2.20000000000002
20
-19.1884526890887
30
0
41
1
10
-2.20000000000002
20
-19.3016611759423
30
0
41
1
10
-2.20000000000002
20
-19.4499005391959
30
0
41
1
10
-2.20000000000002
20
-19.5940785255289
30
0
41
1
10
-2.20000000000002
20
-19.7341104289282
30
0
41
1
10
-2.20000000000002
20
-19.8370589164793
30
0
41
1
10
-2.20000000000002
20
-19.9379146863563
30
0
41
1
10
-2.20000000000002
20
-20.0366640227898
30
0
41
1
10
-2.20000000000002
20
-20.133289903145
30
0
41
1
10
-2.20000000000002
20
-20.2277776697998
30
0
41
1
10
-2.20000000000002
20
-20.3201119082527
30
0
41
1
10
-2.20000000000002
20
-20.4102747220553
30
0
41
1
10
-2.20000000000002
20
-20.4982502752195
30
0
41
1
10
-2.20000000000002
20
-20.5840212474559
30
0
41
1
10
-2.20000000000002
20
-20.6675682022903
30
0
41
1
10
-2.20000000000002
20
-20.7488739108727
30
0
41
1
10
-2.20000000000002
20
-20.82791883753
30
0
41
1
10
-2.20000000000002
20
-20.9302657657864
30
0
41
1
10
-2.20000000000002
20
-21.0280237880878
30
0
41
1
10
-2.20000000000002
20
-21.1210800961781
30
0
41
1
10
-2.20000000000002
20
-21.1885090211437
30
0
41
1
10
-2.20000000000002
20
-21.2535469320083
30
0
41
1
10
-2.20000000000002
20
-21.3161704250344
30
0
41
1
10
-2.20000000000002
20
-21.3763547664481
30
0
41
1
10
-2.20000000000002
20
-21.4533087676779
30
0
41
1
10
-2.20000000000002
20
-21.5252891448141
30
0
41
1
10
-2.20000000000002
20
-21.5921615531195
30
0
41
1
10
-2.20000000000002
20
-21.6397397916631
30
0
41
1
10
-2.20000000000002
20
-21.6847072964973
30
0
41
1
10
-2.20000000000002
20
-21.7411389990572
30
0
41
1
10
-2.20000000000002
20
-21.7922265879071
30
0
41
1
10
-2.20000000000002
20
-21.8378144981283
30
0
41
1
10
-2.20000000000002
20
-21.8692221254414
30
0
41
1
10
-2.20000000000002
20
-21.8978063777089
30
0
41
1
10
-2.20000000000002
20
-21.9235254752891
30
0
41
1
10
-2.20000000000002
20
-21.9463373508774
30
0
41
1
10
-2.20000000000002
20
-21.9661972037607
30
0
41
1
10
-2.20000000000002
20
-21.9830583809744
30
0
41
1
10
-2.20000000000002
20
-21.9968726399857
30
0
41
1
10
-2.20000000000002
20
-22.0069599972914
30
0
41
1
10
-2.19999999999999
20
-22.0117281256172
30
0
41
1
10
-2.20000000000002
20
-22.0135203326704
30
0
0
SPLINE
5
10B
100
AcDbEntity
8
SK1
62
256
6
ByLayer
370
18
48
1
60
0
100
AcDbSpline
70
4
71
3
72
303
73
299
40
0
40
0
40
0
40
0
40
0.0005133386153922
40
0.0040062550019833
40
0.0074991713885745
40
0.0109920877751656
40
0.0144850041617568
40
0.017977920548348
40
0.0214708369349391
40
0.0249637533215303
40
0.0284566697081215
40
0.0319495860947126
40
0.038935418867895
40
0.0459212516410773
40
0.0529070844142596
40
0.0564000008008508
40
0.059892917187442
40
0.0633858335740331
40
0.0668787499606242
40
0.0738645827338066
40
0.0773574991203978
40
0.080850415506989
40
0.0843433318935801
40
0.0878362482801713
40
0.0913291646667624
40
0.0948220810533535
40
0.101807913826536
40
0.105300830213127
40
0.108793746599718
40
0.112286662986309
40
0.1157795793729
40
0.119272495759492
40
0.122765412146083
40
0.126258328532674
40
0.129751244919265
40
0.133244161305856
40
0.136737077692448
40
0.140229994079039
40
0.14372291046563
40
0.147215826852221
40
0.150708743238812
40
0.157694576011994
40
0.161187492398586
40
0.164680408785177
40
0.166426866978472
40
0.168173325171768
40
0.171666241558359
40
0.178652074331542
40
0.182144990718133
40
0.185637907104724
40
0.189130823491315
40
0.192623739877906
40
0.199609572651089
40
0.20310248903768
40
0.206595405424271
40
0.208341863617566
40
0.210088321810862
40
0.213581238197453
40
0.220567070970635
40
0.224059987357227
40
0.227552903743818
40
0.231045820130409
40
0.234538736517
40
0.241524569290183
40
0.245017485676774
40
0.248510402063365
40
0.25025686025666
40
0.252003318449956
40
0.255496234836547
40
0.258989151223138
40
0.262482067609729
40
0.264228525803025
40
0.265974983996321
40
0.269467900382912
40
0.272960816769503
40
0.276453733156094
40
0.279946649542685
40
0.283439565929276
40
0.286932482315868
40
0.290425398702459
40
0.29391831508905
40
0.297411231475641
40
0.300904147862232
40
0.304397064248823
40
0.307889980635415
40
0.311382897022006
40
0.314875813408597
40
0.318368729795188
40
0.32535456256837
40
0.328847478954962
40
0.332340395341553
40
0.335833311728144
40
0.339326228114735
40
0.342819144501326
40
0.346312060887917
40
0.349804977274508
40
0.3532978936611
40
0.360283726434282
40
0.367269559207464
40
0.374255391980647
40
0.377748308367238
40
0.381241224753829
40
0.38473414114042
40
0.388227057527011
40
0.391719973913603
40
0.395212890300194
40
0.398705806686785
40
0.402198723073376
40
0.405691639459967
40
0.409184555846558
40
0.412677472233149
40
0.416170388619741
40
0.419663305006332
40
0.423156221392923
40
0.426649137779514
40
0.430142054166105
40
0.433634970552697
40
0.435381428745992
40
0.437127886939288
40
0.438874345132583
40
0.440620803325879
40
0.44411371971247
40
0.447606636099061
40
0.449353094292357
40
0.451099552485652
40
0.452846010678948
40
0.454592468872244
40
0.458085385258835
40
0.45983184345213
40
0.461578301645426
40
0.463324759838721
40
0.465071218032017
40
0.466817676225313
40
0.468564134418608
40
0.470310592611904
40
0.472057050805199
40
0.473803508998495
40
0.47554996719179
40
0.477296425385086
40
0.479042883578382
40
0.480789341771677
40
0.482535799964973
40
0.484282258158268
40
0.486028716351564
40
0.48777517454486
40
0.489521632738155
40
0.491268090931451
40
0.493014549124746
40
0.494761007318042
40
0.496507465511337
40
0.498253923704633
40
0.500000381897929
40
0.501746840091224
40
0.50349329828452
40
0.505239756477815
40
0.506986214671111
40
0.508732672864406
40
0.510479131057702
40
0.512225589250998
40
0.513972047444293
40
0.515718505637589
40
0.517464963830884
40
0.51921142202418
40
0.520957880217476
40
0.522704338410771
40
0.524450796604067
40
0.526197254797362
40
0.527943712990658
40
0.529690171183954
40
0.531436629377249
40
0.533183087570545
40
0.53492954576384
40
0.536676003957136
40
0.538422462150431
40
0.540168920343727
40
0.541915378537022
40
0.545408294923614
40
0.547154753116909
40
0.548901211310205
40
0.550647669503501
40
0.552394127696796
40
0.555887044083387
40
0.559379960469979
40
0.561126418663274
40
0.56287287685657
40
0.564619335049865
40
0.566365793243161
40
0.569858709629752
40
0.573351626016343
40
0.576844542402934
40
0.580337458789526
40
0.583830375176117
40
0.587323291562708
40
0.590816207949299
40
0.59430912433589
40
0.597802040722481
40
0.601294957109073
40
0.604787873495664
40
0.608280789882255
40
0.611773706268846
40
0.615266622655437
40
0.618759539042028
40
0.62225245542862
40
0.625745371815211
40
0.632731204588393
40
0.639717037361575
40
0.646702870134758
40
0.650195786521349
40
0.65368870290794
40
0.657181619294531
40
0.660674535681122
40
0.664167452067713
40
0.667660368454305
40
0.671153284840896
40
0.674646201227487
40
0.681632034000669
40
0.68512495038726
40
0.688617866773852
40
0.692110783160443
40
0.695603699547034
40
0.699096615933625
40
0.702589532320216
40
0.706082448706807
40
0.709575365093399
40
0.71306828147999
40
0.716561197866581
40
0.720054114253172
40
0.723547030639763
40
0.730532863412946
40
0.734025779799537
40
0.737518696186128
40
0.74450452895931
40
0.747997445345901
40
0.751490361732493
40
0.754983278119084
40
0.758476194505675
40
0.765462027278857
40
0.768954943665448
40
0.77244786005204
40
0.775940776438631
40
0.779433692825222
40
0.786419525598404
40
0.789912441984995
40
0.793405358371587
40
0.796898274758178
40
0.800391191144769
40
0.807377023917951
40
0.810869940304542
40
0.814362856691134
40
0.817855773077725
40
0.821348689464316
40
0.828334522237498
40
0.831827438624089
40
0.83532035501068
40
0.838813271397272
40
0.842306187783863
40
0.849292020557045
40
0.852784936943636
40
0.856277853330227
40
0.859770769716819
40
0.86326368610341
40
0.866756602490001
40
0.870249518876592
40
0.873742435263183
40
0.877235351649774
40
0.880728268036366
40
0.884221184422957
40
0.887714100809548
40
0.891207017196139
40
0.89469993358273
40
0.898192849969321
40
0.905178682742504
40
0.908671599129095
40
0.912164515515686
40
0.915657431902277
40
0.919150348288868
40
0.92264326467546
40
0.926136181062051
40
0.933122013835233
40
0.936614930221824
40
0.940107846608415
40
0.943600762995007
40
0.947093679381598
40
0.95407951215478
40
0.957572428541371
40
0.961065344927962
40
0.964558261314553
40
0.968051177701145
40
0.971544094087736
40
0.975037010474327
40
0.978529926860918
40
0.982022843247509
40
0.985515759634101
40
0.989008676020692
40
0.992501592407283
40
0.995994508793874
40
0.999487425180465
40
1
40
1
40
1
40
1
41
1
10
-36.5
20
21.1555776127898
30
0
41
1
10
-36.5
20
21.1557858244691
30
0
41
1
10
-36.5
20
21.1573191520298
30
0
41
1
10
-36.5
20
21.1588544331657
30
0
41
1
10
-36.5
20
21.1578038223017
30
0
41
1
10
-36.5
20
21.1536126358382
30
0
41
1
10
-36.5
20
21.1463317213718
30
0
41
1
10
-36.5
20
21.1360112678938
30
0
41
1
10
-36.5
20
21.1226986497682
30
0
41
1
10
-36.5
20
21.1064402158535
30
0
41
1
10
-36.5
20
21.0872797426226
30
0
41
1
10
-36.5
20
21.0578537406019
30
0
41
1
10
-36.5
20
21.0141777773225
30
0
41
1
10
-36.5
20
20.950713074722
30
0
41
1
10
-36.5
20
20.8890285612071
30
0
41
1
10
-36.5
20
20.8342802658872
30
0
41
1
10
-36.5
20
20.7907267804185
30
0
41
1
10
-36.5
20
20.7446291690672
30
0
41
1
10
-36.5
20
20.6796864194098
30
0
41
1
10
-36.5
20
20.6101652524536
30
0
41
1
10
-36.5
20
20.5353747251342
30
0
41
1
10
-36.5
20
20.4769783324059
30
0
41
1
10
-36.5
20
20.4161995895793
30
0
41
1
10
-36.5
20
20.3530628196556
30
0
41
1
10
-36.5
20
20.2875896826626
30
0
41
1
10
-36.5
20
20.1970436182683
30
0
41
1
10
-36.5
20
20.1024192722933
30
0
41
1
10
-36.5
20
20.0027815031752
30
0
41
1
10
-36.5
20
19.9259535572618
30
0
41
1
10
-36.5
20
19.8469141355252
30
0
41
1
10
-36.5
20
19.7656833730651
30
0
41
1
10
-36.5
20
19.6822775189499
30
0
41
1
10
-36.5
20
19.5967148149263
30
0
41
1
10
-36.5
20
19.5090135394173
30
0
41
1
10
-36.5
20
19.4191882696518
30
0
41
1
10
-36.5
20
19.3272561697677
30
0
41
1
10
-36.5
20
19.2332338822714
30
0
41
1
10
-36.5
20
19.1371346902893
30
0
41
1
10
-36.5
20
19.0389746878944
30
0
41
1
10
-36.5
20
18.9387689752276
30
0
41
1
10
-36.5
20
18.802221510079
30
0
41
1
10
-36.5
20
18.6623317385554
30
0
41
1
10
-36.5
20
18.5177544284038
30
0
41
1
10
-36.5
20
18.4260133905722
30
0
41
1
10
-36.5
20
18.3514175898238
30
0
41
1
10
-36.5
20
18.2761667145512
30
0
41
1
10
-36.5
20
18.1428549391526
30
0
41
1
10
-36.5
20
17.9872696454241
30
0
41
1
10
-36.5
20
17.82707006593
30
0
41
1
10
-36.5
20
17.705205542109
30
0
41
1
10
-36.5
20
17.5814423770726
30
0
41
1
10
-36.5
20
17.4136311437529
30
0
41
1
10
-36.5
20
17.2428939764417
30
0
41
1
10
-36.5
20
17.0675963011876
30
0
41
1
10
-36.5
20
16.9568152899196
30
0
41
1
10
-36.5
20
16.8670089991511
30
0
41
1
10
-36.5
20
16.7765898513273
30
0
41
1
10
-36.5
20
16.6168596157573
30
0
41
1
10
-36.5
20
16.4314438788638
30
0
41
1
10
-36.5
20
16.2414991337766
30
0
41
1
10
-36.5
20
16.0974747197411
30
0
41
1
10
-36.5
20
15.9516616651348
30
0
41
1
10
-36.5
20
15.7545445351489
30
0
41
1
10
-36.5
20
15.5548613446891
30
0
41
1
10
-36.5
20
15.350663385132
30
0
41
1
10
-36.5
20
15.2219600388738
30
0
41
1
10
-36.5
20
15.1178164480939
30
0
41
1
10
-36.5
20
15.0130920883854
30
0
41
1
10
-36.5
20
14.8814910451208
30
0
41
1
10
-36.5
20
14.7216281332595
30
0
41
1
10
-36.5
20
14.5871530954062
30
0
41
1
10
-36.5
20
14.4783873813363
30
0
41
1
10
-36.5
20
14.3690494022437
30
0
41
1
10
-36.5
20
14.2317235183089
30
0
41
1
10
-36.5
20
14.0650028858776
30
0
41
1
10
-36.5
20
13.8965816080866
30
0
41
1
10
-36.5
20
13.7264689694465
30
0
41
1
10
-36.5
20
13.5546710496343
30
0
41
1
10
-36.5
20
13.3811910773122
30
0
41
1
10
-36.5
20
13.2060373742644
30
0
41
1
10
-36.5
20
13.0292149133303
30
0
41
1
10
-36.5
20
12.850728177302
30
0
41
1
10
-36.5
20
12.6705857874604
30
0
41
1
10
-36.5
20
12.4887914218501
30
0
41
1
10
-36.5
20
12.3053503484467
30
0
41
1
10
-36.5
20
12.1202706879329
30
0
41
1
10
-36.5
20
11.9335555855444
30
0
41
1
10
-36.5
20
11.6819759204349
30
0
41
1
10
-36.5
20
11.4285505376588
30
0
41
1
10
-36.5
20
11.1704660874499
30
0
41
1
10
-36.5
20
10.9756651586939
30
0
41
1
10
-36.5
20
10.7792636737398
30
0
41
1
10
-36.5
20
10.5812696725585
30
0
41
1
10
-36.5
20
10.3816871154457
30
0
41
1
10
-36.5
20
10.1805237104931
30
0
41
1
10
-36.5
20
9.97778558435033
30
0
41
1
10
-36.5
20
9.70483576808869
30
0
41
1
10
-36.5
20
9.3610127627216
30
0
41
1
10
-36.5
20
8.94153438933265
30
0
41
1
10
-36.5
20
8.58745787193692
30
0
41
1
10
-36.5
20
8.30004464023605
30
0
41
1
10
-36.5
20
8.08346950394395
30
0
41
1
10
-36.5
20
7.86540102208477
30
0
41
1
10
-36.5
20
7.64585131899617
30
0
41
1
10
-36.5
20
7.42483318088836
30
0
41
1
10
-36.5
20
7.20235735193424
30
0
41
1
10
-36.5
20
6.9784375587997
30
0
41
1
10
-36.5
20
6.75308981071328
30
0
41
1
10
-36.5
20
6.5263303508228
30
0
41
1
10
-36.5
20
6.29817753233081
30
0
41
1
10
-36.5
20
6.06865022444899
30
0
41
1
10
-36.5
20
5.83776884649421
30
0
41
1
10
-36.5
20
5.60555660448864
30
0
41
1
10
-36.5
20
5.37203985998684
30
0
41
1
10
-36.5
20
5.13724579696887
30
0
41
1
10
-36.5
20
4.90120595303739
30
0
41
1
10
-36.5
20
4.70396583147408
30
0
41
1
10
-36.5
20
4.54469638576833
30
0
41
1
10
-36.5
20
4.4253399959706
30
0
41
1
10
-36.5
20
4.30569972295407
30
0
41
1
10
-36.5
20
4.14529336499857
30
0
41
1
10
-36.5
20
3.94531865595212
30
0
41
1
10
-36.5
20
3.74444957084987
30
0
41
1
10
-36.5
20
3.58224076118
30
0
41
1
10
-36.5
20
3.46078958963514
30
0
41
1
10
-36.5
20
3.3391070260511
30
0
41
1
10
-36.5
20
3.17597085922347
30
0
41
1
10
-36.5
20
3.01425651604558
30
0
41
1
10
-36.5
20
2.8502314999601
30
0
41
1
10
-36.5
20
2.72752154931177
30
0
41
1
10
-36.5
20
2.60463052157445
30
0
41
1
10
-36.5
20
2.48157378937668
30
0
41
1
10
-36.5
20
2.35835621123042
30
0
41
1
10
-36.5
20
2.23499061660058
30
0
41
1
10
-36.5
20
2.11148761081353
30
0
41
1
10
-36.5
20
1.98785451527652
30
0
41
1
10
-36.5
20
1.864106321241
30
0
41
1
10
-36.5
20
1.7402482770083
30
0
41
1
10
-36.5
20
1.61629526151518
30
0
41
1
10
-36.5
20
1.49225310041962
30
0
41
1
10
-36.5
20
1.36813478148943
30
0
41
1
10
-36.5
20
1.24394732222783
30
0
41
1
10
-36.5
20
1.11970117534869
30
0
41
1
10
-36.5
20
0.995403485642839
30
0
41
1
10
-36.5
20
0.871062917068457
30
0
41
1
10
-36.5
20
0.746686102657748
30
0
41
1
10
-36.5
20
0.622280124115633
30
0
41
1
10
-36.5
20
0.497850420758425
30
0
41
1
10
-36.5
20
0.373402935182241
30
0
41
1
10
-36.5
20
0.248942238793205
30
0
41
1
10
-36.5
20
0.124473257200947
30
0
41
1
10
-36.5
20
9.2462642E-09
30
0
41
1
10
-36.5
20
-0.124473254673944
30
0
41
1
10
-36.5
20
-0.248942266430589
30
0
41
1
10
-36.5
20
-0.373402960091369
30
0
41
1
10
-36.5
20
-0.497850400790526
30
0
41
1
10
-36.5
20
-0.62228009401079
30
0
41
1
10
-36.5
20
-0.746686131491771
30
0
41
1
10
-36.5
20
-0.871062970095096
30
0
41
1
10
-36.5
20
-0.995403468230734
30
0
41
1
10
-36.5
20
-1.11970111692668
30
0
41
1
10
-36.5
20
-1.24394734076807
30
0
41
1
10
-36.5
20
-1.36813486147514
30
0
41
1
10
-36.5
20
-1.4922531064299
30
0
41
1
10
-36.5
20
-1.61629518356958
30
0
41
1
10
-36.5
20
-1.74024825464124
30
0
41
1
10
-36.5
20
-1.86410640329146
30
0
41
1
10
-36.5
20
-1.98785458048852
30
0
41
1
10
-36.5
20
-2.11148756075906
30
0
41
1
10
-36.5
20
-2.23499052786067
30
0
41
1
10
-36.5
20
-2.35835622798214
30
0
41
1
10
-36.5
20
-2.48157389743912
30
0
41
1
10
-36.5
20
-2.60463057106836
30
0
41
1
10
-36.5
20
-2.72752148004798
30
0
41
1
10
-36.5
20
-2.85023140656224
30
0
41
1
10
-36.5
20
-3.014256568771
30
0
41
1
10
-36.5
20
-3.17597095993779
30
0
41
1
10
-36.5
20
-3.33910698167952
30
0
41
1
10
-36.5
20
-3.46078948211158
30
0
41
1
10
-36.5
20
-3.5822407219186
30
0
41
1
10
-36.5
20
-3.74444967050343
30
0
41
1
10
-36.5
20
-3.94531869048146
30
0
41
1
10
-36.5
20
-4.14529326648045
30
0
41
1
10
-36.5
20
-4.30569969171856
30
0
41
1
10
-36.5
20
-4.42534006396789
30
0
41
1
10
-36.5
20
-4.54469650094603
30
0
41
1
10
-36.5
20
-4.703965849105
30
0
41
1
10
-36.5
20
-4.90120586463613
30
0
41
1
10
-36.5
20
-5.13724581146545
30
0
41
1
10
-36.5
20
-5.37203995090803
30
0
41
1
10
-36.5
20
-5.60555655529348
30
0
41
1
10
-36.5
20
-5.83776875015033
30
0
41
1
10
-36.5
20
-6.06865017711206
30
0
41
1
10
-36.5
20
-6.29817748211647
30
0
41
1
10
-36.5
20
-6.52633051401978
30
0
41
1
10
-36.5
20
-6.75309051279774
30
0
41
1
10
-36.5
20
-6.97843834484928
30
0
41
1
10
-36.5
20
-7.20235684280948
30
0
41
1
10
-36.5
20
-7.4248322947075
30
0
41
1
10
-36.5
20
-7.64585158611575
30
0
41
1
10
-36.5
20
-7.86540128403738
30
0
41
1
10
-36.5
20
-8.08346945831596
30
0
41
1
10
-36.5
20
-8.30004452993887
30
0
41
1
10
-36.5
20
-8.58745782596947
30
0
41
1
10
-36.5
20
-8.94153442741847
30
0
41
1
10
-36.5
20
-9.36101273737583
30
0
41
1
10
-36.5
20
-9.70483575174819
30
0
41
1
10
-36.5
20
-9.97778564072311
30
0
41
1
10
-36.5
20
-10.18052371466
30
0
41
1
10
-36.5
20
-10.3816870614504
30
0
41
1
10
-36.5
20
-10.5812696339218
30
0
41
1
10
-36.5
20
-10.7792636942327
30
0
41
1
10
-36.5
20
-10.9756652058485
30
0
41
1
10
-36.5
20
-11.1704660987635
30
0
41
1
10
-36.5
20
-11.4285504962004
30
0
41
1
10
-36.5
20
-11.6819759007756
30
0
41
1
10
-36.5
20
-11.9335556252714
30
0
41
1
10
-36.5
20
-12.1202707134412
30
0
41
1
10
-36.5
20
-12.3053503320751
30
0
41
1
10
-36.5
20
-12.4887913848281
30
0
41
1
10
-36.5
20
-12.6705857704288
30
0
41
1
10
-36.5
20
-12.8507281979538
30
0
41
1
10
-36.5
20
-13.0292149436136
30
0
41
1
10
-36.5
20
-13.2060373895954
30
0
41
1
10
-36.5
20
-13.381191143136
30
0
41
1
10
-36.5
20
-13.55467138889
30
0
41
1
10
-36.5
20
-13.7264696827893
30
0
41
1
10
-36.5
20
-13.9536769173599
30
0
41
1
10
-36.5
20
-14.1763485768089
30
0
41
1
10
-36.5
20
-14.3967384349213
30
0
41
1
10
-36.5
20
-14.6148460432234
30
0
41
1
10
-36.5
20
-14.8284315021106
30
0
41
1
10
-36.5
20
-15.0396227184095
30
0
41
1
10
-36.5
20
-15.1960147192182
30
0
41
1
10
-36.5
20
-15.3506631330603
30
0
41
1
10
-36.5
20
-15.5548624364722
30
0
41
1
10
-36.5
20
-15.7545451164335
30
0
41
1
10
-36.5
20
-15.9516609547094
30
0
41
1
10
-36.5
20
-16.0974737380165
30
0
41
1
10
-36.5
20
-16.2414988132779
30
0
41
1
10
-36.5
20
-16.4314450331351
30
0
41
1
10
-36.5
20
-16.6168608854212
30
0
41
1
10
-36.5
20
-16.7995343923805
30
0
41
1
10
-36.5
20
-16.9344844206003
30
0
41
1
10
-36.5
20
-17.0675955495037
30
0
41
1
10
-36.5
20
-17.2428947983013
30
0
41
1
10
-36.5
20
-17.4136313821347
30
0
41
1
10
-36.5
20
-17.5814422063201
30
0
41
1
10
-36.5
20
-17.7052052466276
30
0
41
1
10
-36.5
20
-17.8270699155309
30
0
41
1
10
-36.5
20
-17.9872703841193
30
0
41
1
10
-36.5
20
-18.1428562465543
30
0
41
1
10
-36.5
20
-18.2953166794047
30
0
41
1
10
-36.5
20
-18.4075180436267
30
0
41
1
10
-36.5
20
-18.5177535555591
30
0
41
1
10
-36.5
20
-18.6623326618875
30
0
41
1
10
-36.5
20
-18.8022222651529
30
0
41
1
10
-36.5
20
-18.9387686023436
30
0
41
1
10
-36.5
20
-19.0389739868785
30
0
41
1
10
-36.5
20
-19.1371342717784
30
0
41
1
10
-36.5
20
-19.2332339353276
30
0
41
1
10
-36.5
20
-19.3272562516113
30
0
41
1
10
-36.5
20
-19.4191882978898
30
0
41
1
10
-36.5
20
-19.5090135437132
30
0
41
1
10
-36.5
20
-19.5967148362678
30
0
41
1
10
-36.5
20
-19.6822775521962
30
0
41
1
10
-36.5
20
-19.7656833992675
30
0
41
1
10
-36.5
20
-19.8469141406672
30
0
41
1
10
-36.5
20
-19.925953552738
30
0
41
1
10
-36.5
20
-20.0027815100321
30
0
41
1
10
-36.5
20
-20.1024193061391
30
0
41
1
10
-36.5
20
-20.1970436522849
30
0
41
1
10
-36.5
20
-20.287589681624
30
0
41
1
10
-36.5
20
-20.353062816238
30
0
41
1
10
-36.5
20
-20.4161996091986
30
0
41
1
10
-36.5
20
-20.4769783724374
30
0
41
1
10
-36.5
20
-20.5353747607017
30
0
41
1
10
-36.5
20
-20.6101652553122
30
0
41
1
10
-36.5
20
-20.6796864153795
30
0
41
1
10
-36.5
20
-20.7446292080422
30
0
41
1
10
-36.5
20
-20.7907268231738
30
0
41
1
10
-36.5
20
-20.8342802793506
30
0
41
1
10
-36.5
20
-20.8890285523335
30
0
41
1
10
-36.5
20
-20.9382580424269
30
0
41
1
10
-36.5
20
-20.9824409225429
30
0
41
1
10
-36.5
20
-21.0128017234863
30
0
41
1
10
-36.5
20
-21.040420794471
30
0
41
1
10
-36.5
20
-21.0652596303332
30
0
41
1
10
-36.5
20
-21.0872797892674
30
0
41
1
10
-36.5
20
-21.1064402531507
30
0
41
1
10
-36.5
20
-21.122698651619
30
0
41
1
10
-36.5
20
-21.1360112646484
30
0
41
1
10
-36.5
20
-21.1463317710583
30
0
41
1
10
-36.5
20
-21.1536128319466
30
0
41
1
10
-36.5
20
-21.1578041644648
30
0
41
1
10
-36.5
20
-21.1588543296933
30
0
41
1
10
-36.5
20
-21.157318970281
30
0
41
1
10
-36.5
20
-21.1557860253321
30
0
41
1
10
-36.5
20
-21.1555781538741
30
0
0
SPLINE
5
10C
100
AcDbEntity
8
SK1
62
256
6
ByLayer
370
18
48
1
60
0
100
AcDbSpline
70
4
71
3
72
299
73
295
40
0
40
0
40
0
40
0
40
0.0029472964565577
40
0.006472368975307
40
0.0099974414940563
40
0.0135225140128056
40
0.0170475865315549
40
0.0205726590503042
40
0.0240977315690535
40
0.0276228040878028
40
0.0346729491253014
40
0.0417230941628
40
0.0487732392002986
40
0.0522983117190479
40
0.0558233842377972
40
0.0593484567565465
40
0.0628735292752958
40
0.0699236743127944
40
0.0734487468315437
40
0.0769738193502929
40
0.0804988918690422
40
0.0840239643877916
40
0.0875490369065409
40
0.0910741094252902
40
0.0981242544627887
40
0.101649326981538
40
0.105174399500287
40
0.108699472019037
40
0.112224544537786
40
0.115749617056535
40
0.119274689575285
40
0.122799762094034
40
0.126324834612783
40
0.129849907131532
40
0.133374979650282
40
0.136900052169031
40
0.14042512468778
40
0.14395019720653
40
0.147475269725279
40
0.154525414762778
40
0.158050487281527
40
0.161575559800276
40
0.163338096059651
40
0.165100632319025
40
0.168625704837775
40
0.175675849875273
40
0.179200922394023
40
0.182725994912772
40
0.186251067431521
40
0.189776139950271
40
0.196826284987769
40
0.200351357506519
40
0.203876430025268
40
0.205638966284642
40
0.207401502544017
40
0.210926575062766
40
0.217976720100265
40
0.221501792619014
40
0.225026865137764
40
0.228551937656513
40
0.232077010175262
40
0.239127155212761
40
0.24265222773151
40
0.246177300250259
40
0.247939836509634
40
0.249702372769009
40
0.253227445287758
40
0.256752517806507
40
0.260277590325256
40
0.262040126584631
40
0.263802662844006
40
0.267327735362755
40
0.270852807881505
40
0.274377880400254
40
0.277902952919003
40
0.281428025437752
40
0.284953097956502
40
0.288478170475251
40
0.292003242994
40
0.29552831551275
40
0.299053388031499
40
0.302578460550248
40
0.306103533068998
40
0.309628605587747
40
0.313153678106496
40
0.316678750625245
40
0.323728895662744
40
0.327253968181493
40
0.330779040700243
40
0.334304113218992
40
0.337829185737741
40
0.341354258256491
40
0.34487933077524
40
0.348404403293989
40
0.351929475812738
40
0.358979620850237
40
0.366029765887736
40
0.373079910925234
40
0.376604983443984
40
0.380130055962733
40
0.383655128481482
40
0.387180201000231
40
0.390705273518981
40
0.39423034603773
40
0.397755418556479
40
0.401280491075229
40
0.404805563593978
40
0.408330636112727
40
0.411855708631477
40
0.415380781150226
40
0.418905853668975
40
0.422430926187724
40
0.425955998706474
40
0.429481071225223
40
0.433006143743972
40
0.434768680003347
40
0.436531216262722
40
0.438293752522096
40
0.440056288781471
40
0.44358136130022
40
0.447106433818969
40
0.448868970078344
40
0.450631506337719
40
0.452394042597093
40
0.454156578856468
40
0.457681651375217
40
0.459444187634592
40
0.461206723893967
40
0.462969260153341
40
0.464731796412716
40
0.466494332672091
40
0.468256868931465
40
0.47001940519084
40
0.471781941450215
40
0.473544477709589
40
0.475307013968964
40
0.477069550228339
40
0.478832086487713
40
0.480594622747088
40
0.482357159006462
40
0.484119695265837
40
0.485882231525212
40
0.487644767784586
40
0.489407304043961
40
0.491169840303336
40
0.49293237656271
40
0.494694912822085
40
0.49645744908146
40
0.498219985340834
40
0.499982521600209
40
0.501745057859584
40
0.503507594118958
40
0.505270130378333
40
0.507032666637708
40
0.508795202897082
40
0.510557739156457
40
0.512320275415832
40
0.514082811675206
40
0.515845347934581
40
0.517607884193956
40
0.51937042045333
40
0.521132956712705
40
0.522895492972079
40
0.524658029231454
40
0.526420565490829
40
0.528183101750203
40
0.529945638009578
40
0.531708174268953
40
0.533470710528328
40
0.535233246787702
40
0.536995783047077
40
0.538758319306451
40
0.540520855565826
40
0.542283391825201
40
0.54580846434395
40
0.547571000603325
40
0.549333536862699
40
0.551096073122074
40
0.552858609381448
40
0.556383681900198
40
0.559908754418947
40
0.561671290678322
40
0.563433826937696
40
0.565196363197071
40
0.566958899456446
40
0.570483971975195
40
0.574009044493944
40
0.577534117012694
40
0.581059189531443
40
0.584584262050192
40
0.588109334568941
40
0.591634407087691
40
0.59515947960644
40
0.598684552125189
40
0.602209624643939
40
0.605734697162688
40
0.609259769681437
40
0.612784842200187
40
0.616309914718936
40
0.619834987237685
40
0.623360059756434
40
0.626885132275184
40
0.633935277312682
40
0.640985422350181
40
0.64803556738768
40
0.651560639906429
40
0.655085712425178
40
0.658610784943927
40
0.662135857462677
40
0.665660929981426
40
0.669186002500175
40
0.672711075018924
40
0.676236147537674
40
0.683286292575173
40
0.686811365093922
40
0.690336437612671
40
0.693861510131421
40
0.69738658265017
40
0.700911655168919
40
0.704436727687668
40
0.707961800206418
40
0.711486872725167
40
0.715011945243916
40
0.718537017762665
40
0.722062090281415
40
0.725587162800164
40
0.732637307837663
40
0.736162380356412
40
0.739687452875161
40
0.74673759791266
40
0.750262670431409
40
0.753787742950159
40
0.757312815468908
40
0.760837887987657
40
0.767888033025156
40
0.771413105543905
40
0.774938178062655
40
0.778463250581404
40
0.781988323100153
40
0.789038468137652
40
0.792563540656401
40
0.79608861317515
40
0.7996136856939
40
0.803138758212649
40
0.810188903250147
40
0.813713975768897
40
0.817239048287646
40
0.820764120806395
40
0.824289193325145
40
0.831339338362643
40
0.834864410881393
40
0.838389483400142
40
0.841914555918891
40
0.84543962843764
40
0.852489773475139
40
0.856014845993888
40
0.859539918512638
40
0.863064991031387
40
0.866590063550136
40
0.870115136068885
40
0.873640208587635
40
0.877165281106384
40
0.880690353625133
40
0.884215426143883
40
0.887740498662632
40
0.891265571181381
40
0.894790643700131
40
0.89831571621888
40
0.901840788737629
40
0.908890933775128
40
0.912416006293877
40
0.915941078812626
40
0.919466151331376
40
0.922991223850125
40
0.926516296368874
40
0.930041368887623
40
0.937091513925122
40
0.940616586443871
40
0.944141658962621
40
0.94766673148137
40
0.951191804000119
40
0.958241949037618
40
0.961767021556367
40
0.965292094075117
40
0.968817166593866
40
0.972342239112615
40
0.975867311631364
40
0.979392384150114
40
0.982917456668863
40
0.986442529187612
40
0.989967601706362
40
0.993492674225111
40
0.99701774674386
40
1
40
1
40
1
40
1
41
1
10
-38
20
20.2923486499587
30
0
41
1
10
-38
20
20.2923549530681
30
0
41
1
10
-38
20
20.2915868193275
30
0
41
1
10
-38
20
20.2877827415225
30
0
41
1
10
-38
20
20.2807871950942
30
0
41
1
10
-38
20
20.2708642252781
30
0
41
1
10
-38
20
20.2580557575389
30
0
41
1
10
-38
20
20.2424031034126
30
0
41
1
10
-38
20
20.2239454925534
30
0
41
1
10
-38
20
20.1955126220401
30
0
41
1
10
-38
20
20.1534581579691
30
0
41
1
10
-38
20
20.0921783324266
30
0
41
1
10
-38
20
20.0326760120609
30
0
41
1
10
-38
20
19.9796195423853
30
0
41
1
10
-38
20
19.9374871337363
30
0
41
1
10
-38
20
19.8928775037255
30
0
41
1
10
-38
20
19.8298739849263
30
0
41
1
10
-38
20
19.7628242930464
30
0
41
1
10
-38
20
19.6902080345968
30
0
41
1
10
-38
20
19.6336084813316
30
0
41
1
10
-38
20
19.5746836513967
30
0
41
1
10
-38
20
19.5134574775014
30
0
41
1
10
-38
20
19.4499498796239
30
0
41
1
10
-38
20
19.361926580552
30
0
41
1
10
-38
20
19.2704514952516
30
0
41
1
10
-38
20
19.1735363516592
30
0
41
1
10
-38
20
19.0989364266239
30
0
41
1
10
-38
20
19.0221745884207
30
0
41
1
10
-38
20
18.943271560119
30
0
41
1
10
-38
20
18.8622425921488
30
0
41
1
10
-38
20
18.7791047356356
30
0
41
1
10
-38
20
18.6938772447032
30
0
41
1
10
-38
20
18.6065734364563
30
0
41
1
10
-38
20
18.5172096781029
30
0
41
1
10
-38
20
18.4258037757915
30
0
41
1
10
-38
20
18.3323676597213
30
0
41
1
10
-38
20
18.2369170405731
30
0
41
1
10
-38
20
18.1394682315479
30
0
41
1
10
-38
20
18.0064230454641
30
0
41
1
10
-38
20
17.8708421547931
30
0
41
1
10
-38
20
17.7299440627733
30
0
41
1
10
-38
20
17.6408187485727
30
0
41
1
10
-38
20
17.5681131617785
30
0
41
1
10
-38
20
17.4947669133713
30
0
41
1
10
-38
20
17.3649201654158
30
0
41
1
10
-38
20
17.214063276801
30
0
41
1
10
-38
20
17.0578935907135
30
0
41
1
10
-38
20
16.939299229306
30
0
41
1
10
-38
20
16.8188549914818
30
0
41
1
10
-38
20
16.6552510003021
30
0
41
1
10
-38
20
16.4896724966031
30
0
41
1
10
-38
20
16.3187666825072
30
0
41
1
10
-38
20
16.211103177294
30
0
41
1
10
-38
20
16.1235473577608
30
0
41
1
10
-38
20
16.0353949417434
30
0
41
1
10
-38
20
15.8797855584286
30
0
41
1
10
-38
20
15.6999813794667
30
0
41
1
10
-38
20
15.5148116907139
30
0
41
1
10
-38
20
15.374660038484
30
0
41
1
10
-38
20
15.2327750536328
30
0
41
1
10
-38
20
15.0406360987563
30
0
41
1
10
-38
20
14.8470518249569
30
0
41
1
10
-38
20
14.6480433816337
30
0
41
1
10
-38
20
14.5230237603812
30
0
41
1
10
-38
20
14.4215395322791
30
0
41
1
10
-38
20
14.319494446119
30
0
41
1
10
-38
20
14.1916826014269
30
0
41
1
10
-38
20
14.0362107113462
30
0
41
1
10
-38
20
13.905633632864
30
0
41
1
10
-38
20
13.7996824703933
30
0
41
1
10
-38
20
13.6931799140641
30
0
41
1
10
-38
20
13.5598675642286
30
0
41
1
10
-38
20
13.3977994204325
30
0
41
1
10
-38
20
13.2340971553998
30
0
41
1
10
-38
20
13.0687736820566
30
0
41
1
10
-38
20
12.9018380893652
30
0
41
1
10
-38
20
12.733292295151
30
0
41
1
10
-38
20
12.5631480531083
30
0
41
1
10
-38
20
12.3914123687225
30
0
41
1
10
-38
20
12.2180896154105
30
0
41
1
10
-38
20
12.0431930727568
30
0
41
1
10
-38
20
11.8667275879998
30
0
41
1
10
-38
20
11.6886992220564
30
0
41
1
10
-38
20
11.5091211559414
30
0
41
1
10
-38
20
11.3279971676986
30
0
41
1
10
-38
20
11.0835274575534
30
0
41
1
10
-38
20
10.8388445996823
30
0
41
1
10
-38
20
10.5882272221233
30
0
41
1
10
-38
20
10.3995106478125
30
0
41
1
10
-38
20
10.2093006505112
30
0
41
1
10
-38
20
10.0176111741014
30
0
41
1
10
-38
20
9.82444825814406
30
0
41
1
10
-38
20
9.62982433363788
30
0
41
1
10
-38
20
9.43375032895258
30
0
41
1
10
-38
20
9.16930024978851
30
0
41
1
10
-38
20
8.83774034996799
30
0
41
1
10
-38
20
8.43283016067582
30
0
41
1
10
-38
20
8.092023027045
30
0
41
1
10
-38
20
7.81440668711986
30
0
41
1
10
-38
20
7.60585888080692
30
0
41
1
10
-38
20
7.39600299493057
30
0
41
1
10
-38
20
7.18486050853954
30
0
41
1
10
-38
20
6.97245482074305
30
0
41
1
10
-38
20
6.75880464755281
30
0
41
1
10
-38
20
6.54393387937552
30
0
41
1
10
-38
20
6.32787102064526
30
0
41
1
10
-38
20
6.11064460524284
30
0
41
1
10
-38
20
5.89228682406832
30
0
41
1
10
-38
20
5.67283049766704
30
0
41
1
10
-38
20
5.45231041402212
30
0
41
1
10
-38
20
5.23076611988373
30
0
41
1
10
-38
20
5.00824236668095
30
0
41
1
10
-38
20
4.78478453894911
30
0
41
1
10
-38
20
4.56044477194354
30
0
41
1
10
-38
20
4.37375931423296
30
0
41
1
10
-38
20
4.22222174308934
30
0
41
1
10
-38
20
4.10916467830543
30
0
41
1
10
-38
20
3.9959312375729
30
0
41
1
10
-38
20
3.84368490764805
30
0
41
1
10
-38
20
3.65544484289481
30
0
41
1
10
-38
20
3.46668355973634
30
0
41
1
10
-38
20
3.31336520651507
30
0
41
1
10
-38
20
3.19916977025287
30
0
41
1
10
-38
20
3.08487718492046
30
0
41
1
10
-38
20
2.93116533478545
30
0
41
1
10
-38
20
2.78106304592126
30
0
41
1
10
-38
20
2.626973435119
30
0
41
1
10
-38
20
2.51237687493435
30
0
41
1
10
-38
20
2.39774974487258
30
0
41
1
10
-38
20
2.28311555219409
30
0
41
1
10
-38
20
2.16847618976479
30
0
41
1
10
-38
20
2.05384840107456
30
0
41
1
10
-38
20
1.93924458170409
30
0
41
1
10
-38
20
1.82466899171229
30
0
41
1
10
-38
20
1.71014121398448
30
0
41
1
10
-38
20
1.59566009898884
30
0
41
1
10
-38
20
1.48124309885611
30
0
41
1
10
-38
20
1.36688883878048
30
0
41
1
10
-38
20
1.25260906632707
30
0
41
1
10
-38
20
1.13840321986407
30
0
41
1
10
-38
20
1.02427614220744
30
0
41
1
10
-38
20
0.91022581180394
30
0
41
1
10
-38
20
0.796251800904002
30
0
41
1
10
-38
20
0.682349388495652
30
0
41
1
10
-38
20
0.568513483413568
30
0
41
1
10
-38
20
0.454735475949008
30
0
41
1
10
-38
20
0.341006791030139
30
0
41
1
10
-38
20
0.227315919379578
30
0
41
1
10
-38
20
0.113651444289133
30
0
41
1
10
-38
20
2.39307383E-08
30
0
41
1
10
-38
20
-0.11365142886109
30
0
41
1
10
-38
20
-0.227315965161779
30
0
41
1
10
-38
20
-0.341006831114697
30
0
41
1
10
-38
20
-0.454735424962678
30
0
41
1
10
-38
20
-0.568513412391496
30
0
41
1
10
-38
20
-0.682349437337024
30
0
41
1
10
-38
20
-0.796251898049178
30
0
41
1
10
-38
20
-0.910225765592173
30
0
41
1
10
-38
20
-1.02427601417023
30
0
41
1
10
-38
20
-1.13840324907628
30
0
41
1
10
-38
20
-1.25260921865751
30
0
41
1
10
-38
20
-1.36688883944311
30
0
41
1
10
-38
20
-1.48124293103626
30
0
41
1
10
-38
20
-1.59566004663378
30
0
41
1
10
-38
20
-1.71014137238993
30
0
41
1
10
-38
20
-1.82466911261426
30
0
41
1
10
-38
20
-1.93924446866478
30
0
41
1
10
-38
20
-2.05384821372687
30
0
41
1
10
-38
20
-2.16847621903284
30
0
41
1
10
-38
20
-2.28311576323415
30
0
41
1
10
-38
20
-2.397749832801
30
0
41
1
10
-38
20
-2.51237672316302
30
0
41
1
10
-38
20
-2.62697323991796
30
0
41
1
10
-38
20
-2.78106315146926
30
0
41
1
10
-38
20
-2.9311655269338
30
0
41
1
10
-38
20
-3.08487708212579
30
0
41
1
10
-38
20
-3.19916954549001
30
0
41
1
10
-38
20
-3.31336512600544
30
0
41
1
10
-38
20
-3.46668375918674
30
0
41
1
10
-38
20
-3.65544489425082
30
0
41
1
10
-38
20
-3.84368470208369
30
0
41
1
10
-38
20
-3.99593117493788
30
0
41
1
10
-38
20
-4.1091648160739
30
0
41
1
10
-38
20
-4.22222196867935
30
0
41
1
10
-38
20
-4.37375933349
30
0
41
1
10
-38
20
-4.56044458630842
30
0
41
1
10
-38
20
-4.7847845764849
30
0
41
1
10
-38
20
-5.00824253816083
30
0
41
1
10
-38
20
-5.23076600439049
30
0
41
1
10
-38
20
-5.45231022599043
30
0
41
1
10
-38
20
-5.67283041504646
30
0
41
1
10
-38
20
-5.89228674128219
30
0
41
1
10
-38
20
-6.11064496108517
30
0
41
1
10
-38
20
-6.3278723966701
30
0
41
1
10
-38
20
-6.54393525610641
30
0
41
1
10
-38
20
-6.75880334040122
30
0
41
1
10
-38
20
-6.97245311766204
30
0
41
1
10
-38
20
-7.18486111103371
30
0
41
1
10
-38
20
-7.39600347561736
30
0
41
1
10
-38
20
-7.60585874971358
30
0
41
1
10
-38
20
-7.81440645201104
30
0
41
1
10
-38
20
-8.09202295752306
30
0
41
1
10
-38
20
-8.43283023540653
30
0
41
1
10
-38
20
-8.83774029355052
30
0
41
1
10
-38
20
-9.16930023887321
30
0
41
1
10
-38
20
-9.43375044009508
30
0
41
1
10
-38
20
-9.62982432960186
30
0
41
1
10
-38
20
-9.82444814962989
30
0
41
1
10
-38
20
-10.0176111126088
30
0
41
1
10
-38
20
-10.2093007057546
30
0
41
1
10
-38
20
-10.3995107409485
30
0
41
1
10
-38
20
-10.5882272324293
30
0
41
1
10
-38
20
-10.8388445170811
30
0
41
1
10
-38
20
-11.083527437793
30
0
41
1
10
-38
20
-11.3279972500449
30
0
41
1
10
-38
20
-11.5091211965041
30
0
41
1
10
-38
20
-11.6886991809046
30
0
41
1
10
-38
20
-11.8667275177687
30
0
41
1
10
-38
20
-12.0431930522803
30
0
41
1
10
-38
20
-12.218089664583
30
0
41
1
10
-38
20
-12.3914124247035
30
0
41
1
10
-38
20
-12.5631480735018
30
0
41
1
10
-38
20
-12.7332924196476
30
0
41
1
10
-38
20
-12.9018387248248
30
0
41
1
10
-38
20
-13.0687749028759
30
0
41
1
10
-38
20
-13.2899980003418
30
0
41
1
10
-38
20
-13.5056406071553
30
0
41
1
10
-38
20
-13.7202970548285
30
0
41
1
10
-38
20
-13.9327572918622
30
0
41
1
10
-38
20
-14.1397069500695
30
0
41
1
10
-38
20
-14.3454836148157
30
0
41
1
10
-38
20
-14.4976048095276
30
0
41
1
10
-38
20
-14.6480433741443
30
0
41
1
10
-38
20
-14.8470538575164
30
0
41
1
10
-38
20
-15.0406366439893
30
0
41
1
10
-38
20
-15.2327734637881
30
0
41
1
10
-38
20
-15.3746583733236
30
0
41
1
10
-38
20
-15.5148115582754
30
0
41
1
10
-38
20
-15.6999837411246
30
0
41
1
10
-38
20
-15.8797870255403
30
0
41
1
10
-38
20
-16.0578801048401
30
0
41
1
10
-38
20
-16.1892165814339
30
0
41
1
10
-38
20
-16.3187661779867
30
0
41
1
10
-38
20
-16.4896741385663
30
0
41
1
10
-38
20
-16.6552512602625
30
0
41
1
10
-38
20
-16.8188545807649
30
0
41
1
10
-38
20
-16.9392987318018
30
0
41
1
10
-38
20
-17.0578934672826
30
0
41
1
10
-38
20
-17.2140648101705
30
0
41
1
10
-38
20
-17.3649216616153
30
0
41
1
10
-38
20
-17.5135300358219
30
0
41
1
10
-38
20
-17.6226956365842
30
0
41
1
10
-38
20
-17.7299433731025
30
0
41
1
10
-38
20
-17.8708440004862
30
0
41
1
10
-38
20
-18.0064238716364
30
0
41
1
10
-38
20
-18.1394672902698
30
0
41
1
10
-38
20
-18.2369159156769
30
0
41
1
10
-38
20
-18.3323672965473
30
0
41
1
10
-38
20
-18.4258040962281
30
0
41
1
10
-38
20
-18.5172098870019
30
0
41
1
10
-38
20
-18.6065734896479
30
0
41
1
10
-38
20
-18.6938772522127
30
0
41
1
10
-38
20
-18.7791047692188
30
0
41
1
10
-38
20
-18.8622426359768
30
0
41
1
10
-38
20
-18.9432715834755
30
0
41
1
10
-38
20
-19.0221745805324
30
0
41
1
10
-38
20
-19.0989364136873
30
0
41
1
10
-38
20
-19.1735363647813
30
0
41
1
10
-38
20
-19.270451541746
30
0
41
1
10
-38
20
-19.3619266112172
30
0
41
1
10
-38
20
-19.4499498647731
30
0
41
1
10
-38
20
-19.5134574724376
30
0
41
1
10
-38
20
-19.5746836830747
30
0
41
1
10
-38
20
-19.6336085328262
30
0
41
1
10
-38
20
-19.6902080668945
30
0
41
1
10
-38
20
-19.7628242842049
30
0
41
1
10
-38
20
-19.8298739843739
30
0
41
1
10
-38
20
-19.8928775551026
30
0
41
1
10
-38
20
-19.9374871757691
30
0
41
1
10
-38
20
-19.9796195436673
30
0
41
1
10
-38
20
-20.0326760063812
30
0
41
1
10
-38
20
-20.0800381474625
30
0
41
1
10
-38
20
-20.1228090027496
30
0
41
1
10
-38
20
-20.1521177658612
30
0
41
1
10
-38
20
-20.1787668505584
30
0
41
1
10
-38
20
-20.2027210424565
30
0
41
1
10
-38
20
-20.2239455432986
30
0
41
1
10
-38
20
-20.2424031363825
30
0
41
1
10
-38
20
-20.2580557552654
30
0
41
1
10
-38
20
-20.2708642249463
30
0
41
1
10
-38
20
-20.2807872561094
30
0
41
1
10
-38
20
-20.2877829489451
30
0
41
1
10
-38
20
-20.291600445561
30
0
41
1
10
-38
20
-20.2923632870387
30
0
41
1
10
-38
20
-20.292348252904
30
0
0
SPLINE
5
10D
100
AcDbEntity
8
SK1
62
256
6
ByLayer
370
18
48
1
60
0
100
AcDbSpline
70
4
71
3
72
111
73
107
40
0
40
0
40
0
40
0
40
0.0023113641621871
40
0.0108556432482111
40
0.0193999223342351
40
0.0279442014202591
40
0.0364884805062831
40
0.0450327595923072
40
0.0535770386783312
40
0.0621213177643552
40
0.0706655968503792
40
0.0792098759364032
40
0.0877541550224272
40
0.0962984341084513
40
0.113386992280499
40
0.130475550452547
40
0.147564108624595
40
0.156108387710619
40
0.164652666796643
40
0.173196945882667
40
0.181741224968691
40
0.190285504054715
40
0.19882978314074
40
0.207374062226763
40
0.215918341312788
40
0.233006899484836
40
0.24155117857086
40
0.250095457656884
40
0.258639736742908
40
0.267184015828932
40
0.275728294914956
40
0.28427257400098
40
0.292816853087004
40
0.301361132173028
40
0.309905411259052
40
0.318449690345076
40
0.3269939694311
40
0.335538248517124
40
0.352626806689172
40
0.361171085775196
40
0.36971536486122
40
0.386803923033268
40
0.395348202119292
40
0.403892481205316
40
0.41243676029134
40
0.420981039377364
40
0.438069597549412
40
0.446613876635436
40
0.45515815572146
40
0.463702434807484
40
0.472246713893508
40
0.489335272065556
40
0.49787955115158
40
0.506423830237604
40
0.514968109323628
40
0.523512388409652
40
0.5406009465817
40
0.549145225667724
40
0.557689504753748
40
0.566233783839772
40
0.574778062925796
40
0.591866621097844
40
0.600410900183868
40
0.608955179269892
40
0.617499458355916
40
0.62604373744194
40
0.643132295613988
40
0.651676574700013
40
0.660220853786036
40
0.668765132872061
40
0.677309411958084
40
0.685853691044109
40
0.694397970130133
40
0.702942249216157
40
0.711486528302181
40
0.720030807388205
40
0.728575086474229
40
0.737119365560253
40
0.745663644646277
40
0.754207923732301
40
0.762752202818325
40
0.779840760990373
40
0.788385040076397
40
0.796929319162421
40
0.805473598248445
40
0.814017877334469
40
0.822562156420493
40
0.831106435506517
40
0.848194993678565
40
0.856739272764589
40
0.865283551850613
40
0.873827830936637
40
0.882372110022661
40
0.899460668194709
40
0.908004947280733
40
0.916549226366757
40
0.925093505452781
40
0.933637784538805
40
0.942182063624829
40
0.950726342710853
40
0.959270621796877
40
0.967814900882901
40
0.976359179968925
40
0.984903459054949
40
0.993447738140973
40
1
40
1
40
1
40
1
41
1
10
-0.394976888875306
20
-6.32694279392976
30
0
41
1
10
-0.394976888875306
20
-6.3484916311391
30
0
41
1
10
-0.394976888875306
20
-6.44960775400912
30
0
41
1
10
-0.394976888875306
20
-6.62954555948866
30
0
41
1
10
-0.394976888875306
20
-6.8656950488801
30
0
41
1
10
-0.394976888875306
20
-7.10023740586411
30
0
41
1
10
-0.394976888875306
20
-7.33316546385933
30
0
41
1
10
-0.394976888875306
20
-7.56447269448574
30
0
41
1
10
-0.394976888875306
20
-7.79415340272945
30
0
41
1
10
-0.394976888875306
20
-8.02220293401996
30
0
41
1
10
-0.394976888875306
20
-8.24861635560848
30
0
41
1
10
-0.394976888875306
20
-8.47338951886385
30
0
41
1
10
-0.394976888875306
20
-8.69651811258549
30
0
41
1
10
-0.394976888875306
20
-8.99192948127941
30
0
41
1
10
-0.394976888875306
20
-9.35683912175983
30
0
41
1
10
-0.394976888875306
20
-9.78821091217483
30
0
41
1
10
-0.394976888875306
20
-10.142045462177
30
0
41
1
10
-0.394976888875306
20
-10.4219344727077
30
0
41
1
10
-0.394976888875306
20
-10.6301131683678
30
0
41
1
10
-0.394976888875306
20
-10.8366153667066
30
0
41
1
10
-0.394976888875306
20
-11.0414388905992
30
0
41
1
10
-0.394976888875306
20
-11.2445799004538
30
0
41
1
10
-0.394976888875306
20
-11.4460361162834
30
0
41
1
10
-0.394976888875306
20
-11.6458042976885
30
0
41
1
10
-0.394976888875306
20
-11.9099848253352
30
0
41
1
10
-0.394976888875306
20
-12.1705475695385
30
0
41
1
10
-0.394976888875306
20
-12.4279318067111
30
0
41
1
10
-0.394976888875306
20
-12.6192114874981
30
0
41
1
10
-0.394976888875306
20
-12.8087826250924
30
0
41
1
10
-0.394976888875306
20
-12.9966426041155
30
0
41
1
10
-0.394976888875306
20
-13.182787448996
30
0
41
1
10
-0.394976888875306
20
-13.3672125455487
30
0
41
1
10
-0.394976888875306
20
-13.5499151547097
30
0
41
1
10
-0.394976888875306
20
-13.7308904478326
30
0
41
1
10
-0.394976888875306
20
-13.910133867705
30
0
41
1
10
-0.394976888875306
20
-14.0876421688895
30
0
41
1
10
-0.394976888875306
20
-14.2634098807097
30
0
41
1
10
-0.394976888875306
20
-14.4955025482493
30
0
41
1
10
-0.394976888875306
20
-14.7239127068147
30
0
41
1
10
-0.394976888875306
20
-14.9489833053404
30
0
41
1
10
-0.394976888875306
20
-15.171701411915
30
0
41
1
10
-0.394976888875306
20
-15.3907043201103
30
0
41
1
10
-0.394976888875306
20
-15.6063159613101
30
0
41
1
10
-0.394976888875306
20
-15.7661946363952
30
0
41
1
10
-0.394976888875306
20
-15.9242799594928
30
0
41
1
10
-0.394976888875306
20
-16.1327154012234
30
0
41
1
10
-0.394976888875306
20
-16.3373780173449
30
0
41
1
10
-0.394976888875306
20
-16.5385587125243
30
0
41
1
10
-0.394976888875306
20
-16.6875782011067
30
0
41
1
10
-0.394976888875306
20
-16.8347642769002
30
0
41
1
10
-0.394976888875306
20
-17.0286080073569
30
0
41
1
10
-0.394976888875306
20
-17.2186059445175
30
0
41
1
10
-0.394976888875306
20
-17.4050188999402
30
0
41
1
10
-0.394976888875306
20
-17.5429190217058
30
0
41
1
10
-0.394976888875306
20
-17.6789377757623
30
0
41
1
10
-0.394976888875306
20
-17.8578220601067
30
0
41
1
10
-0.394976888875306
20
-18.0327708145484
30
0
41
1
10
-0.394976888875306
20
-18.2040166330947
30
0
41
1
10
-0.394976888875306
20
-18.3304892054167
30
0
41
1
10
-0.394976888875306
20
-18.4550234389153
30
0
41
1
10
-0.394976888875306
20
-18.6185132745736
30
0
41
1
10
-0.394976888875306
20
-18.7779598884918
30
0
41
1
10
-0.394976888875306
20
-18.933565131357
30
0
41
1
10
-0.394976888875306
20
-19.048244884465
30
0
41
1
10
-0.394976888875306
20
-19.1609196079758
30
0
41
1
10
-0.394976888875306
20
-19.3085018143331
30
0
41
1
10
-0.394976888875306
20
-19.4519098709686
30
0
41
1
10
-0.394976888875306
20
-19.5913159811741
30
0
41
1
10
-0.394976888875306
20
-19.6937719762305
30
0
41
1
10
-0.394976888875306
20
-19.7941438028822
30
0
41
1
10
-0.394976888875306
20
-19.8924174211231
30
0
41
1
10
-0.394976888875306
20
-19.988575861591
30
0
41
1
10
-0.394976888875306
20
-20.082604778142
30
0
41
1
10
-0.394976888875306
20
-20.1744885559187
30
0
41
1
10
-0.394976888875306
20
-20.264209431984
30
0
41
1
10
-0.394976888875306
20
-20.3517517880635
30
0
41
1
10
-0.394976888875306
20
-20.437098129367
30
0
41
1
10
-0.394976888875306
20
-20.5202292348052
30
0
41
1
10
-0.394976888875306
20
-20.6011280559991
30
0
41
1
10
-0.394976888875306
20
-20.6797749513881
30
0
41
1
10
-0.394976888875306
20
-20.781635486227
30
0
41
1
10
-0.394976888875306
20
-20.8788308931333
30
0
41
1
10
-0.394976888875306
20
-20.9714365096391
30
0
41
1
10
-0.394976888875306
20
-21.0385142950144
30
0
41
1
10
-0.394976888875306
20
-21.1032108820957
30
0
41
1
10
-0.394976888875306
20
-21.1655031751743
30
0
41
1
10
-0.394976888875306
20
-21.2253665102307
30
0
41
1
10
-0.394976888875306
20
-21.301932078811
30
0
41
1
10
-0.394976888875306
20
-21.3734709318986
30
0
41
1
10
-0.394976888875306
20
-21.4399968999807
30
0
41
1
10
-0.394976888875306
20
-21.4873093096751
30
0
41
1
10
-0.394976888875306
20
-21.5320229383892
30
0
41
1
10
-0.394976888875306
20
-21.5881524005931
30
0
41
1
10
-0.394976888875306
20
-21.6389063892513
30
0
41
1
10
-0.394976888875306
20
-21.6842420425293
30
0
41
1
10
-0.394976888875306
20
-21.7154617242468
30
0
41
1
10
-0.394976888875306
20
-21.7438726893518
30
0
41
1
10
-0.394976888875306
20
-21.7694337460976
30
0
41
1
10
-0.394976888875306
20
-21.7921034780961
30
0
41
1
10
-0.394976888875306
20
-21.8118377637545
30
0
41
1
10
-0.394976888875306
20
-21.8285907189997
30
0
41
1
10
-0.394976888875306
20
-21.8423149132633
30
0
41
1
10
-0.394976888875306
20
-21.8529599173647
30
0
41
1
10
-0.394976888875306
20
-21.8604739519412
30
0
41
1
10
-0.394976888875306
20
-21.8644655182515
30
0
41
1
10
-0.394976888875306
20
-21.8653271905163
30
0
41
1
10
-0.394976888875277
20
-21.8653787938352
30
0
0
SPLINE
5
10E
100
AcDbEntity
8
SK1
62
256
6
ByLayer
370
18
48
1
60
0
100
AcDbSpline
70
4
71
3
72
22
73
18
40
0
40
0
40
0
40
0
40
0.038427246458711
40
0.038427246458711
40
0.0775026456766427
40
0.0775026456766427
40
0.106475059033524
40
0.106475059033524
40
0.135305917881828
40
0.135305917881828
40
0.182167074412018
40
0.182167074412018
40
0.275660663800869
40
0.275660663800869
40
0.616530102228659
40
0.616530102228659
40
1
40
1
40
1
40
1
41
1
10
-0.394976888875306
20
-6.32694279392757
30
0
41
1
10
-0.414867561016223
20
-6.34445862132063
30
0
41
1
10
-0.436644357284223
20
-6.36058691921457
30
0
41
1
10
-0.484524151203374
20
-6.3868168818706
30
0
41
1
10
-0.511419954277358
20
-6.39702622866628
30
0
41
1
10
-0.560078773491597
20
-6.40490957850619
30
0
41
1
10
-0.58185248496946
20
-6.40512642059926
30
0
41
1
10
-0.623683911276856
20
-6.39912423041605
30
0
41
1
10
-0.644207278837683
20
-6.39293597600829
30
0
41
1
10
-0.694134540330936
20
-6.37121870092642
30
0
41
1
10
-0.722113964046542
20
-6.35215911803172
30
0
41
1
10
-0.796598131612939
20
-6.28903777408343
30
0
41
1
10
-0.836555557792792
20
-6.23798237717094
30
0
41
1
10
-0.997773060879837
20
-5.995390913813
30
0
41
1
10
-1.07178904300881
20
-5.77805690787602
30
0
41
1
10
-1.20827315239353
20
-5.31693201445015
30
0
41
1
10
-1.26212533694985
20
-5.06551762472202
30
0
41
1
10
-1.30710678118655
20
-4.81101321788438
30
0
0
SPLINE
5
10F
100
AcDbEntity
8
SK1
62
256
6
ByLayer
370
18
48
1
60
0
100
AcDbSpline
70
4
71
3
72
115
73
111
40
0
40
0
40
0
40
0
40
0.0065652179634782
40
0.0151093857039805
40
0.0236535534444828
40
0.0321977211849851
40
0.0407418889254875
40
0.0492860566659898
40
0.0578302244064921
40
0.0663743921469944
40
0.083462727627999
40
0.100551063109004
40
0.117639398590008
40
0.126183566330511
40
0.134727734071013
40
0.143271901811515
40
0.151816069552018
40
0.168904405033022
40
0.177448572773524
40
0.185992740514027
40
0.194536908254529
40
0.203081075995031
40
0.211625243735534
40
0.220169411476036
40
0.237257746957041
40
0.245801914697543
40
0.254346082438045
40
0.262890250178548
40
0.27143441791905
40
0.279978585659552
40
0.288522753400055
40
0.297066921140557
40
0.305611088881059
40
0.314155256621562
40
0.322699424362064
40
0.331243592102566
40
0.339787759843068
40
0.348331927583571
40
0.356876095324073
40
0.373964430805078
40
0.38250859854558
40
0.391052766286082
40
0.395324850156333
40
0.399596934026585
40
0.408141101767087
40
0.425229437248091
40
0.433773604988594
40
0.442317772729096
40
0.450861940469598
40
0.459406108210101
40
0.476494443691105
40
0.485038611431608
40
0.49358277917211
40
0.497854863042361
40
0.502126946912612
40
0.510671114653115
40
0.527759450134119
40
0.536303617874622
40
0.544847785615124
40
0.553391953355626
40
0.561936121096129
40
0.579024456577133
40
0.587568624317636
40
0.596112792058138
40
0.600384875928389
40
0.60465695979864
40
0.613201127539142
40
0.621745295279645
40
0.630289463020147
40
0.634561546890398
40
0.638833630760649
40
0.647377798501152
40
0.655921966241654
40
0.664466133982156
40
0.673010301722659
40
0.681554469463161
40
0.690098637203663
40
0.698642804944165
40
0.707186972684668
40
0.71573114042517
40
0.724275308165672
40
0.732819475906175
40
0.741363643646677
40
0.749907811387179
40
0.758451979127682
40
0.766996146868184
40
0.784084482349189
40
0.792628650089691
40
0.801172817830193
40
0.809716985570696
40
0.818261153311198
40
0.8268053210517
40
0.835349488792203
40
0.843893656532705
40
0.852437824273207
40
0.869526159754212
40
0.886614495235216
40
0.903702830716221
40
0.912246998456723
40
0.920791166197226
40
0.929335333937728
40
0.93787950167823
40
0.946423669418733
40
0.954967837159235
40
0.963512004899737
40
0.972056172640239
40
0.980600340380742
40
0.989144508121244
40
0.997688675861746
40
1
40
1
40
1
40
1
41
1
10
-0.394976888875249
20
21.8653790906843
30
0
41
1
10
-0.39497688887522
20
21.865328567043
30
0
41
1
10
-0.39497688887522
20
21.8644673819153
30
0
41
1
10
-0.394976888875249
20
21.8604737650697
30
0
41
1
10
-0.394976888875249
20
21.8529598769268
30
0
41
1
10
-0.394976888875249
20
21.8423149188875
30
0
41
1
10
-0.394976888875249
20
21.8285907137819
30
0
41
1
10
-0.394976888875249
20
21.8118377229246
30
0
41
1
10
-0.394976888875249
20
21.7921034347989
30
0
41
1
10
-0.394976888875249
20
21.7618666429643
30
0
41
1
10
-0.394976888875249
20
21.7168668922192
30
0
41
1
10
-0.394976888875249
20
21.651618462036
30
0
41
1
10
-0.394976888875249
20
21.5881524120742
30
0
41
1
10
-0.394976888875249
20
21.5320229149808
30
0
41
1
10
-0.394976888875249
20
21.4873092663299
30
0
41
1
10
-0.394976888875249
20
21.4399968711307
30
0
41
1
10
-0.394976888875249
20
21.3734709387681
30
0
41
1
10
-0.394976888875249
20
21.3019320664004
30
0
41
1
10
-0.394976888875277
20
21.2253664719936
30
0
41
1
10
-0.394976888875277
20
21.1655031445011
30
0
41
1
10
-0.394976888875277
20
21.1032108723211
30
0
41
1
10
-0.394976888875277
20
21.038514297088
30
0
41
1
10
-0.394976888875277
20
20.9714364994015
30
0
41
1
10
-0.394976888875277
20
20.8788308563806
30
0
41
1
10
-0.394976888875277
20
20.7816354627076
30
0
41
1
10
-0.394976888875277
20
20.6797749496461
30
0
41
1
10
-0.394976888875277
20
20.6011280536546
30
0
41
1
10
-0.394976888875277
20
20.5202292190253
30
0
41
1
10
-0.394976888875277
20
20.4370981008412
30
0
41
1
10
-0.394976888875277
20
20.3517517634561
30
0
41
1
10
-0.394976888875277
20
20.2642094206366
30
0
41
1
10
-0.394976888875277
20
20.1744885542463
30
0
41
1
10
-0.394976888875277
20
20.082604770276
30
0
41
1
10
-0.394976888875277
20
19.9885758834751
30
0
41
1
10
-0.394976888875277
20
19.8924175863555
30
0
41
1
10
-0.394976888875277
20
19.79414426657
30
0
41
1
10
-0.394976888875277
20
19.6937723311917
30
0
41
1
10
-0.394976888875277
20
19.5913158900225
30
0
41
1
10
-0.394976888875277
20
19.4519091739392
30
0
41
1
10
-0.394976888875277
20
19.308501644014
30
0
41
1
10
-0.394976888875277
20
19.160920630363
30
0
41
1
10
-0.394976888875277
20
19.0670441229991
30
0
41
1
10
-0.394976888875277
20
18.9909051568102
30
0
41
1
10
-0.394976888875277
20
18.9140993494365
30
0
41
1
10
-0.394976888875277
20
18.777958735224
30
0
41
1
10
-0.394976888875277
20
18.6185131846482
30
0
41
1
10
-0.394976888875277
20
18.4550236113311
30
0
41
1
10
-0.394976888875277
20
18.330489335967
30
0
41
1
10
-0.394976888875277
20
18.2040166079408
30
0
41
1
10
-0.394976888875277
20
18.0327705937831
30
0
41
1
10
-0.394976888875277
20
17.8578219077773
30
0
41
1
10
-0.394976888875277
20
17.6789387292296
30
0
41
1
10
-0.394976888875277
20
17.5656125946474
30
0
41
1
10
-0.394976888875277
20
17.4739690253912
30
0
41
1
10
-0.394976888875277
20
17.3816993239948
30
0
41
1
10
-0.394976888875277
20
17.2186048360495
30
0
41
1
10
-0.394976888875277
20
17.0286078387926
30
0
41
1
10
-0.394976888875277
20
16.8347647509306
30
0
41
1
10
-0.394976888875277
20
16.6875786248762
30
0
41
1
10
-0.394976888875277
20
16.5385587049942
30
0
41
1
10
-0.394976888875277
20
16.3373774066279
30
0
41
1
10
-0.394976888875277
20
16.1327150774874
30
0
41
1
10
-0.394976888875277
20
15.9242804112408
30
0
41
1
10
-0.394976888875277
20
15.7925696820839
30
0
41
1
10
-0.394976888875277
20
15.6862549949744
30
0
41
1
10
-0.394976888875277
20
15.5793432837569
30
0
41
1
10
-0.394976888875277
20
15.4446487492657
30
0
41
1
10
-0.394976888875277
20
15.2812010193763
30
0
41
1
10
-0.394976888875277
20
15.1435436982815
30
0
41
1
10
-0.394976888875277
20
15.0324801920763
30
0
41
1
10
-0.394976888875277
20
14.9208273816877
30
0
41
1
10
-0.394976888875277
20
14.7802248596231
30
0
41
1
10
-0.394976888875277
20
14.6097059483473
30
0
41
1
10
-0.394976888875277
20
14.4374320816019
30
0
41
1
10
-0.394976888875277
20
14.2634095816694
30
0
41
1
10
-0.394976888875277
20
14.0876420714538
30
0
41
1
10
-0.394976888875277
20
13.9101338497815
30
0
41
1
10
-0.394976888875277
20
13.7308904366346
30
0
41
1
10
-0.394976888875277
20
13.549915145406
30
0
41
1
10
-0.394976888875277
20
13.3672125481811
30
0
41
1
10
-0.394976888875277
20
13.182787463215
30
0
41
1
10
-0.394976888875277
20
12.9966426140257
30
0
41
1
10
-0.394976888875277
20
12.8087826212334
30
0
41
1
10
-0.394976888875277
20
12.6192114742801
30
0
41
1
10
-0.394976888875277
20
12.4279318017785
30
0
41
1
10
-0.394976888875277
20
12.1705475891153
30
0
41
1
10
-0.394976888875277
20
11.9099848332047
30
0
41
1
10
-0.394976888875277
20
11.6458042855523
30
0
41
1
10
-0.394976888875277
20
11.4460361066677
30
0
41
1
10
-0.394976888875277
20
11.2445799083311
30
0
41
1
10
-0.394976888875277
20
11.0414389105764
30
0
41
1
10
-0.394976888875277
20
10.8366153761928
30
0
41
1
10
-0.394976888875277
20
10.630113157504
30
0
41
1
10
-0.394976888875277
20
10.4219344610486
30
0
41
1
10
-0.394976888875277
20
10.1420454829465
30
0
41
1
10
-0.394976888875277
20
9.78821091215369
30
0
41
1
10
-0.394976888875277
20
9.3568391135907
30
0
41
1
10
-0.394976888875277
20
8.99192950801697
30
0
41
1
10
-0.394976888875277
20
8.69651812098675
30
0
41
1
10
-0.394976888875277
20
8.47338949471808
30
0
41
1
10
-0.394976888875277
20
8.24861627222975
30
0
41
1
10
-0.394976888875277
20
8.0222029406992
30
0
41
1
10
-0.394976888875277
20
7.79415362199521
30
0
41
1
10
-0.394976888875277
20
7.56447255210355
30
0
41
1
10
-0.394976888875277
20
7.33316516004027
30
0
41
1
10
-0.394976888875277
20
7.10023725398264
30
0
41
1
10
-0.394976888875277
20
6.86569504295815
30
0
41
1
10
-0.394976888875277
20
6.62954558311137
30
0
41
1
10
-0.394976888875277
20
6.44960786563362
30
0
41
1
10
-0.394976888875277
20
6.34849183540925
30
0
41
1
10
-0.394976888875277
20
6.32694309067119
30
0
0
SPLINE
5
110
100
AcDbEntity
8
SK1
62
256
6
ByLayer
370
18
48
1
60
0
100
AcDbSpline
70
4
71
3
72
10
73
6
40
0
40
0
40
0
40
0
40
0.5
40
0.5
40
1
40
1
40
1
40
1
41
1
10
-1.30710678118655
20
4.81101329740289
30
0
41
1
10
-1.57713284158248
20
3.28321078789992
30
0
41
1
10
-1.79449339715788
20
1.64680798700616
30
0
41
1
10
-1.79438545511854
20
-1.6481258022005
30
0
41
1
10
-1.57704898370505
20
-3.28368386467716
30
0
41
1
10
-1.30710678118663
20
-4.81101321788435
30
0
0
LINE
5
72
100
AcDbEntity
8
80
62
256
6
ByLayer
370
18
48
1
60
0
100
AcDbLine
10
0
20
0
30
0
11
-5
21
0
31
0
39
0
210
0
220
0
230
1
0
LINE
5
73
100
AcDbEntity
8
1
62
256
6
ByLayer
370
18
48
1
60
0
100
AcDbLine
10
0.3
20
-31.5
30
0
11
22.920792
21
-31.5
31
0
39
0
210
0
220
0
230
1
0
LINE
5
75
100
AcDbEntity
8
1
62
256
6
ByLayer
370
18
48
1
60
0
100
AcDbLine
10
0.3
20
31.5
30
0
11
0
21
31.2
31
0
39
0
210
0
220
0
230
1
0
LINE
5
76
100
AcDbEntity
8
1
62
256
6
ByLayer
370
18
48
1
60
0
100
AcDbLine
10
0
20
-31.2
30
0
11
0.3
21
-31.5
31
0
39
0
210
0
220
0
230
1
0
LINE
5
77
100
AcDbEntity
8
1
62
256
6
ByLayer
370
18
48
1
60
0
100
AcDbLine
10
26.451023
20
44.675
30
0
11
22.920792
21
31.5
31
0
39
0
210
0
220
0
230
1
0
LINE
5
78
100
AcDbEntity
8
1
62
256
6
ByLayer
370
18
48
1
60
0
100
AcDbLine
10
22.920792
20
-31.5
30
0
11
23.322716
21
-33
31
0
39
0
210
0
220
0
230
1
0
LINE
5
79
100
AcDbEntity
8
1
62
256
6
ByLayer
370
18
48
1
60
0
100
AcDbLine
10
22.920792
20
31.5
30
0
11
0.3
21
31.5
31
0
39
0
210
0
220
0
230
1
0
LINE
5
7A
100
AcDbEntity
8
81
62
256
6
ByLayer
370
18
48
1
60
0
100
AcDbLine
10
80
20
45
30
0
11
85
21
45
31
0
39
0
210
0
220
0
230
1
0
LINE
5
7B
100
AcDbEntity
8
4
62
256
6
ByLayer
370
18
48
0.05
60
0
100
AcDbLine
10
0
20
0
30
0
11
53
21
0
31
0
39
0
210
0
220
0
230
1
0
LINE
5
7D
100
AcDbEntity
8
SK4
62
256
6
ByLayer
370
18
48
0.05
60
0
100
AcDbLine
10
-43
20
0
30
0
11
53
21
0
31
0
39
0
210
0
220
0
230
1
0
LINE
5
7F
100
AcDbEntity
8
1
62
256
6
ByLayer
370
18
48
1
60
0
100
AcDbLine
10
72.621597
20
39.4
30
0
11
73.075551
21
39.4
31
0
39
0
210
0
220
0
230
1
0
LINE
5
80
100
AcDbEntity
8
1
62
256
6
ByLayer
370
18
48
1
60
0
100
AcDbLine
10
13.461325
20
-9.349221
30
0
11
10.538675
21
-9.349221
31
0
39
0
210
0
220
0
230
1
0
LINE
5
81
100
AcDbEntity
8
1
62
256
6
ByLayer
370
18
48
1
60
0
100
AcDbLine
10
13.461325
20
-30.080593
30
0
11
13.461325
21
-9.349221
31
0
39
0
210
0
220
0
230
1
0
LINE
5
82
100
AcDbEntity
8
1
62
256
6
ByLayer
370
18
48
1
60
0
100
AcDbLine
10
74.575678
20
44.675
30
0
11
72.591952
21
44.675
31
0
39
0
210
0
220
0
230
1
0
LINE
5
83
100
AcDbEntity
8
1
62
256
6
ByLayer
370
18
48
1
60
0
100
AcDbLine
10
58.669905
20
39.325
30
0
11
72.59193
21
39.325
31
0
39
0
210
0
220
0
230
1
0
LINE
5
84
100
AcDbEntity
8
1
62
256
6
ByLayer
370
18
48
1
60
0
100
AcDbLine
10
19.474064
20
27.88525
30
0
11
19.474064
21
-27.88525
31
0
39
0
210
0
220
0
230
1
0
LINE
5
85
100
AcDbEntity
8
1
62
256
6
ByLayer
370
18
48
1
60
0
100
AcDbLine
10
13.461325
20
9.349221
30
0
11
13.461325
21
30.080593
31
0
39
0
210
0
220
0
230
1
0
LINE
5
86
100
AcDbEntity
8
1
62
256
6
ByLayer
370
18
48
1
60
0
100
AcDbLine
10
13.894338
20
-29.913955
30
0
11
13.894338
21
-9.869413
31
0
39
0
210
0
220
0
230
1
0
LINE
5
87
100
AcDbEntity
8
1
62
256
6
ByLayer
370
18
48
1
60
0
100
AcDbLine
10
72.900067
20
43.579486
30
0
11
72.941314
21
43.350068
31
0
39
0
210
0
220
0
230
1
0
LINE
5
88
100
AcDbEntity
8
1
62
256
6
ByLayer
370
18
48
1
60
0
100
AcDbLine
10
72.728053
20
39.669221
30
0
11
72.728053
21
44.330779
31
0
39
0
210
0
220
0
230
1
0
LINE
5
89
100
AcDbEntity
8
1
62
256
6
ByLayer
370
18
48
1
60
0
100
AcDbLine
10
10.538675
20
-30.080593
30
0
11
10.538675
21
-9.349221
31
0
39
0
210
0
220
0
230
1
0
LINE
5
8A
100
AcDbEntity
8
1
62
256
6
ByLayer
370
18
48
1
60
0
100
AcDbLine
10
72.728053
20
44.330779
30
0
11
72.891822
21
43.619785
31
0
39
0
210
0
220
0
230
1
0
LINE
5
8B
100
AcDbEntity
8
1
62
256
6
ByLayer
370
18
48
1
60
0
100
AcDbLine
10
48.1
20
39.325
30
0
11
58.669905
21
39.325
31
0
39
0
210
0
220
0
230
1
0
LINE
5
8C
100
AcDbEntity
8
1
62
256
6
ByLayer
370
18
48
1
60
0
100
AcDbLine
10
46.5
20
32.175
30
0
11
31.723467
21
-33
31
0
39
0
210
0
220
0
230
1
0
LINE
5
8D
100
AcDbEntity
8
1
62
256
6
ByLayer
370
18
48
1
60
0
100
AcDbLine
10
72.941314
20
43.350068
30
0
11
72.941314
21
40.649932
31
0
39
0
210
0
220
0
230
1
0
LINE
5
8E
100
AcDbEntity
8
1
62
256
6
ByLayer
370
18
48
1
60
0
100
AcDbLine
10
13.894338
20
9.869413
30
0
11
13.894338
21
29.913955
31
0
39
0
210
0
220
0
230
1
0
LINE
5
8F
100
AcDbEntity
8
1
62
256
6
ByLayer
370
18
48
1
60
0
100
AcDbLine
10
23.458842
20
31.651036
30
0
11
23.458842
21
-31.651036
31
0
39
0
210
0
220
0
230
1
0
LINE
5
90
100
AcDbEntity
8
1
62
256
6
ByLayer
370
18
48
1
60
0
100
AcDbLine
10
58.669905
20
44.675
30
0
11
58.669905
21
39.325
31
0
39
0
210
0
220
0
230
1
0
LINE
5
91
100
AcDbEntity
8
1
62
256
6
ByLayer
370
18
48
1
60
0
100
AcDbLine
10
72.59193
20
44.675
30
0
11
72.728053
21
44.330779
31
0
39
0
210
0
220
0
230
1
0
LINE
5
92
100
AcDbEntity
8
1
62
256
6
ByLayer
370
18
48
1
60
0
100
AcDbLine
10
74.575678
20
39.325
30
0
11
72.591952
21
39.325
31
0
39
0
210
0
220
0
230
1
0
LINE
5
93
100
AcDbEntity
8
1
62
256
6
ByLayer
370
18
48
1
60
0
100
AcDbLine
10
13.461325
20
30.080593
30
0
11
10.538675
21
30.080593
31
0
39
0
210
0
220
0
230
1
0
LINE
5
94
100
AcDbEntity
8
1
62
256
6
ByLayer
370
18
48
1
60
0
100
AcDbLine
10
22.920792
20
31.5
30
0
11
22.920792
21
29.503371
31
0
39
0
210
0
220
0
230
1
0
LINE
5
95
100
AcDbEntity
8
1
62
256
6
ByLayer
370
18
48
1
60
0
100
AcDbLine
10
22.920792
20
-29.503371
30
0
11
22.920792
21
-31.5
31
0
39
0
210
0
220
0
230
1
0
LINE
5
96
100
AcDbEntity
8
1
62
256
6
ByLayer
370
18
48
1
60
0
100
AcDbLine
10
10.538675
20
9.349221
30
0
11
13.461325
21
9.349221
31
0
39
0
210
0
220
0
230
1
0
LINE
5
97
100
AcDbEntity
8
1
62
256
6
ByLayer
370
18
48
1
60
0
100
AcDbLine
10
72.59193
20
39.325
30
0
11
72.728053
21
39.669221
31
0
39
0
210
0
220
0
230
1
0
LINE
5
98
100
AcDbEntity
8
1
62
256
6
ByLayer
370
18
48
1
60
0
100
AcDbLine
10
58.669905
20
44.675
30
0
11
26.808547
21
44.675
31
0
39
0
210
0
220
0
230
1
0
LINE
5
99
100
AcDbEntity
8
1
62
256
6
ByLayer
370
18
48
1
60
0
100
AcDbLine
10
18.331913
20
-2.518412
30
0
11
18.663448
21
-3.755721
31
0
39
0
210
0
220
0
230
1
0
LINE
5
9A
100
AcDbEntity
8
1
62
256
6
ByLayer
370
18
48
1
60
0
100
AcDbLine
10
10.105662
20
9.869413
30
0
11
10.105662
21
29.913955
31
0
39
0
210
0
220
0
230
1
0
LINE
5
9B
100
AcDbEntity
8
1
62
256
6
ByLayer
370
18
48
1
60
0
100
AcDbLine
10
10.538675
20
9.349221
30
0
11
10.538675
21
30.080593
31
0
39
0
210
0
220
0
230
1
0
LINE
5
9C
100
AcDbEntity
8
1
62
256
6
ByLayer
370
18
48
1
60
0
100
AcDbLine
10
0.3
20
-31.5
30
0
11
0.3
21
31.5
31
0
39
0
210
0
220
0
230
1
0
LINE
5
9D
100
AcDbEntity
8
1
62
256
6
ByLayer
370
18
48
1
60
0
100
AcDbLine
10
31.723467
20
-33
30
0
11
23.80102
21
-33
31
0
39
0
210
0
220
0
230
1
0
LINE
5
9E
100
AcDbEntity
8
1
62
256
6
ByLayer
370
18
48
1
60
0
100
AcDbLine
10
72.900067
20
40.420514
30
0
11
72.941314
21
40.649932
31
0
39
0
210
0
220
0
230
1
0
LINE
5
9F
100
AcDbEntity
8
1
62
256
6
ByLayer
370
18
48
1
60
0
100
AcDbLine
10
0
20
-31.2
30
0
11
0
21
31.2
31
0
39
0
210
0
220
0
230
1
0
LINE
5
A0
100
AcDbEntity
8
1
62
256
6
ByLayer
370
18
48
1
60
0
100
AcDbLine
10
10.105662
20
-29.913955
30
0
11
10.105662
21
-9.869413
31
0
39
0
210
0
220
0
230
1
0
LINE
5
A1
100
AcDbEntity
8
1
62
256
6
ByLayer
370
18
48
1
60
0
100
AcDbLine
10
46.5
20
32.175
30
0
11
46.5
21
37.725
31
0
39
0
210
0
220
0
230
1
0
LINE
5
A2
100
AcDbEntity
8
1
62
256
6
ByLayer
370
18
48
1
60
0
100
AcDbLine
10
72.59193
20
44.675
30
0
11
58.669905
21
44.675
31
0
39
0
210
0
220
0
230
1
0
LINE
5
A3
100
AcDbEntity
8
1
62
256
6
ByLayer
370
18
48
1
60
0
100
AcDbLine
10
26.608477
20
44.675
30
0
11
26.454021
21
44.675
31
0
39
0
210
0
220
0
230
1
0
LINE
5
A4
100
AcDbEntity
8
1
62
256
6
ByLayer
370
18
48
1
60
0
100
AcDbLine
10
72.728053
20
39.669221
30
0
11
72.891822
21
40.380215
31
0
39
0
210
0
220
0
230
1
0
LINE
5
A5
100
AcDbEntity
8
1
62
256
6
ByLayer
370
18
48
1
60
0
100
AcDbLine
10
10.538675
20
-30.080593
30
0
11
13.461325
21
-30.080593
31
0
39
0
210
0
220
0
230
1
0
LINE
5
A6
100
AcDbEntity
8
SK1
62
256
6
ByLayer
370
18
48
1
60
0
100
AcDbLine
10
-0.2
20
-22.533485
30
0
11
-0.2
21
-7.059517
31
0
39
0
210
0
220
0
230
1
0
LINE
5
A8
100
AcDbEntity
8
SK1
62
256
6
ByLayer
370
18
48
1
60
0
100
AcDbLine
10
-0.2
20
7.059518
30
0
11
-0.2
21
22.533485
31
0
39
0
210
0
220
0
230
1
0
LINE
5
A9
100
AcDbEntity
8
SK1
62
256
6
ByLayer
370
18
48
1
60
0
100
AcDbLine
10
-1.307107
20
-4.811013
30
0
11
-1.307107
21
4.811013
31
0
39
0
210
0
220
0
230
1
0
LINE
5
AA
100
AcDbEntity
8
1
62
256
6
ByLayer
370
18
48
1
60
0
100
AcDbLine
10
72.941311
20
40.832591
30
0
11
73.075551
21
39.819265
31
0
39
0
210
0
220
0
230
1
0
LINE
5
AB
100
AcDbEntity
8
1
62
256
6
ByLayer
370
18
48
1
60
0
100
AcDbLine
10
73.075551
20
44.180735
30
0
11
72.941311
21
43.167409
31
0
39
0
210
0
220
0
230
1
0
LINE
5
AC
100
AcDbEntity
8
1
62
256
6
ByLayer
370
18
48
1
60
0
100
AcDbLine
10
72.621597
20
44.6
30
0
11
73.075551
21
44.6
31
0
39
0
210
0
220
0
230
1
0
LINE
5
AD
100
AcDbEntity
8
1
62
256
6
ByLayer
370
18
48
1
60
0
100
AcDbLine
10
73.732168
20
44.6
30
0
11
73.732168
21
39.4
31
0
39
0
210
0
220
0
230
1
0
LINE
5
AE
100
AcDbEntity
8
1
62
256
6
ByLayer
370
18
48
1
60
0
100
AcDbLine
10
80
20
44.7
30
0
11
80
21
39.3
31
0
39
0
210
0
220
0
230
1
0
LINE
5
AF
100
AcDbEntity
8
1
62
256
6
ByLayer
370
18
48
1
60
0
100
AcDbLine
10
73.262322
20
39.4
30
0
11
73.075551
21
39.4
31
0
39
0
210
0
220
0
230
1
0
LINE
5
B0
100
AcDbEntity
8
1
62
256
6
ByLayer
370
18
48
1
60
0
100
AcDbLine
10
77.795104
20
39.110428
30
0
11
76.155328
21
39.205925
31
0
39
0
210
0
220
0
230
1
0
LINE
5
B1
100
AcDbEntity
8
1
62
256
6
ByLayer
370
18
48
1
60
0
100
AcDbLine
10
75.761782
20
44.771156
30
0
11
74.628
21
44.705128
31
0
39
0
210
0
220
0
230
1
0
LINE
5
B2
100
AcDbEntity
8
1
62
256
6
ByLayer
370
18
48
1
60
0
100
AcDbLine
10
76.155328
20
44.794075
30
0
11
76.155328
21
39.205925
31
0
39
0
210
0
220
0
230
1
0
LINE
5
B3
100
AcDbEntity
8
1
62
256
6
ByLayer
370
18
48
1
60
0
100
AcDbLine
10
73.075551
20
39.819265
30
0
11
73.075551
21
39.4
31
0
39
0
210
0
220
0
230
1
0
LINE
5
B4
100
AcDbEntity
8
1
62
256
6
ByLayer
370
18
48
1
60
0
100
AcDbLine
10
75.761782
20
44.771156
30
0
11
76.155328
21
44.794075
31
0
39
0
210
0
220
0
230
1
0
LINE
5
B5
100
AcDbEntity
8
1
62
256
6
ByLayer
370
18
48
1
60
0
100
AcDbLine
10
74.628
20
39.294872
30
0
11
74.445914
21
39.4
31
0
39
0
210
0
220
0
230
1
0
LINE
5
B6
100
AcDbEntity
8
1
62
256
6
ByLayer
370
18
48
1
60
0
100
AcDbLine
10
73.075551
20
44.6
30
0
11
73.075551
21
44.180735
31
0
39
0
210
0
220
0
230
1
0
LINE
5
B7
100
AcDbEntity
8
1
62
256
6
ByLayer
370
18
48
1
60
0
100
AcDbLine
10
73.262322
20
44.6
30
0
11
73.075551
21
44.6
31
0
39
0
210
0
220
0
230
1
0
LINE
5
B8
100
AcDbEntity
8
1
62
256
6
ByLayer
370
18
48
1
60
0
100
AcDbLine
10
77.795104
20
39.110428
30
0
11
79.682558
21
39.000507
31
0
39
0
210
0
220
0
230
1
0
LINE
5
B9
100
AcDbEntity
8
1
62
256
6
ByLayer
370
18
48
1
60
0
100
AcDbLine
10
73.732168
20
44.6
30
0
11
73.262322
21
44.6
31
0
39
0
210
0
220
0
230
1
0
LINE
5
BA
100
AcDbEntity
8
1
62
256
6
ByLayer
370
18
48
1
60
0
100
AcDbLine
10
77.795104
20
44.889572
30
0
11
77.795104
21
39.110428
31
0
39
0
210
0
220
0
230
1
0
LINE
5
BB
100
AcDbEntity
8
1
62
256
6
ByLayer
370
18
48
1
60
0
100
AcDbLine
10
74.445914
20
39.4
30
0
11
73.732168
21
39.4
31
0
39
0
210
0
220
0
230
1
0
LINE
5
BC
100
AcDbEntity
8
1
62
256
6
ByLayer
370
18
48
1
60
0
100
AcDbLine
10
77.795104
20
44.889572
30
0
11
79.682558
21
44.999493
31
0
39
0
210
0
220
0
230
1
0
LINE
5
BD
100
AcDbEntity
8
1
62
256
6
ByLayer
370
18
48
1
60
0
100
AcDbLine
10
74.628
20
44.705128
30
0
11
74.445914
21
44.6
31
0
39
0
210
0
220
0
230
1
0
LINE
5
BE
100
AcDbEntity
8
1
62
256
6
ByLayer
370
18
48
1
60
0
100
AcDbLine
10
75.761782
20
39.228844
30
0
11
74.628
21
39.294872
31
0
39
0
210
0
220
0
230
1
0
LINE
5
BF
100
AcDbEntity
8
1
62
256
6
ByLayer
370
18
48
1
60
0
100
AcDbLine
10
73.262322
20
44.6
30
0
11
73.262322
21
39.4
31
0
39
0
210
0
220
0
230
1
0
LINE
5
C0
100
AcDbEntity
8
1
62
256
6
ByLayer
370
18
48
1
60
0
100
AcDbLine
10
75.761782
20
39.228844
30
0
11
75.761782
21
44.771156
31
0
39
0
210
0
220
0
230
1
0
LINE
5
C1
100
AcDbEntity
8
1
62
256
6
ByLayer
370
18
48
1
60
0
100
AcDbLine
10
76.155328
20
44.794075
30
0
11
77.795104
21
44.889572
31
0
39
0
210
0
220
0
230
1
0
LINE
5
C2
100
AcDbEntity
8
1
62
256
6
ByLayer
370
18
48
1
60
0
100
AcDbLine
10
76.155328
20
39.205925
30
0
11
75.761782
21
39.228844
31
0
39
0
210
0
220
0
230
1
0
LINE
5
C3
100
AcDbEntity
8
1
62
256
6
ByLayer
370
18
48
1
60
0
100
AcDbLine
10
74.445914
20
44.6
30
0
11
73.732168
21
44.6
31
0
39
0
210
0
220
0
230
1
0
LINE
5
C4
100
AcDbEntity
8
1
62
256
6
ByLayer
370
18
48
1
60
0
100
AcDbLine
10
73.732168
20
39.4
30
0
11
73.262322
21
39.4
31
0
39
0
210
0
220
0
230
1
0
MTEXT
5
111
100
AcDbEntity
8
SK6
62
256
6
ByLayer
370
18
48
1
60
0
100
AcDbMText
10
-10.625
20
-43.125
30
0
210
0
220
0
230
1
1
\W0.7267;C6-RF151.23-45080-60
40
3.5
41
0
44
1.084337
50
0
71
7
72
5
7
iso_b_vert
0
DIMENSION
5
123
100
AcDbEntity
8
SK2
62
256
6
ByLayer
370
13
48
1
60
0
100
AcDbDimension
2
DimnDraft3D1
10
-53.07
20
31.5
30
0
11
-53.07
21
-2.688158
31
0
70
32
71
5
72
1
41
1
210
0
220
0
230
1
3
Standard
100
AcDbAlignedDimension
13
-1.5
23
-31.5
33
0
14
-1.5
24
31.5
34
0
50
90
100
AcDbRotatedDimension
1001
ACAD
1000
DSTYLE
1002
{
1070
    74
1070
     0
1070
   279
1070
     0
1070
   172
1070
     1
1070
   173
1070
     1
1070
   340
1005
112
1070
   271
1070
     3
1070
   272
1070
     3
1070
    77
1070
     1
1070
    73
1070
     0
1070
   171
1070
     4
1070
   274
1070
     4
1070
   177
1070
     2
1070
   176
1070
     2
1070
   178
1070
     7
1070
    78
1070
     8
1070
    41
1041
3.0
1070
   147
1041
2.25
1070
    42
1041
1.5
1070
    44
1041
3.0
1070
   140
1041
4.5
1070
   343
1005
124
1070
   344
1005
124
1002
}
0
DIMENSION
5
138
100
AcDbEntity
8
2
62
256
6
ByLayer
370
13
48
1
60
0
100
AcDbDimension
2
DimnDraft3D2
10
94.25
20
45
30
0
11
94.25
21
40.993421
31
0
70
32
71
5
72
1
41
1
210
0
220
0
230
1
3
Standard
100
AcDbAlignedDimension
13
81.5
23
39
33
0
14
81.5
24
45
34
0
50
90
100
AcDbRotatedDimension
1001
ACAD
1000
DSTYLE
1002
{
1070
    74
1070
     0
1070
   279
1070
     0
1070
   172
1070
     1
1070
   173
1070
     1
1070
   340
1005
112
1070
   271
1070
     3
1070
   272
1070
     3
1070
    77
1070
     1
1070
    73
1070
     0
1070
   171
1070
     4
1070
   274
1070
     4
1070
   177
1070
     2
1070
   176
1070
     2
1070
   178
1070
     7
1070
    78
1070
     8
1070
    41
1041
3.0
1070
   147
1041
2.25
1070
    42
1041
1.5
1070
    44
1041
3.0
1070
   140
1041
4.5
1070
   343
1005
124
1070
   344
1005
124
1002
}
0
DIMENSION
5
146
100
AcDbEntity
8
2
62
256
6
ByLayer
370
13
48
1
60
0
100
AcDbDimension
2
DimnDraft3D3
10
104.25
20
0
30
0
11
104.25
21
19.575
31
0
70
32
71
5
72
1
41
1
210
0
220
0
230
1
3
Standard
100
AcDbAlignedDimension
13
81.5
23
45
33
0
14
36.5
24
0
34
0
50
90
100
AcDbRotatedDimension
1001
ACAD
1000
DSTYLE
1002
{
1070
    74
1070
     0
1070
   279
1070
     0
1070
   172
1070
     1
1070
   173
1070
     1
1070
   340
1005
112
1070
   271
1070
     3
1070
   272
1070
     3
1070
    77
1070
     1
1070
    73
1070
     0
1070
   171
1070
     4
1070
   274
1070
     4
1070
   177
1070
     2
1070
   176
1070
     2
1070
   178
1070
     7
1070
    78
1070
     8
1070
    41
1041
3.0
1070
   147
1041
2.25
1070
    42
1041
1.5
1070
    44
1041
3.0
1070
   140
1041
4.5
1070
   343
1005
124
1070
   344
1005
124
1002
}
0
DIMENSION
5
154
100
AcDbEntity
8
2
62
256
6
ByLayer
370
13
48
1
60
0
100
AcDbDimension
2
DimnDraft3D4
10
80
20
54.75
30
0
11
37.311842
21
54.75
31
0
70
32
71
5
72
1
41
1
210
0
220
0
230
1
3
Standard
100
AcDbAlignedDimension
13
0
23
1.5
33
0
14
80
24
43.5
34
0
50
0
100
AcDbRotatedDimension
1001
ACAD
1000
DSTYLE
1002
{
1070
   279
1070
     0
1070
   172
1070
     1
1070
   173
1070
     1
1070
   340
1005
112
1070
   271
1070
     3
1070
   272
1070
     3
1070
    77
1070
     1
1070
    73
1070
     0
1070
   171
1070
     4
1070
   274
1070
     4
1070
   177
1070
     2
1070
   176
1070
     2
1070
   178
1070
     7
1070
    78
1070
     8
1070
    41
1041
3.0
1070
   147
1041
2.25
1070
    42
1041
1.5
1070
    44
1041
3.0
1070
   140
1041
4.5
1070
   343
1005
124
1070
   344
1005
124
1002
}
0
DIMENSION
5
162
100
AcDbEntity
8
2
62
256
6
ByLayer
370
13
48
1
60
0
100
AcDbDimension
2
DimnDraft3D5
10
80
20
-14.25
30
0
11
61.311842
21
-14.25
31
0
70
32
71
5
72
1
41
1
210
0
220
0
230
1
3
Standard
100
AcDbAlignedDimension
13
48
23
36.5
33
0
14
80
24
37.5
34
0
50
0
100
AcDbRotatedDimension
1001
ACAD
1000
DSTYLE
1002
{
1070
   279
1070
     0
1070
   172
1070
     1
1070
   173
1070
     1
1070
   340
1005
112
1070
   271
1070
     3
1070
   272
1070
     3
1070
    77
1070
     1
1070
    73
1070
     0
1070
   171
1070
     4
1070
   274
1070
     4
1070
   177
1070
     2
1070
   176
1070
     2
1070
   178
1070
     7
1070
    78
1070
     8
1070
    41
1041
3.0
1070
   147
1041
2.25
1070
    42
1041
1.5
1070
    44
1041
3.0
1070
   140
1041
4.5
1070
   343
1005
124
1070
   344
1005
124
1002
}
0
ENDSEC
0
SECTION
2
OBJECTS
0
DICTIONARY
5
1cd
330
0
100
AcDbDictionary
280
0
281
1
3
ACAD_GROUP
350
1ce
3
ACAD_MLINESTYLE
350
1cf
0
DICTIONARY
5
1ce
330
0
100
AcDbDictionary
280
0
281
1
0
DICTIONARY
5
1cf
330
0
100
AcDbDictionary
280
0
281
1
3
Standard
350
18
0
MLINESTYLE
5
18
330
1cf
100
AcDbMlineStyle
2
Standard
70
0
3

62
256
51
90
52
90
71
2
49
-0.5
62
256
6
ByLayer
49
0.5
62
256
6
ByLayer
0
RASTERVARIABLES
5
1bb
330

100
AcDbRasterVariables
90
0
70
1
71
1
72
1
0
ENDSEC
0
EOF
