0
SECTION
2
HEADER
9
$ACADVER
1
AC1015
9
$DWGCODEPAGE
3
ANSI_1252
9
$HANDSEED
5
2ec
9
$ANGBASE
50
0
9
$ANGDIR
70
0
9
$ATTMODE
70
1
9
$AUNITS
70
0
9
$AUPREC
70
0
9
$CECOLOR
62
256
9
$CELTSCALE
40
1
9
$CELTYPE
6
ByLayer
9
$CELWEIGHT
370
18
9
$CLAYER
8
0
9
$CMLJUST
70
0
9
$CMLSCALE
40
1
9
$CMLSTYLE
2
Standard
9
$DIMSTYLE
2
Standard
9
$TEXTSIZE
40
0.2
9
$TEXTSTYLE
7
Standard
9
$LUNITS
70
2
9
$LUPREC
70
4
9
$EXTNAMES
290
1
9
$INSUNITS
70
4
9
$LTSCALE
40
1
9
$LWDISPLAY
290
1
9
$PDMODE
70
0
9
$PDSIZE
40
0
9
$PLINEGEN
70
0
0
ENDSEC
0
SECTION
2
CLASSES
0
CLASS
1
RASTERVARIABLES
2
AcDbRasterVariables
3
ISM
90
0
280
0
281
0
0
ENDSEC
0
SECTION
2
TABLES
0
TABLE
2
VPORT
5
2e2
100
AcDbSymbolTable
0
VPORT
5
1
100
AcDbSymbolTableRecord
100
AcDbViewportTableRecord
2
*Active
70
0
10
0
20
0
11
1
21
1
12
-1
22
1
13
0
23
0
14
0.5
24
0.5
15
10
25
10
16
0
26
0
36
1
17
0
27
0
37
0
0
ENDTAB
0
TABLE
2
LTYPE
5
2e3
100
AcDbSymbolTable
0
LTYPE
5
14
100
AcDbSymbolTableRecord
100
AcDbLinetypeTableRecord
70
0
2
ByBlock
3

72
65
73
0
40
0
0
LTYPE
5
15
100
AcDbSymbolTableRecord
100
AcDbLinetypeTableRecord
70
0
2
ByLayer
3

72
65
73
0
40
0
0
LTYPE
5
16
100
AcDbSymbolTableRecord
100
AcDbLinetypeTableRecord
70
0
2
CONTINUOUS
3
Solid line
72
65
73
0
40
0
0
LTYPE
5
6A
100
AcDbSymbolTableRecord
100
AcDbLinetypeTableRecord
70
0
2
CENTER
3
____ _ ____ _ ____ _ ____
72
65
73
4
40
47.5
49
22
74
0
49
-8.5
74
0
49
8.5
74
0
49
-8.5
74
0
0
LTYPE
5
6B
100
AcDbSymbolTableRecord
100
AcDbLinetypeTableRecord
70
0
2
DASHED
3
__ __ __ __ __ __ __ __ __
72
65
73
2
40
25.72
49
12.86
74
0
49
-12.86
74
0
0
ENDTAB
0
TABLE
2
LAYER
5
2e4
100
AcDbSymbolTable
0
LAYER
5
10
100
AcDbSymbolTableRecord
100
AcDbLayerTableRecord
2
0
70
0
62
7
6
CONTINUOUS
290
1
370
-3
390
0
0
LAYER
5
6D
100
AcDbSymbolTableRecord
100
AcDbLayerTableRecord
2
81
70
0
62
-3
6
CONTINUOUS
290
1
370
-3
390
0
0
LAYER
5
6F
100
AcDbSymbolTableRecord
100
AcDbLayerTableRecord
2
80
70
0
62
-6
6
CONTINUOUS
290
1
370
-3
390
0
0
LAYER
5
71
100
AcDbSymbolTableRecord
100
AcDbLayerTableRecord
2
1
70
0
62
4
6
CONTINUOUS
290
1
370
-3
390
0
0
LAYER
5
229
100
AcDbSymbolTableRecord
100
AcDbLayerTableRecord
2
2
70
0
62
7
6
CONTINUOUS
290
1
370
-3
390
0
0
LAYER
5
2cf
100
AcDbSymbolTableRecord
100
AcDbLayerTableRecord
2
SK1
70
0
62
4
6
CONTINUOUS
290
1
370
-3
390
0
0
LAYER
5
2d0
100
AcDbSymbolTableRecord
100
AcDbLayerTableRecord
2
SK6
70
0
62
5
6
CONTINUOUS
290
1
370
-3
390
0
0
LAYER
5
2d1
100
AcDbSymbolTableRecord
100
AcDbLayerTableRecord
2
SK2
70
0
62
7
6
CONTINUOUS
290
1
370
-3
390
0
0
ENDTAB
0
TABLE
2
STYLE
5
2e5
100
AcDbSymbolTable
0
STYLE
5
11
100
AcDbSymbolTableRecord
100
AcDbTextStyleTableRecord
2
Standard
3
txt
70
0
71
0
40
0
41
1
42
0
50
0
0
STYLE
5
224
100
AcDbSymbolTableRecord
100
AcDbTextStyleTableRecord
2
iso_b_vert
3
simplex.shx
70
0
71
0
40
0
41
1
42
0
50
0
0
STYLE
5
225
100
AcDbSymbolTableRecord
100
AcDbTextStyleTableRecord
2
DWGDirectTextStyle
3
simplex
70
0
71
0
40
0
41
1
42
0
50
0
0
ENDTAB
0
TABLE
2
DIMSTYLE
5
2e6
100
AcDbSymbolTable
100
AcDbDimStyleTable
0
DIMSTYLE
105
27
100
AcDbSymbolTableRecord
100
AcDbDimStyleTableRecord
2
Standard
70
0
3
<>
41
0.18
42
0.0625
44
0.18
140
0.18
147
0.09
73
0
74
0
77
1
271
2
275
0
278
52
280
0
340
11
0
ENDTAB
0
TABLE
2
VIEW
5
2e7
100
AcDbSymbolTable
0
ENDTAB
0
TABLE
2
UCS
5
2e8
100
AcDbSymbolTable
0
ENDTAB
0
TABLE
2
APPID
5
2e9
100
AcDbSymbolTable
0
APPID
5
12
100
AcDbSymbolTableRecord
100
AcDbRegAppTableRecord
2
ACAD
70
0
0
ENDTAB
0
TABLE
2
BLOCK_RECORD
5
2ea
100
AcDbSymbolTable
0
BLOCK_RECORD
5
1F
100
AcDbSymbolTableRecord
100
AcDbBlockTableRecord
2
*Model_Space
340
0
70
0
0
BLOCK_RECORD
5
1B
100
AcDbSymbolTableRecord
100
AcDbBlockTableRecord
2
*Paper_Space
340
0
70
0
0
BLOCK_RECORD
5
23
100
AcDbSymbolTableRecord
100
AcDbBlockTableRecord
2
*Paper_Space0
340
0
70
0
0
BLOCK_RECORD
5
227
100
AcDbSymbolTableRecord
100
AcDbBlockTableRecord
2
DimnDraft3D1
340
0
70
0
0
BLOCK_RECORD
5
236
100
AcDbSymbolTableRecord
100
AcDbBlockTableRecord
2
_CLOSED
340
0
70
0
0
BLOCK_RECORD
5
23D
100
AcDbSymbolTableRecord
100
AcDbBlockTableRecord
2
DimnDraft3D2
340
0
70
0
0
BLOCK_RECORD
5
24C
100
AcDbSymbolTableRecord
100
AcDbBlockTableRecord
2
DimnDraft3D3
340
0
70
0
0
BLOCK_RECORD
5
25A
100
AcDbSymbolTableRecord
100
AcDbBlockTableRecord
2
DimnDraft3D4
340
0
70
0
0
BLOCK_RECORD
5
268
100
AcDbSymbolTableRecord
100
AcDbBlockTableRecord
2
DimnDraft3D5
340
0
70
0
0
ENDTAB
0
ENDSEC
0
SECTION
2
BLOCKS
0
BLOCK
5
20
100
AcDbEntity
8
0
100
AcDbBlockBegin
2
*Model_Space
70
0
10
0
20
0
30
0
3
*Model_Space
0
ENDBLK
5
21
100
AcDbEntity
8
0
100
AcDbBlockEnd
0
BLOCK
5
1C
100
AcDbEntity
8
0
100
AcDbBlockBegin
2
*Paper_Space
70
0
10
0
20
0
30
0
3
*Paper_Space
0
ENDBLK
5
1D
100
AcDbEntity
8
0
100
AcDbBlockEnd
0
BLOCK
5
24
100
AcDbEntity
8
0
100
AcDbBlockBegin
2
*Paper_Space0
70
0
10
0
20
0
30
0
3
*Paper_Space0
0
ENDBLK
5
25
100
AcDbEntity
8
0
100
AcDbBlockEnd
0
BLOCK
5
233
100
AcDbEntity
8
0
100
AcDbBlockBegin
2
DimnDraft3D1
70
0
10
0
20
0
30
0
3
DimnDraft3D1
0
MTEXT
5
228
100
AcDbEntity
8
2
62
256
6
ByLayer
370
18
48
1
60
0
100
AcDbMText
10
99.225
20
21.1
30
0
210
0
220
0
230
1
1
\W0.7361;45
40
3.5
41
0
44
1.084337
50
90
71
7
72
5
7
iso_b_vert
0
LINE
5
22A
100
AcDbEntity
8
2
62
256
6
ByLayer
370
13
48
1
60
0
100
AcDbLine
10
45
20
0
30
0
11
102.1
21
0
31
0
39
0
210
0
220
0
230
1
0
LINE
5
22B
100
AcDbEntity
8
2
62
256
6
ByLayer
370
13
48
1
60
0
100
AcDbLine
10
77
20
45
30
0
11
102.1
21
45
31
0
39
0
210
0
220
0
230
1
0
LINE
5
22C
100
AcDbEntity
8
2
62
256
6
ByLayer
370
13
48
1
60
0
100
AcDbLine
10
100.1
20
0
30
0
11
100.1
21
45
31
0
39
0
210
0
220
0
230
1
0
LINE
5
22D
100
AcDbEntity
8
2
62
256
6
ByLayer
370
13
48
1
60
0
100
AcDbLine
10
100.1
20
0
30
0
11
99.682003
21
3.174998
31
0
39
0
210
0
220
0
230
1
0
LINE
5
22E
100
AcDbEntity
8
2
62
256
6
ByLayer
370
13
48
1
60
0
100
AcDbLine
10
100.1
20
0
30
0
11
100.517997
21
3.175002
31
0
39
0
210
0
220
0
230
1
0
LINE
5
22F
100
AcDbEntity
8
2
62
256
6
ByLayer
370
13
48
1
60
0
100
AcDbLine
10
99.682003
20
3.174998
30
0
11
100.517997
21
3.175002
31
0
39
0
210
0
220
0
230
1
0
LINE
5
230
100
AcDbEntity
8
2
62
256
6
ByLayer
370
13
48
1
60
0
100
AcDbLine
10
100.1
20
45
30
0
11
100.517997
21
41.825002
31
0
39
0
210
0
220
0
230
1
0
LINE
5
231
100
AcDbEntity
8
2
62
256
6
ByLayer
370
13
48
1
60
0
100
AcDbLine
10
100.1
20
45
30
0
11
99.682003
21
41.824998
31
0
39
0
210
0
220
0
230
1
0
LINE
5
232
100
AcDbEntity
8
2
62
256
6
ByLayer
370
13
48
1
60
0
100
AcDbLine
10
100.517997
20
41.825002
30
0
11
99.682003
21
41.824998
31
0
39
0
210
0
220
0
230
1
0
ENDBLK
5
234
100
AcDbEntity
8
0
100
AcDbBlockEnd
0
BLOCK
5
237
100
AcDbEntity
8
0
100
AcDbBlockBegin
2
_CLOSED
70
0
10
0
20
0
30
0
3
_CLOSED
0
LINE
5
239
100
AcDbEntity
8
0
62
256
6
ByLayer
370
-2
48
1
60
0
100
AcDbLine
10
-1
20
0.166667
30
0
11
0
21
0
31
0
39
0
210
0
220
0
230
1
0
LINE
5
23A
100
AcDbEntity
8
0
62
256
6
ByLayer
370
-2
48
1
60
0
100
AcDbLine
10
0
20
0
30
0
11
-1
21
-0.166667
31
0
39
0
210
0
220
0
230
1
0
LINE
5
23B
100
AcDbEntity
8
0
62
256
6
ByLayer
370
-2
48
1
60
0
100
AcDbLine
10
-1
20
0.166667
30
0
11
-1
21
-0.166667
31
0
39
0
210
0
220
0
230
1
0
LINE
5
23C
100
AcDbEntity
8
0
62
256
6
ByLayer
370
-2
48
1
60
0
100
AcDbLine
10
0
20
0
30
0
11
-1
21
0
31
0
39
0
210
0
220
0
230
1
0
ENDBLK
5
238
100
AcDbEntity
8
0
100
AcDbBlockEnd
0
BLOCK
5
249
100
AcDbEntity
8
0
100
AcDbBlockBegin
2
DimnDraft3D2
70
0
10
0
20
0
30
0
3
DimnDraft3D2
0
MTEXT
5
23E
100
AcDbEntity
8
SK2
62
256
6
ByLayer
370
18
48
1
60
0
100
AcDbMText
10
36.284211
20
68.486273
30
0
210
0
220
0
230
1
1
\W0.6740;75
40
3.5
41
0
44
1.084337
50
0
71
7
72
5
7
iso_b_vert
0
LINE
5
240
100
AcDbEntity
8
SK2
62
256
6
ByLayer
370
13
48
1
60
0
100
AcDbLine
10
0
20
2
30
0
11
0
21
69.611273
31
0
39
0
210
0
220
0
230
1
0
LINE
5
241
100
AcDbEntity
8
SK2
62
256
6
ByLayer
370
13
48
1
60
0
100
AcDbLine
10
75
20
47
30
0
11
75
21
69.611273
31
0
39
0
210
0
220
0
230
1
0
LINE
5
242
100
AcDbEntity
8
SK2
62
256
6
ByLayer
370
13
48
1
60
0
100
AcDbLine
10
0
20
67.611273
30
0
11
75
21
67.611273
31
0
39
0
210
0
220
0
230
1
0
LINE
5
243
100
AcDbEntity
8
SK2
62
256
6
ByLayer
370
13
48
1
60
0
100
AcDbLine
10
0
20
67.611273
30
0
11
3.174998
21
68.029269
31
0
39
0
210
0
220
0
230
1
0
LINE
5
244
100
AcDbEntity
8
SK2
62
256
6
ByLayer
370
13
48
1
60
0
100
AcDbLine
10
0
20
67.611273
30
0
11
3.175002
21
67.193276
31
0
39
0
210
0
220
0
230
1
0
LINE
5
245
100
AcDbEntity
8
SK2
62
256
6
ByLayer
370
13
48
1
60
0
100
AcDbLine
10
3.174998
20
68.029269
30
0
11
3.175002
21
67.193276
31
0
39
0
210
0
220
0
230
1
0
LINE
5
246
100
AcDbEntity
8
SK2
62
256
6
ByLayer
370
13
48
1
60
0
100
AcDbLine
10
75
20
67.611273
30
0
11
71.825002
21
67.193276
31
0
39
0
210
0
220
0
230
1
0
LINE
5
247
100
AcDbEntity
8
SK2
62
256
6
ByLayer
370
13
48
1
60
0
100
AcDbLine
10
75
20
67.611273
30
0
11
71.824998
21
68.029269
31
0
39
0
210
0
220
0
230
1
0
LINE
5
248
100
AcDbEntity
8
SK2
62
256
6
ByLayer
370
13
48
1
60
0
100
AcDbLine
10
71.825002
20
67.193276
30
0
11
71.824998
21
68.029269
31
0
39
0
210
0
220
0
230
1
0
ENDBLK
5
24A
100
AcDbEntity
8
0
100
AcDbBlockEnd
0
BLOCK
5
257
100
AcDbEntity
8
0
100
AcDbBlockBegin
2
DimnDraft3D3
70
0
10
0
20
0
30
0
3
DimnDraft3D3
0
MTEXT
5
24D
100
AcDbEntity
8
2
62
256
6
ByLayer
370
18
48
1
60
0
100
AcDbMText
10
57.784211
20
-43.725
30
0
210
0
220
0
230
1
1
\W0.6740;32
40
3.5
41
0
44
1.084337
50
0
71
7
72
5
7
iso_b_vert
0
LINE
5
24E
100
AcDbEntity
8
2
62
256
6
ByLayer
370
13
48
1
60
0
100
AcDbLine
10
75
20
43
30
0
11
75
21
-46.6
31
0
39
0
210
0
220
0
230
1
0
LINE
5
24F
100
AcDbEntity
8
2
62
256
6
ByLayer
370
13
48
1
60
0
100
AcDbLine
10
43
20
-2
30
0
11
43
21
-46.6
31
0
39
0
210
0
220
0
230
1
0
LINE
5
250
100
AcDbEntity
8
2
62
256
6
ByLayer
370
13
48
1
60
0
100
AcDbLine
10
75
20
-44.6
30
0
11
43
21
-44.6
31
0
39
0
210
0
220
0
230
1
0
LINE
5
251
100
AcDbEntity
8
2
62
256
6
ByLayer
370
13
48
1
60
0
100
AcDbLine
10
75
20
-44.6
30
0
11
71.825002
21
-45.017997
31
0
39
0
210
0
220
0
230
1
0
LINE
5
252
100
AcDbEntity
8
2
62
256
6
ByLayer
370
13
48
1
60
0
100
AcDbLine
10
75
20
-44.6
30
0
11
71.824998
21
-44.182003
31
0
39
0
210
0
220
0
230
1
0
LINE
5
253
100
AcDbEntity
8
2
62
256
6
ByLayer
370
13
48
1
60
0
100
AcDbLine
10
71.825002
20
-45.017997
30
0
11
71.824998
21
-44.182003
31
0
39
0
210
0
220
0
230
1
0
LINE
5
254
100
AcDbEntity
8
2
62
256
6
ByLayer
370
13
48
1
60
0
100
AcDbLine
10
43
20
-44.6
30
0
11
46.174998
21
-44.182003
31
0
39
0
210
0
220
0
230
1
0
LINE
5
255
100
AcDbEntity
8
2
62
256
6
ByLayer
370
13
48
1
60
0
100
AcDbLine
10
43
20
-44.6
30
0
11
46.175002
21
-45.017997
31
0
39
0
210
0
220
0
230
1
0
LINE
5
256
100
AcDbEntity
8
2
62
256
6
ByLayer
370
13
48
1
60
0
100
AcDbLine
10
46.174998
20
-44.182003
30
0
11
46.175002
21
-45.017997
31
0
39
0
210
0
220
0
230
1
0
ENDBLK
5
258
100
AcDbEntity
8
0
100
AcDbBlockEnd
0
BLOCK
5
265
100
AcDbEntity
8
0
100
AcDbBlockBegin
2
DimnDraft3D4
70
0
10
0
20
0
30
0
3
DimnDraft3D4
0
MTEXT
5
25B
100
AcDbEntity
8
SK2
62
256
6
ByLayer
370
18
48
1
60
0
100
AcDbMText
10
-48.475
20
-1.215789
30
0
210
0
220
0
230
1
1
\W0.6740;63
40
3.5
41
0
44
1.084337
50
90
71
7
72
5
7
iso_b_vert
0
LINE
5
25C
100
AcDbEntity
8
SK2
62
256
6
ByLayer
370
13
48
1
60
0
100
AcDbLine
10
-2
20
31.5
30
0
11
-49.6
21
31.5
31
0
39
0
210
0
220
0
230
1
0
LINE
5
25D
100
AcDbEntity
8
SK2
62
256
6
ByLayer
370
13
48
1
60
0
100
AcDbLine
10
-2
20
-31.5
30
0
11
-49.6
21
-31.5
31
0
39
0
210
0
220
0
230
1
0
LINE
5
25E
100
AcDbEntity
8
SK2
62
256
6
ByLayer
370
13
48
1
60
0
100
AcDbLine
10
-47.6
20
31.5
30
0
11
-47.6
21
-31.5
31
0
39
0
210
0
220
0
230
1
0
LINE
5
25F
100
AcDbEntity
8
SK2
62
256
6
ByLayer
370
13
48
1
60
0
100
AcDbLine
10
-47.6
20
31.5
30
0
11
-47.182003
21
28.325002
31
0
39
0
210
0
220
0
230
1
0
LINE
5
260
100
AcDbEntity
8
SK2
62
256
6
ByLayer
370
13
48
1
60
0
100
AcDbLine
10
-47.6
20
31.5
30
0
11
-48.017997
21
28.324998
31
0
39
0
210
0
220
0
230
1
0
LINE
5
261
100
AcDbEntity
8
SK2
62
256
6
ByLayer
370
13
48
1
60
0
100
AcDbLine
10
-47.182003
20
28.325002
30
0
11
-48.017997
21
28.324998
31
0
39
0
210
0
220
0
230
1
0
LINE
5
262
100
AcDbEntity
8
SK2
62
256
6
ByLayer
370
13
48
1
60
0
100
AcDbLine
10
-47.6
20
-31.5
30
0
11
-48.017997
21
-28.325002
31
0
39
0
210
0
220
0
230
1
0
LINE
5
263
100
AcDbEntity
8
SK2
62
256
6
ByLayer
370
13
48
1
60
0
100
AcDbLine
10
-47.6
20
-31.5
30
0
11
-47.182003
21
-28.324998
31
0
39
0
210
0
220
0
230
1
0
LINE
5
264
100
AcDbEntity
8
SK2
62
256
6
ByLayer
370
13
48
1
60
0
100
AcDbLine
10
-48.017997
20
-28.325002
30
0
11
-47.182003
21
-28.324998
31
0
39
0
210
0
220
0
230
1
0
ENDBLK
5
266
100
AcDbEntity
8
0
100
AcDbBlockEnd
0
BLOCK
5
273
100
AcDbEntity
8
0
100
AcDbBlockBegin
2
DimnDraft3D5
70
0
10
0
20
0
30
0
3
DimnDraft3D5
0
MTEXT
5
269
100
AcDbEntity
8
2
62
256
6
ByLayer
370
18
48
1
60
0
100
AcDbMText
10
92.225
20
29.685789
30
0
210
0
220
0
230
1
1
\W0.6380;4
40
3.5
41
0
44
1.084337
50
90
71
7
72
5
7
iso_b_vert
0
LINE
5
26A
100
AcDbEntity
8
2
62
256
6
ByLayer
370
13
48
1
60
0
100
AcDbLine
10
77
20
45
30
0
11
95.1
21
45
31
0
39
0
210
0
220
0
230
1
0
LINE
5
26B
100
AcDbEntity
8
2
62
256
6
ByLayer
370
13
48
1
60
0
100
AcDbLine
10
77
20
41
30
0
11
95.1
21
41
31
0
39
0
210
0
220
0
230
1
0
LINE
5
26C
100
AcDbEntity
8
2
62
256
6
ByLayer
370
13
48
1
60
0
100
AcDbLine
10
93.1
20
28.810789
30
0
11
93.1
21
53.75
31
0
39
0
210
0
220
0
230
1
0
LINE
5
26D
100
AcDbEntity
8
2
62
256
6
ByLayer
370
13
48
1
60
0
100
AcDbLine
10
93.1
20
45
30
0
11
92.682003
21
48.174998
31
0
39
0
210
0
220
0
230
1
0
LINE
5
26E
100
AcDbEntity
8
2
62
256
6
ByLayer
370
13
48
1
60
0
100
AcDbLine
10
93.1
20
45
30
0
11
93.517997
21
48.175002
31
0
39
0
210
0
220
0
230
1
0
LINE
5
26F
100
AcDbEntity
8
2
62
256
6
ByLayer
370
13
48
1
60
0
100
AcDbLine
10
92.682003
20
48.174998
30
0
11
93.517997
21
48.175002
31
0
39
0
210
0
220
0
230
1
0
LINE
5
270
100
AcDbEntity
8
2
62
256
6
ByLayer
370
13
48
1
60
0
100
AcDbLine
10
93.1
20
41
30
0
11
93.517997
21
37.825002
31
0
39
0
210
0
220
0
230
1
0
LINE
5
271
100
AcDbEntity
8
2
62
256
6
ByLayer
370
13
48
1
60
0
100
AcDbLine
10
93.1
20
41
30
0
11
92.682003
21
37.824998
31
0
39
0
210
0
220
0
230
1
0
LINE
5
272
100
AcDbEntity
8
2
62
256
6
ByLayer
370
13
48
1
60
0
100
AcDbLine
10
93.517997
20
37.825002
30
0
11
92.682003
21
37.824998
31
0
39
0
210
0
220
0
230
1
0
ENDBLK
5
274
100
AcDbEntity
8
0
100
AcDbBlockEnd
0
ENDSEC
0
SECTION
2
ENTITIES
0
ARC
5
F9
100
AcDbEntity
8
1
62
256
6
ByLayer
370
13
48
1
60
0
100
AcDbCircle
39
0
10
-22.279208
20
32.7
30
0
40
1.2
210
0
220
0
230
-1
100
AcDbArc
50
195
51
270
0
ARC
5
FA
100
AcDbEntity
8
1
62
256
6
ByLayer
370
13
48
1
60
0
100
AcDbCircle
39
0
10
-26.170412
20
-14.5
30
0
40
3.99999999999997
210
0
220
0
230
-1
100
AcDbArc
50
0.5
51
90
0
ARC
5
FB
100
AcDbEntity
8
1
62
256
6
ByLayer
370
13
48
1
60
0
100
AcDbCircle
39
0
10
-43
20
39.725
30
0
40
1.6
210
0
220
0
230
-1
100
AcDbArc
50
0
51
89.324356
0
ELLIPSE
5
FC
100
AcDbEntity
8
1
62
256
6
ByLayer
370
13
48
1
60
0
100
AcDbEllipse
10
-2.347154
20
0
30
0
11
14.7536831606547
21
31.09325491558
31
0
210
0
220
0
230
-1
40
0.341999
41
0.157806186645465
42
1.09123958575284
0
ELLIPSE
5
FD
100
AcDbEntity
8
1
62
256
6
ByLayer
370
13
48
1
60
0
100
AcDbEllipse
10
68.648998
20
43
30
0
11
1.61369817750694
21
1.63086640130374E-15
31
0
210
0
220
0
230
-1
40
0.464771
41
1.15436932245045
42
-1.15436932245043
0
ELLIPSE
5
FE
100
AcDbEntity
8
1
62
256
6
ByLayer
370
13
48
1
60
0
100
AcDbEllipse
10
26.347154
20
0
30
0
11
14.7536831606571
21
31.0932549155819
31
0
210
0
220
0
230
-1
40
0.341999
41
-2.98378646694434
42
-2.05035306783702
0
ELLIPSE
5
FF
100
AcDbEntity
8
1
62
256
6
ByLayer
370
13
48
1
60
0
100
AcDbEllipse
10
26.347154
20
0
30
0
11
14.7536831606553
21
-31.0932549155796
31
0
210
0
220
0
230
-1
40
0.341999
41
2.05035306783696
42
2.98378646694433
0
ELLIPSE
5
100
100
AcDbEntity
8
1
62
256
6
ByLayer
370
13
48
1
60
0
100
AcDbEllipse
10
22.274896
20
0
30
0
11
-1.92875500727023E-15
21
31.4999999999997
31
0
210
0
220
0
230
-1
40
0.008727
41
-2.41256343763503
42
-0.389292350742214
0
ELLIPSE
5
101
100
AcDbEntity
8
1
62
256
6
ByLayer
370
13
48
1
60
0
100
AcDbEllipse
10
-2.347154
20
0
30
0
11
14.7536831606547
21
-31.09325491558
31
0
210
0
220
0
230
-1
40
0.341999
41
-1.09123958575284
42
-0.15780618664547
0
ELLIPSE
5
102
100
AcDbEntity
8
1
62
256
6
ByLayer
370
13
48
1
60
0
100
AcDbEllipse
10
70.764493
20
43
30
0
11
1.63188719379139
21
1.7816493550975E-08
31
0
210
0
220
0
230
-1
40
0.459591
41
-2.00702502929527
42
-1.95476874727616
0
ELLIPSE
5
103
100
AcDbEntity
8
1
62
256
6
ByLayer
370
13
48
1
60
0
100
AcDbEllipse
10
70.764493
20
43
30
0
11
1.63188719379139
21
-1.78164924265876E-08
31
0
210
0
220
0
230
-1
40
0.459591
41
1.95476874727616
42
2.00702502929527
0
ELLIPSE
5
104
100
AcDbEntity
8
1
62
256
6
ByLayer
370
13
48
1
60
0
100
AcDbEllipse
10
70.64586
20
43.458356
30
0
11
0.799644302091562
21
0.0600592121783041
31
0
210
0
220
0
230
-1
40
0.397167
41
-1.89004086455544
42
-1.17447974407972
0
ELLIPSE
5
105
100
AcDbEntity
8
1
62
256
6
ByLayer
370
13
48
1
60
0
100
AcDbEllipse
10
71.290882
20
44.169715
30
0
11
0.999555377581732
21
0.0750740152156425
31
0
210
0
220
0
230
-1
40
0.397167
41
1.60061763941994
42
1.96711290951095
0
ELLIPSE
5
106
100
AcDbEntity
8
1
62
256
6
ByLayer
370
13
48
1
60
0
100
AcDbEllipse
10
71.290882
20
41.830285
30
0
11
0.999555377565414
21
-0.075074015211374
31
0
210
0
220
0
230
-1
40
0.397167
41
-1.96711290950961
42
-1.60061763941272
0
ELLIPSE
5
107
100
AcDbEntity
8
1
62
256
6
ByLayer
370
13
48
1
60
0
100
AcDbEllipse
10
70.64586
20
42.541644
30
0
11
0.799644302084476
21
-0.0600592121782238
31
0
210
0
220
0
230
-1
40
0.397167
41
1.17447974407461
42
1.89004086455698
0
ELLIPSE
5
108
100
AcDbEntity
8
1
62
256
6
ByLayer
370
13
48
1
60
0
100
AcDbEllipse
10
70.64
20
43.551074
30
0
11
0.899768154435347
21
0.057795647232665
31
0
210
0
220
0
230
-1
40
0.353437
41
-1.8971634006844
42
-1.18160228019202
0
ELLIPSE
5
109
100
AcDbEntity
8
1
62
256
6
ByLayer
370
13
48
1
60
0
100
AcDbEllipse
10
70.926677
20
43.867234
30
0
11
-0.00896052458610162
21
-0.0995977359137338
31
0
210
0
220
0
230
1
40
0.357088
41
0.407276239897922
42
1.60291149819101
0
ELLIPSE
5
10A
100
AcDbEntity
8
1
62
256
6
ByLayer
370
13
48
1
60
0
100
AcDbEllipse
10
70.366384
20
43.83377
30
0
11
0.0204060592957395
21
-0.0978958259785307
31
0
210
0
220
0
230
1
40
0.335642
41
-1.64064594521358
42
-0.403652442248878
0
ELLIPSE
5
10B
100
AcDbEntity
8
1
62
256
6
ByLayer
370
13
48
1
60
0
100
AcDbEllipse
10
70.926677
20
42.132766
30
0
11
0.00896052458610168
21
-0.0995977359137339
31
0
210
0
220
0
230
1
40
0.357088
41
1.53868115539878
42
2.73431641369187
0
ELLIPSE
5
10C
100
AcDbEntity
8
1
62
256
6
ByLayer
370
13
48
1
60
0
100
AcDbEllipse
10
70.64
20
42.448926
30
0
11
0.899768154445419
21
-0.0577956472340861
31
0
210
0
220
0
230
-1
40
0.353437
41
1.18160228019416
42
1.89716340067815
0
ELLIPSE
5
10D
100
AcDbEntity
8
1
62
256
6
ByLayer
370
13
48
1
60
0
100
AcDbEllipse
10
70.366384
20
42.16623
30
0
11
-0.02040605929574
21
-0.0978958259785306
31
0
210
0
220
0
230
1
40
0.335642
41
-2.73794021134041
42
-1.50094670837607
0
ELLIPSE
5
10E
100
AcDbEntity
8
1
62
256
6
ByLayer
370
13
48
1
60
0
100
AcDbEllipse
10
71.285022
20
41.737567
30
0
11
0.899334981215533
21
-0.0784946154446017
31
0
210
0
220
0
230
-1
40
0.44069
41
-1.97573638559571
42
-1.6092411155547
0
ELLIPSE
5
10F
100
AcDbEntity
8
1
62
256
6
ByLayer
370
13
48
1
60
0
100
AcDbEllipse
10
71.285022
20
44.262433
30
0
11
0.899334981222702
21
0.0784946154465838
31
0
210
0
220
0
230
-1
40
0.44069
41
1.60924111555782
42
1.97573638559592
0
ELLIPSE
5
110
100
AcDbEntity
8
1
62
256
6
ByLayer
370
13
48
1
60
0
100
AcDbEllipse
10
70.147318
20
42.211894
30
0
11
-0.02040605929574
21
-0.0978958259785306
31
0
210
0
220
0
230
1
40
0.335642
41
-2.73794021134067
42
-1.50094670837607
0
ELLIPSE
5
111
100
AcDbEntity
8
1
62
256
6
ByLayer
370
13
48
1
60
0
100
AcDbEllipse
10
70.147318
20
43.788106
30
0
11
0.0204060592957395
21
-0.0978958259785307
31
0
210
0
220
0
230
1
40
0.335642
41
-1.64064594521358
42
-0.403652442248933
0
ELLIPSE
5
112
100
AcDbEntity
8
1
62
256
6
ByLayer
370
13
48
1
60
0
100
AcDbEllipse
10
70.730291
20
43
30
0
11
1.64753056455477
21
-5.37755416199608E-08
31
0
210
0
220
0
230
-1
40
0.515924
41
1.95476872179722
42
1.99606335437443
0
ELLIPSE
5
113
100
AcDbEntity
8
1
62
256
6
ByLayer
370
13
48
1
60
0
100
AcDbEllipse
10
70.730291
20
43
30
0
11
1.64753065507876
21
1.36280891254666E-08
31
0
210
0
220
0
230
-1
40
0.515924
41
-1.99606338354253
42
-1.95476875292375
0
ELLIPSE
5
114
100
AcDbEntity
8
1
62
256
6
ByLayer
370
13
48
1
60
0
100
AcDbEllipse
10
71.809145
20
44.085043
30
0
11
0.0993076742641672
21
0.21849024196115
31
0
210
0
220
0
230
1
40
0.684643
41
-1.82065987921353
42
-1.32093277447545
0
ELLIPSE
5
115
100
AcDbEntity
8
1
62
256
6
ByLayer
370
13
48
1
60
0
100
AcDbEllipse
10
71.809145
20
41.914957
30
0
11
0.0993076742641673
21
-0.218490241961151
31
0
210
0
220
0
230
1
40
0.684643
41
1.32093277447539
42
1.82065987921347
0
ELLIPSE
5
116
100
AcDbEntity
8
1
62
256
6
ByLayer
370
13
48
1
60
0
100
AcDbEllipse
10
71.765057
20
42.135833
30
0
11
0.0628430094928668
21
-0.0777866065455966
31
0
210
0
220
0
230
1
40
0.861674
41
1.63965370412772
42
2.32457401880089
0
ELLIPSE
5
117
100
AcDbEntity
8
1
62
256
6
ByLayer
370
13
48
1
60
0
100
AcDbEllipse
10
71.765057
20
43.864167
30
0
11
-0.0628430094928667
21
-0.0777866065455968
31
0
210
0
220
0
230
1
40
0.861674
41
0.817018634789115
42
1.50193894946221
0
ELLIPSE
5
118
100
AcDbEntity
8
1
62
256
6
ByLayer
370
13
48
1
60
0
100
AcDbEllipse
10
73.258781
20
41.624412
30
0
11
0.058481849775624
21
0.23276570461909
31
0
210
0
220
0
230
1
40
0.017037
41
0.664838164894276
42
1.50309079968194
0
ELLIPSE
5
119
100
AcDbEntity
8
1
62
256
6
ByLayer
370
13
48
1
60
0
100
AcDbEllipse
10
72.028622
20
41.883631
30
0
11
0.0296712398023679
21
0.238158807371448
31
0
210
0
220
0
230
1
40
0.701267
41
-1.43405097029585
42
-0.787275740371965
0
ELLIPSE
5
11A
100
AcDbEntity
8
1
62
256
6
ByLayer
370
13
48
1
60
0
100
AcDbEllipse
10
73.258781
20
44.375588
30
0
11
0.0584818497756239
21
-0.23276570461909
31
0
210
0
220
0
230
1
40
0.017037
41
-1.5030907996817
42
-0.664838164894276
0
ELLIPSE
5
11B
100
AcDbEntity
8
1
62
256
6
ByLayer
370
13
48
1
60
0
100
AcDbEllipse
10
72.028622
20
44.116369
30
0
11
0.0296712398023675
21
-0.238158807371448
31
0
210
0
220
0
230
1
40
0.701267
41
0.787275740371935
42
1.43405097029579
0
ELLIPSE
5
11C
100
AcDbEntity
8
1
62
256
6
ByLayer
370
13
48
1
60
0
100
AcDbEllipse
10
70.06768
20
43.774289
30
0
11
-0.0453539127209969
21
-0.0210481020734934
31
0
210
0
220
0
230
1
40
0.15145
41
-1.25535186362526
42
-0.415505137037718
0
ELLIPSE
5
11D
100
AcDbEntity
8
1
62
256
6
ByLayer
370
13
48
1
60
0
100
AcDbEllipse
10
69.646487
20
44.546038
30
0
11
-0.0394011819793233
21
-0.0307822490833963
31
0
210
0
220
0
230
1
40
0.218654
41
-1.29790181863629
42
-0.756489013689268
0
ELLIPSE
5
11E
100
AcDbEntity
8
1
62
256
6
ByLayer
370
13
48
1
60
0
100
AcDbEllipse
10
70.06768
20
42.225711
30
0
11
0.0453539127209971
21
-0.0210481020734929
31
0
210
0
220
0
230
1
40
0.15145
41
-2.72608751655208
42
-1.88624078996426
0
ELLIPSE
5
11F
100
AcDbEntity
8
1
62
256
6
ByLayer
370
13
48
1
60
0
100
AcDbEllipse
10
69.646487
20
41.453962
30
0
11
0.0394011819793204
21
-0.0307822490833999
31
0
210
0
220
0
230
1
40
0.218654
41
-2.38510363989966
42
-1.84369083495395
0
ELLIPSE
5
120
100
AcDbEntity
8
1
62
256
6
ByLayer
370
13
48
1
60
0
100
AcDbEllipse
10
70.071676
20
42.274919
30
0
11
0.0431707448900942
21
0.0252247256800625
31
0
210
0
220
0
230
1
40
0.873615
41
1.03058312084525
42
2.18027064336933
0
ELLIPSE
5
121
100
AcDbEntity
8
1
62
256
6
ByLayer
370
13
48
1
60
0
100
AcDbEllipse
10
70.071676
20
43.725081
30
0
11
0.0431707448900942
21
-0.0252247256800625
31
0
210
0
220
0
230
1
40
0.873615
41
-2.18027064336933
42
-1.03058312084533
0
ELLIPSE
5
122
100
AcDbEntity
8
1
62
256
6
ByLayer
370
13
48
1
60
0
100
AcDbEllipse
10
71.811038
20
41.915167
30
0
11
0.0381290273564358
21
0.236951845894587
31
0
210
0
220
0
230
1
40
0.698537
41
-1.40913325933156
42
-0.804380097280517
0
ELLIPSE
5
123
100
AcDbEntity
8
1
62
256
6
ByLayer
370
13
48
1
60
0
100
AcDbEllipse
10
71.811038
20
44.084833
30
0
11
0.0381290273564358
21
-0.236951845894587
31
0
210
0
220
0
230
1
40
0.698537
41
0.804380097280445
42
1.40913325933156
0
ELLIPSE
5
124
100
AcDbEntity
8
1
62
256
6
ByLayer
370
13
48
1
60
0
100
AcDbEllipse
10
70.001973
20
43.534522
30
0
11
0.0488172744774217
21
-0.0108108146129732
31
0
210
0
220
0
230
1
40
0.649178
41
-2.29846695859513
42
-1.30973779548816
0
ELLIPSE
5
125
100
AcDbEntity
8
1
62
256
6
ByLayer
370
13
48
1
60
0
100
AcDbEllipse
10
70.001973
20
42.465478
30
0
11
0.0488172744774217
21
0.0108108146129732
31
0
210
0
220
0
230
1
40
0.649178
41
1.30973779548816
42
2.29846695859513
0
ELLIPSE
5
126
100
AcDbEntity
8
1
62
256
6
ByLayer
370
13
48
1
60
0
100
AcDbEllipse
10
71.855379
20
43.788106
30
0
11
-0.0663198302365384
21
-0.0748443726501648
31
0
210
0
220
0
230
1
40
0.871893
41
0.856507032384796
42
1.52920128671786
0
ELLIPSE
5
127
100
AcDbEntity
8
1
62
256
6
ByLayer
370
13
48
1
60
0
100
AcDbEllipse
10
71.855379
20
42.211894
30
0
11
0.0663198302365375
21
-0.0748443726501656
31
0
210
0
220
0
230
1
40
0.871893
41
1.61239136687207
42
2.285085621205
0
ELLIPSE
5
128
100
AcDbEntity
8
1
62
256
6
ByLayer
370
13
48
1
60
0
100
AcDbEllipse
10
69.629235
20
44.558521
30
0
11
2.96302531225332E-05
21
-0.0499999912204803
31
0
210
0
220
0
230
1
40
0.687053
41
-1.5712034777797
42
-1.23545988901382
0
ELLIPSE
5
129
100
AcDbEntity
8
1
62
256
6
ByLayer
370
13
48
1
60
0
100
AcDbEllipse
10
69.629235
20
41.441479
30
0
11
-2.96302531218854E-05
21
-0.0499999912204803
31
0
210
0
220
0
230
1
40
0.687053
41
-1.90613276457597
42
-1.57038917580981
0
ELLIPSE
5
12A
100
AcDbEntity
8
1
62
256
6
ByLayer
370
13
48
1
60
0
100
AcDbEllipse
10
72.292029
20
43.487585
30
0
11
0.0874722239911491
21
-0.390318600671352
31
0
210
0
220
0
230
1
40
0.698392
41
-2.41494031332485
42
-2.11118245994087
0
ELLIPSE
5
12B
100
AcDbEntity
8
1
62
256
6
ByLayer
370
13
48
1
60
0
100
AcDbEllipse
10
72.292029
20
42.512415
30
0
11
0.0874722239911492
21
0.390318600671352
31
0
210
0
220
0
230
1
40
0.698392
41
2.1111824599409
42
2.41494031332489
0
ELLIPSE
5
12C
100
AcDbEntity
8
1
62
256
6
ByLayer
370
13
48
1
60
0
100
AcDbEllipse
10
70.046066
20
42.553576
30
0
11
0.0212624954428799
21
-0.0452537985979245
31
0
210
0
220
0
230
1
40
0.397259
41
2.03740170297235
42
2.86665979515088
0
ELLIPSE
5
12D
100
AcDbEntity
8
1
62
256
6
ByLayer
370
13
48
1
60
0
100
AcDbEllipse
10
70.046066
20
43.446424
30
0
11
0.0212624954428813
21
0.0452537985979238
31
0
210
0
220
0
230
1
40
0.397259
41
-2.86665979515088
42
-2.0374017029721
0
ELLIPSE
5
12E
100
AcDbEntity
8
1
62
256
6
ByLayer
370
13
48
1
60
0
100
AcDbEllipse
10
71.872998
20
42.230463
30
0
11
0.0784611863610882
21
-0.0619987276870308
31
0
210
0
220
0
230
1
40
0.873195
41
1.45974972721515
42
2.10501810958149
0
ELLIPSE
5
12F
100
AcDbEntity
8
1
62
256
6
ByLayer
370
13
48
1
60
0
100
AcDbEllipse
10
71.872998
20
43.769537
30
0
11
-0.0784611863611367
21
-0.0619987276869693
31
0
210
0
220
0
230
1
40
0.873195
41
1.03657454400847
42
1.68184292637536
0
ELLIPSE
5
130
100
AcDbEntity
8
1
62
256
6
ByLayer
370
13
48
1
60
0
100
AcDbEllipse
10
71.943585
20
43.673111
30
0
11
-0.0809620682329364
21
-0.058695344853279
31
0
210
0
220
0
230
1
40
0.756283
41
1.17291667305353
42
1.92455286660227
0
ELLIPSE
5
131
100
AcDbEntity
8
1
62
256
6
ByLayer
370
13
48
1
60
0
100
AcDbEllipse
10
71.943585
20
42.326889
30
0
11
0.0809620682329358
21
-0.0586953448532799
31
0
210
0
220
0
230
1
40
0.756283
41
1.21703978698739
42
1.96867598053596
0
ELLIPSE
5
132
100
AcDbEntity
8
1
62
256
6
ByLayer
370
13
48
1
60
0
100
AcDbEllipse
10
70.206238
20
43.379622
30
0
11
0.0173833813679464
21
0.0468808921866525
31
0
210
0
220
0
230
1
40
0.320428
41
-2.92457512659378
42
-1.97909853952183
0
ELLIPSE
5
133
100
AcDbEntity
8
1
62
256
6
ByLayer
370
13
48
1
60
0
100
AcDbEllipse
10
70.206238
20
42.620378
30
0
11
0.0173833813678365
21
-0.0468808921866932
31
0
210
0
220
0
230
1
40
0.320428
41
1.97909853952278
42
2.92457512659514
0
ELLIPSE
5
134
100
AcDbEntity
8
1
62
256
6
ByLayer
370
13
48
1
60
0
100
AcDbEllipse
10
70.350151
20
42.868114
30
0
11
0.0496862814333484
21
0.00559226584901827
31
0
210
0
220
0
230
1
40
0.148777
41
1.39817586461262
42
2.49393692538327
0
ELLIPSE
5
135
100
AcDbEntity
8
1
62
256
6
ByLayer
370
13
48
1
60
0
100
AcDbEllipse
10
70.215466
20
42.623798
30
0
11
0.0173706970697336
21
-0.0468855935582728
31
0
210
0
220
0
230
1
40
0.318454
41
1.97468567311237
42
2.92535400620289
0
ELLIPSE
5
136
100
AcDbEntity
8
1
62
256
6
ByLayer
370
13
48
1
60
0
100
AcDbEllipse
10
70.215466
20
43.376202
30
0
11
0.0173706970696218
21
0.0468855935583142
31
0
210
0
220
0
230
1
40
0.318454
41
-2.92535400620382
42
-1.97468567311263
0
ELLIPSE
5
137
100
AcDbEntity
8
1
62
256
6
ByLayer
370
13
48
1
60
0
100
AcDbEllipse
10
70.350151
20
43.131886
30
0
11
0.0496862814333484
21
-0.00559226584901837
31
0
210
0
220
0
230
1
40
0.148777
41
-2.49393692538344
42
-1.3981758646129
0
ELLIPSE
5
138
100
AcDbEntity
8
1
62
256
6
ByLayer
370
13
48
1
60
0
100
AcDbEllipse
10
72.090562
20
43.51494
30
0
11
-0.0637117915960023
21
-0.0770766346672425
31
0
210
0
220
0
230
1
40
0.52278
41
1.17272243764711
42
1.97869210912809
0
ELLIPSE
5
139
100
AcDbEntity
8
1
62
256
6
ByLayer
370
13
48
1
60
0
100
AcDbEllipse
10
72.090562
20
42.48506
30
0
11
-0.0637117915966215
21
0.0770766346667308
31
0
210
0
220
0
230
1
40
0.52278
41
-1.97869210881555
42
-1.17272243762726
0
ELLIPSE
5
13A
100
AcDbEntity
8
1
62
256
6
ByLayer
370
13
48
1
60
0
100
AcDbEllipse
10
74.147654
20
41.574998
30
0
11
-0.00560126668057452
21
0.239934628204378
31
0
210
0
220
0
230
1
40
0.172043
41
0.732097455141114
42
1.49800588930571
0
ELLIPSE
5
13B
100
AcDbEntity
8
1
62
256
6
ByLayer
370
13
48
1
60
0
100
AcDbEllipse
10
74.147654
20
44.425002
30
0
11
-0.00560126668057479
21
-0.239934628204378
31
0
210
0
220
0
230
1
40
0.172043
41
-1.49800588930571
42
-0.732097455141114
0
ELLIPSE
5
13C
100
AcDbEntity
8
1
62
256
6
ByLayer
370
13
48
1
60
0
100
AcDbEllipse
10
73.758781
20
41.571204
30
0
11
-0.00824662055120358
21
0.239858277425409
31
0
210
0
220
0
230
1
40
0.002403
41
-1.50102444918931
42
-0.709373157682699
0
ELLIPSE
5
13D
100
AcDbEntity
8
1
62
256
6
ByLayer
370
13
48
1
60
0
100
AcDbEllipse
10
73.758781
20
44.428796
30
0
11
-0.00824662055120385
21
-0.239858277425409
31
0
210
0
220
0
230
1
40
0.002403
41
0.709373157682699
42
1.50102444918925
0
ELLIPSE
5
13E
100
AcDbEntity
8
1
62
256
6
ByLayer
370
13
48
1
60
0
100
AcDbEllipse
10
74.913527
20
41.994665
30
0
11
-0.0833341889559587
21
0.055275789917943
31
0
210
0
220
0
230
1
40
0.125151
41
-1.63388084261193
42
-1.00888984397464
0
ELLIPSE
5
13F
100
AcDbEntity
8
1
62
256
6
ByLayer
370
13
48
1
60
0
100
AcDbEllipse
10
74.752853
20
41.845188
30
0
11
-0.0533981556875962
21
0.0845496124719874
31
0
210
0
220
0
230
1
40
0.139768
41
-1.57717485146108
42
-0.74002396527421
0
ELLIPSE
5
140
100
AcDbEntity
8
1
62
256
6
ByLayer
370
13
48
1
60
0
100
AcDbEllipse
10
74.752853
20
44.154812
30
0
11
-0.0533981556875962
21
-0.0845496124719873
31
0
210
0
220
0
230
1
40
0.139768
41
0.740023965274306
42
1.57717485146108
0
ELLIPSE
5
141
100
AcDbEntity
8
1
62
256
6
ByLayer
370
13
48
1
60
0
100
AcDbEllipse
10
74.913527
20
44.005335
30
0
11
-0.0833341889559587
21
-0.055275789917943
31
0
210
0
220
0
230
1
40
0.125151
41
1.00888984397374
42
1.63388084261221
0
ELLIPSE
5
142
100
AcDbEntity
8
1
62
256
6
ByLayer
370
13
48
1
60
0
100
AcDbEllipse
10
74.258678
20
43.82272
30
0
11
0.0148293336171675
21
-0.399725019062444
31
0
210
0
220
0
230
1
40
0.406503
41
1.55571667185628
42
2.3359551506749
0
ELLIPSE
5
143
100
AcDbEntity
8
1
62
256
6
ByLayer
370
13
48
1
60
0
100
AcDbEllipse
10
74.258678
20
42.17728
30
0
11
0.0148293336171678
21
0.399725019062444
31
0
210
0
220
0
230
1
40
0.406503
41
-2.33595515067495
42
-1.55571667185628
0
ELLIPSE
5
144
100
AcDbEntity
8
1
62
256
6
ByLayer
370
13
48
1
60
0
100
AcDbEllipse
10
74.620403
20
44.236901
30
0
11
-0.0518341759381041
21
-0.0855173561612944
31
0
210
0
220
0
230
1
40
0.13986
41
0.736311954699947
42
1.57460332353069
0
ELLIPSE
5
145
100
AcDbEntity
8
1
62
256
6
ByLayer
370
13
48
1
60
0
100
AcDbEllipse
10
74.523358
20
41.685726
30
0
11
-0.0777628762498864
21
0.062872371335467
31
0
210
0
220
0
230
1
40
0.13045
41
-1.62182792903071
42
-1.15581636427974
0
ELLIPSE
5
146
100
AcDbEntity
8
1
62
256
6
ByLayer
370
13
48
1
60
0
100
AcDbEllipse
10
74.523358
20
44.314274
30
0
11
-0.0777628762498865
21
-0.062872371335467
31
0
210
0
220
0
230
1
40
0.13045
41
1.15581636428
42
1.62182792903071
0
ELLIPSE
5
147
100
AcDbEntity
8
1
62
256
6
ByLayer
370
13
48
1
60
0
100
AcDbEllipse
10
74.620403
20
41.763099
30
0
11
-0.051834175938104
21
0.0855173561612944
31
0
210
0
220
0
230
1
40
0.13986
41
-1.57460332353069
42
-0.736311954700043
0
ELLIPSE
5
148
100
AcDbEntity
8
1
62
256
6
ByLayer
370
13
48
1
60
0
100
AcDbEllipse
10
74.935862
20
43.970715
30
0
11
-0.0846493904271148
21
-0.0532398412874971
31
0
210
0
220
0
230
1
40
0.065231
41
1.04577954889724
42
1.67414184501525
0
ELLIPSE
5
149
100
AcDbEntity
8
1
62
256
6
ByLayer
370
13
48
1
60
0
100
AcDbEllipse
10
74.935862
20
42.029285
30
0
11
-0.0846493904271148
21
0.0532398412874971
31
0
210
0
220
0
230
1
40
0.065231
41
-1.67414184501539
42
-1.0457795488989
0
ELLIPSE
5
14A
100
AcDbEntity
8
1
62
256
6
ByLayer
370
18
48
1
60
0
100
AcDbEllipse
10
74.506337
20
44.976339
30
0
11
0.239994305818663
21
0.0170571479180075
31
0
210
0
220
0
230
-1
40
0.096932
41
-1.73802346880573
42
-1.44202876528163
0
ELLIPSE
5
14B
100
AcDbEntity
8
1
62
256
6
ByLayer
370
18
48
1
60
0
100
AcDbEllipse
10
71.285022
20
41.052547
30
0
11
0.898944098337118
21
-0.52385123197823
31
0
210
0
220
0
230
-1
40
0.083195
41
-1.85746854333482
42
-1.74744279791998
0
ELLIPSE
5
14C
100
AcDbEntity
8
1
62
256
6
ByLayer
370
18
48
1
60
0
100
AcDbEllipse
10
71.855207
20
44.845241
30
0
11
0.251841824090583
21
0.0179368089950317
31
0
210
0
220
0
230
-1
40
0.095335
41
-1.55727336992622
42
-0.770655746894929
0
ELLIPSE
5
14D
100
AcDbEntity
8
1
62
256
6
ByLayer
370
18
48
1
60
0
100
AcDbEllipse
10
74.506337
20
41.023661
30
0
11
0.239994305092147
21
-0.0170571478637831
31
0
210
0
220
0
230
-1
40
0.096932
41
1.4420287649998
42
1.73802346942787
0
ELLIPSE
5
14E
100
AcDbEntity
8
1
62
256
6
ByLayer
370
18
48
1
60
0
100
AcDbEllipse
10
71.370355
20
44.432637
30
0
11
0.117518340696116
21
-0.3843851723858
31
1.94289029309403E-16
210
1.60117654267523E-15
220
-1.59252210866294E-17
230
-1
40
0.995153
41
-3.0584188357418
42
-2.91576259201242
0
ELLIPSE
5
14F
100
AcDbEntity
8
1
62
256
6
ByLayer
370
18
48
1
60
0
100
AcDbEllipse
10
71.285022
20
44.947453
30
0
11
0.898944292566144
21
0.523851354542495
31
0
210
0
220
0
230
-1
40
0.083195
41
1.74744285608044
42
1.85746857839292
0
ELLIPSE
5
150
100
AcDbEntity
8
1
62
256
6
ByLayer
370
18
48
1
60
0
100
AcDbEllipse
10
75.048748
20
42.029285
30
0
11
1.1330996904646E-16
21
0.4
31
0
210
0
220
0
230
1
40
0.121869
41
1.5707963267949
42
1.64009079051255
0
ELLIPSE
5
151
100
AcDbEntity
8
1
62
256
6
ByLayer
370
18
48
1
60
0
100
AcDbEllipse
10
71.855207
20
41.154759
30
0
11
0.251841824100825
21
-0.0179368089964715
31
0
210
0
220
0
230
-1
40
0.095335
41
0.770655746890191
42
1.55727336989396
0
ELLIPSE
5
152
100
AcDbEntity
8
1
62
256
6
ByLayer
370
18
48
1
60
0
100
AcDbEllipse
10
71.370355
20
41.567363
30
0
11
0.117518340696115
21
0.3843851723858
31
1.87350135405496E-16
210
1.59612928733378E-15
220
-5.83607263126116E-19
230
-1
40
0.995153
41
2.91576259201242
42
3.05841883574182
0
ELLIPSE
5
153
100
AcDbEntity
8
1
62
256
6
ByLayer
370
18
48
1
60
0
100
AcDbEllipse
10
75.048748
20
43.970715
30
0
11
1.1330996904646E-16
21
0.4
31
0
210
0
220
0
230
1
40
0.121869
41
1.50150186307724
42
1.5707963267949
0
POINT
5
6C
100
AcDbEntity
8
81
62
256
6
ByLayer
370
18
48
1
60
0
100
AcDbPoint
10
75
20
45
30
0
39
0
210
0
220
0
230
1
50
360
0
POINT
5
6E
100
AcDbEntity
8
80
62
256
6
ByLayer
370
18
48
1
60
0
100
AcDbPoint
10
0
20
0
30
0
39
0
210
0
220
0
230
1
50
360
0
SPLINE
5
154
100
AcDbEntity
8
SK1
62
256
6
ByLayer
370
13
48
1
60
0
100
AcDbSpline
70
4
71
2
72
6
73
3
40
0
40
0
40
0
40
1
40
1
40
1
41
1
10
-0.19497688887526
20
21.8639496970129
30
0
41
1
10
-0.995008433397743
20
21.8438664509462
30
0
41
1
10
-1.79503997793927
20
21.8237832115739
30
0
0
SPLINE
5
155
100
AcDbEntity
8
SK1
62
256
6
ByLayer
370
13
48
1
60
0
100
AcDbSpline
70
4
71
2
72
6
73
3
40
0
40
0
40
0
40
1
40
1
40
1
41
1
10
-1.7950399779393
20
-21.8237832285766
30
0
41
1
10
-0.995008433397743
20
-21.8438664676548
30
0
41
1
10
-0.19497688887526
20
-21.8639497134274
30
0
0
SPLINE
5
156
100
AcDbEntity
8
SK1
62
256
6
ByLayer
370
13
48
1
60
0
100
AcDbSpline
70
4
71
2
72
6
73
3
40
0
40
0
40
0
40
1
40
1
40
1
41
1
10
-36.5
20
-21.1524613224033
30
0
41
1
10
-19.2499999976426
20
-21.5855495141177
30
0
41
1
10
-1.99999999999997
20
-22.0186362439356
30
0
0
SPLINE
5
157
100
AcDbEntity
8
SK1
62
256
6
ByLayer
370
13
48
1
60
0
100
AcDbSpline
70
4
71
2
72
6
73
3
40
0
40
0
40
0
40
1
40
1
40
1
41
1
10
-2
20
22.018635875508
30
0
41
1
10
-19.2499999976431
20
21.5855491455243
30
0
41
1
10
-36.5
20
21.1524609537577
30
0
0
SPLINE
5
158
100
AcDbEntity
8
SK1
62
256
6
ByLayer
370
13
48
1
60
0
100
AcDbSpline
70
4
71
3
72
13
73
9
40
0
40
0
40
0
40
0
40
0.239406675533219
40
0.368294170919413
40
0.49992791261167
40
0.631573622066063
40
0.760494133569273
40
1
40
1
40
1
40
1
41
1
10
-1.99999999999997
20
-22.0251209952818
30
0
41
1
10
-1.99909122094999
20
-21.9990737575566
30
0
41
1
10
-1.99103207881223
20
-21.9617163884142
30
0
41
1
10
-1.96563491014859
20
-21.9155180963752
30
0
41
1
10
-1.93886244237064
20
-21.8842503451972
30
0
41
1
10
-1.9062756804654
20
-21.8590943224454
30
0
41
1
10
-1.8588386436661
20
-21.8360608861174
30
0
41
1
10
-1.82110926269922
20
-21.8298912593852
30
0
41
1
10
-1.7950399779393
20
-21.8302933674114
30
0
0
SPLINE
5
159
100
AcDbEntity
8
SK1
62
256
6
ByLayer
370
13
48
1
60
0
100
AcDbSpline
70
4
71
3
72
13
73
9
40
0
40
0
40
0
40
0
40
0.239505865889809
40
0.368426377204455
40
0.500072086585606
40
0.631705828339912
40
0.760593323909239
40
1
40
1
40
1
40
1
41
1
10
-1.79503997793927
20
21.8302932076065
30
0
41
1
10
-1.82110926271039
20
21.8298910995852
30
0
41
1
10
-1.85883864368736
20
21.8360607263468
30
0
41
1
10
-1.90627568048183
20
21.8590941627913
30
0
41
1
10
-1.93886244238607
20
21.8842501856703
30
0
41
1
10
-1.96563491016019
20
21.9155179370028
30
0
41
1
10
-1.99103207882064
20
21.9617162292747
30
0
41
1
10
-1.99909122095849
20
21.9990735985876
30
0
41
1
10
-2
20
22.0251208364275
30
0
0
SPLINE
5
15A
100
AcDbEntity
8
SK1
62
256
6
ByLayer
370
13
48
1
60
0
100
AcDbSpline
70
4
71
2
72
6
73
3
40
0
40
0
40
0
40
1
40
1
40
1
41
1
10
-37.9999999999999
20
-20.2898800072422
30
0
41
1
10
-37.2499998580851
20
-20.7226367943927
30
0
41
1
10
-36.5
20
-21.15539096789
30
0
0
SPLINE
5
15B
100
AcDbEntity
8
SK1
62
256
6
ByLayer
370
13
48
1
60
0
100
AcDbSpline
70
4
71
2
72
6
73
3
40
0
40
0
40
0
40
1
40
1
40
1
41
1
10
-36.5
20
21.1553908654239
30
0
41
1
10
-37.2499998580829
20
20.7226366902559
30
0
41
1
10
-37.9999999999999
20
20.2898799013383
30
0
0
SPLINE
5
15C
100
AcDbEntity
8
SK1
62
256
6
ByLayer
370
13
48
1
60
0
100
AcDbSpline
70
4
71
2
72
6
73
3
40
0
40
0
40
0
40
1
40
1
40
1
41
1
10
-0.19497688887526
20
-21.8704747460204
30
0
41
1
10
-0.050394694287661
20
-21.8819452285152
30
0
41
1
10
-0.0284431992267287
20
-21.9541255320955
30
0
0
SPLINE
5
15D
100
AcDbEntity
8
SK1
62
256
6
ByLayer
370
13
48
1
60
0
100
AcDbSpline
70
4
71
2
72
6
73
3
40
0
40
0
40
0
40
1
40
1
40
1
41
1
10
-0.0279011361396329
20
21.9549104253991
30
0
41
1
10
-0.0497321260497756
20
21.8821482185098
30
0
41
1
10
-0.19497688887526
20
21.8704745864116
30
0
0
SPLINE
5
15E
100
AcDbEntity
8
SK1
62
256
6
ByLayer
370
13
48
1
60
0
100
AcDbSpline
70
4
71
3
72
28
73
24
40
0
40
0
40
0
40
0
40
0.507496970995054
40
0.507496970995054
40
0.601392263310489
40
0.601392263310489
40
0.686650684449212
40
0.686650684449212
40
0.725552601696447
40
0.725552601696447
40
0.757817271394448
40
0.757817271394448
40
0.776565315627846
40
0.776565315627846
40
0.795547246110356
40
0.795547246110356
40
0.812227424228518
40
0.812227424228518
40
0.839506125225867
40
0.839506125225867
40
0.893852081601881
40
0.893852081601881
40
1
40
1
40
1
40
1
41
1
10
2.84E-14
20
-6.51832721803851
30
0
41
1
10
2.84E-14
20
-6.39051441761319
30
0
41
1
10
-0.0024492443046995
20
-6.26067013501378
30
0
41
1
10
-0.0235684783978343
20
-6.10628706371034
30
0
41
1
10
-0.0275227865785439
20
-6.08204171360418
30
0
41
1
10
-0.0373581185364742
20
-6.0361189274808
30
0
41
1
10
-0.0429624475520995
20
-6.01422940095512
30
0
41
1
10
-0.0544674411237622
20
-5.98354037618
30
0
41
1
10
-0.0585956228703708
20
-5.97402407582436
30
0
41
1
10
-0.0677536332753164
20
-5.95770574854222
30
0
41
1
10
-0.0725911733208022
20
-5.95057226823405
30
0
41
1
10
-0.0817350698629298
20
-5.94126730870974
30
0
41
1
10
-0.0854989899223995
20
-5.93823126654053
30
0
41
1
10
-0.0935537009657139
20
-5.93375641092612
30
0
41
1
10
-0.0979639579436196
20
-5.93230968710242
30
0
41
1
10
-0.106111102991065
20
-5.93143686552853
30
0
41
1
10
-0.109953457220854
20
-5.93175809808736
30
0
41
1
10
-0.119521740108837
20
-5.93403248815576
30
0
41
1
10
-0.125085397453461
20
-5.93686267389225
30
0
41
1
10
-0.140226025322107
20
-5.94716754386798
30
0
41
1
10
-0.148822941849829
20
-5.95654506934483
30
0
41
1
10
-0.171647896181383
20
-5.98594702031721
30
0
41
1
10
-0.183906329926316
20
-6.0083039121468
30
0
41
1
10
-0.19497688887526
20
-6.03119623886775
30
0
0
SPLINE
5
15F
100
AcDbEntity
8
SK1
62
256
6
ByLayer
370
13
48
1
60
0
100
AcDbSpline
70
4
71
3
72
39
73
35
40
0
40
0
40
0
40
0
40
0.0209475219586402
40
0.0491271332924858
40
0.0773067446263313
40
0.105486355960177
40
0.161845578627868
40
0.218204801295559
40
0.246384412629405
40
0.27456402396325
40
0.330923246630941
40
0.359102857964787
40
0.387282469298633
40
0.415462080632478
40
0.443641691966324
40
0.471821303300169
40
0.485911108967092
40
0.500000914634015
40
0.514090720300938
40
0.52818052596786
40
0.556360137301706
40
0.584539748635551
40
0.612719359969397
40
0.640898971303242
40
0.669078582637088
40
0.725437805304779
40
0.753617416638625
40
0.78179702797247
40
0.838156250640162
40
0.894515473307853
40
0.922695084641698
40
0.950874695975544
40
0.979054307309389
40
1
40
1
40
1
40
1
41
1
10
-37.9999999999999
20
20.2930915608102
30
0
41
1
10
-37.9999999999999
20
20.2936151488124
30
0
41
1
10
-37.9999999999999
20
20.2527531766527
30
0
41
1
10
-37.9999999999999
20
20.0459061788577
30
0
41
1
10
-37.9999999999999
20
19.657941810806
30
0
41
1
10
-37.9999999999999
20
18.9398394400736
30
0
41
1
10
-37.9999999999999
20
17.7044407938012
30
0
41
1
10
-37.9999999999999
20
16.0627612954466
30
0
41
1
10
-37.9999999999999
20
14.5156411550098
30
0
41
1
10
-37.9999999999999
20
12.8247036179069
30
0
41
1
10
-37.9999999999999
20
10.9474697913535
30
0
41
1
10
-37.9999999999999
20
8.85369717199407
30
0
41
1
10
-37.9999999999999
20
7.20137624192137
30
0
41
1
10
-37.9999999999999
20
5.4683053958629
30
0
41
1
10
-37.9999999999999
20
3.6703314463046
30
0
41
1
10
-37.9999999999999
20
2.14779050597869
30
0
41
1
10
-37.9999999999999
20
0.911746463162729
30
0
41
1
10
-37.9999999999999
20
3.125429942E-07
30
0
41
1
10
-37.9999999999999
20
-0.911746507027686
30
0
41
1
10
-37.9999999999999
20
-2.14779063761867
30
0
41
1
10
-37.9999999999999
20
-3.67033088291635
30
0
41
1
10
-38
20
-5.46830515172144
30
0
41
1
10
-37.9999999999999
20
-7.20137650942678
30
0
41
1
10
-37.9999999999999
20
-8.85369680730159
30
0
41
1
10
-37.9999999999999
20
-10.9474696029844
30
0
41
1
10
-37.9999999999999
20
-12.8247036249507
30
0
41
1
10
-37.9999999999999
20
-14.5156410584188
30
0
41
1
10
-37.9999999999999
20
-16.0627617322199
30
0
41
1
10
-37.9999999999999
20
-17.7044403459471
30
0
41
1
10
-37.9999999999999
20
-18.9398403790117
30
0
41
1
10
-37.9999999999999
20
-19.6579416385018
30
0
41
1
10
-37.9999999999999
20
-20.0459066437045
30
0
41
1
10
-37.9999999999999
20
-20.2527489605577
30
0
41
1
10
-37.9999999999999
20
-20.293612335714
30
0
41
1
10
-37.9999999999999
20
-20.2930918619621
30
0
0
SPLINE
5
160
100
AcDbEntity
8
SK1
62
256
6
ByLayer
370
13
48
1
60
0
100
AcDbSpline
70
4
71
3
72
26
73
22
40
0
40
0
40
0
40
0
40
0.127017927729954
40
0.127017927729954
40
0.15823705421129
40
0.15823705421129
40
0.190026968145123
40
0.190026968145123
40
0.207335818427999
40
0.207335818427999
40
0.224734956868909
40
0.224734956868909
40
0.245850503662629
40
0.245850503662629
40
0.281440603813735
40
0.281440603813735
40
0.387996834144852
40
0.387996834144852
40
0.835133435321982
40
0.835133435321982
40
1
40
1
40
1
40
1
41
1
10
-0.19497688887526
20
6.03119978687556
30
0
41
1
10
-0.181693002446337
20
6.00373062845011
30
0
41
1
10
-0.166836124756145
20
5.97658223440203
30
0
41
1
10
-0.142050052291353
20
5.94985588030096
30
0
41
1
10
-0.136736151758726
20
5.94491338424126
30
0
41
1
10
-0.125040190484441
20
5.93673131376138
30
0
41
1
10
-0.11846063789838
20
5.93340982364481
30
0
41
1
10
-0.107568999494532
20
5.93150540500682
30
0
41
1
10
-0.10349373448139
20
5.93148199797673
30
0
41
1
10
-0.0955006986488058
20
5.93307106226084
30
0
41
1
10
-0.0914919861689043
20
5.9347201987072
30
0
41
1
10
-0.0833557731712347
20
5.93977244020979
30
0
41
1
10
-0.0792517524981804
20
5.94351211698367
30
0
41
1
10
-0.0695520361299486
20
5.95460796354013
30
0
41
1
10
-0.0645769135486773
20
5.96283654379266
30
0
41
1
10
-0.0477164990181507
20
5.99630228539598
30
0
41
1
10
-0.0402705175318658
20
6.02401260946667
30
0
41
1
10
-0.0086504361428297
20
6.16478955582457
30
0
41
1
10
-0.0045491916413312
20
6.28040085327598
30
0
41
1
10
-0.0004670060177148
20
6.43515258623111
30
0
41
1
10
2.84E-14
20
6.47681436300908
30
0
41
1
10
5.68E-14
20
6.51833045883686
30
0
0
SPLINE
5
161
100
AcDbEntity
8
SK1
62
256
6
ByLayer
370
13
48
1
60
0
100
AcDbSpline
70
4
71
3
72
8
73
4
40
0
40
0
40
0
40
0
40
1
40
1
40
1
40
1
41
1
10
-1.3154350650949
20
-4.80312334332319
30
0
41
1
10
-1.55708569514772
20
-3.43421537242514
30
0
41
1
10
-1.7581187420565
20
-1.99176847042219
30
0
41
1
10
-1.79503997793927
20
-0.497935257501581
30
0
0
SPLINE
5
162
100
AcDbEntity
8
SK1
62
256
6
ByLayer
370
13
48
1
60
0
100
AcDbSpline
70
4
71
3
72
8
73
4
40
0
40
0
40
0
40
0
40
1
40
1
40
1
40
1
41
1
10
-1.79503997793924
20
0.497941450131464
30
0
41
1
10
-1.75803826196605
20
1.99502758923325
30
0
41
1
10
-1.55746231783243
20
3.43208263627128
30
0
41
1
10
-1.31543506509487
20
4.80312611568496
30
0
0
SPLINE
5
163
100
AcDbEntity
8
SK1
62
256
6
ByLayer
370
13
48
1
60
0
100
AcDbSpline
70
4
71
3
72
39
73
35
40
0
40
0
40
0
40
0
40
0.0136745854992394
40
0.0422819833791623
40
0.0708893812590851
40
0.0994967791390079
40
0.156711574898854
40
0.213926370658699
40
0.242533768538622
40
0.271141166418545
40
0.328355962178391
40
0.356963360058313
40
0.385570757938236
40
0.414178155818159
40
0.442785553698082
40
0.471392951578005
40
0.485696650517966
40
0.500000349457928
40
0.514304048397889
40
0.52860774733785
40
0.557215145217773
40
0.585822543097696
40
0.614429940977619
40
0.643037338857542
40
0.671644736737465
40
0.72885953249731
40
0.757466930377233
40
0.786074328257156
40
0.843289124017002
40
0.900503919776847
40
0.92911131765677
40
0.957718715536693
40
0.986326113416616
40
1
40
1
40
1
40
1
41
1
10
-1.99999999999997
20
22.0185530017594
30
0
41
1
10
-1.99999999999997
20
22.0102354293097
30
0
41
1
10
-1.99999999999997
20
21.9603732584526
30
0
41
1
10
-1.99999999999997
20
21.7599974084888
30
0
41
1
10
-1.99999999999997
20
21.3465298267009
30
0
41
1
10
-1.99999999999997
20
20.5876291894755
30
0
41
1
10
-2
20
19.2780865684794
30
0
41
1
10
-1.99999999999997
20
17.541033462452
30
0
41
1
10
-1.99999999999997
20
15.9138019420577
30
0
41
1
10
-2
20
14.1329423938392
30
0
41
1
10
-2
20
12.1262044542745
30
0
41
1
10
-2
20
9.90157894844805
30
0
41
1
10
-1.99999999999997
20
8.12476155609346
30
0
41
1
10
-2
20
6.24074256492969
30
0
41
1
10
-1.99999999999997
20
4.25159967761488
30
0
41
1
10
-2
20
2.51118689649604
30
0
41
1
10
-1.99999999999997
20
1.08235400424974
30
0
41
1
10
-1.99999999999997
20
2.27207408E-08
30
0
41
1
10
-1.99999999999997
20
-1.08235390921522
30
0
41
1
10
-1.99999999999997
20
-2.51118690843634
30
0
41
1
10
-1.99999999999997
20
-4.25159964823044
30
0
41
1
10
-2
20
-6.24074217144343
30
0
41
1
10
-1.99999999999994
20
-8.12476166457805
30
0
41
1
10
-1.99999999999997
20
-9.90157877434442
30
0
41
1
10
-2
20
-12.1262042015232
30
0
41
1
10
-1.99999999999994
20
-14.1329423854158
30
0
41
1
10
-2
20
-15.9138017379025
30
0
41
1
10
-1.99999999999997
20
-17.5410339345301
30
0
41
1
10
-1.99999999999997
20
-19.2780860335663
30
0
41
1
10
-1.99999999999994
20
-20.5876301557807
30
0
41
1
10
-1.99999999999997
20
-21.346529659153
30
0
41
1
10
-1.99999999999997
20
-21.7599978216034
30
0
41
1
10
-2
20
-21.9603719664767
30
0
41
1
10
-2
20
-22.01023414003
30
0
41
1
10
-2
20
-22.0185519981614
30
0
0
SPLINE
5
164
100
AcDbEntity
8
SK1
62
256
6
ByLayer
370
13
48
1
60
0
100
AcDbSpline
70
4
71
3
72
10
73
6
40
0
40
0
40
0
40
0
40
0.400830938787558
40
0.400830938787558
40
1
40
1
40
1
40
1
41
1
10
-1.79503997793932
20
-0.497935257497346
30
0
41
1
10
-1.79832582073132
20
-0.364990057322188
30
0
41
1
10
-1.80039222879373
20
-0.231874603741289
30
0
41
1
10
-1.80209524241684
20
0.100177528538865
30
0
41
1
10
-1.79995030817466
20
0.299269925288939
30
0
41
1
10
-1.79503997793921
20
0.497941450125978
30
0
0
SPLINE
5
165
100
AcDbEntity
8
SK1
62
256
6
ByLayer
370
13
48
1
60
0
100
AcDbSpline
70
4
71
3
72
24
73
20
40
0
40
0
40
0
40
0
40
0.0882167025503932
40
0.0882167025503932
40
0.163407185711286
40
0.163407185711286
40
0.193936204017568
40
0.193936204017568
40
0.224999210742354
40
0.224999210742354
40
0.252492596047464
40
0.252492596047464
40
0.284445117859672
40
0.284445117859672
40
0.339507625462962
40
0.339507625462962
40
0.508206772293011
40
0.508206772293011
40
1
40
1
40
1
40
1
41
1
10
-0.19497688887526
20
-6.03119623886772
30
0
41
1
10
-0.225255617399455
20
-6.09380830292898
30
0
41
1
10
-0.259090827933051
20
-6.15517981130753
30
0
41
1
10
-0.333828065101699
20
-6.26130876163637
30
0
41
1
10
-0.373313691233449
20
-6.30837086961631
30
0
41
1
10
-0.442276593128895
20
-6.36083106863163
30
0
41
1
10
-0.464228533248132
20
-6.37447162419409
30
0
41
1
10
-0.511891060090562
20
-6.39512398968876
30
0
41
1
10
-0.538407851727897
20
-6.40212601359639
30
0
41
1
10
-0.588769847053356
20
-6.40516176863215
30
0
41
1
10
-0.613175825667128
20
-6.40234161197515
30
0
41
1
10
-0.662408101361279
20
-6.38862822540193
30
0
41
1
10
-0.687472034227937
20
-6.37650855040604
30
0
41
1
10
-0.748978617614654
20
-6.33732475252938
30
0
41
1
10
-0.782291194817532
20
-6.30542438589063
30
0
41
1
10
-0.900777356860573
20
-6.16934275321932
30
0
41
1
10
-0.961154548901362
20
-6.04757516428981
30
0
41
1
10
-1.16501717694089
20
-5.57099583373571
30
0
41
1
10
-1.24739247760985
20
-5.18857253643472
30
0
41
1
10
-1.31543506509487
20
-4.80312334332316
30
0
0
SPLINE
5
166
100
AcDbEntity
8
SK1
62
256
6
ByLayer
370
13
48
1
60
0
100
AcDbSpline
70
4
71
3
72
23
73
19
40
0
40
0
40
0
40
0
40
0.0151801832063344
40
0.0437400495531878
40
0.100859782246895
40
0.157979514940601
40
0.215099247634308
40
0.272218980328015
40
0.329338713021721
40
0.443578178409135
40
0.500697911102841
40
0.557817643796548
40
0.672057109183961
40
0.786296574571375
40
0.843416307265082
40
0.900536039958788
40
0.957655772652495
40
1
40
1
40
1
40
1
41
1
10
-1.79503997793927
20
-0.497935257502206
30
0
41
1
10
-1.79503997793927
20
-0.686148227367426
30
0
41
1
10
-1.79503997793927
20
-1.22796752001204
30
0
41
1
10
-1.79503997793927
20
-2.47030998023925
30
0
41
1
10
-1.79503997793924
20
-4.18621515342139
30
0
41
1
10
-1.79503997793932
20
-6.15385395841679
30
0
41
1
10
-1.79503997793924
20
-8.02089392647389
30
0
41
1
10
-1.79503997793927
20
-9.78370691003119
30
0
41
1
10
-1.7950399779393
20
-11.9936132714088
30
0
41
1
10
-1.79503997793927
20
-13.9857840732081
30
0
41
1
10
-1.7950399779393
20
-15.7565284847275
30
0
41
1
10
-1.7950399779393
20
-17.3747492708666
30
0
41
1
10
-1.7950399779393
20
-19.1010732050207
30
0
41
1
10
-1.79503997793927
20
-20.4022771684283
30
0
41
1
10
-1.7950399779393
20
-21.1565874478056
30
0
41
1
10
-1.7950399779393
20
-21.5671868666521
30
0
41
1
10
-1.79503997793935
20
-21.7871707167537
30
0
41
1
10
-1.7950399779393
20
-21.830935401687
30
0
41
1
10
-1.7950399779393
20
-21.8302764775135
30
0
0
SPLINE
5
167
100
AcDbEntity
8
SK1
62
256
6
ByLayer
370
13
48
1
60
0
100
AcDbSpline
70
4
71
3
72
12
73
8
40
0
40
0
40
0
40
0
40
0.5
40
0.5
40
0.75
40
0.75
40
1
40
1
40
1
40
1
41
1
10
-1.3154350650949
20
4.80312611568496
30
0
41
1
10
-1.24610370017854
20
5.19587657957797
30
0
41
1
10
-1.16418333850405
20
5.57907839839197
30
0
41
1
10
-0.92910015649889
20
6.11927416699618
30
0
41
1
10
-0.841183403179912
20
6.3439771460952
30
0
41
1
10
-0.420334197990968
20
6.45078944962441
30
0
41
1
10
-0.281070263314319
20
6.20922844997884
30
0
41
1
10
-0.194976888875772
20
6.03119978686914
30
0
0
SPLINE
5
168
100
AcDbEntity
8
SK1
62
256
6
ByLayer
370
13
48
1
60
0
100
AcDbSpline
70
4
71
3
72
39
73
35
40
0
40
0
40
0
40
0
40
0.0160271508618083
40
0.0444953766386452
40
0.0729636024154822
40
0.101431828192319
40
0.158368279745993
40
0.215304731299667
40
0.243772957076504
40
0.272241182853341
40
0.329177634407015
40
0.357645860183852
40
0.386114085960689
40
0.414582311737526
40
0.443050537514363
40
0.4715187632912
40
0.485752876179619
40
0.499986989068037
40
0.514221101956456
40
0.528455214844874
40
0.556923440621711
40
0.585391666398548
40
0.613859892175385
40
0.642328117952222
40
0.670796343729059
40
0.727732795282733
40
0.75620102105957
40
0.784669246836407
40
0.841605698390081
40
0.898542149943755
40
0.927010375720592
40
0.955478601497429
40
0.983946827274266
40
1
40
1
40
1
40
1
41
1
10
-36.5
20
21.1559175348881
30
0
41
1
10
-36.5
20
21.1495972596625
30
0
41
1
10
-36.5
20
21.1028324741068
30
0
41
1
10
-36.5
20
20.9025884164262
30
0
41
1
10
-36.5
20
20.5018778480376
30
0
41
1
10
-36.5
20
19.7633849930509
30
0
41
1
10
-36.5
20
18.4909300775027
30
0
41
1
10
-36.5
20
16.801583993955
30
0
41
1
10
-36.5
20
15.2144251466802
30
0
41
1
10
-36.5
20
13.4785456669563
30
0
41
1
10
-36.5
20
11.5365872380066
30
0
41
1
10
-36.5
20
9.37741591545503
30
0
41
1
10
-36.5
20
7.66287314675836
30
0
41
1
10
-36.5
20
5.85436022826505
30
0
41
1
10
-36.5
20
3.96084233651766
30
0
41
1
10
-36.5
20
2.32941166334251
30
0
41
1
10
-36.5
20
0.997014065911969
30
0
41
1
10
-36.5
20
1.676934005E-07
30
0
41
1
10
-36.5
20
-0.99701404035676
30
0
41
1
10
-36.5
20
-2.32941173515818
30
0
41
1
10
-36.5
20
-3.96084204001795
30
0
41
1
10
-36.5
20
-5.85435990948287
30
0
41
1
10
-36.5
20
-7.66287333478709
30
0
41
1
10
-36.5
20
-9.37741564601649
30
0
41
1
10
-36.5
20
-11.5365870174601
30
0
41
1
10
-36.4999999999999
20
-13.4785456662697
30
0
41
1
10
-36.5
20
-15.2144249963298
30
0
41
1
10
-36.5
20
-16.8015844483731
30
0
41
1
10
-36.5
20
-18.4909295861375
30
0
41
1
10
-36.5
20
-19.7633859456668
30
0
41
1
10
-36.5
20
-20.5018776781105
30
0
41
1
10
-36.5
20
-20.9025888554179
30
0
41
1
10
-36.5
20
-21.1029045681862
30
0
41
1
10
-36.5
20
-21.1496522499967
30
0
41
1
10
-36.5
20
-21.1559484653734
30
0
0
SPLINE
5
169
100
AcDbEntity
8
SK1
62
256
6
ByLayer
370
13
48
1
60
0
100
AcDbSpline
70
4
71
3
72
23
73
19
40
0
40
0
40
0
40
0
40
0.0423308933691783
40
0.0994514311531368
40
0.156571968937095
40
0.213692506721054
40
0.327933582288971
40
0.442174657856888
40
0.499295195640847
40
0.556415733424805
40
0.670656808992722
40
0.727777346776681
40
0.784897884560639
40
0.842018422344598
40
0.899138960128556
40
0.956259497912515
40
0.984819766804494
40
1
40
1
40
1
40
1
41
1
10
-1.79503997793927
20
21.830276965534
30
0
41
1
10
-1.79503997793927
20
21.8309229121021
30
0
41
1
10
-1.79503997793924
20
21.7871504372201
30
0
41
1
10
-1.79503997793924
20
21.5671864477183
30
0
41
1
10
-1.79503997793924
20
21.1565876158885
30
0
41
1
10
-1.79503997793927
20
20.4022762052015
30
0
41
1
10
-1.79503997793924
20
19.101073730141
30
0
41
1
10
-1.79503997793924
20
17.3747488027599
30
0
41
1
10
-1.79503997793927
20
15.7565286767832
30
0
41
1
10
-1.79503997793927
20
13.9857840798917
30
0
41
1
10
-1.79503997793924
20
11.9936135169181
30
0
41
1
10
-1.79503997793924
20
9.78370710557334
30
0
41
1
10
-1.79503997793924
20
8.02089380010173
30
0
41
1
10
-1.79503997793927
20
6.15385433510389
30
0
41
1
10
-1.79503997793924
20
4.18621524287366
30
0
41
1
10
-1.7950399779393
20
2.47030995483451
30
0
41
1
10
-1.79503997793927
20
1.22796960684906
30
0
41
1
10
-1.79503997793927
20
0.68615237838705
30
0
41
1
10
-1.79503997793927
20
0.497941450128366
30
0
0
SPLINE
5
16A
100
AcDbEntity
8
SK1
62
256
6
ByLayer
370
13
48
1
60
0
100
AcDbSpline
70
4
71
3
72
20
73
16
40
0
40
0
40
0
40
0
40
0.0559703065742714
40
0.123092956172672
40
0.190215605771073
40
0.257338255369473
40
0.391583554566274
40
0.525828853763076
40
0.592951503361476
40
0.660074152959877
40
0.794319452156678
40
0.861442101755079
40
0.928564751353479
40
0.99568740095188
40
1
40
1
40
1
40
1
41
1
10
-0.19497688887526
20
21.8693013858747
30
0
41
1
10
-0.19497688887526
20
21.875509949629
30
0
41
1
10
-0.19497688887526
20
21.8347196430817
30
0
41
1
10
-0.19497688887526
20
21.6069519109192
30
0
41
1
10
-0.19497688887526
20
21.1957614261541
30
0
41
1
10
-0.19497688887526
20
20.4405035302762
30
0
41
1
10
-0.194976888875232
20
19.1375809778664
30
0
41
1
10
-0.19497688887526
20
17.4090434636518
30
0
41
1
10
-0.19497688887526
20
15.7889648215842
30
0
41
1
10
-0.19497688887526
20
14.0161341102769
30
0
41
1
10
-0.194976888875232
20
12.0209591616841
30
0
41
1
10
-0.19497688887526
20
9.80801707431957
30
0
41
1
10
-0.194976888875232
20
8.04231555647982
30
0
41
1
10
-0.19497688887526
20
6.75522752997318
30
0
41
1
10
-0.19497688887526
20
6.07248683105269
30
0
41
1
10
-0.19497688887526
20
6.03119978686874
30
0
0
SPLINE
5
16B
100
AcDbEntity
8
SK1
62
256
6
ByLayer
370
13
48
1
60
0
100
AcDbSpline
70
4
71
3
72
20
73
16
40
0
40
0
40
0
40
0
40
0.0043127098920781
40
0.0714352977950711
40
0.138557885698064
40
0.205680473601057
40
0.339925649407043
40
0.407048237310036
40
0.474170825213029
40
0.608416001019015
40
0.742661176825001
40
0.809783764727994
40
0.876906352630987
40
0.94402894053398
40
1
40
1
40
1
40
1
41
1
10
-0.19497688887526
20
-6.03119623886778
30
0
41
1
10
-0.19497688887526
20
-6.07248438694901
30
0
41
1
10
-0.19497688887526
20
-6.75522624019291
30
0
41
1
10
-0.194976888875232
20
-8.04231567916281
30
0
41
1
10
-0.19497688887526
20
-9.80801688319889
30
0
41
1
10
-0.19497688887526
20
-12.0209589146812
30
0
41
1
10
-0.194976888875232
20
-14.0161341032346
30
0
41
1
10
-0.19497688887526
20
-15.7889646270331
30
0
41
1
10
-0.194976888875232
20
-17.4090439325776
30
0
41
1
10
-0.19497688887526
20
-19.1375804507265
30
0
41
1
10
-0.194976888875232
20
-20.4405044941378
30
0
41
1
10
-0.19497688887526
20
-21.1957612581816
30
0
41
1
10
-0.19497688887526
20
-21.6069523286528
30
0
41
1
10
-0.194976888875232
20
-21.8347213253325
30
0
41
1
10
-0.194976888875203
20
-21.8755106581201
30
0
41
1
10
-0.19497688887526
20
-21.8693012533838
30
0
0
SPLINE
5
16C
100
AcDbEntity
8
1
62
256
6
ByLayer
370
13
48
1
60
0
100
AcDbSpline
70
4
71
3
72
8
73
4
40
0
40
0
40
0
40
0
40
1
40
1
40
1
40
1
41
1
10
25.799443289574
20
40.4190516084506
30
0
41
1
10
25.6708825052723
20
39.9299710711352
30
0
41
1
10
25.5445806379017
20
39.444457746414
30
0
41
1
10
25.4206378994662
20
38.9623686591135
30
0
0
SPLINE
5
16D
100
AcDbEntity
8
1
62
256
6
ByLayer
370
13
48
1
60
0
100
AcDbSpline
70
4
71
3
72
8
73
4
40
0
40
0
40
0
40
0
40
1
40
1
40
1
40
1
41
1
10
22.2792076144254
20
29.4931453266797
30
0
41
1
10
22.2092797378175
20
29.3829828873048
30
0
41
1
10
22.1731583539997
20
29.2650623948201
30
0
41
1
10
22.1705638822129
20
29.1431028515266
30
0
0
SPLINE
5
16E
100
AcDbEntity
8
1
62
256
6
ByLayer
370
13
48
1
60
0
100
AcDbSpline
70
4
71
3
72
8
73
4
40
0
40
0
40
0
40
0
40
1
40
1
40
1
40
1
41
1
10
25.799443289574
20
40.4190516084507
30
0
41
1
10
26.172394455773
20
41.83786028909
30
0
41
1
10
26.5460322042524
20
43.2564950483177
30
0
41
1
10
26.9201823885464
20
44.6750000000004
30
0
0
SPLINE
5
16F
100
AcDbEntity
8
1
62
256
6
ByLayer
370
13
48
1
60
0
100
AcDbSpline
70
4
71
3
72
16
73
12
40
0
40
0
40
0
40
0
40
0.463423600832302
40
0.463423600832302
40
0.64624395293292
40
0.64624395293292
40
0.831657283224619
40
0.831657283224619
40
0.947504344290947
40
0.947504344290947
40
1
40
1
40
1
40
1
41
1
10
13.8943375672973
20
9.86941261896683
30
0
41
1
10
13.8656609252733
20
9.76458357826351
30
0
41
1
10
13.8263500123908
20
9.66039292790003
30
0
41
1
10
13.7453819366531
20
9.52957658281107
30
0
41
1
10
13.7190869808858
20
9.49380155568139
30
0
41
1
10
13.6579862203324
20
9.42941539787702
30
0
41
1
10
13.6222599905466
20
9.40014891155778
30
0
41
1
10
13.5566483463549
20
9.36662118733855
30
0
41
1
10
13.5289597975987
20
9.35698328824307
30
0
41
1
10
13.487677637475
20
9.35029954873175
30
0
41
1
10
13.47447899686
20
9.34922131452575
30
0
41
1
10
13.4613248654052
20
9.34922131452575
30
0
0
SPLINE
5
170
100
AcDbEntity
8
1
62
256
6
ByLayer
370
13
48
1
60
0
100
AcDbSpline
70
4
71
3
72
16
73
12
40
0
40
0
40
0
40
0
40
0.463423600832221
40
0.463423600832221
40
0.646243952932818
40
0.646243952932818
40
0.83165728322448
40
0.83165728322448
40
0.947504344290816
40
0.947504344290816
40
1
40
1
40
1
40
1
41
1
10
10.1056624327025
20
29.9139548464688
30
0
41
1
10
10.1343390747264
20
29.9485407466769
30
0
41
1
10
10.173649987609
20
29.9822690906117
30
0
41
1
10
10.2546180633467
20
30.0239686896249
30
0
41
1
10
10.280913019114
20
30.0352936109062
30
0
41
1
10
10.3420137796674
20
30.0555697561515
30
0
41
1
10
10.3777400094531
20
30.0647246060478
30
0
41
1
10
10.4433516536448
20
30.0751823136665
30
0
41
1
10
10.4710402024012
20
30.0781795790236
30
0
41
1
10
10.5123223625248
20
30.0802576980999
30
0
41
1
10
10.5255210031399
20
30.0805927603167
30
0
41
1
10
10.5386751345947
20
30.0805927603167
30
0
0
SPLINE
5
171
100
AcDbEntity
8
1
62
256
6
ByLayer
370
13
48
1
60
0
100
AcDbSpline
70
4
71
3
72
8
73
4
40
0
40
0
40
0
40
0
40
1
40
1
40
1
40
1
41
1
10
26.1704115744696
20
40.4190516084506
30
0
41
1
10
25.920296299615
20
39.9347051102958
30
0
41
1
10
25.6679911429578
20
39.4461211060379
30
0
41
1
10
25.4206378994661
20
38.9623686591136
30
0
0
SPLINE
5
172
100
AcDbEntity
8
1
62
256
6
ByLayer
370
13
48
1
60
0
100
AcDbSpline
70
4
71
3
72
10
73
6
40
0
40
0
40
0
40
0
40
0.5
40
0.5
40
1
40
1
40
1
40
1
41
1
10
22.2792076144254
20
29.4931453266797
30
0
41
1
10
22.3846207278777
20
29.6592102250196
30
0
41
1
10
22.5734679011497
20
29.8186415945401
30
0
41
1
10
23.0354521524028
20
30.2905902496985
30
0
41
1
10
23.3264413057173
20
30.6285175146762
30
0
41
1
10
23.4383186059722
20
31.0939577771262
30
0
0
SPLINE
5
173
100
AcDbEntity
8
1
62
256
6
ByLayer
370
13
48
1
60
0
100
AcDbSpline
70
4
71
3
72
16
73
12
40
0
40
0
40
0
40
0
40
0.113316224833454
40
0.113316224833454
40
0.25299041157145
40
0.25299041157145
40
0.473309013928304
40
0.473309013928304
40
0.896716357719034
40
0.896716357719034
40
1
40
1
40
1
40
1
41
1
10
10.5386751345947
20
-30.0805927603167
30
0
41
1
10
10.510587440428
20
-30.0805927603167
30
0
41
1
10
10.4821506422369
20
-30.0790101689564
30
0
41
1
10
10.4232029654274
20
-30.0726712338967
30
0
41
1
10
10.392752627871
20
-30.0672275748682
30
0
41
1
10
10.3230856363396
20
-30.050664786705
30
0
41
1
10
10.2871733492348
20
-30.0378702684273
30
0
41
1
10
10.1985362549162
20
-29.9980833386352
30
0
41
1
10
10.1576291602468
20
-29.9679759349077
30
0
41
1
10
10.11909652624
20
-29.9294196064669
30
0
41
1
10
10.1121028162029
20
-29.9217223689306
30
0
41
1
10
10.1056624327024
20
-29.9139548464688
30
0
0
SPLINE
5
174
100
AcDbEntity
8
1
62
256
6
ByLayer
370
13
48
1
60
0
100
AcDbSpline
70
4
71
3
72
16
73
12
40
0
40
0
40
0
40
0
40
0.463423600832235
40
0.463423600832235
40
0.646243952932786
40
0.646243952932786
40
0.83165728322443
40
0.83165728322443
40
0.947504344290761
40
0.947504344290761
40
1
40
1
40
1
40
1
41
1
10
10.1056624327024
20
-9.86941261896712
30
0
41
1
10
10.1343390747264
20
-9.76458357826377
30
0
41
1
10
10.173649987609
20
-9.66039292790026
30
0
41
1
10
10.2546180633467
20
-9.5295765828113
30
0
41
1
10
10.2809130191139
20
-9.49380155568161
30
0
41
1
10
10.3420137796673
20
-9.42941539787722
30
0
41
1
10
10.3777400094531
20
-9.40014891155801
30
0
41
1
10
10.4433516536448
20
-9.36662118733875
30
0
41
1
10
10.4710402024011
20
-9.35698328824324
30
0
41
1
10
10.5123223625247
20
-9.3502995487319
30
0
41
1
10
10.5255210031398
20
-9.34922131452586
30
0
41
1
10
10.5386751345946
20
-9.34922131452586
30
0
0
SPLINE
5
175
100
AcDbEntity
8
1
62
256
6
ByLayer
370
13
48
1
60
0
100
AcDbSpline
70
4
71
3
72
16
73
12
40
0
40
0
40
0
40
0
40
0.113316224833561
40
0.113316224833561
40
0.252990411571527
40
0.252990411571527
40
0.473309013928257
40
0.473309013928257
40
0.896716357718721
40
0.896716357718721
40
1
40
1
40
1
40
1
41
1
10
13.4613248654051
20
-9.34922131452603
30
0
41
1
10
13.4894125595718
20
-9.34922131452603
30
0
41
1
10
13.517849357763
20
-9.35431657339075
30
0
41
1
10
13.5767970345724
20
-9.37467777536659
30
0
41
1
10
13.6072473721287
20
-9.39213979793504
30
0
41
1
10
13.67691436366
20
-9.44503542604474
30
0
41
1
10
13.7128266507649
20
-9.48569380431968
30
0
41
1
10
13.8014637450834
20
-9.61105923366887
30
0
41
1
10
13.8423708397529
20
-9.70465429390143
30
0
41
1
10
13.8809034737596
20
-9.8224457386255
30
0
41
1
10
13.8878971837968
20
-9.8458694431811
30
0
41
1
10
13.8943375672973
20
-9.86941261896703
30
0
0
SPLINE
5
176
100
AcDbEntity
8
1
62
256
6
ByLayer
370
13
48
1
60
0
100
AcDbSpline
70
4
71
3
72
16
73
12
40
0
40
0
40
0
40
0
40
0.113316224833461
40
0.113316224833461
40
0.252990411571445
40
0.252990411571445
40
0.473309013928268
40
0.473309013928268
40
0.896716357718929
40
0.896716357718929
40
1
40
1
40
1
40
1
41
1
10
10.5386751345947
20
9.34922131452575
30
0
41
1
10
10.5105874404281
20
9.34922131452575
30
0
41
1
10
10.4821506422369
20
9.35431657339043
30
0
41
1
10
10.4232029654274
20
9.37467777536631
30
0
41
1
10
10.3927526278711
20
9.39213979793476
30
0
41
1
10
10.3230856363397
20
9.44503542604448
30
0
41
1
10
10.2871733492348
20
9.48569380431945
30
0
41
1
10
10.1985362549163
20
9.61105923366875
30
0
41
1
10
10.1576291602468
20
9.70465429390137
30
0
41
1
10
10.11909652624
20
9.82244573862545
30
0
41
1
10
10.1121028162029
20
9.84586944318099
30
0
41
1
10
10.1056624327024
20
9.86941261896686
30
0
0
SPLINE
5
177
100
AcDbEntity
8
1
62
256
6
ByLayer
370
13
48
1
60
0
100
AcDbSpline
70
4
71
3
72
16
73
12
40
0
40
0
40
0
40
0
40
0.463423600832261
40
0.463423600832261
40
0.646243952932875
40
0.646243952932875
40
0.831657283224549
40
0.831657283224549
40
0.947504344290902
40
0.947504344290902
40
1
40
1
40
1
40
1
41
1
10
13.8943375672973
20
-29.9139548464688
30
0
41
1
10
13.8656609252733
20
-29.948540746677
30
0
41
1
10
13.8263500123908
20
-29.9822690906118
30
0
41
1
10
13.7453819366531
20
-30.023968689625
30
0
41
1
10
13.7190869808858
20
-30.0352936109062
30
0
41
1
10
13.6579862203324
20
-30.0555697561515
30
0
41
1
10
13.6222599905467
20
-30.0647246060479
30
0
41
1
10
13.556648346355
20
-30.0751823136666
30
0
41
1
10
13.5289597975987
20
-30.0781795790236
30
0
41
1
10
13.4876776374751
20
-30.0802576981
30
0
41
1
10
13.47447899686
20
-30.0805927603167
30
0
41
1
10
13.4613248654052
20
-30.0805927603167
30
0
0
SPLINE
5
178
100
AcDbEntity
8
1
62
256
6
ByLayer
370
13
48
1
60
0
100
AcDbSpline
70
4
71
3
72
8
73
4
40
0
40
0
40
0
40
0
40
1
40
1
40
1
40
1
41
1
10
25.4206378994663
20
38.9623686591137
30
0
41
1
10
24.7365118878439
20
36.3280929038169
30
0
41
1
10
24.0617657301551
20
33.6876688556232
30
0
41
1
10
23.4383186059722
20
31.0939577771262
30
0
0
SPLINE
5
179
100
AcDbEntity
8
1
62
256
6
ByLayer
370
13
48
1
60
0
100
AcDbSpline
70
4
71
3
72
16
73
12
40
0
40
0
40
0
40
0
40
0.113316224833588
40
0.113316224833588
40
0.2529904115716
40
0.2529904115716
40
0.473309013928371
40
0.473309013928371
40
0.896716357719003
40
0.896716357719003
40
1
40
1
40
1
40
1
41
1
10
13.4613248654052
20
30.0805927603166
30
0
41
1
10
13.4894125595718
20
30.0805927603166
30
0
41
1
10
13.517849357763
20
30.0790101689564
30
0
41
1
10
13.5767970345725
20
30.0726712338966
30
0
41
1
10
13.6072473721288
20
30.0672275748682
30
0
41
1
10
13.6769143636601
20
30.0506647867049
30
0
41
1
10
13.712826650765
20
30.0378702684272
30
0
41
1
10
13.8014637450835
20
29.9980833386352
30
0
41
1
10
13.842370839753
20
29.9679759349077
30
0
41
1
10
13.8809034737597
20
29.9294196064669
30
0
41
1
10
13.8878971837969
20
29.9217223689306
30
0
41
1
10
13.8943375672974
20
29.9139548464688
30
0
0
SPLINE
5
17A
100
AcDbEntity
8
1
62
256
6
ByLayer
370
13
48
1
60
0
100
AcDbSpline
70
4
71
3
72
8
73
4
40
0
40
0
40
0
40
0
40
1
40
1
40
1
40
1
41
1
10
42.9811331081452
20
41.324888759058
30
0
41
1
10
42.9874174549242
20
41.3249628680173
30
0
41
1
10
42.993706561382
20
41.3250000000004
30
0
41
1
10
42.9999999999998
20
41.3250000000004
30
0
0
SPLINE
5
17B
100
AcDbEntity
8
1
62
256
6
ByLayer
370
13
48
1
60
0
100
AcDbSpline
70
4
71
3
72
8
73
4
40
0
40
0
40
0
40
0
40
1
40
1
40
1
40
1
41
1
10
26.7356283885378
20
44.6750000000004
30
0
41
1
10
26.7358263851418
20
44.6750000000004
30
0
41
1
10
26.7961482196204
20
44.6750000000004
30
0
41
1
10
26.9201823885463
20
44.6750000000004
30
0
0
SPLINE
5
17C
100
AcDbEntity
8
1
62
256
6
ByLayer
370
13
48
1
60
0
100
AcDbSpline
70
4
71
3
72
10
73
6
40
0
40
0
40
0
40
0
40
0.838937617766275
40
0.838937617766275
40
1
40
1
40
1
40
1
41
1
10
71.9178211501257
20
43.7272202390352
30
0
41
1
10
71.8935943168163
20
43.7490927973167
30
0
41
1
10
71.8683899171274
20
43.7707951028266
30
0
41
1
10
71.83759008949
20
43.7965188844758
30
0
41
1
10
71.8326058289527
20
43.8006579143094
30
0
41
1
10
71.827601014892
20
43.8047930408046
30
0
0
SPLINE
5
17D
100
AcDbEntity
8
1
62
256
6
ByLayer
370
13
48
1
60
0
100
AcDbSpline
70
4
71
3
72
8
73
4
40
0
40
0
40
0
40
0
40
1
40
1
40
1
40
1
41
1
10
71.827601014892
20
43.8047930408046
30
0
41
1
10
71.8701630922748
20
43.8502104465537
30
0
41
1
10
71.91315719303
20
43.895228631996
30
0
41
1
10
71.9567233231078
20
43.9396809050806
30
0
0
SPLINE
5
17E
100
AcDbEntity
8
1
62
256
6
ByLayer
370
13
48
1
60
0
100
AcDbSpline
70
4
71
3
72
8
73
4
40
0
40
0
40
0
40
0
40
1
40
1
40
1
40
1
41
1
10
71.9567233231078
20
43.9396809050806
30
0
41
1
10
72.0273458910485
20
43.9490095186373
30
0
41
1
10
72.0978685108516
20
43.9572853608203
30
0
41
1
10
72.1678805766492
20
43.9630227016731
30
0
0
SPLINE
5
17F
100
AcDbEntity
8
1
62
256
6
ByLayer
370
13
48
1
60
0
100
AcDbSpline
70
4
71
3
72
12
73
8
40
0
40
0
40
0
40
0
40
0.0998683717390313
40
0.0998683717390313
40
0.537823266363916
40
0.537823266363916
40
1
40
1
40
1
40
1
41
1
10
72.1678805766492
20
43.9630227016731
30
0
41
1
10
72.1977300732362
20
43.9654688048449
30
0
41
1
10
72.228855396395
20
43.9687174646113
30
0
41
1
10
72.400335943483
20
43.9896696782492
30
0
41
1
10
72.5643332524474
20
44.0203026974732
30
0
41
1
10
72.9166201131584
20
44.095515620739
30
0
41
1
10
73.1120338025539
20
44.1429641228855
30
0
41
1
10
73.3023602239471
20
44.1917831965245
30
0
0
SPLINE
5
180
100
AcDbEntity
8
1
62
256
6
ByLayer
370
13
48
1
60
0
100
AcDbSpline
70
4
71
3
72
8
73
4
40
0
40
0
40
0
40
0
40
1
40
1
40
1
40
1
41
1
10
73.3023602239471
20
44.1917831965245
30
0
41
1
10
73.448921806424
20
44.2293765092931
30
0
41
1
10
73.6016353978424
20
44.2518273788644
30
0
41
1
10
73.7528986418118
20
44.2467853916824
30
0
0
SPLINE
5
181
100
AcDbEntity
8
1
62
256
6
ByLayer
370
13
48
1
60
0
100
AcDbSpline
70
4
71
3
72
8
73
4
40
0
40
0
40
0
40
0
40
1
40
1
40
1
40
1
41
1
10
73.7528986418118
20
44.2467853916824
30
0
41
1
10
73.8744062234274
20
44.2427352361196
30
0
41
1
10
73.9966210532665
20
44.2475748627393
30
0
41
1
10
74.1158957172706
20
44.2471890719771
30
0
0
SPLINE
5
182
100
AcDbEntity
8
1
62
256
6
ByLayer
370
13
48
1
60
0
100
AcDbSpline
70
4
71
3
72
8
73
4
40
0
40
0
40
0
40
0
40
1
40
1
40
1
40
1
41
1
10
74.1158957172693
20
44.2471890719753
30
0
41
1
10
74.2755545267194
20
44.2466726597573
30
0
41
1
10
74.4354150796997
20
44.2124799105853
30
0
41
1
10
74.5900286630425
20
44.1686688261489
30
0
0
SPLINE
5
183
100
AcDbEntity
8
1
62
256
6
ByLayer
370
13
48
1
60
0
100
AcDbSpline
70
4
71
3
72
8
73
4
40
0
40
0
40
0
40
0
40
1
40
1
40
1
40
1
41
1
10
74.5900286630424
20
44.1686688261489
30
0
41
1
10
74.6340900206689
20
44.142005858242
30
0
41
1
10
74.6778395366006
20
44.1148290396944
30
0
41
1
10
74.7213895076227
20
44.087343636851
30
0
0
SPLINE
5
184
100
AcDbEntity
8
1
62
256
6
ByLayer
370
13
48
1
60
0
100
AcDbSpline
70
4
71
3
72
12
73
8
40
0
40
0
40
0
40
0
40
0.178891096392097
40
0.178891096392097
40
0.986291642515957
40
0.986291642515957
40
1
40
1
40
1
40
1
41
1
10
74.7213895076227
20
44.087343636851
30
0
41
1
10
74.7003115269679
20
44.0881799778981
30
0
41
1
10
74.6792221384665
20
44.089022998248
30
0
41
1
10
74.5629014296376
20
44.0937116903196
30
0
41
1
10
74.4679540502602
20
44.0993553526134
30
0
41
1
10
74.3689156735318
20
44.1037991287478
30
0
41
1
10
74.3672607449414
20
44.1038703616534
30
0
41
1
10
74.3656057053218
20
44.1039385953265
30
0
0
SPLINE
5
185
100
AcDbEntity
8
1
62
256
6
ByLayer
370
13
48
1
60
0
100
AcDbSpline
70
4
71
3
72
12
73
8
40
0
40
0
40
0
40
0
40
0.609383607481524
40
0.609383607481524
40
0.614539779328588
40
0.614539779328588
40
1
40
1
40
1
40
1
41
1
10
74.3656057053218
20
44.1039385953265
30
0
41
1
10
74.2600213620046
20
44.1082916074766
30
0
41
1
10
74.1496097970337
20
44.1126210604548
30
0
41
1
10
74.0373081383663
20
44.1168925725854
30
0
41
1
10
74.0363601843113
20
44.1169286277221
30
0
41
1
10
73.9647049543392
20
44.1196539267374
30
0
41
1
10
73.8932165299024
20
44.1224537826739
30
0
41
1
10
73.8219297662851
20
44.1249403720622
30
0
0
SPLINE
5
186
100
AcDbEntity
8
1
62
256
6
ByLayer
370
13
48
1
60
0
100
AcDbSpline
70
4
71
3
72
16
73
12
40
0
40
0
40
0
40
0
40
0.0442199247554431
40
0.0442199247554431
40
0.0484399555489736
40
0.0484399555489736
40
0.21689535852514
40
0.21689535852514
40
0.889245809545941
40
0.889245809545941
40
1
40
1
40
1
40
1
41
1
10
73.8219297662851
20
44.1249403720622
30
0
41
1
10
73.811330078545
20
44.1253101050914
30
0
41
1
10
73.8007291289449
20
44.1256414275178
30
0
41
1
10
73.7891179461186
20
44.1260482173199
30
0
41
1
10
73.7881063966875
20
44.1260837845229
30
0
41
1
10
73.7467182945272
20
44.1275439432246
30
0
41
1
10
73.7063476610927
20
44.1294401368091
30
0
41
1
10
73.5067119730517
20
44.1361835728484
30
0
41
1
10
73.3453726295508
20
44.1152373852185
30
0
41
1
10
73.1656324617667
20
44.0677567322122
30
0
41
1
10
73.1400997197492
20
44.0605878191448
30
0
41
1
10
73.1146869282978
20
44.0530290796485
30
0
0
SPLINE
5
187
100
AcDbEntity
8
1
62
256
6
ByLayer
370
13
48
1
60
0
100
AcDbSpline
70
4
71
3
72
12
73
8
40
0
40
0
40
0
40
0
40
0.262655118490606
40
0.262655118490606
40
0.697392919166919
40
0.697392919166919
40
1
40
1
40
1
40
1
41
1
10
73.1146869282978
20
44.0530290796485
30
0
41
1
10
73.0122143236957
20
44.0225497942395
30
0
41
1
10
72.909497462749
20
43.9922024735578
30
0
41
1
10
72.6439453836002
20
43.9140672738353
30
0
41
1
10
72.4820473482735
20
43.8667740880497
30
0
41
1
10
72.231433044244
20
43.7934092211137
30
0
41
1
10
72.1338240971893
20
43.7631856872403
30
0
41
1
10
72.0455473303952
20
43.7387237988852
30
0
0
SPLINE
5
188
100
AcDbEntity
8
1
62
256
6
ByLayer
370
13
48
1
60
0
100
AcDbSpline
70
4
71
3
72
8
73
4
40
0
40
0
40
0
40
0
40
1
40
1
40
1
40
1
41
1
10
72.0455473303952
20
43.7387237988852
30
0
41
1
10
72.0087652449775
20
43.7285313179003
30
0
41
1
10
71.9720869999074
20
43.7184264422869
30
0
41
1
10
71.9354962551972
20
43.7083181255949
30
0
0
SPLINE
5
189
100
AcDbEntity
8
1
62
256
6
ByLayer
370
13
48
1
60
0
100
AcDbSpline
70
4
71
3
72
8
73
4
40
0
40
0
40
0
40
0
40
1
40
1
40
1
40
1
41
1
10
71.9354962551912
20
43.7083181255892
30
0
41
1
10
71.9301777182168
20
43.7151183588069
30
0
41
1
10
71.9242544977345
20
43.7214120606111
30
0
41
1
10
71.9178211501258
20
43.7272202390353
30
0
0
SPLINE
5
18A
100
AcDbEntity
8
1
62
256
6
ByLayer
370
13
48
1
60
0
100
AcDbSpline
70
4
71
3
72
8
73
4
40
0
40
0
40
0
40
0
40
1
40
1
40
1
40
1
41
1
10
71.9178211501257
20
42.2727797609651
30
0
41
1
10
71.9242544977345
20
42.2785879393894
30
0
41
1
10
71.9301777182171
20
42.2848816411933
30
0
41
1
10
71.9354962551916
20
42.2916818744111
30
0
0
SPLINE
5
18B
100
AcDbEntity
8
1
62
256
6
ByLayer
370
13
48
1
60
0
100
AcDbSpline
70
4
71
3
72
8
73
4
40
0
40
0
40
0
40
0
40
1
40
1
40
1
40
1
41
1
10
72.0455473303952
20
42.2612762011151
30
0
41
1
10
72.0087652449775
20
42.2714686821
30
0
41
1
10
71.9720869999074
20
42.2815735577133
30
0
41
1
10
71.9354962551972
20
42.2916818744054
30
0
0
SPLINE
5
18C
100
AcDbEntity
8
1
62
256
6
ByLayer
370
13
48
1
60
0
100
AcDbSpline
70
4
71
3
72
12
73
8
40
0
40
0
40
0
40
0
40
0.262655118490606
40
0.262655118490606
40
0.697392919166919
40
0.697392919166919
40
1
40
1
40
1
40
1
41
1
10
73.1146869282978
20
41.9469709203518
30
0
41
1
10
73.0122143236957
20
41.9774502057608
30
0
41
1
10
72.909497462749
20
42.0077975264425
30
0
41
1
10
72.6439453836002
20
42.085932726165
30
0
41
1
10
72.4820473482735
20
42.1332259119505
30
0
41
1
10
72.231433044244
20
42.2065907788865
30
0
41
1
10
72.1338240971893
20
42.23681431276
30
0
41
1
10
72.0455473303952
20
42.2612762011151
30
0
0
SPLINE
5
18D
100
AcDbEntity
8
1
62
256
6
ByLayer
370
13
48
1
60
0
100
AcDbSpline
70
4
71
3
72
16
73
12
40
0
40
0
40
0
40
0
40
0.0442199247554431
40
0.0442199247554431
40
0.0484399555489736
40
0.0484399555489736
40
0.21689535852514
40
0.21689535852514
40
0.889245809545941
40
0.889245809545941
40
1
40
1
40
1
40
1
41
1
10
73.8219297662851
20
41.8750596279381
30
0
41
1
10
73.811330078545
20
41.8746898949089
30
0
41
1
10
73.8007291289449
20
41.8743585724824
30
0
41
1
10
73.7891179461186
20
41.8739517826804
30
0
41
1
10
73.7881063966875
20
41.8739162154773
30
0
41
1
10
73.7467182945272
20
41.8724560567757
30
0
41
1
10
73.7063476610927
20
41.8705598631912
30
0
41
1
10
73.5067119730517
20
41.8638164271519
30
0
41
1
10
73.3453726295508
20
41.8847626147818
30
0
41
1
10
73.1656324617667
20
41.932243267788
30
0
41
1
10
73.1400997197492
20
41.9394121808555
30
0
41
1
10
73.1146869282978
20
41.9469709203518
30
0
0
SPLINE
5
18E
100
AcDbEntity
8
1
62
256
6
ByLayer
370
13
48
1
60
0
100
AcDbSpline
70
4
71
3
72
12
73
8
40
0
40
0
40
0
40
0
40
0.609383607481524
40
0.609383607481524
40
0.614539779328588
40
0.614539779328588
40
1
40
1
40
1
40
1
41
1
10
74.3656057053218
20
41.8960614046737
30
0
41
1
10
74.2600213620046
20
41.8917083925237
30
0
41
1
10
74.1496097970337
20
41.8873789395454
30
0
41
1
10
74.0373081383663
20
41.8831074274149
30
0
41
1
10
74.0363601843113
20
41.8830713722781
30
0
41
1
10
73.9647049543392
20
41.8803460732629
30
0
41
1
10
73.8932165299024
20
41.8775462173263
30
0
41
1
10
73.8219297662851
20
41.8750596279381
30
0
0
SPLINE
5
18F
100
AcDbEntity
8
1
62
256
6
ByLayer
370
13
48
1
60
0
100
AcDbSpline
70
4
71
3
72
12
73
8
40
0
40
0
40
0
40
0
40
0.178891096392097
40
0.178891096392097
40
0.986291642515957
40
0.986291642515957
40
1
40
1
40
1
40
1
41
1
10
74.7213895076227
20
41.9126563631493
30
0
41
1
10
74.7003115269679
20
41.9118200221022
30
0
41
1
10
74.6792221384665
20
41.9109770017523
30
0
41
1
10
74.5629014296376
20
41.9062883096807
30
0
41
1
10
74.4679540502602
20
41.9006446473868
30
0
41
1
10
74.3689156735318
20
41.8962008712525
30
0
41
1
10
74.3672607449414
20
41.8961296383469
30
0
41
1
10
74.3656057053218
20
41.8960614046737
30
0
0
SPLINE
5
190
100
AcDbEntity
8
1
62
256
6
ByLayer
370
13
48
1
60
0
100
AcDbSpline
70
4
71
3
72
8
73
4
40
0
40
0
40
0
40
0
40
1
40
1
40
1
40
1
41
1
10
74.5900286630424
20
41.8313311738514
30
0
41
1
10
74.6340900206689
20
41.8579941417583
30
0
41
1
10
74.6778395366006
20
41.8851709603058
30
0
41
1
10
74.7213895076227
20
41.9126563631493
30
0
0
SPLINE
5
191
100
AcDbEntity
8
1
62
256
6
ByLayer
370
13
48
1
60
0
100
AcDbSpline
70
4
71
3
72
8
73
4
40
0
40
0
40
0
40
0
40
1
40
1
40
1
40
1
41
1
10
74.1158957172693
20
41.752810928025
30
0
41
1
10
74.2755545267194
20
41.753327340243
30
0
41
1
10
74.4354150796997
20
41.787520089415
30
0
41
1
10
74.5900286630425
20
41.8313311738514
30
0
0
SPLINE
5
192
100
AcDbEntity
8
1
62
256
6
ByLayer
370
13
48
1
60
0
100
AcDbSpline
70
4
71
3
72
8
73
4
40
0
40
0
40
0
40
0
40
1
40
1
40
1
40
1
41
1
10
73.7528986418118
20
41.7532146083178
30
0
41
1
10
73.8744062234274
20
41.7572647638807
30
0
41
1
10
73.9966210532665
20
41.752425137261
30
0
41
1
10
74.1158957172706
20
41.7528109280231
30
0
0
SPLINE
5
193
100
AcDbEntity
8
1
62
256
6
ByLayer
370
13
48
1
60
0
100
AcDbSpline
70
4
71
3
72
8
73
4
40
0
40
0
40
0
40
0
40
1
40
1
40
1
40
1
41
1
10
73.3023602239471
20
41.8082168034757
30
0
41
1
10
73.448921806424
20
41.7706234907072
30
0
41
1
10
73.6016353978424
20
41.7481726211359
30
0
41
1
10
73.7528986418118
20
41.7532146083178
30
0
0
SPLINE
5
194
100
AcDbEntity
8
1
62
256
6
ByLayer
370
13
48
1
60
0
100
AcDbSpline
70
4
71
3
72
12
73
8
40
0
40
0
40
0
40
0
40
0.0998683717390313
40
0.0998683717390313
40
0.537823266363916
40
0.537823266363916
40
1
40
1
40
1
40
1
41
1
10
72.1678805766492
20
42.0369772983271
30
0
41
1
10
72.1977300732362
20
42.0345311951554
30
0
41
1
10
72.228855396395
20
42.031282535389
30
0
41
1
10
72.400335943483
20
42.0103303217511
30
0
41
1
10
72.5643332524474
20
41.979697302527
30
0
41
1
10
72.9166201131584
20
41.9044843792612
30
0
41
1
10
73.1120338025539
20
41.8570358771147
30
0
41
1
10
73.3023602239471
20
41.8082168034757
30
0
0
SPLINE
5
195
100
AcDbEntity
8
1
62
256
6
ByLayer
370
13
48
1
60
0
100
AcDbSpline
70
4
71
3
72
8
73
4
40
0
40
0
40
0
40
0
40
1
40
1
40
1
40
1
41
1
10
71.9567233231078
20
42.0603190949196
30
0
41
1
10
72.0273458910485
20
42.050990481363
30
0
41
1
10
72.0978685108516
20
42.04271463918
30
0
41
1
10
72.1678805766492
20
42.0369772983271
30
0
0
SPLINE
5
196
100
AcDbEntity
8
1
62
256
6
ByLayer
370
13
48
1
60
0
100
AcDbSpline
70
4
71
3
72
8
73
4
40
0
40
0
40
0
40
0
40
1
40
1
40
1
40
1
41
1
10
71.827601014892
20
42.1952069591956
30
0
41
1
10
71.8701630922748
20
42.1497895534465
30
0
41
1
10
71.91315719303
20
42.1047713680043
30
0
41
1
10
71.9567233231078
20
42.0603190949196
30
0
0
SPLINE
5
197
100
AcDbEntity
8
1
62
256
6
ByLayer
370
13
48
1
60
0
100
AcDbSpline
70
4
71
3
72
10
73
6
40
0
40
0
40
0
40
0
40
0.83890545480639
40
0.83890545480639
40
1
40
1
40
1
40
1
41
1
10
71.827601014892
20
42.1952069591956
30
0
41
1
10
71.8536671436957
20
42.2167435714528
30
0
41
1
10
71.8791716040463
20
42.2383893869232
30
0
41
1
10
71.9084803863995
20
42.2643853674563
30
0
41
1
10
71.9131686824076
20
42.2685794030389
30
0
41
1
10
71.9178211501257
20
42.2727797609651
30
0
0
SPLINE
5
198
100
AcDbEntity
8
1
62
256
6
ByLayer
370
13
48
1
60
0
100
AcDbSpline
70
4
71
3
72
10
73
6
40
0
40
0
40
0
40
0
40
0.164044484569757
40
0.164044484569757
40
1
40
1
40
1
40
1
41
1
10
70.0749813396557
20
42.3202363269172
30
0
41
1
10
70.0707623351464
20
42.3272576590825
30
0
41
1
10
70.0668552617126
20
42.3347980278548
30
0
41
1
10
70.0428320860096
20
42.3831120695925
30
0
41
1
10
70.0219535333399
20
42.4364596730916
30
0
41
1
10
70.007792086359
20
42.4988853657364
30
0
0
SPLINE
5
199
100
AcDbEntity
8
1
62
256
6
ByLayer
370
13
48
1
60
0
100
AcDbSpline
70
4
71
3
72
14
73
10
40
0
40
0
40
0
40
0
40
0.0985152723692072
40
0.0985152723692072
40
0.414436270780364
40
0.414436270780364
40
0.704242772098099
40
0.704242772098099
40
1
40
1
40
1
40
1
41
1
10
70.007792086359
20
42.4988853657364
30
0
41
1
10
70.0070883147006
20
42.5019876923067
30
0
41
1
10
70.0065444099979
20
42.5051241285716
30
0
41
1
10
70.0050532075372
20
42.5182708925944
30
0
41
1
10
70.00583828389
20
42.5286758075096
30
0
41
1
10
70.0123337680468
20
42.5473911499956
30
0
41
1
10
70.0177790953188
20
42.5560261206104
30
0
41
1
10
70.0325294637009
20
42.5706825261416
30
0
41
1
10
70.0420968074831
20
42.5768838538444
30
0
41
1
10
70.0525569632054
20
42.5814771988646
30
0
0
SPLINE
5
19A
100
AcDbEntity
8
1
62
256
6
ByLayer
370
13
48
1
60
0
100
AcDbSpline
70
4
71
3
72
12
73
8
40
0
40
0
40
0
40
0
40
0.496107925963443
40
0.496107925963443
40
0.747917555821972
40
0.747917555821972
40
1
40
1
40
1
40
1
41
1
10
70.0525569632054
20
42.5814771988646
30
0
41
1
10
70.0782259885473
20
42.5927491811235
30
0
41
1
10
70.1044232564923
20
42.6035552446359
30
0
41
1
10
70.1444918597127
20
42.6191662468054
30
0
41
1
10
70.1580874387438
20
42.624308344898
30
0
41
1
10
70.1854689641484
20
42.6343717142856
30
0
41
1
10
70.1992572905256
20
42.6392935356267
30
0
41
1
10
70.2131234278909
20
42.6441043346364
30
0
0
SPLINE
5
19B
100
AcDbEntity
8
1
62
256
6
ByLayer
370
13
48
1
60
0
100
AcDbSpline
70
4
71
3
72
12
73
8
40
0
40
0
40
0
40
0
40
0.249995921123566
40
0.249995921123566
40
0.499994611291234
40
0.499994611291234
40
1
40
1
40
1
40
1
41
1
10
70.2131234278909
20
42.6441043346364
30
0
41
1
10
70.2138936076926
20
42.6443715453333
30
0
41
1
10
70.2146638586453
20
42.644638753569
30
0
41
1
10
70.2162045107646
20
42.6451731680805
30
0
41
1
10
70.2169749119804
20
42.645440374373
30
0
41
1
10
70.2192863519124
20
42.6462419944325
30
0
41
1
10
70.2208276026664
20
42.6467764009702
30
0
41
1
10
70.2223691335978
20
42.647310797837
30
0
0
SPLINE
5
19C
100
AcDbEntity
8
1
62
256
6
ByLayer
370
13
48
1
60
0
100
AcDbSpline
70
4
71
3
72
14
73
10
40
0
40
0
40
0
40
0
40
0.209566828991457
40
0.209566828991457
40
0.477962265361934
40
0.477962265361934
40
0.751790472133232
40
0.751790472133232
40
1
40
1
40
1
40
1
41
1
10
70.2223691335978
20
42.6473107978377
30
0
41
1
10
70.241617540391
20
42.6539835723317
30
0
41
1
10
70.2598564545834
20
42.663180252706
30
0
41
1
10
70.2965606674395
20
42.6892593357613
30
0
41
1
10
70.3142538244808
20
42.7080132906935
30
0
41
1
10
70.3412074732291
20
42.7511114579173
30
0
41
1
10
70.3507658802401
20
42.7762565242844
30
0
41
1
10
70.3600817667493
20
42.8262265772015
30
0
41
1
10
70.3608032158717
20
42.8515267435463
30
0
41
1
10
70.3578654950162
20
42.8763570720453
30
0
0
SPLINE
5
19D
100
AcDbEntity
8
1
62
256
6
ByLayer
370
13
48
1
60
0
100
AcDbSpline
70
4
71
3
72
12
73
8
40
0
40
0
40
0
40
0
40
0.484718757846364
40
0.484718757846364
40
0.742368127854248
40
0.742368127854248
40
1
40
1
40
1
40
1
41
1
10
70.3578654950162
20
42.8763570720453
30
0
41
1
10
70.3555314956402
20
42.8960846003139
30
0
41
1
10
70.3537340522475
20
42.9160033906118
30
0
41
1
10
70.3518563021363
20
42.9466254886198
30
0
41
1
10
70.3513650480974
20
42.957287257261
30
0
41
1
10
70.3507097053508
20
42.9786294869599
30
0
41
1
10
70.3505454016022
20
42.9893163525894
30
0
41
1
10
70.3505454016022
20
43.0000000000001
30
0
0
SPLINE
5
19E
100
AcDbEntity
8
1
62
256
6
ByLayer
370
13
48
1
60
0
100
AcDbSpline
70
4
71
3
72
12
73
8
40
0
40
0
40
0
40
0
40
0.484598094488008
40
0.484598094488008
40
0.742275381080524
40
0.742275381080524
40
1
40
1
40
1
40
1
41
1
10
70.3505454016022
20
43.0000000000001
30
0
41
1
10
70.3505454016022
20
43.0200804091535
30
0
41
1
10
70.3511276733155
20
43.0401819969346
30
0
41
1
10
70.3528938955773
20
43.0708171603951
30
0
41
1
10
70.3536688928945
20
43.0814363678008
30
0
41
1
10
70.3555334358541
20
43.1025976540313
30
0
41
1
10
70.3566235745108
20
43.1131459149184
30
0
41
1
10
70.3578654950162
20
43.123642927955
30
0
0
SPLINE
5
19F
100
AcDbEntity
8
1
62
256
6
ByLayer
370
13
48
1
60
0
100
AcDbSpline
70
4
71
3
72
14
73
10
40
0
40
0
40
0
40
0
40
0.250234813702171
40
0.250234813702171
40
0.496416801970183
40
0.496416801970183
40
0.738510482714681
40
0.738510482714681
40
1
40
1
40
1
40
1
41
1
10
70.3578654950162
20
43.123642927955
30
0
41
1
10
70.3608258417355
20
43.1486644957378
30
0
41
1
10
70.3600693337851
20
43.1741656923435
30
0
41
1
10
70.3510838008996
20
43.221710208283
30
0
41
1
10
70.3428512992819
20
43.2444210711678
30
0
41
1
10
70.3198912433955
20
43.2842937206453
30
0
41
1
10
70.3049566128545
20
43.302052567908
30
0
41
1
10
70.2686169570528
20
43.3321683712514
30
0
41
1
10
70.2462475553619
20
43.3444113573821
30
0
41
1
10
70.2223691335977
20
43.3526892021625
30
0
0
SPLINE
5
1A0
100
AcDbEntity
8
1
62
256
6
ByLayer
370
13
48
1
60
0
100
AcDbSpline
70
4
71
3
72
12
73
8
40
0
40
0
40
0
40
0
40
0.375005495397418
40
0.375005495397418
40
0.750004420334853
40
0.750004420334853
40
1
40
1
40
1
40
1
41
1
10
70.2223691335977
20
43.3526892021625
30
0
41
1
10
70.2212129808678
20
43.3530900013835
30
0
41
1
10
70.2200569857663
20
43.3534908060358
30
0
41
1
10
70.2177453331292
20
43.3542924191789
30
0
41
1
10
70.2165896754276
20
43.3546932277252
30
0
41
1
10
70.2146638565235
20
43.3553612471673
30
0
41
1
10
70.2138936066319
20
43.3556284550351
30
0
41
1
10
70.213123427891
20
43.3558956653639
30
0
0
SPLINE
5
1A1
100
AcDbEntity
8
1
62
256
6
ByLayer
370
13
48
1
60
0
100
AcDbSpline
70
4
71
3
72
12
73
8
40
0
40
0
40
0
40
0
40
0.497315582869531
40
0.497315582869531
40
0.748831584262143
40
0.748831584262143
40
1
40
1
40
1
40
1
41
1
10
70.213123427891
20
43.3558956653638
30
0
41
1
10
70.1857749585759
20
43.3653841036817
30
0
41
1
10
70.1587228913462
20
43.3753057534162
30
0
41
1
10
70.1185879067827
20
43.3909182502116
30
0
41
1
10
70.1052046989863
20
43.3962784934546
30
0
41
1
10
70.0786905265708
20
43.4072261463116
30
0
41
1
10
70.0655562462091
20
43.4128144547748
30
0
41
1
10
70.0525569632054
20
43.4185228011357
30
0
0
SPLINE
5
1A2
100
AcDbEntity
8
1
62
256
6
ByLayer
370
13
48
1
60
0
100
AcDbSpline
70
4
71
3
72
14
73
10
40
0
40
0
40
0
40
0
40
0.146358635709911
40
0.146358635709911
40
0.433881431207652
40
0.433881431207652
40
0.719759865932541
40
0.719759865932541
40
1
40
1
40
1
40
1
41
1
10
70.0525569632054
20
43.4185228011356
30
0
41
1
10
70.0473223781939
20
43.4208214528607
30
0
41
1
10
70.0423304731995
20
43.4234958665962
30
0
41
1
10
70.0288154758868
20
43.432383332458
30
0
41
1
10
70.0212172293988
20
43.4397790385058
30
0
41
1
10
70.0106066155423
20
43.4560979332968
30
0
41
1
10
70.007411880434
20
43.4652294196629
30
0
41
1
10
70.0050958171895
20
43.4832595199359
30
0
41
1
10
70.0058073973601
20
43.4923658400468
30
0
41
1
10
70.007792086359
20
43.5011146342639
30
0
0
SPLINE
5
1A3
100
AcDbEntity
8
1
62
256
6
ByLayer
370
13
48
1
60
0
100
AcDbSpline
70
4
71
3
72
10
73
6
40
0
40
0
40
0
40
0
40
0.164022507484308
40
0.164022507484308
40
1
40
1
40
1
40
1
41
1
10
70.007792086359
20
43.5011146342639
30
0
41
1
10
70.0106088732772
20
43.5135314356427
30
0
41
1
10
70.0136935122212
20
43.5255730123077
30
0
41
1
10
70.0335290779585
20
43.595659038038
30
0
41
1
10
70.0537691349527
20
43.6444619959101
30
0
41
1
10
70.0749813396557
20
43.679763673083
30
0
0
SPLINE
5
1A4
100
AcDbEntity
8
1
62
256
6
ByLayer
370
13
48
1
60
0
100
AcDbSpline
70
4
71
3
72
8
73
4
40
0
40
0
40
0
40
0
40
1
40
1
40
1
40
1
41
1
10
71.8612392286166
20
43.6953878909252
30
0
41
1
10
71.8678919852692
20
43.6903882001403
30
0
41
1
10
71.8740636815955
20
43.684937349146
30
0
41
1
10
71.8796413868037
20
43.6790036530607
30
0
0
SPLINE
5
1A5
100
AcDbEntity
8
1
62
256
6
ByLayer
370
13
48
1
60
0
100
AcDbSpline
70
4
71
3
72
8
73
4
40
0
40
0
40
0
40
0
40
1
40
1
40
1
40
1
41
1
10
71.8796413868037
20
43.6790036530607
30
0
41
1
10
71.9017885112893
20
43.6554430128066
30
0
41
1
10
71.9256559333115
20
43.626303488891
30
0
41
1
10
71.9531379821875
20
43.5939215670256
30
0
0
SPLINE
5
1A6
100
AcDbEntity
8
1
62
256
6
ByLayer
370
13
48
1
60
0
100
AcDbSpline
70
4
71
3
72
10
73
6
40
0
40
0
40
0
40
0
40
0.101705478367115
40
0.101705478367115
40
1
40
1
40
1
40
1
41
1
10
71.9531379821875
20
43.5939215670256
30
0
41
1
10
71.957057103871
20
43.5893036910911
30
0
41
1
10
71.961081253706
20
43.5846291050253
30
0
41
1
10
72.0013120480038
20
43.5388126864699
30
0
41
1
10
72.0478377355349
20
43.4941372768784
30
0
41
1
10
72.1030083519937
20
43.4543590518698
30
0
0
SPLINE
5
1A7
100
AcDbEntity
8
1
62
256
6
ByLayer
370
13
48
1
60
0
100
AcDbSpline
70
4
71
3
72
22
73
18
40
0
40
0
40
0
40
0
40
0.0535247857815907
40
0.0535247857815907
40
0.344422421150875
40
0.344422421150875
40
0.436152029470063
40
0.436152029470063
40
0.486473184357829
40
0.486473184357829
40
0.536644672635369
40
0.536644672635369
40
0.60048485243454
40
0.60048485243454
40
0.694476768116402
40
0.694476768116402
40
1
40
1
40
1
40
1
41
1
10
72.1030083519937
20
43.4543590518698
30
0
41
1
10
72.1196320996513
20
43.4423732663685
30
0
41
1
10
72.1363261903863
20
43.430120108357
30
0
41
1
10
72.2432990561216
20
43.3500038623121
30
0
41
1
10
72.3386373424032
20
43.2762897831424
30
0
41
1
10
72.4424827579691
20
43.1526888660014
30
0
41
1
10
72.4660243688269
20
43.1199335135649
30
0
41
1
10
72.4907794752772
20
43.0630265638881
30
0
41
1
10
72.4971979093959
20
43.0411401152179
30
0
41
1
10
72.5017476526598
20
42.9968665556862
30
0
41
1
10
72.4998237299355
20
42.9739613354331
30
0
41
1
10
72.4874292546898
20
42.9252875364345
30
0
41
1
10
72.4749890844967
20
42.8995453442665
30
0
41
1
10
72.4390316300353
20
42.8414948111737
30
0
41
1
10
72.412747240622
20
42.8105645723898
30
0
41
1
10
72.2973943411544
20
42.6890817876256
30
0
41
1
10
72.1976068779859
20
42.6138468463802
30
0
41
1
10
72.1030083519667
20
42.5456409481109
30
0
0
SPLINE
5
1A8
100
AcDbEntity
8
1
62
256
6
ByLayer
370
13
48
1
60
0
100
AcDbSpline
70
4
71
3
72
10
73
6
40
0
40
0
40
0
40
0
40
0.106342453443183
40
0.106342453443183
40
1
40
1
40
1
40
1
41
1
10
72.1030083519667
20
42.5456409481109
30
0
41
1
10
72.0963895832056
20
42.5408687905753
30
0
41
1
10
72.0898960212793
20
42.5360364705016
30
0
41
1
10
72.0307812728786
20
42.4906881527767
30
0
41
1
10
71.9871169313448
20
42.4461156107574
30
0
41
1
10
71.9531379821875
20
42.4060784329747
30
0
0
SPLINE
5
1A9
100
AcDbEntity
8
1
62
256
6
ByLayer
370
13
48
1
60
0
100
AcDbSpline
70
4
71
3
72
8
73
4
40
0
40
0
40
0
40
0
40
1
40
1
40
1
40
1
41
1
10
71.9531379821875
20
42.4060784329747
30
0
41
1
10
71.9256559333116
20
42.3736965111094
30
0
41
1
10
71.9017885112895
20
42.3445569871939
30
0
41
1
10
71.8796413868039
20
42.3209963469399
30
0
0
SPLINE
5
1AA
100
AcDbEntity
8
1
62
256
6
ByLayer
370
13
48
1
60
0
100
AcDbSpline
70
4
71
3
72
8
73
4
40
0
40
0
40
0
40
0
40
1
40
1
40
1
40
1
41
1
10
71.8796413868039
20
42.3209963469399
30
0
41
1
10
71.8740636815957
20
42.3150626508545
30
0
41
1
10
71.8678919852692
20
42.3096117998601
30
0
41
1
10
71.8612392286166
20
42.304612109075
30
0
0
SPLINE
5
1AB
100
AcDbEntity
8
1
62
256
6
ByLayer
370
13
48
1
60
0
100
AcDbSpline
70
4
71
3
72
8
73
4
40
0
40
0
40
0
40
0
40
1
40
1
40
1
40
1
41
1
10
71.7709170449827
20
43.7714484982295
30
0
41
1
10
71.8020351268595
20
43.7463085158902
30
0
41
1
10
71.8323463374083
20
43.7209899712437
30
0
41
1
10
71.8612392286166
20
43.6953878909252
30
0
0
SPLINE
5
1AC
100
AcDbEntity
8
1
62
256
6
ByLayer
370
13
48
1
60
0
100
AcDbSpline
70
4
71
3
72
14
73
10
40
0
40
0
40
0
40
0
40
0.266795397634221
40
0.266795397634221
40
0.588216378506765
40
0.588216378506765
40
0.792812125325585
40
0.792812125325585
40
1
40
1
40
1
40
1
41
1
10
71.6117108282576
20
43.7909403399856
30
0
41
1
10
71.6283191383985
20
43.7919900454165
30
0
41
1
10
71.6450519942377
20
43.7925274800604
30
0
41
1
10
71.6810516869463
20
43.7922432250422
30
0
41
1
10
71.7005882478431
20
43.7911221160197
30
0
41
1
10
71.7294317577716
20
43.7870426782695
30
0
41
1
10
71.740075107988
20
43.7848498623077
30
0
41
1
10
71.7582004556814
20
43.7791583801817
30
0
41
1
10
71.7658492932568
20
43.775542683385
30
0
41
1
10
71.7709170449827
20
43.7714484982295
30
0
0
SPLINE
5
1AD
100
AcDbEntity
8
1
62
256
6
ByLayer
370
13
48
1
60
0
100
AcDbSpline
70
4
71
3
72
8
73
4
40
0
40
0
40
0
40
0
40
1
40
1
40
1
40
1
41
1
10
71.8612392286166
20
42.304612109075
30
0
41
1
10
71.8323463374083
20
42.2790100287566
30
0
41
1
10
71.8020351268595
20
42.25369148411
30
0
41
1
10
71.7709170449827
20
42.2285515017708
30
0
0
SPLINE
5
1AE
100
AcDbEntity
8
1
62
256
6
ByLayer
370
18
48
1
60
0
100
AcDbSpline
70
4
71
3
72
8
73
4
40
0
40
0
40
0
40
0
40
1
40
1
40
1
40
1
41
1
10
68.0940255880444
20
41.3000000000001
30
0
41
1
10
68.094025588151
20
41.3083336666668
30
0
41
1
10
68.0940255882571
20
41.3166673333334
30
0
41
1
10
68.0940255883626
20
41.3250010000001
30
0
0
SPLINE
5
1AF
100
AcDbEntity
8
1
62
256
6
ByLayer
370
18
48
1
60
0
100
AcDbSpline
70
4
71
3
72
12
73
8
40
0
40
0
40
0
40
0
40
0.279869576096534
40
0.349272013471801
40
0.462233024923962
40
0.575591215043816
40
1
40
1
40
1
40
1
41
1
10
69.1897397170711
20
41.3000000000001
30
0
41
1
10
69.2305217859447
20
41.3000000000001
30
0
41
1
10
69.2813329897696
20
41.3000000000001
30
0
41
1
10
69.3486320961791
20
41.3000000000001
30
0
41
1
10
69.3911192099325
20
41.3000000000001
30
0
41
1
10
69.4815867463963
20
41.3000000000001
30
0
41
1
10
69.5482281661726
20
41.3000000000001
30
0
41
1
10
69.5948827170793
20
41.3000000000001
30
0
0
SPLINE
5
1B0
100
AcDbEntity
8
1
62
256
6
ByLayer
370
13
48
1
60
0
100
AcDbSpline
70
4
71
3
72
14
73
10
40
0
40
0
40
0
40
0
40
0.136203122873046
40
0.136203122873046
40
0.341331556238926
40
0.341331556238926
40
0.593041737013191
40
0.593041737013191
40
1
40
1
40
1
40
1
41
1
10
71.7709170449827
20
42.2285515017708
30
0
41
1
10
71.7675517247921
20
42.2258326937642
30
0
41
1
10
71.7630822252156
20
42.2233243803959
30
0
41
1
10
71.7499298143351
20
42.2178463359405
30
0
41
1
10
71.7400783636782
20
42.2151902705154
30
0
41
1
10
71.7162898426909
20
42.2107474053607
30
0
41
1
10
71.7016257900577
20
42.2092049622002
30
0
41
1
10
71.662509019681
20
42.2070377686249
30
0
41
1
10
71.6368641790569
20
42.2074698770256
30
0
41
1
10
71.6117108282575
20
42.2090596600147
30
0
0
SPLINE
5
1B1
100
AcDbEntity
8
1
62
256
6
ByLayer
370
18
48
1
60
0
100
AcDbSpline
70
4
71
3
72
8
73
4
40
0
40
0
40
0
40
0
40
1
40
1
40
1
40
1
41
1
10
68.0940255880444
20
44.7000000000001
30
0
41
1
10
68.0940255881511
20
44.6916663333335
30
0
41
1
10
68.0940255882572
20
44.6833326666668
30
0
41
1
10
68.0940255883627
20
44.6749990000002
30
0
0
SPLINE
5
1B2
100
AcDbEntity
8
1
62
256
6
ByLayer
370
18
48
1
60
0
100
AcDbSpline
70
4
71
2
72
8
73
5
40
0
40
0
40
0
40
0.132603808896657
40
0.132603808896657
40
1
40
1
40
1
41
1
10
69.325754590458
20
44.7000000000001
30
0
41
1
10
69.3378753748949
20
44.7000000000001
30
0
41
1
10
69.3462315780004
20
44.7000000000001
30
0
41
1
10
69.4870084597082
20
44.7000000000001
30
0
41
1
10
69.5949355904579
20
44.7000000000001
30
0
0
SPLINE
5
1B3
100
AcDbEntity
8
1
62
256
6
ByLayer
370
13
48
1
60
0
100
AcDbSpline
70
4
71
3
72
10
73
6
40
0
40
0
40
0
40
0
40
0.469742002065234
40
0.469742002065234
40
1
40
1
40
1
40
1
41
1
10
69.1943413365114
20
41.4410406040081
30
0
41
1
10
69.261670967684
20
41.4411141709777
30
0
41
1
10
69.3284612712287
20
41.4412870925211
30
0
41
1
10
69.4678981915866
20
41.441981764983
30
0
41
1
10
69.536501452071
20
41.4415156578183
30
0
41
1
10
69.5948828441303
20
41.4414787238132
30
0
0
SPLINE
5
1B4
100
AcDbEntity
8
1
62
256
6
ByLayer
370
13
48
1
60
0
100
AcDbSpline
70
4
71
3
72
10
73
6
40
0
40
0
40
0
40
0
40
0.271189366890509
40
0.271189366890509
40
1
40
1
40
1
40
1
41
1
10
69.5948828441303
20
44.5585212761871
30
0
41
1
10
69.5645469964296
20
44.5585020847236
30
0
41
1
10
69.5316481387211
20
44.5584503322147
30
0
41
1
10
69.4043566106603
20
44.5585210852967
30
0
41
1
10
69.2963185202283
20
44.5586148940837
30
0
41
1
10
69.1916208999758
20
44.5585888822739
30
0
0
SPLINE
5
1B5
100
AcDbEntity
8
1
62
256
6
ByLayer
370
13
48
1
60
0
100
AcDbSpline
70
4
71
3
72
8
73
4
40
0
40
0
40
0
40
0
40
1
40
1
40
1
40
1
41
1
10
71.8022670699779
20
41.9118311229527
30
0
41
1
10
71.735591632027
20
41.9788247131757
30
0
41
1
10
71.6702596862046
20
42.0471658716194
30
0
41
1
10
71.6058506900534
20
42.116341274558
30
0
0
SPLINE
5
1B6
100
AcDbEntity
8
1
62
256
6
ByLayer
370
13
48
1
60
0
100
AcDbSpline
70
4
71
3
72
8
73
4
40
0
40
0
40
0
40
0
40
1
40
1
40
1
40
1
41
1
10
71.8022670699779
20
44.0881688770476
30
0
41
1
10
71.735591632027
20
44.0211752868245
30
0
41
1
10
71.6702596862046
20
43.9528341283809
30
0
41
1
10
71.6058506900534
20
43.8836587254423
30
0
0
SPLINE
5
1B7
100
AcDbEntity
8
1
62
256
6
ByLayer
370
13
48
1
60
0
100
AcDbSpline
70
4
71
3
72
14
73
10
40
0
40
0
40
0
40
0
40
0.227211797335153
40
0.227211797335153
40
0.440863858228167
40
0.440863858228167
40
0.754067952335979
40
0.754067952335979
40
1
40
1
40
1
40
1
41
1
10
71.827601014892
20
43.8047930408046
30
0
41
1
10
71.8194894327671
20
43.8117916253346
30
0
41
1
10
71.8081952324147
20
43.8190308620419
30
0
41
1
10
71.7819004770138
20
43.8325738963032
30
0
41
1
10
71.7669338023778
20
43.8390344672124
30
0
41
1
10
71.727116727386
20
43.8538832961158
30
0
41
1
10
71.7003050585002
20
43.8620153659391
30
0
41
1
10
71.6509997489856
20
43.874525700993
30
0
41
1
10
71.6284130284008
20
43.8794417724039
30
0
41
1
10
71.6058506900534
20
43.8836587254424
30
0
0
SPLINE
5
1B8
100
AcDbEntity
8
1
62
256
6
ByLayer
370
13
48
1
60
0
100
AcDbSpline
70
4
71
3
72
14
73
10
40
0
40
0
40
0
40
0
40
0.444167189427318
40
0.444167189427318
40
0.907416360928084
40
0.907416360928084
40
0.983345356785529
40
0.983345356785529
40
1
40
1
40
1
40
1
41
1
10
71.92953206895
20
43.9651378789163
30
0
41
1
10
71.9148301349194
20
43.9793611272933
30
0
41
1
10
71.89727086145
20
43.9963448469379
30
0
41
1
10
71.8587609098673
20
44.0335789491007
30
0
41
1
10
71.8370796347394
20
44.0545350036349
30
0
41
1
10
71.8118382446761
20
44.0789224631475
30
0
41
1
10
71.8082241827247
20
44.0824140427684
30
0
41
1
10
71.8038292329151
20
44.0866597810332
30
0
41
1
10
71.8030481406258
20
44.0874143344229
30
0
41
1
10
71.8022670699778
20
44.0881688770475
30
0
0
SPLINE
5
1B9
100
AcDbEntity
8
1
62
256
6
ByLayer
370
13
48
1
60
0
100
AcDbSpline
70
4
71
3
72
10
73
6
40
0
40
0
40
0
40
0
40
0.635676539314332
40
0.635676539314332
40
1
40
1
40
1
40
1
41
1
10
71.9567233231078
20
43.9396809050806
30
0
41
1
10
71.9517886304992
20
43.9440980990628
30
0
41
1
10
71.9462831167138
20
43.9491775758385
30
0
41
1
10
71.9368712173818
20
43.9580757067085
30
0
41
1
10
71.9332733120422
20
43.9615184483
30
0
41
1
10
71.9295320689355
20
43.9651378789014
30
0
0
SPLINE
5
1BA
100
AcDbEntity
8
1
62
256
6
ByLayer
370
13
48
1
60
0
100
AcDbSpline
70
4
71
3
72
14
73
10
40
0
40
0
40
0
40
0
40
0.379834320808259
40
0.379834320808259
40
0.631210770699312
40
0.631210770699312
40
0.849410729670967
40
0.849410729670967
40
1
40
1
40
1
40
1
41
1
10
71.6058506900545
20
42.1163412745526
30
0
41
1
10
71.640403372219
20
42.1227992504853
30
0
41
1
10
71.6752740386825
20
42.1309705772576
30
0
41
1
10
71.7283312327764
20
42.1467342517756
30
0
41
1
10
71.7486005534598
20
42.1537309989942
30
0
41
1
10
71.7820194936536
20
42.1674827845869
30
0
41
1
10
71.7960160172765
20
42.174263959478
30
0
41
1
10
71.8153850045279
20
42.1857659909581
30
0
41
1
10
71.8221856797106
20
42.1905346671019
30
0
41
1
10
71.8276010148923
20
42.1952069591953
30
0
0
SPLINE
5
1BB
100
AcDbEntity
8
1
62
256
6
ByLayer
370
13
48
1
60
0
100
AcDbSpline
70
4
71
3
72
10
73
6
40
0
40
0
40
0
40
0
40
0.635676539314332
40
0.635676539314332
40
1
40
1
40
1
40
1
41
1
10
71.9567233231078
20
42.0603190949196
30
0
41
1
10
71.9517886304992
20
42.0559019009375
30
0
41
1
10
71.9462831167138
20
42.0508224241618
30
0
41
1
10
71.9368712173818
20
42.0419242932918
30
0
41
1
10
71.9332733120422
20
42.0384815517003
30
0
41
1
10
71.9295320689355
20
42.0348621210988
30
0
0
SPLINE
5
1BC
100
AcDbEntity
8
1
62
256
6
ByLayer
370
13
48
1
60
0
100
AcDbSpline
70
4
71
3
72
14
73
10
40
0
40
0
40
0
40
0
40
0.444167189427318
40
0.444167189427318
40
0.907416360928084
40
0.907416360928084
40
0.983345356785529
40
0.983345356785529
40
1
40
1
40
1
40
1
41
1
10
71.92953206895
20
42.034862121084
30
0
41
1
10
71.9148301349194
20
42.020638872707
30
0
41
1
10
71.89727086145
20
42.0036551530623
30
0
41
1
10
71.8587609098673
20
41.9664210508996
30
0
41
1
10
71.8370796347394
20
41.9454649963654
30
0
41
1
10
71.8118382446761
20
41.9210775368528
30
0
41
1
10
71.8082241827247
20
41.9175859572319
30
0
41
1
10
71.8038292329151
20
41.9133402189671
30
0
41
1
10
71.8030481406258
20
41.9125856655773
30
0
41
1
10
71.8022670699778
20
41.9118311229527
30
0
0
SPLINE
5
1BD
100
AcDbEntity
8
1
62
256
6
ByLayer
370
13
48
1
60
0
100
AcDbSpline
70
4
71
3
72
14
73
10
40
0
40
0
40
0
40
0
40
0.444167523254406
40
0.444167523254406
40
0.907416528022182
40
0.907416528022182
40
0.983345421218332
40
0.983345421218332
40
1
40
1
40
1
40
1
41
1
10
71.9786440339732
20
44.0731908083756
30
0
41
1
10
71.9582612980086
20
44.0749218145069
30
0
41
1
10
71.9339198409798
20
44.0769889830324
30
0
41
1
10
71.8805450699942
20
44.0815216553306
30
0
41
1
10
71.8504996564203
20
44.0840731021467
30
0
41
1
10
71.8155273744393
20
44.0870428553964
30
0
41
1
10
71.8105201979462
20
44.0874680496818
30
0
41
1
10
71.8044313098843
20
44.0879850973939
30
0
41
1
10
71.8033491786773
20
44.0880769881385
30
0
41
1
10
71.8022670704387
20
44.0881688770154
30
0
0
SPLINE
5
1BE
100
AcDbEntity
8
1
62
256
6
ByLayer
370
13
48
1
60
0
100
AcDbSpline
70
4
71
3
72
14
73
10
40
0
40
0
40
0
40
0
40
0.444167523254406
40
0.444167523254406
40
0.907416528022182
40
0.907416528022182
40
0.983345421218332
40
0.983345421218332
40
1
40
1
40
1
40
1
41
1
10
71.9786440339732
20
41.9268091916247
30
0
41
1
10
71.9582612980086
20
41.9250781854934
30
0
41
1
10
71.9339198409798
20
41.9230110169679
30
0
41
1
10
71.8805450699942
20
41.9184783446697
30
0
41
1
10
71.8504996564203
20
41.9159268978536
30
0
41
1
10
71.8155273744393
20
41.9129571446039
30
0
41
1
10
71.8105201979462
20
41.9125319503185
30
0
41
1
10
71.8044313098843
20
41.9120149026064
30
0
41
1
10
71.8033491786773
20
41.9119230118618
30
0
41
1
10
71.8022670704387
20
41.9118311229849
30
0
0
SPLINE
5
1BF
100
AcDbEntity
8
1
62
256
6
ByLayer
370
13
48
1
60
0
100
AcDbSpline
70
4
71
3
72
10
73
6
40
0
40
0
40
0
40
0
40
0.502445910949252
40
0.502445910949252
40
1
40
1
40
1
40
1
41
1
10
69.6293861108518
20
41.4539621149521
30
0
41
1
10
69.7192033259219
20
41.568927867658
30
0
41
1
10
69.7926923078268
20
41.6981076734213
30
0
41
1
10
69.9277138978389
20
41.9590966983648
30
0
41
1
10
69.9888213319316
20
42.0926358246591
30
0
41
1
10
70.0505794795571
20
42.2257107036879
30
0
0
SPLINE
5
1C0
100
AcDbEntity
8
1
62
256
6
ByLayer
370
13
48
1
60
0
100
AcDbSpline
70
4
71
3
72
10
73
6
40
0
40
0
40
0
40
0
40
0.497554089050764
40
0.497554089050764
40
1
40
1
40
1
40
1
41
1
10
70.0505794795571
20
43.7742892963124
30
0
41
1
10
69.9888213319316
20
43.9073641753412
30
0
41
1
10
69.9277138978389
20
44.0409033016354
30
0
41
1
10
69.7926923078268
20
44.301892326579
30
0
41
1
10
69.7192033259221
20
44.4310721323423
30
0
41
1
10
69.629386110852
20
44.5460378850482
30
0
0
SPLINE
5
1C1
100
AcDbEntity
8
1
62
256
6
ByLayer
370
13
48
1
60
0
100
AcDbSpline
70
4
71
3
72
12
73
8
40
0
40
0
40
0
40
0
40
0.463337467097879
40
0.463337467097879
40
0.900600131165872
40
0.900600131165872
40
1
40
1
40
1
40
1
41
1
10
73.2587805434612
20
41.6411531956115
30
0
41
1
10
73.0818273249508
20
41.69270841265
30
0
41
1
10
72.9004220305699
20
41.7419022162887
30
0
41
1
10
72.5720767833214
20
41.8243048477195
30
0
41
1
10
72.4188276083643
20
41.8593093778922
30
0
41
1
10
72.256119941952
20
41.8870495022551
30
0
41
1
10
72.2265505861074
20
41.8916907706693
30
0
41
1
10
72.1981203716814
20
41.895483263052
30
0
0
SPLINE
5
1C2
100
AcDbEntity
8
1
62
256
6
ByLayer
370
13
48
1
60
0
100
AcDbSpline
70
4
71
3
72
12
73
8
40
0
40
0
40
0
40
0
40
0.463337467097879
40
0.463337467097879
40
0.900600131165872
40
0.900600131165872
40
1
40
1
40
1
40
1
41
1
10
73.2587805434612
20
44.3588468043888
30
0
41
1
10
73.0818273249508
20
44.3072915873503
30
0
41
1
10
72.9004220305699
20
44.2580977837115
30
0
41
1
10
72.5720767833214
20
44.1756951522807
30
0
41
1
10
72.4188276083643
20
44.1406906221081
30
0
41
1
10
72.256119941952
20
44.1129504977452
30
0
41
1
10
72.2265505861074
20
44.108309229331
30
0
41
1
10
72.1981203716814
20
44.1045167369483
30
0
0
SPLINE
5
1C3
100
AcDbEntity
8
1
62
256
6
ByLayer
370
13
48
1
60
0
100
AcDbSpline
70
4
71
3
72
10
73
6
40
0
40
0
40
0
40
0
40
0.536023803633901
40
0.536023803633901
40
1
40
1
40
1
40
1
41
1
10
69.5968060580059
20
41.4579522888767
30
0
41
1
10
69.5381775714991
20
41.4579917645817
30
0
41
1
10
69.4692783108239
20
41.4584563264286
30
0
41
1
10
69.3307615620125
20
41.4577834642591
30
0
41
1
10
69.2653396280712
20
41.4575974134499
30
0
41
1
10
69.1994265962997
20
41.457499812738
30
0
0
SPLINE
5
1C4
100
AcDbEntity
8
1
62
256
6
ByLayer
370
13
48
1
60
0
100
AcDbSpline
70
4
71
3
72
17
73
13
40
0
40
0
40
0
40
0
40
0.0114388526231597
40
0.156919219898759
40
0.376506152990309
40
0.493377115563732
40
0.600051337153237
40
0.622975374463401
40
0.655963111497825
40
0.66977308584076
40
0.744435183174463
40
1
40
1
40
1
40
1
41
1.02166924057829
10
69.9642619721898
20
42.4819516762821
30
0
41
1.02166924057829
10
69.9620121846722
20
42.4819516762821
30
0
41
1.02166924057829
10
69.9309928442016
20
42.4819516762821
30
0
41
1.02166924057829
10
69.8508721914324
20
42.4819516762821
30
0
41
1.02166924057829
10
69.7319780838438
20
42.4819516762821
30
0
41
1.02166924057829
10
69.6034802291128
20
42.4819516762821
30
0
41
1.02166924057829
10
69.529929800758
20
42.4819516762821
30
0
41
1.02166924057829
10
69.4811802263964
20
42.4819516762821
30
0
41
1.02166924057829
10
69.4626115241026
20
42.4819516762822
30
0
41
1.02166924057829
10
69.4354849092951
20
42.4819516762822
30
0
41
1.02166924057829
10
69.3621912359768
20
42.4819516762821
30
0
41
1.02166924057829
10
69.2896954281698
20
42.4819516762821
30
0
41
1.02166924057829
10
69.2328999721881
20
42.4819516762821
30
0
0
SPLINE
5
1C5
100
AcDbEntity
8
1
62
256
6
ByLayer
370
13
48
1
60
0
100
AcDbSpline
70
4
71
3
72
12
73
8
40
0
40
0
40
0
40
0
40
0.0001909827237722
40
0.0001909827237722
40
0.835060855040991
40
0.835060855040991
40
1
40
1
40
1
40
1
41
1
10
69.9642619721898
20
42.4819516762821
30
0
41
1
10
69.9642649947142
20
42.481936582702
30
0
41
1
10
69.9642680166038
20
42.48192148875
30
0
41
1
10
69.9774847059301
20
42.415928143115
30
0
41
1
10
69.9973504519072
20
42.358832342396
30
0
41
1
10
70.0206908788006
20
42.3068067725542
30
0
41
1
10
70.0245975046496
20
42.2987582663674
30
0
41
1
10
70.0288949833901
20
42.291403265843
30
0
0
SPLINE
5
1C6
100
AcDbEntity
8
1
62
256
6
ByLayer
370
13
48
1
60
0
100
AcDbSpline
70
4
71
3
72
14
73
10
40
0
40
0
40
0
40
0
40
0.311178400285531
40
0.311178400285531
40
0.543346484169134
40
0.543346484169134
40
0.778369753410881
40
0.778369753410881
40
1
40
1
40
1
40
1
41
1
10
70.0288949833901
20
42.291403265843
30
0
41
1
10
70.0305297633022
20
42.2886053911269
30
0
41
1
10
70.0317726045296
20
42.284984039013
30
0
41
1
10
70.0328133247892
20
42.2772423980284
30
0
41
1
10
70.0328989549483
20
42.2733952703846
30
0
41
1
10
70.0321296350064
20
42.264964951284
30
0
41
1
10
70.0312384651659
20
42.2602309057776
30
0
41
1
10
70.028603969977
20
42.2510416194134
30
0
41
1
10
70.0268707498712
20
42.2464441767546
30
0
41
1
10
70.024898884992
20
42.2421952452281
30
0
0
SPLINE
5
1C7
100
AcDbEntity
8
1
62
256
6
ByLayer
370
13
48
1
60
0
100
AcDbSpline
70
4
71
3
72
10
73
6
40
0
40
0
40
0
40
0
40
0.499742345998437
40
0.499742345998437
40
1
40
1
40
1
40
1
41
1
10
70.024898884992
20
42.2421952452281
30
0
41
1
10
69.9633542951557
20
42.1095803024912
30
0
41
1
10
69.9028086692734
20
41.9761964427663
30
0
41
1
10
69.7711672507449
20
41.7150921363521
30
0
41
1
10
69.7000490853335
20
41.5862682383328
30
0
41
1
10
69.61321284836
20
41.4704352542151
30
0
0
SPLINE
5
1C8
100
AcDbEntity
8
1
62
256
6
ByLayer
370
13
48
1
60
0
100
AcDbSpline
70
4
71
3
72
12
73
8
40
0
40
0
40
0
40
0
40
0.375703177063746
40
0.375703177063746
40
0.751775167261341
40
0.751775167261341
40
1
40
1
40
1
40
1
41
1
10
69.61321284836
20
41.4704352542151
30
0
41
1
10
69.6114646681788
20
41.4681033138385
30
0
41
1
10
69.6096033447166
20
41.4658660734989
30
0
41
1
10
69.6056333610879
20
41.4619295429914
30
0
41
1
10
69.6034623500599
20
41.4601747610515
30
0
41
1
10
69.5997648192089
20
41.45837241903
30
0
41
1
10
69.598227371424
20
41.4579513318786
30
0
41
1
10
69.5968060580059
20
41.4579522888767
30
0
0
SPLINE
5
1C9
100
AcDbEntity
8
1
62
256
6
ByLayer
370
13
48
1
60
0
100
AcDbSpline
70
4
71
3
72
12
73
8
40
0
40
0
40
0
40
0
40
0.834949441595139
40
0.834949441595139
40
0.999808961982549
40
0.999808961982549
40
1
40
1
40
1
40
1
41
1
10
70.0288949833901
20
43.7085967341573
30
0
41
1
10
70.0074358885221
20
43.6718701641053
30
0
41
1
10
69.9885583727963
20
43.6185153868917
30
0
41
1
10
69.9698264172732
20
43.5441328534998
30
0
41
1
10
69.9669159860823
20
43.5313003068681
30
0
41
1
10
69.9642680166039
20
43.5180785112504
30
0
41
1
10
69.9642649947143
20
43.5180634172983
30
0
41
1
10
69.9642619721898
20
43.5180483237181
30
0
0
SPLINE
5
1CA
100
AcDbEntity
8
1
62
256
6
ByLayer
370
13
48
1
60
0
100
AcDbSpline
70
4
71
3
72
17
73
13
40
0
40
0
40
0
40
0
40
0.0114388526231597
40
0.156919219898759
40
0.376506152990309
40
0.493377115563732
40
0.600051337153237
40
0.622975374463401
40
0.655963111497825
40
0.66977308584076
40
0.744435183174463
40
1
40
1
40
1
40
1
41
1.02166924057829
10
69.9642619721898
20
43.5180483237181
30
0
41
1.02166924057829
10
69.9620121846722
20
43.5180483237181
30
0
41
1.02166924057829
10
69.9309928442016
20
43.5180483237181
30
0
41
1.02166924057829
10
69.8508721914324
20
43.5180483237181
30
0
41
1.02166924057829
10
69.7319780838438
20
43.5180483237181
30
0
41
1.02166924057829
10
69.6034802291128
20
43.5180483237181
30
0
41
1.02166924057829
10
69.529929800758
20
43.5180483237181
30
0
41
1.02166924057829
10
69.4811802263964
20
43.5180483237181
30
0
41
1.02166924057829
10
69.4626115241026
20
43.5180483237181
30
0
41
1.02166924057829
10
69.4354849092951
20
43.5180483237181
30
0
41
1.02166924057829
10
69.3621912359768
20
43.5180483237181
30
0
41
1.02166924057829
10
69.2896954281698
20
43.5180483237181
30
0
41
1.02166924057829
10
69.2328999721881
20
43.5180483237181
30
0
0
SPLINE
5
1CB
100
AcDbEntity
8
1
62
256
6
ByLayer
370
13
48
1
60
0
100
AcDbSpline
70
4
71
3
72
10
73
6
40
0
40
0
40
0
40
0
40
0.725745953634146
40
0.725745953634146
40
1
40
1
40
1
40
1
41
1
10
69.1967651095335
20
44.5421056055695
30
0
41
1
10
69.300351586499
20
44.5421302061917
30
0
41
1
10
69.4069409467158
20
44.5420503874086
30
0
41
1
10
69.5333197414332
20
44.5419767438447
30
0
41
1
10
69.5663501006525
20
44.5420272045327
30
0
41
1
10
69.5968060580058
20
44.5420477111236
30
0
0
SPLINE
5
1CC
100
AcDbEntity
8
1
62
256
6
ByLayer
370
13
48
1
60
0
100
AcDbSpline
70
4
71
3
72
12
73
8
40
0
40
0
40
0
40
0
40
0.233419544939649
40
0.233419544939649
40
0.533242188339535
40
0.533242188339535
40
1
40
1
40
1
40
1
41
1
10
69.5968060580059
20
44.5420477111236
30
0
41
1
10
69.5981428732451
20
44.5420486112274
30
0
41
1
10
69.5995818076068
20
44.541678238699
30
0
41
1
10
69.6027553138586
20
44.540211691228
30
0
41
1
10
69.6045163143434
20
44.5389381077404
30
0
41
1
10
69.6087030592946
20
44.5352126616098
30
0
41
1
10
69.6110488801262
20
44.5324513160326
30
0
41
1
10
69.61321284836
20
44.5295647457851
30
0
0
SPLINE
5
1CD
100
AcDbEntity
8
1
62
256
6
ByLayer
370
13
48
1
60
0
100
AcDbSpline
70
4
71
3
72
12
73
8
40
0
40
0
40
0
40
0
40
0.500303615083402
40
0.500303615083402
40
0.706948141205687
40
0.706948141205687
40
1
40
1
40
1
40
1
41
1
10
69.61321284836
20
44.5295647457851
30
0
41
1
10
69.7000490853335
20
44.4137317616674
30
0
41
1
10
69.7711672507449
20
44.2849078636481
30
0
41
1
10
69.8641815336571
20
44.1004185889361
30
0
41
1
10
69.8905769602075
20
44.0459720344591
30
0
41
1
10
69.9531524224406
20
43.9136368049394
30
0
41
1
10
69.9888033962696
20
43.8355825282974
30
0
41
1
10
70.024898884992
20
43.7578047547721
30
0
0
SPLINE
5
1CE
100
AcDbEntity
8
1
62
256
6
ByLayer
370
13
48
1
60
0
100
AcDbSpline
70
4
71
3
72
16
73
12
40
0
40
0
40
0
40
0
40
0.194932576020356
40
0.194932576020356
40
0.39011325308891
40
0.39011325308891
40
0.582453198361958
40
0.582453198361958
40
0.861227543943274
40
0.861227543943274
40
1
40
1
40
1
40
1
41
1
10
70.024898884992
20
43.7578047547721
30
0
41
1
10
70.0266351273014
20
43.7540635376309
30
0
41
1
10
70.0281854797657
20
43.7500624826757
30
0
41
1
10
70.0306140427217
20
43.7421810455899
30
0
41
1
10
70.0315219079949
20
43.7382004774223
30
0
41
1
10
70.0326119921051
20
43.7308600187312
30
0
41
1
10
70.0328220918345
20
43.7274038091177
30
0
41
1
10
70.0326331363435
20
43.719836356221
30
0
41
1
10
70.0319280541768
20
43.7159842245571
30
0
41
1
10
70.0302825932794
20
43.7112700811137
30
0
41
1
10
70.0296297457924
20
43.70985425704
30
0
41
1
10
70.0288949833901
20
43.7085967341573
30
0
0
SPLINE
5
1CF
100
AcDbEntity
8
1
62
256
6
ByLayer
370
13
48
1
60
0
100
AcDbSpline
70
4
71
3
72
14
73
10
40
0
40
0
40
0
40
0
40
0.233154461884277
40
0.233154461884277
40
0.479060596235394
40
0.479060596235394
40
0.710446838090714
40
0.710446838090714
40
1
40
1
40
1
40
1
41
1
10
70.0505794795571
20
42.2257107036879
30
0
41
1
10
70.0535287299072
20
42.2346044583001
30
0
41
1
10
70.0564221376373
20
42.2438144172027
30
0
41
1
10
70.0618332759262
20
42.2620181487408
30
0
41
1
10
70.0643914009318
20
42.27120491615
30
0
41
1
10
70.0685871649079
20
42.2873985369421
30
0
41
1
10
70.070317522395
20
42.2946810228014
30
0
41
1
10
70.0733370258103
20
42.3088454171325
30
0
41
1
10
70.0744553636977
20
42.3153882316488
30
0
41
1
10
70.0749813396557
20
42.3202363269172
30
0
0
SPLINE
5
1D0
100
AcDbEntity
8
1
62
256
6
ByLayer
370
13
48
1
60
0
100
AcDbSpline
70
4
71
3
72
16
73
12
40
0
40
0
40
0
40
0
40
0.126440774462018
40
0.126440774462018
40
0.393583756685852
40
0.393583756685852
40
0.589520715253497
40
0.589520715253497
40
0.795096123384776
40
0.795096123384776
40
1
40
1
40
1
40
1
41
1
10
70.0749813396557
20
43.679763673083
30
0
41
1
10
70.0747495794539
20
43.6818998839132
30
0
41
1
10
70.0744061147985
20
43.6843497663851
30
0
41
1
10
70.0730009566774
20
43.6928216068408
30
0
41
1
10
70.0715364949884
20
43.6999579774574
30
0
41
1
10
70.0682103368522
20
43.7140620232541
30
0
41
1
10
70.0665319974179
20
43.7206771583876
30
0
41
1
10
70.0626807140419
20
43.7349223140582
30
0
41
1
10
70.0604525899758
20
43.7427138332523
30
0
41
1
10
70.0557194619693
20
43.7584169919007
30
0
41
1
10
70.0531724651187
20
43.766469893217
30
0
41
1
10
70.0505794795553
20
43.7742892963115
30
0
0
SPLINE
5
1D1
100
AcDbEntity
8
1
62
256
6
ByLayer
370
13
48
1
60
0
100
AcDbSpline
70
4
71
3
72
8
73
4
40
0
40
0
40
0
40
0
40
1
40
1
40
1
40
1
41
1
10
72.1981203716814
20
44.1045167369483
30
0
41
1
10
72.1255441431099
20
44.0954747590107
30
0
41
1
10
72.0530161894472
20
44.084643717313
30
0
41
1
10
71.9805367788458
20
44.0729807170981
30
0
0
SPLINE
5
1D2
100
AcDbEntity
8
1
62
256
6
ByLayer
370
13
48
1
60
0
100
AcDbSpline
70
4
71
3
72
10
73
6
40
0
40
0
40
0
40
0
40
0.65577982668938
40
0.65577982668938
40
1
40
1
40
1
40
1
41
1
10
71.9805367788458
20
44.0729807170981
30
0
41
1
10
71.9801191070632
20
44.0729135075823
30
0
41
1
10
71.9796942374047
20
44.0729068953979
30
0
41
1
10
71.979065818018
20
44.0730296981441
30
0
41
1
10
71.9788510647693
20
44.0730967092218
30
0
41
1
10
71.9786440339732
20
44.0731908083755
30
0
0
SPLINE
5
1D3
100
AcDbEntity
8
1
62
256
6
ByLayer
370
13
48
1
60
0
100
AcDbSpline
70
4
71
3
72
10
73
6
40
0
40
0
40
0
40
0
40
0.65577982668938
40
0.65577982668938
40
1
40
1
40
1
40
1
41
1
10
71.9805367788458
20
41.9270192829022
30
0
41
1
10
71.9801191070632
20
41.927086492418
30
0
41
1
10
71.9796942374047
20
41.9270931046024
30
0
41
1
10
71.979065818018
20
41.9269703018561
30
0
41
1
10
71.9788510647693
20
41.9269032907784
30
0
41
1
10
71.9786440339732
20
41.9268091916248
30
0
0
SPLINE
5
1D4
100
AcDbEntity
8
1
62
256
6
ByLayer
370
13
48
1
60
0
100
AcDbSpline
70
4
71
3
72
8
73
4
40
0
40
0
40
0
40
0
40
1
40
1
40
1
40
1
41
1
10
72.1981203716814
20
41.895483263052
30
0
41
1
10
72.1255441431099
20
41.9045252409896
30
0
41
1
10
72.0530161894472
20
41.9153562826873
30
0
41
1
10
71.9805367788458
20
41.9270192829022
30
0
0
SPLINE
5
1D5
100
AcDbEntity
8
1
62
256
6
ByLayer
370
13
48
1
60
0
100
AcDbSpline
70
4
71
3
72
10
73
6
40
0
40
0
40
0
40
0
40
0.895575341108676
40
0.895575341108676
40
1
40
1
40
1
40
1
41
1
10
72.152823718528
20
43.5149402587882
30
0
41
1
10
72.1017089957986
20
43.5498583692307
30
0
41
1
10
72.0590917006009
20
43.5890036231081
30
0
41
1
10
72.0210320216285
20
43.6279727456835
30
0
41
1
10
72.0171123387418
20
43.6320258063282
30
0
41
1
10
72.0132739541156
20
43.6360058933469
30
0
0
SPLINE
5
1D6
100
AcDbEntity
8
1
62
256
6
ByLayer
370
13
48
1
60
0
100
AcDbSpline
70
4
71
3
72
12
73
8
40
0
40
0
40
0
40
0
40
0.186611634777379
40
0.186611634777379
40
0.69338882082023
40
0.69338882082023
40
1
40
1
40
1
40
1
41
1
10
72.1528237185343
20
43.5149402588032
30
0
41
1
10
72.2090277271941
20
43.5259831188685
30
0
41
1
10
72.2680824534584
20
43.5379280426897
30
0
41
1
10
72.4939294786756
20
43.5847273046348
30
0
41
1
10
72.6774173301442
20
43.6248129502768
30
0
41
1
10
72.978376870561
20
43.6937455248085
30
0
41
1
10
73.0952214954585
20
43.7212503932898
30
0
41
1
10
73.2112677608007
20
43.749485934324
30
0
0
SPLINE
5
1D7
100
AcDbEntity
8
1
62
256
6
ByLayer
370
13
48
1
60
0
100
AcDbSpline
70
4
71
3
72
10
73
6
40
0
40
0
40
0
40
0
40
0.895407880007388
40
0.895407880007388
40
1
40
1
40
1
40
1
41
1
10
72.0132739541156
20
42.3639941066534
30
0
41
1
10
72.0458088830838
20
42.397730133929
30
0
41
1
10
72.0859541892357
20
42.4368782105894
30
0
41
1
10
72.1408552378461
20
42.4767538171303
30
0
41
1
10
72.1467812438335
20
42.4809319324813
30
0
41
1
10
72.1528237185017
20
42.4850597411941
30
0
0
SPLINE
5
1D8
100
AcDbEntity
8
1
62
256
6
ByLayer
370
13
48
1
60
0
100
AcDbSpline
70
4
71
3
72
12
73
8
40
0
40
0
40
0
40
0
40
0.186611634810624
40
0.186611634810624
40
0.693388820832762
40
0.693388820832762
40
1
40
1
40
1
40
1
41
1
10
72.1528237184974
20
42.4850597412044
30
0
41
1
10
72.2090277271683
20
42.474016881137
30
0
41
1
10
72.2680824534451
20
42.4620719573133
30
0
41
1
10
72.4939294786756
20
42.4152726953655
30
0
41
1
10
72.6774173301442
20
42.3751870497235
30
0
41
1
10
72.978376870561
20
42.3062544751917
30
0
41
1
10
73.0952214954585
20
42.2787496067105
30
0
41
1
10
73.2112677608007
20
42.2505140656763
30
0
0
SPLINE
5
1D9
100
AcDbEntity
8
1
62
256
6
ByLayer
370
13
48
1
60
0
100
AcDbSpline
70
4
71
3
72
12
73
8
40
0
40
0
40
0
40
0
40
0.419389511187602
40
0.419389511187602
40
0.73199563373051
40
0.73199563373051
40
1
40
1
40
1
40
1
41
1
10
69.6293861108518
20
44.5460378850482
30
0
41
1
10
69.624535459197
20
44.5491422944766
30
0
41
1
10
69.6195494047903
20
44.5518658958869
30
0
41
1
10
69.6109438735578
20
44.5555141921702
30
0
41
1
10
69.6072592207381
20
44.556733442406
30
0
41
1
10
69.6006642853838
20
44.5581761020007
30
0
41
1
10
69.597688192018
20
44.558522107419
30
0
41
1
10
69.5948828441303
20
44.5585212761872
30
0
0
SPLINE
5
1DA
100
AcDbEntity
8
1
62
256
6
ByLayer
370
13
48
1
60
0
100
AcDbSpline
70
4
71
3
72
18
73
14
40
0
40
0
40
0
40
0
40
0.0003510431352723
40
0.0003510431352723
40
0.272262893622951
40
0.272262893622951
40
0.561312801131931
40
0.561312801131931
40
0.853766373242132
40
0.853766373242132
40
0.999648956870035
40
0.999648956870035
40
1
40
1
40
1
40
1
41
1
10
69.9642619721898
20
43.5180483237179
30
0
41
1
10
69.9642606486735
20
43.5180318745854
30
0
41
1
10
69.9642593256509
20
43.518015426959
30
0
41
1
10
69.9632362148502
20
43.5052582466387
30
0
41
1
10
69.9638813516759
20
43.4923513287173
30
0
41
1
10
69.9693719002483
20
43.4667700324075
30
0
41
1
10
69.9745633812585
20
43.4539245078549
30
0
41
1
10
69.989589862304
20
43.4308504225575
30
0
41
1
10
69.9996551870804
20
43.4204032621206
30
0
41
1
10
70.0173245018117
20
43.4076997058703
30
0
41
1
10
70.0237139278251
20
43.4038971106754
30
0
41
1
10
70.0304507857487
20
43.4005927333919
30
0
41
1
10
70.0304668731359
20
43.4005848471207
30
0
41
1
10
70.0304829603425
20
43.400576963399
30
0
0
SPLINE
5
1DB
100
AcDbEntity
8
1
62
256
6
ByLayer
370
13
48
1
60
0
100
AcDbSpline
70
4
71
3
72
12
73
8
40
0
40
0
40
0
40
0
40
0.284615438372511
40
0.284615438372511
40
0.667690975958614
40
0.667690975958614
40
1
40
1
40
1
40
1
41
1
10
69.5948828441303
20
41.4414787238132
30
0
41
1
10
69.5978605568158
20
41.4414778415092
30
0
41
1
10
69.601031813027
20
41.4418685536936
30
0
41
1
10
69.6086278393443
20
41.4436219155743
30
0
41
1
10
69.6131769281054
20
41.4452868096962
30
0
41
1
10
69.6215997566266
20
41.4492722789122
30
0
41
1
10
69.6255317184138
20
41.4514953098478
30
0
41
1
10
69.6293861108527
20
41.4539621149455
30
0
0
SPLINE
5
1DC
100
AcDbEntity
8
1
62
256
6
ByLayer
370
13
48
1
60
0
100
AcDbSpline
70
4
71
3
72
17
73
13
40
0
40
0
40
0
40
0
40
0.118467527993267
40
0.326190253526628
40
0.436746717609749
40
0.537657367167769
40
0.559342826512977
40
0.590548247297789
40
0.603612073408354
40
0.674240202932472
40
0.924100453480259
40
1
40
1
40
1
40
1
41
1.02166924057829
10
70.0304829603475
20
43.400576963399
30
0
41
1.02166924057829
10
70.0025181202442
20
43.400576963399
30
0
41
1.02166924057829
10
69.9210297461439
20
43.400576963399
30
0
41
1.02166924057829
10
69.7958987039927
20
43.400576963399
30
0
41
1.02166924057829
10
69.6536837810792
20
43.400576963399
30
0
41
1.02166924057829
10
69.5730086984349
20
43.400576963399
30
0
41
1.02166924057829
10
69.5197953278362
20
43.400576963399
30
0
41
1.02166924057829
10
69.500101976915
20
43.400576963399
30
0
41
1.02166924057829
10
69.4726113637334
20
43.400576963399
30
0
41
1.02166924057829
10
69.3976871203486
20
43.400576963399
30
0
41
1.02166924057829
10
69.3056201861365
20
43.400576963399
30
0
41
1.02166924057829
10
69.2287411960587
20
43.400576963399
30
0
41
1.02166924057829
10
69.2107649603472
20
43.4005769633989
30
0
0
SPLINE
5
1DD
100
AcDbEntity
8
1
62
256
6
ByLayer
370
13
48
1
60
0
100
AcDbSpline
70
4
71
3
72
18
73
14
40
0
40
0
40
0
40
0
40
0.0003522007305194
40
0.0003522007305194
40
0.297488387658359
40
0.297488387658359
40
0.59301932818094
40
0.59301932818094
40
0.905704189131033
40
0.905704189131033
40
0.999647799262026
40
0.999647799262026
40
1
40
1
40
1
40
1
41
1
10
70.0304829603425
20
42.5994230366013
30
0
41
1
10
70.0304668731361
20
42.5994151528796
30
0
41
1
10
70.0304507857492
20
42.5994072666084
30
0
41
1
10
70.0168650973809
20
42.5927435903763
30
0
41
1
10
70.0045872514044
20
42.5839205976911
30
0
41
1
10
69.9848447184793
20
42.5631921535432
30
0
41
1
10
69.9771334079903
20
42.5510569472467
30
0
41
1
10
69.9666355950012
20
42.5246081235083
30
0
41
1
10
69.964006639433
20
42.5099159053002
30
0
41
1
10
69.9637463392745
20
42.4908784576638
30
0
41
1
10
69.9639024360131
20
42.4864346340304
30
0
41
1
10
69.9642593256509
20
42.4819845730412
30
0
41
1
10
69.9642606486735
20
42.4819681254149
30
0
41
1
10
69.9642619721898
20
42.4819516762823
30
0
0
SPLINE
5
1DE
100
AcDbEntity
8
1
62
256
6
ByLayer
370
13
48
1
60
0
100
AcDbSpline
70
4
71
3
72
17
73
13
40
0
40
0
40
0
40
0
40
0.118467527993267
40
0.326190253526628
40
0.436746717609749
40
0.537657367167769
40
0.559342826512977
40
0.590548247297789
40
0.603612073408354
40
0.674240202932472
40
0.924100453480259
40
1
40
1
40
1
40
1
41
1.02166924057829
10
70.0304829603475
20
42.5994230366013
30
0
41
1.02166924057829
10
70.0025181202442
20
42.5994230366013
30
0
41
1.02166924057829
10
69.9210297461439
20
42.5994230366013
30
0
41
1.02166924057829
10
69.7958987039927
20
42.5994230366013
30
0
41
1.02166924057829
10
69.6536837810792
20
42.5994230366013
30
0
41
1.02166924057829
10
69.5730086984349
20
42.5994230366013
30
0
41
1.02166924057829
10
69.5197953278362
20
42.5994230366013
30
0
41
1.02166924057829
10
69.500101976915
20
42.5994230366013
30
0
41
1.02166924057829
10
69.4726113637334
20
42.5994230366013
30
0
41
1.02166924057829
10
69.3976871203486
20
42.5994230366013
30
0
41
1.02166924057829
10
69.3056201861365
20
42.5994230366013
30
0
41
1.02166924057829
10
69.2287411960587
20
42.5994230366013
30
0
41
1.02166924057829
10
69.2107649603472
20
42.5994230366012
30
0
0
SPLINE
5
1DF
100
AcDbEntity
8
1
62
256
6
ByLayer
370
13
48
1
60
0
100
AcDbSpline
70
4
71
3
72
22
73
18
40
0
40
0
40
0
40
0
40
0.29870209965608
40
0.29870209965608
40
0.393670626081331
40
0.393670626081331
40
0.460670630485623
40
0.460670630485623
40
0.514736103979951
40
0.514736103979951
40
0.568442815189713
40
0.568442815189713
40
0.662542648285732
40
0.662542648285732
40
0.948162779223048
40
0.948162779223048
40
1
40
1
40
1
40
1
41
1
10
72.1528237185024
20
42.4850597411927
30
0
41
1
10
72.2419293692554
20
42.5630474036975
30
0
41
1
10
72.3361316772848
20
42.6495936547722
30
0
41
1
10
72.4431900401124
20
42.7858002846135
30
0
41
1
10
72.4678625682307
20
42.8211130541083
30
0
41
1
10
72.5015158097832
20
42.8866795379863
30
0
41
1
10
72.5130478798158
20
42.9158758519563
30
0
41
1
10
72.5246257120909
20
42.9707207652803
30
0
41
1
10
72.5263864751528
20
42.9964291173355
30
0
41
1
10
72.5221313786763
20
43.0463727278955
30
0
41
1
10
72.5162091749461
20
43.0710692109417
30
0
41
1
10
72.4931821174293
20
43.1349325799159
30
0
41
1
10
72.4711990350885
20
43.1723523448337
30
0
41
1
10
72.3750568619265
20
43.3105314722477
30
0
41
1
10
72.2849150861722
20
43.3957584107953
30
0
41
1
10
72.1839523892536
20
43.487456578966
30
0
41
1
10
72.1683562737128
20
43.5013457486574
30
0
41
1
10
72.1528237185269
20
43.5149402587862
30
0
0
SPLINE
5
1E0
100
AcDbEntity
8
1
62
256
6
ByLayer
370
13
48
1
60
0
100
AcDbSpline
70
4
71
3
72
16
73
12
40
0
40
0
40
0
40
0
40
0.0003180357848869
40
0.0003180357848869
40
0.251729887964903
40
0.251729887964903
40
0.50339433347081
40
0.50339433347081
40
0.999681964215131
40
0.999681964215131
40
1
40
1
40
1
40
1
41
1
10
70.0304829603425
20
43.400576963399
30
0
41
1
10
70.0304995095587
20
43.4005691472672
30
0
41
1
10
70.0305160586532
20
43.4005613312731
30
0
41
1
10
70.043615233039
20
43.3943750419142
30
0
41
1
10
70.0568468497938
20
43.3883203557683
30
0
41
1
10
70.0835771699334
20
43.3764518222197
30
0
41
1
10
70.0970793416626
20
43.3706368034943
30
0
41
1
10
70.1375333608592
20
43.3537184777605
30
0
41
1
10
70.1648203203588
20
43.3429598813447
30
0
41
1
10
70.1924618795182
20
43.3326546434398
30
0
41
1
10
70.1924795860199
20
43.3326480424575
30
0
41
1
10
70.1924972924748
20
43.332641441617
30
0
0
SPLINE
5
1E1
100
AcDbEntity
8
1
62
256
6
ByLayer
370
13
48
1
60
0
100
AcDbSpline
70
4
71
3
72
18
73
14
40
0
40
0
40
0
40
0
40
0.0147623169459721
40
0.132429609801059
40
0.310035705022732
40
0.404563166266565
40
0.490843309126543
40
0.509384707269195
40
0.536065817490087
40
0.547235587856785
40
0.607623714699337
40
0.821258035821193
40
1
40
1
40
1
40
1
41
1
10
70.1924972924751
20
43.3326414416171
30
0
41
1
10
70.1879894571144
20
43.3326414416171
30
0
41
1
10
70.1472798005846
20
43.3326414416171
30
0
41
1
10
70.0446180997779
20
43.3326414416171
30
0
41
1
10
69.8956951032899
20
43.3326414416171
30
0
41
1
10
69.7320643366261
20
43.3326414416171
30
0
41
1
10
69.6402658505686
20
43.3326414416171
30
0
41
1
10
69.5800833549736
20
43.3326414416171
30
0
41
1
10
69.5586341405576
20
43.3326414416171
30
0
41
1
10
69.5305752330293
20
43.3326414416171
30
0
41
1
10
69.4559545081915
20
43.3326414416171
30
0
41
1
10
69.3329490835572
20
43.3326414416171
30
0
41
1
10
69.2239387570576
20
43.3326414416171
30
0
41
1
10
69.1738222924803
20
43.3326414416172
30
0
0
SPLINE
5
1E2
100
AcDbEntity
8
1
62
256
6
ByLayer
370
13
48
1
60
0
100
AcDbSpline
70
4
71
3
72
16
73
12
40
0
40
0
40
0
40
0
40
0.0003180203342997
40
0.0003180203342997
40
0.251566631388001
40
0.251566631388001
40
0.503174270286074
40
0.503174270286074
40
0.999681979668716
40
0.999681979668716
40
1
40
1
40
1
40
1
41
1
10
70.1924972924748
20
42.6673585583833
30
0
41
1
10
70.1924795860199
20
42.6673519575428
30
0
41
1
10
70.1924618795181
20
42.6673453565605
30
0
41
1
10
70.1784555263873
20
42.6621235526687
30
0
41
1
10
70.1645549869885
20
42.6567908480621
30
0
41
1
10
70.1369367546699
20
42.6458811091001
30
0
41
1
10
70.1232169357369
20
42.640302797586
30
0
41
1
10
70.0827734687441
20
42.6233623697752
30
0
41
1
10
70.056361440587
20
42.6116445533511
30
0
41
1
10
70.0305160586542
20
42.5994386687268
30
0
41
1
10
70.030499509559
20
42.5994308527329
30
0
41
1
10
70.0304829603425
20
42.5994230366013
30
0
0
SPLINE
5
1E3
100
AcDbEntity
8
1
62
256
6
ByLayer
370
13
48
1
60
0
100
AcDbSpline
70
4
71
3
72
18
73
14
40
0
40
0
40
0
40
0
40
0.0147623169458646
40
0.13242960980029
40
0.310035705020964
40
0.404563166264266
40
0.490843309123759
40
0.509384707266306
40
0.536065817487048
40
0.547235587853684
40
0.607623714695896
40
0.821258035816551
40
1
40
1
40
1
40
1
41
1
10
70.1924972924751
20
42.6673585583832
30
0
41
1
10
70.1879894571144
20
42.6673585583832
30
0
41
1
10
70.1472798005846
20
42.6673585583832
30
0
41
1
10
70.0446180997779
20
42.6673585583832
30
0
41
1
10
69.8956951032899
20
42.6673585583832
30
0
41
1
10
69.7320643366261
20
42.6673585583832
30
0
41
1
10
69.6402658505686
20
42.6673585583832
30
0
41
1
10
69.5800833549736
20
42.6673585583832
30
0
41
1
10
69.5586341405576
20
42.6673585583832
30
0
41
1
10
69.5305752330293
20
42.6673585583832
30
0
41
1
10
69.4559545081915
20
42.6673585583832
30
0
41
1
10
69.3329490835557
20
42.6673585583832
30
0
41
1
10
69.2239387570545
20
42.6673585583831
30
0
41
1
10
69.1738222924755
20
42.6673585583831
30
0
0
SPLINE
5
1E4
100
AcDbEntity
8
1
62
256
6
ByLayer
370
13
48
1
60
0
100
AcDbSpline
70
4
71
3
72
8
73
4
40
0
40
0
40
0
40
0
40
1
40
1
40
1
40
1
41
1
10
72.0132739541156
20
43.6360058933469
30
0
41
1
10
71.9848441187077
20
43.6642049364137
30
0
41
1
10
71.9594573268683
20
43.6888444590019
30
0
41
1
10
71.9354962551918
20
43.7083181255899
30
0
0
SPLINE
5
1E5
100
AcDbEntity
8
1
62
256
6
ByLayer
370
13
48
1
60
0
100
AcDbSpline
70
4
71
3
72
8
73
4
40
0
40
0
40
0
40
0
40
1
40
1
40
1
40
1
41
1
10
71.9354962551922
20
42.2916818744106
30
0
41
1
10
71.9594573268688
20
42.3111555409986
30
0
41
1
10
71.9848441187078
20
42.3357950635867
30
0
41
1
10
72.0132739541156
20
42.3639941066534
30
0
0
SPLINE
5
1E6
100
AcDbEntity
8
1
62
256
6
ByLayer
370
13
48
1
60
0
100
AcDbSpline
70
4
71
3
72
18
73
14
40
0
40
0
40
0
40
0
40
0.00023158089382
40
0.00023158089382
40
0.253623359717151
40
0.253623359717151
40
0.529920957096893
40
0.529920957096893
40
0.795188631627136
40
0.795188631627136
40
0.999768419108964
40
0.999768419108964
40
1
40
1
40
1
40
1
41
1
10
70.3100240060454
20
42.8681142101817
30
0
41
1
10
70.3100266345092
20
42.8680947014732
30
0
41
1
10
70.3100292610426
20
42.8680751928651
30
0
41
1
10
70.3129028077691
20
42.8467094860027
30
0
41
1
10
70.3128100982841
20
42.8249901720326
30
0
41
1
10
70.3061456712859
20
42.78205036568
30
0
41
1
10
70.298878144387
20
42.7604006616878
30
0
41
1
10
70.2774807999278
20
42.7232727991464
30
0
41
1
10
70.2632336335329
20
42.707022037266
30
0
41
1
10
70.233013225861
20
42.6844837905824
30
0
41
1
10
70.2178470302408
20
42.6765324253126
30
0
41
1
10
70.2017399278974
20
42.6707917005464
30
0
41
1
10
70.2017217604414
20
42.670785229089
30
0
41
1
10
70.2017035929297
20
42.6707787598165
30
0
0
SPLINE
5
1E7
100
AcDbEntity
8
1
62
256
6
ByLayer
370
13
48
1
60
0
100
AcDbSpline
70
4
71
3
72
18
73
14
40
0
40
0
40
0
40
0
40
0.0002325599132508
40
0.0002325599132508
40
0.255891971717352
40
0.255891971717352
40
0.495789486831356
40
0.495789486831356
40
0.744387685796496
40
0.744387685796496
40
0.999767440083953
40
0.999767440083953
40
1
40
1
40
1
40
1
41
1
10
70.2017035929297
20
43.3292212401838
30
0
41
1
10
70.2017217604414
20
43.3292147709113
30
0
41
1
10
70.2017399278974
20
43.3292082994539
30
0
41
1
10
70.2217278570614
20
43.3220844110268
30
0
41
1
10
70.2403039926446
20
43.3114669008961
30
0
41
1
10
70.2700010474331
20
43.2854908625416
30
0
41
1
10
70.281961910292
20
43.2701302760667
30
0
41
1
10
70.3001095834957
20
43.2357880313628
30
0
41
1
10
70.3063619410123
20
43.2162351732841
30
0
41
1
10
70.312807964833
20
43.1753457544046
30
0
41
1
10
70.3129248724814
20
43.1534545719434
30
0
41
1
10
70.3100292610427
20
43.1319248071352
30
0
41
1
10
70.3100266345092
20
43.1319052985271
30
0
41
1
10
70.3100240060454
20
43.1318857898186
30
0
0
SPLINE
5
1E8
100
AcDbEntity
8
1
62
256
6
ByLayer
370
13
48
1
60
0
100
AcDbSpline
70
4
71
3
72
10
73
6
40
0
40
0
40
0
40
0
40
0.848961873468764
40
0.848961873468764
40
1
40
1
40
1
40
1
41
1
10
74.9256851850747
20
43.9984106069236
30
0
41
1
10
74.8912977154034
20
44.0502534100669
30
0
41
1
10
74.843874742716
20
44.093709057832
30
0
41
1
10
74.7838155264512
20
44.1357146319515
30
0
41
1
10
74.7744787017948
20
44.141908567591
30
0
41
1
10
74.7650107000385
20
44.1478881790529
30
0
0
SPLINE
5
1E9
100
AcDbEntity
8
1
62
256
6
ByLayer
370
13
48
1
60
0
100
AcDbSpline
70
4
71
3
72
8
73
4
40
0
40
0
40
0
40
0
40
1
40
1
40
1
40
1
41
1
10
74.7650107000385
20
44.1478881790529
30
0
41
1
10
74.7210937227593
20
44.175624386488
30
0
41
1
10
74.6769798114244
20
44.2030540344468
30
0
41
1
10
74.6325607479569
20
44.2299775228956
30
0
0
SPLINE
5
1EA
100
AcDbEntity
8
1
62
256
6
ByLayer
370
13
48
1
60
0
100
AcDbSpline
70
4
71
3
72
10
73
6
40
0
40
0
40
0
40
0
40
0.657586553479241
40
0.657586553479241
40
1
40
1
40
1
40
1
41
1
10
74.6325607479569
20
44.2299775228956
30
0
41
1
10
74.6092305437702
20
44.2441185342969
30
0
41
1
10
74.5864384919004
20
44.2594419538566
30
0
41
1
10
74.5548281900598
20
44.2863507544024
30
0
41
1
10
74.5444660370968
20
44.2962801939239
30
0
41
1
10
74.535515563742
20
44.3073504706939
30
0
0
SPLINE
5
1EB
100
AcDbEntity
8
1
62
256
6
ByLayer
370
13
48
1
60
0
100
AcDbSpline
70
4
71
3
72
10
73
6
40
0
40
0
40
0
40
0
40
0.657586553479241
40
0.657586553479241
40
1
40
1
40
1
40
1
41
1
10
74.6325607479569
20
41.7700224771047
30
0
41
1
10
74.6092305437701
20
41.7558814657034
30
0
41
1
10
74.5864384919004
20
41.7405580461437
30
0
41
1
10
74.5548281900598
20
41.7136492455979
30
0
41
1
10
74.5444660370968
20
41.7037198060764
30
0
41
1
10
74.535515563742
20
41.6926495293064
30
0
0
SPLINE
5
1EC
100
AcDbEntity
8
1
62
256
6
ByLayer
370
13
48
1
60
0
100
AcDbSpline
70
4
71
3
72
8
73
4
40
0
40
0
40
0
40
0
40
1
40
1
40
1
40
1
41
1
10
74.7650107000385
20
41.8521118209474
30
0
41
1
10
74.7210937227593
20
41.8243756135123
30
0
41
1
10
74.6769798114244
20
41.7969459655534
30
0
41
1
10
74.6325607479569
20
41.7700224771047
30
0
0
SPLINE
5
1ED
100
AcDbEntity
8
1
62
256
6
ByLayer
370
13
48
1
60
0
100
AcDbSpline
70
4
71
3
72
10
73
6
40
0
40
0
40
0
40
0
40
0.848961873468764
40
0.848961873468764
40
1
40
1
40
1
40
1
41
1
10
74.9256851850747
20
42.0015893930766
30
0
41
1
10
74.8912977154034
20
41.9497465899334
30
0
41
1
10
74.843874742716
20
41.9062909421683
30
0
41
1
10
74.7838155264512
20
41.8642853680488
30
0
41
1
10
74.7744787017948
20
41.8580914324093
30
0
41
1
10
74.7650107000385
20
41.8521118209474
30
0
0
SPLINE
5
1EE
100
AcDbEntity
8
1
62
256
6
ByLayer
370
13
48
1
60
0
100
AcDbSpline
70
4
71
3
72
18
73
14
40
0
40
0
40
0
40
0
40
0.0127522791560354
40
0.121124696795503
40
0.284701179772658
40
0.371761647127264
40
0.451226275310135
40
0.468303035507293
40
0.492876528699698
40
0.503163967033199
40
0.55878186342439
40
0.755540599934583
40
1
40
1
40
1
40
1
41
1
10
70.3100240060454
20
43.1318857898186
30
0
41
1
10
70.305326900298
20
43.1318857898186
30
0
41
1
10
70.2604415120431
20
43.1318857898186
30
0
41
1
10
70.1469736785093
20
43.1318857898186
30
0
41
1
10
69.9821864796327
20
43.1318857898186
30
0
41
1
10
69.7999950653448
20
43.1318857898186
30
0
41
1
10
69.6985561666312
20
43.1318857898186
30
0
41
1
10
69.6323336814467
20
43.1318857898186
30
0
41
1
10
69.6093626981952
20
43.1318857898186
30
0
41
1
10
69.5808112622734
20
43.1318857898186
30
0
41
1
10
69.5064535903821
20
43.1318857898186
30
0
41
1
10
69.3598856588511
20
43.1318857898186
30
0
41
1
10
69.2261354777714
20
43.1318857898186
30
0
41
1
10
69.1510660060442
20
43.1318857898186
30
0
0
SPLINE
5
1EF
100
AcDbEntity
8
1
62
256
6
ByLayer
370
13
48
1
60
0
100
AcDbSpline
70
4
71
3
72
18
73
14
40
0
40
0
40
0
40
0
40
0.0164366124740988
40
0.133179670182608
40
0.309390732073714
40
0.403175713399139
40
0.488778156122163
40
0.507173918112114
40
0.533645457608486
40
0.544727493362603
40
0.604641292735646
40
0.816597591500522
40
1
40
1
40
1
40
1
41
1.02166924057829
10
70.2017035929297
20
43.3292212401837
30
0
41
1.02166924057829
10
70.1966174631242
20
43.3292212401837
30
0
41
1.02166924057829
10
70.155108594915
20
43.3292212401837
30
0
41
1.02166924057829
10
70.0511357540979
20
43.3292212401837
30
0
41
1.02166924057829
10
69.9012025792835
20
43.3292212401838
30
0
41
1.02166924057829
10
69.7363899338528
20
43.3292212401837
30
0
41
1.02166924057829
10
69.6439775791818
20
43.3292212401838
30
0
41
1.02166924057829
10
69.5834104776404
20
43.3292212401838
30
0
41
1.02166924057829
10
69.5618643621726
20
43.3292212401838
30
0
41
1.02166924057829
10
69.5337740921153
20
43.3292212401838
30
0
41
1.02166924057829
10
69.4591701175924
20
43.3292212401837
30
0
41
1.02166924057829
10
69.3345034206958
20
43.3292212401838
30
0
41
1.02166924057829
10
69.2237563950395
20
43.3292212401838
30
0
41
1.02166924057829
10
69.1718935929368
20
43.3292212401838
30
0
0
SPLINE
5
1F0
100
AcDbEntity
8
1
62
256
6
ByLayer
370
13
48
1
60
0
100
AcDbSpline
70
4
71
3
72
18
73
14
40
0
40
0
40
0
40
0
40
0.0164366124740186
40
0.133179670181714
40
0.309390732071592
40
0.403175713396364
40
0.488778156118791
40
0.507173918108613
40
0.533645457604801
40
0.544727493358841
40
0.604641292731467
40
0.816597591494865
40
1
40
1
40
1
40
1
41
1.02166924057829
10
70.2017035929297
20
42.6707787598165
30
0
41
1.02166924057829
10
70.1966174631242
20
42.6707787598165
30
0
41
1.02166924057829
10
70.155108594915
20
42.6707787598165
30
0
41
1.02166924057829
10
70.0511357540979
20
42.6707787598165
30
0
41
1.02166924057829
10
69.9012025792835
20
42.6707787598165
30
0
41
1.02166924057829
10
69.7363899338528
20
42.6707787598165
30
0
41
1.02166924057829
10
69.6439775791818
20
42.6707787598165
30
0
41
1.02166924057829
10
69.5834104776404
20
42.6707787598165
30
0
41
1.02166924057829
10
69.5618643621726
20
42.6707787598165
30
0
41
1.02166924057829
10
69.5337740921153
20
42.6707787598165
30
0
41
1.02166924057829
10
69.4591701175924
20
42.6707787598165
30
0
41
1.02166924057829
10
69.3345034206938
20
42.6707787598165
30
0
41
1.02166924057829
10
69.2237563950356
20
42.6707787598165
30
0
41
1.02166924057829
10
69.1718935929309
20
42.6707787598165
30
0
0
SPLINE
5
1F1
100
AcDbEntity
8
1
62
256
6
ByLayer
370
13
48
1
60
0
100
AcDbSpline
70
4
71
3
72
18
73
14
40
0
40
0
40
0
40
0
40
0.0127522791560354
40
0.121124696795503
40
0.284701179772658
40
0.371761647127264
40
0.451226275310135
40
0.468303035507293
40
0.492876528699698
40
0.503163967033199
40
0.55878186342439
40
0.755540599934583
40
1
40
1
40
1
40
1
41
1
10
70.3100240060454
20
42.8681142101817
30
0
41
1
10
70.305326900298
20
42.8681142101817
30
0
41
1
10
70.2604415120431
20
42.8681142101817
30
0
41
1
10
70.1469736785093
20
42.8681142101817
30
0
41
1
10
69.9821864796327
20
42.8681142101817
30
0
41
1
10
69.7999950653448
20
42.8681142101817
30
0
41
1
10
69.6985561666312
20
42.8681142101817
30
0
41
1
10
69.6323336814467
20
42.8681142101817
30
0
41
1
10
69.6093626981952
20
42.8681142101817
30
0
41
1
10
69.5808112622734
20
42.8681142101817
30
0
41
1
10
69.5064535903821
20
42.8681142101817
30
0
41
1
10
69.3598856588511
20
42.8681142101816
30
0
41
1
10
69.2261354777714
20
42.8681142101816
30
0
41
1
10
69.1510660060442
20
42.8681142101816
30
0
0
SPLINE
5
1F2
100
AcDbEntity
8
1
62
256
6
ByLayer
370
13
48
1
60
0
100
AcDbSpline
70
4
71
3
72
16
73
12
40
0
40
0
40
0
40
0
40
0.0057828244240233
40
0.0057828244240233
40
0.500000493987984
40
0.500000493987984
40
0.750000398281966
40
0.750000398281966
40
0.994217175588821
40
0.994217175588821
40
1
40
1
40
1
40
1
41
1
10
70.2017035929294
20
42.6707787598166
30
0
41
1
10
70.2016858395655
20
42.6707721671094
30
0
41
1
10
70.2016680861536
20
42.6707655744238
30
0
41
1
10
70.200133079949
20
42.6701955498739
30
0
41
1
10
70.1986161325265
20
42.6696321132685
30
0
41
1
10
70.1963323013229
20
42.6687836553341
30
0
41
1
10
70.1955651882594
20
42.6684986374399
30
0
41
1
10
70.1940488637027
20
42.6679351924411
30
0
41
1
10
70.1932996485425
20
42.6676567653728
30
0
41
1
10
70.1925327701837
20
42.6673717442229
30
0
41
1
10
70.1925150313536
20
42.6673651512922
30
0
41
1
10
70.1924972924748
20
42.6673585583833
30
0
0
SPLINE
5
1F3
100
AcDbEntity
8
1
62
256
6
ByLayer
370
13
48
1
60
0
100
AcDbSpline
70
4
71
3
72
10
73
6
40
0
40
0
40
0
40
0
40
0.638823417468494
40
0.638823417468494
40
1
40
1
40
1
40
1
41
1
10
74.5900286630425
20
41.8313311738514
30
0
41
1
10
74.566841990865
20
41.8116444822614
30
0
41
1
10
74.5449724664755
20
41.7898528524883
30
0
41
1
10
74.5161775948407
20
41.7513352671974
30
0
41
1
10
74.5068123576004
20
41.7363568445521
30
0
41
1
10
74.4995116901682
20
41.7203571803696
30
0
0
SPLINE
5
1F4
100
AcDbEntity
8
1
62
256
6
ByLayer
370
13
48
1
60
0
100
AcDbSpline
70
4
71
3
72
16
73
12
40
0
40
0
40
0
40
0
40
0.0355702320994276
40
0.0355702320994276
40
0.0905081710166269
40
0.0905081710166269
40
0.198049233530912
40
0.198049233530912
40
0.436780146594186
40
0.436780146594186
40
1
40
1
40
1
40
1
41
1
10
74.4647600217562
20
41.6400331046005
30
0
41
1
10
74.4651586810188
20
41.6409998805632
30
0
41
1
10
74.4655584542085
20
41.641966219055
30
0
41
1
10
74.4665771815565
20
41.6444282852328
30
0
41
1
10
74.467197080802
20
41.6459236312465
30
0
41
1
10
74.4690334070427
20
41.6503439392326
30
0
41
1
10
74.4702528942053
20
41.653267343932
30
0
41
1
10
74.4741930527674
20
41.6626653015942
30
0
41
1
10
74.4769343827304
20
41.6691270804527
30
0
41
1
10
74.4861946238307
20
41.6906957041312
30
0
41
1
10
74.4928248586495
20
41.7057027587361
30
0
41
1
10
74.4995116901682
20
41.7203571803696
30
0
0
SPLINE
5
1F5
100
AcDbEntity
8
1
62
256
6
ByLayer
370
13
48
1
60
0
100
AcDbSpline
70
4
71
3
72
8
73
4
40
0
40
0
40
0
40
0
40
1
40
1
40
1
40
1
41
1
10
74.4647600217522
20
41.6400331045986
30
0
41
1
10
74.3478492133727
20
41.609281549311
30
0
41
1
10
74.2265101800571
20
41.5942978533843
30
0
41
1
10
74.1060768987951
20
41.5914863420546
30
0
0
SPLINE
5
1F6
100
AcDbEntity
8
1
62
256
6
ByLayer
370
13
48
1
60
0
100
AcDbSpline
70
4
71
3
72
16
73
12
40
0
40
0
40
0
40
0
40
0.0355702320994276
40
0.0355702320994276
40
0.0905081710166269
40
0.0905081710166269
40
0.198049233530912
40
0.198049233530912
40
0.436780146594186
40
0.436780146594186
40
1
40
1
40
1
40
1
41
1
10
74.4647600217562
20
44.3599668953997
30
0
41
1
10
74.4651586810188
20
44.3590001194371
30
0
41
1
10
74.4655584542085
20
44.3580337809452
30
0
41
1
10
74.4665771815565
20
44.3555717147675
30
0
41
1
10
74.467197080802
20
44.3540763687537
30
0
41
1
10
74.4690334070427
20
44.3496560607677
30
0
41
1
10
74.4702528942053
20
44.3467326560682
30
0
41
1
10
74.4741930527674
20
44.3373346984061
30
0
41
1
10
74.4769343827304
20
44.3308729195476
30
0
41
1
10
74.4861946238307
20
44.3093042958691
30
0
41
1
10
74.4928248586495
20
44.2942972412642
30
0
41
1
10
74.4995116901682
20
44.2796428196307
30
0
0
SPLINE
5
1F7
100
AcDbEntity
8
1
62
256
6
ByLayer
370
13
48
1
60
0
100
AcDbSpline
70
4
71
3
72
16
73
12
40
0
40
0
40
0
40
0
40
0.0057828239042467
40
0.0057828239042467
40
0.249999260186564
40
0.249999260186564
40
0.624999089284546
40
0.624999089284546
40
0.99421717603004
40
0.99421717603004
40
1
40
1
40
1
40
1
41
1
10
70.1924972924748
20
43.332641441617
30
0
41
1
10
70.1925150313536
20
43.3326348487081
30
0
41
1
10
70.1925327701838
20
43.3326282557774
30
0
41
1
10
70.1932996474864
20
43.33234323502
30
0
41
1
10
70.1940488615901
20
43.3320648083443
30
0
41
1
10
70.195948701935
20
43.331358854242
30
0
41
1
10
70.197099430714
20
43.3309313283523
30
0
41
1
10
70.1993834972573
20
43.3300828736185
30
0
41
1
10
70.2005168297863
20
43.3296619446253
30
0
41
1
10
70.2016680861532
20
43.3292344255766
30
0
41
1
10
70.2016858395653
20
43.3292278328909
30
0
41
1
10
70.2017035929294
20
43.3292212401837
30
0
0
SPLINE
5
1F8
100
AcDbEntity
8
1
62
256
6
ByLayer
370
13
48
1
60
0
100
AcDbSpline
70
4
71
3
72
10
73
6
40
0
40
0
40
0
40
0
40
0.638823417468494
40
0.638823417468494
40
1
40
1
40
1
40
1
41
1
10
74.5900286630425
20
44.1686688261489
30
0
41
1
10
74.566841990865
20
44.1883555177388
30
0
41
1
10
74.5449724664755
20
44.2101471475119
30
0
41
1
10
74.5161775948407
20
44.2486647328029
30
0
41
1
10
74.5068123576004
20
44.2636431554482
30
0
41
1
10
74.4995116901682
20
44.2796428196307
30
0
0
SPLINE
5
1F9
100
AcDbEntity
8
1
62
256
6
ByLayer
370
13
48
1
60
0
100
AcDbSpline
70
4
71
3
72
8
73
4
40
0
40
0
40
0
40
0
40
1
40
1
40
1
40
1
41
1
10
74.4647600217522
20
44.3599668954016
30
0
41
1
10
74.3478492133727
20
44.3907184506892
30
0
41
1
10
74.2265101800571
20
44.405702146616
30
0
41
1
10
74.1060768987951
20
44.4085136579456
30
0
0
SPLINE
5
1FA
100
AcDbEntity
8
1
62
256
6
ByLayer
370
13
48
1
60
0
100
AcDbSpline
70
4
71
3
72
8
73
4
40
0
40
0
40
0
40
0
40
1
40
1
40
1
40
1
41
1
10
73.7587805434612
20
41.5879459128047
30
0
41
1
10
73.5912677337033
20
41.5821866177978
30
0
41
1
10
73.4213169004326
20
41.6003163084634
30
0
41
1
10
73.2587805434612
20
41.6411531956115
30
0
0
SPLINE
5
1FB
100
AcDbEntity
8
1
62
256
6
ByLayer
370
13
48
1
60
0
100
AcDbSpline
70
4
71
3
72
8
73
4
40
0
40
0
40
0
40
0
40
1
40
1
40
1
40
1
41
1
10
73.7587805434612
20
44.4120540871955
30
0
41
1
10
73.5912677337033
20
44.4178133822024
30
0
41
1
10
73.4213169004326
20
44.3996836915369
30
0
41
1
10
73.2587805434612
20
44.3588468043888
30
0
0
SPLINE
5
1FC
100
AcDbEntity
8
1
62
256
6
ByLayer
370
13
48
1
60
0
100
AcDbSpline
70
4
71
3
72
16
73
12
40
0
40
0
40
0
40
0
40
0.0355303527441879
40
0.0355303527441879
40
0.0917680599187698
40
0.0917680599187698
40
0.200182520092124
40
0.200182520092124
40
0.4395335047121
40
0.4395335047121
40
1
40
1
40
1
40
1
41
1
10
74.4647600217523
20
41.6400331045986
30
0
41
1
10
74.4655855998635
20
41.6406668321806
30
0
41
1
10
74.4664120929671
20
41.6413000661976
30
0
41
1
10
74.4685507889317
20
41.6429379857311
30
0
41
1
10
74.4698640688781
20
41.6439422995012
30
0
41
1
10
74.4737129338245
20
41.6468811630866
30
0
41
1
10
74.4762525536655
20
41.6488146217789
30
0
41
1
10
74.4844114693382
20
41.6550058788966
30
0
41
1
10
74.4900517136001
20
41.6592541996732
30
0
41
1
10
74.5089188273346
20
41.6733506684431
30
0
41
1
10
74.5222466489562
20
41.6831234012505
30
0
41
1
10
74.535515563742
20
41.6926495293064
30
0
0
SPLINE
5
1FD
100
AcDbEntity
8
1
62
256
6
ByLayer
370
13
48
1
60
0
100
AcDbSpline
70
4
71
3
72
16
73
12
40
0
40
0
40
0
40
0
40
0.0355303527441879
40
0.0355303527441879
40
0.0917680599187698
40
0.0917680599187698
40
0.200182520092124
40
0.200182520092124
40
0.439533504712099
40
0.439533504712099
40
1
40
1
40
1
40
1
41
1
10
74.4647600217523
20
44.3599668954016
30
0
41
1
10
74.4655855998635
20
44.3593331678197
30
0
41
1
10
74.4664120929671
20
44.3586999338027
30
0
41
1
10
74.4685507889317
20
44.3570620142692
30
0
41
1
10
74.4698640688781
20
44.3560577004991
30
0
41
1
10
74.4737129338245
20
44.3531188369136
30
0
41
1
10
74.4762525536655
20
44.3511853782213
30
0
41
1
10
74.4844114693382
20
44.3449941211037
30
0
41
1
10
74.4900517136001
20
44.3407458003271
30
0
41
1
10
74.5089188273346
20
44.3266493315572
30
0
41
1
10
74.5222466489562
20
44.3168765987497
30
0
41
1
10
74.535515563742
20
44.3073504706939
30
0
0
SPLINE
5
1FE
100
AcDbEntity
8
1
62
256
6
ByLayer
370
13
48
1
60
0
100
AcDbSpline
70
4
71
3
72
8
73
4
40
0
40
0
40
0
40
0
40
1
40
1
40
1
40
1
41
1
10
74.1060768987951
20
41.5914863420546
30
0
41
1
10
73.9916360304014
20
41.5886629688238
30
0
41
1
10
73.8749005955276
20
41.5924161769163
30
0
41
1
10
73.7587805434612
20
41.5879459128047
30
0
0
SPLINE
5
1FF
100
AcDbEntity
8
1
62
256
6
ByLayer
370
13
48
1
60
0
100
AcDbSpline
70
4
71
3
72
8
73
4
40
0
40
0
40
0
40
0
40
1
40
1
40
1
40
1
41
1
10
74.1060768987951
20
44.4085136579456
30
0
41
1
10
73.9916360304014
20
44.4113370311765
30
0
41
1
10
73.8749005955276
20
44.407583823084
30
0
41
1
10
73.7587805434612
20
44.4120540871955
30
0
0
SPLINE
5
200
100
AcDbEntity
8
1
62
256
6
ByLayer
370
13
48
1
60
0
100
AcDbSpline
70
4
71
3
72
10
73
6
40
0
40
0
40
0
40
0
40
0.155061591761412
40
0.155061591761412
40
1
40
1
40
1
40
1
41
1
10
74.7213895076227
20
44.087343636851
30
0
41
1
10
74.7304066184318
20
44.0825377917953
30
0
41
1
10
74.7393274149502
20
44.0775468294834
30
0
41
1
10
74.7954797246052
20
44.0444256360858
30
0
41
1
10
74.8409287471058
20
44.0101627991138
30
0
41
1
10
74.8749811562301
20
43.9670577707528
30
0
0
SPLINE
5
201
100
AcDbEntity
8
1
62
256
6
ByLayer
370
13
48
1
60
0
100
AcDbSpline
70
4
71
3
72
16
73
12
40
0
40
0
40
0
40
0
40
0.0004524024963632
40
0.0004524024963632
40
0.257769385461147
40
0.257769385461147
40
0.515499162994264
40
0.515499162994264
40
0.999547597506527
40
0.999547597506527
40
1
40
1
40
1
40
1
41
1
10
70.3028415230963
20
43.0000000000001
30
0
41
1
10
70.3028415235923
20
42.9999800000002
30
0
41
1
10
70.3028415235929
20
42.9999600000002
30
0
41
1
10
70.3028420886591
20
42.988564422566
30
0
41
1
10
70.3030032526709
20
42.9771857662777
30
0
41
1
10
70.3036456179238
20
42.9544413195581
30
0
41
1
10
70.3041275042308
20
42.9430693765298
30
0
41
1
10
70.305968223365
20
42.9104342080655
30
0
41
1
10
70.3077286728989
20
42.8892108303644
30
0
41
1
10
70.3100197232346
20
42.8681535607501
30
0
41
1
10
70.3100218648815
20
42.868133885538
30
0
41
1
10
70.3100240060454
20
42.8681142101817
30
0
0
SPLINE
5
202
100
AcDbEntity
8
1
62
256
6
ByLayer
370
13
48
1
60
0
100
AcDbSpline
70
4
71
3
72
16
73
12
40
0
40
0
40
0
40
0
40
0.0004523985411366
40
0.0004523985411366
40
0.257549970995908
40
0.257549970995908
40
0.515211450419599
40
0.515211450419599
40
0.999547601459687
40
0.999547601459687
40
1
40
1
40
1
40
1
41
1
10
70.3100240060454
20
43.1318857898186
30
0
41
1
10
70.3100218648809
20
43.1318661144623
30
0
41
1
10
70.3100197232329
20
43.1318464392505
30
0
41
1
10
70.3088010179856
20
43.1206451991147
30
0
41
1
10
70.3077336238964
20
43.1094139303858
30
0
41
1
10
70.3059057653384
20
43.0868622487443
30
0
41
1
10
70.3051455001609
20
43.0755356639947
30
0
41
1
10
70.3034134795948
20
43.0428744372286
30
0
41
1
10
70.3028425855877
20
43.021457011914
30
0
41
1
10
70.3028415235942
20
43.00004
30
0
41
1
10
70.3028415235927
20
43.00002
30
0
41
1
10
70.3028415230963
20
43.0000000000001
30
0
0
SPLINE
5
203
100
AcDbEntity
8
1
62
256
6
ByLayer
370
13
48
1
60
0
100
AcDbSpline
70
4
71
3
72
10
73
6
40
0
40
0
40
0
40
0
40
0.155061591761412
40
0.155061591761412
40
1
40
1
40
1
40
1
41
1
10
74.7213895076227
20
41.9126563631493
30
0
41
1
10
74.7304066184318
20
41.917462208205
30
0
41
1
10
74.7393274149502
20
41.9224531705169
30
0
41
1
10
74.7954797246052
20
41.9555743639144
30
0
41
1
10
74.8409287471058
20
41.9898372008865
30
0
41
1
10
74.8749811562301
20
42.0329422292475
30
0
0
SPLINE
5
204
100
AcDbEntity
8
1
62
256
6
ByLayer
370
13
48
1
60
0
100
AcDbSpline
70
4
71
3
72
18
73
14
40
0
40
0
40
0
40
0
40
0.0063240448348967
40
0.115571666529475
40
0.280469175689682
40
0.368232734068078
40
0.448339110089914
40
0.465553780376172
40
0.490325726471619
40
0.500696245056925
40
0.556763305631388
40
0.755111044655534
40
1
40
1
40
1
40
1
41
1
10
70.302841523097
20
43.0000000000001
30
0
41
1
10
70.300515411654
20
43.0000000000001
30
0
41
1
10
70.2578593433938
20
43.0000000000001
30
0
41
1
10
70.1469736785092
20
43.0000000000001
30
0
41
1
10
69.9821864796327
20
43.0000000000001
30
0
41
1
10
69.7999950653448
20
43.0000000000001
30
0
41
1
10
69.6985561666312
20
43.0000000000001
30
0
41
1
10
69.6323336814467
20
43.0000000000001
30
0
41
1
10
69.6093626981951
20
43.0000000000001
30
0
41
1
10
69.5808112622734
20
43.0000000000001
30
0
41
1
10
69.5064535903821
20
43.0000000000001
30
0
41
1
10
69.3603376907813
20
43.0000000000001
30
0
41
1
10
69.2270644313621
20
43.0000000000001
30
0
41
1
10
69.1524775230932
20
43.0000000000001
30
0
0
SPLINE
5
205
100
AcDbEntity
8
1
62
256
6
ByLayer
370
13
48
1
60
0
100
AcDbSpline
70
4
71
3
72
8
73
4
40
0
40
0
40
0
40
0
40
1
40
1
40
1
40
1
41
1
10
74.8749811562301
20
43.9670577707528
30
0
41
1
10
74.8822263780104
20
43.9578864522365
30
0
41
1
10
74.8893737130963
20
43.9486001930512
30
0
41
1
10
74.896438349093
20
43.939251650275
30
0
0
SPLINE
5
206
100
AcDbEntity
8
1
62
256
6
ByLayer
370
13
48
1
60
0
100
AcDbSpline
70
4
71
3
72
10
73
6
40
0
40
0
40
0
40
0
40
0.596085739020482
40
0.596085739020482
40
1
40
1
40
1
40
1
41
1
10
74.896438349093
20
43.939251650275
30
0
41
1
10
74.9128939358856
20
43.917476181998
30
0
41
1
10
74.9267245821227
20
43.893047760404
30
0
41
1
10
74.94081187438
20
43.8493753797692
30
0
41
1
10
74.944038381206
20
43.8306258450725
30
0
41
1
10
74.9441651422481
20
43.8120344784735
30
0
0
SPLINE
5
207
100
AcDbEntity
8
1
62
256
6
ByLayer
370
13
48
1
60
0
100
AcDbSpline
70
4
71
3
72
12
73
8
40
0
40
0
40
0
40
0
40
0.0075770979408485
40
0.0075770979408485
40
0.524912447401224
40
0.524912447401224
40
1
40
1
40
1
40
1
41
1
10
74.4213727254144
20
43.8227204822362
30
0
41
1
10
74.4226938848631
20
43.8227694957162
30
0
41
1
10
74.4240151186688
20
43.822816164587
30
0
41
1
10
74.515463818229
20
43.8258826528342
30
0
41
1
10
74.6056735270381
20
43.8211185994205
30
0
41
1
10
74.7786115881781
20
43.8170622707027
30
0
41
1
10
74.8613940232687
20
43.8147424096848
30
0
41
1
10
74.9441651422333
20
43.8120344784688
30
0
0
SPLINE
5
208
100
AcDbEntity
8
1
62
256
6
ByLayer
370
13
48
1
60
0
100
AcDbSpline
70
4
71
3
72
8
73
4
40
0
40
0
40
0
40
0
40
1
40
1
40
1
40
1
41
1
10
74.8749811562301
20
42.0329422292475
30
0
41
1
10
74.8822263780104
20
42.0421135477637
30
0
41
1
10
74.8893737130963
20
42.0513998069491
30
0
41
1
10
74.896438349093
20
42.0607483497253
30
0
0
SPLINE
5
209
100
AcDbEntity
8
1
62
256
6
ByLayer
370
13
48
1
60
0
100
AcDbSpline
70
4
71
3
72
12
73
8
40
0
40
0
40
0
40
0
40
0.0075770979408485
40
0.0075770979408485
40
0.524912447401224
40
0.524912447401224
40
1
40
1
40
1
40
1
41
1
10
74.4213727254144
20
42.177279517764
30
0
41
1
10
74.4226938848631
20
42.177230504284
30
0
41
1
10
74.4240151186688
20
42.1771838354132
30
0
41
1
10
74.515463818229
20
42.1741173471661
30
0
41
1
10
74.6056735270381
20
42.1788814005798
30
0
41
1
10
74.7786115881781
20
42.1829377292975
30
0
41
1
10
74.8613940232687
20
42.1852575903155
30
0
41
1
10
74.9441651422333
20
42.1879655215315
30
0
0
SPLINE
5
20A
100
AcDbEntity
8
1
62
256
6
ByLayer
370
13
48
1
60
0
100
AcDbSpline
70
4
71
3
72
10
73
6
40
0
40
0
40
0
40
0
40
0.596085739020482
40
0.596085739020482
40
1
40
1
40
1
40
1
41
1
10
74.896438349093
20
42.0607483497253
30
0
41
1
10
74.9128939358856
20
42.0825238180023
30
0
41
1
10
74.9267245821227
20
42.1069522395962
30
0
41
1
10
74.94081187438
20
42.1506246202311
30
0
41
1
10
74.944038381206
20
42.1693741549278
30
0
41
1
10
74.9441651422481
20
42.1879655215267
30
0
0
SPLINE
5
20B
100
AcDbEntity
8
1
62
256
6
ByLayer
370
13
48
1
60
0
100
AcDbSpline
70
4
71
3
72
16
73
12
40
0
40
0
40
0
40
0
40
0.113631665737396
40
0.113631665737396
40
0.758132216188138
40
0.758132216188138
40
0.942823120098959
40
0.942823120098959
40
0.947778003019264
40
0.947778003019264
40
1
40
1
40
1
40
1
41
1
10
73.2112677608007
20
43.749485934324
30
0
41
1
10
73.2332807942052
20
43.7564900031849
30
0
41
1
10
73.2554088133189
20
43.7631426509563
30
0
41
1
10
73.4026697940168
20
43.8048304290929
30
0
41
1
10
73.5333481685156
20
43.8275728185623
30
0
41
1
10
73.7009734748332
20
43.8260882857969
30
0
41
1
10
73.7386296238165
20
43.8242820503597
30
0
41
1
10
73.7773004835499
20
43.8229038955923
30
0
41
1
10
73.7783108496886
20
43.8228678782589
30
0
41
1
10
73.7899699703881
20
43.8224522350521
30
0
41
1
10
73.80061882194
20
43.8220753216861
30
0
41
1
10
73.8112677608007
20
43.8217009012842
30
0
0
SPLINE
5
20C
100
AcDbEntity
8
1
62
256
6
ByLayer
370
13
48
1
60
0
100
AcDbSpline
70
4
71
3
72
10
73
6
40
0
40
0
40
0
40
0
40
0.41187861913105
40
0.41187861913105
40
1
40
1
40
1
40
1
41
1
10
74.9970257408783
20
42.1879655215313
30
0
41
1
10
74.9970257408783
20
42.1648570156274
30
0
41
1
10
74.9938567437524
20
42.1415749976983
30
0
41
1
10
74.9795589487908
20
42.0875075865427
30
0
41
1
10
74.9654981180153
20
42.0570288711313
30
0
41
1
10
74.9480487400853
20
42.029285001702
30
0
0
SPLINE
5
20D
100
AcDbEntity
8
1
62
256
6
ByLayer
370
13
48
1
60
0
100
AcDbSpline
70
4
71
3
72
16
73
12
40
0
40
0
40
0
40
0
40
0.113631665737396
40
0.113631665737396
40
0.758132216188138
40
0.758132216188138
40
0.942823120098959
40
0.942823120098959
40
0.947778003019264
40
0.947778003019264
40
1
40
1
40
1
40
1
41
1
10
73.2112677608007
20
42.2505140656763
30
0
41
1
10
73.2332807942052
20
42.2435099968153
30
0
41
1
10
73.2554088133189
20
42.2368573490439
30
0
41
1
10
73.4026697940168
20
42.1951695709074
30
0
41
1
10
73.5333481685156
20
42.172427181438
30
0
41
1
10
73.7009734748332
20
42.1739117142033
30
0
41
1
10
73.7386296238165
20
42.1757179496406
30
0
41
1
10
73.7773004835499
20
42.177096104408
30
0
41
1
10
73.7783108496886
20
42.1771321217414
30
0
41
1
10
73.7899699703881
20
42.1775477649481
30
0
41
1
10
73.80061882194
20
42.1779246783141
30
0
41
1
10
73.8112677608007
20
42.1782990987161
30
0
0
SPLINE
5
20E
100
AcDbEntity
8
1
62
256
6
ByLayer
370
13
48
1
60
0
100
AcDbSpline
70
4
71
3
72
10
73
6
40
0
40
0
40
0
40
0
40
0.41187861913105
40
0.41187861913105
40
1
40
1
40
1
40
1
41
1
10
74.9970257408783
20
43.812034478469
30
0
41
1
10
74.9970257408783
20
43.8351429843729
30
0
41
1
10
74.9938567437524
20
43.8584250023019
30
0
41
1
10
74.9795589487908
20
43.9124924134576
30
0
41
1
10
74.9654981180153
20
43.942971128869
30
0
41
1
10
74.9480487400853
20
43.9707149982982
30
0
0
SPLINE
5
20F
100
AcDbEntity
8
1
62
256
6
ByLayer
370
13
48
1
60
0
100
AcDbSpline
70
4
71
3
72
8
73
4
40
0
40
0
40
0
40
0
40
1
40
1
40
1
40
1
41
1
10
74.948048740085
20
43.9707149982982
30
0
41
1
10
74.9406964490064
20
43.9800668963204
30
0
41
1
10
74.9332455329699
20
43.989315374303
30
0
41
1
10
74.9256851850747
20
43.9984106069236
30
0
0
SPLINE
5
210
100
AcDbEntity
8
1
62
256
6
ByLayer
370
18
48
1
60
0
100
AcDbSpline
70
4
71
3
72
10
73
6
40
0
40
0
40
0
40
0
40
0.212779332486269
40
0.212779332486269
40
1
40
1
40
1
40
1
41
1
10
63.1869028690681
20
41.322158536648
30
0
41
1
10
63.1947459125517
20
41.3189557625783
30
0
41
1
10
63.202669358633
20
41.3161054525456
30
0
41
1
10
63.2401025194281
20
41.3044222746474
30
0
41
1
10
63.2706763772595
20
41.3000000000001
30
0
41
1
10
63.2999999999999
20
41.3000000000001
30
0
0
SPLINE
5
211
100
AcDbEntity
8
1
62
256
6
ByLayer
370
18
48
1
60
0
100
AcDbSpline
70
4
71
3
72
10
73
6
40
0
40
0
40
0
40
0
40
0.826582342135379
40
0.826582342135379
40
1
40
1
40
1
40
1
41
1
10
63.2999999999999
20
44.7000000000001
30
0
41
1
10
63.269042764099
20
44.7000000000001
30
0
41
1
10
63.236660104769
20
44.6950532276326
30
0
41
1
10
63.1991341599142
20
44.6826180534376
30
0
41
1
10
63.1926581551495
20
44.6802151849031
30
0
41
1
10
63.1862348207101
20
44.6775731448799
30
0
0
SPLINE
5
212
100
AcDbEntity
8
1
62
256
6
ByLayer
370
13
48
1
60
0
100
AcDbSpline
70
4
71
3
72
8
73
4
40
0
40
0
40
0
40
0
40
1
40
1
40
1
40
1
41
1
10
74.948048740085
20
42.0292850017021
30
0
41
1
10
74.9406964490064
20
42.0199331036799
30
0
41
1
10
74.9332455329699
20
42.0106846256973
30
0
41
1
10
74.9256851850747
20
42.0015893930766
30
0
0
SPLINE
5
213
100
AcDbEntity
8
1
62
256
6
ByLayer
370
13
48
1
60
0
100
AcDbSpline
70
4
71
3
72
12
73
8
40
0
40
0
40
0
40
0
40
0.39010501540954
40
0.39010501540954
40
0.395238792461496
40
0.395238792461496
40
1
40
1
40
1
40
1
41
1
10
73.8112677608007
20
42.1782990987161
30
0
41
1
10
73.893013189497
20
42.1804068437435
30
0
41
1
10
73.9750694911573
20
42.1808175959688
30
0
41
1
10
74.0568134956409
20
42.1811030977614
30
0
41
1
10
74.057878637216
20
42.1811067044705
30
0
41
1
10
74.1833815366516
20
42.1815182763487
30
0
41
1
10
74.3061458913857
20
42.1804143576167
30
0
41
1
10
74.4213727254144
20
42.177279517764
30
0
0
SPLINE
5
214
100
AcDbEntity
8
1
62
256
6
ByLayer
370
13
48
1
60
0
100
AcDbSpline
70
4
71
3
72
12
73
8
40
0
40
0
40
0
40
0
40
0.39010501540954
40
0.39010501540954
40
0.395238792461496
40
0.395238792461496
40
1
40
1
40
1
40
1
41
1
10
73.8112677608007
20
43.8217009012842
30
0
41
1
10
73.893013189497
20
43.8195931562567
30
0
41
1
10
73.9750694911573
20
43.8191824040315
30
0
41
1
10
74.0568134956409
20
43.8188969022389
30
0
41
1
10
74.057878637216
20
43.8188932955298
30
0
41
1
10
74.1833815366516
20
43.8184817236516
30
0
41
1
10
74.3061458913857
20
43.8195856423835
30
0
41
1
10
74.4213727254144
20
43.8227204822362
30
0
0
SPLINE
5
215
100
AcDbEntity
8
1
62
256
6
ByLayer
370
13
48
1
60
0
100
AcDbSpline
70
4
71
3
72
8
73
4
40
0
40
0
40
0
40
0
40
1
40
1
40
1
40
1
41
1
10
65.0740397982514
20
44.6749990000001
30
0
41
1
10
65.074039802612
20
44.6833326666668
30
0
41
1
10
65.0740398069723
20
44.6916663333335
30
0
41
1
10
65.0740398113323
20
44.7000000000001
30
0
0
SPLINE
5
216
100
AcDbEntity
8
1
62
256
6
ByLayer
370
13
48
1
60
0
100
AcDbSpline
70
4
71
3
72
8
73
4
40
0
40
0
40
0
40
0
40
1
40
1
40
1
40
1
41
1
10
65.0740398113323
20
41.3000000000001
30
0
41
1
10
65.0740398069724
20
41.3083336666668
30
0
41
1
10
65.074039802612
20
41.3166673333335
30
0
41
1
10
65.0740397982513
20
41.3250010000002
30
0
0
SPLINE
5
217
100
AcDbEntity
8
1
62
256
6
ByLayer
370
13
48
1
60
0
100
AcDbSpline
70
4
71
3
72
8
73
4
40
0
40
0
40
0
40
0
40
1
40
1
40
1
40
1
41
1
10
65.0083240679325
20
44.7000000000001
30
0
41
1
10
65.0083240679325
20
44.6916663333335
30
0
41
1
10
65.0083240679325
20
44.6833326666668
30
0
41
1
10
65.0083240679325
20
44.6749990000001
30
0
0
SPLINE
5
218
100
AcDbEntity
8
1
62
256
6
ByLayer
370
13
48
1
60
0
100
AcDbSpline
70
4
71
3
72
8
73
4
40
0
40
0
40
0
40
0
40
1
40
1
40
1
40
1
41
1
10
65.0083240679326
20
41.3250010000001
30
0
41
1
10
65.0083240679326
20
41.3166673333335
30
0
41
1
10
65.0083240679326
20
41.3083336666668
30
0
41
1
10
65.0083240679325
20
41.3000000000001
30
0
0
SPLINE
5
219
100
AcDbEntity
8
1
62
256
6
ByLayer
370
18
48
1
60
0
100
AcDbSpline
70
4
71
3
72
12
73
8
40
0
40
0
40
0
40
0
40
0.42509336529619
40
0.42509336529619
40
0.63310712595513
40
0.63310712595513
40
1
40
1
40
1
40
1
41
1
10
73.2587805434612
20
44.902436382493
30
0
41
1
10
73.0933804472914
20
44.8907918850476
30
0
41
1
10
72.9253561091228
20
44.881698603774
30
0
41
1
10
72.6910861495543
20
44.8730771492939
30
0
41
1
10
72.6154780531596
20
44.8709916057954
30
0
41
1
10
72.4170751815051
20
44.8674862722569
30
0
41
1
10
72.2995633762627
20
44.8677424252819
30
0
41
1
10
72.1981203716822
20
44.8704588768675
30
0
0
SPLINE
5
21A
100
AcDbEntity
8
1
62
256
6
ByLayer
370
18
48
1
60
0
100
AcDbSpline
70
4
71
3
72
16
73
12
40
0
40
0
40
0
40
0
40
0.211361443762593
40
0.211361443762593
40
0.422716290819052
40
0.422716290819052
40
0.633949151070055
40
0.633949151070055
40
0.842299705561758
40
0.842299705561758
40
1
40
1
40
1
40
1
41
1
10
75.0060954592073
20
44.705218037006
30
0
41
1
10
75.0063878799803
20
44.7397896236109
30
0
41
1
10
75.0007247736217
20
44.7748351991538
30
0
41
1
10
74.9784973461868
20
44.8400760142522
30
0
41
1
10
74.9616237145543
20
44.8711790779458
30
0
41
1
10
74.9190960738524
20
44.9251223391761
30
0
41
1
10
74.8928432477739
20
44.9487225072026
30
0
41
1
10
74.8350670289677
20
44.9847717786454
30
0
41
1
10
74.8027995289617
20
44.9978683053975
30
0
41
1
10
74.744484454926
20
45.0102851753877
30
0
41
1
10
74.7183039576486
20
45.0122877263325
30
0
41
1
10
74.6925195383577
20
45.0107801169415
30
0
0
SPLINE
5
21B
100
AcDbEntity
8
1
62
256
6
ByLayer
370
18
48
1
60
0
100
AcDbSpline
70
4
71
3
72
8
73
4
40
0
40
0
40
0
40
0
40
1
40
1
40
1
40
1
41
1
10
73.7587805434612
20
41.0623626178856
30
0
41
1
10
73.8751145296814
20
41.0541724726758
30
0
41
1
10
73.9917705115931
20
41.0449655841855
30
0
41
1
10
74.1060768987951
20
41.0349594918012
30
0
0
SPLINE
5
21C
100
AcDbEntity
8
1
62
256
6
ByLayer
370
18
48
1
60
0
100
AcDbSpline
70
4
71
3
72
14
73
10
40
0
40
0
40
0
40
0
40
0.208299027735494
40
0.208299027735494
40
0.416431647973881
40
0.416431647973881
40
0.624564826978372
40
0.624564826978372
40
1
40
1
40
1
40
1
41
1
10
72.1981203716814
20
41.1295411231318
30
0
41
1
10
72.2559629158583
20
41.1310900369431
30
0
41
1
10
72.3188120459094
20
41.1318468746209
30
0
41
1
10
72.4519206443793
20
41.1317399337861
30
0
41
1
10
72.5226293120466
20
41.1308770442963
30
0
41
1
10
72.6695068973413
20
41.1275660192904
30
0
41
1
10
72.7461789808538
20
41.1251065372417
30
0
41
1
10
72.964710197824
20
41.1161450693735
30
0
41
1
10
73.1126668962909
20
41.1078503103855
30
0
41
1
10
73.25878054346
20
41.0975636175081
30
0
0
SPLINE
5
21D
100
AcDbEntity
8
1
62
256
6
ByLayer
370
18
48
1
60
0
100
AcDbSpline
70
4
71
3
72
8
73
4
40
0
40
0
40
0
40
0
40
1
40
1
40
1
40
1
41
1
10
71.2850221920129
20
44.8254089580134
30
0
41
1
10
71.2448570829341
20
44.8167165987717
30
0
41
1
10
71.2055404050446
20
44.8018085336812
30
0
41
1
10
71.1699547982734
20
44.7817732199671
30
0
0
SPLINE
5
21E
100
AcDbEntity
8
1
62
256
6
ByLayer
370
18
48
1
60
0
100
AcDbSpline
70
4
71
3
72
8
73
4
40
0
40
0
40
0
40
0
40
1
40
1
40
1
40
1
41
1
10
74.1060768987951
20
44.9650405081991
30
0
41
1
10
73.9917705115931
20
44.9550344158147
30
0
41
1
10
73.8751145296814
20
44.9458275273245
30
0
41
1
10
73.7587805434612
20
44.9376373821146
30
0
0
SPLINE
5
21F
100
AcDbEntity
8
1
62
256
6
ByLayer
370
18
48
1
60
0
100
AcDbSpline
70
4
71
3
72
10
73
6
40
0
40
0
40
0
40
0
40
0.658092800347461
40
0.658092800347461
40
1
40
1
40
1
40
1
41
1
10
71.0726381143077
20
41.2724076789234
30
0
41
1
10
71.0503265951328
20
41.2846868238083
30
0
41
1
10
71.0257492517908
20
41.2928596164771
30
0
41
1
10
70.9885109918381
20
41.2989829694594
30
0
41
1
10
70.9755836924547
20
41.3000000000002
30
0
41
1
10
70.9628139582057
20
41.3000000000002
30
0
0
SPLINE
5
220
100
AcDbEntity
8
1
62
256
6
ByLayer
370
18
48
1
60
0
100
AcDbSpline
70
4
71
3
72
8
73
4
40
0
40
0
40
0
40
0
40
1
40
1
40
1
40
1
41
1
10
71.1699547982734
20
41.2182267800332
30
0
41
1
10
71.2055404050452
20
41.1981914663187
30
0
41
1
10
71.2448570829353
20
41.1832834012281
30
0
41
1
10
71.2850221920149
20
41.1745910419865
30
0
0
SPLINE
5
221
100
AcDbEntity
8
1
62
256
6
ByLayer
370
18
48
1
60
0
100
AcDbSpline
70
4
71
3
72
16
73
12
40
0
40
0
40
0
40
0
40
0.201783384736309
40
0.201783384736309
40
0.40337786454364
40
0.40337786454364
40
0.60783295932887
40
0.60783295932887
40
0.816478248424763
40
0.816478248424763
40
1
40
1
40
1
40
1
41
1
10
74.6925195383577
20
40.9892198830588
30
0
41
1
10
74.7253231085993
20
40.9873018654375
30
0
41
1
10
74.7588610300668
20
40.9911220182909
30
0
41
1
10
74.8217991281964
20
41.0094229065535
30
0
41
1
10
74.8520629393796
20
41.0241343966537
30
0
41
1
10
74.9058024815465
20
41.0623856689246
30
0
41
1
10
74.9299089005271
20
41.0865585857435
30
0
41
1
10
74.9688991836
20
41.1412984155763
30
0
41
1
10
74.9841231155447
20
41.1727333258232
30
0
41
1
10
75.0021136288159
20
41.2342320829985
30
0
41
1
10
75.0063502038844
20
41.2646646509721
30
0
41
1
10
75.0060954592073
20
41.2947819629943
30
0
0
SPLINE
5
222
100
AcDbEntity
8
1
62
256
6
ByLayer
370
18
48
1
60
0
100
AcDbSpline
70
4
71
3
72
10
73
6
40
0
40
0
40
0
40
0
40
0.67805397343686
40
0.67805397343686
40
1
40
1
40
1
40
1
41
1
10
70.9628139582057
20
44.7000000000001
30
0
41
1
10
70.9878743353473
20
44.7000000000001
30
0
41
1
10
71.0137719550683
20
44.7039984436643
30
0
41
1
10
71.0500459353043
20
44.7164431130584
30
0
41
1
10
71.0616013632273
20
44.7215182449655
30
0
41
1
10
71.0726381143082
20
44.7275923210747
30
0
0
LINE
5
70
100
AcDbEntity
8
1
62
256
6
ByLayer
370
13
48
1
60
0
100
AcDbLine
10
0.3
20
31.5
30
0
11
0
21
31.2
31
0
39
0
210
0
220
0
230
1
0
LINE
5
72
100
AcDbEntity
8
1
62
256
6
ByLayer
370
13
48
1
60
0
100
AcDbLine
10
0
20
-31.2
30
0
11
0.3
21
-31.5
31
0
39
0
210
0
220
0
230
1
0
LINE
5
73
100
AcDbEntity
8
1
62
256
6
ByLayer
370
13
48
1
60
0
100
AcDbLine
10
26.730231
20
44.675
30
0
11
23.438319
21
32.389417
31
0
39
0
210
0
220
0
230
1
0
LINE
5
74
100
AcDbEntity
8
1
62
256
6
ByLayer
370
13
48
1
60
0
100
AcDbLine
10
0.3
20
-31.5
30
0
11
22.021903
21
-31.5
31
0
39
0
210
0
220
0
230
1
0
LINE
5
75
100
AcDbEntity
8
1
62
256
6
ByLayer
370
13
48
1
60
0
100
AcDbLine
10
22.279208
20
31.5
30
0
11
0.3
21
31.5
31
0
39
0
210
0
220
0
230
1
0
LINE
5
76
100
AcDbEntity
8
80
62
256
6
ByLayer
370
18
48
1
60
0
100
AcDbLine
10
0
20
0
30
0
11
-5
21
0
31
0
39
0
210
0
220
0
230
1
0
LINE
5
77
100
AcDbEntity
8
81
62
256
6
ByLayer
370
18
48
1
60
0
100
AcDbLine
10
75
20
45
30
0
11
80
21
45
31
0
39
0
210
0
220
0
230
1
0
LINE
5
78
100
AcDbEntity
8
SK1
62
256
6
ByLayer
370
13
48
1
60
0
100
AcDbLine
10
-1.315435
20
-4.803123
30
0
11
-1.315435
21
4.803126
31
0
39
0
210
0
220
0
230
1
0
LINE
5
7A
100
AcDbEntity
8
SK1
62
256
6
ByLayer
370
13
48
1
60
0
100
AcDbLine
10
-1.79504
20
-21.830277
30
0
11
-1.79504
21
-21.823125
31
0
39
0
210
0
220
0
230
1
0
LINE
5
7B
100
AcDbEntity
8
SK1
62
256
6
ByLayer
370
13
48
1
60
0
100
AcDbLine
10
-1.79504
20
21.823125
30
0
11
-1.79504
21
21.830277
31
0
39
0
210
0
220
0
230
1
0
LINE
5
7C
100
AcDbEntity
8
SK1
62
256
6
ByLayer
370
13
48
1
60
0
100
AcDbLine
10
-0.194977
20
21.86392
30
0
11
-0.194977
21
21.869301
31
0
39
0
210
0
220
0
230
1
0
LINE
5
7D
100
AcDbEntity
8
SK1
62
256
6
ByLayer
370
13
48
1
60
0
100
AcDbLine
10
-0.194977
20
-21.869301
30
0
11
-0.194977
21
-21.86392
31
0
39
0
210
0
220
0
230
1
0
LINE
5
7E
100
AcDbEntity
8
1
62
256
6
ByLayer
370
13
48
1
60
0
100
AcDbLine
10
0
20
31.2
30
0
11
0
21
-31.2
31
0
39
0
210
0
220
0
230
1
0
LINE
5
7F
100
AcDbEntity
8
1
62
256
6
ByLayer
370
13
48
1
60
0
100
AcDbLine
10
22.091775
20
-23.493375
30
0
11
22.021903
21
-31.5
31
0
39
0
210
0
220
0
230
1
0
LINE
5
80
100
AcDbEntity
8
1
62
256
6
ByLayer
370
13
48
1
60
0
100
AcDbLine
10
69.301732
20
43.685905
30
0
11
69.301732
21
44.20034
31
0
39
0
210
0
220
0
230
1
0
LINE
5
81
100
AcDbEntity
8
1
62
256
6
ByLayer
370
13
48
1
60
0
100
AcDbLine
10
58.273801
20
44.675
30
0
11
58.273801
21
41.325
31
0
39
0
210
0
220
0
230
1
0
LINE
5
82
100
AcDbEntity
8
1
62
256
6
ByLayer
370
13
48
1
60
0
100
AcDbLine
10
13.894338
20
-29.913955
30
0
11
13.894338
21
-9.869413
31
0
39
0
210
0
220
0
230
1
0
LINE
5
83
100
AcDbEntity
8
1
62
256
6
ByLayer
370
13
48
1
60
0
100
AcDbLine
10
10.538675
20
9.349221
30
0
11
10.538675
21
30.080593
31
0
39
0
210
0
220
0
230
1
0
LINE
5
84
100
AcDbEntity
8
1
62
256
6
ByLayer
370
13
48
1
60
0
100
AcDbLine
10
26.170412
20
-10.5
30
0
11
39.548567
21
-10.5
31
0
39
0
210
0
220
0
230
1
0
LINE
5
85
100
AcDbEntity
8
1
62
256
6
ByLayer
370
13
48
1
60
0
100
AcDbLine
10
22.279208
20
31.5
30
0
11
22.279208
21
29.493145
31
0
39
0
210
0
220
0
230
1
0
LINE
5
86
100
AcDbEntity
8
1
62
256
6
ByLayer
370
13
48
1
60
0
100
AcDbLine
10
58.273801
20
41.325
30
0
11
50.9
21
41.325
31
0
39
0
210
0
220
0
230
1
0
LINE
5
87
100
AcDbEntity
8
1
62
256
6
ByLayer
370
13
48
1
60
0
100
AcDbLine
10
63.273801
20
41.325
30
0
11
63.273801
21
44.675
31
0
39
0
210
0
220
0
230
1
0
LINE
5
88
100
AcDbEntity
8
1
62
256
6
ByLayer
370
13
48
1
60
0
100
AcDbLine
10
22.170564
20
29.143103
30
0
11
22.170564
21
-14.465094
31
0
39
0
210
0
220
0
230
1
0
LINE
5
89
100
AcDbEntity
8
1
62
256
6
ByLayer
370
13
48
1
60
0
100
AcDbLine
10
58.273801
20
44.675
30
0
11
63.273801
21
44.675
31
0
39
0
210
0
220
0
230
1
0
LINE
5
8A
100
AcDbEntity
8
1
62
256
6
ByLayer
370
13
48
1
60
0
100
AcDbLine
10
39.548567
20
-10.5
30
0
11
41.4
21
0
31
0
39
0
210
0
220
0
230
1
0
LINE
5
8B
100
AcDbEntity
8
1
62
256
6
ByLayer
370
13
48
1
60
0
100
AcDbLine
10
50.9
20
41.325
30
0
11
43
21
41.325
31
0
39
0
210
0
220
0
230
1
0
LINE
5
8C
100
AcDbEntity
8
1
62
256
6
ByLayer
370
13
48
1
60
0
100
AcDbLine
10
10.105662
20
-29.913955
30
0
11
10.105662
21
-9.869413
31
0
39
0
210
0
220
0
230
1
0
LINE
5
8D
100
AcDbEntity
8
1
62
256
6
ByLayer
370
13
48
1
60
0
100
AcDbLine
10
13.461325
20
9.349221
30
0
11
13.461325
21
30.080593
31
0
39
0
210
0
220
0
230
1
0
LINE
5
8E
100
AcDbEntity
8
1
62
256
6
ByLayer
370
13
48
1
60
0
100
AcDbLine
10
50.9
20
41.325
30
0
11
50.9
21
44.675
31
0
39
0
210
0
220
0
230
1
0
LINE
5
8F
100
AcDbEntity
8
1
62
256
6
ByLayer
370
13
48
1
60
0
100
AcDbLine
10
10.538675
20
-30.080593
30
0
11
10.538675
21
-9.349221
31
0
39
0
210
0
220
0
230
1
0
LINE
5
90
100
AcDbEntity
8
1
62
256
6
ByLayer
370
13
48
1
60
0
100
AcDbLine
10
69.301732
20
41.79966
30
0
11
69.155966
21
41.325
31
0
39
0
210
0
220
0
230
1
0
LINE
5
91
100
AcDbEntity
8
1
62
256
6
ByLayer
370
13
48
1
60
0
100
AcDbLine
10
26.170412
20
-10.5
30
0
11
26.170412
21
40.419052
31
0
39
0
210
0
220
0
230
1
0
LINE
5
92
100
AcDbEntity
8
1
62
256
6
ByLayer
370
13
48
1
60
0
100
AcDbLine
10
63.273801
20
41.325
30
0
11
69.155966
21
41.325
31
0
39
0
210
0
220
0
230
1
0
LINE
5
93
100
AcDbEntity
8
1
62
256
6
ByLayer
370
13
48
1
60
0
100
AcDbLine
10
22.091775
20
-23.493375
30
0
11
22.170564
21
-14.465094
31
0
39
0
210
0
220
0
230
1
0
LINE
5
94
100
AcDbEntity
8
1
62
256
6
ByLayer
370
13
48
1
60
0
100
AcDbLine
10
13.461325
20
-30.080593
30
0
11
10.538675
21
-30.080593
31
0
39
0
210
0
220
0
230
1
0
LINE
5
95
100
AcDbEntity
8
1
62
256
6
ByLayer
370
13
48
1
60
0
100
AcDbLine
10
69.301732
20
41.79966
30
0
11
69.301732
21
42.314095
31
0
39
0
210
0
220
0
230
1
0
LINE
5
96
100
AcDbEntity
8
1
62
256
6
ByLayer
370
13
48
1
60
0
100
AcDbLine
10
10.538675
20
-9.349221
30
0
11
13.461325
21
-9.349221
31
0
39
0
210
0
220
0
230
1
0
LINE
5
97
100
AcDbEntity
8
1
62
256
6
ByLayer
370
13
48
1
60
0
100
AcDbLine
10
13.461325
20
-30.080593
30
0
11
13.461325
21
-9.349221
31
0
39
0
210
0
220
0
230
1
0
LINE
5
98
100
AcDbEntity
8
1
62
256
6
ByLayer
370
13
48
1
60
0
100
AcDbLine
10
23.438319
20
32.389417
30
0
11
23.438319
21
31.093958
31
0
39
0
210
0
220
0
230
1
0
LINE
5
99
100
AcDbEntity
8
1
62
256
6
ByLayer
370
13
48
1
60
0
100
AcDbLine
10
58.273801
20
41.325
30
0
11
63.273801
21
41.325
31
0
39
0
210
0
220
0
230
1
0
LINE
5
9A
100
AcDbEntity
8
1
62
256
6
ByLayer
370
13
48
1
60
0
100
AcDbLine
10
26.170412
20
40.419052
30
0
11
25.799443
21
40.419052
31
0
39
0
210
0
220
0
230
1
0
LINE
5
9B
100
AcDbEntity
8
1
62
256
6
ByLayer
370
13
48
1
60
0
100
AcDbLine
10
69.155966
20
44.675
30
0
11
69.301732
21
44.20034
31
0
39
0
210
0
220
0
230
1
0
LINE
5
9C
100
AcDbEntity
8
1
62
256
6
ByLayer
370
13
48
1
60
0
100
AcDbLine
10
41.4
20
39.725
30
0
11
41.4
21
0
31
0
39
0
210
0
220
0
230
1
0
LINE
5
9D
100
AcDbEntity
8
1
62
256
6
ByLayer
370
13
48
1
60
0
100
AcDbLine
10
13.461325
20
9.349221
30
0
11
10.538675
21
9.349221
31
0
39
0
210
0
220
0
230
1
0
LINE
5
9E
100
AcDbEntity
8
1
62
256
6
ByLayer
370
13
48
1
60
0
100
AcDbLine
10
10.105662
20
9.869413
30
0
11
10.105662
21
29.913955
31
0
39
0
210
0
220
0
230
1
0
LINE
5
9F
100
AcDbEntity
8
1
62
256
6
ByLayer
370
13
48
1
60
0
100
AcDbLine
10
42.981133
20
44.675
30
0
11
42.981133
21
41.324889
31
0
39
0
210
0
220
0
230
1
0
LINE
5
A0
100
AcDbEntity
8
1
62
256
6
ByLayer
370
13
48
1
60
0
100
AcDbLine
10
42.981133
20
44.675
30
0
11
26.920182
21
44.675
31
0
39
0
210
0
220
0
230
1
0
LINE
5
A1
100
AcDbEntity
8
1
62
256
6
ByLayer
370
13
48
1
60
0
100
AcDbLine
10
63.273801
20
44.675
30
0
11
69.155966
21
44.675
31
0
39
0
210
0
220
0
230
1
0
LINE
5
A2
100
AcDbEntity
8
1
62
256
6
ByLayer
370
13
48
1
60
0
100
AcDbLine
10
0.3
20
31.5
30
0
11
0.3
21
-31.5
31
0
39
0
210
0
220
0
230
1
0
LINE
5
A3
100
AcDbEntity
8
1
62
256
6
ByLayer
370
13
48
1
60
0
100
AcDbLine
10
13.894338
20
9.869413
30
0
11
13.894338
21
29.913955
31
0
39
0
210
0
220
0
230
1
0
LINE
5
A4
100
AcDbEntity
8
1
62
256
6
ByLayer
370
13
48
1
60
0
100
AcDbLine
10
69.301732
20
42.314095
30
0
11
69.301732
21
43.685905
31
0
39
0
210
0
220
0
230
1
0
LINE
5
A5
100
AcDbEntity
8
1
62
256
6
ByLayer
370
13
48
1
60
0
100
AcDbLine
10
50.9
20
44.675
30
0
11
58.273801
21
44.675
31
0
39
0
210
0
220
0
230
1
0
LINE
5
A6
100
AcDbEntity
8
1
62
256
6
ByLayer
370
13
48
1
60
0
100
AcDbLine
10
42.981133
20
44.675
30
0
11
50.9
21
44.675
31
0
39
0
210
0
220
0
230
1
0
LINE
5
A7
100
AcDbEntity
8
1
62
256
6
ByLayer
370
13
48
1
60
0
100
AcDbLine
10
10.538675
20
30.080593
30
0
11
13.461325
21
30.080593
31
0
39
0
210
0
220
0
230
1
0
LINE
5
A8
100
AcDbEntity
8
1
62
256
6
ByLayer
370
13
48
1
60
0
100
AcDbLine
10
70.153178
20
43.695388
30
0
11
71.861239
21
43.695388
31
0
39
0
210
0
220
0
230
1
0
LINE
5
A9
100
AcDbEntity
8
1
62
256
6
ByLayer
370
13
48
1
60
0
100
AcDbLine
10
70.153178
20
42.304612
30
0
11
71.861239
21
42.304612
31
0
39
0
210
0
220
0
230
1
0
LINE
5
AA
100
AcDbEntity
8
1
62
256
6
ByLayer
370
13
48
1
60
0
100
AcDbLine
10
70.153178
20
43.695388
30
0
11
70.372244
21
43.741052
31
0
39
0
210
0
220
0
230
1
0
LINE
5
AB
100
AcDbEntity
8
1
62
256
6
ByLayer
370
13
48
1
60
0
100
AcDbLine
10
71.290882
20
43.770663
30
0
11
71.611711
21
43.79094
31
0
39
0
210
0
220
0
230
1
0
LINE
5
AC
100
AcDbEntity
8
1
62
256
6
ByLayer
370
13
48
1
60
0
100
AcDbLine
10
71.611711
20
42.20906
30
0
11
71.290882
21
42.229337
31
0
39
0
210
0
220
0
230
1
0
LINE
5
AD
100
AcDbEntity
8
1
62
256
6
ByLayer
370
13
48
1
60
0
100
AcDbLine
10
70.372244
20
42.258948
30
0
11
70.153178
21
42.304612
31
0
39
0
210
0
220
0
230
1
0
LINE
5
AE
100
AcDbEntity
8
1
62
256
6
ByLayer
370
13
48
1
60
0
100
AcDbLine
10
69.594883
20
41.441479
30
0
11
69.594883
21
41.3
31
0
39
0
210
0
220
0
230
1
0
LINE
5
AF
100
AcDbEntity
8
1
62
256
6
ByLayer
370
13
48
1
60
0
100
AcDbLine
10
69.594883
20
44.7
30
0
11
69.594883
21
44.558521
31
0
39
0
210
0
220
0
230
1
0
LINE
5
B0
100
AcDbEntity
8
1
62
256
6
ByLayer
370
13
48
1
60
0
100
AcDbLine
10
70.962511
20
44.7
30
0
11
70.962511
21
43.867234
31
0
39
0
210
0
220
0
230
1
0
LINE
5
B1
100
AcDbEntity
8
1
62
256
6
ByLayer
370
13
48
1
60
0
100
AcDbLine
10
70.332182
20
44.7
30
0
11
70.332182
21
43.83377
31
0
39
0
210
0
220
0
230
1
0
LINE
5
B2
100
AcDbEntity
8
1
62
256
6
ByLayer
370
13
48
1
60
0
100
AcDbLine
10
70.332182
20
41.3
30
0
11
70.332182
21
42.16623
31
0
39
0
210
0
220
0
230
1
0
LINE
5
B3
100
AcDbEntity
8
1
62
256
6
ByLayer
370
13
48
1
60
0
100
AcDbLine
10
70.962511
20
42.132766
30
0
11
70.962511
21
41.3
31
0
39
0
210
0
220
0
230
1
0
LINE
5
B4
100
AcDbEntity
8
1
62
256
6
ByLayer
370
13
48
1
60
0
100
AcDbLine
10
71.285022
20
41.174591
30
0
11
71.285022
21
42.136619
31
0
39
0
210
0
220
0
230
1
0
LINE
5
B5
100
AcDbEntity
8
1
62
256
6
ByLayer
370
13
48
1
60
0
100
AcDbLine
10
71.285022
20
42.136619
30
0
11
71.605851
21
42.116341
31
0
39
0
210
0
220
0
230
1
0
LINE
5
B6
100
AcDbEntity
8
1
62
256
6
ByLayer
370
13
48
1
60
0
100
AcDbLine
10
71.856902
20
41.130509
30
0
11
71.802267
21
41.911831
31
0
39
0
210
0
220
0
230
1
0
LINE
5
B7
100
AcDbEntity
8
1
62
256
6
ByLayer
370
13
48
1
60
0
100
AcDbLine
10
71.856902
20
44.869491
30
0
11
71.802267
21
44.088169
31
0
39
0
210
0
220
0
230
1
0
LINE
5
B8
100
AcDbEntity
8
1
62
256
6
ByLayer
370
13
48
1
60
0
100
AcDbLine
10
71.605851
20
43.883659
30
0
11
71.285022
21
43.863381
31
0
39
0
210
0
220
0
230
1
0
LINE
5
B9
100
AcDbEntity
8
1
62
256
6
ByLayer
370
13
48
1
60
0
100
AcDbLine
10
71.285022
20
43.863381
30
0
11
71.285022
21
44.825409
31
0
39
0
210
0
220
0
230
1
0
LINE
5
BA
100
AcDbEntity
8
1
62
256
6
ByLayer
370
13
48
1
60
0
100
AcDbLine
10
71.285022
20
42.136619
30
0
11
71.290882
21
42.229337
31
0
39
0
210
0
220
0
230
1
0
LINE
5
BB
100
AcDbEntity
8
1
62
256
6
ByLayer
370
13
48
1
60
0
100
AcDbLine
10
71.290882
20
43.770663
30
0
11
71.285022
21
43.863381
31
0
39
0
210
0
220
0
230
1
0
LINE
5
BC
100
AcDbEntity
8
1
62
256
6
ByLayer
370
13
48
1
60
0
100
AcDbLine
10
71.605851
20
42.116341
30
0
11
71.611711
21
42.20906
31
0
39
0
210
0
220
0
230
1
0
LINE
5
BD
100
AcDbEntity
8
1
62
256
6
ByLayer
370
13
48
1
60
0
100
AcDbLine
10
71.611711
20
43.79094
30
0
11
71.605851
21
43.883659
31
0
39
0
210
0
220
0
230
1
0
LINE
5
BE
100
AcDbEntity
8
1
62
256
6
ByLayer
370
13
48
1
60
0
100
AcDbLine
10
71.978644
20
44.073191
30
0
11
72.0347
21
44.874835
31
0
39
0
210
0
220
0
230
1
0
LINE
5
BF
100
AcDbEntity
8
1
62
256
6
ByLayer
370
13
48
1
60
0
100
AcDbLine
10
71.978644
20
41.926809
30
0
11
72.0347
21
41.125165
31
0
39
0
210
0
220
0
230
1
0
LINE
5
C0
100
AcDbEntity
8
1
62
256
6
ByLayer
370
13
48
1
60
0
100
AcDbLine
10
70.113116
20
42.211894
30
0
11
70.332182
21
42.16623
31
0
39
0
210
0
220
0
230
1
0
LINE
5
C1
100
AcDbEntity
8
1
62
256
6
ByLayer
370
13
48
1
60
0
100
AcDbLine
10
70.332182
20
43.83377
30
0
11
70.113116
21
43.788106
31
0
39
0
210
0
220
0
230
1
0
LINE
5
C2
100
AcDbEntity
8
1
62
256
6
ByLayer
370
13
48
1
60
0
100
AcDbLine
10
69.629386
20
41.3
30
0
11
69.629386
21
41.453962
31
0
39
0
210
0
220
0
230
1
0
LINE
5
C3
100
AcDbEntity
8
1
62
256
6
ByLayer
370
13
48
1
60
0
100
AcDbLine
10
69.629386
20
44.546038
30
0
11
69.629386
21
44.7
31
0
39
0
210
0
220
0
230
1
0
LINE
5
C4
100
AcDbEntity
8
1
62
256
6
ByLayer
370
13
48
1
60
0
100
AcDbLine
10
72.19812
20
41.895483
30
0
11
72.19812
21
41.129541
31
0
39
0
210
0
220
0
230
1
0
LINE
5
C5
100
AcDbEntity
8
1
62
256
6
ByLayer
370
13
48
1
60
0
100
AcDbLine
10
73.258781
20
41.641153
30
0
11
73.258781
21
41.097564
31
0
39
0
210
0
220
0
230
1
0
LINE
5
C6
100
AcDbEntity
8
1
62
256
6
ByLayer
370
13
48
1
60
0
100
AcDbLine
10
73.258781
20
44.358847
30
0
11
73.258781
21
44.902436
31
0
39
0
210
0
220
0
230
1
0
LINE
5
C7
100
AcDbEntity
8
1
62
256
6
ByLayer
370
13
48
1
60
0
100
AcDbLine
10
72.19812
20
44.104517
30
0
11
72.19812
21
44.870459
31
0
39
0
210
0
220
0
230
1
0
LINE
5
C8
100
AcDbEntity
8
1
62
256
6
ByLayer
370
13
48
1
60
0
100
AcDbLine
10
73.114687
20
44.053029
30
0
11
73.211268
21
43.749486
31
0
39
0
210
0
220
0
230
1
0
LINE
5
C9
100
AcDbEntity
8
1
62
256
6
ByLayer
370
13
48
1
60
0
100
AcDbLine
10
73.114687
20
41.946971
30
0
11
73.211268
21
42.250514
31
0
39
0
210
0
220
0
230
1
0
LINE
5
CA
100
AcDbEntity
8
1
62
256
6
ByLayer
370
13
48
1
60
0
100
AcDbLine
10
73.211268
20
43.749486
30
0
11
73.211268
21
42.250514
31
0
39
0
210
0
220
0
230
1
0
LINE
5
CB
100
AcDbEntity
8
1
62
256
6
ByLayer
370
13
48
1
60
0
100
AcDbLine
10
75.000117
20
43.998411
30
0
11
74.925685
21
43.998411
31
0
39
0
210
0
220
0
230
1
0
LINE
5
CC
100
AcDbEntity
8
1
62
256
6
ByLayer
370
13
48
1
60
0
100
AcDbLine
10
74.535516
20
44.30735
30
0
11
74.535516
21
45.0016
31
0
39
0
210
0
220
0
230
1
0
LINE
5
CD
100
AcDbEntity
8
1
62
256
6
ByLayer
370
13
48
1
60
0
100
AcDbLine
10
74.535516
20
41.69265
30
0
11
74.535516
21
40.9984
31
0
39
0
210
0
220
0
230
1
0
LINE
5
CE
100
AcDbEntity
8
1
62
256
6
ByLayer
370
13
48
1
60
0
100
AcDbLine
10
75.000117
20
42.001589
30
0
11
74.925685
21
42.001589
31
0
39
0
210
0
220
0
230
1
0
LINE
5
CF
100
AcDbEntity
8
1
62
256
6
ByLayer
370
13
48
1
60
0
100
AcDbLine
10
74.106077
20
41.591486
30
0
11
74.106077
21
41.034959
31
0
39
0
210
0
220
0
230
1
0
LINE
5
D0
100
AcDbEntity
8
1
62
256
6
ByLayer
370
13
48
1
60
0
100
AcDbLine
10
74.46476
20
41.003561
30
0
11
74.46476
21
41.640033
31
0
39
0
210
0
220
0
230
1
0
LINE
5
D1
100
AcDbEntity
8
1
62
256
6
ByLayer
370
13
48
1
60
0
100
AcDbLine
10
74.46476
20
44.996439
30
0
11
74.46476
21
44.359967
31
0
39
0
210
0
220
0
230
1
0
LINE
5
D2
100
AcDbEntity
8
1
62
256
6
ByLayer
370
13
48
1
60
0
100
AcDbLine
10
74.106077
20
44.408514
30
0
11
74.106077
21
44.965041
31
0
39
0
210
0
220
0
230
1
0
LINE
5
D3
100
AcDbEntity
8
1
62
256
6
ByLayer
370
13
48
1
60
0
100
AcDbLine
10
73.758781
20
41.587946
30
0
11
73.758781
21
41.062363
31
0
39
0
210
0
220
0
230
1
0
LINE
5
D4
100
AcDbEntity
8
1
62
256
6
ByLayer
370
13
48
1
60
0
100
AcDbLine
10
73.758781
20
44.412054
30
0
11
73.758781
21
44.937637
31
0
39
0
210
0
220
0
230
1
0
LINE
5
D5
100
AcDbEntity
8
1
62
256
6
ByLayer
370
13
48
1
60
0
100
AcDbLine
10
70.350545
20
43
30
0
11
70.302842
21
43
31
0
39
0
210
0
220
0
230
1
0
LINE
5
D6
100
AcDbEntity
8
1
62
256
6
ByLayer
370
13
48
1
60
0
100
AcDbLine
10
73.82193
20
41.87506
30
0
11
73.811268
21
42.178299
31
0
39
0
210
0
220
0
230
1
0
LINE
5
D7
100
AcDbEntity
8
1
62
256
6
ByLayer
370
13
48
1
60
0
100
AcDbLine
10
73.82193
20
44.12494
30
0
11
73.811268
21
43.821701
31
0
39
0
210
0
220
0
230
1
0
LINE
5
D8
100
AcDbEntity
8
1
62
256
6
ByLayer
370
13
48
1
60
0
100
AcDbLine
10
74.944165
20
43.812034
30
0
11
74.997026
21
43.812034
31
0
39
0
210
0
220
0
230
1
0
LINE
5
D9
100
AcDbEntity
8
1
62
256
6
ByLayer
370
13
48
1
60
0
100
AcDbLine
10
74.944165
20
42.187966
30
0
11
74.997026
21
42.187966
31
0
39
0
210
0
220
0
230
1
0
LINE
5
DA
100
AcDbEntity
8
1
62
256
6
ByLayer
370
13
48
1
60
0
100
AcDbLine
10
74.948049
20
42.029285
30
0
11
75
21
42.029285
31
0
39
0
210
0
220
0
230
1
0
LINE
5
DB
100
AcDbEntity
8
1
62
256
6
ByLayer
370
13
48
1
60
0
100
AcDbLine
10
74.997026
20
42.187966
30
0
11
74.997026
21
43.812034
31
0
39
0
210
0
220
0
230
1
0
LINE
5
DC
100
AcDbEntity
8
1
62
256
6
ByLayer
370
13
48
1
60
0
100
AcDbLine
10
74.948049
20
43.970715
30
0
11
75
21
43.970715
31
0
39
0
210
0
220
0
230
1
0
LINE
5
DD
100
AcDbEntity
8
1
62
256
6
ByLayer
370
13
48
1
60
0
100
AcDbLine
10
74.944165
20
43.812034
30
0
11
74.944165
21
42.187966
31
0
39
0
210
0
220
0
230
1
0
LINE
5
DE
100
AcDbEntity
8
1
62
256
6
ByLayer
370
13
48
1
60
0
100
AcDbLine
10
74.421373
20
43.82272
30
0
11
74.421373
21
42.17728
31
0
39
0
210
0
220
0
230
1
0
LINE
5
DF
100
AcDbEntity
8
1
62
256
6
ByLayer
370
13
48
1
60
0
100
AcDbLine
10
73.811268
20
43.821701
30
0
11
73.811268
21
42.178299
31
0
39
0
210
0
220
0
230
1
0
LINE
5
E0
100
AcDbEntity
8
1
62
256
6
ByLayer
370
18
48
1
60
0
100
AcDbLine
10
72.19812
20
44.870459
30
0
11
72.0347
21
44.874835
31
0
39
0
210
0
220
0
230
1
0
LINE
5
E1
100
AcDbEntity
8
1
62
256
6
ByLayer
370
18
48
1
60
0
100
AcDbLine
10
65.273333
20
41.3
30
0
11
67.984409
21
41.3
31
0
39
0
210
0
220
0
230
1
0
LINE
5
E2
100
AcDbEntity
8
1
62
256
6
ByLayer
370
18
48
1
60
0
100
AcDbLine
10
70.332182
20
41.3
30
0
11
70.962511
21
41.3
31
0
39
0
210
0
220
0
230
1
0
LINE
5
E3
100
AcDbEntity
8
1
62
256
6
ByLayer
370
18
48
1
60
0
100
AcDbLine
10
71.341473
20
44.833448
30
0
11
71.856902
21
44.869491
31
0
39
0
210
0
220
0
230
1
0
LINE
5
E4
100
AcDbEntity
8
1
62
256
6
ByLayer
370
18
48
1
60
0
100
AcDbLine
10
70.962511
20
44.7
30
0
11
70.962814
21
44.7
31
0
39
0
210
0
220
0
230
1
0
LINE
5
E5
100
AcDbEntity
8
1
62
256
6
ByLayer
370
18
48
1
60
0
100
AcDbLine
10
74.106077
20
41.034959
30
0
11
74.46476
21
41.003561
31
0
39
0
210
0
220
0
230
1
0
LINE
5
E6
100
AcDbEntity
8
1
62
256
6
ByLayer
370
18
48
1
60
0
100
AcDbLine
10
70.962511
20
44.7
30
0
11
70.332182
21
44.7
31
0
39
0
210
0
220
0
230
1
0
LINE
5
E7
100
AcDbEntity
8
1
62
256
6
ByLayer
370
18
48
1
60
0
100
AcDbLine
10
65.07404
20
44.7
30
0
11
65.008324
21
44.7
31
0
39
0
210
0
220
0
230
1
0
LINE
5
E8
100
AcDbEntity
8
1
62
256
6
ByLayer
370
18
48
1
60
0
100
AcDbLine
10
74.69252
20
45.01078
30
0
11
74.535516
21
45.0016
31
0
39
0
210
0
220
0
230
1
0
LINE
5
E9
100
AcDbEntity
8
1
62
256
6
ByLayer
370
18
48
1
60
0
100
AcDbLine
10
70.332182
20
44.7
30
0
11
69.629386
21
44.7
31
0
39
0
210
0
220
0
230
1
0
LINE
5
EA
100
AcDbEntity
8
1
62
256
6
ByLayer
370
18
48
1
60
0
100
AcDbLine
10
73.258781
20
41.097564
30
0
11
73.758781
21
41.062363
31
0
39
0
210
0
220
0
230
1
0
LINE
5
EB
100
AcDbEntity
8
1
62
256
6
ByLayer
370
18
48
1
60
0
100
AcDbLine
10
75.000117
20
43.998411
30
0
11
75.006095
21
44.705218
31
0
39
0
210
0
220
0
230
1
0
LINE
5
EC
100
AcDbEntity
8
1
62
256
6
ByLayer
370
18
48
1
60
0
100
AcDbLine
10
69.594883
20
41.3
30
0
11
69.629386
21
41.3
31
0
39
0
210
0
220
0
230
1
0
LINE
5
ED
100
AcDbEntity
8
1
62
256
6
ByLayer
370
18
48
1
60
0
100
AcDbLine
10
74.535516
20
40.9984
30
0
11
74.69252
21
40.98922
31
0
39
0
210
0
220
0
230
1
0
LINE
5
EE
100
AcDbEntity
8
1
62
256
6
ByLayer
370
18
48
1
60
0
100
AcDbLine
10
70.962814
20
41.3
30
0
11
70.962511
21
41.3
31
0
39
0
210
0
220
0
230
1
0
LINE
5
EF
100
AcDbEntity
8
1
62
256
6
ByLayer
370
18
48
1
60
0
100
AcDbLine
10
75.006095
20
41.294782
30
0
11
75.000117
21
42.001589
31
0
39
0
210
0
220
0
230
1
0
LINE
5
F0
100
AcDbEntity
8
1
62
256
6
ByLayer
370
18
48
1
60
0
100
AcDbLine
10
72.0347
20
41.125165
30
0
11
72.19812
21
41.129541
31
0
39
0
210
0
220
0
230
1
0
LINE
5
F1
100
AcDbEntity
8
1
62
256
6
ByLayer
370
18
48
1
60
0
100
AcDbLine
10
73.758781
20
44.937637
30
0
11
73.258781
21
44.902436
31
0
39
0
210
0
220
0
230
1
0
LINE
5
F2
100
AcDbEntity
8
1
62
256
6
ByLayer
370
18
48
1
60
0
100
AcDbLine
10
65.008324
20
41.3
30
0
11
65.07404
21
41.3
31
0
39
0
210
0
220
0
230
1
0
LINE
5
F3
100
AcDbEntity
8
1
62
256
6
ByLayer
370
18
48
1
60
0
100
AcDbLine
10
71.856902
20
41.130509
30
0
11
71.341473
21
41.166552
31
0
39
0
210
0
220
0
230
1
0
LINE
5
F4
100
AcDbEntity
8
1
62
256
6
ByLayer
370
18
48
1
60
0
100
AcDbLine
10
69.629386
20
41.3
30
0
11
70.332182
21
41.3
31
0
39
0
210
0
220
0
230
1
0
LINE
5
F5
100
AcDbEntity
8
1
62
256
6
ByLayer
370
18
48
1
60
0
100
AcDbLine
10
74.46476
20
44.996439
30
0
11
74.106077
21
44.965041
31
0
39
0
210
0
220
0
230
1
0
LINE
5
F6
100
AcDbEntity
8
1
62
256
6
ByLayer
370
18
48
1
60
0
100
AcDbLine
10
69.629386
20
44.7
30
0
11
69.594883
21
44.7
31
0
39
0
210
0
220
0
230
1
0
LINE
5
F7
100
AcDbEntity
8
1
62
256
6
ByLayer
370
18
48
1
60
0
100
AcDbLine
10
75
20
42.029285
30
0
11
75
21
43.970715
31
0
39
0
210
0
220
0
230
1
0
LINE
5
F8
100
AcDbEntity
8
1
62
256
6
ByLayer
370
18
48
1
60
0
100
AcDbLine
10
65.273333
20
44.7
30
0
11
67.984409
21
44.7
31
0
39
0
210
0
220
0
230
1
0
MTEXT
5
223
100
AcDbEntity
8
SK6
62
256
6
ByLayer
370
18
48
1
60
0
100
AcDbMText
10
-13.125
20
-44.119364
30
0
210
0
220
0
230
1
1
\W0.7840;C6-QD-RFH32C45075A
40
3.5
41
0
44
1.084337
50
0
71
7
72
5
7
iso_b_vert
0
DIMENSION
5
235
100
AcDbEntity
8
2
62
256
6
ByLayer
370
13
48
1
60
0
100
AcDbDimension
2
DimnDraft3D1
10
100.1
20
45
30
0
11
100.1
21
20.225
31
0
70
32
71
5
72
1
41
1
210
0
220
0
230
1
3
Standard
100
AcDbAlignedDimension
13
45
23
0
33
0
14
77
24
45
34
0
50
90
100
AcDbRotatedDimension
1001
ACAD
1000
DSTYLE
1002
{
1070
    74
1070
     0
1070
   279
1070
     0
1070
   172
1070
     1
1070
   173
1070
     1
1070
   340
1005
224
1070
   271
1070
     1
1070
    77
1070
     1
1070
    73
1070
     0
1070
   171
1070
     3
1070
   274
1070
     4
1070
   177
1070
     2
1070
   176
1070
     2
1070
   178
1070
     7
1070
    78
1070
     8
1070
    41
1041
3.175
1070
   147
1041
1.75
1070
    42
1041
2.0
1070
    44
1041
2.0
1070
   140
1041
3.5
1070
   343
1005
236
1070
   344
1005
236
1002
}
0
DIMENSION
5
24B
100
AcDbEntity
8
SK2
62
256
6
ByLayer
370
13
48
1
60
0
100
AcDbDimension
2
DimnDraft3D2
10
75
20
67.611273
30
0
11
35.409211
21
67.611273
31
0
70
32
71
5
72
1
41
1
210
0
220
0
230
1
3
Standard
100
AcDbAlignedDimension
13
0
23
2
33
0
14
75
24
47
34
0
50
0
100
AcDbRotatedDimension
1001
ACAD
1000
DSTYLE
1002
{
1070
   279
1070
     0
1070
   172
1070
     1
1070
   173
1070
     1
1070
   340
1005
224
1070
   271
1070
     1
1070
    77
1070
     1
1070
    73
1070
     0
1070
   171
1070
     3
1070
   274
1070
     4
1070
   177
1070
     2
1070
   176
1070
     2
1070
   178
1070
     7
1070
    78
1070
     8
1070
    41
1041
3.175
1070
   147
1041
1.75
1070
    42
1041
2.0
1070
    44
1041
2.0
1070
   140
1041
3.5
1070
   343
1005
236
1070
   344
1005
236
1002
}
0
DIMENSION
5
259
100
AcDbEntity
8
2
62
256
6
ByLayer
370
13
48
1
60
0
100
AcDbDimension
2
DimnDraft3D3
10
43
20
-44.6
30
0
11
56.909211
21
-44.6
31
0
70
32
71
5
72
1
41
1
210
0
220
0
230
1
3
Standard
100
AcDbAlignedDimension
13
75
23
43
33
0
14
43
24
-2
34
0
50
0
100
AcDbRotatedDimension
1001
ACAD
1000
DSTYLE
1002
{
1070
   279
1070
     0
1070
   172
1070
     1
1070
   173
1070
     1
1070
   340
1005
224
1070
   271
1070
     1
1070
    77
1070
     1
1070
    73
1070
     0
1070
   171
1070
     3
1070
   274
1070
     4
1070
   177
1070
     2
1070
   176
1070
     2
1070
   178
1070
     7
1070
    78
1070
     8
1070
    41
1041
3.175
1070
   147
1041
1.75
1070
    42
1041
2.0
1070
    44
1041
2.0
1070
   140
1041
3.5
1070
   343
1005
236
1070
   344
1005
236
1002
}
0
DIMENSION
5
267
100
AcDbEntity
8
SK2
62
256
6
ByLayer
370
13
48
1
60
0
100
AcDbDimension
2
DimnDraft3D4
10
-47.6
20
-31.5
30
0
11
-47.6
21
-2.090789
31
0
70
32
71
5
72
1
41
1
210
0
220
0
230
1
3
Standard
100
AcDbAlignedDimension
13
-2
23
31.5
33
0
14
-2
24
-31.5
34
0
50
90
100
AcDbRotatedDimension
1001
ACAD
1000
DSTYLE
1002
{
1070
    74
1070
     0
1070
   279
1070
     0
1070
   172
1070
     1
1070
   173
1070
     1
1070
   340
1005
224
1070
   271
1070
     1
1070
    77
1070
     1
1070
    73
1070
     0
1070
   171
1070
     3
1070
   274
1070
     4
1070
   177
1070
     2
1070
   176
1070
     2
1070
   178
1070
     7
1070
    78
1070
     8
1070
    41
1041
3.175
1070
   147
1041
1.75
1070
    42
1041
2.0
1070
    44
1041
2.0
1070
   140
1041
3.5
1070
   343
1005
236
1070
   344
1005
236
1002
}
0
DIMENSION
5
275
100
AcDbEntity
8
2
62
256
6
ByLayer
370
13
48
1
60
0
100
AcDbDimension
2
DimnDraft3D5
10
93.1
20
41
30
0
11
93.1
21
28.810789
31
0
70
32
71
5
72
1
41
1
210
0
220
0
230
1
3
Standard
100
AcDbAlignedDimension
13
77
23
45
33
0
14
77
24
41
34
0
50
90
100
AcDbRotatedDimension
1001
ACAD
1000
DSTYLE
1002
{
1070
    74
1070
     0
1070
   279
1070
     0
1070
   172
1070
     1
1070
   173
1070
     1
1070
   340
1005
224
1070
   271
1070
     1
1070
    77
1070
     1
1070
    73
1070
     0
1070
   171
1070
     3
1070
   274
1070
     4
1070
   177
1070
     2
1070
   176
1070
     2
1070
   178
1070
     7
1070
    78
1070
     8
1070
    41
1041
3.175
1070
   147
1041
1.75
1070
    42
1041
2.0
1070
    44
1041
2.0
1070
   140
1041
3.5
1070
   343
1005
236
1070
   344
1005
236
1002
}
0
ENDSEC
0
SECTION
2
OBJECTS
0
DICTIONARY
5
2df
330
0
100
AcDbDictionary
280
0
281
1
3
ACAD_GROUP
350
2e0
3
ACAD_MLINESTYLE
350
2e1
0
DICTIONARY
5
2e0
330
0
100
AcDbDictionary
280
0
281
1
0
DICTIONARY
5
2e1
330
0
100
AcDbDictionary
280
0
281
1
3
Standard
350
18
0
MLINESTYLE
5
18
330
2e1
100
AcDbMlineStyle
2
Standard
70
0
3

62
256
51
90
52
90
71
2
49
-0.5
62
256
6
ByLayer
49
0.5
62
256
6
ByLayer
0
RASTERVARIABLES
5
2ce
330

100
AcDbRasterVariables
90
0
70
1
71
1
72
1
0
ENDSEC
0
EOF
