0
SECTION
2
HEADER
9
$ACADVER
1
AC1015
9
$DWGCODEPAGE
3
ANSI_1252
9
$HANDSEED
5
215
9
$ANGBASE
50
0
9
$ANGDIR
70
0
9
$ATTMODE
70
1
9
$AUNITS
70
0
9
$AUPREC
70
0
9
$CECOLOR
62
256
9
$CELTSCALE
40
1
9
$CELTYPE
6
ByLayer
9
$CELWEIGHT
370
18
9
$CLAYER
8
0
9
$CMLJUST
70
0
9
$CMLSCALE
40
1
9
$CMLSTYLE
2
Standard
9
$DIMSTYLE
2
Standard
9
$TEXTSIZE
40
0.2
9
$TEXTSTYLE
7
Standard
9
$LUNITS
70
2
9
$LUPREC
70
4
9
$EXTNAMES
290
1
9
$INSUNITS
70
4
9
$LTSCALE
40
1
9
$LWDISPLAY
290
1
9
$PDMODE
70
0
9
$PDSIZE
40
0
9
$PLINEGEN
70
0
0
ENDSEC
0
SECTION
2
CLASSES
0
CLASS
1
RASTERVARIABLES
2
AcDbRasterVariables
3
ISM
90
0
280
0
281
0
0
ENDSEC
0
SECTION
2
TABLES
0
TABLE
2
VPORT
5
20b
100
AcDbSymbolTable
0
VPORT
5
1
100
AcDbSymbolTableRecord
100
AcDbViewportTableRecord
2
*Active
70
0
10
0
20
0
11
1
21
1
12
-1
22
1
13
0
23
0
14
0.5
24
0.5
15
10
25
10
16
0
26
0
36
1
17
0
27
0
37
0
0
ENDTAB
0
TABLE
2
LTYPE
5
20c
100
AcDbSymbolTable
0
LTYPE
5
14
100
AcDbSymbolTableRecord
100
AcDbLinetypeTableRecord
70
0
2
ByBlock
3

72
65
73
0
40
0
0
LTYPE
5
15
100
AcDbSymbolTableRecord
100
AcDbLinetypeTableRecord
70
0
2
ByLayer
3

72
65
73
0
40
0
0
LTYPE
5
16
100
AcDbSymbolTableRecord
100
AcDbLinetypeTableRecord
70
0
2
CONTINUOUS
3
Solid line
72
65
73
0
40
0
0
LTYPE
5
6A
100
AcDbSymbolTableRecord
100
AcDbLinetypeTableRecord
70
0
2
CENTER
3
____ _ ____ _ ____ _ ____
72
65
73
4
40
47.5
49
22
74
0
49
-8.5
74
0
49
8.5
74
0
49
-8.5
74
0
0
LTYPE
5
6B
100
AcDbSymbolTableRecord
100
AcDbLinetypeTableRecord
70
0
2
DASHED
3
__ __ __ __ __ __ __ __ __
72
65
73
2
40
25.72
49
12.86
74
0
49
-12.86
74
0
0
ENDTAB
0
TABLE
2
LAYER
5
20d
100
AcDbSymbolTable
0
LAYER
5
10
100
AcDbSymbolTableRecord
100
AcDbLayerTableRecord
2
0
70
0
62
7
6
CONTINUOUS
290
1
370
-3
390
0
0
LAYER
5
6D
100
AcDbSymbolTableRecord
100
AcDbLayerTableRecord
2
80
70
0
62
-6
6
CONTINUOUS
290
1
370
-3
390
0
0
LAYER
5
6F
100
AcDbSymbolTableRecord
100
AcDbLayerTableRecord
2
81
70
0
62
-3
6
CONTINUOUS
290
1
370
-3
390
0
0
LAYER
5
71
100
AcDbSymbolTableRecord
100
AcDbLayerTableRecord
2
1
70
0
62
4
6
CONTINUOUS
290
1
370
-3
390
0
0
LAYER
5
D1
100
AcDbSymbolTableRecord
100
AcDbLayerTableRecord
2
4
70
0
62
-2
6
CENTER
290
1
370
-3
390
0
0
LAYER
5
15F
100
AcDbSymbolTableRecord
100
AcDbLayerTableRecord
2
2
70
0
62
7
6
CONTINUOUS
290
1
370
-3
390
0
0
LAYER
5
1f7
100
AcDbSymbolTableRecord
100
AcDbLayerTableRecord
2
SK1
70
0
62
4
6
CONTINUOUS
290
1
370
-3
390
0
0
LAYER
5
1f8
100
AcDbSymbolTableRecord
100
AcDbLayerTableRecord
2
SK4
70
0
62
2
6
CENTER
290
1
370
-3
390
0
0
LAYER
5
1f9
100
AcDbSymbolTableRecord
100
AcDbLayerTableRecord
2
SK6
70
0
62
5
6
CONTINUOUS
290
1
370
-3
390
0
0
LAYER
5
1fa
100
AcDbSymbolTableRecord
100
AcDbLayerTableRecord
2
SK2
70
0
62
7
6
CONTINUOUS
290
1
370
-3
390
0
0
ENDTAB
0
TABLE
2
STYLE
5
20e
100
AcDbSymbolTable
0
STYLE
5
11
100
AcDbSymbolTableRecord
100
AcDbTextStyleTableRecord
2
Standard
3
txt
70
0
71
0
40
0
41
1
42
0
50
0
0
STYLE
5
15A
100
AcDbSymbolTableRecord
100
AcDbTextStyleTableRecord
2
iso_b_vert
3
simplex.shx
70
0
71
0
40
0
41
1
42
0
50
0
0
STYLE
5
15B
100
AcDbSymbolTableRecord
100
AcDbTextStyleTableRecord
2
DWGDirectTextStyle
3
simplex
70
0
71
0
40
0
41
1
42
0
50
0
0
ENDTAB
0
TABLE
2
DIMSTYLE
5
20f
100
AcDbSymbolTable
100
AcDbDimStyleTable
0
DIMSTYLE
105
27
100
AcDbSymbolTableRecord
100
AcDbDimStyleTableRecord
2
Standard
70
0
3
<>
41
0.18
42
0.0625
44
0.18
140
0.18
147
0.09
73
0
74
0
77
1
271
2
275
0
278
52
280
0
340
11
0
ENDTAB
0
TABLE
2
VIEW
5
210
100
AcDbSymbolTable
0
ENDTAB
0
TABLE
2
UCS
5
211
100
AcDbSymbolTable
0
ENDTAB
0
TABLE
2
APPID
5
212
100
AcDbSymbolTable
0
APPID
5
12
100
AcDbSymbolTableRecord
100
AcDbRegAppTableRecord
2
ACAD
70
0
0
ENDTAB
0
TABLE
2
BLOCK_RECORD
5
213
100
AcDbSymbolTable
0
BLOCK_RECORD
5
1F
100
AcDbSymbolTableRecord
100
AcDbBlockTableRecord
2
*Model_Space
340
0
70
0
0
BLOCK_RECORD
5
1B
100
AcDbSymbolTableRecord
100
AcDbBlockTableRecord
2
*Paper_Space
340
0
70
0
0
BLOCK_RECORD
5
23
100
AcDbSymbolTableRecord
100
AcDbBlockTableRecord
2
*Paper_Space0
340
0
70
0
0
BLOCK_RECORD
5
15D
100
AcDbSymbolTableRecord
100
AcDbBlockTableRecord
2
DimnDraft3D1
340
0
70
0
0
BLOCK_RECORD
5
16B
100
AcDbSymbolTableRecord
100
AcDbBlockTableRecord
2
_CLOSED
340
0
70
0
0
BLOCK_RECORD
5
172
100
AcDbSymbolTableRecord
100
AcDbBlockTableRecord
2
DimnDraft3D2
340
0
70
0
0
BLOCK_RECORD
5
180
100
AcDbSymbolTableRecord
100
AcDbBlockTableRecord
2
DimnDraft3D3
340
0
70
0
0
BLOCK_RECORD
5
18E
100
AcDbSymbolTableRecord
100
AcDbBlockTableRecord
2
DimnDraft3D4
340
0
70
0
0
ENDTAB
0
ENDSEC
0
SECTION
2
BLOCKS
0
BLOCK
5
20
100
AcDbEntity
8
0
100
AcDbBlockBegin
2
*Model_Space
70
0
10
0
20
0
30
0
3
*Model_Space
0
ENDBLK
5
21
100
AcDbEntity
8
0
100
AcDbBlockEnd
0
BLOCK
5
1C
100
AcDbEntity
8
0
100
AcDbBlockBegin
2
*Paper_Space
70
0
10
0
20
0
30
0
3
*Paper_Space
0
ENDBLK
5
1D
100
AcDbEntity
8
0
100
AcDbBlockEnd
0
BLOCK
5
24
100
AcDbEntity
8
0
100
AcDbBlockBegin
2
*Paper_Space0
70
0
10
0
20
0
30
0
3
*Paper_Space0
0
ENDBLK
5
25
100
AcDbEntity
8
0
100
AcDbBlockEnd
0
BLOCK
5
168
100
AcDbEntity
8
0
100
AcDbBlockBegin
2
DimnDraft3D1
70
0
10
0
20
0
30
0
3
DimnDraft3D1
0
MTEXT
5
15E
100
AcDbEntity
8
2
62
256
6
ByLayer
370
18
48
1
60
0
100
AcDbMText
10
139.05437
20
10.600404
30
0
210
0
220
0
230
1
1
\W0.7150;0.56
40
3.5
41
0
44
1.084337
50
90
71
7
72
5
7
iso_b_vert
0
LINE
5
160
100
AcDbEntity
8
2
62
256
6
ByLayer
370
13
48
1
60
0
100
AcDbLine
10
1.5875
20
0
30
0
11
143.10437
21
0
31
0
39
0
210
0
220
0
230
1
0
LINE
5
161
100
AcDbEntity
8
2
62
256
6
ByLayer
370
13
48
1
60
0
100
AcDbLine
10
139.92937
20
-8.75
30
0
11
139.92937
21
17.756983
31
0
39
0
210
0
220
0
230
1
0
LINE
5
162
100
AcDbEntity
8
2
62
256
6
ByLayer
370
13
48
1
60
0
100
AcDbLine
10
139.92937
20
0.559525
30
0
11
139.511373
21
3.734523
31
0
39
0
210
0
220
0
230
1
0
LINE
5
163
100
AcDbEntity
8
2
62
256
6
ByLayer
370
13
48
1
60
0
100
AcDbLine
10
139.92937
20
0.559525
30
0
11
140.347367
21
3.734526
31
0
39
0
210
0
220
0
230
1
0
LINE
5
164
100
AcDbEntity
8
2
62
256
6
ByLayer
370
13
48
1
60
0
100
AcDbLine
10
139.511373
20
3.734523
30
0
11
140.347367
21
3.734526
31
0
39
0
210
0
220
0
230
1
0
LINE
5
165
100
AcDbEntity
8
2
62
256
6
ByLayer
370
13
48
1
60
0
100
AcDbLine
10
139.92937
20
0
30
0
11
140.347367
21
-3.174998
31
0
39
0
210
0
220
0
230
1
0
LINE
5
166
100
AcDbEntity
8
2
62
256
6
ByLayer
370
13
48
1
60
0
100
AcDbLine
10
139.92937
20
0
30
0
11
139.511373
21
-3.175002
31
0
39
0
210
0
220
0
230
1
0
LINE
5
167
100
AcDbEntity
8
2
62
256
6
ByLayer
370
13
48
1
60
0
100
AcDbLine
10
140.347367
20
-3.174998
30
0
11
139.511373
21
-3.175002
31
0
39
0
210
0
220
0
230
1
0
ENDBLK
5
169
100
AcDbEntity
8
0
100
AcDbBlockEnd
0
BLOCK
5
16C
100
AcDbEntity
8
0
100
AcDbBlockBegin
2
_CLOSED
70
0
10
0
20
0
30
0
3
_CLOSED
0
LINE
5
16E
100
AcDbEntity
8
0
62
256
6
ByLayer
370
-2
48
1
60
0
100
AcDbLine
10
-1
20
0.166667
30
0
11
0
21
0
31
0
39
0
210
0
220
0
230
1
0
LINE
5
16F
100
AcDbEntity
8
0
62
256
6
ByLayer
370
-2
48
1
60
0
100
AcDbLine
10
0
20
0
30
0
11
-1
21
-0.166667
31
0
39
0
210
0
220
0
230
1
0
LINE
5
170
100
AcDbEntity
8
0
62
256
6
ByLayer
370
-2
48
1
60
0
100
AcDbLine
10
-1
20
0.166667
30
0
11
-1
21
-0.166667
31
0
39
0
210
0
220
0
230
1
0
LINE
5
171
100
AcDbEntity
8
0
62
256
6
ByLayer
370
-2
48
1
60
0
100
AcDbLine
10
0
20
0
30
0
11
-1
21
0
31
0
39
0
210
0
220
0
230
1
0
ENDBLK
5
16D
100
AcDbEntity
8
0
100
AcDbBlockEnd
0
BLOCK
5
17D
100
AcDbEntity
8
0
100
AcDbBlockBegin
2
DimnDraft3D2
70
0
10
0
20
0
30
0
3
DimnDraft3D2
0
MTEXT
5
173
100
AcDbEntity
8
2
62
256
6
ByLayer
370
18
48
1
60
0
100
AcDbMText
10
62.982895
20
-42.381442
30
0
210
0
220
0
230
1
1
\W0.6044;130
40
3.5
41
0
44
1.084337
50
0
71
7
72
5
7
iso_b_vert
0
LINE
5
174
100
AcDbEntity
8
2
62
256
6
ByLayer
370
13
48
1
60
0
100
AcDbLine
10
0
20
-1.5875
30
0
11
0
21
-46.431442
31
0
39
0
210
0
220
0
230
1
0
LINE
5
175
100
AcDbEntity
8
2
62
256
6
ByLayer
370
13
48
1
60
0
100
AcDbLine
10
130
20
-1.027975
30
0
11
130
21
-46.431442
31
0
39
0
210
0
220
0
230
1
0
LINE
5
176
100
AcDbEntity
8
2
62
256
6
ByLayer
370
13
48
1
60
0
100
AcDbLine
10
0
20
-43.256442
30
0
11
130
21
-43.256442
31
0
39
0
210
0
220
0
230
1
0
LINE
5
177
100
AcDbEntity
8
2
62
256
6
ByLayer
370
13
48
1
60
0
100
AcDbLine
10
0
20
-43.256442
30
0
11
3.174998
21
-42.838445
31
0
39
0
210
0
220
0
230
1
0
LINE
5
178
100
AcDbEntity
8
2
62
256
6
ByLayer
370
13
48
1
60
0
100
AcDbLine
10
0
20
-43.256442
30
0
11
3.175002
21
-43.674438
31
0
39
0
210
0
220
0
230
1
0
LINE
5
179
100
AcDbEntity
8
2
62
256
6
ByLayer
370
13
48
1
60
0
100
AcDbLine
10
3.174998
20
-42.838445
30
0
11
3.175002
21
-43.674438
31
0
39
0
210
0
220
0
230
1
0
LINE
5
17A
100
AcDbEntity
8
2
62
256
6
ByLayer
370
13
48
1
60
0
100
AcDbLine
10
130
20
-43.256442
30
0
11
126.825002
21
-43.674438
31
0
39
0
210
0
220
0
230
1
0
LINE
5
17B
100
AcDbEntity
8
2
62
256
6
ByLayer
370
13
48
1
60
0
100
AcDbLine
10
130
20
-43.256442
30
0
11
126.824998
21
-42.838445
31
0
39
0
210
0
220
0
230
1
0
LINE
5
17C
100
AcDbEntity
8
2
62
256
6
ByLayer
370
13
48
1
60
0
100
AcDbLine
10
126.825002
20
-43.674438
30
0
11
126.824998
21
-42.838445
31
0
39
0
210
0
220
0
230
1
0
ENDBLK
5
17E
100
AcDbEntity
8
0
100
AcDbBlockEnd
0
BLOCK
5
18B
100
AcDbEntity
8
0
100
AcDbBlockBegin
2
DimnDraft3D3
70
0
10
0
20
0
30
0
3
DimnDraft3D3
0
MTEXT
5
181
100
AcDbEntity
8
2
62
256
6
ByLayer
370
18
48
1
60
0
100
AcDbMText
10
82.600433
20
16.281185
30
0
210
0
220
0
230
1
1
\W0.8896;42%%d
40
3.5
41
0
44
1.084337
50
68.8195878163057
71
7
72
5
7
iso_b_vert
0
LINE
5
182
100
AcDbEntity
8
2
62
256
6
ByLayer
370
13
48
1
60
0
100
AcDbLine
10
119.8559
20
9.809649
30
0
11
91.444882
21
35.716873
31
0
39
0
210
0
220
0
230
1
0
LINE
5
183
100
AcDbEntity
8
2
62
256
6
ByLayer
370
13
48
1
60
0
100
AcDbLine
10
128.4125
20
0.559525
30
0
11
77.822071
21
0.559525
31
0
39
0
210
0
220
0
230
1
0
ARC
5
184
100
AcDbEntity
8
2
62
256
6
ByLayer
370
13
48
1
60
0
100
AcDbCircle
39
0
10
130
20
0.559525
30
0
40
49.0029290751545
210
0
220
0
230
1
100
AcDbArc
50
137.639176
51
180
0
LINE
5
185
100
AcDbEntity
8
2
62
256
6
ByLayer
370
13
48
1
60
0
100
AcDbLine
10
93.790941
20
33.577567
30
0
11
92.003287
21
30.92057
31
0
39
0
210
0
220
0
230
1
0
LINE
5
186
100
AcDbEntity
8
2
62
256
6
ByLayer
370
13
48
1
60
0
100
AcDbLine
10
93.790941
20
33.577567
30
0
11
91.376516
21
31.473782
31
0
39
0
210
0
220
0
230
1
0
LINE
5
187
100
AcDbEntity
8
2
62
256
6
ByLayer
370
13
48
1
60
0
100
AcDbLine
10
92.003287
20
30.92057
30
0
11
91.376516
21
31.473782
31
0
39
0
210
0
220
0
230
1
0
LINE
5
188
100
AcDbEntity
8
2
62
256
6
ByLayer
370
13
48
1
60
0
100
AcDbLine
10
80.997071
20
0.559525
30
0
11
80.630537
21
3.740875
31
0
39
0
210
0
220
0
230
1
0
LINE
5
189
100
AcDbEntity
8
2
62
256
6
ByLayer
370
13
48
1
60
0
100
AcDbLine
10
80.997071
20
0.559525
30
0
11
81.466421
21
3.727342
31
0
39
0
210
0
220
0
230
1
0
LINE
5
18A
100
AcDbEntity
8
2
62
256
6
ByLayer
370
13
48
1
60
0
100
AcDbLine
10
80.630537
20
3.740875
30
0
11
81.466421
21
3.727342
31
0
39
0
210
0
220
0
230
1
0
ENDBLK
5
18C
100
AcDbEntity
8
0
100
AcDbBlockEnd
0
BLOCK
5
19B
100
AcDbEntity
8
0
100
AcDbBlockBegin
2
DimnDraft3D4
70
0
10
0
20
0
30
0
3
DimnDraft3D4
0
MTEXT
5
18F
100
AcDbEntity
8
SK2
62
256
6
ByLayer
370
18
48
1
60
0
100
AcDbMText
10
-54.965887
20
4.080263
30
0
210
0
220
0
230
1
1
\W0.6563;63
40
3.5
41
0
44
1.084337
50
90
71
7
72
5
7
iso_b_vert
0
MTEXT
5
191
100
AcDbEntity
8
SK2
62
256
6
ByLayer
370
18
48
1
60
0
100
AcDbMText
10
-54.965887
20
-4.642393
30
0
210
0
220
0
230
1
1
%%c
40
3.5
41
0
44
1.084337
50
90
71
7
72
5
7
iso_b_vert
0
LINE
5
192
100
AcDbEntity
8
SK2
62
256
6
ByLayer
370
13
48
1
60
0
100
AcDbLine
10
-1.2875
20
31.5
30
0
11
-56.390887
21
31.5
31
0
39
0
210
0
220
0
230
1
0
LINE
5
193
100
AcDbEntity
8
SK2
62
256
6
ByLayer
370
13
48
1
60
0
100
AcDbLine
10
-1.2875
20
-31.5
30
0
11
-56.390887
21
-31.5
31
0
39
0
210
0
220
0
230
1
0
LINE
5
194
100
AcDbEntity
8
SK2
62
256
6
ByLayer
370
13
48
1
60
0
100
AcDbLine
10
-53.215887
20
31.5
30
0
11
-53.215887
21
-31.5
31
0
39
0
210
0
220
0
230
1
0
LINE
5
195
100
AcDbEntity
8
SK2
62
256
6
ByLayer
370
13
48
1
60
0
100
AcDbLine
10
-53.215887
20
31.5
30
0
11
-52.79789
21
28.325002
31
0
39
0
210
0
220
0
230
1
0
LINE
5
196
100
AcDbEntity
8
SK2
62
256
6
ByLayer
370
13
48
1
60
0
100
AcDbLine
10
-53.215887
20
31.5
30
0
11
-53.633883
21
28.324998
31
0
39
0
210
0
220
0
230
1
0
LINE
5
197
100
AcDbEntity
8
SK2
62
256
6
ByLayer
370
13
48
1
60
0
100
AcDbLine
10
-52.79789
20
28.325002
30
0
11
-53.633883
21
28.324998
31
0
39
0
210
0
220
0
230
1
0
LINE
5
198
100
AcDbEntity
8
SK2
62
256
6
ByLayer
370
13
48
1
60
0
100
AcDbLine
10
-53.215887
20
-31.5
30
0
11
-53.633883
21
-28.325002
31
0
39
0
210
0
220
0
230
1
0
LINE
5
199
100
AcDbEntity
8
SK2
62
256
6
ByLayer
370
13
48
1
60
0
100
AcDbLine
10
-53.215887
20
-31.5
30
0
11
-52.79789
21
-28.324998
31
0
39
0
210
0
220
0
230
1
0
LINE
5
19A
100
AcDbEntity
8
SK2
62
256
6
ByLayer
370
13
48
1
60
0
100
AcDbLine
10
-53.633883
20
-28.325002
30
0
11
-52.79789
21
-28.324998
31
0
39
0
210
0
220
0
230
1
0
ENDBLK
5
19C
100
AcDbEntity
8
0
100
AcDbBlockEnd
0
ENDSEC
0
SECTION
2
ENTITIES
0
ARC
5
D6
100
AcDbEntity
8
SK1
62
256
6
ByLayer
370
18
48
1
60
0
100
AcDbCircle
39
0
10
-0.6
20
23.45
30
0
40
1
210
0
220
0
230
1
100
AcDbArc
50
293.578178
51
306.870857
0
ARC
5
D7
100
AcDbEntity
8
SK1
62
256
6
ByLayer
370
18
48
1
60
0
100
AcDbCircle
39
0
10
-0.6
20
-23.45
30
0
40
1
210
0
220
0
230
1
100
AcDbArc
50
53.129143
51
66.421822
0
ELLIPSE
5
D8
100
AcDbEntity
8
1
62
256
6
ByLayer
370
18
48
1
60
0
100
AcDbEllipse
10
95.690842
20
4.908781
30
0
11
0.542903571312103
21
-1.39830458493726
31
0
210
0
220
0
230
-1
40
0.800104
41
0
42
6.28318530717959
0
ELLIPSE
5
D9
100
AcDbEntity
8
1
62
256
6
ByLayer
370
18
48
1
60
0
100
AcDbEllipse
10
117.656663
20
-2.136529
30
0
11
-0.298202584828831
21
-1.15306383969033
31
0
210
0
220
0
230
-1
40
0.984808
41
-0.479965544298428
42
1.211593319599E-14
0
ELLIPSE
5
DA
100
AcDbEntity
8
1
62
256
6
ByLayer
370
18
48
1
60
0
100
AcDbEllipse
10
120.240084
20
7.852819
30
0
11
-0.298202584828831
21
-1.15306383969033
31
0
210
0
220
0
230
-1
40
0.984808
41
-3.14159265358978
42
-2.66162710929133
0
ELLIPSE
5
DB
100
AcDbEntity
8
1
62
256
6
ByLayer
370
18
48
1
60
0
100
AcDbEllipse
10
129.217547
20
0.202356
30
0
11
0.198739128218207
21
0.768467189550125
31
0
210
0
220
0
230
-1
40
0.984808
41
0.479965544298453
42
2.66162710929138
0
ELLIPSE
5
DC
100
AcDbEntity
8
1
62
256
6
ByLayer
370
18
48
1
60
0
100
AcDbEllipse
10
116.677209
20
3.445508
30
0
11
0.64598041046044
21
2.49782091217552
31
0
210
0
220
0
230
-1
40
0.984808
41
0.218710875543215
42
0.852134621334936
0
ELLIPSE
5
DD
100
AcDbEntity
8
1
62
256
6
ByLayer
370
18
48
1
60
0
100
AcDbEllipse
10
116.677209
20
3.445508
30
0
11
0.64598041046044
21
2.49782091217552
31
0
210
0
220
0
230
-1
40
0.984808
41
2.47398164927715
42
2.92293479467852
0
ELLIPSE
5
DE
100
AcDbEntity
8
1
62
256
6
ByLayer
370
18
48
1
60
0
100
AcDbEllipse
10
117.744753
20
3.169422
30
0
11
0.64598041046044
21
2.49782091217552
31
0
210
0
220
0
230
-1
40
0.984808
41
0
42
6.28318530717959
0
ELLIPSE
5
DF
100
AcDbEntity
8
1
62
256
6
ByLayer
370
18
48
1
60
0
100
AcDbEllipse
10
111.304909
20
-1.836941
30
0
11
1.91861915101231
21
0.564712806095974
31
0
210
0
220
0
230
-1
40
0.090185
41
-2.284759789746
42
-1.72035325153248
0
ELLIPSE
5
E0
100
AcDbEntity
8
1
62
256
6
ByLayer
370
18
48
1
60
0
100
AcDbEllipse
10
110.980006
20
-0.733079
30
0
11
1.91861915101231
21
0.564712806095974
31
0
210
0
220
0
230
-1
40
0.090185
41
-2.30093458147915
42
-1.72035325153247
0
ELLIPSE
5
E1
100
AcDbEntity
8
1
62
256
6
ByLayer
370
18
48
1
60
0
100
AcDbEllipse
10
106.7709
20
2.067595
30
0
11
-0.235691068396109
21
1.98606387618281
31
0
210
0
220
0
230
-1
40
0.162144
41
-3.07856401036597
42
-2.00009795557421
0
ELLIPSE
5
E2
100
AcDbEntity
8
1
62
256
6
ByLayer
370
18
48
1
60
0
100
AcDbEllipse
10
107.200779
20
-1.901459
30
0
11
-0.500760008108868
21
-1.93629528075622
31
0
210
0
220
0
230
-1
40
0.984808
41
2.77554547552136
42
-3.14158973232939
0
ELLIPSE
5
E3
100
AcDbEntity
8
1
62
256
6
ByLayer
370
18
48
1
60
0
100
AcDbEllipse
10
106.545213
20
4.151349
30
0
11
1.02655801662318
21
3.96940532555025
31
0
210
0
220
0
230
-1
40
0.984808
41
2.77554547552134
42
3.00178264885691
0
ELLIPSE
5
E4
100
AcDbEntity
8
1
62
256
6
ByLayer
370
18
48
1
60
0
100
AcDbEllipse
10
106.864544
20
-1.814503
30
0
11
1.00152001621774
21
3.87259056151244
31
0
210
0
220
0
230
-1
40
0.984808
41
0.230560506894927
42
1.02470378020488
0
ELLIPSE
5
E5
100
AcDbEntity
8
1
62
256
6
ByLayer
370
18
48
1
60
0
100
AcDbEllipse
10
107.189448
20
-2.918366
30
0
11
1.00152001621774
21
3.87259056151244
31
0
210
0
220
0
230
-1
40
0.984808
41
1.02470378020488
42
1.61442955809476
0
ELLIPSE
5
E6
100
AcDbEntity
8
1
62
256
6
ByLayer
370
18
48
1
60
0
100
AcDbEllipse
10
102.153396
20
0.587092
30
0
11
5.75125824413523
21
-23.1008101958334
31
0
210
0
220
0
230
1
40
0.150835
41
2.56210449002573
42
2.73257098905728
0
ELLIPSE
5
E7
100
AcDbEntity
8
1
62
256
6
ByLayer
370
18
48
1
60
0
100
AcDbEllipse
10
26.347154
20
0
30
0
11
14.7536831606565
21
-31.0932549155813
31
0
210
0
220
0
230
1
40
0.341999
41
-2.98378646694436
42
-2.05035306783698
0
ELLIPSE
5
E8
100
AcDbEntity
8
1
62
256
6
ByLayer
370
18
48
1
60
0
100
AcDbEllipse
10
-2.347154
20
0
30
0
11
14.7536831606583
21
31.0932549155837
31
0
210
0
220
0
230
1
40
0.341999
41
-1.09123958575276
42
-0.15780618664542
0
ELLIPSE
5
E9
100
AcDbEntity
8
1
62
256
6
ByLayer
370
18
48
1
60
0
100
AcDbEllipse
10
26.347154
20
0
30
0
11
14.7536831606553
21
31.09325491558
31
0
210
0
220
0
230
1
40
0.341999
41
2.05035306783694
42
2.98378646694436
0
ELLIPSE
5
EA
100
AcDbEntity
8
1
62
256
6
ByLayer
370
18
48
1
60
0
100
AcDbEllipse
10
-2.347154
20
0
30
0
11
14.7536831606564
21
-31.0932549155813
31
0
210
0
220
0
230
1
40
0.341999
41
0.157806186645434
42
1.09123958575282
0
ELLIPSE
5
EB
100
AcDbEntity
8
1
62
256
6
ByLayer
370
18
48
1
60
0
100
AcDbEllipse
10
104.037632
20
3.94307
30
0
11
-0.655790093692099
21
-2.5357521427842
31
0
210
0
220
0
230
-1
40
0.984808
41
-0.479965544298434
42
-0.427000390477651
0
ELLIPSE
5
EC
100
AcDbEntity
8
1
62
256
6
ByLayer
370
18
48
1
60
0
100
AcDbEllipse
10
104.012121
20
3.949667
30
0
11
0.61823563539228
21
2.39053982710445
31
0
210
0
220
0
230
-1
40
0.984808
41
2.66162710929135
42
2.73604348255695
0
ELLIPSE
5
ED
100
AcDbEntity
8
1
62
256
6
ByLayer
370
18
48
1
60
0
100
AcDbEllipse
10
108.56173
20
2.205878
30
0
11
0.178136802190335
21
0.0410247113766704
31
0
210
0
220
0
230
1
40
0.056663
41
1.69089796406011
42
-3.0098554879735
0
ELLIPSE
5
EE
100
AcDbEntity
8
1
62
256
6
ByLayer
370
18
48
1
60
0
100
AcDbEllipse
10
104.576016
20
1.541578
30
0
11
0.0346624079883668
21
-0.14594011604918
31
0
210
0
220
0
230
-1
40
0.154028
41
0.0696040140973085
42
1.65203586923907
0
ELLIPSE
5
EF
100
AcDbEntity
8
1
62
256
6
ByLayer
370
18
48
1
60
0
100
AcDbEllipse
10
126.668567
20
2.417081
30
0
11
23.2281242670058
21
-20.5189908019459
31
0
210
0
220
0
230
1
40
0.052886
41
2.82794743063259
42
3.06756479239199
0
ELLIPSE
5
F0
100
AcDbEntity
8
1
62
256
6
ByLayer
370
18
48
1
60
0
100
AcDbEllipse
10
73.50768
20
-12.172035
30
0
11
116.822433023147
21
26.0331951543263
31
0
210
0
220
0
230
1
40
0.015466
41
-1.8068908301417
42
-1.44894571526323
0
ELLIPSE
5
F1
100
AcDbEntity
8
1
62
256
6
ByLayer
370
18
48
1
60
0
100
AcDbEllipse
10
105.668207
20
12.676584
30
0
11
-0.876330014190516
21
-3.38851674132339
31
0
210
0
220
0
230
-1
40
0.984808
41
1.19962645751994
42
0.971954150529432
0
ELLIPSE
5
F2
100
AcDbEntity
8
1
62
256
6
ByLayer
370
18
48
1
60
0
100
AcDbEllipse
10
9.580366
20
-0.886782
30
0
11
192.315869574728
21
1.47329514231215
31
0
210
0
220
0
230
1
40
0.134604
41
1.05114227637204
42
1.08115471932099
0
ELLIPSE
5
F3
100
AcDbEntity
8
1
62
256
6
ByLayer
370
18
48
1
60
0
100
AcDbEllipse
10
113.506993
20
6.193629
30
0
11
0.650988010541528
21
2.51718386498309
31
0
210
0
220
0
230
-1
40
0.984808
41
-0.479965544298432
42
-0.138627772099005
0
ELLIPSE
5
F4
100
AcDbEntity
8
1
62
256
6
ByLayer
370
18
48
1
60
0
100
AcDbEllipse
10
110.486122
20
5.476138
30
0
11
0.650988010541528
21
2.51718386498309
31
0
210
0
220
0
230
-1
40
0.984808
41
-0.821303316497814
42
-0.47996554429842
0
ELLIPSE
5
F5
100
AcDbEntity
8
1
62
256
6
ByLayer
370
18
48
1
60
0
100
AcDbEllipse
10
105.490465
20
4.32541
30
0
11
-0.604681933798283
21
-2.33813155166659
31
0
210
0
220
0
230
-1
40
0.984808
41
2.03265171468705
42
2.66162710929136
0
ELLIPSE
5
F6
100
AcDbEntity
8
1
62
256
6
ByLayer
370
18
48
1
60
0
100
AcDbEllipse
10
96.557063
20
-6.105441
30
0
11
0.718715641894961
21
1.48524335584964
31
0
210
0
220
0
230
-1
40
0.783633
41
0
42
6.28318530717959
0
ELLIPSE
5
F7
100
AcDbEntity
8
1
62
256
6
ByLayer
370
18
48
1
60
0
100
AcDbEllipse
10
95.746762
20
4.930492
30
0
11
-0.597193928443337
21
1.53813504343098
31
0
210
0
220
0
230
-1
40
0.800104
41
0
42
6.28318530717959
0
ELLIPSE
5
F8
100
AcDbEntity
8
1
62
256
6
ByLayer
370
18
48
1
60
0
100
AcDbEllipse
10
119.390441
20
-1.078491
30
0
11
30.9683166366191
21
10.7955280080301
31
0
210
0
220
0
230
1
40
0.584968
41
2.62638864644417
42
3.08334586113738
0
ELLIPSE
5
F9
100
AcDbEntity
8
1
62
256
6
ByLayer
370
18
48
1
60
0
100
AcDbEllipse
10
108.121107
20
-2.139473
30
0
11
0.72500768437712
21
1.86701455235762
31
0
210
0
220
0
230
1
40
0.890493
41
-0.920124604631274
42
-0.660620550122683
0
ELLIPSE
5
FA
100
AcDbEntity
8
1
62
256
6
ByLayer
370
18
48
1
60
0
100
AcDbEllipse
10
108.369619
20
-3.223579
30
0
11
0.725007683858115
21
1.86701455238044
31
0
210
0
220
0
230
1
40
0.890493
41
-2.55704793397032
42
-0.920124604883812
0
ELLIPSE
5
FB
100
AcDbEntity
8
1
62
256
6
ByLayer
370
18
48
1
60
0
100
AcDbEllipse
10
107.323401
20
3.950096
30
0
11
0.474105604369197
21
-4.12749335927671
31
0
210
0
220
0
230
1
40
0.893046
41
-1.41688537822218
42
0.0349521038709833
0
ELLIPSE
5
FC
100
AcDbEntity
8
1
62
256
6
ByLayer
370
18
48
1
60
0
100
AcDbEllipse
10
118.744758
20
0.868063
30
0
11
31.2145485791259
21
-9.08893113671456
31
0
210
0
220
0
230
1
40
0.611642
41
2.40929508078532
42
-2.58282137599646
0
ELLIPSE
5
FD
100
AcDbEntity
8
1
62
256
6
ByLayer
370
18
48
1
60
0
100
AcDbEllipse
10
108.219989
20
-2.165045
30
0
11
0.231271026520638
21
-2.01341139476956
31
0
210
0
220
0
230
1
40
0.893046
41
2.04529785371143
42
-3.10664054971839
0
ELLIPSE
5
FE
100
AcDbEntity
8
1
62
256
6
ByLayer
370
18
48
1
60
0
100
AcDbEllipse
10
105.026238
20
12.842608
30
0
11
0.389340906304646
21
1.50546958078796
31
0
210
0
220
0
230
-1
40
0.984808
41
0.210464340875087
42
1.32140984953533
0
ELLIPSE
5
FF
100
AcDbEntity
8
1
62
256
6
ByLayer
370
18
48
1
60
0
100
AcDbEllipse
10
105.026238
20
12.842608
30
0
11
0.389340906304646
21
1.50546958078796
31
0
210
0
220
0
230
-1
40
0.984808
41
1.32140984953533
42
2.86687710053988
0
ELLIPSE
5
100
100
AcDbEntity
8
1
62
256
6
ByLayer
370
18
48
1
60
0
100
AcDbEllipse
10
105.194356
20
12.79913
30
0
11
-0.389340906304644
21
-1.50546958078796
31
0
210
0
220
0
230
-1
40
0.984808
41
-0.415516474372825
42
-0.24336511458264
0
ELLIPSE
5
101
100
AcDbEntity
8
1
62
256
6
ByLayer
370
18
48
1
60
0
100
AcDbEllipse
10
115.710536
20
3.695507
30
0
11
-0.694804511251052
21
-2.68660970204926
31
0
210
0
220
0
230
-1
40
0.984808
41
-2.64929301566349
42
-2.45749849723044
0
ELLIPSE
5
102
100
AcDbEntity
8
1
62
256
6
ByLayer
370
18
48
1
60
0
100
AcDbEllipse
10
115.710536
20
3.695507
30
0
11
-0.694804511251052
21
-2.68660970204926
31
0
210
0
220
0
230
-1
40
0.984808
41
-0.656718259614724
42
-0.492262218744948
0
ELLIPSE
5
103
100
AcDbEntity
8
1
62
256
6
ByLayer
370
18
48
1
60
0
100
AcDbEllipse
10
117.756515
20
3.687358
30
0
11
0.650988010541528
21
2.51718386498309
31
0
210
0
220
0
230
-1
40
0.984808
41
2.54955900127776
42
-1.94318958974741
0
ELLIPSE
5
104
100
AcDbEntity
8
1
62
256
6
ByLayer
370
18
48
1
60
0
100
AcDbEllipse
10
117.085739
20
2.818878
30
0
11
0.650988010541528
21
2.51718386498309
31
0
210
0
220
0
230
-1
40
0.984808
41
-0.562218628915819
42
1.4123384007494
0
ELLIPSE
5
105
100
AcDbEntity
8
1
62
256
6
ByLayer
370
18
48
1
60
0
100
AcDbEllipse
10
116.882306
20
3.913444
30
0
11
-0.650988010541527
21
-2.51718386498309
31
0
210
0
220
0
230
-1
40
0.984808
41
3.35840680337787E-06
42
0.211290196764502
0
ELLIPSE
5
106
100
AcDbEntity
8
1
62
256
6
ByLayer
370
18
48
1
60
0
100
AcDbEllipse
10
116.710702
20
3.292692
30
0
11
0.588393009527922
21
2.27514695488856
31
0
210
0
220
0
230
-1
40
0.984808
41
-0.135698171449036
42
-9.45849924476533E-06
0
ELLIPSE
5
107
100
AcDbEntity
8
1
62
256
6
ByLayer
370
18
48
1
60
0
100
AcDbEllipse
10
115.403722
20
3.774854
30
0
11
0.713583011555138
21
2.75922077507761
31
0
210
0
220
0
230
-1
40
0.984808
41
2.49818051205527
42
2.57642786174169
0
ELLIPSE
5
108
100
AcDbEntity
8
1
62
256
6
ByLayer
370
18
48
1
60
0
100
AcDbEllipse
10
115.403722
20
3.774854
30
0
11
0.713583011555138
21
2.75922077507761
31
0
210
0
220
0
230
-1
40
0.984808
41
0.565148393943176
42
0.675812583651757
0
ELLIPSE
5
109
100
AcDbEntity
8
1
62
256
6
ByLayer
370
18
48
1
60
0
100
AcDbEllipse
10
115.403722
20
3.774854
30
0
11
0.742747122906999
21
2.87199002634295
31
0
210
0
220
0
230
-1
40
0.984808
41
2.37587507454481
42
2.45992715255468
0
ELLIPSE
5
10A
100
AcDbEntity
8
1
62
256
6
ByLayer
370
18
48
1
60
0
100
AcDbEllipse
10
115.403722
20
3.774854
30
0
11
0.742747122906999
21
2.87199002634295
31
0
210
0
220
0
230
-1
40
0.984808
41
0.681670383852011
42
0.743974753872111
0
ELLIPSE
5
10B
100
AcDbEntity
8
1
62
256
6
ByLayer
370
18
48
1
60
0
100
AcDbEllipse
10
117.471562
20
3.240074
30
0
11
-0.513279008311589
21
-1.98470266277513
31
0
210
0
220
0
230
-1
40
0.984808
41
-1.51620385293899
42
-0.805084052213468
0
ELLIPSE
5
10C
100
AcDbEntity
8
1
62
256
6
ByLayer
370
18
48
1
60
0
100
AcDbEllipse
10
117.136174
20
2.805834
30
0
11
-0.575874009325197
21
-2.22673957286965
31
0
210
0
220
0
230
-1
40
0.984808
41
2.56260320230825
42
-1.7422984538709
0
ELLIPSE
5
10D
100
AcDbEntity
8
1
62
256
6
ByLayer
370
18
48
1
60
0
100
AcDbEllipse
10
117.80695
20
3.674314
30
0
11
-0.575874009325197
21
-2.22673957286965
31
0
210
0
220
0
230
-1
40
0.984808
41
-0.578989451281551
42
1.39929419971889
0
ELLIPSE
5
10E
100
AcDbEntity
8
1
62
256
6
ByLayer
370
18
48
1
60
0
100
AcDbEllipse
10
117.471562
20
3.240074
30
0
11
-0.513279008311589
21
-1.98470266277513
31
0
210
0
220
0
230
-1
40
0.984808
41
1.62538880065081
42
2.33650860137633
0
ELLIPSE
5
10F
100
AcDbEntity
8
1
62
256
6
ByLayer
370
18
48
1
60
0
100
AcDbEllipse
10
117.421127
20
3.253118
30
0
11
0.588393009527922
21
2.27514695488856
31
0
210
0
220
0
230
-1
40
0.984808
41
1.61085571086519
42
2.35104169116196
0
ELLIPSE
5
110
100
AcDbEntity
8
1
62
256
6
ByLayer
370
18
48
1
60
0
100
AcDbEllipse
10
105.830679
20
12.634566
30
0
11
-0.389340906304644
21
-1.50546958078796
31
0
210
0
220
0
230
-1
40
0.984808
41
-0.858573879583026
42
-0.415516474372822
0
ELLIPSE
5
111
100
AcDbEntity
8
1
62
256
6
ByLayer
370
18
48
1
60
0
100
AcDbEllipse
10
105.830679
20
12.634566
30
0
11
-0.389340906304644
21
-1.50546958078796
31
0
210
0
220
0
230
-1
40
0.984808
41
0.18862367161355
42
0.631681076823779
0
ELLIPSE
5
112
100
AcDbEntity
8
1
62
256
6
ByLayer
370
18
48
1
60
0
100
AcDbEllipse
10
105.830679
20
12.634566
30
0
11
-0.389340906304644
21
-1.50546958078796
31
0
210
0
220
0
230
-1
40
0.984808
41
1.23582122281018
42
1.67887862802038
0
ELLIPSE
5
113
100
AcDbEntity
8
1
62
256
6
ByLayer
370
18
48
1
60
0
100
AcDbEllipse
10
105.830679
20
12.634566
30
0
11
-0.389340906304644
21
-1.50546958078796
31
0
210
0
220
0
230
-1
40
0.984808
41
2.2830187740068
42
2.72607617921697
0
ELLIPSE
5
114
100
AcDbEntity
8
1
62
256
6
ByLayer
370
18
48
1
60
0
100
AcDbEllipse
10
105.830679
20
12.634566
30
0
11
-0.389340906304644
21
-1.50546958078796
31
0
210
0
220
0
230
-1
40
0.984808
41
-2.95296898197619
42
-2.50991157676603
0
ELLIPSE
5
115
100
AcDbEntity
8
1
62
256
6
ByLayer
370
18
48
1
60
0
100
AcDbEllipse
10
105.830679
20
12.634566
30
0
11
-0.389340906304644
21
-1.50546958078796
31
0
210
0
220
0
230
-1
40
0.984808
41
-1.9057714307796
42
-1.46271402556943
0
ELLIPSE
5
116
100
AcDbEntity
8
1
62
256
6
ByLayer
370
18
48
1
60
0
100
AcDbEllipse
10
105.866824
20
12.625218
30
0
11
0.482580147272286
21
1.86599897479597
31
0
210
0
220
0
230
-1
40
0.984808
41
0
42
6.28318530717959
0
ELLIPSE
5
117
100
AcDbEntity
8
1
62
256
6
ByLayer
370
18
48
1
60
0
100
AcDbEllipse
10
105.866824
20
12.625218
30
0
11
0.809979313116095
21
3.13195761662318
31
0
210
0
220
0
230
-1
40
0.984808
41
0
42
6.28318530717959
0
ELLIPSE
5
118
100
AcDbEntity
8
1
62
256
6
ByLayer
370
18
48
1
60
0
100
AcDbEllipse
10
105.738214
20
12.658479
30
0
11
1.00152001621774
21
3.87259056151244
31
0
210
0
220
0
230
-1
40
0.984808
41
0
42
6.28318530717959
0
ELLIPSE
5
119
100
AcDbEntity
8
1
62
256
6
ByLayer
370
18
48
1
60
0
100
AcDbEllipse
10
105.194356
20
12.79913
30
0
11
-0.389340906304644
21
-1.50546958078796
31
0
210
0
220
0
230
-1
40
0.984808
41
-2.50991157676601
42
-1.9057714307796
0
ELLIPSE
5
11A
100
AcDbEntity
8
1
62
256
6
ByLayer
370
18
48
1
60
0
100
AcDbEllipse
10
105.194356
20
12.79913
30
0
11
-0.389340906304644
21
-1.50546958078796
31
0
210
0
220
0
230
-1
40
0.984808
41
-1.46271402556942
42
-0.858573879583013
0
ELLIPSE
5
11B
100
AcDbEntity
8
1
62
256
6
ByLayer
370
18
48
1
60
0
100
AcDbEllipse
10
96.501144
20
-6.078381
30
0
11
-0.65337785626815
21
-1.35022123259058
31
0
210
0
220
0
230
-1
40
0.783633
41
0
42
6.28318530717959
0
POINT
5
6C
100
AcDbEntity
8
80
62
256
6
ByLayer
370
18
48
1
60
0
100
AcDbPoint
10
0
20
0
30
0
39
0
210
0
220
0
230
1
50
360
0
POINT
5
6E
100
AcDbEntity
8
81
62
256
6
ByLayer
370
18
48
1
60
0
100
AcDbPoint
10
130
20
0.559525
30
0
39
0
210
0
220
0
230
1
50
360
0
SPLINE
5
11C
100
AcDbEntity
8
SK1
62
256
6
ByLayer
370
18
48
1
60
0
100
AcDbSpline
70
4
71
2
72
6
73
3
40
0
40
0
40
0
40
1
40
1
40
1
41
1
10
-36.5
20
21.1521177089669
30
0
41
1
10
-19.34999999997
20
21.5828554470541
30
0
41
1
10
-2.19999999999999
20
22.013592895159
30
0
0
SPLINE
5
11D
100
AcDbEntity
8
SK1
62
256
6
ByLayer
370
18
48
1
60
0
100
AcDbSpline
70
4
71
2
72
6
73
3
40
0
40
0
40
0
40
1
40
1
40
1
41
1
10
-38.0000000000001
20
20.2894052255532
30
0
41
1
10
-37.2500000000013
20
20.7223540793634
30
0
41
1
10
-36.5
20
21.1553029418639
30
0
0
SPLINE
5
11E
100
AcDbEntity
8
SK1
62
256
6
ByLayer
370
18
48
1
60
0
100
AcDbSpline
70
4
71
3
72
13
73
9
40
0
40
0
40
0
40
0
40
0.239456135763553
40
0.368359721933451
40
0.499998984020925
40
0.631638415283571
40
0.760542467778033
40
1
40
1
40
1
40
1
41
1
10
-2.19999999999993
20
22.0200986606755
30
0
41
1
10
-2.19909198642267
20
21.9940411845603
30
0
41
1
10
-2.19103284106939
20
21.9566686002238
30
0
41
1
10
-2.16563592203335
20
21.9104494263859
30
0
41
1
10
-2.1388637867926
20
21.8791678725253
30
0
41
1
10
-2.10627712749866
20
21.854000502323
30
0
41
1
10
-2.05884064234073
20
21.8309566998545
30
0
41
1
10
-2.02111030873019
20
21.8247844448325
30
0
41
1
10
-1.99503997793923
20
21.825186084775
30
0
0
SPLINE
5
11F
100
AcDbEntity
8
SK1
62
256
6
ByLayer
370
18
48
1
60
0
100
AcDbSpline
70
4
71
2
72
6
73
3
40
0
40
0
40
0
40
1
40
1
40
1
41
1
10
-0.394976888875249
20
21.8653849865467
30
0
41
1
10
-0.265172990617032
20
21.8689012906761
30
0
41
1
10
-0.240502439654279
20
21.9465691723769
30
0
0
SPLINE
5
120
100
AcDbEntity
8
SK1
62
256
6
ByLayer
370
18
48
1
60
0
100
AcDbSpline
70
4
71
2
72
6
73
3
40
0
40
0
40
0
40
1
40
1
40
1
41
1
10
-0.394976888875164
20
-21.8653802062992
30
0
41
1
10
-1.1950084334072
20
-21.8452807593863
30
0
41
1
10
-1.99503997793923
20
-21.825181312478
30
0
0
SPLINE
5
121
100
AcDbEntity
8
SK1
62
256
6
ByLayer
370
18
48
1
60
0
100
AcDbSpline
70
4
71
2
72
6
73
3
40
0
40
0
40
0
40
1
40
1
40
1
41
1
10
-0.239684768755779
20
-21.9481214799356
30
0
41
1
10
-0.264174311740447
20
-21.8692639605624
30
0
41
1
10
-0.394976888875164
20
-21.865385003355
30
0
0
SPLINE
5
122
100
AcDbEntity
8
SK1
62
256
6
ByLayer
370
18
48
1
60
0
100
AcDbSpline
70
4
71
2
72
6
73
3
40
0
40
0
40
0
40
1
40
1
40
1
41
1
10
-36.5
20
-21.155302724897
30
0
41
1
10
-37.2500000000012
20
-20.7223538609616
30
0
41
1
10
-37.9999999999999
20
-20.2894050057151
30
0
0
SPLINE
5
123
100
AcDbEntity
8
SK1
62
256
6
ByLayer
370
18
48
1
60
0
100
AcDbSpline
70
4
71
2
72
6
73
3
40
0
40
0
40
0
40
1
40
1
40
1
41
1
10
-1.99503997793923
20
21.8251812553754
30
0
41
1
10
-1.19500843340722
20
21.8452807024746
30
0
41
1
10
-0.394976888875249
20
21.8653801495793
30
0
0
SPLINE
5
124
100
AcDbEntity
8
SK1
62
256
6
ByLayer
370
18
48
1
60
0
100
AcDbSpline
70
4
71
3
72
13
73
9
40
0
40
0
40
0
40
0
40
0.239457532153098
40
0.368361584623296
40
0.500001015876304
40
0.631640277971351
40
0.760543864164413
40
1
40
1
40
1
40
1
41
1
10
-1.99503997793923
20
-21.8251861015555
30
0
41
1
10
-2.02111030873161
20
-21.8247844616135
30
0
41
1
10
-2.0588406423434
20
-21.8309567166393
30
0
41
1
10
-2.10627712750076
20
-21.854000519123
30
0
41
1
10
-2.13886378679456
20
-21.8791678893422
30
0
41
1
10
-2.16563592203485
20
-21.9104494432231
30
0
41
1
10
-2.19103284107055
20
-21.9566686170919
30
0
41
1
10
-2.19909198642384
20
-21.9940412014509
30
0
41
1
10
-2.19999999999996
20
-22.0200986775813
30
0
0
SPLINE
5
125
100
AcDbEntity
8
SK1
62
256
6
ByLayer
370
18
48
1
60
0
100
AcDbSpline
70
4
71
2
72
6
73
3
40
0
40
0
40
0
40
1
40
1
40
1
41
1
10
-2.20000000000002
20
-22.0135927638551
30
0
41
1
10
-19.3499999999869
20
-21.5828539542124
30
0
41
1
10
-36.5
20
-21.1521149580209
30
0
0
SPLINE
5
126
100
AcDbEntity
8
1
62
256
6
ByLayer
370
18
48
1
60
0
100
AcDbSpline
70
4
71
3
72
46
73
42
40
0
40
0
40
0
40
0
40
0.0185834441430803
40
0.0185834441430803
40
0.0502420427191101
40
0.0502420427191101
40
0.11355923987117
40
0.11355923987117
40
0.176876437023229
40
0.176876437023229
40
0.240193634175289
40
0.240193634175289
40
0.271852232751319
40
0.271852232751319
40
0.303510831327349
40
0.303510831327349
40
0.366828028479408
40
0.366828028479408
40
0.430145225631468
40
0.430145225631468
40
0.461803824207498
40
0.461803824207498
40
0.493462422783528
40
0.493462422783528
40
0.620096817087647
40
0.620096817087647
40
0.683414014239707
40
0.683414014239707
40
0.699243313527721
40
0.699243313527721
40
0.715072612815736
40
0.715072612815736
40
0.746731211391765
40
0.746731211391765
40
0.873365605695882
40
0.873365605695882
40
0.936682802847941
40
0.936682802847941
40
0.968341401423971
40
0.968341401423971
40
1
40
1
40
1
40
1
41
1
10
23.240313405051
20
-31.370327618003
30
0
41
1
10
23.2896040358814
20
-31.3650690286384
30
0
41
1
10
23.3408818233634
20
-31.3573182265452
30
0
41
1
10
23.4849326762527
20
-31.3296401374951
30
0
41
1
10
23.5815629121562
20
-31.3049342033524
30
0
41
1
10
23.8861933038869
20
-31.2103379215237
30
0
41
1
10
24.1097254035525
20
-31.1198795953958
30
0
41
1
10
24.5982660646578
20
-30.8880124069994
30
0
41
1
10
24.8632820415437
20
-30.7465890097995
30
0
41
1
10
25.4373834617389
20
-30.4157044815895
30
0
41
1
10
25.7464678067241
20
-30.2262325107299
30
0
41
1
10
26.2465046567146
20
-29.9077953911463
30
0
41
1
10
26.4185155675425
20
-29.7964181013619
30
0
41
1
10
26.7720270887068
20
-29.5648330230983
30
0
41
1
10
26.9537485920021
20
-29.4444845356236
30
0
41
1
10
27.5142602042175
20
-29.0708225264811
30
0
41
1
10
27.908368467471
20
-28.8048981122043
30
0
41
1
10
28.7405845071149
20
-28.2447657062522
30
0
41
1
10
29.1786927366497
20
-27.9505478199519
30
0
41
1
10
29.8718993455074
20
-27.4919544979573
30
0
41
1
10
30.1089827555451
20
-27.3362127028319
30
0
41
1
10
30.5957751497467
20
-27.0196506538703
30
0
41
1
10
30.8456116381764
20
-26.8587616825529
30
0
41
1
10
32.1146349032525
20
-26.0517407985961
30
0
41
1
10
33.2029200198905
20
-25.3916903060353
30
0
41
1
10
34.954808209224
20
-24.4174073291657
30
0
41
1
10
35.5587168092944
20
-24.0952350327653
30
0
41
1
10
36.3398980943903
20
-23.699504033919
30
0
41
1
10
36.4974502185243
20
-23.6207070878366
30
0
41
1
10
36.8152249766841
20
-23.463905982118
30
0
41
1
10
36.9755711021009
20
-23.3858448001662
30
0
41
1
10
37.4584268841093
20
-23.1540591424958
30
0
41
1
10
37.7833978756548
20
-23.0024089187118
30
0
41
1
10
39.4236124573534
20
-22.259831149667
30
0
41
1
10
40.7847559316522
20
-21.7160380434146
30
0
41
1
10
42.9023332153705
20
-20.9986796071482
30
0
41
1
10
43.6208697459962
20
-20.7759234496751
30
0
41
1
10
44.7184031044289
20
-20.4692162049905
30
0
41
1
10
45.0872659912614
20
-20.3716472071138
30
0
41
1
10
45.8276731482326
20
-20.1870733760478
30
0
41
1
10
46.1996872437083
20
-20.0999341848129
30
0
41
1
10
46.5735338041997
20
-20.0180835893794
30
0
0
SPLINE
5
127
100
AcDbEntity
8
1
62
256
6
ByLayer
370
18
48
1
60
0
100
AcDbSpline
70
4
71
2
72
6
73
3
40
0
40
0
40
0
40
1
40
1
40
1
41
1
10
117.505340991243
20
5.50081170188093
30
0
41
1
10
117.419191610601
20
5.54434099639633
30
0
41
1
10
117.320713426401
20
5.55135064102632
30
0
0
SPLINE
5
128
100
AcDbEntity
8
1
62
256
6
ByLayer
370
18
48
1
60
0
100
AcDbSpline
70
4
71
3
72
14
73
10
40
0
40
0
40
0
40
0
40
0.357995889307296
40
0.357995889307296
40
0.536993833960944
40
0.536993833960944
40
0.715991778614592
40
0.715991778614592
40
1
40
1
40
1
40
1
41
1
10
110.955889286216
20
-4.07265228631348
30
0
41
1
10
110.789357429718
20
-4.11220546270712
30
0
41
1
10
110.62838828264
20
-4.151832153915
30
0
41
1
10
110.394007750993
20
-4.21136566750829
30
0
41
1
10
110.317069210298
20
-4.23122587623701
30
0
41
1
10
110.165438075718
20
-4.27097597533879
30
0
41
1
10
110.09049041312
20
-4.29093529524945
30
0
41
1
10
109.901032919645
20
-4.3421570983204
30
0
41
1
10
109.78963197563
20
-4.37302166251629
30
0
41
1
10
109.682393120464
20
-4.40340629565287
30
0
0
SPLINE
5
129
100
AcDbEntity
8
1
62
256
6
ByLayer
370
18
48
1
60
0
100
AcDbSpline
70
4
71
3
72
26
73
22
40
0
40
0
40
0
40
0
40
0.125000000000001
40
0.125000000000001
40
0.250000000000003
40
0.250000000000003
40
0.375000000000004
40
0.375000000000004
40
0.500000000000006
40
0.500000000000006
40
0.56250000000001
40
0.56250000000001
40
0.625000000000014
40
0.625000000000014
40
0.750000000000012
40
0.750000000000012
40
0.812500000000006
40
0.812500000000006
40
0.875
40
0.875
40
1
40
1
40
1
40
1
41
1
10
98.2623436832007
20
22.1273354415359
30
0
41
1
10
98.2312755480159
20
22.1748727099939
30
0
41
1
10
98.2129281902189
20
22.2205262938468
30
0
41
1
10
98.2027069792938
20
22.3078828820575
30
0
41
1
10
98.2112376111734
20
22.3498050916255
30
0
41
1
10
98.2559895153496
20
22.4260552700998
30
0
41
1
10
98.2920292407531
20
22.4608858419158
30
0
41
1
10
98.3930032315841
20
22.5236773097399
30
0
41
1
10
98.4560889957003
20
22.5505252099254
30
0
41
1
10
98.5688377106414
20
22.58470392694
30
0
41
1
10
98.6094635234278
20
22.5950737629231
30
0
41
1
10
98.6969472147462
20
22.613803492523
30
0
41
1
10
98.7435241054057
20
22.622084415533
30
0
41
1
10
98.8889903988065
20
22.6435005719939
30
0
41
1
10
98.9944795199683
20
22.6534485139454
30
0
41
1
10
99.1650776799938
20
22.6625553378607
30
0
41
1
10
99.2243711450488
20
22.6646137950664
30
0
41
1
10
99.344800763957
20
22.6667677492671
30
0
41
1
10
99.406043667647
20
22.666882369237
30
0
41
1
10
99.5927249296996
20
22.6645507254369
30
0
41
1
10
99.721089439117
20
22.6594587013944
30
0
41
1
10
99.8533629699715
20
22.650988137793
30
0
0
SPLINE
5
12A
100
AcDbEntity
8
1
62
256
6
ByLayer
370
18
48
1
60
0
100
AcDbSpline
70
4
71
3
72
10
73
6
40
0
40
0
40
0
40
0
40
0.5
40
0.5
40
1
40
1
40
1
40
1
41
1
10
108.711094790499
20
1.73021891028998
30
0
41
1
10
108.344817042865
20
1.64322385321276
30
0
41
1
10
107.990872234122
20
1.55582159165579
30
0
41
1
10
107.2868665665
20
1.38088882970126
30
0
41
1
10
106.936410832658
20
1.2933713671413
30
0
41
1
10
106.576196399821
20
1.20617611374678
30
0
0
SPLINE
5
12B
100
AcDbEntity
8
1
62
256
6
ByLayer
370
18
48
1
60
0
100
AcDbSpline
70
4
71
3
72
8
73
4
40
0
40
0
40
0
40
0
40
1
40
1
40
1
40
1
41
1
10
106.576196399821
20
1.20617611374681
30
0
41
1
10
106.4277148373
20
1.17023394628151
30
0
41
1
10
106.281537993659
20
1.13437624117463
30
0
41
1
10
106.138131662161
20
1.09862006861974
30
0
0
SPLINE
5
12C
100
AcDbEntity
8
1
62
256
6
ByLayer
370
18
48
1
60
0
100
AcDbSpline
70
4
71
3
72
14
73
10
40
0
40
0
40
0
40
0
40
0.340918572627742
40
0.340918572627742
40
0.511377858941626
40
0.511377858941626
40
0.68183714525551
40
0.68183714525551
40
1
40
1
40
1
40
1
41
1
10
106.138131662161
20
1.09862006861974
30
0
41
1
10
105.964467154298
20
1.05531948317903
30
0
41
1
10
105.789587863026
20
1.03257483053466
30
0
41
1
10
105.525146449256
20
1.02824493982524
30
0
41
1
10
105.43664227198
20
1.03181256410491
30
0
41
1
10
105.258821029994
20
1.04937299817789
30
0
41
1
10
105.170686358358
20
1.06327789153269
30
0
41
1
10
104.922168432182
20
1.11712552101508
30
0
41
1
10
104.76449538584
20
1.16910717785899
30
0
41
1
10
104.610934687828
20
1.23869774512084
30
0
0
SPLINE
5
12D
100
AcDbEntity
8
1
62
256
6
ByLayer
370
18
48
1
60
0
100
AcDbSpline
70
4
71
3
72
14
73
10
40
0
40
0
40
0
40
0
40
0.097098095605707
40
0.097098095605707
40
0.548549047802862
40
0.548549047802862
40
0.774274523901431
40
0.774274523901431
40
1
40
1
40
1
40
1
41
1
10
103.217741430995
20
4.93892681153113
30
0
41
1
10
103.225760708513
20
4.973206521387
30
0
41
1
10
103.234495833783
20
5.00723555365502
30
0
41
1
10
103.287773283546
20
5.19744805119316
30
0
41
1
10
103.346745945189
20
5.34795391278684
30
0
41
1
10
103.460608399641
20
5.56515565104613
30
0
41
1
10
103.503099631315
20
5.63641960692706
30
0
41
1
10
103.595202290426
20
5.77260888344114
30
0
41
1
10
103.64496554952
20
5.83791201102892
30
0
41
1
10
103.698558349716
20
5.90040872484917
30
0
0
SPLINE
5
12E
100
AcDbEntity
8
1
62
256
6
ByLayer
370
18
48
1
60
0
100
AcDbSpline
70
4
71
3
72
8
73
4
40
0
40
0
40
0
40
0
40
1
40
1
40
1
40
1
41
1
10
102.41787565335
20
11.4793650819876
30
0
41
1
10
102.329358981722
20
11.730667348561
30
0
41
1
10
102.270461566037
20
11.9881885213171
30
0
41
1
10
102.240559177836
20
12.2517975362543
30
0
0
SPLINE
5
12F
100
AcDbEntity
8
1
62
256
6
ByLayer
370
18
48
1
60
0
100
AcDbSpline
70
4
71
3
72
16
73
12
40
0
40
0
40
0
40
0
40
0.25
40
0.25
40
0.5
40
0.5
40
0.75
40
0.75
40
0.875
40
0.875
40
1
40
1
40
1
40
1
41
1
10
10.1056624327026
20
29.9139548464691
30
0
41
1
10
10.1212498345488
20
29.9327542695085
30
0
41
1
10
10.1399018475136
20
29.9510098933135
30
0
41
1
10
10.185486409689
20
29.9862144781928
30
0
41
1
10
10.2124982207835
20
30.0032856662985
30
0
41
1
10
10.2791799968771
20
30.0350501233766
30
0
41
1
10
10.3189381439131
20
30.0498069467437
30
0
41
1
10
10.3915918423742
20
30.0668840803112
30
0
41
1
10
10.4185844965197
20
30.0718038277879
30
0
41
1
10
10.4761894743047
20
30.0786461490401
30
0
41
1
10
10.5072412025891
20
30.080592760317
30
0
41
1
10
10.5386751345948
20
30.080592760317
30
0
0
SPLINE
5
130
100
AcDbEntity
8
1
62
256
6
ByLayer
370
18
48
1
60
0
100
AcDbSpline
70
4
71
3
72
16
73
12
40
0
40
0
40
0
40
0
40
0.124999999999997
40
0.124999999999997
40
0.249999999999994
40
0.249999999999994
40
0.499999999999996
40
0.499999999999996
40
0.749999999999998
40
0.749999999999998
40
1
40
1
40
1
40
1
41
1
10
10.5386751345948
20
9.34922131452518
30
0
41
1
10
10.5071959726827
20
9.34922131452518
30
0
41
1
10
10.4765695733598
20
9.35536120669468
30
0
41
1
10
10.4184736929998
20
9.37748487924978
30
0
41
1
10
10.3920418953325
20
9.39290424748319
30
0
41
1
10
10.318236731126
20
9.44829073160861
30
0
41
1
10
10.2791703657593
20
9.49467220053421
30
0
41
1
10
10.2125137122669
20
9.59453680346911
30
0
41
1
10
10.1857347330744
20
9.64728479257946
30
0
41
1
10
10.1400559187761
20
9.75611455014888
30
0
41
1
10
10.1212556944725
20
9.81241059371433
30
0
41
1
10
10.1056624327025
20
9.86941261896627
30
0
0
SPLINE
5
131
100
AcDbEntity
8
1
62
256
6
ByLayer
370
18
48
1
60
0
100
AcDbSpline
70
4
71
3
72
16
73
12
40
0
40
0
40
0
40
0
40
0.124999999999997
40
0.124999999999997
40
0.249999999999995
40
0.249999999999995
40
0.499999999999997
40
0.499999999999997
40
0.749999999999998
40
0.749999999999998
40
1
40
1
40
1
40
1
41
1
10
13.4613248654053
20
30.0805927603169
30
0
41
1
10
13.4928040273174
20
30.0805927603169
30
0
41
1
10
13.5234304266402
20
30.078685990659
30
0
41
1
10
13.5815263070002
20
30.0717959485601
30
0
41
1
10
13.6079581046676
20
30.0669872793661
30
0
41
1
10
13.6817632688741
20
30.0496472407049
30
0
41
1
10
13.7208296342406
20
30.0350452819075
30
0
41
1
10
13.7874862877331
20
30.0032932993814
30
0
41
1
10
13.8142652669256
20
29.9863830332716
30
0
41
1
10
13.8599440812239
20
29.9511519005795
30
0
41
1
10
13.8787443055274
20
29.9327613369588
30
0
41
1
10
13.8943375672975
20
29.9139548464691
30
0
0
SPLINE
5
132
100
AcDbEntity
8
1
62
256
6
ByLayer
370
18
48
1
60
0
100
AcDbSpline
70
4
71
3
72
16
73
12
40
0
40
0
40
0
40
0
40
0.249999999999999
40
0.249999999999999
40
0.499999999999997
40
0.499999999999997
40
0.749999999999996
40
0.749999999999996
40
0.874999999999998
40
0.874999999999998
40
1
40
1
40
1
40
1
41
1
10
13.8943375672975
20
9.86941261896624
30
0
41
1
10
13.8787501654514
20
9.81243201498808
30
0
41
1
10
13.8600981524864
20
9.75655023082979
30
0
41
1
10
13.814513590311
20
9.64780841973399
30
0
41
1
10
13.7875017792165
20
9.59456078532617
30
0
41
1
10
13.7208200031229
20
9.49465699870635
30
0
41
1
10
13.6810618560868
20
9.4477803973522
30
0
41
1
10
13.6084081576258
20
9.39323398486471
30
0
41
1
10
13.5814155034803
20
9.37745951316356
30
0
41
1
10
13.5238105256953
20
9.35548920253865
30
0
41
1
10
13.492758797411
20
9.34922131452504
30
0
41
1
10
13.4613248654053
20
9.34922131452504
30
0
0
SPLINE
5
133
100
AcDbEntity
8
1
62
256
6
ByLayer
370
18
48
1
60
0
100
AcDbSpline
70
4
71
3
72
16
73
12
40
0
40
0
40
0
40
0
40
0.250000000000001
40
0.250000000000001
40
0.500000000000003
40
0.500000000000003
40
0.750000000000004
40
0.750000000000004
40
0.875000000000002
40
0.875000000000002
40
1
40
1
40
1
40
1
41
1
10
10.1056624327027
20
-9.86941261896618
30
0
41
1
10
10.1212498345489
20
-9.81243201498802
30
0
41
1
10
10.1399018475136
20
-9.75655023082967
30
0
41
1
10
10.185486409689
20
-9.64780841973391
30
0
41
1
10
10.2124982207835
20
-9.59456078532605
30
0
41
1
10
10.2791799968771
20
-9.49465699870626
30
0
41
1
10
10.3189381439132
20
-9.44778039735206
30
0
41
1
10
10.3915918423742
20
-9.39323398486457
30
0
41
1
10
10.4185844965197
20
-9.37745951316342
30
0
41
1
10
10.4761894743047
20
-9.35548920253851
30
0
41
1
10
10.5072412025892
20
-9.34922131452501
30
0
41
1
10
10.5386751345949
20
-9.34922131452501
30
0
0
SPLINE
5
134
100
AcDbEntity
8
1
62
256
6
ByLayer
370
18
48
1
60
0
100
AcDbSpline
70
4
71
3
72
16
73
12
40
0
40
0
40
0
40
0
40
0.125000000000002
40
0.125000000000002
40
0.250000000000003
40
0.250000000000003
40
0.500000000000002
40
0.500000000000002
40
0.750000000000001
40
0.750000000000001
40
1
40
1
40
1
40
1
41
1
10
10.5386751345948
20
-30.0805927603169
30
0
41
1
10
10.5071959726827
20
-30.0805927603169
30
0
41
1
10
10.4765695733597
20
-30.078685990659
30
0
41
1
10
10.4184736929998
20
-30.0717959485601
30
0
41
1
10
10.3920418953324
20
-30.0669872793661
30
0
41
1
10
10.3182367311259
20
-30.049647240705
30
0
41
1
10
10.2791703657593
20
-30.0350452819075
30
0
41
1
10
10.2125137122669
20
-30.0032932993814
30
0
41
1
10
10.1857347330744
20
-29.9863830332716
30
0
41
1
10
10.1400559187762
20
-29.9511519005795
30
0
41
1
10
10.1212556944726
20
-29.9327613369587
30
0
41
1
10
10.1056624327025
20
-29.9139548464691
30
0
0
SPLINE
5
135
100
AcDbEntity
8
1
62
256
6
ByLayer
370
18
48
1
60
0
100
AcDbSpline
70
4
71
3
72
16
73
12
40
0
40
0
40
0
40
0
40
0.124999999999999
40
0.124999999999999
40
0.249999999999998
40
0.249999999999998
40
0.499999999999999
40
0.499999999999999
40
0.749999999999999
40
0.749999999999999
40
1
40
1
40
1
40
1
41
1
10
13.4613248654052
20
-9.34922131452504
30
0
41
1
10
13.4928040273173
20
-9.34922131452504
30
0
41
1
10
13.5234304266402
20
-9.35536120669451
30
0
41
1
10
13.5815263070002
20
-9.37748487924961
30
0
41
1
10
13.6079581046676
20
-9.39290424748305
30
0
41
1
10
13.6817632688741
20
-9.44829073160844
30
0
41
1
10
13.7208296342407
20
-9.49467220053404
30
0
41
1
10
13.7874862877332
20
-9.59453680346897
30
0
41
1
10
13.8142652669256
20
-9.64728479257931
30
0
41
1
10
13.8599440812239
20
-9.75611455014877
30
0
41
1
10
13.8787443055275
20
-9.81241059371425
30
0
41
1
10
13.8943375672976
20
-9.86941261896618
30
0
0
SPLINE
5
136
100
AcDbEntity
8
1
62
256
6
ByLayer
370
18
48
1
60
0
100
AcDbSpline
70
4
71
3
72
16
73
12
40
0
40
0
40
0
40
0
40
0.25
40
0.25
40
0.500000000000001
40
0.500000000000001
40
0.750000000000001
40
0.750000000000001
40
0.875
40
0.875
40
1
40
1
40
1
40
1
41
1
10
13.8943375672974
20
-29.9139548464691
30
0
41
1
10
13.8787501654512
20
-29.9327542695084
30
0
41
1
10
13.8600981524864
20
-29.9510098933136
30
0
41
1
10
13.8145135903111
20
-29.9862144781928
30
0
41
1
10
13.7875017792166
20
-30.0032856662985
30
0
41
1
10
13.720820003123
20
-30.0350501233767
30
0
41
1
10
13.6810618560869
20
-30.0498069467438
30
0
41
1
10
13.6084081576259
20
-30.0668840803113
30
0
41
1
10
13.5814155034803
20
-30.0718038277879
30
0
41
1
10
13.5238105256953
20
-30.0786461490401
30
0
41
1
10
13.4927587974109
20
-30.0805927603169
30
0
41
1
10
13.4613248654052
20
-30.0805927603169
30
0
0
SPLINE
5
137
100
AcDbEntity
8
SK1
62
256
6
ByLayer
370
18
48
1
60
0
100
AcDbSpline
70
4
71
3
72
26
73
22
40
0
40
0
40
0
40
0
40
0.249999999999998
40
0.249999999999998
40
0.499999999999995
40
0.499999999999995
40
0.624999999999994
40
0.624999999999994
40
0.749999999999993
40
0.749999999999993
40
0.812499999999994
40
0.812499999999994
40
0.874999999999996
40
0.874999999999996
40
0.906249999999997
40
0.906249999999997
40
0.937499999999998
40
0.937499999999998
40
0.968749999999999
40
0.968749999999999
40
1
40
1
40
1
40
1
41
1
10
-0.199999999999875
20
7.05951749342083
30
0
41
1
10
-0.199999999999846
20
6.99088366827036
30
0
41
1
10
-0.201319609066758
20
6.92203745653026
30
0
41
1
10
-0.207680242986641
20
6.78384770613772
30
0
41
1
10
-0.212644818423229
20
6.71441370073745
30
0
41
1
10
-0.22503236228772
20
6.610101532507
30
0
41
1
10
-0.229988536108891
20
6.57535167439425
30
0
41
1
10
-0.242605757740392
20
6.50597096289755
30
0
41
1
10
-0.250188173910743
20
6.47131022305024
30
0
41
1
10
-0.265534367861704
20
6.4203844584319
30
0
41
1
10
-0.271315983615779
20
6.40356588205816
30
0
41
1
10
-0.285411407521451
20
6.3705422119088
30
0
41
1
10
-0.293612475506336
20
6.3542515820991
30
0
41
1
10
-0.31007005883302
20
6.33235891704217
30
0
41
1
10
-0.31618897533005
20
6.32559855176623
30
0
41
1
10
-0.330728129253032
20
6.31447788013514
30
0
41
1
10
-0.339136190980326
20
6.31039609843538
30
0
41
1
10
-0.35657676985852
20
6.30785340244566
30
0
41
1
10
-0.365590532907419
20
6.30947164062374
30
0
41
1
10
-0.381451989855066
20
6.31627189389675
30
0
41
1
10
-0.388510166360987
20
6.32124816508076
30
0
41
1
10
-0.394976888875135
20
6.3269427939276
30
0
0
SPLINE
5
138
100
AcDbEntity
8
SK1
62
256
6
ByLayer
370
18
48
1
60
0
100
AcDbSpline
70
4
71
3
72
24
73
20
40
0
40
0
40
0
40
0
40
0.0312499999999998
40
0.0312499999999998
40
0.0624999999999995
40
0.0624999999999995
40
0.0937499999999993
40
0.0937499999999993
40
0.124999999999999
40
0.124999999999999
40
0.187499999999999
40
0.187499999999999
40
0.249999999999998
40
0.249999999999998
40
0.374999999999998
40
0.374999999999998
40
0.499999999999997
40
0.499999999999997
40
1
40
1
40
1
40
1
41
1
10
-0.394976888875164
20
-6.326943090669
30
0
41
1
10
-0.388478791141125
20
-6.32122083099981
30
0
41
1
10
-0.381313154819424
20
-6.31618565872654
30
0
41
1
10
-0.365409710573488
20
-6.30942196278457
30
0
41
1
10
-0.356491145072226
20
-6.30782589043298
30
0
41
1
10
-0.338830866580054
20
-6.3104820906216
30
0
41
1
10
-0.330289930609837
20
-6.31473882346546
30
0
41
1
10
-0.315858342049921
20
-6.32593033296192
30
0
41
1
10
-0.309649778597276
20
-6.33285276949908
30
0
41
1
10
-0.293313689377129
20
-6.35478748070284
30
0
41
1
10
-0.285093867610641
20
-6.37118996774473
30
0
41
1
10
-0.271027300228298
20
-6.40434328922578
30
0
41
1
10
-0.265260102162813
20
-6.42121101452716
30
0
41
1
10
-0.249955006097849
20
-6.47225869816401
30
0
41
1
10
-0.242396853957047
20
-6.50696236445447
30
0
41
1
10
-0.229806665913173
20
-6.57651474417153
30
0
41
1
10
-0.224881575141922
20
-6.61123172400912
30
0
41
1
10
-0.204383593087584
20
-6.78454973877436
30
0
41
1
10
-0.200000000000926
20
-6.9223621995971
30
0
41
1
10
-0.200000000001012
20
-7.0595175677766
30
0
0
SPLINE
5
139
100
AcDbEntity
8
SK1
62
256
6
ByLayer
370
18
48
1
60
0
100
AcDbSpline
70
4
71
3
72
26
73
22
40
0
40
0
40
0
40
0
40
0.0736279591272568
40
0.0736279591272568
40
0.382418639418166
40
0.382418639418166
40
0.536813979563618
40
0.536813979563618
40
0.69120931970907
40
0.69120931970907
40
0.768406989781796
40
0.768406989781796
40
0.845604659854522
40
0.845604659854522
40
0.884203494890891
40
0.884203494890891
40
0.922802329927261
40
0.922802329927261
40
0.96140116496363
40
0.96140116496363
40
1
40
1
40
1
40
1
41
1
10
-0.202535031380762
20
15.1243468703722
30
0
41
1
10
-0.203089107021498
20
15.1369360256734
30
0
41
1
10
-0.203741634655159
20
15.1494796737955
30
0
41
1
10
-0.207680267771082
20
15.2143830751919
30
0
41
1
10
-0.212644841081954
20
15.2660391881829
30
0
41
1
10
-0.225032336672427
20
15.3414869978605
30
0
41
1
10
-0.229988485962565
20
15.3662600665109
30
0
41
1
10
-0.242605658750875
20
15.4147306992988
30
0
41
1
10
-0.250188056390044
20
15.438466432159
30
0
41
1
10
-0.2655342276027
20
15.472084667711
30
0
41
1
10
-0.271315834839953
20
15.4829743691408
30
0
41
1
10
-0.285411237973904
20
15.5036274164852
30
0
41
1
10
-0.293612288825841
20
15.5134758562618
30
0
41
1
10
-0.310069853946828
20
15.5253980561464
30
0
41
1
10
-0.316188773335853
20
15.5288295247053
30
0
41
1
10
-0.330727926760773
20
15.5334346400594
30
0
41
1
10
-0.339136001660108
20
15.5344122270489
30
0
41
1
10
-0.3565766312949
20
15.5322271466639
30
0
41
1
10
-0.365590436400396
20
15.529014497566
30
0
41
1
10
-0.381451950061404
20
15.5205628921507
30
0
41
1
10
-0.388510150706764
20
15.5154206823633
30
0
41
1
10
-0.394976888875249
20
15.5099036651465
30
0
0
SPLINE
5
13A
100
AcDbEntity
8
SK1
62
256
6
ByLayer
370
18
48
1
60
0
100
AcDbSpline
70
4
71
3
72
24
73
20
40
0
40
0
40
0
40
0
40
0.037765162474413
40
0.037765162474413
40
0.075530324948826
40
0.075530324948826
40
0.113295487423239
40
0.113295487423239
40
0.151060649897652
40
0.151060649897652
40
0.226590974846478
40
0.226590974846478
40
0.302121299795304
40
0.302121299795304
40
0.453181949692951
40
0.453181949692951
40
0.604242599590599
40
0.604242599590599
40
1
40
1
40
1
40
1
41
1
10
-0.394976888875192
20
-15.5099028385327
30
0
41
1
10
-0.388478811430133
20
-15.5154465966088
30
0
41
1
10
-0.38131319794789
20
-15.5206551237536
30
0
41
1
10
-0.365409798023393
20
-15.529090435829
30
0
41
1
10
-0.356491254351681
20
-15.5322656409385
30
0
41
1
10
-0.338831001226822
20
-15.5344203916636
30
0
41
1
10
-0.330290069828322
20
-15.5333485631438
30
0
41
1
10
-0.31585849049182
20
-15.5286677527594
30
0
41
1
10
-0.309649931246156
20
-15.5251404851522
30
0
41
1
10
-0.293313856442723
20
-15.5131587840239
30
0
41
1
10
-0.285094041731725
20
-15.5032329662422
30
0
41
1
10
-0.271027483138937
20
-15.4824767568067
30
0
41
1
10
-0.265260283859448
20
-15.4715464847355
30
0
41
1
10
-0.249955175901391
20
-15.4378251188926
30
0
41
1
10
-0.24239701150492
20
-15.4140488430453
30
0
41
1
10
-0.2298068137315
20
-15.3654376115021
30
0
41
1
10
-0.224881717057599
20
-15.3406775532986
30
0
41
1
10
-0.210041729797695
20
-15.2498956875275
30
0
41
1
10
-0.204455407066263
20
-15.1821313421312
30
0
41
1
10
-0.201879084505237
20
-15.1129133998318
30
0
0
SPLINE
5
13B
100
AcDbEntity
8
SK1
62
256
6
ByLayer
370
18
48
1
60
0
100
AcDbSpline
70
4
71
3
72
26
73
22
40
0
40
0
40
0
40
0
40
0.125
40
0.125
40
0.25
40
0.25
40
0.3125
40
0.3125
40
0.375
40
0.375
40
0.5
40
0.5
40
0.625
40
0.625
40
0.6875
40
0.6875
40
0.75
40
0.75
40
0.875
40
0.875
40
1
40
1
40
1
40
1
41
1
10
-1.30710678118655
20
-4.81101329740281
30
0
41
1
10
-1.37461329628556
20
-4.42906267002709
30
0
41
1
10
-1.43842288357251
20
-4.04270825974376
30
0
41
1
10
-1.55482767545834
20
-3.25964078646072
30
0
41
1
10
-1.60743482920452
20
-2.86293463703905
30
0
41
1
10
-1.67407835953023
20
-2.25842147165616
30
0
41
1
10
-1.6942347086227
20
-2.05533443764037
30
0
41
1
10
-1.72965556309049
20
-1.64563836285328
30
0
41
1
10
-1.74484710329557
20
-1.43963199934174
30
0
41
1
10
-1.78162975563029
20
-0.822757523243126
30
0
41
1
10
-1.79445291889309
20
-0.411207816053775
30
0
41
1
10
-1.79442593338328
20
0.41252563124786
30
0
41
1
10
-1.78157312882857
20
0.824709416072068
30
0
41
1
10
-1.74458984279457
20
1.44343920897924
30
0
41
1
10
-1.72930597743911
20
1.65005948504404
30
0
41
1
10
-1.69390777409217
20
2.05873054114881
30
0
41
1
10
-1.6737721654803
20
2.26136839295072
30
0
41
1
10
-1.60720273884692
20
2.86469699044164
30
0
41
1
10
-1.55465955887385
20
3.26082920006922
30
0
41
1
10
-1.43835988164517
20
4.04307426593766
30
0
41
1
10
-1.37459233181619
20
4.42918087958253
30
0
41
1
10
-1.30710678118658
20
4.81101321788435
30
0
0
SPLINE
5
13C
100
AcDbEntity
8
SK1
62
256
6
ByLayer
370
18
48
1
60
0
100
AcDbSpline
70
4
71
3
72
26
73
22
40
0
40
0
40
0
40
0
40
0.25
40
0.25
40
0.500000000000001
40
0.500000000000001
40
0.625000000000001
40
0.625000000000001
40
0.687500000000001
40
0.687500000000001
40
0.750000000000001
40
0.750000000000001
40
0.812500000000001
40
0.812500000000001
40
0.875000000000001
40
0.875000000000001
40
0.90625
40
0.90625
40
0.9375
40
0.9375
40
1
40
1
40
1
40
1
41
1
10
-1.30710678118655
20
-4.81101329740281
30
0
41
1
10
-1.27777674809065
20
-4.97696208805661
30
0
41
1
10
-1.24449184372196
20
-5.14110933888213
30
0
41
1
10
-1.16572403812273
20
-5.46520409815247
30
0
41
1
10
-1.12041986952306
20
-5.62560509654313
30
0
41
1
10
-1.03604034231231
20
-5.85871268051355
30
0
41
1
10
-1.00514324915804
20
-5.93523451486098
30
0
41
1
10
-0.951595196520344
20
-6.0472637337171
30
0
41
1
10
-0.932528346395259
20
-6.08414226541717
30
0
41
1
10
-0.890792591053298
20
-6.1565891448071
30
0
41
1
10
-0.868002365537848
20
-6.19240090738063
30
0
41
1
10
-0.817160575690451
20
-6.26079505981264
30
0
41
1
10
-0.789433163823418
20
-6.29319778625543
30
0
41
1
10
-0.72496917920958
20
-6.35113158829381
30
0
41
1
10
-0.687361729545501
20
-6.37733024516976
30
0
41
1
10
-0.622158748113833
20
-6.39958064489667
30
0
41
1
10
-0.599752058371251
20
-6.40383193252981
30
0
41
1
10
-0.553302263741074
20
-6.40463597982031
30
0
41
1
10
-0.53055075827055
20
-6.40110290558195
30
0
41
1
10
-0.464963827942796
20
-6.38073633145453
30
0
41
1
10
-0.427743955231961
20
-6.35579794481978
30
0
41
1
10
-0.394976888874822
20
-6.32694309068145
30
0
0
SPLINE
5
13D
100
AcDbEntity
8
SK1
62
256
6
ByLayer
370
18
48
1
60
0
100
AcDbSpline
70
4
71
3
72
30
73
26
40
0
40
0
40
0
40
0
40
0.0312500000000008
40
0.0312500000000008
40
0.0625000000000015
40
0.0625000000000015
40
0.0937500000000025
40
0.0937500000000025
40
0.125000000000003
40
0.125000000000003
40
0.156250000000004
40
0.156250000000004
40
0.187500000000005
40
0.187500000000005
40
0.250000000000005
40
0.250000000000005
40
0.312500000000005
40
0.312500000000005
40
0.375000000000004
40
0.375000000000004
40
0.500000000000003
40
0.500000000000003
40
0.750000000000002
40
0.750000000000002
40
1
40
1
40
1
40
1
41
1
10
-0.394976888875164
20
6.3269427939276
30
0
41
1
10
-0.411238696721597
20
6.34126302490418
30
0
41
1
10
-0.428507485946312
20
6.35445833731507
30
0
41
1
10
-0.466057816276077
20
6.37750355983712
30
0
41
1
10
-0.486259278879885
20
6.38723211102035
30
0
41
1
10
-0.528928737140774
20
6.40070980810012
30
0
41
1
10
-0.552005370573227
20
6.40446654618015
30
0
41
1
10
-0.597682826800337
20
6.40404538429897
30
0
41
1
10
-0.620747969171248
20
6.39988942772294
30
0
41
1
10
-0.663841284887013
20
6.38551624086298
30
0
41
1
10
-0.684254761752925
20
6.37530734814362
30
0
41
1
10
-0.721714491331767
20
6.35175818060958
30
0
41
1
10
-0.739184552681309
20
6.33820913265029
30
0
41
1
10
-0.788162075931922
20
6.29461172820729
30
0
41
1
10
-0.815964113388418
20
6.26223556861288
30
0
41
1
10
-0.866810585476998
20
6.19416487342838
30
0
41
1
10
-0.889725334639337
20
6.15831922452335
30
0
41
1
10
-0.931663440024238
20
6.08576021404929
30
0
41
1
10
-0.950810679353395
20
6.04882063700356
30
0
41
1
10
-1.00456810808524
20
5.93660131926194
30
0
41
1
10
-1.03556300059219
20
5.85994358458376
30
0
41
1
10
-1.12018816360191
20
5.62641894994658
30
0
41
1
10
-1.16556178401126
20
5.46581692848366
30
0
41
1
10
-1.24442385148578
20
5.14144332217066
30
0
41
1
10
-1.2777459036995
20
4.97713666802886
30
0
41
1
10
-1.30710678118655
20
4.81101321788447
30
0
0
SPLINE
5
13E
100
AcDbEntity
8
SK1
62
256
6
ByLayer
370
18
48
1
60
0
100
AcDbSpline
70
4
71
3
72
299
73
295
40
0
40
0
40
0
40
0
40
0.002952992726836
40
0.0064785039313326
40
0.0100040151358292
40
0.0135295263403258
40
0.0170550375448223
40
0.020580548749319
40
0.0241060599538155
40
0.0276315711583122
40
0.0346825935673053
40
0.0417336159762985
40
0.0487846383852918
40
0.0523101495897884
40
0.055835660794285
40
0.0593611719987816
40
0.0628866832032782
40
0.0699377056122714
40
0.073463216816768
40
0.0769887280212645
40
0.0805142392257611
40
0.0840397504302578
40
0.0875652616347544
40
0.091090772839251
40
0.0981417952482441
40
0.101667306452741
40
0.105192817657237
40
0.108718328861734
40
0.112243840066231
40
0.115769351270727
40
0.119294862475224
40
0.12282037367972
40
0.126345884884217
40
0.129871396088714
40
0.13339690729321
40
0.136922418497707
40
0.140447929702203
40
0.1439734409067
40
0.147498952111197
40
0.15454997452019
40
0.158075485724686
40
0.161600996929183
40
0.163363752531431
40
0.16512650813368
40
0.168652019338176
40
0.175703041747169
40
0.179228552951666
40
0.182754064156163
40
0.186279575360659
40
0.189805086565156
40
0.196856108974149
40
0.200381620178646
40
0.203907131383142
40
0.20566988698539
40
0.207432642587639
40
0.210958153792135
40
0.218009176201129
40
0.221534687405625
40
0.225060198610122
40
0.228585709814618
40
0.232111221019115
40
0.239162243428108
40
0.242687754632605
40
0.246213265837101
40
0.24797602143935
40
0.249738777041598
40
0.253264288246094
40
0.256789799450591
40
0.260315310655088
40
0.262078066257336
40
0.263840821859584
40
0.267366333064081
40
0.270891844268577
40
0.274417355473074
40
0.277942866677571
40
0.281468377882067
40
0.284993889086564
40
0.28851940029106
40
0.292044911495557
40
0.295570422700054
40
0.29909593390455
40
0.302621445109047
40
0.306146956313543
40
0.30967246751804
40
0.313197978722537
40
0.316723489927033
40
0.323774512336027
40
0.327300023540523
40
0.33082553474502
40
0.334351045949516
40
0.337876557154013
40
0.34140206835851
40
0.344927579563006
40
0.348453090767503
40
0.351978601971999
40
0.359029624380993
40
0.366080646789986
40
0.373131669198979
40
0.376657180403476
40
0.380182691607972
40
0.383708202812469
40
0.387233714016965
40
0.390759225221462
40
0.394284736425959
40
0.397810247630455
40
0.401335758834952
40
0.404861270039448
40
0.408386781243945
40
0.411912292448442
40
0.415437803652938
40
0.418963314857435
40
0.422488826061931
40
0.426014337266428
40
0.429539848470925
40
0.433065359675421
40
0.434828115277669
40
0.436590870879918
40
0.438353626482166
40
0.440116382084414
40
0.443641893288911
40
0.447167404493407
40
0.448930160095656
40
0.450692915697904
40
0.452455671300152
40
0.454218426902401
40
0.457743938106897
40
0.459506693709145
40
0.461269449311394
40
0.463032204913642
40
0.46479496051589
40
0.466557716118139
40
0.468320471720387
40
0.470083227322636
40
0.471845982924884
40
0.473608738527132
40
0.47537149412938
40
0.477134249731629
40
0.478897005333877
40
0.480659760936125
40
0.482422516538373
40
0.484185272140622
40
0.48594802774287
40
0.487710783345118
40
0.489473538947367
40
0.491236294549615
40
0.492999050151863
40
0.494761805754112
40
0.49652456135636
40
0.498287316958608
40
0.500050072560857
40
0.501812828163105
40
0.503575583765353
40
0.505338339367601
40
0.50710109496985
40
0.508863850572098
40
0.510626606174346
40
0.512389361776594
40
0.514152117378843
40
0.515914872981091
40
0.51767762858334
40
0.519440384185588
40
0.521203139787836
40
0.522965895390084
40
0.524728650992333
40
0.526491406594581
40
0.528254162196829
40
0.530016917799077
40
0.531779673401326
40
0.533542429003574
40
0.535305184605823
40
0.537067940208071
40
0.538830695810319
40
0.540593451412567
40
0.542356207014816
40
0.545881718219312
40
0.547644473821561
40
0.549407229423809
40
0.551169985026057
40
0.552932740628306
40
0.556458251832802
40
0.559983763037299
40
0.561746518639547
40
0.563509274241795
40
0.565272029844044
40
0.567034785446292
40
0.570560296650789
40
0.574085807855285
40
0.577611319059782
40
0.581136830264278
40
0.584662341468775
40
0.588187852673272
40
0.591713363877768
40
0.595238875082265
40
0.598764386286761
40
0.602289897491258
40
0.605815408695755
40
0.609340919900251
40
0.612866431104748
40
0.616391942309244
40
0.619917453513741
40
0.623442964718238
40
0.626968475922734
40
0.634019498331727
40
0.641070520740721
40
0.648121543149714
40
0.65164705435421
40
0.655172565558707
40
0.658698076763204
40
0.6622235879677
40
0.665749099172197
40
0.669274610376693
40
0.67280012158119
40
0.676325632785686
40
0.68337665519468
40
0.686902166399176
40
0.690427677603673
40
0.69395318880817
40
0.697478700012666
40
0.701004211217163
40
0.704529722421659
40
0.708055233626156
40
0.711580744830653
40
0.715106256035149
40
0.718631767239646
40
0.722157278444142
40
0.725682789648639
40
0.732733812057632
40
0.736259323262129
40
0.739784834466625
40
0.746835856875618
40
0.750361368080115
40
0.753886879284612
40
0.757412390489108
40
0.760937901693605
40
0.767988924102598
40
0.771514435307095
40
0.775039946511591
40
0.778565457716088
40
0.782090968920584
40
0.789141991329578
40
0.792667502534074
40
0.796193013738571
40
0.799718524943068
40
0.803244036147564
40
0.810295058556557
40
0.813820569761054
40
0.817346080965551
40
0.820871592170047
40
0.824397103374544
40
0.831448125783537
40
0.834973636988033
40
0.83849914819253
40
0.842024659397027
40
0.845550170601523
40
0.852601193010517
40
0.856126704215013
40
0.85965221541951
40
0.863177726624006
40
0.866703237828503
40
0.870228749032999
40
0.873754260237496
40
0.877279771441993
40
0.880805282646489
40
0.884330793850986
40
0.887856305055482
40
0.891381816259979
40
0.894907327464476
40
0.898432838668972
40
0.901958349873469
40
0.909009372282462
40
0.912534883486959
40
0.916060394691455
40
0.919585905895952
40
0.923111417100448
40
0.926636928304945
40
0.930162439509442
40
0.937213461918435
40
0.940738973122931
40
0.944264484327428
40
0.947789995531925
40
0.951315506736421
40
0.958366529145415
40
0.961892040349911
40
0.965417551554408
40
0.968943062758904
40
0.972468573963401
40
0.975994085167897
40
0.979519596372394
40
0.983045107576891
40
0.986570618781387
40
0.990096129985884
40
0.993621641190381
40
0.997147152394877
40
1
40
1
40
1
40
1
41
1
10
-37.9999999999999
20
-20.2923486122777
30
0
41
1
10
-37.9999999999999
20
-20.2923562167574
30
0
41
1
10
-37.9999999999998
20
-20.2915888469724
30
0
41
1
10
-38
20
-20.2877827415224
30
0
41
1
10
-37.9999999999998
20
-20.2807871950942
30
0
41
1
10
-38
20
-20.270864225278
30
0
41
1
10
-38
20
-20.2580557575388
30
0
41
1
10
-37.9999999999999
20
-20.2424031034125
30
0
41
1
10
-37.9999999999999
20
-20.2239454925534
30
0
41
1
10
-38
20
-20.19551262204
30
0
41
1
10
-38
20
-20.1534581579689
30
0
41
1
10
-38.0000000000001
20
-20.0921783324266
30
0
41
1
10
-38
20
-20.0326760120608
30
0
41
1
10
-37.9999999999999
20
-19.9796195423852
30
0
41
1
10
-38.0000000000001
20
-19.9374871337363
30
0
41
1
10
-37.9999999999999
20
-19.8928775037255
30
0
41
1
10
-37.9999999999999
20
-19.8298739849263
30
0
41
1
10
-38
20
-19.7628242930463
30
0
41
1
10
-37.9999999999999
20
-19.6902080345967
30
0
41
1
10
-38.0000000000001
20
-19.6336084813315
30
0
41
1
10
-38.0000000000001
20
-19.5746836513966
30
0
41
1
10
-37.9999999999999
20
-19.5134574775014
30
0
41
1
10
-37.9999999999999
20
-19.4499498796238
30
0
41
1
10
-37.9999999999999
20
-19.361926580552
30
0
41
1
10
-37.9999999999999
20
-19.2704514952516
30
0
41
1
10
-37.9999999999999
20
-19.1735363516591
30
0
41
1
10
-38
20
-19.0989364266238
30
0
41
1
10
-38
20
-19.0221745884207
30
0
41
1
10
-38
20
-18.9432715601189
30
0
41
1
10
-37.9999999999999
20
-18.8622425921488
30
0
41
1
10
-37.9999999999999
20
-18.7791047356355
30
0
41
1
10
-38.0000000000001
20
-18.6938772447031
30
0
41
1
10
-38
20
-18.6065734364562
30
0
41
1
10
-38
20
-18.5172096781029
30
0
41
1
10
-38
20
-18.4258037757915
30
0
41
1
10
-37.9999999999999
20
-18.3323676597213
30
0
41
1
10
-37.9999999999999
20
-18.236917040573
30
0
41
1
10
-38
20
-18.1394682315478
30
0
41
1
10
-38.0000000000001
20
-18.006423045464
30
0
41
1
10
-38
20
-17.870842154793
30
0
41
1
10
-38
20
-17.7299440627733
30
0
41
1
10
-38
20
-17.6408187485726
30
0
41
1
10
-38.0000000000001
20
-17.5681131617785
30
0
41
1
10
-38
20
-17.4947669133713
30
0
41
1
10
-38.0000000000001
20
-17.3649201654157
30
0
41
1
10
-38
20
-17.2140632768009
30
0
41
1
10
-37.9999999999999
20
-17.0578935907135
30
0
41
1
10
-38
20
-16.939299229306
30
0
41
1
10
-37.9999999999999
20
-16.8188549914818
30
0
41
1
10
-38.0000000000001
20
-16.655251000302
30
0
41
1
10
-38.0000000000001
20
-16.4896724966029
30
0
41
1
10
-38
20
-16.3187666825071
30
0
41
1
10
-38
20
-16.2111031772939
30
0
41
1
10
-38
20
-16.1235473577608
30
0
41
1
10
-37.9999999999999
20
-16.0353949417432
30
0
41
1
10
-38
20
-15.8797855584285
30
0
41
1
10
-38
20
-15.6999813794666
30
0
41
1
10
-38.0000000000001
20
-15.5148116907138
30
0
41
1
10
-37.9999999999999
20
-15.3746600384839
30
0
41
1
10
-38.0000000000001
20
-15.2327750536327
30
0
41
1
10
-38
20
-15.0406360987562
30
0
41
1
10
-38.0000000000001
20
-14.8470518249568
30
0
41
1
10
-37.9999999999999
20
-14.6480433816336
30
0
41
1
10
-37.9999999999999
20
-14.5230237603811
30
0
41
1
10
-38
20
-14.421539532279
30
0
41
1
10
-38.0000000000001
20
-14.3194944461189
30
0
41
1
10
-37.9999999999999
20
-14.1916826014269
30
0
41
1
10
-38
20
-14.0362107113461
30
0
41
1
10
-37.9999999999999
20
-13.905633632864
30
0
41
1
10
-37.9999999999999
20
-13.7996824703932
30
0
41
1
10
-38.0000000000001
20
-13.6931799140639
30
0
41
1
10
-38.0000000000001
20
-13.5598675642284
30
0
41
1
10
-38.0000000000001
20
-13.3977994204324
30
0
41
1
10
-38.0000000000001
20
-13.2340971553997
30
0
41
1
10
-37.9999999999999
20
-13.0687736820565
30
0
41
1
10
-37.9999999999999
20
-12.9018380893652
30
0
41
1
10
-37.9999999999999
20
-12.7332922951509
30
0
41
1
10
-38
20
-12.5631480531082
30
0
41
1
10
-38
20
-12.3914123687223
30
0
41
1
10
-37.9999999999999
20
-12.2180896154104
30
0
41
1
10
-37.9999999999999
20
-12.0431930727568
30
0
41
1
10
-38.0000000000001
20
-11.8667275879996
30
0
41
1
10
-37.9999999999999
20
-11.6886992220563
30
0
41
1
10
-38
20
-11.5091211559413
30
0
41
1
10
-38
20
-11.3279971676986
30
0
41
1
10
-38
20
-11.0835274575533
30
0
41
1
10
-37.9999999999999
20
-10.8388445996823
30
0
41
1
10
-38
20
-10.5882272221232
30
0
41
1
10
-38
20
-10.3995106478125
30
0
41
1
10
-37.9999999999999
20
-10.2093006505111
30
0
41
1
10
-38
20
-10.0176111741013
30
0
41
1
10
-38
20
-9.82444825814403
30
0
41
1
10
-38
20
-9.62982433363783
30
0
41
1
10
-38
20
-9.43375032895247
30
0
41
1
10
-37.9999999999999
20
-9.16930024978842
30
0
41
1
10
-37.9999999999999
20
-8.83774034996793
30
0
41
1
10
-37.9999999999999
20
-8.43283016067574
30
0
41
1
10
-38
20
-8.09202302704492
30
0
41
1
10
-38
20
-7.8144066871198
30
0
41
1
10
-38.0000000000001
20
-7.60585888080684
30
0
41
1
10
-37.9999999999999
20
-7.39600299493048
30
0
41
1
10
-37.9999999999999
20
-7.18486050853949
30
0
41
1
10
-37.9999999999999
20
-6.97245482074297
30
0
41
1
10
-38
20
-6.75880464755269
30
0
41
1
10
-38.0000000000001
20
-6.54393387937537
30
0
41
1
10
-38.0000000000001
20
-6.32787102064518
30
0
41
1
10
-38
20
-6.11064460524281
30
0
41
1
10
-37.9999999999999
20
-5.89228682406821
30
0
41
1
10
-37.9999999999999
20
-5.67283049766698
30
0
41
1
10
-38
20
-5.45231041402207
30
0
41
1
10
-38
20
-5.23076611988367
30
0
41
1
10
-37.9999999999999
20
-5.00824236668089
30
0
41
1
10
-38
20
-4.784784538949
30
0
41
1
10
-38
20
-4.56044477194345
30
0
41
1
10
-37.9999999999999
20
-4.3737593142329
30
0
41
1
10
-38.0000000000001
20
-4.22222174308928
30
0
41
1
10
-38.0000000000002
20
-4.10916467830535
30
0
41
1
10
-37.9999999999999
20
-3.99593123757288
30
0
41
1
10
-38
20
-3.84368490764797
30
0
41
1
10
-38.0000000000001
20
-3.6554448428947
30
0
41
1
10
-37.9999999999999
20
-3.46668355973628
30
0
41
1
10
-37.9999999999998
20
-3.31336520651504
30
0
41
1
10
-38.0000000000002
20
-3.19916977025275
30
0
41
1
10
-38.0000000000002
20
-3.08487718492034
30
0
41
1
10
-38.0000000000002
20
-2.9311653347853
30
0
41
1
10
-38.0000000000002
20
-2.78106304592112
30
0
41
1
10
-38.0000000000001
20
-2.62697343511888
30
0
41
1
10
-37.9999999999998
20
-2.51237687493432
30
0
41
1
10
-38
20
-2.39774974487247
30
0
41
1
10
-38
20
-2.28311555219401
30
0
41
1
10
-37.9999999999998
20
-2.16847618976473
30
0
41
1
10
-37.9999999999998
20
-2.0538484010745
30
0
41
1
10
-37.9999999999999
20
-1.93924458170406
30
0
41
1
10
-38.0000000000002
20
-1.82466899171212
30
0
41
1
10
-38.0000000000001
20
-1.71014121398434
30
0
41
1
10
-38.0000000000001
20
-1.5956600989887
30
0
41
1
10
-38.0000000000001
20
-1.48124309885603
30
0
41
1
10
-38.0000000000001
20
-1.36688883878034
30
0
41
1
10
-37.9999999999999
20
-1.25260906632698
30
0
41
1
10
-38.0000000000002
20
-1.1384032198639
30
0
41
1
10
-37.9999999999999
20
-1.02427614220738
30
0
41
1
10
-38.0000000000001
20
-0.910225811803798
30
0
41
1
10
-38
20
-0.796251800903889
30
0
41
1
10
-38.0000000000001
20
-0.682349388495538
30
0
41
1
10
-37.9999999999999
20
-0.568513483413483
30
0
41
1
10
-38.0000000000003
20
-0.454735475948865
30
0
41
1
10
-38.0000000000002
20
-0.341006791029969
30
0
41
1
10
-38
20
-0.227315919379492
30
0
41
1
10
-37.9999999999998
20
-0.113651444289076
30
0
41
1
10
-38.0000000000002
20
-2.39305962E-08
30
0
41
1
10
-38
20
0.113651428861203
30
0
41
1
10
-37.9999999999998
20
0.227315965161807
30
0
41
1
10
-38.0000000000002
20
0.341006831114839
30
0
41
1
10
-37.9999999999999
20
0.454735424962763
30
0
41
1
10
-37.9999999999998
20
0.568513412391525
30
0
41
1
10
-38
20
0.682349437337109
30
0
41
1
10
-38
20
0.796251898049292
30
0
41
1
10
-37.9999999999998
20
0.91022576559223
30
0
41
1
10
-37.9999999999999
20
1.02427601417028
30
0
41
1
10
-38.0000000000001
20
1.13840324907639
30
0
41
1
10
-38.0000000000002
20
1.25260921865765
30
0
41
1
10
-38.0000000000001
20
1.36688883944325
30
0
41
1
10
-38.0000000000001
20
1.48124293103638
30
0
41
1
10
-37.9999999999998
20
1.59566004663384
30
0
41
1
10
-38.0000000000001
20
1.71014137239004
30
0
41
1
10
-38.0000000000002
20
1.82466911261443
30
0
41
1
10
-38
20
1.9392444686649
30
0
41
1
10
-38.0000000000001
20
2.05384821372695
30
0
41
1
10
-38.0000000000001
20
2.16847621903293
30
0
41
1
10
-37.9999999999999
20
2.28311576323423
30
0
41
1
10
-38.0000000000001
20
2.39774983280111
30
0
41
1
10
-38.0000000000001
20
2.51237672316313
30
0
41
1
10
-37.9999999999999
20
2.62697323991802
30
0
41
1
10
-38.0000000000002
20
2.7810631514694
30
0
41
1
10
-38
20
2.93116552693391
30
0
41
1
10
-37.9999999999999
20
3.08487708212584
30
0
41
1
10
-38
20
3.19916954549012
30
0
41
1
10
-38
20
3.31336512600552
30
0
41
1
10
-38.0000000000001
20
3.46668375918682
30
0
41
1
10
-38.0000000000001
20
3.65544489425093
30
0
41
1
10
-38
20
3.84368470208381
30
0
41
1
10
-38.0000000000001
20
3.99593117493799
30
0
41
1
10
-37.9999999999998
20
4.10916481607393
30
0
41
1
10
-38.0000000000001
20
4.22222196867946
30
0
41
1
10
-37.9999999999998
20
4.37375933349006
30
0
41
1
10
-38.0000000000001
20
4.56044458630848
30
0
41
1
10
-37.9999999999999
20
4.78478457648495
30
0
41
1
10
-38.0000000000002
20
5.008242538161
30
0
41
1
10
-38
20
5.23076600439057
30
0
41
1
10
-37.9999999999999
20
5.45231022599052
30
0
41
1
10
-38.0000000000001
20
5.6728304150466
30
0
41
1
10
-38.0000000000002
20
5.89228674128233
30
0
41
1
10
-37.9999999999999
20
6.11064496108523
30
0
41
1
10
-37.9999999999998
20
6.32787239667013
30
0
41
1
10
-38.0000000000001
20
6.54393525610652
30
0
41
1
10
-38.0000000000002
20
6.75880334040139
30
0
41
1
10
-38.0000000000001
20
6.97245311766216
30
0
41
1
10
-37.9999999999999
20
7.18486111103377
30
0
41
1
10
-38
20
7.39600347561742
30
0
41
1
10
-37.9999999999998
20
7.60585874971361
30
0
41
1
10
-37.9999999999999
20
7.81440645201113
30
0
41
1
10
-37.9999999999998
20
8.09202295752311
30
0
41
1
10
-38
20
8.43283023540658
30
0
41
1
10
-38.0000000000001
20
8.83774029355067
30
0
41
1
10
-37.9999999999998
20
9.16930023887326
30
0
41
1
10
-38.0000000000001
20
9.43375044009517
30
0
41
1
10
-37.9999999999999
20
9.62982432960192
30
0
41
1
10
-38
20
9.82444814963
30
0
41
1
10
-38.0000000000001
20
10.0176111126089
30
0
41
1
10
-38.0000000000002
20
10.2093007057547
30
0
41
1
10
-37.9999999999999
20
10.3995107409486
30
0
41
1
10
-37.9999999999999
20
10.5882272324294
30
0
41
1
10
-38.0000000000001
20
10.8388445170812
30
0
41
1
10
-38.0000000000002
20
11.0835274377931
30
0
41
1
10
-38.0000000000001
20
11.3279972500451
30
0
41
1
10
-38.0000000000001
20
11.5091211965042
30
0
41
1
10
-38.0000000000002
20
11.6886991809048
30
0
41
1
10
-37.9999999999998
20
11.8667275177687
30
0
41
1
10
-37.9999999999999
20
12.0431930522803
30
0
41
1
10
-38
20
12.2180896645832
30
0
41
1
10
-38.0000000000002
20
12.3914124247036
30
0
41
1
10
-37.9999999999999
20
12.5631480735019
30
0
41
1
10
-37.9999999999999
20
12.7332924196477
30
0
41
1
10
-38.0000000000001
20
12.901838724825
30
0
41
1
10
-38.0000000000002
20
13.0687749028761
30
0
41
1
10
-38.0000000000001
20
13.2899980003419
30
0
41
1
10
-37.9999999999999
20
13.5056406071554
30
0
41
1
10
-38.0000000000001
20
13.7202970548286
30
0
41
1
10
-38.0000000000002
20
13.9327572918623
30
0
41
1
10
-38.0000000000001
20
14.1397069500696
30
0
41
1
10
-38.0000000000001
20
14.3454836148158
30
0
41
1
10
-38.0000000000002
20
14.4976048095278
30
0
41
1
10
-38.0000000000002
20
14.6480433741444
30
0
41
1
10
-38
20
14.8470538575165
30
0
41
1
10
-38.0000000000001
20
15.0406366439894
30
0
41
1
10
-37.9999999999998
20
15.2327734637881
30
0
41
1
10
-38.0000000000001
20
15.3746583733237
30
0
41
1
10
-37.9999999999999
20
15.5148115582755
30
0
41
1
10
-38.0000000000002
20
15.6999837411248
30
0
41
1
10
-37.9999999999998
20
15.8797870255403
30
0
41
1
10
-37.9999999999998
20
16.0578801048401
30
0
41
1
10
-38.0000000000002
20
16.189216581434
30
0
41
1
10
-37.9999999999999
20
16.3187661779867
30
0
41
1
10
-37.9999999999998
20
16.4896741385663
30
0
41
1
10
-38
20
16.6552512602625
30
0
41
1
10
-38
20
16.818854580765
30
0
41
1
10
-37.9999999999999
20
16.9392987318018
30
0
41
1
10
-37.9999999999999
20
17.0578934672827
30
0
41
1
10
-38.0000000000002
20
17.2140648101706
30
0
41
1
10
-37.9999999999998
20
17.3649216616153
30
0
41
1
10
-37.9999999999998
20
17.513530035822
30
0
41
1
10
-37.9999999999999
20
17.6226956365842
30
0
41
1
10
-38
20
17.7299433731026
30
0
41
1
10
-37.9999999999999
20
17.8708440004862
30
0
41
1
10
-38
20
18.0064238716364
30
0
41
1
10
-38.0000000000001
20
18.1394672902699
30
0
41
1
10
-38.0000000000002
20
18.2369159156771
30
0
41
1
10
-37.9999999999999
20
18.3323672965474
30
0
41
1
10
-37.9999999999999
20
18.4258040962282
30
0
41
1
10
-37.9999999999999
20
18.517209887002
30
0
41
1
10
-38
20
18.6065734896479
30
0
41
1
10
-37.9999999999998
20
18.6938772522127
30
0
41
1
10
-38.0000000000002
20
18.7791047692189
30
0
41
1
10
-38
20
18.8622426359769
30
0
41
1
10
-38
20
18.9432715834756
30
0
41
1
10
-38.0000000000001
20
19.0221745805326
30
0
41
1
10
-37.9999999999998
20
19.0989364136873
30
0
41
1
10
-37.9999999999999
20
19.1735363647814
30
0
41
1
10
-38.0000000000001
20
19.2704515417462
30
0
41
1
10
-37.9999999999999
20
19.3619266112172
30
0
41
1
10
-37.9999999999998
20
19.4499498647731
30
0
41
1
10
-37.9999999999999
20
19.5134574724377
30
0
41
1
10
-38.0000000000001
20
19.5746836830748
30
0
41
1
10
-38.0000000000002
20
19.6336085328263
30
0
41
1
10
-38.0000000000001
20
19.6902080668946
30
0
41
1
10
-38
20
19.762824284205
30
0
41
1
10
-37.9999999999999
20
19.8298739843739
30
0
41
1
10
-38.0000000000002
20
19.8928775551027
30
0
41
1
10
-38.0000000000002
20
19.9374871757692
30
0
41
1
10
-38.0000000000001
20
19.9796195436674
30
0
41
1
10
-38.0000000000002
20
20.0326760063814
30
0
41
1
10
-38.0000000000002
20
20.0800381474626
30
0
41
1
10
-37.9999999999999
20
20.1228090027497
30
0
41
1
10
-38.0000000000001
20
20.1521177658613
30
0
41
1
10
-37.9999999999999
20
20.1787668505584
30
0
41
1
10
-38
20
20.2027210424566
30
0
41
1
10
-38.0000000000002
20
20.2239455432987
30
0
41
1
10
-38.0000000000002
20
20.2424031363826
30
0
41
1
10
-38.0000000000001
20
20.2580557552655
30
0
41
1
10
-38.0000000000001
20
20.2708642249464
30
0
41
1
10
-38
20
20.2807872561095
30
0
41
1
10
-38.0000000000002
20
20.2877829489452
30
0
41
1
10
-38
20
20.2915510694523
30
0
41
1
10
-38.0000000000001
20
20.2923321825871
30
0
41
1
10
-38.0000000000001
20
20.2923481447465
30
0
0
SPLINE
5
13F
100
AcDbEntity
8
SK1
62
256
6
ByLayer
370
18
48
1
60
0
100
AcDbSpline
70
4
71
3
72
303
73
299
40
0
40
0
40
0
40
0
40
0.0004869839703803
40
0.0039800817429487
40
0.0074731795155172
40
0.0109662772880857
40
0.0144593750606541
40
0.0179524728332226
40
0.0214455706057911
40
0.0249386683783595
40
0.028431766150928
40
0.0319248639234965
40
0.0389110594686334
40
0.0458972550137703
40
0.0528834505589073
40
0.0563765483314758
40
0.0598696461040442
40
0.0633627438766127
40
0.0668558416491812
40
0.0738420371943181
40
0.0773351349668866
40
0.080828232739455
40
0.0843213305120236
40
0.087814428284592
40
0.0913075260571605
40
0.0948006238297289
40
0.101786819374866
40
0.105279917147434
40
0.108773014920003
40
0.112266112692571
40
0.11575921046514
40
0.119252308237708
40
0.122745406010277
40
0.126238503782845
40
0.129731601555414
40
0.133224699327982
40
0.136717797100551
40
0.140210894873119
40
0.143703992645688
40
0.147197090418256
40
0.150690188190824
40
0.157676383735961
40
0.16116948150853
40
0.164662579281098
40
0.166409128167382
40
0.168155677053667
40
0.171648774826235
40
0.178634970371372
40
0.182128068143941
40
0.185621165916509
40
0.189114263689078
40
0.192607361461646
40
0.199593557006783
40
0.203086654779351
40
0.20657975255192
40
0.208326301438204
40
0.210072850324488
40
0.213565948097057
40
0.220552143642194
40
0.224045241414762
40
0.227538339187331
40
0.231031436959899
40
0.234524534732468
40
0.241510730277605
40
0.245003828050173
40
0.248496925822742
40
0.250243474709026
40
0.25199002359531
40
0.255483121367878
40
0.258976219140447
40
0.262469316913015
40
0.2642158657993
40
0.265962414685584
40
0.269455512458153
40
0.272948610230721
40
0.276441708003289
40
0.279934805775858
40
0.283427903548426
40
0.286921001320995
40
0.290414099093563
40
0.293907196866132
40
0.2974002946387
40
0.300893392411269
40
0.304386490183837
40
0.307879587956406
40
0.311372685728974
40
0.314865783501542
40
0.318358881274111
40
0.325345076819248
40
0.328838174591816
40
0.332331272364385
40
0.335824370136953
40
0.339317467909522
40
0.34281056568209
40
0.346303663454659
40
0.349796761227227
40
0.353289858999796
40
0.360276054544933
40
0.36726225009007
40
0.374248445635206
40
0.377741543407775
40
0.381234641180343
40
0.384727738952912
40
0.388220836725481
40
0.391713934498049
40
0.395207032270617
40
0.398700130043186
40
0.402193227815754
40
0.405686325588323
40
0.409179423360891
40
0.41267252113346
40
0.416165618906028
40
0.419658716678597
40
0.423151814451165
40
0.426644912223734
40
0.430138009996302
40
0.43363110776887
40
0.435377656655155
40
0.437124205541439
40
0.438870754427723
40
0.440617303314008
40
0.444110401086576
40
0.447603498859144
40
0.449350047745429
40
0.451096596631713
40
0.452843145517997
40
0.454589694404281
40
0.45808279217685
40
0.459829341063134
40
0.461575889949418
40
0.463322438835703
40
0.465068987721987
40
0.466815536608271
40
0.468562085494555
40
0.470308634380839
40
0.472055183267124
40
0.473801732153408
40
0.475548281039692
40
0.477294829925976
40
0.479041378812261
40
0.480787927698545
40
0.482534476584829
40
0.484281025471113
40
0.486027574357398
40
0.487774123243682
40
0.489520672129966
40
0.49126722101625
40
0.493013769902534
40
0.494760318788819
40
0.496506867675103
40
0.498253416561387
40
0.499999965447671
40
0.501746514333956
40
0.50349306322024
40
0.505239612106524
40
0.506986160992808
40
0.508732709879093
40
0.510479258765377
40
0.512225807651661
40
0.513972356537945
40
0.515718905424229
40
0.517465454310514
40
0.519212003196798
40
0.520958552083082
40
0.522705100969366
40
0.524451649855651
40
0.526198198741935
40
0.527944747628219
40
0.529691296514503
40
0.531437845400788
40
0.533184394287072
40
0.534930943173356
40
0.53667749205964
40
0.538424040945925
40
0.540170589832209
40
0.541917138718493
40
0.545410236491062
40
0.547156785377346
40
0.54890333426363
40
0.550649883149914
40
0.552396432036198
40
0.555889529808767
40
0.559382627581335
40
0.56112917646762
40
0.562875725353904
40
0.564622274240188
40
0.566368823126472
40
0.569861920899041
40
0.573355018671609
40
0.576848116444177
40
0.580341214216746
40
0.583834311989315
40
0.587327409761883
40
0.590820507534452
40
0.59431360530702
40
0.597806703079588
40
0.601299800852157
40
0.604792898624725
40
0.608285996397294
40
0.611779094169862
40
0.615272191942431
40
0.618765289714999
40
0.622258387487568
40
0.625751485260136
40
0.632737680805273
40
0.63972387635041
40
0.646710071895547
40
0.650203169668115
40
0.653696267440684
40
0.657189365213252
40
0.660682462985821
40
0.664175560758389
40
0.667668658530958
40
0.671161756303526
40
0.674654854076095
40
0.681641049621232
40
0.6851341473938
40
0.688627245166369
40
0.692120342938937
40
0.695613440711506
40
0.699106538484074
40
0.702599636256642
40
0.706092734029211
40
0.709585831801779
40
0.713078929574348
40
0.716572027346917
40
0.720065125119485
40
0.723558222892053
40
0.73054441843719
40
0.734037516209759
40
0.737530613982327
40
0.744516809527464
40
0.748009907300033
40
0.751503005072601
40
0.75499610284517
40
0.758489200617738
40
0.765475396162875
40
0.768968493935444
40
0.772461591708012
40
0.77595468948058
40
0.779447787253149
40
0.786433982798286
40
0.789927080570854
40
0.793420178343423
40
0.796913276115991
40
0.800406373888559
40
0.807392569433697
40
0.810885667206265
40
0.814378764978834
40
0.817871862751402
40
0.82136496052397
40
0.828351156069107
40
0.831844253841676
40
0.835337351614244
40
0.838830449386813
40
0.842323547159381
40
0.849309742704518
40
0.852802840477087
40
0.856295938249655
40
0.859789036022224
40
0.863282133794792
40
0.86677523156736
40
0.870268329339929
40
0.873761427112497
40
0.877254524885066
40
0.880747622657634
40
0.884240720430203
40
0.887733818202772
40
0.89122691597534
40
0.894720013747908
40
0.898213111520477
40
0.905199307065614
40
0.908692404838182
40
0.912185502610751
40
0.915678600383319
40
0.919171698155888
40
0.922664795928456
40
0.926157893701024
40
0.933144089246161
40
0.93663718701873
40
0.940130284791298
40
0.943623382563867
40
0.947116480336435
40
0.954102675881572
40
0.957595773654141
40
0.961088871426709
40
0.964581969199278
40
0.968075066971846
40
0.971568164744415
40
0.975061262516983
40
0.978554360289552
40
0.98204745806212
40
0.985540555834688
40
0.989033653607257
40
0.992526751379826
40
0.996019849152394
40
0.999512946924962
40
1
40
1
40
1
40
1
41
1
10
-36.5
20
-21.1556096191243
30
0
41
1
10
-36.5
20
-21.1558059865108
30
0
41
1
10
-36.4999999999999
20
-21.1573245527082
30
0
41
1
10
-36.4999999999999
20
-21.1588544331657
30
0
41
1
10
-36.4999999999999
20
-21.1578038223016
30
0
41
1
10
-36.5000000000001
20
-21.1536126358381
30
0
41
1
10
-36.4999999999999
20
-21.1463317213717
30
0
41
1
10
-36.4999999999999
20
-21.1360112678938
30
0
41
1
10
-36.5000000000001
20
-21.1226986497682
30
0
41
1
10
-36.4999999999999
20
-21.1064402158535
30
0
41
1
10
-36.4999999999999
20
-21.0872797426226
30
0
41
1
10
-36.4999999999999
20
-21.0578537406018
30
0
41
1
10
-36.5
20
-21.0141777773224
30
0
41
1
10
-36.5000000000001
20
-20.9507130747219
30
0
41
1
10
-36.4999999999999
20
-20.8890285612071
30
0
41
1
10
-36.5000000000001
20
-20.8342802658871
30
0
41
1
10
-36.5000000000001
20
-20.7907267804184
30
0
41
1
10
-36.5
20
-20.7446291690671
30
0
41
1
10
-36.4999999999999
20
-20.6796864194097
30
0
41
1
10
-36.5000000000001
20
-20.6101652524535
30
0
41
1
10
-36.5000000000001
20
-20.5353747251341
30
0
41
1
10
-36.4999999999999
20
-20.4769783324058
30
0
41
1
10
-36.5
20
-20.4161995895792
30
0
41
1
10
-36.5
20
-20.3530628196556
30
0
41
1
10
-36.5
20
-20.2875896826626
30
0
41
1
10
-36.5000000000001
20
-20.1970436182682
30
0
41
1
10
-36.4999999999999
20
-20.1024192722933
30
0
41
1
10
-36.4999999999999
20
-20.0027815031752
30
0
41
1
10
-36.4999999999999
20
-19.9259535572617
30
0
41
1
10
-36.4999999999999
20
-19.8469141355251
30
0
41
1
10
-36.5
20
-19.765683373065
30
0
41
1
10
-36.4999999999999
20
-19.6822775189499
30
0
41
1
10
-36.5
20
-19.5967148149262
30
0
41
1
10
-36.4999999999999
20
-19.5090135394172
30
0
41
1
10
-36.5000000000001
20
-19.4191882696517
30
0
41
1
10
-36.4999999999999
20
-19.3272561697677
30
0
41
1
10
-36.4999999999999
20
-19.2332338822713
30
0
41
1
10
-36.5
20
-19.1371346902892
30
0
41
1
10
-36.4999999999999
20
-19.0389746878944
30
0
41
1
10
-36.4999999999999
20
-18.9387689752275
30
0
41
1
10
-36.5
20
-18.8022215100789
30
0
41
1
10
-36.4999999999999
20
-18.6623317385554
30
0
41
1
10
-36.4999999999999
20
-18.5177544284038
30
0
41
1
10
-36.5000000000001
20
-18.4260133905721
30
0
41
1
10
-36.4999999999999
20
-18.3514175898237
30
0
41
1
10
-36.4999999999999
20
-18.2761667145512
30
0
41
1
10
-36.4999999999999
20
-18.1428549391526
30
0
41
1
10
-36.5
20
-17.987269645424
30
0
41
1
10
-36.5000000000001
20
-17.8270700659298
30
0
41
1
10
-36.5
20
-17.7052055421089
30
0
41
1
10
-36.5
20
-17.5814423770725
30
0
41
1
10
-36.5
20
-17.4136311437528
30
0
41
1
10
-36.4999999999999
20
-17.2428939764416
30
0
41
1
10
-36.5
20
-17.0675963011875
30
0
41
1
10
-36.5
20
-16.9568152899196
30
0
41
1
10
-36.5
20
-16.867008999151
30
0
41
1
10
-36.5
20
-16.7765898513273
30
0
41
1
10
-36.4999999999999
20
-16.6168596157572
30
0
41
1
10
-36.5
20
-16.4314438788637
30
0
41
1
10
-36.5
20
-16.2414991337765
30
0
41
1
10
-36.5000000000001
20
-16.097474719741
30
0
41
1
10
-36.5
20
-15.9516616651347
30
0
41
1
10
-36.4999999999999
20
-15.7545445351489
30
0
41
1
10
-36.4999999999999
20
-15.554861344689
30
0
41
1
10
-36.5000000000001
20
-15.3506633851319
30
0
41
1
10
-36.5
20
-15.2219600388738
30
0
41
1
10
-36.5
20
-15.1178164480938
30
0
41
1
10
-36.4999999999999
20
-15.0130920883853
30
0
41
1
10
-36.4999999999999
20
-14.8814910451208
30
0
41
1
10
-36.4999999999999
20
-14.7216281332594
30
0
41
1
10
-36.4999999999999
20
-14.5871530954062
30
0
41
1
10
-36.4999999999999
20
-14.4783873813362
30
0
41
1
10
-36.4999999999999
20
-14.3690494022437
30
0
41
1
10
-36.5
20
-14.2317235183088
30
0
41
1
10
-36.4999999999999
20
-14.0650028858774
30
0
41
1
10
-36.5000000000001
20
-13.8965816080864
30
0
41
1
10
-36.5
20
-13.7264689694465
30
0
41
1
10
-36.5
20
-13.5546710496342
30
0
41
1
10
-36.4999999999999
20
-13.3811910773121
30
0
41
1
10
-36.4999999999999
20
-13.2060373742643
30
0
41
1
10
-36.5000000000002
20
-13.0292149133303
30
0
41
1
10
-36.4999999999999
20
-12.8507281773019
30
0
41
1
10
-36.5
20
-12.6705857874603
30
0
41
1
10
-36.5
20
-12.4887914218501
30
0
41
1
10
-36.5000000000001
20
-12.3053503484466
30
0
41
1
10
-36.5
20
-12.1202706879328
30
0
41
1
10
-36.5000000000001
20
-11.9335555855444
30
0
41
1
10
-36.5
20
-11.6819759204348
30
0
41
1
10
-36.4999999999999
20
-11.4285505376587
30
0
41
1
10
-36.5000000000001
20
-11.1704660874498
30
0
41
1
10
-36.5000000000001
20
-10.9756651586938
30
0
41
1
10
-36.4999999999999
20
-10.7792636737398
30
0
41
1
10
-36.5000000000001
20
-10.5812696725585
30
0
41
1
10
-36.5
20
-10.3816871154456
30
0
41
1
10
-36.5000000000001
20
-10.180523710493
30
0
41
1
10
-36.4999999999999
20
-9.97778558435027
30
0
41
1
10
-36.5
20
-9.70483576808857
30
0
41
1
10
-36.5
20
-9.36101276272151
30
0
41
1
10
-36.5
20
-8.94153438933253
30
0
41
1
10
-36.5000000000001
20
-8.58745787193686
30
0
41
1
10
-36.5
20
-8.30004464023597
30
0
41
1
10
-36.4999999999999
20
-8.08346950394383
30
0
41
1
10
-36.5000000000001
20
-7.86540102208463
30
0
41
1
10
-36.4999999999999
20
-7.64585131899611
30
0
41
1
10
-36.4999999999999
20
-7.42483318088833
30
0
41
1
10
-36.4999999999999
20
-7.20235735193418
30
0
41
1
10
-36.5000000000001
20
-6.97843755879958
30
0
41
1
10
-36.5
20
-6.75308981071316
30
0
41
1
10
-36.5000000000001
20
-6.52633035082266
30
0
41
1
10
-36.5000000000001
20
-6.2981775323307
30
0
41
1
10
-36.5
20
-6.06865022444893
30
0
41
1
10
-36.4999999999999
20
-5.83776884649413
30
0
41
1
10
-36.5000000000001
20
-5.6055566044885
30
0
41
1
10
-36.5000000000001
20
-5.37203985998673
30
0
41
1
10
-36.4999999999999
20
-5.13724579696884
30
0
41
1
10
-36.4999999999999
20
-4.90120595303733
30
0
41
1
10
-36.5
20
-4.70396583147402
30
0
41
1
10
-36.5
20
-4.54469638576822
30
0
41
1
10
-36.5
20
-4.42533999597049
30
0
41
1
10
-36.5000000000001
20
-4.30569972295399
30
0
41
1
10
-36.5000000000001
20
-4.14529336499845
30
0
41
1
10
-36.5
20
-3.94531865595204
30
0
41
1
10
-36.4999999999999
20
-3.74444957084975
30
0
41
1
10
-36.4999999999999
20
-3.58224076117992
30
0
41
1
10
-36.5000000000001
20
-3.46078958963503
30
0
41
1
10
-36.4999999999999
20
-3.33910702605104
30
0
41
1
10
-36.4999999999999
20
-3.17597085922338
30
0
41
1
10
-36.5
20
-3.01425651604546
30
0
41
1
10
-36.4999999999999
20
-2.85023149996005
30
0
41
1
10
-36.5000000000001
20
-2.72752154931166
30
0
41
1
10
-36.5
20
-2.60463052157434
30
0
41
1
10
-36.5000000000001
20
-2.48157378937654
30
0
41
1
10
-36.5
20
-2.35835621123033
30
0
41
1
10
-36.4999999999999
20
-2.23499061660053
30
0
41
1
10
-36.5
20
-2.11148761081344
30
0
41
1
10
-36.5000000000001
20
-1.98785451527641
30
0
41
1
10
-36.4999999999999
20
-1.86410632124094
30
0
41
1
10
-36.5
20
-1.74024827700819
30
0
41
1
10
-36.4999999999999
20
-1.61629526151509
30
0
41
1
10
-36.5
20
-1.49225310041953
30
0
41
1
10
-36.4999999999999
20
-1.36813478148937
30
0
41
1
10
-36.5000000000002
20
-1.24394732222768
30
0
41
1
10
-36.5
20
-1.11970117534861
30
0
41
1
10
-36.5000000000001
20
-0.995403485642697
30
0
41
1
10
-36.4999999999999
20
-0.871062917068372
30
0
41
1
10
-36.5
20
-0.746686102657691
30
0
41
1
10
-36.5
20
-0.62228012411552
30
0
41
1
10
-36.5
20
-0.49785042075834
30
0
41
1
10
-36.5
20
-0.373402935182128
30
0
41
1
10
-36.4999999999999
20
-0.248942238793148
30
0
41
1
10
-36.5
20
-0.124473257200862
30
0
41
1
10
-36.5000000000001
20
-9.2461221E-09
30
0
41
1
10
-36.4999999999999
20
0.12447325467403
30
0
41
1
10
-36.4999999999999
20
0.248942266430674
30
0
41
1
10
-36.4999999999999
20
0.373402960091454
30
0
41
1
10
-36.5000000000001
20
0.497850400790611
30
0
41
1
10
-36.5000000000001
20
0.622280094010904
30
0
41
1
10
-36.4999999999999
20
0.746686131491828
30
0
41
1
10
-36.5000000000001
20
0.87106297009521
30
0
41
1
10
-36.4999999999999
20
0.995403468230819
30
0
41
1
10
-36.5000000000001
20
1.11970111692676
30
0
41
1
10
-36.4999999999999
20
1.2439473407681
30
0
41
1
10
-36.5000000000001
20
1.36813486147523
30
0
41
1
10
-36.4999999999998
20
1.49225310642996
30
0
41
1
10
-36.5
20
1.61629518356972
30
0
41
1
10
-36.4999999999997
20
1.7402482546413
30
0
41
1
10
-36.5000000000001
20
1.8641064032916
30
0
41
1
10
-36.5000000000001
20
1.98785458048863
30
0
41
1
10
-36.5000000000002
20
2.1114875607592
30
0
41
1
10
-36.5000000000001
20
2.23499052786076
30
0
41
1
10
-36.4999999999998
20
2.35835622798217
30
0
41
1
10
-36.4999999999999
20
2.48157389743921
30
0
41
1
10
-36.5000000000001
20
2.6046305710685
30
0
41
1
10
-36.4999999999998
20
2.72752148004801
30
0
41
1
10
-36.4999999999999
20
2.85023140656233
30
0
41
1
10
-36.4999999999999
20
3.01425656877109
30
0
41
1
10
-36.5
20
3.1759709599379
30
0
41
1
10
-36.4999999999999
20
3.33910698167961
30
0
41
1
10
-36.4999999999998
20
3.46078948211164
30
0
41
1
10
-36.4999999999997
20
3.58224072191865
30
0
41
1
10
-36.5000000000002
20
3.74444967050357
30
0
41
1
10
-36.5000000000001
20
3.94531869048157
30
0
41
1
10
-36.5000000000001
20
4.14529326648056
30
0
41
1
10
-36.4999999999999
20
4.30569969171864
30
0
41
1
10
-36.5000000000001
20
4.42534006396801
30
0
41
1
10
-36.4999999999999
20
4.54469650094606
30
0
41
1
10
-36.5000000000001
20
4.70396584910512
30
0
41
1
10
-36.5000000000001
20
4.90120586463624
30
0
41
1
10
-36.5
20
5.13724581146556
30
0
41
1
10
-36.5
20
5.37203995090812
30
0
41
1
10
-36.4999999999999
20
5.60555655529356
30
0
41
1
10
-36.5000000000002
20
5.83776875015047
30
0
41
1
10
-36.5000000000001
20
6.06865017711217
30
0
41
1
10
-36.5000000000001
20
6.29817748211661
30
0
41
1
10
-36.4999999999998
20
6.52633051401983
30
0
41
1
10
-36.5
20
6.75309051279783
30
0
41
1
10
-36.5000000000001
20
6.97843834484942
30
0
41
1
10
-36.5000000000002
20
7.20235684280962
30
0
41
1
10
-36.5
20
7.42483229470761
30
0
41
1
10
-36.5000000000001
20
7.64585158611587
30
0
41
1
10
-36.4999999999998
20
7.8654012840374
30
0
41
1
10
-36.5000000000001
20
8.0834694583161
30
0
41
1
10
-36.5
20
8.30004452993899
30
0
41
1
10
-36.4999999999999
20
8.58745782596955
30
0
41
1
10
-36.5000000000001
20
8.94153442741859
30
0
41
1
10
-36.4999999999998
20
9.36101273737586
30
0
41
1
10
-36.4999999999999
20
9.70483575174825
30
0
41
1
10
-36.5000000000002
20
9.97778564072325
30
0
41
1
10
-36.5
20
10.18052371466
30
0
41
1
10
-36.4999999999998
20
10.3816870614505
30
0
41
1
10
-36.5
20
10.581269633922
30
0
41
1
10
-36.5000000000001
20
10.7792636942328
30
0
41
1
10
-36.4999999999998
20
10.9756652058486
30
0
41
1
10
-36.4999999999998
20
11.1704660987636
30
0
41
1
10
-36.4999999999998
20
11.4285504962004
30
0
41
1
10
-36.4999999999999
20
11.6819759007756
30
0
41
1
10
-36.5000000000002
20
11.9335556252715
30
0
41
1
10
-36.4999999999998
20
12.1202707134412
30
0
41
1
10
-36.4999999999999
20
12.3053503320752
30
0
41
1
10
-36.4999999999999
20
12.4887913848281
30
0
41
1
10
-36.4999999999999
20
12.6705857704289
30
0
41
1
10
-36.4999999999998
20
12.8507281979538
30
0
41
1
10
-36.5000000000002
20
13.0292149436137
30
0
41
1
10
-36.5000000000002
20
13.2060373895955
30
0
41
1
10
-36.5000000000001
20
13.3811911431361
30
0
41
1
10
-36.4999999999999
20
13.5546713888901
30
0
41
1
10
-36.5000000000001
20
13.7264696827894
30
0
41
1
10
-36.5000000000001
20
13.95367691736
30
0
41
1
10
-36.4999999999998
20
14.176348576809
30
0
41
1
10
-36.4999999999999
20
14.3967384349214
30
0
41
1
10
-36.5
20
14.6148460432235
30
0
41
1
10
-36.4999999999999
20
14.8284315021106
30
0
41
1
10
-36.5000000000001
20
15.0396227184096
30
0
41
1
10
-36.5000000000002
20
15.1960147192183
30
0
41
1
10
-36.5000000000001
20
15.3506631330604
30
0
41
1
10
-36.4999999999998
20
15.5548624364723
30
0
41
1
10
-36.5000000000002
20
15.7545451164336
30
0
41
1
10
-36.5000000000001
20
15.9516609547095
30
0
41
1
10
-36.4999999999998
20
16.0974737380165
30
0
41
1
10
-36.4999999999999
20
16.241498813278
30
0
41
1
10
-36.5000000000001
20
16.4314450331353
30
0
41
1
10
-36.4999999999999
20
16.6168608854212
30
0
41
1
10
-36.4999999999998
20
16.7995343923806
30
0
41
1
10
-36.4999999999999
20
16.9344844206004
30
0
41
1
10
-36.4999999999999
20
17.0675955495038
30
0
41
1
10
-36.4999999999998
20
17.2428947983013
30
0
41
1
10
-36.4999999999999
20
17.4136313821348
30
0
41
1
10
-36.5000000000001
20
17.5814422063202
30
0
41
1
10
-36.5000000000001
20
17.7052052466278
30
0
41
1
10
-36.4999999999999
20
17.827069915531
30
0
41
1
10
-36.4999999999998
20
17.9872703841193
30
0
41
1
10
-36.5
20
18.1428562465544
30
0
41
1
10
-36.5
20
18.2953166794048
30
0
41
1
10
-36.5000000000001
20
18.4075180436268
30
0
41
1
10
-36.5000000000002
20
18.5177535555592
30
0
41
1
10
-36.5000000000002
20
18.6623326618876
30
0
41
1
10
-36.5000000000001
20
18.8022222651529
30
0
41
1
10
-36.4999999999998
20
18.9387686023436
30
0
41
1
10
-36.5000000000002
20
19.0389739868786
30
0
41
1
10
-36.4999999999999
20
19.1371342717784
30
0
41
1
10
-36.4999999999999
20
19.2332339353276
30
0
41
1
10
-36.4999999999998
20
19.3272562516113
30
0
41
1
10
-36.5000000000001
20
19.4191882978898
30
0
41
1
10
-36.4999999999998
20
19.5090135437133
30
0
41
1
10
-36.5000000000002
20
19.5967148362679
30
0
41
1
10
-36.5
20
19.6822775521963
30
0
41
1
10
-36.5000000000001
20
19.7656833992676
30
0
41
1
10
-36.5
20
19.8469141406673
30
0
41
1
10
-36.5000000000001
20
19.9259535527381
30
0
41
1
10
-36.4999999999999
20
20.0027815100322
30
0
41
1
10
-36.4999999999998
20
20.1024193061391
30
0
41
1
10
-36.5
20
20.1970436522849
30
0
41
1
10
-36.5000000000002
20
20.2875896816241
30
0
41
1
10
-36.5000000000001
20
20.3530628162381
30
0
41
1
10
-36.5000000000001
20
20.4161996091987
30
0
41
1
10
-36.5000000000001
20
20.4769783724375
30
0
41
1
10
-36.5000000000001
20
20.5353747607018
30
0
41
1
10
-36.4999999999999
20
20.6101652553123
30
0
41
1
10
-36.5000000000001
20
20.6796864153796
30
0
41
1
10
-36.4999999999999
20
20.7446292080422
30
0
41
1
10
-36.5
20
20.7907268231739
30
0
41
1
10
-36.5000000000001
20
20.8342802793507
30
0
41
1
10
-36.5
20
20.8890285523336
30
0
41
1
10
-36.4999999999998
20
20.9382580424269
30
0
41
1
10
-36.5
20
20.9824409225429
30
0
41
1
10
-36.5
20
21.0128017234864
30
0
41
1
10
-36.5000000000001
20
21.0404207944711
30
0
41
1
10
-36.4999999999998
20
21.0652596303332
30
0
41
1
10
-36.4999999999999
20
21.0872797892674
30
0
41
1
10
-36.5000000000002
20
21.1064402531508
30
0
41
1
10
-36.5
20
21.1226986516191
30
0
41
1
10
-36.4999999999999
20
21.1360112646484
30
0
41
1
10
-36.4999999999999
20
21.1463317710584
30
0
41
1
10
-36.5
20
21.1536128319467
30
0
41
1
10
-36.5
20
21.1578041644649
30
0
41
1
10
-36.5000000000001
20
21.1588543296934
30
0
41
1
10
-36.5000000000002
20
21.1573242012426
30
0
41
1
10
-36.5000000000001
20
21.1558055505923
30
0
41
1
10
-36.5000000000001
20
21.1556091479739
30
0
0
SPLINE
5
140
100
AcDbEntity
8
SK1
62
256
6
ByLayer
370
18
48
1
60
0
100
AcDbSpline
70
4
71
3
72
295
73
291
40
0
40
0
40
0
40
0
40
0.0029463019984322
40
0.0065222268800364
40
0.0100981517616407
40
0.013674076643245
40
0.0172500015248493
40
0.0208259264064535
40
0.0279777761696621
40
0.0351296259328706
40
0.0422814756960792
40
0.0458574005776834
40
0.0494333254592877
40
0.053009250340892
40
0.0565851752224963
40
0.0637370249857048
40
0.0673129498673091
40
0.0708888747489133
40
0.0744647996305176
40
0.0780407245121219
40
0.0816166493937261
40
0.0851925742753304
40
0.092344424038539
40
0.0959203489201432
40
0.0994962738017475
40
0.103072198683352
40
0.106648123564956
40
0.11022404844656
40
0.113799973328165
40
0.117375898209769
40
0.120951823091373
40
0.124527747972977
40
0.128103672854582
40
0.131679597736186
40
0.13525552261779
40
0.138831447499394
40
0.142407372380999
40
0.149559222144207
40
0.153135147025812
40
0.156711071907416
40
0.158499034348218
40
0.16028699678902
40
0.163862921670624
40
0.171014771433833
40
0.174590696315437
40
0.178166621197041
40
0.181742546078646
40
0.18531847096025
40
0.192470320723458
40
0.196046245605063
40
0.199622170486667
40
0.201410132927469
40
0.203198095368271
40
0.206774020249876
40
0.213925870013084
40
0.217501794894688
40
0.221077719776293
40
0.224653644657897
40
0.228229569539501
40
0.23538141930271
40
0.238957344184314
40
0.242533269065918
40
0.24432123150672
40
0.246109193947523
40
0.249685118829127
40
0.253261043710731
40
0.256836968592336
40
0.258624931033138
40
0.26041289347394
40
0.263988818355544
40
0.267564743237148
40
0.271140668118752
40
0.274716593000357
40
0.278292517881961
40
0.281868442763565
40
0.28544436764517
40
0.289020292526774
40
0.292596217408378
40
0.296172142289982
40
0.299748067171587
40
0.303323992053191
40
0.306899916934795
40
0.310475841816399
40
0.314051766698004
40
0.321203616461212
40
0.324779541342817
40
0.328355466224421
40
0.331931391106025
40
0.33550731598763
40
0.339083240869234
40
0.342659165750838
40
0.346235090632442
40
0.349811015514046
40
0.356962865277255
40
0.364114715040464
40
0.371266564803672
40
0.374842489685276
40
0.378418414566881
40
0.381994339448485
40
0.385570264330089
40
0.389146189211694
40
0.392722114093298
40
0.396298038974902
40
0.399873963856506
40
0.403449888738111
40
0.407025813619715
40
0.410601738501319
40
0.414177663382923
40
0.417753588264528
40
0.421329513146132
40
0.424905438027736
40
0.428481362909341
40
0.432057287790945
40
0.433845250231747
40
0.435633212672549
40
0.437421175113351
40
0.439209137554153
40
0.442785062435758
40
0.446360987317362
40
0.448148949758164
40
0.449936912198966
40
0.451724874639768
40
0.45351283708057
40
0.457088761962175
40
0.458876724402977
40
0.460664686843779
40
0.462452649284581
40
0.464240611725383
40
0.466028574166185
40
0.467816536606988
40
0.46960449904779
40
0.471392461488592
40
0.473180423929394
40
0.474968386370196
40
0.476756348810998
40
0.4785443112518
40
0.480332273692602
40
0.482120236133404
40
0.483908198574207
40
0.485696161015009
40
0.487484123455811
40
0.489272085896613
40
0.491060048337415
40
0.492848010778217
40
0.494635973219019
40
0.496423935659822
40
0.498211898100624
40
0.499999860541426
40
0.501787822982228
40
0.50357578542303
40
0.505363747863832
40
0.507151710304634
40
0.508939672745437
40
0.510727635186239
40
0.512515597627041
40
0.514303560067843
40
0.516091522508645
40
0.517879484949447
40
0.519667447390249
40
0.521455409831052
40
0.523243372271854
40
0.525031334712656
40
0.526819297153458
40
0.52860725959426
40
0.530395222035062
40
0.532183184475864
40
0.533971146916666
40
0.535759109357469
40
0.537547071798271
40
0.539335034239073
40
0.541122996679875
40
0.542910959120677
40
0.546486884002281
40
0.548274846443084
40
0.550062808883886
40
0.551850771324688
40
0.55363873376549
40
0.557214658647094
40
0.560790583528698
40
0.562578545969501
40
0.564366508410303
40
0.566154470851105
40
0.567942433291907
40
0.571518358173511
40
0.575094283055116
40
0.57867020793672
40
0.582246132818324
40
0.585822057699928
40
0.589397982581533
40
0.592973907463137
40
0.596549832344741
40
0.600125757226346
40
0.60370168210795
40
0.607277606989554
40
0.610853531871158
40
0.614429456752763
40
0.618005381634367
40
0.621581306515971
40
0.625157231397575
40
0.62873315627918
40
0.635885006042388
40
0.643036855805597
40
0.650188705568805
40
0.65376463045041
40
0.657340555332014
40
0.660916480213618
40
0.664492405095222
40
0.668068329976827
40
0.671644254858431
40
0.675220179740035
40
0.678796104621639
40
0.685947954384848
40
0.689523879266452
40
0.693099804148057
40
0.696675729029661
40
0.700251653911265
40
0.703827578792869
40
0.707403503674474
40
0.710979428556078
40
0.714555353437682
40
0.718131278319286
40
0.721707203200891
40
0.725283128082495
40
0.728859052964099
40
0.736010902727308
40
0.739586827608912
40
0.743162752490516
40
0.750314602253725
40
0.753890527135329
40
0.757466452016934
40
0.761042376898538
40
0.764618301780142
40
0.77177015154335
40
0.775346076424955
40
0.778922001306559
40
0.782497926188163
40
0.786073851069768
40
0.793225700832976
40
0.796801625714581
40
0.800377550596185
40
0.803953475477789
40
0.807529400359393
40
0.814681250122602
40
0.818257175004206
40
0.82183309988581
40
0.825409024767415
40
0.828984949649019
40
0.836136799412227
40
0.839712724293832
40
0.843288649175436
40
0.84686457405704
40
0.850440498938644
40
0.857592348701853
40
0.861168273583457
40
0.864744198465062
40
0.868320123346666
40
0.87189604822827
40
0.875471973109874
40
0.879047897991479
40
0.882623822873083
40
0.886199747754687
40
0.889775672636292
40
0.893351597517896
40
0.8969275223995
40
0.900503447281104
40
0.904079372162709
40
0.907655297044313
40
0.914807146807521
40
0.918383071689126
40
0.92195899657073
40
0.925534921452334
40
0.929110846333939
40
0.932686771215543
40
0.936262696097147
40
0.943414545860356
40
0.94699047074196
40
0.950566395623564
40
0.954142320505168
40
0.957718245386773
40
0.964870095149981
40
0.968446020031585
40
0.97202194491319
40
0.975597869794794
40
0.979173794676398
40
0.982749719558003
40
0.986325644439607
40
0.989901569321211
40
0.993477494202815
40
0.99705341908442
40
1
40
1
40
1
40
1
41
1
10
-2.19999999999999
20
-22.0135196651619
30
0
41
1
10
-2.19999999999996
20
-22.0117276005433
30
0
41
1
10
-2.19999999999996
20
-22.0069596843139
30
0
41
1
10
-2.19999999999999
20
-21.9968726461305
30
0
41
1
10
-2.19999999999996
20
-21.9830583750198
30
0
41
1
10
-2.19999999999987
20
-21.9661971621578
30
0
41
1
10
-2.19999999999987
20
-21.9463373083127
30
0
41
1
10
-2.19999999999996
20
-21.9159230944433
30
0
41
1
10
-2.1999999999999
20
-21.870633664349
30
0
41
1
10
-2.20000000000007
20
-21.8049949078792
30
0
41
1
10
-2.19999999999996
20
-21.7411390111089
30
0
41
1
10
-2.19999999999999
20
-21.6847072709128
30
0
41
1
10
-2.19999999999993
20
-21.6397397481888
30
0
41
1
10
-2.19999999999987
20
-21.5921615264853
30
0
41
1
10
-2.19999999999993
20
-21.5252891523049
30
0
41
1
10
-2.19999999999996
20
-21.4533087531771
30
0
41
1
10
-2.19999999999982
20
-21.3763547276269
30
0
41
1
10
-2.19999999999996
20
-21.3161703964091
30
0
41
1
10
-2.19999999999996
20
-21.2535469243879
30
0
41
1
10
-2.19999999999985
20
-21.1885090229234
30
0
41
1
10
-2.20000000000002
20
-21.121080083473
30
0
41
1
10
-2.19999999999993
20
-21.0280237507364
30
0
41
1
10
-2.1999999999999
20
-20.9302657445266
30
0
41
1
10
-2.19999999999985
20
-20.8279188369073
30
0
41
1
10
-2.1999999999999
20
-20.7488739070252
30
0
41
1
10
-2.19999999999996
20
-20.6675681841825
30
0
41
1
10
-2.1999999999999
20
-20.5840212184217
30
0
41
1
10
-2.19999999999982
20
-20.4982502525025
30
0
41
1
10
-2.19999999999985
20
-20.4102747128949
30
0
41
1
10
-2.1999999999999
20
-20.3201119071543
30
0
41
1
10
-2.19999999999987
20
-20.2277776663919
30
0
41
1
10
-2.19999999999993
20
-20.1332899477274
30
0
41
1
10
-2.1999999999999
20
-20.0366642357895
30
0
41
1
10
-2.19999999999996
20
-19.9379151599299
30
0
41
1
10
-2.1999999999999
20
-19.8370591957147
30
0
41
1
10
-2.19999999999985
20
-19.7341102362336
30
0
41
1
10
-2.19999999999985
20
-19.5940778412012
30
0
41
1
10
-2.19999999999987
20
-19.4499005336558
30
0
41
1
10
-2.19999999999996
20
-19.3016622310533
30
0
41
1
10
-2.19999999999993
20
-19.2073184270571
30
0
41
1
10
-2.19999999999993
20
-19.1308417758755
30
0
41
1
10
-2.19999999999996
20
-19.0536957086557
30
0
41
1
10
-2.19999999999999
20
-18.9169360704623
30
0
41
1
10
-2.19999999999985
20
-18.7566457946411
30
0
41
1
10
-2.19999999999987
20
-18.5924362845557
30
0
41
1
10
-2.19999999999996
20
-18.4673177976698
30
0
41
1
10
-2.1999999999999
20
-18.3402521463351
30
0
41
1
10
-2.1999999999999
20
-18.1682545122203
30
0
41
1
10
-2.19999999999999
20
-17.9923842356821
30
0
41
1
10
-2.20000000000002
20
-17.8127164551587
30
0
41
1
10
-2.19999999999985
20
-17.6988333809735
30
0
41
1
10
-2.19999999999985
20
-17.606787767091
30
0
41
1
10
-2.20000000000002
20
-17.5141131161323
30
0
41
1
10
-2.1999999999999
20
-17.3502824417036
30
0
41
1
10
-2.19999999999999
20
-17.1592829447589
30
0
41
1
10
-2.20000000000002
20
-16.9645867974535
30
0
41
1
10
-2.20000000000007
20
-16.8167088060476
30
0
41
1
10
-2.1999999999999
20
-16.6669871400996
30
0
41
1
10
-2.19999999999996
20
-16.4649164953067
30
0
41
1
10
-2.1999999999999
20
-16.2591646002876
30
0
41
1
10
-2.19999999999993
20
-16.0498028317159
30
0
41
1
10
-2.20000000000002
20
-15.9174340084588
30
0
41
1
10
-2.19999999999999
20
-15.8106442286411
30
0
41
1
10
-2.19999999999987
20
-15.7032538676567
30
0
41
1
10
-2.1999999999999
20
-15.567882396309
30
0
41
1
10
-2.19999999999987
20
-15.4036502143979
30
0
41
1
10
-2.20000000000007
20
-15.2652965264295
30
0
41
1
10
-2.19999999999987
20
-15.1537302031574
30
0
41
1
10
-2.19999999999987
20
-15.0415708470876
30
0
41
1
10
-2.19999999999999
20
-14.90025131083
30
0
41
1
10
-2.19999999999999
20
-14.7289012367181
30
0
41
1
10
-2.20000000000002
20
-14.5557843226631
30
0
41
1
10
-2.1999999999999
20
-14.3809062427341
30
0
41
1
10
-2.19999999999987
20
-14.2042700822291
30
0
41
1
10
-2.19999999999996
20
-14.0258803741545
30
0
41
1
10
-2.19999999999985
20
-13.8457420253845
30
0
41
1
10
-2.19999999999993
20
-13.6638579861817
30
0
41
1
10
-2.19999999999999
20
-13.4802328481713
30
0
41
1
10
-2.19999999999996
20
-13.2948705974071
30
0
41
1
10
-2.19999999999985
20
-13.1077737485312
30
0
41
1
10
-2.19999999999999
20
-12.9189467805057
30
0
41
1
10
-2.19999999999985
20
-12.728392778749
30
0
41
1
10
-2.19999999999999
20
-12.5361142588231
30
0
41
1
10
-2.19999999999996
20
-12.2774598592136
30
0
41
1
10
-2.20000000000002
20
-12.0153352592313
30
0
41
1
10
-2.19999999999999
20
-11.7498207258851
30
0
41
1
10
-2.19999999999985
20
-11.5489655826482
30
0
41
1
10
-2.19999999999993
20
-11.3464032807099
30
0
41
1
10
-2.20000000000005
20
-11.1421359853757
30
0
41
1
10
-2.19999999999996
20
-10.9361655879759
30
0
41
1
10
-2.19999999999996
20
-10.7284950970913
30
0
41
1
10
-2.19999999999996
20
-10.5191258614377
30
0
41
1
10
-2.19999999999993
20
-10.2377184130835
30
0
41
1
10
-2.20000000000002
20
-9.88169304970978
30
0
41
1
10
-2.19999999999987
20
-9.44771865839311
30
0
41
1
10
-2.19999999999987
20
-9.08043848955603
30
0
41
1
10
-2.19999999999999
20
-8.78327689677769
30
0
41
1
10
-2.20000000000002
20
-8.55871419535615
30
0
41
1
10
-2.19999999999999
20
-8.33247380011298
30
0
41
1
10
-2.19999999999993
20
-8.104558527015
30
0
41
1
10
-2.19999999999985
20
-7.87497060194639
30
0
41
1
10
-2.20000000000002
20
-7.64371283673114
30
0
41
1
10
-2.19999999999985
20
-7.41078884464238
30
0
41
1
10
-2.20000000000007
20
-7.17620220160023
30
0
41
1
10
-2.19999999999987
20
-6.93995692090419
30
0
41
1
10
-2.19999999999987
20
-6.70205758660666
30
0
41
1
10
-2.19999999999985
20
-6.46250918569615
30
0
41
1
10
-2.20000000000005
20
-6.22131784000112
30
0
41
1
10
-2.19999999999985
20
-5.97849049576266
30
0
41
1
10
-2.2000000000001
20
-5.73403521575818
30
0
41
1
10
-2.19999999999999
20
-5.48796107357251
30
0
41
1
10
-2.19999999999999
20
-5.24027911118975
30
0
41
1
10
-2.20000000000002
20
-5.03253661023481
30
0
41
1
10
-2.19999999999996
20
-4.86557359122415
30
0
41
1
10
-2.19999999999999
20
-4.73994908127315
30
0
41
1
10
-2.20000000000002
20
-4.61393371339011
30
0
41
1
10
-2.20000000000002
20
-4.44540774959782
30
0
41
1
10
-2.19999999999996
20
-4.23375652596857
30
0
41
1
10
-2.19999999999996
20
-4.02083961713777
30
0
41
1
10
-2.2000000000001
20
-3.84978439152408
30
0
41
1
10
-2.19999999999993
20
-3.72111342731066
30
0
41
1
10
-2.19999999999996
20
-3.59207749308618
30
0
41
1
10
-2.20000000000002
20
-3.41956369464529
30
0
41
1
10
-2.20000000000002
20
-3.24629481959218
30
0
41
1
10
-2.2000000000001
20
-3.07238361507379
30
0
41
1
10
-2.20000000000007
20
-2.94160046512795
30
0
41
1
10
-2.20000000000002
20
-2.81048647644622
30
0
41
1
10
-2.20000000000002
20
-2.67904892732176
30
0
41
1
10
-2.19999999999987
20
-2.54729562722176
30
0
41
1
10
-2.20000000000002
20
-2.41523551097481
30
0
41
1
10
-2.20000000000005
20
-2.28287740252153
30
0
41
1
10
-2.19999999999985
20
-2.15023166945255
30
0
41
1
10
-2.19999999999993
20
-2.01730873413067
30
0
41
1
10
-2.1999999999999
20
-1.88412021099788
30
0
41
1
10
-2.19999999999996
20
-1.75067841854346
30
0
41
1
10
-2.19999999999999
20
-1.61699634722069
30
0
41
1
10
-2.1999999999999
20
-1.48308821885627
30
0
41
1
10
-2.19999999999993
20
-1.34896859254374
30
0
41
1
10
-2.20000000000002
20
-1.21465350310532
30
0
41
1
10
-2.19999999999987
20
-1.0801592162689
30
0
41
1
10
-2.2000000000001
20
-0.94550344266267
30
0
41
1
10
-2.1999999999999
20
-0.810704113119073
30
0
41
1
10
-2.19999999999996
20
-0.675780421912265
30
0
41
1
10
-2.20000000000007
20
-0.540751787789503
30
0
41
1
10
-2.20000000000005
20
-0.405638599098893
30
0
41
1
10
-2.19999999999985
20
-0.270461428271403
30
0
41
1
10
-2.19999999999987
20
-0.135241462279794
30
0
41
1
10
-2.20000000000005
20
5.3655356E-09
30
0
41
1
10
-2.20000000000002
20
0.135241472590053
30
0
41
1
10
-2.19999999999987
20
0.270461437853953
30
0
41
1
10
-2.20000000000002
20
0.405638608907935
30
0
41
1
10
-2.19999999999999
20
0.540751798686557
30
0
41
1
10
-2.20000000000002
20
0.675780432522203
30
0
41
1
10
-2.19999999999993
20
0.810704122044996
30
0
41
1
10
-2.20000000000007
20
0.945503451789591
30
0
41
1
10
-2.20000000000005
20
1.080159227514
30
0
41
1
10
-2.19999999999996
20
1.21465351395386
30
0
41
1
10
-2.20000000000005
20
1.34896860046504
30
0
41
1
10
-2.20000000000007
20
1.48308822685573
30
0
41
1
10
-2.20000000000002
20
1.61699635855231
30
0
41
1
10
-2.19999999999985
20
1.75067843002714
30
0
41
1
10
-2.19999999999999
20
1.88412021847043
30
0
41
1
10
-2.19999999999987
20
2.01730874020458
30
0
41
1
10
-2.19999999999987
20
2.15023167925051
30
0
41
1
10
-2.2000000000001
20
2.28287741514009
30
0
41
1
10
-2.19999999999985
20
2.41523552035437
30
0
41
1
10
-2.20000000000007
20
2.54729563151932
30
0
41
1
10
-2.1999999999999
20
2.67904893291686
30
0
41
1
10
-2.19999999999993
20
2.81048648769618
30
0
41
1
10
-2.19999999999996
20
2.94160047796316
30
0
41
1
10
-2.19999999999999
20
3.07238362297503
30
0
41
1
10
-2.19999999999985
20
3.24629481975686
30
0
41
1
10
-2.19999999999999
20
3.4195637043787
30
0
41
1
10
-2.20000000000002
20
3.59207750684848
30
0
41
1
10
-2.19999999999999
20
3.72111343644579
30
0
41
1
10
-2.20000000000002
20
3.84978439330683
30
0
41
1
10
-2.19999999999999
20
4.02083961748903
30
0
41
1
10
-2.20000000000002
20
4.23375654375479
30
0
41
1
10
-2.1999999999999
20
4.44540775759583
30
0
41
1
10
-2.19999999999999
20
4.61393371339878
30
0
41
1
10
-2.19999999999993
20
4.73994907984502
30
0
41
1
10
-2.20000000000002
20
4.86557359653665
30
0
41
1
10
-2.1999999999999
20
5.03253662624783
30
0
41
1
10
-2.19999999999985
20
5.24027911954084
30
0
41
1
10
-2.19999999999987
20
5.48796106514419
30
0
41
1
10
-2.1999999999999
20
5.73403522651995
30
0
41
1
10
-2.19999999999996
20
5.97849051253726
30
0
41
1
10
-2.20000000000005
20
6.22131783489107
30
0
41
1
10
-2.19999999999996
20
6.46250917346819
30
0
41
1
10
-2.19999999999999
20
6.7020575688029
30
0
41
1
10
-2.20000000000002
20
6.93995689241027
30
0
41
1
10
-2.1999999999999
20
7.17620223308299
30
0
41
1
10
-2.20000000000005
20
7.41078904293687
30
0
41
1
10
-2.19999999999993
20
7.64371312168018
30
0
41
1
10
-2.1999999999999
20
7.87497052861917
30
0
41
1
10
-2.1999999999999
20
8.10455846042149
30
0
41
1
10
-2.1999999999999
20
8.33247384441506
30
0
41
1
10
-2.20000000000002
20
8.55871423477035
30
0
41
1
10
-2.19999999999996
20
8.783276910674
30
0
41
1
10
-2.19999999999999
20
9.08043846702651
30
0
41
1
10
-2.1999999999999
20
9.44771866001568
30
0
41
1
10
-2.19999999999999
20
9.88169305528197
30
0
41
1
10
-2.1999999999999
20
10.2377183913447
30
0
41
1
10
-2.19999999999993
20
10.5191258633122
30
0
41
1
10
-2.1999999999999
20
10.7284951094206
30
0
41
1
10
-2.19999999999996
20
10.9361655882296
30
0
41
1
10
-2.19999999999999
20
11.1421359694818
30
0
41
1
10
-2.2000000000001
20
11.3464032666246
30
0
41
1
10
-2.20000000000013
20
11.5489655840495
30
0
41
1
10
-2.20000000000005
20
11.7498207382014
30
0
41
1
10
-2.19999999999996
20
12.015335258712
30
0
41
1
10
-2.19999999999985
20
12.277459839655
30
0
41
1
10
-2.19999999999999
20
12.5361142561418
30
0
41
1
10
-2.19999999999996
20
12.7283927892775
30
0
41
1
10
-2.1999999999999
20
12.9189467887917
30
0
41
1
10
-2.1999999999999
20
13.1077737445537
30
0
41
1
10
-2.19999999999987
20
13.2948705838035
30
0
41
1
10
-2.19999999999987
20
13.4802328404439
30
0
41
1
10
-2.19999999999987
20
13.6638579908946
30
0
41
1
10
-2.19999999999987
20
13.8457420356781
30
0
41
1
10
-2.19999999999996
20
14.0258803815961
30
0
41
1
10
-2.20000000000005
20
14.2042701267484
30
0
41
1
10
-2.19999999999993
20
14.3809064511142
30
0
41
1
10
-2.19999999999987
20
14.61406817927
30
0
41
1
10
-2.20000000000002
20
14.8437340716546
30
0
41
1
10
-2.20000000000005
20
15.0698289387071
30
0
41
1
10
-2.20000000000002
20
15.2935559429894
30
0
41
1
10
-2.19999999999999
20
15.513744330902
30
0
41
1
10
-2.20000000000007
20
15.7303232767806
30
0
41
1
10
-2.20000000000005
20
15.8909649274654
30
0
41
1
10
-2.19999999999987
20
16.0498023362736
30
0
41
1
10
-2.19999999999996
20
16.2591647559547
30
0
41
1
10
-2.19999999999996
20
16.4649171124643
30
0
41
1
10
-2.19999999999996
20
16.666987304737
30
0
41
1
10
-2.20000000000005
20
16.8167085043734
30
0
41
1
10
-2.20000000000002
20
16.9645862898265
30
0
41
1
10
-2.20000000000002
20
17.1592828976247
30
0
41
1
10
-2.1999999999999
20
17.3502835148979
30
0
41
1
10
-2.19999999999993
20
17.5375147595292
30
0
41
1
10
-2.19999999999996
20
17.676060438985
30
0
41
1
10
-2.19999999999987
20
17.8127154575359
30
0
41
1
10
-2.19999999999999
20
17.9923842415009
30
0
41
1
10
-2.20000000000007
20
18.1682547291306
30
0
41
1
10
-2.19999999999999
20
18.3402522143585
30
0
41
1
10
-2.19999999999996
20
18.4673177032107
30
0
41
1
10
-2.19999999999987
20
18.5924361073221
30
0
41
1
10
-2.20000000000007
20
18.7566457425987
30
0
41
1
10
-2.20000000000002
20
18.9169371900016
30
0
41
1
10
-2.2000000000001
20
19.0732305996174
30
0
41
1
10
-2.19999999999993
20
19.1884526890887
30
0
41
1
10
-2.19999999999987
20
19.3016611759423
30
0
41
1
10
-2.20000000000002
20
19.449900539196
30
0
41
1
10
-2.19999999999996
20
19.5940785255289
30
0
41
1
10
-2.19999999999985
20
19.7341104289282
30
0
41
1
10
-2.1999999999999
20
19.8370589164793
30
0
41
1
10
-2.19999999999999
20
19.9379146863564
30
0
41
1
10
-2.20000000000002
20
20.0366640227899
30
0
41
1
10
-2.20000000000002
20
20.1332899031451
30
0
41
1
10
-2.19999999999999
20
20.2277776697999
30
0
41
1
10
-2.20000000000005
20
20.3201119082528
30
0
41
1
10
-2.19999999999996
20
20.4102747220554
30
0
41
1
10
-2.19999999999996
20
20.4982502752196
30
0
41
1
10
-2.20000000000002
20
20.584021247456
30
0
41
1
10
-2.19999999999985
20
20.6675682022903
30
0
41
1
10
-2.20000000000002
20
20.7488739108727
30
0
41
1
10
-2.19999999999993
20
20.82791883753
30
0
41
1
10
-2.19999999999996
20
20.9302657657864
30
0
41
1
10
-2.19999999999993
20
21.0280237880879
30
0
41
1
10
-2.20000000000002
20
21.1210800961781
30
0
41
1
10
-2.19999999999985
20
21.1885090211437
30
0
41
1
10
-2.19999999999993
20
21.2535469320083
30
0
41
1
10
-2.19999999999987
20
21.3161704250344
30
0
41
1
10
-2.20000000000005
20
21.3763547664482
30
0
41
1
10
-2.19999999999996
20
21.4533087676779
30
0
41
1
10
-2.20000000000002
20
21.5252891448141
30
0
41
1
10
-2.1999999999999
20
21.5921615531195
30
0
41
1
10
-2.1999999999999
20
21.6397397916631
30
0
41
1
10
-2.20000000000002
20
21.6847072964974
30
0
41
1
10
-2.20000000000013
20
21.7411389990572
30
0
41
1
10
-2.19999999999993
20
21.7922265879072
30
0
41
1
10
-2.20000000000002
20
21.8378144981283
30
0
41
1
10
-2.20000000000002
20
21.8692221254414
30
0
41
1
10
-2.19999999999993
20
21.8978063777089
30
0
41
1
10
-2.19999999999999
20
21.9235254752891
30
0
41
1
10
-2.19999999999996
20
21.9463373508774
30
0
41
1
10
-2.19999999999999
20
21.9661972037607
30
0
41
1
10
-2.19999999999999
20
21.9830583809744
30
0
41
1
10
-2.19999999999993
20
21.9968726399857
30
0
41
1
10
-2.20000000000005
20
22.0069599987241
30
0
41
1
10
-2.20000000000002
20
22.0117281277142
30
0
41
1
10
-2.20000000000002
20
22.0135203352876
30
0
0
SPLINE
5
141
100
AcDbEntity
8
SK1
62
256
6
ByLayer
370
18
48
1
60
0
100
AcDbSpline
70
4
71
3
72
299
73
295
40
0
40
0
40
0
40
0
40
0.0033235894769054
40
0.0068461132306259
40
0.0103686369843464
40
0.0138911607380669
40
0.0174136844917874
40
0.0209362082455079
40
0.0244587319992284
40
0.0279812557529489
40
0.0350263032603899
40
0.0420713507678309
40
0.0491163982752719
40
0.0526389220289924
40
0.0561614457827129
40
0.0596839695364334
40
0.0632064932901539
40
0.0702515407975949
40
0.0737740645513155
40
0.0772965883050359
40
0.0808191120587564
40
0.0843416358124769
40
0.0878641595661974
40
0.091386683319918
40
0.098431730827359
40
0.101954254581079
40
0.1054767783348
40
0.108999302088521
40
0.112521825842241
40
0.116044349595961
40
0.119566873349682
40
0.123089397103402
40
0.126611920857123
40
0.130134444610844
40
0.133656968364564
40
0.137179492118285
40
0.140702015872005
40
0.144224539625726
40
0.147747063379446
40
0.154792110886887
40
0.158314634640607
40
0.161837158394328
40
0.163598420271188
40
0.165359682148048
40
0.168882205901769
40
0.17592725340921
40
0.179449777162931
40
0.182972300916651
40
0.186494824670372
40
0.190017348424092
40
0.197062395931533
40
0.200584919685254
40
0.204107443438974
40
0.205868705315834
40
0.207629967192695
40
0.211152490946415
40
0.218197538453856
40
0.221720062207577
40
0.225242585961297
40
0.228765109715018
40
0.232287633468738
40
0.239332680976179
40
0.2428552047299
40
0.24637772848362
40
0.24813899036048
40
0.249900252237341
40
0.253422775991061
40
0.256945299744782
40
0.260467823498502
40
0.262229085375362
40
0.263990347252223
40
0.267512871005943
40
0.271035394759664
40
0.274557918513384
40
0.278080442267105
40
0.281602966020825
40
0.285125489774546
40
0.288648013528266
40
0.292170537281987
40
0.295693061035707
40
0.299215584789428
40
0.302738108543148
40
0.306260632296869
40
0.309783156050589
40
0.31330567980431
40
0.31682820355803
40
0.323873251065471
40
0.327395774819192
40
0.330918298572912
40
0.334440822326633
40
0.337963346080353
40
0.341485869834074
40
0.345008393587794
40
0.348530917341515
40
0.352053441095235
40
0.359098488602676
40
0.366143536110117
40
0.373188583617558
40
0.376711107371279
40
0.380233631124999
40
0.38375615487872
40
0.38727867863244
40
0.390801202386161
40
0.394323726139881
40
0.397846249893602
40
0.401368773647322
40
0.404891297401043
40
0.408413821154763
40
0.411936344908484
40
0.415458868662204
40
0.418981392415925
40
0.422503916169645
40
0.426026439923366
40
0.429548963677086
40
0.433071487430807
40
0.434832749307667
40
0.436594011184527
40
0.438355273061388
40
0.440116534938248
40
0.443639058691968
40
0.447161582445689
40
0.448922844322549
40
0.450684106199409
40
0.45244536807627
40
0.45420662995313
40
0.45772915370685
40
0.459490415583711
40
0.461251677460571
40
0.463012939337431
40
0.464774201214291
40
0.466535463091152
40
0.468296724968012
40
0.470057986844872
40
0.471819248721732
40
0.473580510598593
40
0.475341772475453
40
0.477103034352313
40
0.478864296229173
40
0.480625558106034
40
0.482386819982894
40
0.484148081859754
40
0.485909343736614
40
0.487670605613475
40
0.489431867490335
40
0.491193129367195
40
0.492954391244055
40
0.494715653120916
40
0.496476914997776
40
0.498238176874636
40
0.499999438751496
40
0.501760700628357
40
0.503521962505217
40
0.505283224382077
40
0.507044486258937
40
0.508805748135798
40
0.510567010012658
40
0.512328271889518
40
0.514089533766378
40
0.515850795643239
40
0.517612057520099
40
0.519373319396959
40
0.521134581273819
40
0.52289584315068
40
0.52465710502754
40
0.5264183669044
40
0.52817962878126
40
0.529940890658121
40
0.531702152534981
40
0.533463414411841
40
0.535224676288701
40
0.536985938165562
40
0.538747200042422
40
0.540508461919282
40
0.542269723796142
40
0.545792247549863
40
0.547553509426723
40
0.549314771303584
40
0.551076033180444
40
0.552837295057304
40
0.556359818811024
40
0.559882342564745
40
0.561643604441605
40
0.563404866318465
40
0.565166128195326
40
0.566927390072186
40
0.570449913825906
40
0.573972437579627
40
0.577494961333347
40
0.581017485087068
40
0.584540008840788
40
0.588062532594509
40
0.591585056348229
40
0.59510758010195
40
0.598630103855671
40
0.602152627609391
40
0.605675151363111
40
0.609197675116832
40
0.612720198870553
40
0.616242722624273
40
0.619765246377993
40
0.623287770131714
40
0.626810293885435
40
0.633855341392875
40
0.640900388900317
40
0.647945436407758
40
0.651467960161478
40
0.654990483915199
40
0.658513007668919
40
0.662035531422639
40
0.66555805517636
40
0.669080578930081
40
0.672603102683801
40
0.676125626437522
40
0.683170673944963
40
0.686693197698683
40
0.690215721452404
40
0.693738245206124
40
0.697260768959845
40
0.700783292713565
40
0.704305816467286
40
0.707828340221006
40
0.711350863974727
40
0.714873387728447
40
0.718395911482168
40
0.721918435235888
40
0.725440958989609
40
0.73248600649705
40
0.73600853025077
40
0.739531054004491
40
0.746576101511932
40
0.750098625265652
40
0.753621149019373
40
0.757143672773093
40
0.760666196526814
40
0.767711244034255
40
0.771233767787975
40
0.774756291541696
40
0.778278815295416
40
0.781801339049137
40
0.788846386556578
40
0.792368910310298
40
0.795891434064019
40
0.799413957817739
40
0.80293648157146
40
0.809981529078901
40
0.813504052832621
40
0.817026576586342
40
0.820549100340062
40
0.824071624093783
40
0.831116671601224
40
0.834639195354944
40
0.838161719108665
40
0.841684242862385
40
0.845206766616106
40
0.852251814123547
40
0.855774337877267
40
0.859296861630988
40
0.862819385384708
40
0.866341909138429
40
0.869864432892149
40
0.87338695664587
40
0.87690948039959
40
0.880432004153311
40
0.883954527907031
40
0.887477051660752
40
0.890999575414472
40
0.894522099168193
40
0.898044622921913
40
0.901567146675634
40
0.908612194183075
40
0.912134717936795
40
0.915657241690516
40
0.919179765444236
40
0.922702289197957
40
0.926224812951677
40
0.929747336705398
40
0.936792384212839
40
0.940314907966559
40
0.94383743172028
40
0.947359955474
40
0.950882479227721
40
0.957927526735162
40
0.961450050488882
40
0.964972574242603
40
0.968495097996323
40
0.972017621750044
40
0.975540145503764
40
0.979062669257485
40
0.982585193011205
40
0.986107716764926
40
0.989630240518646
40
0.993152764272367
40
0.996675288026087
40
1
40
1
40
1
40
1
41
1
10
-1.99503997793926
20
-21.8251642786346
30
0
41
1
10
-1.99503997793926
20
-21.8252834861673
30
0
41
1
10
-1.99503997793928
20
-21.824522337312
30
0
41
1
10
-1.99503997793914
20
-21.8202836860758
30
0
41
1
10
-1.9950399779392
20
-21.8127830441421
30
0
41
1
10
-1.99503997793928
20
-21.8021565364934
30
0
41
1
10
-1.9950399779392
20
-21.7884557330328
30
0
41
1
10
-1.99503997793914
20
-21.7717308612526
30
0
41
1
10
-1.99503997793917
20
-21.7520291985819
30
0
41
1
10
-1.99503997793937
20
-21.7218385059106
30
0
41
1
10
-1.9950399779392
20
-21.6769140218915
30
0
41
1
10
-1.9950399779392
20
-21.6117670092986
30
0
41
1
10
-1.99503997793923
20
-21.5484022523454
30
0
41
1
10
-1.99503997793923
20
-21.4923512863895
30
0
41
1
10
-1.99503997793928
20
-21.4477036012609
30
0
41
1
10
-1.9950399779392
20
-21.4004602751572
30
0
41
1
10
-1.99503997793926
20
-21.3340243579833
30
0
41
1
10
-1.9950399779392
20
-21.2626002065085
30
0
41
1
10
-1.99503997793917
20
-21.1861355372814
30
0
41
1
10
-1.99503997793914
20
-21.126355615456
30
0
41
1
10
-1.99503997793928
20
-21.0641493981766
30
0
41
1
10
-1.99503997793928
20
-20.9995415089612
30
0
41
1
10
-1.9950399779392
20
-20.9325549476398
30
0
41
1
10
-1.99503997793931
20
-20.8400664063016
30
0
41
1
10
-1.99503997793928
20
-20.7430171949632
30
0
41
1
10
-1.99503997793937
20
-20.6412830606923
30
0
41
1
10
-1.99503997793923
20
-20.5627395849404
30
0
41
1
10
-1.99503997793914
20
-20.4819464711493
30
0
41
1
10
-1.9950399779392
20
-20.3989234016943
30
0
41
1
10
-1.99503997793928
20
-20.3136873945744
30
0
41
1
10
-1.99503997793937
20
-20.2262576082901
30
0
41
1
10
-1.9950399779394
20
-20.136651569995
30
0
41
1
10
-1.99503997793937
20
-20.0448848271876
30
0
41
1
10
-1.9950399779392
20
-19.9509751576252
30
0
41
1
10
-1.99503997793914
20
-19.8549383078337
30
0
41
1
10
-1.99503997793917
20
-19.7567886026657
30
0
41
1
10
-1.99503997793931
20
-19.6565424313981
30
0
41
1
10
-1.99503997793931
20
-19.5542139601406
30
0
41
1
10
-1.99503997793928
20
-19.4149698127943
30
0
41
1
10
-1.99503997793928
20
-19.2717622924356
30
0
41
1
10
-1.99503997793917
20
-19.1243520606764
30
0
41
1
10
-1.99503997793928
20
-19.0305969699326
30
0
41
1
10
-1.99503997793937
20
-18.9545457436666
30
0
41
1
10
-1.99503997793931
20
-18.877828345234
30
0
41
1
10
-1.99503997793923
20
-18.7418485706131
30
0
41
1
10
-1.99503997793923
20
-18.5826225030747
30
0
41
1
10
-1.9950399779392
20
-18.4193199892891
30
0
41
1
10
-1.99503997793937
20
-18.2949375082746
30
0
41
1
10
-1.9950399779392
20
-18.1686188381619
30
0
41
1
10
-1.99503997793923
20
-17.9975681157064
30
0
41
1
10
-1.9950399779394
20
-17.8228588844704
30
0
41
1
10
-1.99503997793931
20
-17.6441795672679
30
0
41
1
10
-1.99503997793926
20
-17.5309981410348
30
0
41
1
10
-1.99503997793937
20
-17.4394590341184
30
0
41
1
10
-1.99503997793931
20
-17.3472945498448
30
0
41
1
10
-1.9950399779394
20
-17.1843913435574
30
0
41
1
10
-1.99503997793914
20
-16.9946548235122
30
0
41
1
10
-1.99503997793931
20
-16.8010333841432
30
0
41
1
10
-1.9950399779392
20
-16.654027023888
30
0
41
1
10
-1.99503997793914
20
-16.5051894370887
30
0
41
1
10
-1.99503997793923
20
-16.3042392155796
30
0
41
1
10
-1.99503997793926
20
-16.0998599858609
30
0
41
1
10
-1.99503997793937
20
-15.8916662065005
30
0
41
1
10
-1.99503997793926
20
-15.7601264684355
30
0
41
1
10
-1.99503997793928
20
-15.6539352235828
30
0
41
1
10
-1.99503997793928
20
-15.5471478788444
30
0
41
1
10
-1.99503997793934
20
-15.4126292313156
30
0
41
1
10
-1.9950399779392
20
-15.2493853238091
30
0
41
1
10
-1.9950399779392
20
-15.1119089381336
30
0
41
1
10
-1.99503997793923
20
-15.0009760777421
30
0
41
1
10
-1.99503997793923
20
-14.8894548819647
30
0
41
1
10
-1.99503997793934
20
-14.7490386600654
30
0
41
1
10
-1.99503997793937
20
-14.578735707937
30
0
41
1
10
-1.99503997793914
20
-14.4066808882549
30
0
41
1
10
-1.99503997793931
20
-14.2328806917248
30
0
41
1
10
-1.99503997793923
20
-14.0573388809363
30
0
41
1
10
-1.99503997793914
20
-13.8800596938692
30
0
41
1
10
-1.99503997793923
20
-13.7010488098077
30
0
41
1
10
-1.99503997793937
20
-13.5203096364963
30
0
41
1
10
-1.99503997793934
20
-13.3378467409434
30
0
41
1
10
-1.99503997793928
20
-13.1536651576331
30
0
41
1
10
-1.99503997793937
20
-12.9677676643549
30
0
41
1
10
-1.99503997793928
20
-12.780158918536
30
0
41
1
10
-1.99503997793931
20
-12.5908431445086
30
0
41
1
10
-1.99503997793943
20
-12.3998230002592
30
0
41
1
10
-1.99503997793926
20
-12.1427688173785
30
0
41
1
10
-1.9950399779392
20
-11.8826118718573
30
0
41
1
10
-1.99503997793926
20
-11.6187779306707
30
0
41
1
10
-1.9950399779392
20
-11.4192921752591
30
0
41
1
10
-1.99503997793937
20
-11.218123373303
30
0
41
1
10
-1.9950399779392
20
-11.0152750188843
30
0
41
1
10
-1.99503997793914
20
-10.8107494713071
30
0
41
1
10
-1.99503997793937
20
-10.6045508021231
30
0
41
1
10
-1.99503997793928
20
-10.3966814407573
30
0
41
1
10
-1.99503997793931
20
-10.1171870033238
30
0
41
1
10
-1.99503997793926
20
-9.7639216611795
30
0
41
1
10
-1.99503997793928
20
-9.33322608836647
30
0
41
1
10
-1.99503997793917
20
-8.96893242084855
30
0
41
1
10
-1.99503997793934
20
-8.67397578579315
30
0
41
1
10
-1.99503997793931
20
-8.45121977200657
30
0
41
1
10
-1.99503997793934
20
-8.22682776167491
30
0
41
1
10
-1.99503997793917
20
-8.00080467620245
30
0
41
1
10
-1.99503997793917
20
-7.77315513008728
30
0
41
1
10
-1.99503997793943
20
-7.54388372935185
30
0
41
1
10
-1.99503997793914
20
-7.31299637479282
30
0
41
1
10
-1.9950399779392
20
-7.0804994545895
30
0
41
1
10
-1.99503997793928
20
-6.84639974828045
30
0
41
1
10
-1.99503997793931
20
-6.61070495432833
30
0
41
1
10
-1.99503997793931
20
-6.37342319970747
30
0
41
1
10
-1.99503997793931
20
-6.13456384015987
30
0
41
1
10
-1.99503997793917
20
-5.89413749968625
30
0
41
1
10
-1.99503997793931
20
-5.65215638001942
30
0
41
1
10
-1.9950399779392
20
-5.4086336510897
30
0
41
1
10
-1.99503997793931
20
-5.16358499073445
30
0
41
1
10
-1.99503997793937
20
-4.95821799704322
30
0
41
1
10
-1.9950399779392
20
-4.79299516838267
30
0
41
1
10
-1.99503997793926
20
-4.66878842905288
30
0
41
1
10
-1.9950399779394
20
-4.54421502813724
30
0
41
1
10
-1.99503997793928
20
-4.3775256179415
30
0
41
1
10
-1.99503997793937
20
-4.16851547631586
30
0
41
1
10
-1.99503997793926
20
-3.95832363498761
30
0
41
1
10
-1.99503997793934
20
-3.78926935835409
30
0
41
1
10
-1.99503997793934
20
-3.66223142121831
30
0
41
1
10
-1.99503997793937
20
-3.53485872774317
30
0
41
1
10
-1.99503997793937
20
-3.36446603264309
30
0
41
1
10
-1.99503997793923
20
-3.19381064862617
30
0
41
1
10
-1.99503997793917
20
-3.02213557666008
30
0
41
1
10
-1.99503997793923
20
-2.89317848373014
30
0
41
1
10
-1.99503997793926
20
-2.76392442628162
30
0
41
1
10
-1.9950399779392
20
-2.63438251344516
30
0
41
1
10
-1.99503997793926
20
-2.5045598872187
30
0
41
1
10
-1.9950399779392
20
-2.37446636334926
30
0
41
1
10
-1.99503997793928
20
-2.24411116870431
30
0
41
1
10
-1.99503997793931
20
-2.11350398186607
30
0
41
1
10
-1.99503997793926
20
-1.98265625862294
30
0
41
1
10
-1.99503997793917
20
-1.85157817347522
30
0
41
1
10
-1.99503997793928
20
-1.72028262405343
30
0
41
1
10
-1.9950399779392
20
-1.58878098022356
30
0
41
1
10
-1.99503997793931
20
-1.45708718468353
30
0
41
1
10
-1.99503997793914
20
-1.32521409071333
30
0
41
1
10
-1.99503997793928
20
-1.19317647053171
30
0
41
1
10
-1.99503997793928
20
-1.06098852682436
30
0
41
1
10
-1.99503997793923
20
-0.928665923975615
30
0
41
1
10
-1.9950399779392
20
-0.7962240373962
30
0
41
1
10
-1.99503997793943
20
-0.663679321648317
30
0
41
1
10
-1.99503997793917
20
-0.531048033506266
30
0
41
1
10
-1.99503997793917
20
-0.398347293868937
30
0
41
1
10
-1.99503997793923
20
-0.265594055935196
30
0
41
1
10
-1.99503997793931
20
-0.132805828560151
30
0
41
1
10
-1.99503997793914
20
2.0605171E-09
30
0
41
1
10
-1.99503997793917
20
0.13280583596682
30
0
41
1
10
-1.99503997793923
20
0.265594069601548
30
0
41
1
10
-1.99503997793926
20
0.398347307093445
30
0
41
1
10
-1.99503997793931
20
0.531048037422039
30
0
41
1
10
-1.99503997793923
20
0.663679323049109
30
0
41
1
10
-1.99503997793934
20
0.796224050825145
30
0
41
1
10
-1.99503997793931
20
0.928665943032058
30
0
41
1
10
-1.99503997793943
20
1.06098853158761
30
0
41
1
10
-1.99503997793917
20
1.19317646571213
30
0
41
1
10
-1.99503997793926
20
1.32521410103652
30
0
41
1
10
-1.99503997793928
20
1.45708720896545
30
0
41
1
10
-1.99503997793928
20
1.58878099035155
30
0
41
1
10
-1.99503997793917
20
1.72028261530932
30
0
41
1
10
-1.99503997793928
20
1.85157817419844
30
0
41
1
10
-1.9950399779392
20
1.98265628188184
30
0
41
1
10
-1.99503997793934
20
2.11350400419809
30
0
41
1
10
-1.99503997793928
20
2.24411116714708
30
0
41
1
10
-1.99503997793923
20
2.37446635053544
30
0
41
1
10
-1.99503997793917
20
2.50455989433331
30
0
41
1
10
-1.99503997793934
20
2.63438254221717
30
0
41
1
10
-1.99503997793917
20
2.76392444618185
30
0
41
1
10
-1.99503997793923
20
2.89317847799563
30
0
41
1
10
-1.99503997793928
20
3.0221355616487
30
0
41
1
10
-1.9950399779392
20
3.1938106606795
30
0
41
1
10
-1.9950399779392
20
3.3644660629553
30
0
41
1
10
-1.99503997793928
20
3.5348587283564
30
0
41
1
10
-1.99503997793926
20
3.66223140396679
30
0
41
1
10
-1.99503997793937
20
3.78926935085318
30
0
41
1
10
-1.9950399779394
20
3.95832365779992
30
0
41
1
10
-1.99503997793917
20
4.16851549788922
30
0
41
1
10
-1.99503997793928
20
4.37752560184697
30
0
41
1
10
-1.99503997793914
20
4.54421502107888
30
0
41
1
10
-1.99503997793926
20
4.66878844332791
30
0
41
1
10
-1.99503997793931
20
4.79299519854533
30
0
41
1
10
-1.99503997793917
20
4.95821801342225
30
0
41
1
10
-1.9950399779392
20
5.16358497720145
30
0
41
1
10
-1.99503997793937
20
5.40863364784676
30
0
41
1
10
-1.99503997793926
20
5.65215640891225
30
0
41
1
10
-1.99503997793934
20
5.89413750153938
30
0
41
1
10
-1.99503997793923
20
6.13456381441384
30
0
41
1
10
-1.9950399779392
20
6.37342317953835
30
0
41
1
10
-1.99503997793934
20
6.61070492919382
30
0
41
1
10
-1.99503997793917
20
6.84639976314466
30
0
41
1
10
-1.99503997793943
20
7.08049963775403
30
0
41
1
10
-1.99503997793923
20
7.31299670603019
30
0
41
1
10
-1.99503997793931
20
7.54388383469137
30
0
41
1
10
-1.99503997793937
20
7.77315487290275
30
0
41
1
10
-1.99503997793928
20
8.00080468509069
30
0
41
1
10
-1.99503997793931
20
8.22682785520692
30
0
41
1
10
-1.99503997793926
20
8.45121979218533
30
0
41
1
10
-1.99503997793931
20
8.67397577159849
30
0
41
1
10
-1.99503997793934
20
8.9689323930177
30
0
41
1
10
-1.99503997793934
20
9.33322609823674
30
0
41
1
10
-1.99503997793934
20
9.76392165975847
30
0
41
1
10
-1.99503997793934
20
10.1171869828062
30
0
41
1
10
-1.99503997793928
20
10.3966814549587
30
0
41
1
10
-1.99503997793928
20
10.6045508126063
30
0
41
1
10
-1.99503997793931
20
10.8107494592904
30
0
41
1
10
-1.99503997793926
20
11.0152749978462
30
0
41
1
10
-1.99503997793937
20
11.2181233670389
30
0
41
1
10
-1.99503997793926
20
11.4192921870092
30
0
41
1
10
-1.99503997793937
20
11.6187779427602
30
0
41
1
10
-1.99503997793931
20
11.8826118620781
30
0
41
1
10
-1.99503997793931
20
12.1427687977971
30
0
41
1
10
-1.99503997793926
20
12.3998230071702
30
0
41
1
10
-1.99503997793914
20
12.5908431584255
30
0
41
1
10
-1.99503997793931
20
12.7801589212449
30
0
41
1
10
-1.99503997793928
20
12.9677676529033
30
0
41
1
10
-1.99503997793934
20
13.1536651432542
30
0
41
1
10
-1.99503997793931
20
13.3378467396349
30
0
41
1
10
-1.99503997793934
20
13.520309646993
30
0
41
1
10
-1.99503997793934
20
13.7010488212408
30
0
41
1
10
-1.99503997793923
20
13.8800597145162
30
0
41
1
10
-1.99503997793931
20
14.0573389921213
30
0
41
1
10
-1.99503997793917
20
14.2328810143213
30
0
41
1
10
-1.99503997793917
20
14.4646959102749
30
0
41
1
10
-1.99503997793917
20
14.6927797943809
30
0
41
1
10
-1.9950399779392
20
14.9175842595472
30
0
41
1
10
-1.9950399779392
20
15.1400402265273
30
0
41
1
10
-1.99503997793934
20
15.3587351142267
30
0
41
1
10
-1.99503997793917
20
15.574095422854
30
0
41
1
10
-1.99503997793937
20
15.733775855726
30
0
41
1
10
-1.9950399779394
20
15.8916657661057
30
0
41
1
10
-1.9950399779394
20
16.0998603532659
30
0
41
1
10
-1.99503997793928
20
16.3042398246232
30
0
41
1
10
-1.99503997793931
20
16.5051894037979
30
0
41
1
10
-1.99503997793931
20
16.6540265683948
30
0
41
1
10
-1.99503997793928
20
16.8010329188422
30
0
41
1
10
-1.99503997793923
20
16.9946550481209
30
0
41
1
10
-1.99503997793943
20
17.1843924611908
30
0
41
1
10
-1.9950399779392
20
17.3705928023913
30
0
41
1
10
-1.99503997793928
20
17.5083251903719
30
0
41
1
10
-1.99503997793917
20
17.6441786252734
30
0
41
1
10
-1.99503997793917
20
17.8228590748674
30
0
41
1
10
-1.99503997793923
20
17.9975683374734
30
0
41
1
10
-1.99503997793914
20
18.1686188521771
30
0
41
1
10
-1.99503997793931
20
18.2949373683469
30
0
41
1
10
-1.99503997793931
20
18.4193198181252
30
0
41
1
10
-1.99503997793928
20
18.5826226298873
30
0
41
1
10
-1.9950399779392
20
18.7418497326447
30
0
41
1
10
-1.99503997793934
20
18.8972761707097
30
0
41
1
10
-1.99503997793923
20
19.0118150097952
30
0
41
1
10
-1.99503997793926
20
19.1243510467918
30
0
41
1
10
-1.9950399779392
20
19.2717625055689
30
0
41
1
10
-1.99503997793917
20
19.414970513124
30
0
41
1
10
-1.99503997793917
20
19.5542140249086
30
0
41
1
10
-1.9950399779392
20
19.6565420567613
30
0
41
1
10
-1.99503997793934
20
19.7567881415466
30
0
41
1
10
-1.9950399779392
20
19.8549381550126
30
0
41
1
10
-1.9950399779392
20
19.9509751416388
30
0
41
1
10
-1.99503997793937
20
20.0448848362119
30
0
41
1
10
-1.99503997793928
20
20.1366515718167
30
0
41
1
10
-1.99503997793928
20
20.2262576202058
30
0
41
1
10
-1.99503997793934
20
20.3136874196731
30
0
41
1
10
-1.99503997793914
20
20.398923430088
30
0
41
1
10
-1.99503997793923
20
20.4819464863244
30
0
41
1
10
-1.99503997793934
20
20.5627395868944
30
0
41
1
10
-1.99503997793926
20
20.6412830627253
30
0
41
1
10
-1.99503997793926
20
20.7430172190698
30
0
41
1
10
-1.99503997793931
20
20.8400664428988
30
0
41
1
10
-1.99503997793917
20
20.9325549572362
30
0
41
1
10
-1.99503997793928
20
20.9995415068112
30
0
41
1
10
-1.99503997793928
20
21.064149408511
30
0
41
1
10
-1.99503997793923
20
21.1263556466612
30
0
41
1
10
-1.9950399779392
20
21.1861355753666
30
0
41
1
10
-1.99503997793937
20
21.2626002183761
30
0
41
1
10
-1.99503997793917
20
21.3340243512753
30
0
41
1
10
-1.99503997793923
20
21.4004603045829
30
0
41
1
10
-1.99503997793931
20
21.4477036445726
30
0
41
1
10
-1.9950399779394
20
21.4923513092324
30
0
41
1
10
-1.99503997793931
20
21.5484022410127
30
0
41
1
10
-1.99503997793931
20
21.5990695510926
30
0
41
1
10
-1.99503997793926
20
21.6443396610233
30
0
41
1
10
-1.9950399779392
20
21.6755105092645
30
0
41
1
10
-1.99503997793931
20
21.7038764495607
30
0
41
1
10
-1.9950399779394
20
21.7293964429164
30
0
41
1
10
-1.99503997793926
20
21.7520292420694
30
0
41
1
10
-1.99503997793931
20
21.7717309018817
30
0
41
1
10
-1.99503997793928
20
21.7884557380592
30
0
41
1
10
-1.99503997793931
20
21.8021565310045
30
0
41
1
10
-1.99503997793926
20
21.8127830851058
30
0
41
1
10
-1.99503997793928
20
21.8202838734724
30
0
41
1
10
-1.99503997793923
20
21.8245231436175
30
0
41
1
10
-1.9950399779392
20
21.8252837983218
30
0
41
1
10
-1.9950399779392
20
21.8251640942354
30
0
0
SPLINE
5
142
100
AcDbEntity
8
SK1
62
256
6
ByLayer
370
18
48
1
60
0
100
AcDbSpline
70
4
71
3
72
115
73
111
40
0
40
0
40
0
40
0
40
0.0065652190857223
40
0.0151093868165726
40
0.0236535545474229
40
0.0321977222782732
40
0.0407418900091235
40
0.0492860577399738
40
0.0578302254708241
40
0.0663743932016744
40
0.0834627286633751
40
0.100551064125076
40
0.117639399586776
40
0.126183567317627
40
0.134727735048477
40
0.143271902779327
40
0.151816070510178
40
0.168904405971878
40
0.177448573702729
40
0.185992741433579
40
0.194536909164429
40
0.203081076895279
40
0.21162524462613
40
0.22016941235698
40
0.237257747818681
40
0.245801915549531
40
0.254346083280381
40
0.262890251011232
40
0.271434418742082
40
0.279978586472932
40
0.288522754203782
40
0.297066921934633
40
0.305611089665483
40
0.314155257396333
40
0.322699425127184
40
0.331243592858034
40
0.339787760588884
40
0.348331928319735
40
0.356876096050585
40
0.373964431512286
40
0.382508599243136
40
0.391052766973986
40
0.395324850839411
40
0.399596934704837
40
0.408141102435687
40
0.425229437897387
40
0.433773605628238
40
0.442317773359088
40
0.450861941089938
40
0.459406108820789
40
0.476494444282489
40
0.48503861201334
40
0.49358277974419
40
0.497854863609615
40
0.50212694747504
40
0.510671115205891
40
0.527759450667591
40
0.536303618398442
40
0.544847786129292
40
0.553391953860142
40
0.561936121590992
40
0.579024457052693
40
0.587568624783543
40
0.596112792514394
40
0.600384876379819
40
0.604656960245244
40
0.613201127976094
40
0.621745295706945
40
0.630289463437795
40
0.63456154730322
40
0.638833631168645
40
0.647377798899496
40
0.655921966630346
40
0.664466134361196
40
0.673010302092047
40
0.681554469822897
40
0.690098637553747
40
0.698642805284598
40
0.707186973015448
40
0.715731140746298
40
0.724275308477148
40
0.732819476207999
40
0.741363643938849
40
0.749907811669699
40
0.75845197940055
40
0.7669961471314
40
0.784084482593101
40
0.792628650323951
40
0.801172818054801
40
0.809716985785652
40
0.818261153516502
40
0.826805321247352
40
0.835349488978203
40
0.843893656709053
40
0.852437824439903
40
0.869526159901604
40
0.886614495363304
40
0.903702830825005
40
0.912246998555855
40
0.920791166286706
40
0.929335334017556
40
0.937879501748406
40
0.946423669479257
40
0.954967837210107
40
0.963512004940957
40
0.972056172671807
40
0.980600340402658
40
0.989144508133508
40
0.997688675864358
40
1
40
1
40
1
40
1
41
1
10
-0.394976888875164
20
-21.8653790907104
30
0
41
1
10
-0.394976888875192
20
-21.8653285671717
30
0
41
1
10
-0.39497688887522
20
-21.864467382106
30
0
41
1
10
-0.394976888875135
20
-21.8604737650697
30
0
41
1
10
-0.394976888875277
20
-21.8529598769268
30
0
41
1
10
-0.394976888875135
20
-21.8423149188876
30
0
41
1
10
-0.39497688887522
20
-21.8285907137818
30
0
41
1
10
-0.394976888875164
20
-21.8118377229246
30
0
41
1
10
-0.394976888875164
20
-21.7921034347989
30
0
41
1
10
-0.394976888875164
20
-21.7618666429643
30
0
41
1
10
-0.394976888875135
20
-21.7168668922192
30
0
41
1
10
-0.394976888875164
20
-21.651618462036
30
0
41
1
10
-0.394976888875192
20
-21.5881524120742
30
0
41
1
10
-0.394976888875306
20
-21.5320229149808
30
0
41
1
10
-0.39497688887522
20
-21.4873092663299
30
0
41
1
10
-0.394976888875192
20
-21.4399968711307
30
0
41
1
10
-0.394976888875306
20
-21.3734709387681
30
0
41
1
10
-0.394976888875135
20
-21.3019320664004
30
0
41
1
10
-0.394976888875249
20
-21.2253664719936
30
0
41
1
10
-0.394976888875277
20
-21.1655031445012
30
0
41
1
10
-0.394976888875164
20
-21.1032108723211
30
0
41
1
10
-0.394976888875249
20
-21.038514297088
30
0
41
1
10
-0.394976888875277
20
-20.9714364994015
30
0
41
1
10
-0.394976888875391
20
-20.8788308563805
30
0
41
1
10
-0.394976888875164
20
-20.7816354627076
30
0
41
1
10
-0.394976888875249
20
-20.6797749496461
30
0
41
1
10
-0.394976888875334
20
-20.6011280536546
30
0
41
1
10
-0.394976888875249
20
-20.5202292190253
30
0
41
1
10
-0.394976888875164
20
-20.4370981008412
30
0
41
1
10
-0.394976888875164
20
-20.3517517634562
30
0
41
1
10
-0.394976888875249
20
-20.2642094206366
30
0
41
1
10
-0.394976888875306
20
-20.1744885542462
30
0
41
1
10
-0.394976888875135
20
-20.082604770276
30
0
41
1
10
-0.394976888875192
20
-19.9885758834751
30
0
41
1
10
-0.394976888875334
20
-19.8924175863555
30
0
41
1
10
-0.394976888875306
20
-19.7941442665699
30
0
41
1
10
-0.394976888875164
20
-19.6937723311917
30
0
41
1
10
-0.394976888875277
20
-19.5913158900225
30
0
41
1
10
-0.394976888875164
20
-19.4519091739392
30
0
41
1
10
-0.394976888875164
20
-19.308501644014
30
0
41
1
10
-0.394976888875249
20
-19.160920630363
30
0
41
1
10
-0.394976888875249
20
-19.0670441229991
30
0
41
1
10
-0.394976888875249
20
-18.9909051568102
30
0
41
1
10
-0.394976888875391
20
-18.9140993494364
30
0
41
1
10
-0.394976888875192
20
-18.7779587352239
30
0
41
1
10
-0.394976888875277
20
-18.6185131846481
30
0
41
1
10
-0.394976888875192
20
-18.4550236113311
30
0
41
1
10
-0.39497688887522
20
-18.330489335967
30
0
41
1
10
-0.394976888875306
20
-18.2040166079408
30
0
41
1
10
-0.394976888875249
20
-18.0327705937831
30
0
41
1
10
-0.394976888875277
20
-17.8578219077772
30
0
41
1
10
-0.394976888875192
20
-17.6789387292297
30
0
41
1
10
-0.39497688887522
20
-17.5656125946474
30
0
41
1
10
-0.394976888875277
20
-17.4739690253912
30
0
41
1
10
-0.39497688887522
20
-17.3816993239948
30
0
41
1
10
-0.394976888875334
20
-17.2186048360494
30
0
41
1
10
-0.394976888875277
20
-17.0286078387926
30
0
41
1
10
-0.394976888875164
20
-16.8347647509305
30
0
41
1
10
-0.394976888875249
20
-16.6875786248763
30
0
41
1
10
-0.394976888875306
20
-16.5385587049943
30
0
41
1
10
-0.39497688887522
20
-16.3373774066278
30
0
41
1
10
-0.394976888875192
20
-16.1327150774874
30
0
41
1
10
-0.394976888875277
20
-15.9242804112407
30
0
41
1
10
-0.394976888875107
20
-15.7925696820839
30
0
41
1
10
-0.394976888875306
20
-15.6862549949744
30
0
41
1
10
-0.39497688887522
20
-15.5793432837569
30
0
41
1
10
-0.394976888875249
20
-15.4446487492656
30
0
41
1
10
-0.394976888875164
20
-15.2812010193763
30
0
41
1
10
-0.394976888875277
20
-15.1435436982815
30
0
41
1
10
-0.394976888875306
20
-15.0324801920762
30
0
41
1
10
-0.394976888875249
20
-14.9208273816877
30
0
41
1
10
-0.394976888875277
20
-14.7802248596231
30
0
41
1
10
-0.394976888875192
20
-14.6097059483473
30
0
41
1
10
-0.39497688887522
20
-14.4374320816019
30
0
41
1
10
-0.394976888875192
20
-14.2634095816693
30
0
41
1
10
-0.394976888875164
20
-14.0876420714538
30
0
41
1
10
-0.394976888875164
20
-13.9101338497815
30
0
41
1
10
-0.394976888875306
20
-13.7308904366346
30
0
41
1
10
-0.394976888875164
20
-13.549915145406
30
0
41
1
10
-0.394976888875135
20
-13.3672125481811
30
0
41
1
10
-0.394976888875391
20
-13.182787463215
30
0
41
1
10
-0.394976888875306
20
-12.9966426140257
30
0
41
1
10
-0.394976888875249
20
-12.8087826212334
30
0
41
1
10
-0.394976888875164
20
-12.6192114742801
30
0
41
1
10
-0.394976888875192
20
-12.4279318017785
30
0
41
1
10
-0.394976888875192
20
-12.1705475891153
30
0
41
1
10
-0.394976888875277
20
-11.9099848332046
30
0
41
1
10
-0.39497688887522
20
-11.6458042855523
30
0
41
1
10
-0.394976888875164
20
-11.4460361066677
30
0
41
1
10
-0.394976888875277
20
-11.244579908331
30
0
41
1
10
-0.394976888875277
20
-11.0414389105763
30
0
41
1
10
-0.394976888875306
20
-10.8366153761927
30
0
41
1
10
-0.394976888875192
20
-10.630113157504
30
0
41
1
10
-0.394976888875277
20
-10.4219344610486
30
0
41
1
10
-0.394976888875164
20
-10.1420454829465
30
0
41
1
10
-0.394976888875362
20
-9.78821091215363
30
0
41
1
10
-0.39497688887522
20
-9.3568391135907
30
0
41
1
10
-0.394976888875277
20
-8.99192950801691
30
0
41
1
10
-0.394976888875249
20
-8.69651812098667
30
0
41
1
10
-0.394976888875306
20
-8.47338949471802
30
0
41
1
10
-0.394976888875306
20
-8.2486162722297
30
0
41
1
10
-0.39497688887522
20
-8.02220294069917
30
0
41
1
10
-0.394976888875391
20
-7.79415362199512
30
0
41
1
10
-0.394976888875192
20
-7.5644725521035
30
0
41
1
10
-0.394976888875306
20
-7.33316516004024
30
0
41
1
10
-0.394976888875164
20
-7.10023725398264
30
0
41
1
10
-0.394976888875334
20
-6.86569504295807
30
0
41
1
10
-0.394976888875419
20
-6.62954558311131
30
0
41
1
10
-0.394976888875362
20
-6.44960786563357
30
0
41
1
10
-0.394976888875334
20
-6.34849183540919
30
0
41
1
10
-0.394976888875334
20
-6.32694309067116
30
0
0
SPLINE
5
143
100
AcDbEntity
8
SK1
62
256
6
ByLayer
370
18
48
1
60
0
100
AcDbSpline
70
4
71
3
72
111
73
107
40
0
40
0
40
0
40
0
40
0.0023113641589834
40
0.0108556432331647
40
0.0193999223073461
40
0.0279442013815274
40
0.0364884804557087
40
0.04503275952989
40
0.0535770386040713
40
0.0621213176782526
40
0.070665596752434
40
0.0792098758266153
40
0.0877541549007966
40
0.0962984339749779
40
0.113386992123341
40
0.130475550271703
40
0.147564108420066
40
0.156108387494247
40
0.164652666568429
40
0.17319694564261
40
0.181741224716791
40
0.190285503790972
40
0.198829782865154
40
0.207374061939335
40
0.215918341013516
40
0.233006899161879
40
0.24155117823606
40
0.250095457310242
40
0.258639736384423
40
0.267184015458604
40
0.275728294532786
40
0.284272573606967
40
0.292816852681148
40
0.30136113175533
40
0.309905410829511
40
0.318449689903692
40
0.326993968977873
40
0.335538248052055
40
0.352626806200417
40
0.361171085274599
40
0.36971536434878
40
0.386803922497143
40
0.395348201571324
40
0.403892480645505
40
0.412436759719687
40
0.420981038793868
40
0.438069596942231
40
0.446613876016412
40
0.455158155090593
40
0.463702434164775
40
0.472246713238956
40
0.489335271387319
40
0.4978795504615
40
0.506423829535681
40
0.514968108609863
40
0.523512387684044
40
0.540600945832407
40
0.549145224906588
40
0.557689503980769
40
0.56623378305495
40
0.574778062129132
40
0.591866620277494
40
0.600410899351676
40
0.608955178425857
40
0.617499457500038
40
0.62604373657422
40
0.643132294722582
40
0.651676573796764
40
0.660220852870945
40
0.668765131945126
40
0.677309411019308
40
0.685853690093489
40
0.69439796916767
40
0.702942248241851
40
0.711486527316033
40
0.720030806390214
40
0.728575085464395
40
0.737119364538577
40
0.745663643612758
40
0.754207922686939
40
0.762752201761121
40
0.779840759909483
40
0.788385038983665
40
0.796929318057846
40
0.805473597132027
40
0.814017876206209
40
0.82256215528039
40
0.831106434354571
40
0.848194992502934
40
0.856739271577115
40
0.865283550651297
40
0.873827829725478
40
0.882372108799659
40
0.899460666948022
40
0.908004946022203
40
0.916549225096384
40
0.925093504170566
40
0.933637783244747
40
0.942182062318929
40
0.95072634139311
40
0.959270620467291
40
0.967814899541472
40
0.976359178615654
40
0.984903457689835
40
0.993447736764016
40
1
40
1
40
1
40
1
41
1
10
-0.394976888875277
20
6.32694279392979
30
0
41
1
10
-0.394976888875277
20
6.34849163113915
30
0
41
1
10
-0.394976888875249
20
6.44960775400918
30
0
41
1
10
-0.394976888875277
20
6.62954555948869
30
0
41
1
10
-0.394976888875334
20
6.86569504888013
30
0
41
1
10
-0.394976888875277
20
7.10023740586414
30
0
41
1
10
-0.394976888875192
20
7.33316546385936
30
0
41
1
10
-0.394976888875164
20
7.56447269448577
30
0
41
1
10
-0.394976888875249
20
7.79415340272948
30
0
41
1
10
-0.394976888875277
20
8.02220293402002
30
0
41
1
10
-0.394976888875249
20
8.2486163556085
30
0
41
1
10
-0.394976888875192
20
8.47338951886391
30
0
41
1
10
-0.394976888875249
20
8.69651811258552
30
0
41
1
10
-0.394976888875192
20
8.99192948127944
30
0
41
1
10
-0.394976888875277
20
9.35683912175989
30
0
41
1
10
-0.394976888875164
20
9.78821091217483
30
0
41
1
10
-0.394976888875192
20
10.142045462177
30
0
41
1
10
-0.394976888875306
20
10.4219344727077
30
0
41
1
10
-0.394976888875164
20
10.6301131683678
30
0
41
1
10
-0.39497688887522
20
10.8366153667066
30
0
41
1
10
-0.394976888875419
20
11.0414388905993
30
0
41
1
10
-0.394976888875164
20
11.2445799004538
30
0
41
1
10
-0.394976888875362
20
11.4460361162835
30
0
41
1
10
-0.394976888875277
20
11.6458042976886
30
0
41
1
10
-0.394976888875135
20
11.9099848253352
30
0
41
1
10
-0.39497688887522
20
12.1705475695386
30
0
41
1
10
-0.394976888875164
20
12.4279318067111
30
0
41
1
10
-0.394976888875391
20
12.6192114874981
30
0
41
1
10
-0.394976888875334
20
12.8087826250925
30
0
41
1
10
-0.394976888875249
20
12.9966426041155
30
0
41
1
10
-0.394976888875306
20
13.182787448996
30
0
41
1
10
-0.394976888875306
20
13.3672125455487
30
0
41
1
10
-0.394976888875277
20
13.5499151547098
30
0
41
1
10
-0.394976888875164
20
13.7308904478326
30
0
41
1
10
-0.394976888875277
20
13.9101338677051
30
0
41
1
10
-0.394976888875164
20
14.0876421688896
30
0
41
1
10
-0.394976888875192
20
14.2634098807097
30
0
41
1
10
-0.394976888875192
20
14.4955025482494
30
0
41
1
10
-0.394976888875306
20
14.7239127068147
30
0
41
1
10
-0.394976888875277
20
14.9489833053404
30
0
41
1
10
-0.394976888875277
20
15.171701411915
30
0
41
1
10
-0.39497688887522
20
15.3907043201103
30
0
41
1
10
-0.394976888875277
20
15.6063159613102
30
0
41
1
10
-0.394976888875334
20
15.7661946363952
30
0
41
1
10
-0.394976888875192
20
15.9242799594928
30
0
41
1
10
-0.394976888875249
20
16.1327154012234
30
0
41
1
10
-0.394976888875249
20
16.3373780173449
30
0
41
1
10
-0.39497688887522
20
16.5385587125243
30
0
41
1
10
-0.39497688887522
20
16.6875782011067
30
0
41
1
10
-0.394976888875249
20
16.8347642769002
30
0
41
1
10
-0.394976888875164
20
17.0286080073569
30
0
41
1
10
-0.394976888875334
20
17.2186059445176
30
0
41
1
10
-0.394976888875249
20
17.4050188999402
30
0
41
1
10
-0.394976888875277
20
17.5429190217058
30
0
41
1
10
-0.394976888875277
20
17.6789377757624
30
0
41
1
10
-0.394976888875334
20
17.8578220601068
30
0
41
1
10
-0.394976888875277
20
18.0327708145485
30
0
41
1
10
-0.39497688887522
20
18.2040166330948
30
0
41
1
10
-0.394976888875306
20
18.3304892054167
30
0
41
1
10
-0.394976888875334
20
18.4550234389154
30
0
41
1
10
-0.394976888875277
20
18.6185132745736
30
0
41
1
10
-0.394976888875164
20
18.7779598884918
30
0
41
1
10
-0.394976888875334
20
18.933565131357
30
0
41
1
10
-0.394976888875249
20
19.0482448844651
30
0
41
1
10
-0.394976888875306
20
19.1609196079758
30
0
41
1
10
-0.394976888875306
20
19.3085018143331
30
0
41
1
10
-0.394976888875306
20
19.4519098709687
30
0
41
1
10
-0.394976888875192
20
19.5913159811741
30
0
41
1
10
-0.394976888875277
20
19.6937719762305
30
0
41
1
10
-0.394976888875249
20
19.7941438028822
30
0
41
1
10
-0.394976888875164
20
19.8924174211232
30
0
41
1
10
-0.39497688887522
20
19.988575861591
30
0
41
1
10
-0.394976888875164
20
20.082604778142
30
0
41
1
10
-0.394976888875249
20
20.1744885559187
30
0
41
1
10
-0.394976888875306
20
20.2642094319841
30
0
41
1
10
-0.394976888875277
20
20.3517517880635
30
0
41
1
10
-0.39497688887522
20
20.437098129367
30
0
41
1
10
-0.39497688887522
20
20.5202292348053
30
0
41
1
10
-0.39497688887522
20
20.6011280559991
30
0
41
1
10
-0.394976888875164
20
20.6797749513881
30
0
41
1
10
-0.394976888875362
20
20.7816354862271
30
0
41
1
10
-0.394976888875192
20
20.8788308931333
30
0
41
1
10
-0.394976888875192
20
20.9714365096391
30
0
41
1
10
-0.394976888875135
20
21.0385142950144
30
0
41
1
10
-0.394976888875249
20
21.1032108820958
30
0
41
1
10
-0.394976888875277
20
21.1655031751743
30
0
41
1
10
-0.394976888875164
20
21.2253665102307
30
0
41
1
10
-0.394976888875277
20
21.301932078811
30
0
41
1
10
-0.394976888875277
20
21.3734709318987
30
0
41
1
10
-0.394976888875192
20
21.4399968999807
30
0
41
1
10
-0.394976888875192
20
21.4873093096751
30
0
41
1
10
-0.394976888875249
20
21.5320229383892
30
0
41
1
10
-0.394976888875277
20
21.5881524005931
30
0
41
1
10
-0.394976888875249
20
21.6389063892513
30
0
41
1
10
-0.394976888875419
20
21.6842420425294
30
0
41
1
10
-0.394976888875164
20
21.7154617242468
30
0
41
1
10
-0.394976888875306
20
21.7438726893519
30
0
41
1
10
-0.39497688887522
20
21.7694337460977
30
0
41
1
10
-0.394976888875306
20
21.7921034780961
30
0
41
1
10
-0.394976888875164
20
21.8118377637545
30
0
41
1
10
-0.394976888875334
20
21.8285907189997
30
0
41
1
10
-0.394976888875419
20
21.8423149132634
30
0
41
1
10
-0.394976888875277
20
21.8529599173647
30
0
41
1
10
-0.394976888875277
20
21.8604739519412
30
0
41
1
10
-0.394976888875192
20
21.8644655184855
30
0
41
1
10
-0.394976888875249
20
21.8653271906745
30
0
41
1
10
-0.39497688887522
20
21.865378793868
30
0
0
SPLINE
5
144
100
AcDbEntity
8
1
62
256
6
ByLayer
370
18
48
1
60
0
100
AcDbSpline
70
4
71
3
72
8
73
4
40
0
40
0
40
0
40
0
40
1
40
1
40
1
40
1
41
1
10
115.325397101453
20
3.89874948550283
30
0
41
1
10
115.399565458735
20
3.88355071978671
30
0
41
1
10
115.473742597671
20
3.86833519501732
30
0
41
1
10
115.547930867708
20
3.8530983927451
30
0
0
SPLINE
5
145
100
AcDbEntity
8
1
62
256
6
ByLayer
370
18
48
1
60
0
100
AcDbSpline
70
4
71
3
72
8
73
4
40
0
40
0
40
0
40
0
40
1
40
1
40
1
40
1
41
1
10
116.418276837313
20
4.9799695026268
30
0
41
1
10
116.370352719088
20
5.05777566811568
30
0
41
1
10
116.322462549956
20
5.13556942827154
30
0
41
1
10
116.274597279959
20
5.21335406943044
30
0
0
SPLINE
5
146
100
AcDbEntity
8
1
62
256
6
ByLayer
370
18
48
1
60
0
100
AcDbSpline
70
4
71
3
72
16
73
12
40
0
40
0
40
0
40
0
40
0.0864814720987203
40
0.0864814720987203
40
0.314220610496346
40
0.314220610496346
40
0.541959748893972
40
0.541959748893972
40
0.997438025689172
40
0.997438025689172
40
1
40
1
40
1
40
1
41
1
10
116.895548972342
20
1.19888128638854
30
0
41
1
10
116.873437800689
20
1.19485687137404
30
0
41
1
10
116.851254596382
20
1.19111448608408
30
0
41
1
10
116.770398249561
20
1.17856572442344
30
0
41
1
10
116.711301211147
20
1.17146343661361
30
0
41
1
10
116.592125223268
20
1.16146200224745
30
0
41
1
10
116.531872373114
20
1.15857450514037
30
0
41
1
10
116.352459484669
20
1.15654769651997
30
0
41
1
10
116.233838611762
20
1.16389468078265
30
0
41
1
10
116.115505789155
20
1.1801071623706
30
0
41
1
10
116.114843943799
20
1.18019812283643
30
0
41
1
10
116.114182128659
20
1.18028936195063
30
0
0
SPLINE
5
147
100
AcDbEntity
8
1
62
256
6
ByLayer
370
18
48
1
60
0
100
AcDbSpline
70
4
71
3
72
10
73
6
40
0
40
0
40
0
40
0
40
0.531762968113114
40
0.531762968113114
40
1
40
1
40
1
40
1
41
1
10
117.615489848474
20
5.46073487078914
30
0
41
1
10
117.519074872788
20
5.50209148459851
30
0
41
1
10
117.42211611443
20
5.53533414708576
30
0
41
1
10
117.240579936906
20
5.5835009768503
30
0
41
1
10
117.155822570129
20
5.60012779078258
30
0
41
1
10
117.072781545623
20
5.61097472787699
30
0
0
SPLINE
5
148
100
AcDbEntity
8
1
62
256
6
ByLayer
370
18
48
1
60
0
100
AcDbSpline
70
4
71
3
72
8
73
4
40
0
40
0
40
0
40
0
40
1
40
1
40
1
40
1
41
1
10
117.784241136565
20
5.37978504015013
30
0
41
1
10
117.728933553408
20
5.40924253195581
30
0
41
1
10
117.672654526707
20
5.43621443188027
30
0
41
1
10
117.615489848474
20
5.46073487078931
30
0
0
SPLINE
5
149
100
AcDbEntity
8
1
62
256
6
ByLayer
370
18
48
1
60
0
100
AcDbSpline
70
4
71
3
72
8
73
4
40
0
40
0
40
0
40
0
40
1
40
1
40
1
40
1
41
1
10
117.330909980039
20
5.68249356654539
30
0
41
1
10
117.381265548179
20
5.64805389406064
30
0
41
1
10
117.430993294168
20
5.61419373341568
30
0
41
1
10
117.479982164342
20
5.58101559279962
30
0
0
SPLINE
5
14A
100
AcDbEntity
8
1
62
256
6
ByLayer
370
18
48
1
60
0
100
AcDbSpline
70
4
71
3
72
16
73
12
40
0
40
0
40
0
40
0
40
0.25
40
0.25
40
0.500000000000001
40
0.500000000000001
40
0.750000000000001
40
0.750000000000001
40
0.875
40
0.875
40
1
40
1
40
1
40
1
41
1
10
117.479982164341
20
5.58101559279976
30
0
41
1
10
117.534523666758
20
5.55158417018134
30
0
41
1
10
117.587148070631
20
5.52098798723966
30
0
41
1
10
117.688160540455
20
5.45872458861237
30
0
41
1
10
117.736529377743
20
5.42702693912415
30
0
41
1
10
117.825688346341
20
5.36653083108629
30
0
41
1
10
117.867285205588
20
5.33716063445442
30
0
41
1
10
117.920389447247
20
5.30022523378148
30
0
41
1
10
117.936538794611
20
5.28911742094809
30
0
41
1
10
117.965118022091
20
5.27028752638213
30
0
41
1
10
117.97743486449
20
5.26266139962016
30
0
41
1
10
117.987065517015
20
5.25750528574613
30
0
0
SPLINE
5
14B
100
AcDbEntity
8
1
62
256
6
ByLayer
370
18
48
1
60
0
100
AcDbSpline
70
4
71
3
72
8
73
4
40
0
40
0
40
0
40
0
40
1
40
1
40
1
40
1
41
1
10
118.599693507933
20
1.24081517429599
30
0
41
1
10
118.574796280944
20
1.32725225985476
30
0
41
1
10
118.549854839484
20
1.4137044731701
30
0
41
1
10
118.52484775413
20
1.50017908704078
30
0
0
SPLINE
5
14C
100
AcDbEntity
8
1
62
256
6
ByLayer
370
18
48
1
60
0
100
AcDbSpline
70
4
71
3
72
8
73
4
40
0
40
0
40
0
40
0
40
1
40
1
40
1
40
1
41
1
10
119.395193723735
20
2.62705019692243
30
0
41
1
10
119.475615042733
20
2.61232256775696
30
0
41
1
10
119.555995209326
20
2.59764904924091
30
0
41
1
10
119.636347624596
20
2.58301197396395
30
0
0
SPLINE
5
14D
100
AcDbEntity
8
1
62
256
6
ByLayer
370
18
48
1
60
0
100
AcDbSpline
70
4
71
3
72
10
73
6
40
0
40
0
40
0
40
0
40
0.5
40
0.5
40
1
40
1
40
1
40
1
41
1
10
104.493053131543
20
13.7019608686419
30
0
41
1
10
104.569055887159
20
13.7361745768006
30
0
41
1
10
104.646663048802
20
13.770768576013
30
0
41
1
10
104.803447170844
20
13.8397900819688
30
0
41
1
10
104.882684568656
20
13.8742458369958
30
0
41
1
10
104.962924444649
20
13.90863637039
30
0
0
SPLINE
5
14E
100
AcDbEntity
8
1
62
256
6
ByLayer
370
18
48
1
60
0
100
AcDbSpline
70
4
71
3
72
8
73
4
40
0
40
0
40
0
40
0
40
1
40
1
40
1
40
1
41
1
10
104.39873077389
20
13.1781526660244
30
0
41
1
10
104.428311700848
20
13.3577055387072
30
0
41
1
10
104.460034175095
20
13.5315585405617
30
0
41
1
10
104.493053131543
20
13.7019608686419
30
0
0
SPLINE
5
14F
100
AcDbEntity
8
1
62
256
6
ByLayer
370
18
48
1
60
0
100
AcDbSpline
70
4
71
3
72
10
73
6
40
0
40
0
40
0
40
0
40
0.5
40
0.5
40
1
40
1
40
1
40
1
41
1
10
104.246349691366
20
11.9680816730491
30
0
41
1
10
104.254443072935
20
12.0559701337552
30
0
41
1
10
104.263138383343
20
12.145031231429
30
0
41
1
10
104.281796900615
20
12.3232255542531
30
0
41
1
10
104.291765230351
20
12.4124307476364
30
0
41
1
10
104.302491429423
20
12.5017640552757
30
0
0
SPLINE
5
150
100
AcDbEntity
8
1
62
256
6
ByLayer
370
18
48
1
60
0
100
AcDbSpline
70
4
71
3
72
10
73
6
40
0
40
0
40
0
40
0
40
0.5
40
0.5
40
1
40
1
40
1
40
1
41
1
10
104.640988956617
20
11.646011882375
30
0
41
1
10
104.572868731929
20
11.7008789775641
30
0
41
1
10
104.505310492746
20
11.7556984874247
30
0
41
1
10
104.373831694437
20
11.8630562616455
30
0
41
1
10
104.309540829422
20
11.9158898447148
30
0
41
1
10
104.246349691366
20
11.9680816730491
30
0
0
SPLINE
5
151
100
AcDbEntity
8
1
62
256
6
ByLayer
370
18
48
1
60
0
100
AcDbSpline
70
4
71
3
72
10
73
6
40
0
40
0
40
0
40
0
40
0.5
40
0.5
40
1
40
1
40
1
40
1
41
1
10
105.603065510986
20
10.8957498055061
30
0
41
1
10
105.531220724634
20
10.9502823131022
30
0
41
1
10
105.459103573364
20
11.0052579580752
30
0
41
1
10
105.31414924479
20
11.1163807294594
30
0
41
1
10
105.241773648747
20
11.1721781655205
30
0
41
1
10
105.170245626139
20
11.2276937757892
30
0
0
SPLINE
5
152
100
AcDbEntity
8
1
62
256
6
ByLayer
370
18
48
1
60
0
100
AcDbSpline
70
4
71
3
72
8
73
4
40
0
40
0
40
0
40
0
40
1
40
1
40
1
40
1
41
1
10
106.072936824092
20
11.1024253072541
30
0
41
1
10
105.909853674674
20
11.0325284333286
30
0
41
1
10
105.754208220703
20
10.9637888196006
30
0
41
1
10
105.603065510986
20
10.8957498055061
30
0
0
SPLINE
5
153
100
AcDbEntity
8
1
62
256
6
ByLayer
370
18
48
1
60
0
100
AcDbSpline
70
4
71
3
72
10
73
6
40
0
40
0
40
0
40
0
40
0.5
40
0.5
40
1
40
1
40
1
40
1
41
1
10
107.206484770782
20
11.557297133556
30
0
41
1
10
107.121971673788
20
11.5252843493266
30
0
41
1
10
107.036693450149
20
11.4926742216371
30
0
41
1
10
106.866993201985
20
11.4269930530182
30
0
41
1
10
106.782500869141
20
11.3938963165952
30
0
41
1
10
106.698432838081
20
11.360495811417
30
0
0
SPLINE
5
154
100
AcDbEntity
8
1
62
256
6
ByLayer
370
18
48
1
60
0
100
AcDbSpline
70
4
71
3
72
8
73
4
40
0
40
0
40
0
40
0
40
1
40
1
40
1
40
1
41
1
10
107.26262650884
20
12.0909795157825
30
0
41
1
10
107.240826097207
20
11.9094144650215
30
0
41
1
10
107.222579655911
20
11.7320763240783
30
0
41
1
10
107.206484770782
20
11.557297133556
30
0
0
SPLINE
5
155
100
AcDbEntity
8
1
62
256
6
ByLayer
370
18
48
1
60
0
100
AcDbSpline
70
4
71
3
72
10
73
6
40
0
40
0
40
0
40
0
40
0.5
40
0.5
40
1
40
1
40
1
40
1
41
1
10
107.453188210959
20
13.2911763291488
30
0
41
1
10
107.436584488013
20
13.2054887923719
30
0
41
1
10
107.420218115608
20
13.1184115662211
30
0
41
1
10
107.388643472214
20
12.9435575807339
30
0
41
1
10
107.373420207446
20
12.8557114059545
30
0
41
1
10
107.358865853306
20
12.7673681265313
30
0
0
SPLINE
5
156
100
AcDbEntity
8
1
62
256
6
ByLayer
370
18
48
1
60
0
100
AcDbSpline
70
4
71
3
72
10
73
6
40
0
40
0
40
0
40
0
40
0.5
40
0.5
40
1
40
1
40
1
40
1
41
1
10
107.453188210959
20
13.2911763291488
30
0
41
1
10
107.381343424608
20
13.3457088367449
30
0
41
1
10
107.309226273337
20
13.4006844817179
30
0
41
1
10
107.164271944764
20
13.5118072531021
30
0
41
1
10
107.091896348721
20
13.5676046891633
30
0
41
1
10
107.020368326113
20
13.6231202994319
30
0
0
SPLINE
5
157
100
AcDbEntity
8
1
62
256
6
ByLayer
370
18
48
1
60
0
100
AcDbSpline
70
4
71
3
72
8
73
4
40
0
40
0
40
0
40
0
40
1
40
1
40
1
40
1
41
1
10
105.588420458638
20
14.1667068745528
30
0
41
1
10
105.759284123381
20
14.2345915704001
30
0
41
1
10
105.928405610303
20
14.2998460450394
30
0
41
1
10
106.09647239134
20
14.3635081966918
30
0
0
SPLINE
5
158
100
AcDbEntity
8
1
62
256
6
ByLayer
370
18
48
1
60
0
100
AcDbSpline
70
4
71
3
72
10
73
6
40
0
40
0
40
0
40
0
40
0.5
40
0.5
40
1
40
1
40
1
40
1
41
1
10
106.491111656591
20
14.0414384060177
30
0
41
1
10
106.422991431903
20
14.0963055012068
30
0
41
1
10
106.35543319272
20
14.1511250110674
30
0
41
1
10
106.223954394411
20
14.2584827852882
30
0
41
1
10
106.159663529396
20
14.3113163683575
30
0
41
1
10
106.09647239134
20
14.3635081966918
30
0
0
LINE
5
70
100
AcDbEntity
8
1
62
256
6
ByLayer
370
18
48
1
60
0
100
AcDbLine
10
117.105527
20
1.170174
30
0
11
116.231318
21
1.39626
31
0
39
0
210
0
220
0
230
1
0
LINE
5
72
100
AcDbEntity
8
1
62
256
6
ByLayer
370
18
48
1
60
0
100
AcDbLine
10
116.862518
20
5.562147
30
0
11
117.736727
21
5.336061
31
0
39
0
210
0
220
0
230
1
0
LINE
5
73
100
AcDbEntity
8
1
62
256
6
ByLayer
370
18
48
1
60
0
100
AcDbLine
10
117.299095
20
5.567839
30
0
11
117.316442
21
5.563353
31
0
39
0
210
0
220
0
230
1
0
LINE
5
74
100
AcDbEntity
8
1
62
256
6
ByLayer
370
18
48
1
60
0
100
AcDbLine
10
0.3
20
31.5
30
0
11
22
21
31.5
31
0
39
0
210
0
220
0
230
1
0
LINE
5
75
100
AcDbEntity
8
1
62
256
6
ByLayer
370
18
48
1
60
0
100
AcDbLine
10
22
20
-31.5
30
0
11
0.3
21
-31.5
31
0
39
0
210
0
220
0
230
1
0
LINE
5
76
100
AcDbEntity
8
1
62
256
6
ByLayer
370
18
48
1
60
0
100
AcDbLine
10
0.3
20
-31.5
30
0
11
0
21
-31.2
31
0
39
0
210
0
220
0
230
1
0
LINE
5
77
100
AcDbEntity
8
1
62
256
6
ByLayer
370
18
48
1
60
0
100
AcDbLine
10
0
20
31.2
30
0
11
0.3
21
31.5
31
0
39
0
210
0
220
0
230
1
0
LINE
5
78
100
AcDbEntity
8
1
62
256
6
ByLayer
370
18
48
1
60
0
100
AcDbLine
10
22
20
31.5
30
0
11
103.584356
21
22.970726
31
0
39
0
210
0
220
0
230
1
0
LINE
5
79
100
AcDbEntity
8
1
62
256
6
ByLayer
370
18
48
1
60
0
100
AcDbLine
10
23.247283
20
-31.369602
30
0
11
22
21
-31.5
31
0
39
0
210
0
220
0
230
1
0
LINE
5
7A
100
AcDbEntity
8
1
62
256
6
ByLayer
370
18
48
1
60
0
100
AcDbLine
10
107.701539
20
0.034836
30
0
11
108.585793
21
-0.193848
31
0
39
0
210
0
220
0
230
1
0
LINE
5
7B
100
AcDbEntity
8
1
62
256
6
ByLayer
370
18
48
1
60
0
100
AcDbLine
10
94.733552
20
5.077879
30
0
11
95.212197
21
4.02823
31
0
39
0
210
0
220
0
230
1
0
LINE
5
7C
100
AcDbEntity
8
1
62
256
6
ByLayer
370
18
48
1
60
0
100
AcDbLine
10
95.809343
20
4.414015
30
0
11
95.330698
21
5.463664
31
0
39
0
210
0
220
0
230
1
0
LINE
5
7D
100
AcDbEntity
8
1
62
256
6
ByLayer
370
18
48
1
60
0
100
AcDbLine
10
95.809343
20
4.414015
30
0
11
96.648132
21
4.739682
31
0
39
0
210
0
220
0
230
1
0
LINE
5
7E
100
AcDbEntity
8
1
62
256
6
ByLayer
370
18
48
1
60
0
100
AcDbLine
10
95.212197
20
5.958429
30
0
11
94.733552
21
5.077879
31
0
39
0
210
0
220
0
230
1
0
LINE
5
7F
100
AcDbEntity
8
1
62
256
6
ByLayer
370
18
48
1
60
0
100
AcDbLine
10
96.169487
20
3.859132
30
0
11
96.648132
21
4.739682
31
0
39
0
210
0
220
0
230
1
0
LINE
5
80
100
AcDbEntity
8
1
62
256
6
ByLayer
370
18
48
1
60
0
100
AcDbLine
10
96.169487
20
5.789331
30
0
11
95.212197
21
5.958429
31
0
39
0
210
0
220
0
230
1
0
LINE
5
81
100
AcDbEntity
8
1
62
256
6
ByLayer
370
18
48
1
60
0
100
AcDbLine
10
96.648132
20
4.739682
30
0
11
96.169487
21
5.789331
31
0
39
0
210
0
220
0
230
1
0
LINE
5
82
100
AcDbEntity
8
1
62
256
6
ByLayer
370
18
48
1
60
0
100
AcDbLine
10
95.565698
20
3.965788
30
0
11
95.809343
21
4.414015
31
0
39
0
210
0
220
0
230
1
0
LINE
5
83
100
AcDbEntity
8
1
62
256
6
ByLayer
370
18
48
1
60
0
100
AcDbLine
10
95.330698
20
5.463664
30
0
11
96.169487
21
5.789331
31
0
39
0
210
0
220
0
230
1
0
LINE
5
84
100
AcDbEntity
8
1
62
256
6
ByLayer
370
18
48
1
60
0
100
AcDbLine
10
95.212197
20
4.02823
30
0
11
96.169487
21
3.859132
31
0
39
0
210
0
220
0
230
1
0
LINE
5
85
100
AcDbEntity
8
1
62
256
6
ByLayer
370
18
48
1
60
0
100
AcDbLine
10
95.330698
20
5.463664
30
0
11
94.977189
21
5.526109
31
0
39
0
210
0
220
0
230
1
0
LINE
5
86
100
AcDbEntity
8
1
62
256
6
ByLayer
370
18
48
1
60
0
100
AcDbLine
10
118.131044
20
9.628438
30
0
11
117.781724
21
9.718778
31
0
39
0
210
0
220
0
230
1
0
LINE
5
87
100
AcDbEntity
8
1
62
256
6
ByLayer
370
18
48
1
60
0
100
AcDbLine
10
114.615893
20
-2.580316
30
0
11
114.951218
21
-2.667037
31
0
39
0
210
0
220
0
230
1
0
LINE
5
88
100
AcDbEntity
8
1
62
256
6
ByLayer
370
18
48
1
60
0
100
AcDbLine
10
117.358461
20
-3.289593
30
0
11
114.951218
21
-2.667037
31
0
39
0
210
0
220
0
230
1
0
LINE
5
89
100
AcDbEntity
8
1
62
256
6
ByLayer
370
18
48
1
60
0
100
AcDbLine
10
104.678683
20
5.821309
30
0
11
108.764215
21
2.095825
31
0
39
0
210
0
220
0
230
1
0
LINE
5
8A
100
AcDbEntity
8
1
62
256
6
ByLayer
370
18
48
1
60
0
100
AcDbLine
10
129.743279
20
0.793621
30
0
11
121.02893
21
8.739996
31
0
39
0
210
0
220
0
230
1
0
LINE
5
8B
100
AcDbEntity
8
1
62
256
6
ByLayer
370
18
48
1
60
0
100
AcDbLine
10
117.916491
20
-3.294912
30
0
11
129.390712
21
-0.569656
31
0
39
0
210
0
220
0
230
1
0
LINE
5
8C
100
AcDbEntity
8
1
62
256
6
ByLayer
370
18
48
1
60
0
100
AcDbLine
10
120.538287
20
9.005882
30
0
11
118.131044
21
9.628438
31
0
39
0
210
0
220
0
230
1
0
LINE
5
8D
100
AcDbEntity
8
1
62
256
6
ByLayer
370
18
48
1
60
0
100
AcDbLine
10
89.330554
20
-1.546956
30
0
11
109.713742
21
-1.06141
31
0
39
0
210
0
220
0
230
1
0
LINE
5
8E
100
AcDbEntity
8
1
62
256
6
ByLayer
370
18
48
1
60
0
100
AcDbLine
10
103.698558
20
5.900409
30
0
11
102.417876
21
11.479365
31
0
39
0
210
0
220
0
230
1
0
LINE
5
8F
100
AcDbEntity
8
1
62
256
6
ByLayer
370
18
48
1
60
0
100
AcDbLine
10
102.240559
20
12.251798
30
0
11
99.853363
21
22.650988
31
0
39
0
210
0
220
0
230
1
0
LINE
5
90
100
AcDbEntity
8
1
62
256
6
ByLayer
370
18
48
1
60
0
100
AcDbLine
10
110.968675
20
-1.749985
30
0
11
110.643772
21
-0.646122
31
0
39
0
210
0
220
0
230
1
0
LINE
5
91
100
AcDbEntity
8
1
62
256
6
ByLayer
370
18
48
1
60
0
100
AcDbLine
10
114.811793
20
-3.156832
30
0
11
110.955889
21
-4.072652
31
0
39
0
210
0
220
0
230
1
0
LINE
5
92
100
AcDbEntity
8
1
62
256
6
ByLayer
370
18
48
1
60
0
100
AcDbLine
10
22
20
-31.5
30
0
11
22
21
31.5
31
0
39
0
210
0
220
0
230
1
0
LINE
5
93
100
AcDbEntity
8
1
62
256
6
ByLayer
370
18
48
1
60
0
100
AcDbLine
10
13.461325
20
9.349221
30
0
11
10.538675
21
9.349221
31
0
39
0
210
0
220
0
230
1
0
LINE
5
94
100
AcDbEntity
8
1
62
256
6
ByLayer
370
18
48
1
60
0
100
AcDbLine
10
10.538675
20
30.080593
30
0
11
13.461325
21
30.080593
31
0
39
0
210
0
220
0
230
1
0
LINE
5
95
100
AcDbEntity
8
1
62
256
6
ByLayer
370
18
48
1
60
0
100
AcDbLine
10
13.461325
20
-30.080593
30
0
11
10.538675
21
-30.080593
31
0
39
0
210
0
220
0
230
1
0
LINE
5
96
100
AcDbEntity
8
1
62
256
6
ByLayer
370
18
48
1
60
0
100
AcDbLine
10
10.538675
20
-9.349221
30
0
11
13.461325
21
-9.349221
31
0
39
0
210
0
220
0
230
1
0
LINE
5
97
100
AcDbEntity
8
SK1
62
256
6
ByLayer
370
18
48
1
60
0
100
AcDbLine
10
-0.2
20
22.533485
30
0
11
-0.2
21
7.059517
31
0
39
0
210
0
220
0
230
1
0
LINE
5
99
100
AcDbEntity
8
SK1
62
256
6
ByLayer
370
18
48
1
60
0
100
AcDbLine
10
-0.2
20
-7.059518
30
0
11
-0.2
21
-22.533485
31
0
39
0
210
0
220
0
230
1
0
LINE
5
9A
100
AcDbEntity
8
1
62
256
6
ByLayer
370
18
48
1
60
0
100
AcDbLine
10
0.3
20
31.5
30
0
11
0.3
21
-31.5
31
0
39
0
210
0
220
0
230
1
0
LINE
5
9B
100
AcDbEntity
8
1
62
256
6
ByLayer
370
18
48
1
60
0
100
AcDbLine
10
0
20
31.2
30
0
11
0
21
-31.2
31
0
39
0
210
0
220
0
230
1
0
LINE
5
9C
100
AcDbEntity
8
SK1
62
256
6
ByLayer
370
18
48
1
60
0
100
AcDbLine
10
-1.307107
20
4.811013
30
0
11
-1.307107
21
-4.811013
31
0
39
0
210
0
220
0
230
1
0
LINE
5
9D
100
AcDbEntity
8
1
62
256
6
ByLayer
370
18
48
1
60
0
100
AcDbLine
10
10.105662
20
-9.869413
30
0
11
10.105662
21
-29.913955
31
0
39
0
210
0
220
0
230
1
0
LINE
5
9E
100
AcDbEntity
8
1
62
256
6
ByLayer
370
18
48
1
60
0
100
AcDbLine
10
10.538675
20
-9.349221
30
0
11
10.538675
21
-30.080593
31
0
39
0
210
0
220
0
230
1
0
LINE
5
9F
100
AcDbEntity
8
1
62
256
6
ByLayer
370
18
48
1
60
0
100
AcDbLine
10
13.461325
20
-9.349221
30
0
11
13.461325
21
-30.080593
31
0
39
0
210
0
220
0
230
1
0
LINE
5
A0
100
AcDbEntity
8
1
62
256
6
ByLayer
370
18
48
1
60
0
100
AcDbLine
10
13.894338
20
-9.869413
30
0
11
13.894338
21
-29.913955
31
0
39
0
210
0
220
0
230
1
0
LINE
5
A1
100
AcDbEntity
8
1
62
256
6
ByLayer
370
18
48
1
60
0
100
AcDbLine
10
10.105662
20
29.913955
30
0
11
10.105662
21
9.869413
31
0
39
0
210
0
220
0
230
1
0
LINE
5
A2
100
AcDbEntity
8
1
62
256
6
ByLayer
370
18
48
1
60
0
100
AcDbLine
10
10.538675
20
30.080593
30
0
11
10.538675
21
9.349221
31
0
39
0
210
0
220
0
230
1
0
LINE
5
A3
100
AcDbEntity
8
1
62
256
6
ByLayer
370
18
48
1
60
0
100
AcDbLine
10
13.461325
20
30.080593
30
0
11
13.461325
21
9.349221
31
0
39
0
210
0
220
0
230
1
0
LINE
5
A4
100
AcDbEntity
8
1
62
256
6
ByLayer
370
18
48
1
60
0
100
AcDbLine
10
13.894338
20
29.913955
30
0
11
13.894338
21
9.869413
31
0
39
0
210
0
220
0
230
1
0
LINE
5
A5
100
AcDbEntity
8
1
62
256
6
ByLayer
370
18
48
1
60
0
100
AcDbLine
10
104.550798
20
1.5481
30
0
11
108.370018
21
2.455208
31
0
39
0
210
0
220
0
230
1
0
LINE
5
A6
100
AcDbEntity
8
1
62
256
6
ByLayer
370
18
48
1
60
0
100
AcDbLine
10
108.514754
20
2.323273
30
0
11
104.609031
21
1.39562
31
0
39
0
210
0
220
0
230
1
0
LINE
5
A7
100
AcDbEntity
8
1
62
256
6
ByLayer
370
18
48
1
60
0
100
AcDbLine
10
108.538079
20
2.210984
30
0
11
108.641023
21
2.117939
31
0
39
0
210
0
220
0
230
1
0
LINE
5
A8
100
AcDbEntity
8
1
62
256
6
ByLayer
370
18
48
1
60
0
100
AcDbLine
10
108.385442
20
2.163883
30
0
11
109.610443
21
1.943824
31
0
39
0
210
0
220
0
230
1
0
LINE
5
A9
100
AcDbEntity
8
1
62
256
6
ByLayer
370
18
48
1
60
0
100
AcDbLine
10
106.138132
20
1.09862
30
0
11
104.609031
21
1.39562
31
0
39
0
210
0
220
0
230
1
0
LINE
5
AA
100
AcDbEntity
8
1
62
256
6
ByLayer
370
18
48
1
60
0
100
AcDbLine
10
108.538079
20
2.210984
30
0
11
108.617302
21
2.2298
31
0
39
0
210
0
220
0
230
1
0
LINE
5
AB
100
AcDbEntity
8
1
62
256
6
ByLayer
370
18
48
1
60
0
100
AcDbLine
10
104.908427
20
22.314067
30
0
11
118.252203
21
10.146246
31
0
39
0
210
0
220
0
230
1
0
LINE
5
AC
100
AcDbEntity
8
1
62
256
6
ByLayer
370
18
48
1
60
0
100
AcDbLine
10
118.165207
20
9.809857
30
0
11
118.252203
21
10.146246
31
0
39
0
210
0
220
0
230
1
0
LINE
5
AD
100
AcDbEntity
8
1
62
256
6
ByLayer
370
18
48
1
60
0
100
AcDbLine
10
118.165207
20
9.809857
30
0
11
113.809186
21
8.775254
31
0
39
0
210
0
220
0
230
1
0
LINE
5
AE
100
AcDbEntity
8
1
62
256
6
ByLayer
370
18
48
1
60
0
100
AcDbLine
10
112.939779
20
8.722424
30
0
11
109.918907
21
8.004933
31
0
39
0
210
0
220
0
230
1
0
LINE
5
AF
100
AcDbEntity
8
1
62
256
6
ByLayer
370
18
48
1
60
0
100
AcDbLine
10
109.114948
20
7.66032
30
0
11
104.963598
21
6.674328
31
0
39
0
210
0
220
0
230
1
0
LINE
5
B0
100
AcDbEntity
8
1
62
256
6
ByLayer
370
18
48
1
60
0
100
AcDbLine
10
109.610443
20
1.943824
30
0
11
108.711095
21
1.730219
31
0
39
0
210
0
220
0
230
1
0
LINE
5
B1
100
AcDbEntity
8
1
62
256
6
ByLayer
370
18
48
1
60
0
100
AcDbLine
10
109.610443
20
1.943824
30
0
11
114.895527
21
-2.83306
31
0
39
0
210
0
220
0
230
1
0
LINE
5
B2
100
AcDbEntity
8
1
62
256
6
ByLayer
370
18
48
1
60
0
100
AcDbLine
10
114.811793
20
-3.156832
30
0
11
114.895527
21
-2.83306
31
0
39
0
210
0
220
0
230
1
0
LINE
5
B3
100
AcDbEntity
8
1
62
256
6
ByLayer
370
18
48
1
60
0
100
AcDbLine
10
107.926025
20
-0.160081
30
0
11
106.985839
21
0.083068
31
0
39
0
210
0
220
0
230
1
0
LINE
5
B4
100
AcDbEntity
8
1
62
256
6
ByLayer
370
18
48
1
60
0
100
AcDbLine
10
88.107019
20
-10.80114
30
0
11
108.682424
21
-5.136864
31
0
39
0
210
0
220
0
230
1
0
LINE
5
B5
100
AcDbEntity
8
1
62
256
6
ByLayer
370
18
48
1
60
0
100
AcDbLine
10
110.131635
20
-2.60639
30
0
11
109.883123
21
-1.522283
31
0
39
0
210
0
220
0
230
1
0
LINE
5
B6
100
AcDbEntity
8
1
62
256
6
ByLayer
370
18
48
1
60
0
100
AcDbLine
10
99.249113
20
20.391567
30
0
11
103.753613
21
2.898941
31
0
39
0
210
0
220
0
230
1
0
LINE
5
B7
100
AcDbEntity
8
1
62
256
6
ByLayer
370
18
48
1
60
0
100
AcDbLine
10
105.229852
20
11.181683
30
0
11
105.436614
21
11.26699
31
0
39
0
210
0
220
0
230
1
0
LINE
5
B8
100
AcDbEntity
8
1
62
256
6
ByLayer
370
18
48
1
60
0
100
AcDbLine
10
116.899224
20
5.543774
30
0
11
116.821098
21
5.563978
31
0
39
0
210
0
220
0
230
1
0
LINE
5
B9
100
AcDbEntity
8
1
62
256
6
ByLayer
370
18
48
1
60
0
100
AcDbLine
10
116.900248
20
5.541124
30
0
11
116.906174
21
5.541337
31
0
39
0
210
0
220
0
230
1
0
LINE
5
BA
100
AcDbEntity
8
1
62
256
6
ByLayer
370
18
48
1
60
0
100
AcDbLine
10
95.672119
20
-6.768673
30
0
11
96.501144
21
-7.169842
31
0
39
0
210
0
220
0
230
1
0
LINE
5
BB
100
AcDbEntity
8
1
62
256
6
ByLayer
370
18
48
1
60
0
100
AcDbLine
10
96.491392
20
-6.035698
30
0
11
96.491392
21
-4.995502
31
0
39
0
210
0
220
0
230
1
0
LINE
5
BC
100
AcDbEntity
8
1
62
256
6
ByLayer
370
18
48
1
60
0
100
AcDbLine
10
95.672109
20
-6.75538
30
0
11
96.491392
21
-6.035698
31
0
39
0
210
0
220
0
230
1
0
LINE
5
BD
100
AcDbEntity
8
1
62
256
6
ByLayer
370
18
48
1
60
0
100
AcDbLine
10
97.330182
20
-5.350132
30
0
11
96.501144
21
-4.98692
31
0
39
0
210
0
220
0
230
1
0
LINE
5
BE
100
AcDbEntity
8
1
62
256
6
ByLayer
370
18
48
1
60
0
100
AcDbLine
10
97.330182
20
-6.441592
30
0
11
97.330182
21
-5.350132
31
0
39
0
210
0
220
0
230
1
0
LINE
5
BF
100
AcDbEntity
8
1
62
256
6
ByLayer
370
18
48
1
60
0
100
AcDbLine
10
96.501144
20
-7.169842
30
0
11
97.330182
21
-6.441592
31
0
39
0
210
0
220
0
230
1
0
LINE
5
C0
100
AcDbEntity
8
1
62
256
6
ByLayer
370
18
48
1
60
0
100
AcDbLine
10
95.672107
20
-6.806631
30
0
11
96.501144
21
-7.169842
31
0
39
0
210
0
220
0
230
1
0
LINE
5
C1
100
AcDbEntity
8
1
62
256
6
ByLayer
370
18
48
1
60
0
100
AcDbLine
10
95.672107
20
-5.71517
30
0
11
95.672107
21
-6.806631
31
0
39
0
210
0
220
0
230
1
0
LINE
5
C2
100
AcDbEntity
8
1
62
256
6
ByLayer
370
18
48
1
60
0
100
AcDbLine
10
96.501144
20
-4.98692
30
0
11
95.672107
21
-5.71517
31
0
39
0
210
0
220
0
230
1
0
LINE
5
C3
100
AcDbEntity
8
1
62
256
6
ByLayer
370
18
48
1
60
0
100
AcDbLine
10
96.491392
20
-6.035698
30
0
11
97.330182
21
-6.441592
31
0
39
0
210
0
220
0
230
1
0
LINE
5
C4
100
AcDbEntity
8
1
62
256
6
ByLayer
370
18
48
1
60
0
100
AcDbLine
10
106.06211
20
11.52506
30
0
11
106.551071
21
11.726799
31
0
39
0
210
0
220
0
230
1
0
LINE
5
C5
100
AcDbEntity
8
1
62
256
6
ByLayer
370
18
48
1
60
0
100
AcDbLine
10
106.06211
20
11.52506
30
0
11
106.698433
21
11.360496
31
0
39
0
210
0
220
0
230
1
0
LINE
5
C6
100
AcDbEntity
8
1
62
256
6
ByLayer
370
18
48
1
60
0
100
AcDbLine
10
106.072937
20
11.102425
30
0
11
105.436614
21
11.26699
31
0
39
0
210
0
220
0
230
1
0
LINE
5
C7
100
AcDbEntity
8
1
62
256
6
ByLayer
370
18
48
1
60
0
100
AcDbLine
10
106.722543
20
12.931932
30
0
11
107.358866
21
12.767368
31
0
39
0
210
0
220
0
230
1
0
LINE
5
C8
100
AcDbEntity
8
1
62
256
6
ByLayer
370
18
48
1
60
0
100
AcDbLine
10
107.262627
20
12.09098
30
0
11
106.626303
21
12.255544
31
0
39
0
210
0
220
0
230
1
0
LINE
5
C9
100
AcDbEntity
8
1
62
256
6
ByLayer
370
18
48
1
60
0
100
AcDbLine
10
106.384045
20
13.787685
30
0
11
107.020368
21
13.62312
31
0
39
0
210
0
220
0
230
1
0
LINE
5
CA
100
AcDbEntity
8
1
62
256
6
ByLayer
370
18
48
1
60
0
100
AcDbLine
10
106.491112
20
14.041438
30
0
11
105.854789
21
14.206003
31
0
39
0
210
0
220
0
230
1
0
LINE
5
CB
100
AcDbEntity
8
1
62
256
6
ByLayer
370
18
48
1
60
0
100
AcDbLine
10
107.206485
20
11.557297
30
0
11
106.551071
21
11.726799
31
0
39
0
210
0
220
0
230
1
0
LINE
5
CC
100
AcDbEntity
8
1
62
256
6
ByLayer
370
18
48
1
60
0
100
AcDbLine
10
107.453188
20
13.291176
30
0
11
106.797775
21
13.460678
31
0
39
0
210
0
220
0
230
1
0
LINE
5
CD
100
AcDbEntity
8
1
62
256
6
ByLayer
370
18
48
1
60
0
100
AcDbLine
10
106.384045
20
13.787685
30
0
11
106.797775
21
13.460678
31
0
39
0
210
0
220
0
230
1
0
LINE
5
CE
100
AcDbEntity
8
1
62
256
6
ByLayer
370
18
48
1
60
0
100
AcDbLine
10
106.551071
20
11.726799
30
0
11
106.626303
21
12.255544
31
0
39
0
210
0
220
0
230
1
0
LINE
5
CF
100
AcDbEntity
8
1
62
256
6
ByLayer
370
18
48
1
60
0
100
AcDbLine
10
106.722543
20
12.931932
30
0
11
106.797775
21
13.460678
31
0
39
0
210
0
220
0
230
1
0
LINE
5
D0
100
AcDbEntity
8
4
62
256
6
ByLayer
370
13
48
0.05
60
0
100
AcDbLine
10
0.3
20
0
30
0
11
144.435152
21
0
31
0
39
0
210
0
220
0
230
1
0
LINE
5
D2
100
AcDbEntity
8
SK4
62
256
6
ByLayer
370
13
48
0.05
60
0
100
AcDbLine
10
-44.7
20
0
30
0
11
148.3
21
0
31
0
39
0
210
0
220
0
230
1
0
LINE
5
D4
100
AcDbEntity
8
80
62
256
6
ByLayer
370
18
48
1
60
0
100
AcDbLine
10
-17.28087
20
0
30
0
11
0
21
0
31
0
39
0
210
0
220
0
230
1
0
LINE
5
D5
100
AcDbEntity
8
81
62
256
6
ByLayer
370
18
48
1
60
0
100
AcDbLine
10
130
20
0.559525
30
0
11
147.28087
21
0.559525
31
0
39
0
210
0
220
0
230
1
0
MTEXT
5
159
100
AcDbEntity
8
SK6
62
256
6
ByLayer
370
18
48
1
60
0
100
AcDbMText
10
2.096592
20
-71.12614
30
0
210
0
220
0
230
1
1
\W0.7206;C6-PDMNR-00130-15HP
40
4.5
41
0
44
1.084337
50
0
71
7
72
5
7
iso_b_vert
0
DIMENSION
5
16A
100
AcDbEntity
8
2
62
256
6
ByLayer
370
13
48
1
60
0
100
AcDbDimension
2
DimnDraft3D1
10
0.559525
20
-139.92937
30
0
11
13.741193
21
-139.92937
31
0
70
32
71
5
72
1
41
1
210
0
220
0
230
1
3
Standard
100
AcDbAlignedDimension
13
0
23
-1.5875
33
0
14
0.559525
24
-139.92937
34
0
50
0
100
AcDbRotatedDimension
1001
ACAD
1000
DSTYLE
1002
{
1070
   279
1070
     0
1070
   172
1070
     1
1070
   173
1070
     1
1070
   340
1005
15A
1070
   271
1070
     2
1070
   272
1070
     2
1070
    77
1070
     1
1070
    73
1070
     0
1070
   171
1070
     3
1070
   274
1070
     4
1070
   177
1070
     7
1070
   176
1070
     7
1070
   178
1070
     7
1070
    78
1070
     8
1070
    48
1040
-0.005
1070
    41
1041
3.175
1070
   147
1041
1.75
1070
    42
1041
1.5875
1070
    44
1041
3.175
1070
   140
1041
3.5
1070
   343
1005
16B
1070
   344
1005
16B
1002
}
0
DIMENSION
5
17F
100
AcDbEntity
8
2
62
256
6
ByLayer
370
13
48
1
60
0
100
AcDbDimension
2
DimnDraft3D2
10
43.256442
20
130
30
0
11
43.256442
21
65
31
0
70
32
71
5
72
1
41
1
210
0
220
0
230
1
3
Standard
100
AcDbAlignedDimension
13
1.5875
23
0
33
0
14
1.027975
24
130
34
0
50
90
100
AcDbRotatedDimension
1001
ACAD
1000
DSTYLE
1002
{
1070
    74
1070
     0
1070
   279
1070
     0
1070
   172
1070
     1
1070
   173
1070
     1
1070
   340
1005
15A
1070
   271
1070
     2
1070
   272
1070
     2
1070
    77
1070
     1
1070
    73
1070
     0
1070
   171
1070
     3
1070
   274
1070
     4
1070
   177
1070
     7
1070
   176
1070
     7
1070
   178
1070
     7
1070
    78
1070
     8
1070
    48
1040
-0.005
1070
    41
1041
3.175
1070
   147
1041
1.75
1070
    42
1041
1.5875
1070
    44
1041
3.175
1070
   140
1041
3.5
1070
   343
1005
16B
1070
   344
1005
16B
1002
}
0
DIMENSION
5
18D
100
AcDbEntity
8
2
62
256
6
ByLayer
370
13
48
1
60
0
100
AcDbDimension
2
DimnDraft3D3
10
130
20
1.559525
30
0
11
19.529138
21
-81.043782
31
0
70
34
71
5
72
1
41
1
210
0
220
0
230
1
3
Standard
100
AcDb2LineAngularDimension
13
129.743279
23
0.793621
33
0
14
121.02893
24
8.739996
34
0
15
130
25
0.559525
35
0
16
18.264568
26
-84.307347
36
0
40
0
0
DIMENSION
5
19D
100
AcDbEntity
8
SK2
62
256
6
ByLayer
370
13
48
1
60
0
100
AcDbDimension
2
DimnDraft3D4
10
-56.390887
20
-31.5
30
0
11
-55.840887
21
3.205263
31
0
70
33
71
5
72
1
41
1
210
0
220
0
230
1
3
Standard
100
AcDbAlignedDimension
13
-1.2875
23
31.5
33
0
14
-1.2875
24
-31.5
34
0
1001
ACAD
1000
DSTYLE
1002
{
1070
   279
1070
     0
1070
    74
1070
     0
1070
   173
1070
     1
1070
   340
1005
15A
1070
   271
1070
     1
1070
   272
1070
     2
1070
    77
1070
     1
1070
    73
1070
     0
1070
   171
1070
     3
1070
   274
1070
     4
1070
   177
1070
     7
1070
   176
1070
     7
1070
   178
1070
     7
1070
    78
1070
     8
1070
    48
1040
-0.005
1070
    41
1041
3.175
1070
   147
1041
1.75
1070
    42
1041
1.5875
1070
    44
1041
3.175
1070
   140
1041
3.5
1070
   343
1005
16B
1070
   344
1005
16B
1002
}
0
ENDSEC
0
SECTION
2
OBJECTS
0
DICTIONARY
5
208
330
0
100
AcDbDictionary
280
0
281
1
3
ACAD_GROUP
350
209
3
ACAD_MLINESTYLE
350
20a
0
DICTIONARY
5
209
330
0
100
AcDbDictionary
280
0
281
1
0
DICTIONARY
5
20a
330
0
100
AcDbDictionary
280
0
281
1
3
Standard
350
18
0
MLINESTYLE
5
18
330
20a
100
AcDbMlineStyle
2
Standard
70
0
3

62
256
51
90
52
90
71
2
49
-0.5
62
256
6
ByLayer
49
0.5
62
256
6
ByLayer
0
RASTERVARIABLES
5
1f6
330

100
AcDbRasterVariables
90
0
70
1
71
1
72
1
0
ENDSEC
0
EOF
