0
SECTION
2
HEADER
9
$ACADVER
1
AC1015
9
$DWGCODEPAGE
3
ANSI_1252
9
$HANDSEED
5
22a
9
$ANGBASE
50
0
9
$ANGDIR
70
0
9
$ATTMODE
70
1
9
$AUNITS
70
0
9
$AUPREC
70
0
9
$CECOLOR
62
256
9
$CELTSCALE
40
1
9
$CELTYPE
6
ByLayer
9
$CELWEIGHT
370
18
9
$CLAYER
8
0
9
$CMLJUST
70
0
9
$CMLSCALE
40
1
9
$CMLSTYLE
2
Standard
9
$DIMSTYLE
2
Standard
9
$TEXTSIZE
40
0.2
9
$TEXTSTYLE
7
Standard
9
$LUNITS
70
2
9
$LUPREC
70
4
9
$EXTNAMES
290
1
9
$INSUNITS
70
4
9
$LTSCALE
40
1
9
$LWDISPLAY
290
1
9
$PDMODE
70
0
9
$PDSIZE
40
0
9
$PLINEGEN
70
0
0
ENDSEC
0
SECTION
2
CLASSES
0
CLASS
1
RASTERVARIABLES
2
AcDbRasterVariables
3
ISM
90
0
280
0
281
0
0
ENDSEC
0
SECTION
2
TABLES
0
TABLE
2
VPORT
5
220
100
AcDbSymbolTable
0
VPORT
5
1
100
AcDbSymbolTableRecord
100
AcDbViewportTableRecord
2
*Active
70
0
10
0
20
0
11
1
21
1
12
-1
22
1
13
0
23
0
14
0.5
24
0.5
15
10
25
10
16
0
26
0
36
1
17
0
27
0
37
0
0
ENDTAB
0
TABLE
2
LTYPE
5
221
100
AcDbSymbolTable
0
LTYPE
5
14
100
AcDbSymbolTableRecord
100
AcDbLinetypeTableRecord
70
0
2
ByBlock
3

72
65
73
0
40
0
0
LTYPE
5
15
100
AcDbSymbolTableRecord
100
AcDbLinetypeTableRecord
70
0
2
ByLayer
3

72
65
73
0
40
0
0
LTYPE
5
16
100
AcDbSymbolTableRecord
100
AcDbLinetypeTableRecord
70
0
2
CONTINUOUS
3
Solid line
72
65
73
0
40
0
0
LTYPE
5
6A
100
AcDbSymbolTableRecord
100
AcDbLinetypeTableRecord
70
0
2
CENTER
3
____ _ ____ _ ____ _ ____
72
65
73
4
40
47.5
49
22
74
0
49
-8.5
74
0
49
8.5
74
0
49
-8.5
74
0
0
LTYPE
5
6B
100
AcDbSymbolTableRecord
100
AcDbLinetypeTableRecord
70
0
2
DASHED
3
__ __ __ __ __ __ __ __ __
72
65
73
2
40
25.72
49
12.86
74
0
49
-12.86
74
0
0
ENDTAB
0
TABLE
2
LAYER
5
222
100
AcDbSymbolTable
0
LAYER
5
10
100
AcDbSymbolTableRecord
100
AcDbLayerTableRecord
2
0
70
0
62
7
6
CONTINUOUS
290
1
370
-3
390
0
0
LAYER
5
6D
100
AcDbSymbolTableRecord
100
AcDbLayerTableRecord
2
1
70
0
62
4
6
CONTINUOUS
290
1
370
-3
390
0
0
LAYER
5
7A
100
AcDbSymbolTableRecord
100
AcDbLayerTableRecord
2
81
70
0
62
-3
6
CONTINUOUS
290
1
370
-3
390
0
0
LAYER
5
7C
100
AcDbSymbolTableRecord
100
AcDbLayerTableRecord
2
80
70
0
62
-6
6
CONTINUOUS
290
1
370
-3
390
0
0
LAYER
5
D8
100
AcDbSymbolTableRecord
100
AcDbLayerTableRecord
2
4
70
0
62
-2
6
CENTER
290
1
370
-3
390
0
0
LAYER
5
18A
100
AcDbSymbolTableRecord
100
AcDbLayerTableRecord
2
2
70
0
62
7
6
CONTINUOUS
290
1
370
-3
390
0
0
LAYER
5
20c
100
AcDbSymbolTableRecord
100
AcDbLayerTableRecord
2
SK1
70
0
62
4
6
CONTINUOUS
290
1
370
-3
390
0
0
LAYER
5
20d
100
AcDbSymbolTableRecord
100
AcDbLayerTableRecord
2
SK4
70
0
62
2
6
CENTER
290
1
370
-3
390
0
0
LAYER
5
20e
100
AcDbSymbolTableRecord
100
AcDbLayerTableRecord
2
SK6
70
0
62
5
6
CONTINUOUS
290
1
370
-3
390
0
0
LAYER
5
20f
100
AcDbSymbolTableRecord
100
AcDbLayerTableRecord
2
SK2
70
0
62
7
6
CONTINUOUS
290
1
370
-3
390
0
0
ENDTAB
0
TABLE
2
STYLE
5
223
100
AcDbSymbolTable
0
STYLE
5
11
100
AcDbSymbolTableRecord
100
AcDbTextStyleTableRecord
2
Standard
3
txt
70
0
71
0
40
0
41
1
42
0
50
0
0
STYLE
5
16E
100
AcDbSymbolTableRecord
100
AcDbTextStyleTableRecord
2
iso_b_vert
3
simplex.shx
70
0
71
0
40
0
41
1
42
0
50
0
0
STYLE
5
16F
100
AcDbSymbolTableRecord
100
AcDbTextStyleTableRecord
2
DWGDirectTextStyle
3
simplex
70
0
71
0
40
0
41
1
42
0
50
0
0
ENDTAB
0
TABLE
2
DIMSTYLE
5
224
100
AcDbSymbolTable
100
AcDbDimStyleTable
0
DIMSTYLE
105
27
100
AcDbSymbolTableRecord
100
AcDbDimStyleTableRecord
2
Standard
70
0
3
<>
41
0.18
42
0.0625
44
0.18
140
0.18
147
0.09
73
0
74
0
77
1
271
2
275
0
278
52
280
0
340
11
0
ENDTAB
0
TABLE
2
VIEW
5
225
100
AcDbSymbolTable
0
ENDTAB
0
TABLE
2
UCS
5
226
100
AcDbSymbolTable
0
ENDTAB
0
TABLE
2
APPID
5
227
100
AcDbSymbolTable
0
APPID
5
12
100
AcDbSymbolTableRecord
100
AcDbRegAppTableRecord
2
ACAD
70
0
0
ENDTAB
0
TABLE
2
BLOCK_RECORD
5
228
100
AcDbSymbolTable
0
BLOCK_RECORD
5
1F
100
AcDbSymbolTableRecord
100
AcDbBlockTableRecord
2
*Model_Space
340
0
70
0
0
BLOCK_RECORD
5
1B
100
AcDbSymbolTableRecord
100
AcDbBlockTableRecord
2
*Paper_Space
340
0
70
0
0
BLOCK_RECORD
5
23
100
AcDbSymbolTableRecord
100
AcDbBlockTableRecord
2
*Paper_Space0
340
0
70
0
0
BLOCK_RECORD
5
171
100
AcDbSymbolTableRecord
100
AcDbBlockTableRecord
2
DimnDraft3D1
340
0
70
0
0
BLOCK_RECORD
5
181
100
AcDbSymbolTableRecord
100
AcDbBlockTableRecord
2
_CLOSED
340
0
70
0
0
BLOCK_RECORD
5
188
100
AcDbSymbolTableRecord
100
AcDbBlockTableRecord
2
DimnDraft3D2
340
0
70
0
0
BLOCK_RECORD
5
197
100
AcDbSymbolTableRecord
100
AcDbBlockTableRecord
2
DimnDraft3D3
340
0
70
0
0
BLOCK_RECORD
5
1A5
100
AcDbSymbolTableRecord
100
AcDbBlockTableRecord
2
DimnDraft3D4
340
0
70
0
0
ENDTAB
0
ENDSEC
0
SECTION
2
BLOCKS
0
BLOCK
5
20
100
AcDbEntity
8
0
100
AcDbBlockBegin
2
*Model_Space
70
0
10
0
20
0
30
0
3
*Model_Space
0
ENDBLK
5
21
100
AcDbEntity
8
0
100
AcDbBlockEnd
0
BLOCK
5
1C
100
AcDbEntity
8
0
100
AcDbBlockBegin
2
*Paper_Space
70
0
10
0
20
0
30
0
3
*Paper_Space
0
ENDBLK
5
1D
100
AcDbEntity
8
0
100
AcDbBlockEnd
0
BLOCK
5
24
100
AcDbEntity
8
0
100
AcDbBlockBegin
2
*Paper_Space0
70
0
10
0
20
0
30
0
3
*Paper_Space0
0
ENDBLK
5
25
100
AcDbEntity
8
0
100
AcDbBlockEnd
0
BLOCK
5
17E
100
AcDbEntity
8
0
100
AcDbBlockBegin
2
DimnDraft3D1
70
0
10
0
20
0
30
0
3
DimnDraft3D1
0
MTEXT
5
172
100
AcDbEntity
8
SK2
62
256
6
ByLayer
370
18
48
1
60
0
100
AcDbMText
10
-64.261777
20
2.705037
30
0
210
0
220
0
230
1
1
\W0.6562;63
40
3.50012
41
0
44
1.084337
50
90
71
7
72
5
7
iso_b_vert
0
MTEXT
5
174
100
AcDbEntity
8
SK2
62
256
6
ByLayer
370
18
48
1
60
0
100
AcDbMText
10
-64.261777
20
-6.017918
30
0
210
0
220
0
230
1
1
%%c
40
3.50012
41
0
44
1.084337
50
90
71
7
72
5
7
iso_b_vert
0
LINE
5
175
100
AcDbEntity
8
SK2
62
256
6
ByLayer
370
13
48
1
60
0
100
AcDbLine
10
-1.2875
20
-31.5
30
0
11
-65.686717
21
-31.5
31
0
39
0
210
0
220
0
230
1
0
LINE
5
176
100
AcDbEntity
8
SK2
62
256
6
ByLayer
370
13
48
1
60
0
100
AcDbLine
10
-1.2875
20
31.5
30
0
11
-65.686717
21
31.5
31
0
39
0
210
0
220
0
230
1
0
LINE
5
177
100
AcDbEntity
8
SK2
62
256
6
ByLayer
370
13
48
1
60
0
100
AcDbLine
10
-62.511717
20
-31.5
30
0
11
-62.511717
21
31.5
31
0
39
0
210
0
220
0
230
1
0
LINE
5
178
100
AcDbEntity
8
SK2
62
256
6
ByLayer
370
13
48
1
60
0
100
AcDbLine
10
-62.511717
20
-31.5
30
0
11
-62.929714
21
-28.325002
31
0
39
0
210
0
220
0
230
1
0
LINE
5
179
100
AcDbEntity
8
SK2
62
256
6
ByLayer
370
13
48
1
60
0
100
AcDbLine
10
-62.511717
20
-31.5
30
0
11
-62.09372
21
-28.324998
31
0
39
0
210
0
220
0
230
1
0
LINE
5
17A
100
AcDbEntity
8
SK2
62
256
6
ByLayer
370
13
48
1
60
0
100
AcDbLine
10
-62.929714
20
-28.325002
30
0
11
-62.09372
21
-28.324998
31
0
39
0
210
0
220
0
230
1
0
LINE
5
17B
100
AcDbEntity
8
SK2
62
256
6
ByLayer
370
13
48
1
60
0
100
AcDbLine
10
-62.511717
20
31.5
30
0
11
-62.09372
21
28.325002
31
0
39
0
210
0
220
0
230
1
0
LINE
5
17C
100
AcDbEntity
8
SK2
62
256
6
ByLayer
370
13
48
1
60
0
100
AcDbLine
10
-62.511717
20
31.5
30
0
11
-62.929714
21
28.324998
31
0
39
0
210
0
220
0
230
1
0
LINE
5
17D
100
AcDbEntity
8
SK2
62
256
6
ByLayer
370
13
48
1
60
0
100
AcDbLine
10
-62.09372
20
28.325002
30
0
11
-62.929714
21
28.324998
31
0
39
0
210
0
220
0
230
1
0
ENDBLK
5
17F
100
AcDbEntity
8
0
100
AcDbBlockEnd
0
BLOCK
5
182
100
AcDbEntity
8
0
100
AcDbBlockBegin
2
_CLOSED
70
0
10
0
20
0
30
0
3
_CLOSED
0
LINE
5
184
100
AcDbEntity
8
0
62
256
6
ByLayer
370
-2
48
1
60
0
100
AcDbLine
10
-1
20
0.166667
30
0
11
0
21
0
31
0
39
0
210
0
220
0
230
1
0
LINE
5
185
100
AcDbEntity
8
0
62
256
6
ByLayer
370
-2
48
1
60
0
100
AcDbLine
10
0
20
0
30
0
11
-1
21
-0.166667
31
0
39
0
210
0
220
0
230
1
0
LINE
5
186
100
AcDbEntity
8
0
62
256
6
ByLayer
370
-2
48
1
60
0
100
AcDbLine
10
-1
20
0.166667
30
0
11
-1
21
-0.166667
31
0
39
0
210
0
220
0
230
1
0
LINE
5
187
100
AcDbEntity
8
0
62
256
6
ByLayer
370
-2
48
1
60
0
100
AcDbLine
10
0
20
0
30
0
11
-1
21
0
31
0
39
0
210
0
220
0
230
1
0
ENDBLK
5
183
100
AcDbEntity
8
0
100
AcDbBlockEnd
0
BLOCK
5
194
100
AcDbEntity
8
0
100
AcDbBlockBegin
2
DimnDraft3D2
70
0
10
0
20
0
30
0
3
DimnDraft3D2
0
MTEXT
5
189
100
AcDbEntity
8
2
62
256
6
ByLayer
370
18
48
1
60
0
100
AcDbMText
10
83.301677
20
62.916868
30
0
210
0
220
0
230
1
1
\W0.6044;165
40
3.50012
41
0
44
1.084337
50
0
71
7
72
5
7
iso_b_vert
0
LINE
5
18B
100
AcDbEntity
8
2
62
256
6
ByLayer
370
13
48
1
60
0
100
AcDbLine
10
0
20
32.7875
30
0
11
0
21
65.216838
31
0
39
0
210
0
220
0
230
1
0
LINE
5
18C
100
AcDbEntity
8
2
62
256
6
ByLayer
370
13
48
1
60
0
100
AcDbLine
10
164.999654
20
45.813532
30
0
11
164.999654
21
65.216838
31
0
39
0
210
0
220
0
230
1
0
LINE
5
18D
100
AcDbEntity
8
2
62
256
6
ByLayer
370
13
48
1
60
0
100
AcDbLine
10
0
20
62.041838
30
0
11
164.999654
21
62.041838
31
0
39
0
210
0
220
0
230
1
0
LINE
5
18E
100
AcDbEntity
8
2
62
256
6
ByLayer
370
13
48
1
60
0
100
AcDbLine
10
0
20
62.041838
30
0
11
3.174998
21
62.459835
31
0
39
0
210
0
220
0
230
1
0
LINE
5
18F
100
AcDbEntity
8
2
62
256
6
ByLayer
370
13
48
1
60
0
100
AcDbLine
10
0
20
62.041838
30
0
11
3.175002
21
61.623841
31
0
39
0
210
0
220
0
230
1
0
LINE
5
190
100
AcDbEntity
8
2
62
256
6
ByLayer
370
13
48
1
60
0
100
AcDbLine
10
3.174998
20
62.459835
30
0
11
3.175002
21
61.623841
31
0
39
0
210
0
220
0
230
1
0
LINE
5
191
100
AcDbEntity
8
2
62
256
6
ByLayer
370
13
48
1
60
0
100
AcDbLine
10
164.999654
20
62.041838
30
0
11
161.824656
21
61.623841
31
0
39
0
210
0
220
0
230
1
0
LINE
5
192
100
AcDbEntity
8
2
62
256
6
ByLayer
370
13
48
1
60
0
100
AcDbLine
10
164.999654
20
62.041838
30
0
11
161.824653
21
62.459835
31
0
39
0
210
0
220
0
230
1
0
LINE
5
193
100
AcDbEntity
8
2
62
256
6
ByLayer
370
13
48
1
60
0
100
AcDbLine
10
161.824656
20
61.623841
30
0
11
161.824653
21
62.459835
31
0
39
0
210
0
220
0
230
1
0
ENDBLK
5
195
100
AcDbEntity
8
0
100
AcDbBlockEnd
0
BLOCK
5
1A2
100
AcDbEntity
8
0
100
AcDbBlockBegin
2
DimnDraft3D3
70
0
10
0
20
0
30
0
3
DimnDraft3D3
0
MTEXT
5
198
100
AcDbEntity
8
2
62
256
6
ByLayer
370
18
48
1
60
0
100
AcDbMText
10
175.425589
20
20.084438
30
0
210
0
220
0
230
1
1
\W0.7183;45
40
3.50012
41
0
44
1.084337
50
90
71
7
72
5
7
iso_b_vert
0
LINE
5
199
100
AcDbEntity
8
2
62
256
6
ByLayer
370
13
48
1
60
0
100
AcDbLine
10
147.8875
20
0
30
0
11
179.475619
21
0
31
0
39
0
210
0
220
0
230
1
0
LINE
5
19A
100
AcDbEntity
8
2
62
256
6
ByLayer
370
13
48
1
60
0
100
AcDbLine
10
165.746474
20
44.998916
30
0
11
179.475619
21
44.998916
31
0
39
0
210
0
220
0
230
1
0
LINE
5
19B
100
AcDbEntity
8
2
62
256
6
ByLayer
370
13
48
1
60
0
100
AcDbLine
10
176.300619
20
0
30
0
11
176.300619
21
44.998916
31
0
39
0
210
0
220
0
230
1
0
LINE
5
19C
100
AcDbEntity
8
2
62
256
6
ByLayer
370
13
48
1
60
0
100
AcDbLine
10
176.300619
20
0
30
0
11
175.882623
21
3.174998
31
0
39
0
210
0
220
0
230
1
0
LINE
5
19D
100
AcDbEntity
8
2
62
256
6
ByLayer
370
13
48
1
60
0
100
AcDbLine
10
176.300619
20
0
30
0
11
176.718616
21
3.175002
31
0
39
0
210
0
220
0
230
1
0
LINE
5
19E
100
AcDbEntity
8
2
62
256
6
ByLayer
370
13
48
1
60
0
100
AcDbLine
10
175.882623
20
3.174998
30
0
11
176.718616
21
3.175002
31
0
39
0
210
0
220
0
230
1
0
LINE
5
19F
100
AcDbEntity
8
2
62
256
6
ByLayer
370
13
48
1
60
0
100
AcDbLine
10
176.300619
20
44.998916
30
0
11
176.718616
21
41.823917
31
0
39
0
210
0
220
0
230
1
0
LINE
5
1A0
100
AcDbEntity
8
2
62
256
6
ByLayer
370
13
48
1
60
0
100
AcDbLine
10
176.300619
20
44.998916
30
0
11
175.882623
21
41.823914
31
0
39
0
210
0
220
0
230
1
0
LINE
5
1A1
100
AcDbEntity
8
2
62
256
6
ByLayer
370
13
48
1
60
0
100
AcDbLine
10
176.718616
20
41.823917
30
0
11
175.882623
21
41.823914
31
0
39
0
210
0
220
0
230
1
0
ENDBLK
5
1A3
100
AcDbEntity
8
0
100
AcDbBlockEnd
0
BLOCK
5
1B0
100
AcDbEntity
8
0
100
AcDbBlockBegin
2
DimnDraft3D4
70
0
10
0
20
0
30
0
3
DimnDraft3D4
0
MTEXT
5
1A6
100
AcDbEntity
8
2
62
256
6
ByLayer
370
18
48
1
60
0
100
AcDbMText
10
153.333151
20
50.553137
30
0
210
0
220
0
230
1
1
\W0.8159;93%%d0'
40
3.50012
41
0
44
1.084337
50
45.9041187106187
71
7
72
5
7
iso_b_vert
0
LINE
5
1A7
100
AcDbEntity
8
2
62
256
6
ByLayer
370
13
48
1
60
0
100
AcDbLine
10
150.719447
20
44.29458
30
0
11
150.506659
21
44.283428
31
0
39
0
210
0
220
0
230
1
0
LINE
5
1A8
100
AcDbEntity
8
2
62
256
6
ByLayer
370
13
48
1
60
0
100
AcDbLine
10
164.999654
20
45.813532
30
0
11
164.999654
21
59.555859
31
0
39
0
210
0
220
0
230
1
0
ARC
5
1A9
100
AcDbEntity
8
2
62
256
6
ByLayer
370
13
48
1
60
0
100
AcDbCircle
39
0
10
164.999654
20
45.042974
30
0
40
11.3378848747213
210
0
220
0
230
1
100
AcDbArc
50
90
51
183
0
LINE
5
1AA
100
AcDbEntity
8
2
62
256
6
ByLayer
370
13
48
1
60
0
100
AcDbLine
10
153.677308
20
44.449595
30
0
11
153.313969
21
47.631312
31
0
39
0
210
0
220
0
230
1
0
LINE
5
1AB
100
AcDbEntity
8
2
62
256
6
ByLayer
370
13
48
1
60
0
100
AcDbLine
10
153.677308
20
44.449595
30
0
11
154.149839
21
47.616939
31
0
39
0
210
0
220
0
230
1
0
LINE
5
1AC
100
AcDbEntity
8
2
62
256
6
ByLayer
370
13
48
1
60
0
100
AcDbLine
10
153.313969
20
47.631312
30
0
11
154.149839
21
47.616939
31
0
39
0
210
0
220
0
230
1
0
LINE
5
1AD
100
AcDbEntity
8
2
62
256
6
ByLayer
370
13
48
1
60
0
100
AcDbLine
10
164.999654
20
56.380859
30
0
11
161.861384
21
55.743209
31
0
39
0
210
0
220
0
230
1
0
LINE
5
1AE
100
AcDbEntity
8
2
62
256
6
ByLayer
370
13
48
1
60
0
100
AcDbLine
10
164.999654
20
56.380859
30
0
11
161.803279
21
56.577181
31
0
39
0
210
0
220
0
230
1
0
LINE
5
1AF
100
AcDbEntity
8
2
62
256
6
ByLayer
370
13
48
1
60
0
100
AcDbLine
10
161.861384
20
55.743209
30
0
11
161.803279
21
56.577181
31
0
39
0
210
0
220
0
230
1
0
ENDBLK
5
1B1
100
AcDbEntity
8
0
100
AcDbBlockEnd
0
ENDSEC
0
SECTION
2
ENTITIES
0
ARC
5
DB
100
AcDbEntity
8
1
62
256
6
ByLayer
370
18
48
1
60
0
100
AcDbCircle
39
0
10
121.568552
20
37.5
30
0
40
6
210
0
220
0
230
1
100
AcDbArc
50
270
51
324.824212
0
ARC
5
DC
100
AcDbEntity
8
SK1
62
256
6
ByLayer
370
18
48
1
60
0
100
AcDbCircle
39
0
10
-0.6
20
23.45
30
0
40
1
210
0
220
0
230
1
100
AcDbArc
50
293.578178
51
306.870857
0
ARC
5
DD
100
AcDbEntity
8
SK1
62
256
6
ByLayer
370
18
48
1
60
0
100
AcDbCircle
39
0
10
-0.6
20
-23.45
30
0
40
1
210
0
220
0
230
1
100
AcDbArc
50
53.129143
51
66.421822
0
ARC
5
DE
100
AcDbEntity
8
1
62
256
6
ByLayer
370
18
48
1
60
0
100
AcDbCircle
39
0
10
-159.168419
20
11
30
0
40
40
210
0
220
0
230
-1
100
AcDbArc
50
35.175788
51
51.359022
0
ELLIPSE
5
DF
100
AcDbEntity
8
1
62
256
6
ByLayer
370
18
48
1
60
0
100
AcDbEllipse
10
136.866058
20
0
30
0
11
19.479377515479
21
31.4985689645314
31
0
210
0
220
0
230
1
40
0.015414
41
-3.13206978449305
42
-2.49853184532761
0
ELLIPSE
5
E0
100
AcDbEntity
8
1
62
256
6
ByLayer
370
18
48
1
60
0
100
AcDbEllipse
10
26.347154
20
0
30
0
11
14.7536831606576
21
31.0932549155828
31
0
210
0
220
0
230
1
40
0.341999
41
2.05035306783701
42
2.98378646694437
0
ELLIPSE
5
E1
100
AcDbEntity
8
1
62
256
6
ByLayer
370
18
48
1
60
0
100
AcDbEllipse
10
-2.347154
20
0
30
0
11
14.7536831606563
21
-31.0932549155812
31
0
210
0
220
0
230
1
40
0.341999
41
0.157806186645437
42
1.09123958575283
0
ELLIPSE
5
E2
100
AcDbEntity
8
1
62
256
6
ByLayer
370
18
48
1
60
0
100
AcDbEllipse
10
143.130527
20
19.358912
30
0
11
1.19117747704141
21
-0.911644787287932
31
0
210
0
220
0
230
-1
40
0.692637
41
-0.487433826972972
42
0
0
ELLIPSE
5
E3
100
AcDbEntity
8
1
62
256
6
ByLayer
370
18
48
1
60
0
100
AcDbEllipse
10
143.130527
20
19.358912
30
0
11
1.19117747704141
21
-0.911644787287932
31
0
210
0
220
0
230
-1
40
0.692637
41
0
42
0.0342665641070152
0
ELLIPSE
5
E4
100
AcDbEntity
8
1
62
256
6
ByLayer
370
18
48
1
60
0
100
AcDbEllipse
10
143.130527
20
19.358912
30
0
11
1.19117747704141
21
-0.911644787287932
31
0
210
0
220
0
230
-1
40
0.692637
41
1.72061479256911
42
-0.487433826973011
0
ELLIPSE
5
E5
100
AcDbEntity
8
1
62
256
6
ByLayer
370
18
48
1
60
0
100
AcDbEllipse
10
152.788214
20
36.655698
30
0
11
-2.1791398461767
21
1.71813111571992
31
0
210
0
220
0
230
-1
40
0.987534
41
2.49078802938741
42
2.6804517178013
0
ELLIPSE
5
E6
100
AcDbEntity
8
1
62
256
6
ByLayer
370
18
48
1
60
0
100
AcDbEllipse
10
152.788214
20
36.655698
30
0
11
-2.1791398461767
21
1.71813111571992
31
0
210
0
220
0
230
-1
40
0.987534
41
0.515309206792498
42
0.679708789841288
0
ELLIPSE
5
E7
100
AcDbEntity
8
1
62
256
6
ByLayer
370
18
48
1
60
0
100
AcDbEllipse
10
136.866058
20
0
30
0
11
19.5721364560161
21
31.648562150056
31
0
210
0
220
0
230
1
40
0.015414
41
-2.38984849914654
42
-0.522492796023789
0
ELLIPSE
5
E8
100
AcDbEntity
8
1
62
256
6
ByLayer
370
18
48
1
60
0
100
AcDbEllipse
10
-2.347154
20
0
30
0
11
14.7536831606587
21
31.0932549155843
31
0
210
0
220
0
230
1
40
0.341999
41
-1.09123958575274
42
-0.15780618664542
0
ELLIPSE
5
E9
100
AcDbEntity
8
1
62
256
6
ByLayer
370
18
48
1
60
0
100
AcDbEllipse
10
26.347154
20
0
30
0
11
14.7536831606574
21
-31.0932549155825
31
0
210
0
220
0
230
1
40
0.341999
41
-2.98378646694437
42
-2.050353067837
0
ELLIPSE
5
EA
100
AcDbEntity
8
1
62
256
6
ByLayer
370
18
48
1
60
0
100
AcDbEllipse
10
143.174364
20
19.416191
30
0
11
-1.78676621556218
21
1.36746718093181
31
0
210
0
220
0
230
-1
40
0.692637
41
0.0556107433734127
42
2.68590942961654
0
ELLIPSE
5
EB
100
AcDbEntity
8
1
62
256
6
ByLayer
370
18
48
1
60
0
100
AcDbEllipse
10
143.174364
20
19.416191
30
0
11
-1.3102952247456
21
1.00280926601666
31
0
210
0
220
0
230
-1
40
0.692637
41
-1.26464383058284
42
0
0
ELLIPSE
5
EC
100
AcDbEntity
8
1
62
256
6
ByLayer
370
18
48
1
60
0
100
AcDbEllipse
10
143.174364
20
19.416191
30
0
11
-1.3102952247456
21
1.00280926601666
31
0
210
0
220
0
230
-1
40
0.692637
41
0
42
3.05838433251165
0
ELLIPSE
5
ED
100
AcDbEntity
8
1
62
256
6
ByLayer
370
18
48
1
60
0
100
AcDbEllipse
10
128.222047
20
20.932571
30
0
11
-1.98706277959272
21
1.05550059685299
31
0
210
0
220
0
230
-1
40
0.684428
41
0
42
2.73230662285873
0
ELLIPSE
5
EE
100
AcDbEntity
8
1
62
256
6
ByLayer
370
18
48
1
60
0
100
AcDbEllipse
10
128.222047
20
20.932571
30
0
11
-1.45717937170136
21
0.774033771025545
31
0
210
0
220
0
230
-1
40
0.684428
41
-1.14142349490148
42
0
0
ELLIPSE
5
EF
100
AcDbEntity
8
1
62
256
6
ByLayer
370
18
48
1
60
0
100
AcDbEllipse
10
128.222047
20
20.932571
30
0
11
-1.45717937170136
21
0.774033771025545
31
0
210
0
220
0
230
-1
40
0.684428
41
0
42
-3.14153824665061
0
ELLIPSE
5
F0
100
AcDbEntity
8
1
62
256
6
ByLayer
370
18
48
1
60
0
100
AcDbEllipse
10
130.1944
20
44.415137
30
0
11
32.0383275507492
21
-17.8316511494747
31
0
210
0
220
0
230
1
40
0.07666
41
-0.822876199563531
42
-0.738039936910128
0
ELLIPSE
5
F1
100
AcDbEntity
8
1
62
256
6
ByLayer
370
18
48
1
60
0
100
AcDbEllipse
10
114.298743
20
44.415137
30
0
11
38.1256645041969
21
-17.8239747135637
31
0
210
0
220
0
230
1
40
0.065865
41
-0.800837700740698
42
-0.634697175162589
0
ELLIPSE
5
F2
100
AcDbEntity
8
1
62
256
6
ByLayer
370
18
48
1
60
0
100
AcDbEllipse
10
131.884265
20
44.415137
30
0
11
10.1717607088066
21
-17.9529199552007
31
0
210
0
220
0
230
1
40
0.127906
41
-1.2269404794705
42
-1.01830052885889
0
ELLIPSE
5
F3
100
AcDbEntity
8
1
62
256
6
ByLayer
370
18
48
1
60
0
100
AcDbEllipse
10
149.916197
20
28.898005
30
0
11
0.785275620243856
21
-0.619146348007179
31
0
210
0
220
0
230
-1
40
0.987534
41
2.96224883521262
42
-3.1415785077919
0
ELLIPSE
5
F4
100
AcDbEntity
8
1
62
256
6
ByLayer
370
18
48
1
60
0
100
AcDbEllipse
10
140.346285
20
31.349833
30
0
11
-0.873355171346731
21
-1.79923615589558
31
0
210
0
220
0
230
-1
40
0.034104
41
0.921772092105747
42
1.41642570650482
0
ELLIPSE
5
F5
100
AcDbEntity
8
1
62
256
6
ByLayer
370
18
48
1
60
0
100
AcDbEllipse
10
143.565508
20
38.232297
30
0
11
6.28220496195085
21
-4.95317078405743
31
0
210
0
220
0
230
-1
40
0.987534
41
1.35240505149483
42
1.62449430698512
0
ELLIPSE
5
F6
100
AcDbEntity
8
1
62
256
6
ByLayer
370
18
48
1
60
0
100
AcDbEllipse
10
136.838129
20
34.641799
30
0
11
-1.74050590990412
21
-0.985210219998157
31
0
210
0
220
0
230
-1
40
0.060205
41
-0.739887804321705
42
-0.513790937119813
0
ELLIPSE
5
F7
100
AcDbEntity
8
1
62
256
6
ByLayer
370
18
48
1
60
0
100
AcDbEllipse
10
147.270949
20
30.310649
30
0
11
1.76832644176218
21
-0.934356246495251
31
0
210
0
220
0
230
-1
40
0.154883
41
0.0284258011553326
42
0.976028028831128
0
ELLIPSE
5
F8
100
AcDbEntity
8
1
62
256
6
ByLayer
370
18
48
1
60
0
100
AcDbEllipse
10
151.10058
20
26.717631
30
0
11
-3.14110248097543
21
2.47658539202871
31
0
210
0
220
0
230
-1
40
0.987534
41
1.4234080872107
42
1.97902159984632
0
ELLIPSE
5
F9
100
AcDbEntity
8
1
62
256
6
ByLayer
370
18
48
1
60
0
100
AcDbEllipse
10
153.253405
20
30.396861
30
0
11
-0.997365303240816
21
-1.73356928096092
31
0
210
0
220
0
230
-1
40
0.023116
41
1.11797856634613
42
1.41441708498
0
ELLIPSE
5
FA
100
AcDbEntity
8
1
62
256
6
ByLayer
370
18
48
1
60
0
100
AcDbEllipse
10
151.384628
20
31.472014
30
0
11
-0.997365303240816
21
-1.73356928096092
31
0
210
0
220
0
230
-1
40
0.023116
41
0.986497652304539
42
1.4144170849801
0
ELLIPSE
5
FB
100
AcDbEntity
8
1
62
256
6
ByLayer
370
18
48
1
60
0
100
AcDbEllipse
10
149.72128
20
28.650788
30
0
11
-2.35582686073157
21
1.85743904402154
31
0
210
0
220
0
230
-1
40
0.987534
41
1.0743120512504
42
1.4234080872107
0
ELLIPSE
5
FC
100
AcDbEntity
8
1
62
256
6
ByLayer
370
18
48
1
60
0
100
AcDbEllipse
10
143.843916
20
28.757331
30
0
11
1.96318905060964
21
-1.54786587001795
31
0
210
0
220
0
230
-1
40
0.987534
41
-1.53378063837587
42
-0.466031964847213
0
ELLIPSE
5
FD
100
AcDbEntity
8
1
62
256
6
ByLayer
370
18
48
1
60
0
100
AcDbEllipse
10
143.843916
20
28.757331
30
0
11
1.96318905060964
21
-1.54786587001795
31
0
210
0
220
0
230
-1
40
0.987534
41
-2.88908349970477
42
-2.81702305906705
0
ELLIPSE
5
FE
100
AcDbEntity
8
1
62
256
6
ByLayer
370
18
48
1
60
0
100
AcDbEllipse
10
143.892645
20
28.819135
30
0
11
-1.96318905060964
21
1.54786587001795
31
0
210
0
220
0
230
-1
40
0.987534
41
1.6416271139065
42
2.70294030389203
0
ELLIPSE
5
FF
100
AcDbEntity
8
1
62
256
6
ByLayer
370
18
48
1
60
0
100
AcDbEllipse
10
144.06807
20
29.04163
30
0
11
-1.96318905060964
21
1.54786587001795
31
0
210
0
220
0
230
-1
40
0.987534
41
0.135017187405611
42
0.185283259969042
0
ELLIPSE
5
100
100
AcDbEntity
8
1
62
256
6
ByLayer
370
18
48
1
60
0
100
AcDbEllipse
10
144.779516
20
29.943971
30
0
11
1.96318905060964
21
-1.54786587001795
31
0
210
0
220
0
230
-1
40
0.987534
41
2.51584918722227
42
2.67145270087392
0
ELLIPSE
5
101
100
AcDbEntity
8
1
62
256
6
ByLayer
370
18
48
1
60
0
100
AcDbEllipse
10
138.634347
20
36.258121
30
0
11
-3.14110248097543
21
2.47658539202871
31
0
210
0
220
0
230
-1
40
0.987534
41
3.14152501055649
42
-2.15935144071502
0
ELLIPSE
5
102
100
AcDbEntity
8
1
62
256
6
ByLayer
370
18
48
1
60
0
100
AcDbEllipse
10
144.812492
20
30.663591
30
0
11
1.96318905060964
21
-1.54786587001795
31
0
210
0
220
0
230
-1
40
0.987534
41
2.37986253970827
42
3.02840081260791
0
ELLIPSE
5
103
100
AcDbEntity
8
1
62
256
6
ByLayer
370
18
48
1
60
0
100
AcDbEllipse
10
147.073787
20
34.612277
30
0
11
1.96318905060964
21
-1.54786587001795
31
0
210
0
220
0
230
-1
40
0.987534
41
2.68023479133492
42
3.02840081260792
0
ELLIPSE
5
104
100
AcDbEntity
8
1
62
256
6
ByLayer
370
18
48
1
60
0
100
AcDbEllipse
10
148.729978
20
37.295213
30
0
11
1.96318905060964
21
-1.54786587001795
31
0
210
0
220
0
230
-1
40
0.987534
41
3.02840081260791
42
-2.90661847329872
0
ELLIPSE
5
105
100
AcDbEntity
8
1
62
256
6
ByLayer
370
18
48
1
60
0
100
AcDbEllipse
10
157.701784
20
34.375915
30
0
11
0.935263263710433
21
-0.73740330047655
31
0
210
0
220
0
230
-1
40
0.987534
41
-0.115373502546866
42
5.54475469858682E-06
0
ELLIPSE
5
106
100
AcDbEntity
8
1
62
256
6
ByLayer
370
18
48
1
60
0
100
AcDbEllipse
10
164.210029
20
44.212337
30
0
11
-0.623312523568561
21
0.491447413730698
31
0
210
0
220
0
230
-1
40
0.987534
41
0.844557586050043
42
3.02621915104294
0
ELLIPSE
5
107
100
AcDbEntity
8
1
62
256
6
ByLayer
370
18
48
1
60
0
100
AcDbEllipse
10
152.381378
20
43.197424
30
0
11
0.935263263710433
21
-0.73740330047655
31
0
210
0
220
0
230
-1
40
0.987534
41
-2.77700061183823
42
-2.29703506753978
0
ELLIPSE
5
108
100
AcDbEntity
8
1
62
256
6
ByLayer
370
18
48
1
60
0
100
AcDbEllipse
10
150.232162
20
41.925569
30
0
11
0.935263263710433
21
-0.73740330047655
31
0
210
0
220
0
230
-1
40
0.987534
41
-3.14158685997164
42
-2.77700061183822
0
ELLIPSE
5
109
100
AcDbEntity
8
1
62
256
6
ByLayer
370
18
48
1
60
0
100
AcDbEllipse
10
143.723917
20
32.089147
30
0
11
-0.623312523568561
21
0.491447413730698
31
0
210
0
220
0
230
-1
40
0.987534
41
-2.29703506753975
42
-0.115373502546883
0
ELLIPSE
5
10A
100
AcDbEntity
8
1
62
256
6
ByLayer
370
18
48
1
60
0
100
AcDbEllipse
10
155.552568
20
33.10406
30
0
11
0.935263263710433
21
-0.73740330047655
31
0
210
0
220
0
230
-1
40
0.987534
41
0.364592041751561
42
0.84455758604998
0
ELLIPSE
5
10B
100
AcDbEntity
8
1
62
256
6
ByLayer
370
18
48
1
60
0
100
AcDbEllipse
10
153.966973
20
38.150742
30
0
11
-2.02601110022915
21
1.59739757785852
31
0
210
0
220
0
230
-1
40
0.987534
41
0
42
6.28318530717959
0
ELLIPSE
5
10C
100
AcDbEntity
8
1
62
256
6
ByLayer
370
18
48
1
60
0
100
AcDbEllipse
10
143.105057
20
31.304233
30
0
11
-0.623312523568561
21
0.491447413730698
31
0
210
0
220
0
230
-1
40
0.987534
41
-2.29703506753975
42
-0.974266993747115
0
ELLIPSE
5
10D
100
AcDbEntity
8
1
62
256
6
ByLayer
370
18
48
1
60
0
100
AcDbEllipse
10
153.348112
20
37.365829
30
0
11
-2.02601110022915
21
1.59739757785852
31
0
210
0
220
0
230
-1
40
0.987534
41
2.58785806084921
42
2.94423229647073
0
ELLIPSE
5
10E
100
AcDbEntity
8
1
62
256
6
ByLayer
370
18
48
1
60
0
100
AcDbEllipse
10
153.348112
20
37.365829
30
0
11
-2.02601110022915
21
1.59739757785852
31
0
210
0
220
0
230
-1
40
0.987534
41
0.197400415268056
42
0.944215798864496
0
ELLIPSE
5
10F
100
AcDbEntity
8
1
62
256
6
ByLayer
370
18
48
1
60
0
100
AcDbEllipse
10
153.80909
20
37.950496
30
0
11
1.60981502149991
21
-1.26925001341472
31
0
210
0
220
0
230
-1
40
0.987534
41
1.99230911162453
42
2.70342891235006
0
ELLIPSE
5
110
100
AcDbEntity
8
1
62
256
6
ByLayer
370
18
48
1
60
0
100
AcDbEllipse
10
153.73696
20
38.492356
30
0
11
1.80613392656087
21
-1.42403660041651
31
0
210
0
220
0
230
-1
40
0.987534
41
-0.212069140307815
42
1.76621451069263
0
ELLIPSE
5
111
100
AcDbEntity
8
1
62
256
6
ByLayer
370
18
48
1
60
0
100
AcDbEllipse
10
153.80909
20
37.950496
30
0
11
1.60981502149991
21
-1.26925001341472
31
0
210
0
220
0
230
-1
40
0.987534
41
-1.14928354196526
42
-0.438163741239742
0
ELLIPSE
5
112
100
AcDbEntity
8
1
62
256
6
ByLayer
370
18
48
1
60
0
100
AcDbEllipse
10
153.881221
20
37.408637
30
0
11
1.80613392656087
21
-1.42403660041651
31
0
210
0
220
0
230
-1
40
0.987534
41
2.92952351328196
42
-1.37537814289718
0
ELLIPSE
5
113
100
AcDbEntity
8
1
62
256
6
ByLayer
370
18
48
1
60
0
100
AcDbEllipse
10
153.707722
20
38.455274
30
0
11
-2.04171661263403
21
1.60978050481867
31
0
210
0
220
0
230
-1
40
0.987534
41
2.91647931225149
42
-1.49756653582085
0
ELLIPSE
5
114
100
AcDbEntity
8
1
62
256
6
ByLayer
370
18
48
1
60
0
100
AcDbEllipse
10
153.779853
20
37.913414
30
0
11
-1.84539770757306
21
1.45499391781687
31
0
210
0
220
0
230
-1
40
0.987534
41
-0.808423165989306
42
-0.423630651454114
0
ELLIPSE
5
115
100
AcDbEntity
8
1
62
256
6
ByLayer
370
18
48
1
60
0
100
AcDbEllipse
10
153.851984
20
37.371554
30
0
11
-2.04171661263403
21
1.60978050481867
31
0
210
0
220
0
230
-1
40
0.987534
41
-0.225113341338318
42
1.77925871172312
0
ELLIPSE
5
116
100
AcDbEntity
8
1
62
256
6
ByLayer
370
18
48
1
60
0
100
AcDbEllipse
10
153.200938
20
37.81251
30
0
11
2.04171661263403
21
-1.60978050481867
31
0
210
0
220
0
230
-1
40
0.987534
41
1.33410194949973E-05
42
0.294899891452361
0
ELLIPSE
5
117
100
AcDbEntity
8
1
62
256
6
ByLayer
370
18
48
1
60
0
100
AcDbEllipse
10
153.779853
20
37.913414
30
0
11
-1.84539770757306
21
1.45499391781687
31
0
210
0
220
0
230
-1
40
0.987534
41
1.97777602183891
42
2.71796200213568
0
ELLIPSE
5
118
100
AcDbEntity
8
1
62
256
6
ByLayer
370
18
48
1
60
0
100
AcDbEllipse
10
152.610352
20
36.430113
30
0
11
-2.23803551769499
21
1.76456709182046
31
0
210
0
220
0
230
-1
40
0.987534
41
2.487596596945
42
2.61199421631953
0
ELLIPSE
5
119
100
AcDbEntity
8
1
62
256
6
ByLayer
370
18
48
1
60
0
100
AcDbEllipse
10
138.749486
20
36.404154
30
0
11
-2.49128690522363
21
1.96424178905278
31
0
210
0
220
0
230
-1
40
0.987534
41
0
42
6.28318530717959
0
ELLIPSE
5
11A
100
AcDbEntity
8
1
62
256
6
ByLayer
370
18
48
1
60
0
100
AcDbEllipse
10
138.749486
20
36.404154
30
0
11
-1.36013727220752
21
1.07239293206915
31
0
210
0
220
0
230
-1
40
0.987534
41
2.3478690119873
42
-2.88811874399569
0
ELLIPSE
5
11B
100
AcDbEntity
8
1
62
256
6
ByLayer
370
18
48
1
60
0
100
AcDbEllipse
10
138.749486
20
36.404154
30
0
11
-1.36013727220752
21
1.07239293206915
31
0
210
0
220
0
230
-1
40
0.987534
41
-2.88811874399569
42
-1.8409211927991
0
ELLIPSE
5
11C
100
AcDbEntity
8
1
62
256
6
ByLayer
370
18
48
1
60
0
100
AcDbEllipse
10
138.749486
20
36.404154
30
0
11
-1.36013727220752
21
1.07239293206915
31
0
210
0
220
0
230
-1
40
0.987534
41
-1.8409211927991
42
-0.793723641602487
0
ELLIPSE
5
11D
100
AcDbEntity
8
1
62
256
6
ByLayer
370
18
48
1
60
0
100
AcDbEllipse
10
138.749486
20
36.404154
30
0
11
-1.36013727220752
21
1.07239293206915
31
0
210
0
220
0
230
-1
40
0.987534
41
-0.793723641602487
42
0.25347390959411
0
ELLIPSE
5
11E
100
AcDbEntity
8
1
62
256
6
ByLayer
370
18
48
1
60
0
100
AcDbEllipse
10
138.749486
20
36.404154
30
0
11
-1.36013727220752
21
1.07239293206915
31
0
210
0
220
0
230
-1
40
0.987534
41
0.253473909594106
42
1.30067146079069
0
ELLIPSE
5
11F
100
AcDbEntity
8
1
62
256
6
ByLayer
370
18
48
1
60
0
100
AcDbEllipse
10
138.749486
20
36.404154
30
0
11
-1.36013727220752
21
1.07239293206915
31
0
210
0
220
0
230
-1
40
0.987534
41
1.30067146079069
42
2.34786901198729
0
ELLIPSE
5
120
100
AcDbEntity
8
1
62
256
6
ByLayer
370
18
48
1
60
0
100
AcDbEllipse
10
138.687604
20
36.325667
30
0
11
-3.14110248097543
21
2.47658539202871
31
0
210
0
220
0
230
-1
40
0.987534
41
0
42
6.28318530717959
0
ELLIPSE
5
121
100
AcDbEntity
8
1
62
256
6
ByLayer
370
18
48
1
60
0
100
AcDbEllipse
10
138.262194
20
35.786112
30
0
11
-1.17791343036579
21
0.928719522010768
31
0
210
0
220
0
230
-1
40
0.987534
41
0.252033891845317
42
3.03754698116485
0
ELLIPSE
5
122
100
AcDbEntity
8
1
62
256
6
ByLayer
370
18
48
1
60
0
100
AcDbEllipse
10
138.359653
20
35.909721
30
0
11
1.17791343036578
21
-0.928719522010769
31
0
210
0
220
0
230
-1
40
0.987534
41
-0.270124866004183
42
2.75113276564962E-06
0
ELLIPSE
5
123
100
AcDbEntity
8
1
62
256
6
ByLayer
370
18
48
1
60
0
100
AcDbEllipse
10
138.359653
20
35.909721
30
0
11
1.17791343036578
21
-0.928719522010769
31
0
210
0
220
0
230
-1
40
0.987534
41
-1.31732241720081
42
-0.270124866004183
0
ELLIPSE
5
124
100
AcDbEntity
8
1
62
256
6
ByLayer
370
18
48
1
60
0
100
AcDbEllipse
10
138.359653
20
35.909721
30
0
11
1.17791343036578
21
-0.928719522010769
31
0
210
0
220
0
230
-1
40
0.987534
41
-2.3645199683974
42
-1.31732241720081
0
ELLIPSE
5
125
100
AcDbEntity
8
1
62
256
6
ByLayer
370
18
48
1
60
0
100
AcDbEllipse
10
138.359653
20
35.909721
30
0
11
1.17791343036578
21
-0.928719522010769
31
0
210
0
220
0
230
-1
40
0.987534
41
-2.95682500820432
42
-2.3645199683974
0
ELLIPSE
5
126
100
AcDbEntity
8
1
62
256
6
ByLayer
370
18
48
1
60
0
100
AcDbEllipse
10
128.187845
20
20.868183
30
0
11
1.3247085197285
21
-0.703667064568701
31
0
210
0
220
0
230
-1
40
0.684428
41
-0.348702202891755
42
0
0
ELLIPSE
5
127
100
AcDbEntity
8
1
62
256
6
ByLayer
370
18
48
1
60
0
100
AcDbEllipse
10
128.187845
20
20.868183
30
0
11
1.3247085197285
21
-0.703667064568701
31
0
210
0
220
0
230
-1
40
0.684428
41
0
42
0.0463527801234843
0
ELLIPSE
5
128
100
AcDbEntity
8
1
62
256
6
ByLayer
370
18
48
1
60
0
100
AcDbEllipse
10
128.187845
20
20.868183
30
0
11
1.3247085197285
21
-0.703667064568701
31
0
210
0
220
0
230
-1
40
0.684428
41
1.94122420505886
42
-0.348702202891791
0
POINT
5
6C
100
AcDbEntity
8
1
62
256
6
ByLayer
370
13
48
1
60
1
100
AcDbPoint
10
143.606337
20
-28.456004
30
0
39
0
210
0
220
0
230
1
50
360
0
POINT
5
6E
100
AcDbEntity
8
1
62
256
6
ByLayer
370
13
48
1
60
1
100
AcDbPoint
10
145.078738
20
-30.323481
30
0
39
0
210
0
220
0
230
1
50
360
0
POINT
5
6F
100
AcDbEntity
8
1
62
256
6
ByLayer
370
13
48
1
60
1
100
AcDbPoint
10
136.10039
20
-33.044253
30
0
39
0
210
0
220
0
230
1
50
360
0
POINT
5
70
100
AcDbEntity
8
1
62
256
6
ByLayer
370
13
48
1
60
1
100
AcDbPoint
10
139.027831
20
-36.757184
30
0
39
0
210
0
220
0
230
1
50
360
0
POINT
5
71
100
AcDbEntity
8
1
62
256
6
ByLayer
370
13
48
1
60
1
100
AcDbPoint
10
145.851112
20
-22.913695
30
0
39
0
210
0
220
0
230
1
50
360
0
POINT
5
72
100
AcDbEntity
8
1
62
256
6
ByLayer
370
13
48
1
60
1
100
AcDbPoint
10
141.156834
20
-16.780037
30
0
39
0
210
0
220
0
230
1
50
360
0
POINT
5
73
100
AcDbEntity
8
1
62
256
6
ByLayer
370
13
48
1
60
1
100
AcDbPoint
10
130.194058
20
-24.645035
30
0
39
0
210
0
220
0
230
1
50
360
0
POINT
5
74
100
AcDbEntity
8
1
62
256
6
ByLayer
370
13
48
1
60
1
100
AcDbPoint
10
126.694759
20
-18.05733
30
0
39
0
210
0
220
0
230
1
50
360
0
POINT
5
75
100
AcDbEntity
8
1
62
256
6
ByLayer
370
13
48
1
60
1
100
AcDbPoint
10
123.068552
20
0
30
0
39
0
210
0
220
0
230
1
50
360
0
POINT
5
76
100
AcDbEntity
8
1
62
256
6
ByLayer
370
13
48
1
60
1
100
AcDbPoint
10
-1.5
20
0
30
0
39
0
210
0
220
0
230
1
50
360
0
POINT
5
77
100
AcDbEntity
8
1
62
256
6
ByLayer
370
13
48
1
60
1
100
AcDbPoint
10
154.207477
20
-38.455778
30
0
39
0
210
0
220
0
230
1
50
360
0
POINT
5
78
100
AcDbEntity
8
1
62
256
6
ByLayer
370
13
48
1
60
1
100
AcDbPoint
10
153.107608
20
-37.060793
30
0
39
0
210
0
220
0
230
1
50
360
0
POINT
5
79
100
AcDbEntity
8
81
62
256
6
ByLayer
370
18
48
1
60
0
100
AcDbPoint
10
165.673322
20
45.078279
30
0
39
0
210
0
220
0
230
1
50
360
0
POINT
5
7B
100
AcDbEntity
8
80
62
256
6
ByLayer
370
18
48
1
60
0
100
AcDbPoint
10
0
20
0
30
0
39
0
210
0
220
0
230
1
50
360
0
SPLINE
5
129
100
AcDbEntity
8
1
62
256
6
ByLayer
370
18
48
1
60
0
100
AcDbSpline
70
4
71
3
72
16
73
12
40
0
40
0
40
0
40
0
40
0.25
40
0.25
40
0.5
40
0.5
40
0.75
40
0.75
40
0.875
40
0.875
40
1
40
1
40
1
40
1
41
1
10
13.8943375672974
20
-29.9139548464691
30
-1E-16
41
1
10
13.8787501654512
20
-29.9327542695084
30
-1E-16
41
1
10
13.8600981524864
20
-29.9510098933136
30
-1E-16
41
1
10
13.814513590311
20
-29.9862144781929
30
-1E-16
41
1
10
13.7875017792164
20
-30.0032856662986
30
-1E-16
41
1
10
13.7208200031228
20
-30.0350501233767
30
-1E-16
41
1
10
13.6810618560867
20
-30.0498069467438
30
-1E-16
41
1
10
13.6084081576257
20
-30.0668840803113
30
-1E-16
41
1
10
13.5814155034801
20
-30.071803827788
30
-1E-16
41
1
10
13.5238105256951
20
-30.0786461490402
30
-1E-16
41
1
10
13.4927587974106
20
-30.0805927603171
30
-1E-16
41
1
10
13.4613248654049
20
-30.0805927603171
30
-1E-16
0
SPLINE
5
12A
100
AcDbEntity
8
1
62
256
6
ByLayer
370
18
48
1
60
0
100
AcDbSpline
70
4
71
3
72
16
73
12
40
0
40
0
40
0
40
0
40
0.124999999999999
40
0.124999999999999
40
0.249999999999997
40
0.249999999999997
40
0.499999999999998
40
0.499999999999998
40
0.749999999999999
40
0.749999999999999
40
1
40
1
40
1
40
1
41
1
10
10.5386751345946
20
-30.080592760317
30
-1E-16
41
1
10
10.5071959726826
20
-30.080592760317
30
-1E-16
41
1
10
10.4765695733596
20
-30.0786859906591
30
-1E-16
41
1
10
10.4184736929997
20
-30.0717959485602
30
-1E-16
41
1
10
10.3920418953323
20
-30.0669872793662
30
-1E-16
41
1
10
10.3182367311259
20
-30.049647240705
30
-1E-16
41
1
10
10.2791703657592
20
-30.0350452819076
30
-1E-16
41
1
10
10.2125137122668
20
-30.0032932993815
30
-1E-16
41
1
10
10.1857347330743
20
-29.9863830332717
30
-1E-16
41
1
10
10.1400559187761
20
-29.9511519005795
30
-1E-16
41
1
10
10.1212556944726
20
-29.9327613369587
30
-1E-16
41
1
10
10.1056624327026
20
-29.913954846469
30
-1E-16
0
SPLINE
5
12B
100
AcDbEntity
8
1
62
256
6
ByLayer
370
18
48
1
60
0
100
AcDbSpline
70
2053
71
3
72
88
73
84
40
0
40
0
40
0
40
0
40
0.0312499999999918
40
0.0312499999999918
40
0.0468749999999899
40
0.0468749999999899
40
0.062499999999988
40
0.062499999999988
40
0.0937499999999896
40
0.0937499999999896
40
0.124999999999991
40
0.124999999999991
40
0.156249999999993
40
0.156249999999993
40
0.187499999999994
40
0.187499999999994
40
0.218749999999996
40
0.218749999999996
40
0.249999999999997
40
0.249999999999997
40
0.281249999999999
40
0.281249999999999
40
0.3125
40
0.3125
40
0.343750000000002
40
0.343750000000002
40
0.359375000000002
40
0.359375000000002
40
0.375000000000002
40
0.390625000000002
40
0.390625000000002
40
0.406250000000002
40
0.406250000000002
40
0.437500000000003
40
0.437500000000003
40
0.453125000000003
40
0.453125000000003
40
0.468750000000003
40
0.468750000000003
40
0.484375000000004
40
0.484375000000004
40
0.500000000000004
40
0.500000000000004
40
0.53125
40
0.53125
40
0.546874999999999
40
0.546874999999999
40
0.562499999999997
40
0.562499999999997
40
0.593749999999999
40
0.593749999999999
40
0.625000000000001
40
0.625000000000001
40
0.656250000000003
40
0.656250000000003
40
0.687500000000005
40
0.687500000000005
40
0.718750000000008
40
0.718750000000008
40
0.734375000000009
40
0.734375000000009
40
0.75000000000001
40
0.75000000000001
40
0.781250000000007
40
0.781250000000007
40
0.812500000000004
40
0.812500000000004
40
0.828125000000003
40
0.828125000000003
40
0.843750000000002
40
0.843750000000002
40
0.875000000000001
40
0.875000000000001
40
0.890625000000001
40
0.890625000000001
40
0.90625
40
0.921875
40
0.921875
40
0.9375
40
0.9375
40
0.96875
40
0.96875
40
1
40
1
40
1
40
1
41
1
10
141.947521640386
20
18.9289536960141
30
1.2E-15
41
1
10
142.062245071844
20
18.8429321024271
30
1.2E-15
41
1
10
142.185679063173
20
18.7672984674323
30
1.1E-15
41
1
10
142.382697236476
20
18.6682559449302
30
1.1E-15
41
1
10
142.450364298822
20
18.6376621000111
30
1.1E-15
41
1
10
142.58966153471
20
18.5813222845927
30
1.1E-15
41
1
10
142.661650253503
20
18.5554785111304
30
1.1E-15
41
1
10
142.879862667159
20
18.4865307756124
30
1.1E-15
41
1
10
143.028835316502
20
18.4515924068033
30
1.1E-15
41
1
10
143.333368876964
20
18.4026652077465
30
1.1E-15
41
1
10
143.49028396293
20
18.3887536015858
30
1.1E-15
41
1
10
143.80114152927
20
18.3826852278273
30
1.1E-15
41
1
10
143.955704827689
20
18.390234911414
30
1.1E-15
41
1
10
144.263124130386
20
18.426173350342
30
1.1E-15
41
1
10
144.4170161757
20
18.4549762024497
30
1.1E-15
41
1
10
144.712455420153
20
18.5319217489083
30
1.1E-15
41
1
10
144.855145787688
20
18.5800505978765
30
1.1E-15
41
1
10
145.130112546363
20
18.6960634461556
30
1.1E-15
41
1
10
145.26342386427
20
18.7647771919684
30
1.1E-15
41
1
10
145.508075560881
20
18.9177589524671
30
1.2E-15
41
1
10
145.620608171822
20
19.0023035400882
30
1.2E-15
41
1
10
145.824602423447
20
19.1883672601272
30
1.2E-15
41
1
10
145.916636396031
20
19.2911486591167
30
1.2E-15
41
1
10
146.067907890396
20
19.5047915192763
30
1.2E-15
41
1
10
146.128489026442
20
19.6164926697514
30
1.2E-15
41
1
10
146.194832728466
20
19.7917922881896
30
1.2E-15
41
1
10
146.212859320309
20
19.8518964735521
30
1.2E-15
41
1
10
146.239322441737
20
19.9714704699841
30
1.2E-15
41
1
10
146.25653977519
20
20.0910326443822
30
1.2E-15
41
1
10
146.255490213283
20
20.2105506855883
30
1.2E-15
41
1
10
146.245131854104
20
20.330046921767
30
1.2E-15
41
1
10
146.235170794066
20
20.39014997406
30
1.2E-15
41
1
10
146.191901198967
20
20.5660847759155
30
1.3E-15
41
1
10
146.145503279595
20
20.6785306495974
30
1.3E-15
41
1
10
146.050871931604
20
20.8404517023868
30
1.3E-15
41
1
10
146.014997035012
20
20.8933685365341
30
1.3E-15
41
1
10
145.936690378694
20
20.9946289265954
30
1.3E-15
41
1
10
145.894094001348
20
21.0432952298462
30
1.3E-15
41
1
10
145.802353142036
20
21.1369366600082
30
1.3E-15
41
1
10
145.753207563083
20
21.1819110939354
30
1.3E-15
41
1
10
145.648489907767
20
21.2682846896047
30
1.3E-15
41
1
10
145.592920151031
20
21.3096268995837
30
1.3E-15
41
1
10
145.420154080974
20
21.4261470946203
30
1.3E-15
41
1
10
145.295933089233
20
21.4947846021098
30
1.3E-15
41
1
10
145.09685530684
20
21.5852701006947
30
1.3E-15
41
1
10
145.028081881525
20
21.6134196235565
30
1.3E-15
41
1
10
144.888543361335
20
21.6647225895287
30
1.3E-15
41
1
10
144.817590583963
20
21.6879836979208
30
1.3E-15
41
1
10
144.601315700979
20
21.750920779656
30
1.3E-15
41
1
10
144.452606940516
20
21.7838129714386
30
1.3E-15
41
1
10
144.146078517261
20
21.8315656799279
30
1.3E-15
41
1
10
143.991177556997
20
21.8458991263852
30
1.3E-15
41
1
10
143.681631926858
20
21.8558968190876
30
1.3E-15
41
1
10
143.526429588352
20
21.8516511427255
30
1.3E-15
41
1
10
143.215113606955
20
21.8235135221974
30
1.3E-15
41
1
10
143.062703910177
20
21.7998932248845
30
1.3E-15
41
1
10
142.767041810778
20
21.7338988301034
30
1.3E-15
41
1
10
142.623333474093
20
21.6914993732062
30
1.3E-15
41
1
10
142.414541365752
20
21.6122328004157
30
1.3E-15
41
1
10
142.346729419637
20
21.5834001045806
30
1.3E-15
41
1
10
142.216267112931
20
21.5215637123693
30
1.3E-15
41
1
10
142.153359551449
20
21.4884642439012
30
1.3E-15
41
1
10
141.971680444125
20
21.3824793366914
30
1.3E-15
41
1
10
141.859616454744
20
21.3027649667158
30
1.3E-15
41
1
10
141.657252198813
20
21.1241402075792
30
1.3E-15
41
1
10
141.570307008429
20
21.0282637939153
30
1.3E-15
41
1
10
141.461173609551
20
20.874335285445
30
1.3E-15
41
1
10
141.428368911637
20
20.821328746553
30
1.3E-15
41
1
10
141.370235850443
20
20.7117217420791
30
1.3E-15
41
1
10
141.344929982682
20
20.6549924767971
30
1.3E-15
41
1
10
141.282482926226
20
20.4837588967254
30
1.3E-15
41
1
10
141.257802768984
20
20.3667940851218
30
1.2E-15
41
1
10
141.24659325466
20
20.1869664567984
30
1.2E-15
41
1
10
141.247258141544
20
20.125937263669
30
1.2E-15
41
1
10
141.257393063236
20
20.0052281592999
30
1.2E-15
41
1
10
141.276200939038
20
19.8853940361936
30
1.2E-15
41
1
10
141.311920369866
20
19.7672911789809
30
1.2E-15
41
1
10
141.356160499919
20
19.6500844240843
30
1.2E-15
41
1
10
141.382740254034
20
19.5916137828744
30
1.2E-15
41
1
10
141.473637119549
20
19.4213276554928
30
1.2E-15
41
1
10
141.549089389071
20
19.31378937414
30
1.2E-15
41
1
10
141.728492875968
20
19.1105335407235
30
1.2E-15
41
1
10
141.832798208927
20
19.0149752896011
30
1.2E-15
41
1
10
141.947521640386
20
18.9289536960141
30
1.2E-15
0
SPLINE
5
12C
100
AcDbEntity
8
1
62
256
6
ByLayer
370
18
48
1
60
0
100
AcDbSpline
70
2053
71
3
72
90
73
86
40
0
40
0
40
0
40
0
40
0.0312499999999943
40
0.0312499999999943
40
0.0468749999999915
40
0.0468749999999915
40
0.0624999999999886
40
0.0624999999999886
40
0.0937499999999826
40
0.0937499999999826
40
0.124999999999977
40
0.124999999999977
40
0.156249999999971
40
0.156249999999971
40
0.171874999999968
40
0.171874999999968
40
0.187499999999965
40
0.187499999999965
40
0.218749999999954
40
0.218749999999954
40
0.234374999999948
40
0.234374999999948
40
0.249999999999942
40
0.249999999999942
40
0.281249999999935
40
0.281249999999935
40
0.296874999999933
40
0.296874999999933
40
0.312499999999931
40
0.328124999999929
40
0.328124999999929
40
0.343749999999927
40
0.343749999999927
40
0.374999999999923
40
0.374999999999923
40
0.406249999999918
40
0.406249999999918
40
0.437499999999913
40
0.437499999999913
40
0.468749999999909
40
0.468749999999909
40
0.499999999999904
40
0.499999999999904
40
0.531249999999899
40
0.531249999999899
40
0.546874999999897
40
0.546874999999897
40
0.562499999999895
40
0.562499999999895
40
0.593749999999896
40
0.593749999999896
40
0.624999999999896
40
0.624999999999896
40
0.640624999999899
40
0.640624999999899
40
0.656249999999902
40
0.656249999999902
40
0.687499999999909
40
0.687499999999909
40
0.703124999999915
40
0.703124999999915
40
0.71874999999992
40
0.71874999999992
40
0.749999999999927
40
0.749999999999927
40
0.781249999999934
40
0.781249999999934
40
0.812499999999941
40
0.812499999999941
40
0.828124999999946
40
0.828124999999946
40
0.843749999999951
40
0.859374999999955
40
0.859374999999955
40
0.87499999999996
40
0.87499999999996
40
0.90624999999997
40
0.90624999999997
40
0.93749999999998
40
0.93749999999998
40
0.96874999999999
40
0.96874999999999
40
0.984374999999995
40
0.984374999999995
40
1
40
1
40
1
40
1
41
1
10
126.927179664537
20
20.4915853457413
30
1.3E-15
41
1
10
127.038830595394
20
20.4113159461199
30
1.2E-15
41
1
10
127.159028454629
20
20.3405681570455
30
1.2E-15
41
1
10
127.351257561997
20
20.2480182290361
30
1.2E-15
41
1
10
127.417338159332
20
20.2194469100951
30
1.2E-15
41
1
10
127.553531946646
20
20.1669308999239
30
1.2E-15
41
1
10
127.623959257226
20
20.1429143150245
30
1.2E-15
41
1
10
127.837194093246
20
20.079247188615
30
1.2E-15
41
1
10
127.982918575656
20
20.0474272708325
30
1.2E-15
41
1
10
128.281220407825
20
20.0043889404747
30
1.2E-15
41
1
10
128.435017097625
20
19.9933157434497
30
1.2E-15
41
1
10
128.738486573605
20
19.9926944047855
30
1.2E-15
41
1
10
128.889240831605
20
20.0028323122291
30
1.2E-15
41
1
10
129.113901946093
20
20.0336597710322
30
1.2E-15
41
1
10
129.188911637601
20
20.0466415676117
30
1.2E-15
41
1
10
129.336212768806
20
20.07754783846
30
1.2E-15
41
1
10
129.408507821124
20
20.0954368809892
30
1.2E-15
41
1
10
129.621406660121
20
20.1562275953457
30
1.2E-15
41
1
10
129.758063021394
20
20.2061871594942
30
1.2E-15
41
1
10
129.954768614237
20
20.295707991429
30
1.2E-15
41
1
10
130.019122434063
20
20.3281252390885
30
1.2E-15
41
1
10
130.142265409916
20
20.3965711108054
30
1.2E-15
41
1
10
130.201387080859
20
20.432731161262
30
1.3E-15
41
1
10
130.371415382264
20
20.5469440224325
30
1.3E-15
41
1
10
130.475067712219
20
20.6306673459625
30
1.3E-15
41
1
10
130.614693193564
20
20.7683486369004
30
1.3E-15
41
1
10
130.658241546134
20
20.8160042728743
30
1.3E-15
41
1
10
130.737848894361
20
20.9131466894335
30
1.3E-15
41
1
10
130.81045369023
20
21.0125881603749
30
1.3E-15
41
1
10
130.868941065597
20
21.1165831828033
30
1.3E-15
41
1
10
130.920097406852
20
21.2229078337048
30
1.3E-15
41
1
10
130.942116686318
20
21.2776025919889
30
1.3E-15
41
1
10
130.995485731091
20
21.4423543093401
30
1.3E-15
41
1
10
131.014386632398
20
21.5525818222049
30
1.3E-15
41
1
10
131.019128390894
20
21.773716773498
30
1.3E-15
41
1
10
131.004352923469
20
21.8855139181508
30
1.3E-15
41
1
10
130.942494647006
20
22.0991715247498
30
1.4E-15
41
1
10
130.895688973873
20
22.2023133410166
30
1.4E-15
41
1
10
130.770279052586
20
22.4013263796554
30
1.4E-15
41
1
10
130.693843733246
20
22.4937941652974
30
1.4E-15
41
1
10
130.515666582286
20
22.666106629704
30
1.4E-15
41
1
10
130.412755144035
20
22.7464999866385
30
1.4E-15
41
1
10
130.189607388824
20
22.8895410315508
30
1.4E-15
41
1
10
130.068963875457
20
22.9528851570806
30
1.4E-15
41
1
10
129.874738251357
20
23.0362479084472
30
1.4E-15
41
1
10
129.807655268152
20
23.0620876972327
30
1.4E-15
41
1
10
129.671638112519
20
23.1089533023079
30
1.4E-15
41
1
10
129.602397978099
20
23.1301220881485
30
1.4E-15
41
1
10
129.391080634414
20
23.1870746648412
30
1.4E-15
41
1
10
129.245189565172
20
23.2164022708934
30
1.4E-15
41
1
10
128.944605749485
20
23.257256671634
30
1.4E-15
41
1
10
128.793824658995
20
23.2682835817609
30
1.4E-15
41
1
10
128.566943259743
20
23.2712532006729
30
1.4E-15
41
1
10
128.49119701071
20
23.2699643274126
30
1.4E-15
41
1
10
128.339460453209
20
23.26271483469
30
1.4E-15
41
1
10
128.263071832516
20
23.2567035773297
30
1.4E-15
41
1
10
128.036947684834
20
23.2316929892235
30
1.4E-15
41
1
10
127.890438695793
20
23.2059339876149
30
1.4E-15
41
1
10
127.677012061282
20
23.1535606360287
30
1.4E-15
41
1
10
127.606932824466
20
23.1337979953158
30
1.4E-15
41
1
10
127.468984256659
20
23.089441165638
30
1.4E-15
41
1
10
127.400891833909
20
23.064727126995
30
1.4E-15
41
1
10
127.204481017343
20
22.9847012811144
30
1.4E-15
41
1
10
127.082559519046
20
22.9231939608445
30
1.4E-15
41
1
10
126.856977664376
20
22.7832385045868
30
1.4E-15
41
1
10
126.752475195529
20
22.7037594269501
30
1.4E-15
41
1
10
126.571634807907
20
22.5332236824582
30
1.4E-15
41
1
10
126.494226405121
20
22.4418165640009
30
1.4E-15
41
1
10
126.398223964973
20
22.2949156513662
30
1.4E-15
41
1
10
126.369497789736
20
22.2440227652925
30
1.4E-15
41
1
10
126.320230796384
20
22.1410898815984
30
1.4E-15
41
1
10
126.278817403795
20
22.0366464452418
30
1.3E-15
41
1
10
126.252835605723
20
21.9291762834178
30
1.3E-15
41
1
10
126.23467425643
20
21.8201532514068
30
1.3E-15
41
1
10
126.229501998407
20
21.7645987044829
30
1.3E-15
41
1
10
126.226268584474
20
21.5973716782999
30
1.3E-15
41
1
10
126.240223347463
20
21.486739841078
30
1.3E-15
41
1
10
126.299342605377
20
21.2672071913605
30
1.3E-15
41
1
10
126.345335274234
20
21.1573351211533
30
1.3E-15
41
1
10
126.465188911812
20
20.948942518913
30
1.3E-15
41
1
10
126.539036421514
20
20.8494269702369
30
1.3E-15
41
1
10
126.670816315838
20
20.7074894329343
30
1.3E-15
41
1
10
126.718170502383
20
20.6615650428122
30
1.3E-15
41
1
10
126.818329430725
20
20.5737936469327
30
1.3E-15
41
1
10
126.871354199108
20
20.531720045552
30
1.3E-15
41
1
10
126.927179664537
20
20.4915853457413
30
1.3E-15
0
SPLINE
5
12D
100
AcDbEntity
8
1
62
256
6
ByLayer
370
18
48
1
60
0
100
AcDbSpline
70
4
71
3
72
14
73
10
40
0
40
0
40
0
40
0
40
0.250000000000024
40
0.250000000000024
40
0.375000000000012
40
0.375000000000012
40
0.5
40
0.5
40
1
40
1
40
1
40
1
41
1
10
147.003495457285
20
28.3129725723334
30
0
41
1
10
146.867494984711
20
28.2899944670262
30
0
41
1
10
146.729042459697
20
28.2727047107368
30
0
41
1
10
146.517698866142
20
28.2554608009657
30
0
41
1
10
146.446638650055
20
28.2511636280218
30
0
41
1
10
146.303276345749
20
28.2455275324246
30
0
41
1
10
146.230659759363
20
28.2441908522529
30
0
41
1
10
145.868104924769
20
28.245076960476
30
0
41
1
10
145.587092887249
20
28.2694482953006
30
0
41
1
10
145.313615132312
20
28.3129725723336
30
0
0
SPLINE
5
12E
100
AcDbEntity
8
1
62
256
6
ByLayer
370
18
48
1
60
0
100
AcDbSpline
70
4
71
3
72
12
73
8
40
0
40
0
40
0
40
0
40
0.499999999999999
40
0.499999999999999
40
0.749999999999998
40
0.749999999999998
40
1
40
1
40
1
40
1
41
1
10
154.176626590013
20
28.3129725723328
30
0
41
1
10
154.229455534828
20
28.1505737377323
30
-1E-16
41
1
10
154.252132794314
20
27.9826260014455
30
-1E-16
41
1
10
154.231673920547
20
27.72237101741
30
-1E-16
41
1
10
154.215652900147
20
27.6342300232426
30
-1E-16
41
1
10
154.160934935665
20
27.4551608511734
30
-1E-16
41
1
10
154.122455493572
20
27.3650240269723
30
-1E-16
41
1
10
154.070286584622
20
27.2753899334515
30
1.7E-15
0
SPLINE
5
12F
100
AcDbEntity
8
1
62
256
6
ByLayer
370
18
48
1
60
0
100
AcDbSpline
70
4
71
3
72
26
73
22
40
0
40
0
40
0
40
0
40
0.0312499999999993
40
0.0312499999999993
40
0.0624999999999987
40
0.0624999999999987
40
0.124999999999999
40
0.124999999999999
40
0.187499999999999
40
0.187499999999999
40
0.249999999999999
40
0.249999999999999
40
0.374999999999999
40
0.374999999999999
40
0.499999999999999
40
0.499999999999999
40
0.749999999999999
40
0.749999999999999
40
0.874999999999999
40
0.874999999999999
40
1
40
1
40
1
40
1
41
1
10
122.901781235302
20
28.3129725723016
30
0
41
1
10
122.901781235302
20
28.3522559779999
30
0
41
1
10
122.906235836704
20
28.3922576451937
30
0
41
1
10
122.923967445316
20
28.4737202883915
30
0
41
1
10
122.937256021539
20
28.5150390980046
30
0
41
1
10
122.9878197539
20
28.6383247267783
30
0
41
1
10
123.03585697261
20
28.7205826945638
30
0
41
1
10
123.150239342538
20
28.8862523871742
30
0
41
1
10
123.216567060092
20
28.9696715961762
30
0
41
1
10
123.360271722576
20
29.1385035368763
30
0
41
1
10
123.437284884385
20
29.2234597150158
30
0
41
1
10
123.67630775003
20
29.4803133983636
30
0
41
1
10
123.846343719863
20
29.6547326228309
30
0
41
1
10
124.191352206641
20
30.0139560666529
30
1E-16
41
1
10
124.366671886318
20
30.1986850169167
30
1E-16
41
1
10
124.890142554894
20
30.7715216091706
30
1E-16
41
1
10
125.235698407275
20
31.1781530135851
30
1E-16
41
1
10
125.726347916699
20
31.8358821550147
30
2E-16
41
1
10
125.8855665571
20
32.0633251463365
30
2E-16
41
1
10
126.191183515351
20
32.535377123612
30
2E-16
41
1
10
126.336532210555
20
32.7783399305624
30
2E-16
41
1
10
126.472882553897
20
33.0288477918466
30
2E-16
0
SPLINE
5
130
100
AcDbEntity
8
1
62
256
6
ByLayer
370
18
48
1
60
0
100
AcDbSpline
70
4
71
3
72
8
73
4
40
0
40
0
40
0
40
0
40
1
40
1
40
1
40
1
41
1
10
121.568552072892
20
-25.3872213732228
30
-1.6E-15
41
1
10
122.007825962137
20
-24.7085184275594
30
-1.5E-15
41
1
10
122.453334743745
20
-24.0193553983314
30
-1.5E-15
41
1
10
122.901781235488
20
-23.3252638648523
30
-1.4E-15
0
SPLINE
5
131
100
AcDbEntity
8
1
62
256
6
ByLayer
370
18
48
1
60
0
100
AcDbSpline
70
4
71
3
72
16
73
12
40
0
40
0
40
0
40
0
40
0.250000000000002
40
0.250000000000002
40
0.500000000000004
40
0.500000000000004
40
0.750000000000006
40
0.750000000000006
40
0.875000000000003
40
0.875000000000003
40
1
40
1
40
1
40
1
41
1
10
10.1056624327026
20
29.9139548464691
30
1E-16
41
1
10
10.1212498345487
20
29.9327542695085
30
1E-16
41
1
10
10.1399018475134
20
29.9510098933135
30
1E-16
41
1
10
10.1854864096888
20
29.9862144781928
30
1E-16
41
1
10
10.2124982207833
20
30.0032856662984
30
1E-16
41
1
10
10.279179996877
20
30.0350501233766
30
1E-16
41
1
10
10.318938143913
20
30.0498069467437
30
1E-16
41
1
10
10.391591842374
20
30.0668840803112
30
1E-16
41
1
10
10.4185844965196
20
30.0718038277878
30
1E-16
41
1
10
10.4761894743046
20
30.07864614904
30
1E-16
41
1
10
10.507241202589
20
30.080592760317
30
1E-16
41
1
10
10.5386751345947
20
30.080592760317
30
1E-16
0
SPLINE
5
132
100
AcDbEntity
8
1
62
256
6
ByLayer
370
18
48
1
60
0
100
AcDbSpline
70
4
71
3
72
16
73
12
40
0
40
0
40
0
40
0
40
0.124999999999998
40
0.124999999999998
40
0.249999999999996
40
0.249999999999996
40
0.499999999999997
40
0.499999999999997
40
0.749999999999999
40
0.749999999999999
40
1
40
1
40
1
40
1
41
1
10
13.4613248654051
20
30.080592760317
30
1E-16
41
1
10
13.4928040273172
20
30.080592760317
30
1E-16
41
1
10
13.52343042664
20
30.0786859906589
30
1E-16
41
1
10
13.5815263070001
20
30.07179594856
30
1E-16
41
1
10
13.6079581046674
20
30.0669872793661
30
1E-16
41
1
10
13.6817632688739
20
30.0496472407049
30
1E-16
41
1
10
13.7208296342405
20
30.0350452819074
30
1E-16
41
1
10
13.787486287733
20
30.0032932993814
30
1E-16
41
1
10
13.8142652669255
20
29.9863830332715
30
1E-16
41
1
10
13.8599440812237
20
29.9511519005794
30
1E-16
41
1
10
13.8787443055274
20
29.9327613369588
30
1E-16
41
1
10
13.8943375672975
20
29.9139548464691
30
1E-16
0
SPLINE
5
133
100
AcDbEntity
8
1
62
256
6
ByLayer
370
18
48
1
60
0
100
AcDbSpline
70
4
71
3
72
16
73
12
40
0
40
0
40
0
40
0
40
0.249999999999998
40
0.249999999999998
40
0.499999999999995
40
0.499999999999995
40
0.749999999999993
40
0.749999999999993
40
0.874999999999996
40
0.874999999999996
40
1
40
1
40
1
40
1
41
1
10
13.8943375672973
20
9.86941261896629
30
6E-16
41
1
10
13.8787501654511
20
9.81243201498813
30
6E-16
41
1
10
13.8600981524863
20
9.75655023082978
30
6E-16
41
1
10
13.814513590311
20
9.64780841973402
30
6E-16
41
1
10
13.7875017792164
20
9.59456078532616
30
6E-16
41
1
10
13.7208200031228
20
9.49465699870634
30
6E-16
41
1
10
13.6810618560867
20
9.44778039735214
30
6E-16
41
1
10
13.6084081576257
20
9.39323398486465
30
6E-16
41
1
10
13.5814155034802
20
9.37745951316353
30
6E-16
41
1
10
13.5238105256951
20
9.35548920253862
30
6E-16
41
1
10
13.4927587974108
20
9.34922131452506
30
6E-16
41
1
10
13.4613248654051
20
9.34922131452506
30
6E-16
0
SPLINE
5
134
100
AcDbEntity
8
1
62
256
6
ByLayer
370
18
48
1
60
0
100
AcDbSpline
70
4
71
3
72
16
73
12
40
0
40
0
40
0
40
0
40
0.125000000000001
40
0.125000000000001
40
0.250000000000002
40
0.250000000000002
40
0.500000000000001
40
0.500000000000001
40
0.750000000000001
40
0.750000000000001
40
1
40
1
40
1
40
1
41
1
10
10.5386751345946
20
9.34922131452515
30
6E-16
41
1
10
10.5071959726826
20
9.34922131452515
30
6E-16
41
1
10
10.4765695733596
20
9.35536120669459
30
6E-16
41
1
10
10.4184736929996
20
9.37748487924966
30
6E-16
41
1
10
10.3920418953322
20
9.3929042474831
30
6E-16
41
1
10
10.3182367311258
20
9.44829073160849
30
6E-16
41
1
10
10.2791703657591
20
9.49467220053415
30
6E-16
41
1
10
10.2125137122666
20
9.59453680346905
30
6E-16
41
1
10
10.1857347330742
20
9.64728479257937
30
6E-16
41
1
10
10.1400559187759
20
9.75611455014876
30
6E-16
41
1
10
10.1212556944724
20
9.81241059371424
30
6E-16
41
1
10
10.1056624327024
20
9.86941261896615
30
6E-16
0
SPLINE
5
135
100
AcDbEntity
8
1
62
256
6
ByLayer
370
18
48
1
60
0
100
AcDbSpline
70
4
71
3
72
16
73
12
40
0
40
0
40
0
40
0
40
0.25
40
0.25
40
0.5
40
0.5
40
0.75
40
0.75
40
0.875
40
0.875
40
1
40
1
40
1
40
1
41
1
10
10.1056624327026
20
-9.86941261896612
30
-6E-16
41
1
10
10.1212498345487
20
-9.81243201498799
30
-6E-16
41
1
10
10.1399018475134
20
-9.75655023082964
30
-6E-16
41
1
10
10.1854864096888
20
-9.6478084197339
30
-6E-16
41
1
10
10.2124982207833
20
-9.59456078532608
30
-6E-16
41
1
10
10.2791799968769
20
-9.49465699870629
30
-6E-16
41
1
10
10.318938143913
20
-9.44778039735209
30
-6E-16
41
1
10
10.391591842374
20
-9.39323398486459
30
-6E-16
41
1
10
10.4185844965195
20
-9.37745951316344
30
-6E-16
41
1
10
10.4761894743045
20
-9.35548920253853
30
-6E-16
41
1
10
10.5072412025889
20
-9.34922131452504
30
-6E-16
41
1
10
10.5386751345946
20
-9.34922131452504
30
-6E-16
0
SPLINE
5
136
100
AcDbEntity
8
1
62
256
6
ByLayer
370
18
48
1
60
0
100
AcDbSpline
70
4
71
3
72
16
73
12
40
0
40
0
40
0
40
0
40
0.125000000000004
40
0.125000000000004
40
0.250000000000007
40
0.250000000000007
40
0.500000000000005
40
0.500000000000005
40
0.750000000000002
40
0.750000000000002
40
1
40
1
40
1
40
1
41
1
10
13.4613248654052
20
-9.34922131452501
30
-6E-16
41
1
10
13.4928040273173
20
-9.34922131452504
30
-6E-16
41
1
10
13.5234304266402
20
-9.35536120669459
30
-6E-16
41
1
10
13.5815263070002
20
-9.37748487924969
30
-6E-16
41
1
10
13.6079581046675
20
-9.39290424748316
30
-6E-16
41
1
10
13.681763268874
20
-9.44829073160858
30
-6E-16
41
1
10
13.7208296342406
20
-9.49467220053418
30
-6E-16
41
1
10
13.787486287733
20
-9.59453680346905
30
-6E-16
41
1
10
13.8142652669255
20
-9.64728479257937
30
-6E-16
41
1
10
13.8599440812238
20
-9.75611455014879
30
-6E-16
41
1
10
13.8787443055274
20
-9.81241059371424
30
-6E-16
41
1
10
13.8943375672974
20
-9.86941261896615
30
-6E-16
0
SPLINE
5
137
100
AcDbEntity
8
SK1
62
256
6
ByLayer
370
18
48
1
60
0
100
AcDbSpline
70
4
71
3
72
26
73
22
40
0
40
0
40
0
40
0
40
0.250000000000001
40
0.250000000000001
40
0.500000000000001
40
0.500000000000001
40
0.625000000000002
40
0.625000000000002
40
0.687500000000001
40
0.687500000000001
40
0.750000000000001
40
0.750000000000001
40
0.812500000000001
40
0.812500000000001
40
0.875
40
0.875
40
0.90625
40
0.90625
40
0.9375
40
0.9375
40
1
40
1
40
1
40
1
41
1
10
-1.30710678118646
20
-4.81101329740278
30
-3E-16
41
1
10
-1.2777767480905
20
-4.97696208805649
30
-3E-16
41
1
10
-1.24449184372222
20
-5.1411093388821
30
-3E-16
41
1
10
-1.16572403812307
20
-5.46520409815244
30
-3E-16
41
1
10
-1.12041986952337
20
-5.62560509654304
30
-3E-16
41
1
10
-1.03604034231267
20
-5.85871268051346
30
-4E-16
41
1
10
-1.00514324915844
20
-5.93523451486086
30
-4E-16
41
1
10
-0.951595196520685
20
-6.04726373371693
30
-4E-16
41
1
10
-0.932528346395571
20
-6.084142265417
30
-4E-16
41
1
10
-0.890792591053611
20
-6.1565891448069
30
-4E-16
41
1
10
-0.868002365538189
20
-6.1924009073804
30
-4E-16
41
1
10
-0.817160575690792
20
-6.26079505981238
30
-4E-16
41
1
10
-0.789433163823787
20
-6.29319778625517
30
-4E-16
41
1
10
-0.724969179209978
20
-6.35113158829352
30
-4E-16
41
1
10
-0.687361729545955
20
-6.37733024516953
30
-4E-16
41
1
10
-0.622158748114316
20
-6.39958064489653
30
-4E-16
41
1
10
-0.599752058371763
20
-6.40383193252972
30
-4E-16
41
1
10
-0.553302263741557
20
-6.40463597982028
30
-4E-16
41
1
10
-0.530550758271033
20
-6.40110290558189
30
-4E-16
41
1
10
-0.464963827943222
20
-6.3807363314545
30
-4E-16
41
1
10
-0.427743955232188
20
-6.35579794481998
30
-4E-16
41
1
10
-0.394976888875021
20
-6.32694309068159
30
-4E-16
0
SPLINE
5
138
100
AcDbEntity
8
SK1
62
256
6
ByLayer
370
18
48
1
60
0
100
AcDbSpline
70
4
71
3
72
24
73
20
40
0
40
0
40
0
40
0
40
0.0312500000000001
40
0.0312500000000001
40
0.0625000000000002
40
0.0625000000000002
40
0.0937500000000003
40
0.0937500000000003
40
0.125
40
0.125
40
0.187499999999999
40
0.187499999999999
40
0.249999999999997
40
0.249999999999997
40
0.374999999999997
40
0.374999999999997
40
0.499999999999996
40
0.499999999999996
40
1
40
1
40
1
40
1
41
1
10
-0.394976888875561
20
-6.32694309066909
30
-4E-16
41
1
10
-0.388478791141466
20
-6.32122083099986
30
-4E-16
41
1
10
-0.38131315481985
20
-6.31618565872634
30
-4E-16
41
1
10
-0.365409710573914
20
-6.30942196278425
30
-4E-16
41
1
10
-0.356491145072482
20
-6.30782589043249
30
-4E-16
41
1
10
-0.338830866580395
20
-6.31048209062098
30
-4E-16
41
1
10
-0.330289930609865
20
-6.314738823465
30
-4E-16
41
1
10
-0.31585834204995
20
-6.32593033296146
30
-4E-16
41
1
10
-0.309649778597219
20
-6.33285276949868
30
-4E-16
41
1
10
-0.293313689377101
20
-6.35478748070247
30
-4E-16
41
1
10
-0.285093867610641
20
-6.37118996774447
30
-4E-16
41
1
10
-0.271027300228326
20
-6.40434328922555
30
-4E-16
41
1
10
-0.265260102162841
20
-6.42121101452693
30
-4E-16
41
1
10
-0.249955006097935
20
-6.47225869816378
30
-4E-16
41
1
10
-0.242396853957132
20
-6.50696236445429
30
-4E-16
41
1
10
-0.229806665913287
20
-6.57651474417139
30
-4E-16
41
1
10
-0.224881575141779
20
-6.61123172400917
30
-4E-16
41
1
10
-0.204383593087641
20
-6.7845497387745
30
-4E-16
41
1
10
-0.200000000000926
20
-6.92236219959702
30
-4E-16
41
1
10
-0.200000000000898
20
-7.05951756777656
30
-4E-16
0
SPLINE
5
139
100
AcDbEntity
8
SK1
62
256
6
ByLayer
370
18
48
1
60
0
100
AcDbSpline
70
4
71
3
72
24
73
20
40
0
40
0
40
0
40
0
40
0.23335155125289
40
0.23335155125289
40
0.425013663439666
40
0.425013663439666
40
0.616675775626442
40
0.616675775626442
40
0.71250683171983
40
0.71250683171983
40
0.808337887813218
40
0.808337887813218
40
0.856253415859913
40
0.856253415859913
40
0.904168943906609
40
0.904168943906609
40
0.952084471953304
40
0.952084471953304
40
1
40
1
40
1
40
1
41
1
10
-0.209142474428433
20
-21.9948099288328
30
4E-16
41
1
10
-0.212069076988144
20
-21.9840968130856
30
4E-16
41
1
10
-0.215875754735578
20
-21.9729252938792
30
4E-16
41
1
10
-0.225032192728719
20
-21.9515892743038
30
4E-16
41
1
10
-0.229988326543207
20
-21.9416123435507
30
4E-16
41
1
10
-0.242605492613819
20
-21.920701966028
30
4E-16
41
1
10
-0.250187890171901
20
-21.9097768088572
30
4E-16
41
1
10
-0.265534058490914
20
-21.8924690412287
30
4E-16
41
1
10
-0.271315664905614
20
-21.886540084086
30
4E-16
41
1
10
-0.285411067143599
20
-21.8741692869325
30
4E-16
41
1
10
-0.293612120911348
20
-21.8677270131829
30
4E-16
41
1
10
-0.310069692334423
20
-21.8577563969491
30
4E-16
41
1
10
-0.316188605996928
20
-21.8544274429473
30
4E-16
41
1
10
-0.330727773059465
20
-21.8479117690461
30
4E-16
41
1
10
-0.339135854376281
20
-21.8448075063515
30
4E-16
41
1
10
-0.356576517802665
20
-21.8400796301784
30
4E-16
41
1
10
-0.365590347619928
20
-21.8384851949985
30
4E-16
41
1
10
-0.381451910103379
20
-21.8368338440472
30
4E-16
41
1
10
-0.38851013218212
20
-21.83666792789
30
4E-16
41
1
10
-0.394976888875135
20
-21.8368455663699
30
4E-16
0
SPLINE
5
13A
100
AcDbEntity
8
SK1
62
256
6
ByLayer
370
18
48
1
60
0
100
AcDbSpline
70
4
71
3
72
24
73
20
40
0
40
0
40
0
40
0
40
0.0339093006837966
40
0.0339093006837966
40
0.0678186013675932
40
0.0678186013675932
40
0.10172790205139
40
0.10172790205139
40
0.135637202735186
40
0.135637202735186
40
0.20345580410278
40
0.20345580410278
40
0.271274405470373
40
0.271274405470373
40
0.406911608205552
40
0.406911608205552
40
0.542548810940732
40
0.542548810940732
40
1
40
1
40
1
40
1
41
1
10
-0.394976888875021
20
21.8368457077638
30
-4E-16
41
1
10
-0.388478784840004
20
21.8366672028085
30
-4E-16
41
1
10
-0.381313136145479
20
21.8368405532067
30
-4E-16
41
1
10
-0.365409654484779
20
21.8385121586143
30
-4E-16
41
1
10
-0.356491056758188
20
21.8400912859542
30
-4E-16
41
1
10
-0.338830724010677
20
21.844902234036
30
-4E-16
41
1
10
-0.3302897777005
20
21.8480871395628
30
-4E-16
41
1
10
-0.315858195764946
20
21.8545978371134
30
-4E-16
41
1
10
-0.309649635830851
20
21.8579930086273
30
-4E-16
41
1
10
-0.293313577746801
20
21.8679460109409
30
-4E-16
41
1
10
-0.285093768392329
20
21.8744226794138
30
-4E-16
41
1
10
-0.271027231502018
20
21.8868197672955
30
-4E-16
41
1
10
-0.265260039644318
20
21.892757209636
30
-4E-16
41
1
10
-0.249954949824769
20
21.9100834965611
30
-4E-16
41
1
10
-0.242396787586358
20
21.9210108778573
30
-4E-16
41
1
10
-0.229806603943246
20
21.9419519763543
30
-4E-16
41
1
10
-0.224881521380468
20
21.9519088703327
30
-4E-16
41
1
10
-0.206955629186666
20
21.9938191162165
30
-4E-16
41
1
10
-0.201670689561837
20
22.022130028585
30
-4E-16
41
1
10
-0.20035297098849
20
22.0478336809148
30
-4E-16
0
SPLINE
5
13B
100
AcDbEntity
8
SK1
62
256
6
ByLayer
370
18
48
1
60
0
100
AcDbSpline
70
4
71
3
72
26
73
22
40
0
40
0
40
0
40
0
40
0.25
40
0.25
40
0.5
40
0.5
40
0.625
40
0.625
40
0.75
40
0.75
40
0.8125
40
0.8125
40
0.875
40
0.875
40
0.90625
40
0.90625
40
0.9375
40
0.9375
40
0.96875
40
0.96875
40
1
40
1
40
1
40
1
41
1
10
-0.200000000000046
20
7.05951749342094
30
4E-16
41
1
10
-0.200000000000046
20
6.99088366827044
30
4E-16
41
1
10
-0.201319609066871
20
6.92203745653026
30
4E-16
41
1
10
-0.207680242986839
20
6.78384770613775
30
4E-16
41
1
10
-0.212644818423399
20
6.71441370073748
30
4E-16
41
1
10
-0.225032362287834
20
6.61010153250706
30
4E-16
41
1
10
-0.229988536108976
20
6.57535167439431
30
4E-16
41
1
10
-0.242605757740421
20
6.5059709628976
30
4E-16
41
1
10
-0.250188173910743
20
6.47131022305026
30
4E-16
41
1
10
-0.265534367861676
20
6.42038445843195
30
4E-16
41
1
10
-0.271315983615722
20
6.40356588205821
30
4E-16
41
1
10
-0.285411407521337
20
6.37054221190882
30
4E-16
41
1
10
-0.293612475506251
20
6.35425158209912
30
4E-16
41
1
10
-0.310070058832906
20
6.3323589170422
30
4E-16
41
1
10
-0.316188975330021
20
6.32559855176615
30
4E-16
41
1
10
-0.330728129252975
20
6.31447788013503
30
4E-16
41
1
10
-0.339136190980355
20
6.31039609843517
30
4E-16
41
1
10
-0.356576769858549
20
6.30785340244543
30
4E-16
41
1
10
-0.365590532907589
20
6.30947164062362
30
4E-16
41
1
10
-0.381451989855236
20
6.31627189389669
30
4E-16
41
1
10
-0.388510166361101
20
6.32124816508084
30
4E-16
41
1
10
-0.394976888875249
20
6.32694279392768
30
4E-16
0
SPLINE
5
13C
100
AcDbEntity
8
SK1
62
256
6
ByLayer
370
18
48
1
60
0
100
AcDbSpline
70
4
71
3
72
30
73
26
40
0
40
0
40
0
40
0
40
0.0312499999999999
40
0.0312499999999999
40
0.0624999999999998
40
0.0624999999999998
40
0.0937499999999997
40
0.0937499999999997
40
0.125
40
0.125
40
0.156249999999999
40
0.156249999999999
40
0.187499999999999
40
0.187499999999999
40
0.249999999999998
40
0.249999999999998
40
0.312499999999997
40
0.312499999999997
40
0.374999999999996
40
0.374999999999996
40
0.499999999999996
40
0.499999999999996
40
0.749999999999998
40
0.749999999999998
40
1
40
1
40
1
40
1
41
1
10
-0.394976888875249
20
6.32694279392768
30
4E-16
41
1
10
-0.41123869672171
20
6.34126302490429
30
4E-16
41
1
10
-0.428507485946511
20
6.35445833731503
30
4E-16
41
1
10
-0.466057816276276
20
6.37750355983712
30
4E-16
41
1
10
-0.486259278880084
20
6.38723211102032
30
4E-16
41
1
10
-0.528928737140973
20
6.40070980810009
30
4E-16
41
1
10
-0.552005370573454
20
6.40446654618014
30
4E-16
41
1
10
-0.597682826800536
20
6.40404538429897
30
4E-16
41
1
10
-0.620747969171504
20
6.39988942772294
30
4E-16
41
1
10
-0.663841284887241
20
6.38551624086301
30
4E-16
41
1
10
-0.684254761753209
20
6.37530734814359
30
4E-16
41
1
10
-0.721714491332023
20
6.35175818060958
30
4E-16
41
1
10
-0.739184552681564
20
6.33820913265026
30
4E-16
41
1
10
-0.788162075932178
20
6.29461172820728
30
4E-16
41
1
10
-0.815964113388702
20
6.26223556861285
30
4E-16
41
1
10
-0.866810585477282
20
6.19416487342835
30
4E-16
41
1
10
-0.88972533463965
20
6.15831922452332
30
4E-16
41
1
10
-0.93166344002455
20
6.08576021404923
30
4E-16
41
1
10
-0.950810679353708
20
6.0488206370035
30
4E-16
41
1
10
-1.00456810808555
20
5.93660131926188
30
4E-16
41
1
10
-1.03556300059247
20
5.85994358458373
30
4E-16
41
1
10
-1.12018816360219
20
5.62641894994655
30
3E-16
41
1
10
-1.16556178401149
20
5.46581692848357
30
3E-16
41
1
10
-1.24442385148603
20
5.1414433221706
30
3E-16
41
1
10
-1.27774590369967
20
4.97713666802878
30
3E-16
41
1
10
-1.30710678118672
20
4.81101321788438
30
3E-16
0
SPLINE
5
13D
100
AcDbEntity
8
SK1
62
256
6
ByLayer
370
18
48
1
60
0
100
AcDbSpline
70
4
71
3
72
295
73
291
40
0
40
0
40
0
40
0
40
0.0029752461010153
40
0.0065509647992837
40
0.0101266834975522
40
0.0137024021958206
40
0.017278120894089
40
0.0208538395923574
40
0.0280052769888943
40
0.0351567143854311
40
0.042308151781968
40
0.0458838704802364
40
0.0494595891785048
40
0.0530353078767732
40
0.0566110265750417
40
0.0637624639715785
40
0.0673381826698469
40
0.0709139013681154
40
0.0744896200663838
40
0.0780653387646522
40
0.0816410574629206
40
0.0852167761611891
40
0.0923682135577259
40
0.0959439322559943
40
0.0995196509542628
40
0.103095369652531
40
0.1066710883508
40
0.110246807049068
40
0.113822525747337
40
0.117398244445605
40
0.120973963143873
40
0.124549681842142
40
0.12812540054041
40
0.131701119238679
40
0.135276837936947
40
0.138852556635215
40
0.142428275333484
40
0.149579712730021
40
0.153155431428289
40
0.156731150126558
40
0.158519009475692
40
0.160306868824826
40
0.163882587523094
40
0.171034024919631
40
0.1746097436179
40
0.178185462316168
40
0.181761181014437
40
0.185336899712705
40
0.192488337109242
40
0.19606405580751
40
0.199639774505779
40
0.201427633854913
40
0.203215493204047
40
0.206791211902316
40
0.213942649298852
40
0.217518367997121
40
0.221094086695389
40
0.224669805393658
40
0.228245524091926
40
0.235396961488463
40
0.238972680186731
40
0.242548398885
40
0.244336258234134
40
0.246124117583268
40
0.249699836281537
40
0.253275554979805
40
0.256851273678073
40
0.258639133027208
40
0.260426992376342
40
0.26400271107461
40
0.267578429772879
40
0.271154148471147
40
0.274729867169416
40
0.278305585867684
40
0.281881304565952
40
0.285457023264221
40
0.289032741962489
40
0.292608460660758
40
0.296184179359026
40
0.299759898057295
40
0.303335616755563
40
0.306911335453831
40
0.3104870541521
40
0.314062772850368
40
0.321214210246905
40
0.324789928945174
40
0.328365647643442
40
0.33194136634171
40
0.335517085039979
40
0.339092803738247
40
0.342668522436516
40
0.346244241134784
40
0.349819959833052
40
0.356971397229589
40
0.364122834626126
40
0.371274272022663
40
0.374849990720931
40
0.3784257094192
40
0.382001428117468
40
0.385577146815737
40
0.389152865514005
40
0.392728584212274
40
0.396304302910542
40
0.39988002160881
40
0.403455740307079
40
0.407031459005347
40
0.410607177703616
40
0.414182896401884
40
0.417758615100153
40
0.421334333798421
40
0.424910052496689
40
0.428485771194958
40
0.432061489893226
40
0.43384934924236
40
0.435637208591495
40
0.437425067940629
40
0.439212927289763
40
0.442788645988032
40
0.4463643646863
40
0.448152224035434
40
0.449940083384568
40
0.451727942733702
40
0.453515802082837
40
0.457091520781105
40
0.458879380130239
40
0.460667239479374
40
0.462455098828508
40
0.464242958177642
40
0.466030817526776
40
0.46781867687591
40
0.469606536225045
40
0.471394395574179
40
0.473182254923313
40
0.474970114272447
40
0.476757973621582
40
0.478545832970716
40
0.48033369231985
40
0.482121551668984
40
0.483909411018118
40
0.485697270367253
40
0.487485129716387
40
0.489272989065521
40
0.491060848414655
40
0.492848707763789
40
0.494636567112924
40
0.496424426462058
40
0.498212285811192
40
0.500000145160326
40
0.50178800450946
40
0.503575863858595
40
0.505363723207729
40
0.507151582556863
40
0.508939441905997
40
0.510727301255132
40
0.512515160604266
40
0.5143030199534
40
0.516090879302534
40
0.517878738651668
40
0.519666598000803
40
0.521454457349937
40
0.523242316699071
40
0.525030176048205
40
0.52681803539734
40
0.528605894746474
40
0.530393754095608
40
0.532181613444742
40
0.533969472793876
40
0.53575733214301
40
0.537545191492145
40
0.539333050841279
40
0.541120910190413
40
0.542908769539547
40
0.546484488237816
40
0.54827234758695
40
0.550060206936084
40
0.551848066285218
40
0.553635925634353
40
0.557211644332621
40
0.56078736303089
40
0.562575222380024
40
0.564363081729158
40
0.566150941078292
40
0.567938800427426
40
0.571514519125695
40
0.575090237823963
40
0.578665956522232
40
0.5822416752205
40
0.585817393918768
40
0.589393112617037
40
0.592968831315305
40
0.596544550013574
40
0.600120268711842
40
0.603695987410111
40
0.607271706108379
40
0.610847424806647
40
0.614423143504916
40
0.617998862203184
40
0.621574580901453
40
0.625150299599721
40
0.62872601829799
40
0.635877455694526
40
0.643028893091063
40
0.6501803304876
40
0.653756049185868
40
0.657331767884137
40
0.660907486582405
40
0.664483205280674
40
0.668058923978942
40
0.671634642677211
40
0.675210361375479
40
0.678786080073748
40
0.685937517470284
40
0.689513236168553
40
0.693088954866821
40
0.69666467356509
40
0.700240392263358
40
0.703816110961626
40
0.707391829659895
40
0.710967548358163
40
0.714543267056432
40
0.7181189857547
40
0.721694704452969
40
0.725270423151237
40
0.728846141849505
40
0.735997579246042
40
0.739573297944311
40
0.743149016642579
40
0.750300454039116
40
0.753876172737384
40
0.757451891435653
40
0.761027610133921
40
0.76460332883219
40
0.771754766228727
40
0.775330484926995
40
0.778906203625263
40
0.782481922323532
40
0.7860576410218
40
0.793209078418337
40
0.796784797116605
40
0.800360515814874
40
0.803936234513142
40
0.807511953211411
40
0.814663390607948
40
0.818239109306216
40
0.821814828004484
40
0.825390546702753
40
0.828966265401021
40
0.836117702797558
40
0.839693421495826
40
0.843269140194095
40
0.846844858892363
40
0.850420577590632
40
0.857572014987169
40
0.861147733685437
40
0.864723452383706
40
0.868299171081974
40
0.871874889780242
40
0.875450608478511
40
0.879026327176779
40
0.882602045875048
40
0.886177764573316
40
0.889753483271584
40
0.893329201969853
40
0.896904920668121
40
0.90048063936639
40
0.904056358064658
40
0.907632076762927
40
0.914783514159463
40
0.918359232857732
40
0.921934951556
40
0.925510670254269
40
0.929086388952537
40
0.932662107650805
40
0.936237826349074
40
0.943389263745611
40
0.946964982443879
40
0.950540701142148
40
0.954116419840416
40
0.957692138538685
40
0.964843575935221
40
0.96841929463349
40
0.971995013331758
40
0.975570732030027
40
0.979146450728295
40
0.982722169426564
40
0.986297888124832
40
0.9898736068231
40
0.993449325521369
40
0.997025044219637
40
1
40
1
40
1
40
1
41
1
10
-2.19999999999999
20
-22.0135726872776
30
0
41
1
10
-2.19999999999996
20
-22.0117701343269
30
0
41
1
10
-2.19999999999985
20
-22.0069887679318
30
0
41
1
10
-2.19999999999987
20
-21.9968726461304
30
0
41
1
10
-2.1999999999999
20
-21.9830583750196
30
0
41
1
10
-2.20000000000016
20
-21.9661971621579
30
0
41
1
10
-2.2000000000001
20
-21.9463373083127
30
0
41
1
10
-2.1999999999999
20
-21.9159230944433
30
0
41
1
10
-2.1999999999999
20
-21.8706336643489
30
0
41
1
10
-2.20000000000019
20
-21.8049949078794
30
0
41
1
10
-2.20000000000016
20
-21.741139011109
30
0
41
1
10
-2.20000000000024
20
-21.684707270913
30
0
41
1
10
-2.19999999999996
20
-21.6397397481888
30
0
41
1
10
-2.20000000000022
20
-21.5921615264854
30
0
41
1
10
-2.20000000000024
20
-21.525289152305
30
0
41
1
10
-2.20000000000024
20
-21.4533087531772
30
0
41
1
10
-2.20000000000007
20
-21.376354727627
30
0
41
1
10
-2.19999999999987
20
-21.316170396409
30
0
41
1
10
-2.20000000000022
20
-21.253546924388
30
0
41
1
10
-2.20000000000027
20
-21.1885090229234
30
0
41
1
10
-2.20000000000013
20
-21.1210800834731
30
0
41
1
10
-2.20000000000007
20
-21.0280237507365
30
0
41
1
10
-2.19999999999987
20
-20.9302657445266
30
1E-16
41
1
10
-2.20000000000016
20
-20.8279188369073
30
1E-16
41
1
10
-2.20000000000019
20
-20.7488739070253
30
1E-16
41
1
10
-2.20000000000027
20
-20.6675681841827
30
1E-16
41
1
10
-2.20000000000013
20
-20.5840212184218
30
-4E-16
41
1
10
-2.20000000000013
20
-20.4982502525026
30
-4E-16
41
1
10
-2.20000000000022
20
-20.410274712895
30
-4E-16
41
1
10
-2.20000000000027
20
-20.3201119071545
30
-4E-16
41
1
10
-2.19999999999987
20
-20.2277776663917
30
-4E-16
41
1
10
-2.19999999999996
20
-20.1332899477274
30
-3E-16
41
1
10
-2.19999999999999
20
-20.0366642357894
30
-3E-16
41
1
10
-2.20000000000016
20
-19.93791515993
30
-3E-16
41
1
10
-2.20000000000019
20
-19.8370591957148
30
-3E-16
41
1
10
-2.19999999999993
20
-19.7341102362334
30
-3E-16
41
1
10
-2.20000000000005
20
-19.5940778412012
30
-3E-16
41
1
10
-2.2000000000003
20
-19.4499005336559
30
-3E-16
41
1
10
-2.20000000000007
20
-19.3016622310534
30
-3E-16
41
1
10
-2.19999999999993
20
-19.2073184270571
30
-3E-16
41
1
10
-2.19999999999996
20
-19.1308417758754
30
-3E-16
41
1
10
-2.19999999999985
20
-19.0536957086556
30
6E-16
41
1
10
-2.20000000000002
20
-18.9169360704622
30
6E-16
41
1
10
-2.20000000000013
20
-18.7566457946411
30
6E-16
41
1
10
-2.19999999999999
20
-18.5924362845557
30
6E-16
41
1
10
-2.2000000000001
20
-18.4673177976699
30
6E-16
41
1
10
-2.20000000000027
20
-18.3402521463353
30
7E-16
41
1
10
-2.1999999999999
20
-18.1682545122202
30
7E-16
41
1
10
-2.19999999999985
20
-17.9923842356821
30
7E-16
41
1
10
-2.20000000000022
20
-17.8127164551589
30
7E-16
41
1
10
-2.19999999999999
20
-17.6988333809735
30
7E-16
41
1
10
-2.19999999999993
20
-17.606787767091
30
7E-16
41
1
10
-2.20000000000019
20
-17.5141131161324
30
7E-16
41
1
10
-2.19999999999996
20
-17.3502824417036
30
7E-16
41
1
10
-2.19999999999999
20
-17.1592829447589
30
7E-16
41
1
10
-2.19999999999999
20
-16.9645867974536
30
7E-16
41
1
10
-2.20000000000002
20
-16.8167088060477
30
7E-16
41
1
10
-2.20000000000022
20
-16.6669871400996
30
8E-16
41
1
10
-2.19999999999987
20
-16.4649164953066
30
8E-16
41
1
10
-2.20000000000019
20
-16.2591646002876
30
8E-16
41
1
10
-2.19999999999993
20
-16.0498028317159
30
8E-16
41
1
10
-2.19999999999993
20
-15.9174340084587
30
8E-16
41
1
10
-2.20000000000027
20
-15.8106442286413
30
8E-16
41
1
10
-2.20000000000019
20
-15.7032538676568
30
8E-16
41
1
10
-2.2000000000001
20
-15.567882396309
30
8E-16
41
1
10
-2.20000000000027
20
-15.403650214398
30
8E-16
41
1
10
-2.20000000000027
20
-15.2652965264297
30
8E-16
41
1
10
-2.20000000000022
20
-15.1537302031575
30
8E-16
41
1
10
-2.2000000000001
20
-15.0415708470876
30
9E-16
41
1
10
-2.20000000000016
20
-14.90025131083
30
9E-16
41
1
10
-2.20000000000002
20
-14.7289012367181
30
9E-16
41
1
10
-2.19999999999999
20
-14.555784322663
30
9E-16
41
1
10
-2.20000000000016
20
-14.3809062427341
30
-9E-16
41
1
10
-2.20000000000013
20
-14.2042700822292
30
-9E-16
41
1
10
-2.19999999999996
20
-14.0258803741544
30
-9E-16
41
1
10
-2.2000000000003
20
-13.8457420253846
30
-8E-16
41
1
10
-2.19999999999999
20
-13.6638579861817
30
-8E-16
41
1
10
-2.20000000000013
20
-13.4802328481715
30
-8E-16
41
1
10
-2.20000000000005
20
-13.2948705974071
30
-8E-16
41
1
10
-2.20000000000002
20
-13.1077737485311
30
-8E-16
41
1
10
-2.1999999999999
20
-12.9189467805056
30
-8E-16
41
1
10
-2.19999999999993
20
-12.7283927787489
30
-8E-16
41
1
10
-2.2000000000003
20
-12.5361142588233
30
-8E-16
41
1
10
-2.20000000000027
20
-12.2774598592138
30
-8E-16
41
1
10
-2.1999999999999
20
-12.0153352592313
30
-7E-16
41
1
10
-2.1999999999999
20
-11.749820725885
30
-7E-16
41
1
10
-2.20000000000002
20
-11.5489655826482
30
-7E-16
41
1
10
-2.20000000000016
20
-11.3464032807099
30
-7E-16
41
1
10
-2.20000000000013
20
-11.1421359853757
30
-7E-16
41
1
10
-2.20000000000013
20
-10.9361655879759
30
-7E-16
41
1
10
-2.20000000000022
20
-10.7284950970914
30
-7E-16
41
1
10
-2.20000000000024
20
-10.5191258614378
30
-6E-16
41
1
10
-2.20000000000019
20
-10.2377184130835
30
-6E-16
41
1
10
-2.20000000000019
20
-9.88169304970989
30
-6E-16
41
1
10
-2.20000000000019
20
-9.44771865839314
30
-6E-16
41
1
10
-2.20000000000005
20
-9.08043848955603
30
-6E-16
41
1
10
-2.20000000000027
20
-8.78327689677786
30
-5E-16
41
1
10
-2.20000000000024
20
-8.55871419535628
30
-5E-16
41
1
10
-2.20000000000019
20
-8.33247380011306
30
-5E-16
41
1
10
-2.20000000000002
20
-8.104558527015
30
-5E-16
41
1
10
-2.20000000000024
20
-7.8749706019465
30
-5E-16
41
1
10
-2.19999999999999
20
-7.64371283673108
30
-5E-16
41
1
10
-2.2000000000003
20
-7.41078884464249
30
-5E-16
41
1
10
-2.19999999999993
20
-7.1762022016002
30
-4E-16
41
1
10
-2.20000000000024
20
-6.93995692090431
30
-4E-16
41
1
10
-2.20000000000013
20
-6.70205758660665
30
-4E-16
41
1
10
-2.20000000000013
20
-6.4625091856962
30
-4E-16
41
1
10
-2.20000000000002
20
-6.22131784000112
30
-4E-16
41
1
10
-2.2000000000003
20
-5.97849049576274
30
-4E-16
41
1
10
-2.19999999999996
20
-5.73403521575815
30
-4E-16
41
1
10
-2.20000000000022
20
-5.48796107357265
30
-3E-16
41
1
10
-2.19999999999999
20
-5.24027911118975
30
-3E-16
41
1
10
-2.20000000000013
20
-5.03253661023493
30
-3E-16
41
1
10
-2.20000000000002
20
-4.86557359122415
30
-3E-16
41
1
10
-2.2000000000003
20
-4.73994908127332
30
-3E-16
41
1
10
-2.20000000000013
20
-4.61393371339022
30
-3E-16
41
1
10
-2.20000000000024
20
-4.44540774959796
30
-3E-16
41
1
10
-2.19999999999996
20
-4.23375652596854
30
-3E-16
41
1
10
-2.20000000000005
20
-4.02083961713777
30
-2E-16
41
1
10
-2.20000000000016
20
-3.84978439152417
30
-2E-16
41
1
10
-2.20000000000027
20
-3.72111342731077
30
-2E-16
41
1
10
-2.2000000000001
20
-3.59207749308621
30
-2E-16
41
1
10
-2.19999999999999
20
-3.41956369464526
30
-2E-16
41
1
10
-2.20000000000002
20
-3.24629481959215
30
-2E-16
41
1
10
-2.20000000000007
20
-3.07238361507387
30
-2E-16
41
1
10
-2.20000000000005
20
-2.94160046512798
30
-2E-16
41
1
10
-2.20000000000016
20
-2.81048647644633
30
-2E-16
41
1
10
-2.19999999999999
20
-2.67904892732173
30
-2E-16
41
1
10
-2.20000000000027
20
-2.54729562722184
30
-2E-16
41
1
10
-2.20000000000027
20
-2.41523551097501
30
-1E-16
41
1
10
-2.19999999999996
20
-2.28287740252145
30
-1E-16
41
1
10
-2.20000000000027
20
-2.15023166945261
30
-1E-16
41
1
10
-2.19999999999993
20
-2.01730873413061
30
-1E-16
41
1
10
-2.2000000000003
20
-1.88412021099802
30
-1E-16
41
1
10
-2.20000000000027
20
-1.75067841854357
30
-1E-16
41
1
10
-2.20000000000022
20
-1.61699634722075
30
-1E-16
41
1
10
-2.20000000000019
20
-1.48308821885632
30
-1E-16
41
1
10
-2.20000000000027
20
-1.34896859254388
30
-1E-16
41
1
10
-2.20000000000007
20
-1.21465350310538
30
-1E-16
41
1
10
-2.20000000000005
20
-1.08015921626884
30
-1E-16
41
1
10
-2.20000000000007
20
-0.945503442662726
30
-1E-16
41
1
10
-2.20000000000022
20
-0.810704113119129
30
0
41
1
10
-2.20000000000022
20
-0.675780421912435
30
0
41
1
10
-2.20000000000005
20
-0.540751787789531
30
0
41
1
10
-2.19999999999999
20
-0.405638599098779
30
0
41
1
10
-2.20000000000033
20
-0.270461428271488
30
0
41
1
10
-2.20000000000007
20
-0.135241462279765
30
0
41
1
10
-2.20000000000007
20
5.3655356E-09
30
0
41
1
10
-2.20000000000013
20
0.135241472589968
30
0
41
1
10
-2.20000000000024
20
0.270461437853896
30
0
41
1
10
-2.20000000000024
20
0.405638608907793
30
0
41
1
10
-2.20000000000002
20
0.540751798686614
30
0
41
1
10
-2.20000000000005
20
0.675780432522231
30
0
41
1
10
-2.20000000000013
20
0.810704122044882
30
0
41
1
10
-2.20000000000019
20
0.945503451789477
30
1E-16
41
1
10
-2.20000000000022
20
1.08015922751389
30
1E-16
41
1
10
-2.20000000000005
20
1.21465351395389
30
1E-16
41
1
10
-2.20000000000005
20
1.34896860046499
30
1E-16
41
1
10
-2.1999999999999
20
1.48308822685573
30
1E-16
41
1
10
-2.20000000000016
20
1.6169963585522
30
1E-16
41
1
10
-2.20000000000002
20
1.75067843002713
30
1E-16
41
1
10
-2.20000000000016
20
1.88412021847037
30
1E-16
41
1
10
-2.2000000000001
20
2.01730874020461
30
1E-16
41
1
10
-2.20000000000005
20
2.15023167925054
30
1E-16
41
1
10
-2.20000000000019
20
2.28287741514001
30
1E-16
41
1
10
-2.20000000000002
20
2.41523552035443
30
1E-16
41
1
10
-2.2000000000001
20
2.54729563151923
30
2E-16
41
1
10
-2.20000000000022
20
2.67904893291677
30
2E-16
41
1
10
-2.20000000000005
20
2.81048648769618
30
2E-16
41
1
10
-2.19999999999993
20
2.94160047796325
30
2E-16
41
1
10
-2.20000000000033
20
3.07238362297485
30
2E-16
41
1
10
-2.20000000000024
20
3.2462948197568
30
2E-16
41
1
10
-2.20000000000013
20
3.41956370437867
30
2E-16
41
1
10
-2.2000000000001
20
3.59207750684848
30
2E-16
41
1
10
-2.20000000000033
20
3.72111343644562
30
2E-16
41
1
10
-2.20000000000024
20
3.84978439330669
30
2E-16
41
1
10
-2.20000000000016
20
4.02083961748897
30
2E-16
41
1
10
-2.20000000000024
20
4.23375654375471
30
3E-16
41
1
10
-2.20000000000033
20
4.44540775759569
30
3E-16
41
1
10
-2.19999999999996
20
4.61393371339886
30
3E-16
41
1
10
-2.20000000000013
20
4.73994907984496
30
3E-16
41
1
10
-2.20000000000024
20
4.86557359653648
30
3E-16
41
1
10
-2.19999999999999
20
5.03253662624789
30
3E-16
41
1
10
-2.20000000000007
20
5.24027911954093
30
3E-16
41
1
10
-2.20000000000033
20
5.48796106514407
30
3E-16
41
1
10
-2.19999999999999
20
5.73403522652003
30
4E-16
41
1
10
-2.2000000000003
20
5.97849051253706
30
4E-16
41
1
10
-2.2000000000001
20
6.22131783489106
30
4E-16
41
1
10
-2.2000000000003
20
6.46250917346808
30
4E-16
41
1
10
-2.20000000000027
20
6.70205756880278
30
4E-16
41
1
10
-2.19999999999999
20
6.93995689241032
30
4E-16
41
1
10
-2.20000000000033
20
7.17620223308287
30
4E-16
41
1
10
-2.20000000000016
20
7.41078904293678
30
5E-16
41
1
10
-2.20000000000019
20
7.64371312168009
30
5E-16
41
1
10
-2.20000000000022
20
7.87497052861906
30
5E-16
41
1
10
-2.20000000000024
20
8.1045584604214
30
5E-16
41
1
10
-2.20000000000027
20
8.332473844415
30
5E-16
41
1
10
-2.2000000000001
20
8.55871423477035
30
5E-16
41
1
10
-2.20000000000024
20
8.78327691067386
30
5E-16
41
1
10
-2.20000000000002
20
9.08043846702654
30
6E-16
41
1
10
-2.20000000000024
20
9.44771866001556
30
6E-16
41
1
10
-2.20000000000002
20
9.88169305528194
30
6E-16
41
1
10
-2.20000000000005
20
10.2377183913448
30
6E-16
41
1
10
-2.20000000000013
20
10.5191258633122
30
6E-16
41
1
10
-2.20000000000013
20
10.7284951094206
30
7E-16
41
1
10
-2.20000000000019
20
10.9361655882295
30
7E-16
41
1
10
-2.20000000000013
20
11.1421359694817
30
7E-16
41
1
10
-2.20000000000005
20
11.3464032666245
30
7E-16
41
1
10
-2.20000000000007
20
11.5489655840495
30
7E-16
41
1
10
-2.20000000000007
20
11.7498207382014
30
7E-16
41
1
10
-2.20000000000007
20
12.0153352587121
30
7E-16
41
1
10
-2.2000000000001
20
12.277459839655
30
8E-16
41
1
10
-2.20000000000007
20
12.5361142561418
30
8E-16
41
1
10
-2.20000000000013
20
12.7283927892775
30
8E-16
41
1
10
-2.20000000000007
20
12.9189467887918
30
8E-16
41
1
10
-2.20000000000016
20
13.1077737445537
30
8E-16
41
1
10
-2.20000000000016
20
13.2948705838034
30
8E-16
41
1
10
-2.2000000000001
20
13.4802328404438
30
8E-16
41
1
10
-2.20000000000005
20
13.6638579908946
30
8E-16
41
1
10
-2.20000000000016
20
13.845742035678
30
8E-16
41
1
10
-2.20000000000005
20
14.0258803815962
30
9E-16
41
1
10
-2.2000000000001
20
14.2042701267483
30
9E-16
41
1
10
-2.2000000000001
20
14.3809064511142
30
9E-16
41
1
10
-2.2000000000001
20
14.6140681792699
30
-9E-16
41
1
10
-2.20000000000007
20
14.8437340716545
30
-9E-16
41
1
10
-2.20000000000022
20
15.069828938707
30
-9E-16
41
1
10
-2.20000000000013
20
15.2935559429894
30
-8E-16
41
1
10
-2.20000000000005
20
15.5137443309021
30
-8E-16
41
1
10
-2.20000000000005
20
15.7303232767806
30
-8E-16
41
1
10
-2.20000000000013
20
15.8909649274654
30
-8E-16
41
1
10
-2.2000000000001
20
16.0498023362737
30
-8E-16
41
1
10
-2.20000000000005
20
16.2591647559547
30
-8E-16
41
1
10
-2.20000000000013
20
16.4649171124643
30
-8E-16
41
1
10
-2.20000000000016
20
16.6669873047371
30
-8E-16
41
1
10
-2.2000000000001
20
16.8167085043733
30
-7E-16
41
1
10
-2.20000000000002
20
16.9645862898265
30
-7E-16
41
1
10
-2.20000000000007
20
17.1592828976247
30
-7E-16
41
1
10
-2.19999999999999
20
17.3502835148979
30
-7E-16
41
1
10
-2.20000000000005
20
17.5375147595292
30
-7E-16
41
1
10
-2.20000000000013
20
17.676060438985
30
-7E-16
41
1
10
-2.20000000000007
20
17.8127154575359
30
-7E-16
41
1
10
-2.20000000000002
20
17.9923842415009
30
-7E-16
41
1
10
-2.20000000000005
20
18.1682547291307
30
-7E-16
41
1
10
-2.20000000000005
20
18.3402522143585
30
-7E-16
41
1
10
-2.20000000000002
20
18.4673177032107
30
-6E-16
41
1
10
-2.20000000000007
20
18.5924361073221
30
-6E-16
41
1
10
-2.20000000000013
20
18.7566457425986
30
-6E-16
41
1
10
-2.20000000000005
20
18.9169371900016
30
-6E-16
41
1
10
-2.20000000000013
20
19.0732305996174
30
3E-16
41
1
10
-2.20000000000022
20
19.1884526890886
30
3E-16
41
1
10
-2.2000000000001
20
19.3016611759423
30
3E-16
41
1
10
-2.19999999999999
20
19.449900539196
30
3E-16
41
1
10
-2.20000000000016
20
19.5940785255289
30
3E-16
41
1
10
-2.20000000000002
20
19.7341104289283
30
3E-16
41
1
10
-2.20000000000016
20
19.8370589164793
30
3E-16
41
1
10
-2.20000000000013
20
19.9379146863562
30
3E-16
41
1
10
-2.20000000000013
20
20.0366640227898
30
3E-16
41
1
10
-2.2000000000001
20
20.133289903145
30
3E-16
41
1
10
-2.19999999999999
20
20.2277776697999
30
4E-16
41
1
10
-2.20000000000013
20
20.3201119082527
30
4E-16
41
1
10
-2.19999999999999
20
20.4102747220554
30
4E-16
41
1
10
-2.2000000000001
20
20.4982502752196
30
4E-16
41
1
10
-2.2000000000001
20
20.584021247456
30
4E-16
41
1
10
-2.20000000000005
20
20.6675682022903
30
-1E-16
41
1
10
-2.19999999999996
20
20.7488739108727
30
-1E-16
41
1
10
-2.20000000000007
20
20.8279188375299
30
-1E-16
41
1
10
-2.2000000000001
20
20.9302657657864
30
-1E-16
41
1
10
-2.20000000000005
20
21.0280237880879
30
0
41
1
10
-2.20000000000002
20
21.1210800961781
30
0
41
1
10
-2.19999999999999
20
21.1885090211438
30
0
41
1
10
-2.2000000000001
20
21.2535469320083
30
0
41
1
10
-2.20000000000016
20
21.3161704250344
30
0
41
1
10
-2.20000000000005
20
21.3763547664481
30
0
41
1
10
-2.20000000000013
20
21.4533087676779
30
0
41
1
10
-2.20000000000019
20
21.525289144814
30
0
41
1
10
-2.19999999999996
20
21.5921615531196
30
0
41
1
10
-2.20000000000016
20
21.639739791663
30
0
41
1
10
-2.20000000000005
20
21.6847072964974
30
0
41
1
10
-2.20000000000013
20
21.7411389990572
30
0
41
1
10
-2.19999999999999
20
21.7922265879072
30
0
41
1
10
-2.20000000000007
20
21.8378144981284
30
0
41
1
10
-2.20000000000005
20
21.8692221254415
30
0
41
1
10
-2.20000000000019
20
21.8978063777088
30
0
41
1
10
-2.2000000000001
20
21.9235254752891
30
0
41
1
10
-2.20000000000007
20
21.9463373508773
30
0
41
1
10
-2.20000000000013
20
21.9661972037608
30
0
41
1
10
-2.2000000000001
20
21.9830583809744
30
0
41
1
10
-2.19999999999996
20
21.9968726399858
30
0
41
1
10
-2.20000000000002
20
22.0069885138327
30
0
41
1
10
-2.20000000000007
20
22.0117698306451
30
0
41
1
10
-2.20000000000007
20
22.013572321999
30
0
0
SPLINE
5
13E
100
AcDbEntity
8
SK1
62
256
6
ByLayer
370
18
48
1
60
0
100
AcDbSpline
70
4
71
2
72
6
73
3
40
0
40
0
40
0
40
1
40
1
40
1
41
1
10
-36.5000000000002
20
21.1521177089667
30
0
41
1
10
-19.3499999999702
20
21.582855447054
30
0
41
1
10
-2.20000000000005
20
22.0135928951589
30
0
0
SPLINE
5
13F
100
AcDbEntity
8
SK1
62
256
6
ByLayer
370
18
48
1
60
0
100
AcDbSpline
70
4
71
2
72
6
73
3
40
0
40
0
40
0
40
1
40
1
40
1
41
1
10
-2.19999999999996
20
-22.0135927638552
30
0
41
1
10
-19.349999999987
20
-21.5828539542124
30
0
41
1
10
-36.5000000000002
20
-21.152114958021
30
0
0
SPLINE
5
140
100
AcDbEntity
8
SK1
62
256
6
ByLayer
370
18
48
1
60
0
100
AcDbSpline
70
4
71
3
72
295
73
291
40
0
40
0
40
0
40
0
40
0.0029678033609826
40
0.0065435740768623
40
0.0101193447927421
40
0.0136951155086219
40
0.0172708862245017
40
0.0208466569403815
40
0.027998198372141
40
0.0351497398039006
40
0.0423012812356602
40
0.0458770519515399
40
0.0494528226674197
40
0.0530285933832995
40
0.0566043640991793
40
0.0637559055309389
40
0.0673316762468187
40
0.0709074469626984
40
0.0744832176785782
40
0.078058988394458
40
0.0816347591103378
40
0.0852105298262175
40
0.0923620712579771
40
0.0959378419738569
40
0.0995136126897367
40
0.103089383405617
40
0.106665154121496
40
0.110240924837376
40
0.113816695553256
40
0.117392466269136
40
0.120968236985016
40
0.124544007700895
40
0.128119778416775
40
0.131695549132655
40
0.135271319848534
40
0.138847090564414
40
0.142422861280294
40
0.149574402712054
40
0.153150173427933
40
0.156725944143813
40
0.158513829501753
40
0.160301714859693
40
0.163877485575573
40
0.171029027007332
40
0.174604797723212
40
0.178180568439092
40
0.181756339154972
40
0.185332109870851
40
0.192483651302611
40
0.196059422018491
40
0.199635192734371
40
0.20142307809231
40
0.20321096345025
40
0.20678673416613
40
0.21393827559789
40
0.21751404631377
40
0.221089817029649
40
0.224665587745529
40
0.228241358461409
40
0.235392899893169
40
0.238968670609048
40
0.242544441324928
40
0.244332326682868
40
0.246120212040808
40
0.249695982756688
40
0.253271753472567
40
0.256847524188447
40
0.258635409546387
40
0.260423294904327
40
0.263999065620207
40
0.267574836336087
40
0.271150607051966
40
0.274726377767846
40
0.278302148483726
40
0.281877919199606
40
0.285453689915485
40
0.289029460631365
40
0.292605231347245
40
0.296181002063125
40
0.299756772779004
40
0.303332543494884
40
0.306908314210764
40
0.310484084926644
40
0.314059855642524
40
0.321211397074283
40
0.324787167790163
40
0.328362938506043
40
0.331938709221923
40
0.335514479937802
40
0.339090250653682
40
0.342666021369562
40
0.346241792085442
40
0.349817562801322
40
0.356969104233081
40
0.364120645664841
40
0.3712721870966
40
0.37484795781248
40
0.37842372852836
40
0.38199949924424
40
0.385575269960119
40
0.389151040675999
40
0.392726811391879
40
0.396302582107759
40
0.399878352823638
40
0.403454123539518
40
0.407029894255398
40
0.410605664971278
40
0.414181435687158
40
0.417757206403037
40
0.421332977118917
40
0.424908747834797
40
0.428484518550677
40
0.432060289266557
40
0.433848174624496
40
0.435636059982436
40
0.437423945340376
40
0.439211830698316
40
0.442787601414196
40
0.446363372130076
40
0.448151257488016
40
0.449939142845955
40
0.451727028203895
40
0.453514913561835
40
0.457090684277715
40
0.458878569635655
40
0.460666454993595
40
0.462454340351535
40
0.464242225709475
40
0.466030111067414
40
0.467817996425354
40
0.469605881783294
40
0.471393767141234
40
0.473181652499174
40
0.474969537857114
40
0.476757423215054
40
0.478545308572994
40
0.480333193930933
40
0.482121079288874
40
0.483908964646813
40
0.485696850004753
40
0.487484735362693
40
0.489272620720633
40
0.491060506078573
40
0.492848391436513
40
0.494636276794453
40
0.496424162152393
40
0.498212047510332
40
0.499999932868272
40
0.501787818226212
40
0.503575703584152
40
0.505363588942092
40
0.507151474300032
40
0.508939359657972
40
0.510727245015912
40
0.512515130373852
40
0.514303015731792
40
0.516090901089731
40
0.517878786447671
40
0.519666671805611
40
0.521454557163551
40
0.523242442521491
40
0.525030327879431
40
0.526818213237371
40
0.528606098595311
40
0.530393983953251
40
0.53218186931119
40
0.53396975466913
40
0.53575764002707
40
0.53754552538501
40
0.53933341074295
40
0.54112129610089
40
0.54290918145883
40
0.54648495217471
40
0.548272837532649
40
0.550060722890589
40
0.551848608248529
40
0.553636493606469
40
0.557212264322349
40
0.560788035038229
40
0.562575920396169
40
0.564363805754108
40
0.566151691112048
40
0.567939576469988
40
0.571515347185868
40
0.575091117901748
40
0.578666888617628
40
0.582242659333508
40
0.585818430049387
40
0.589394200765267
40
0.592969971481147
40
0.596545742197027
40
0.600121512912906
40
0.603697283628786
40
0.607273054344666
40
0.610848825060546
40
0.614424595776426
40
0.618000366492305
40
0.621576137208185
40
0.625151907924065
40
0.628727678639945
40
0.635879220071704
40
0.643030761503464
40
0.650182302935223
40
0.653758073651103
40
0.657333844366983
40
0.660909615082863
40
0.664485385798743
40
0.668061156514622
40
0.671636927230502
40
0.675212697946382
40
0.678788468662262
40
0.685940010094021
40
0.689515780809901
40
0.693091551525781
40
0.696667322241661
40
0.70024309295754
40
0.70381886367342
40
0.7073946343893
40
0.71097040510518
40
0.714546175821059
40
0.718121946536939
40
0.721697717252819
40
0.725273487968699
40
0.728849258684579
40
0.736000800116338
40
0.739576570832218
40
0.743152341548098
40
0.750303882979858
40
0.753879653695737
40
0.757455424411617
40
0.761031195127497
40
0.764606965843377
40
0.771758507275136
40
0.775334277991016
40
0.778910048706896
40
0.782485819422775
40
0.786061590138655
40
0.793213131570415
40
0.796788902286294
40
0.800364673002174
40
0.803940443718054
40
0.807516214433934
40
0.814667755865693
40
0.818243526581573
40
0.821819297297453
40
0.825395068013333
40
0.828970838729213
40
0.836122380160972
40
0.839698150876852
40
0.843273921592732
40
0.846849692308611
40
0.850425463024491
40
0.857577004456251
40
0.86115277517213
40
0.864728545888011
40
0.86830431660389
40
0.87188008731977
40
0.87545585803565
40
0.87903162875153
40
0.882607399467409
40
0.886183170183289
40
0.889758940899169
40
0.893334711615049
40
0.896910482330928
40
0.900486253046808
40
0.904062023762688
40
0.907637794478568
40
0.914789335910327
40
0.918365106626207
40
0.921940877342087
40
0.925516648057967
40
0.929092418773846
40
0.932668189489726
40
0.936243960205606
40
0.943395501637366
40
0.946971272353245
40
0.950547043069125
40
0.954122813785005
40
0.957698584500885
40
0.964850125932645
40
0.968425896648524
40
0.972001667364404
40
0.975577438080284
40
0.979153208796164
40
0.982728979512043
40
0.986304750227923
40
0.989880520943803
40
0.993456291659683
40
0.997032062375562
40
1
40
1
40
1
40
1
41
1
10
-36.5000000000002
20
-21.1520777959629
30
0
41
1
10
-36.5000000000002
20
-21.1503457322449
30
0
41
1
10
-36.5000000000001
20
-21.1457468126159
30
0
41
1
10
-36.5000000000001
20
-21.1360112678939
30
0
41
1
10
-36.4999999999999
20
-21.1226986497682
30
0
41
1
10
-36.5000000000001
20
-21.1064402158535
30
0
41
1
10
-36.5000000000002
20
-21.0872797426227
30
0
41
1
10
-36.5
20
-21.0578537406018
30
0
41
1
10
-36.5000000000001
20
-21.0141777773225
30
0
41
1
10
-36.5000000000001
20
-20.9507130747221
30
0
41
1
10
-36.5000000000002
20
-20.8890285612072
30
1E-16
41
1
10
-36.5000000000001
20
-20.8342802658873
30
0
41
1
10
-36.5
20
-20.7907267804185
30
0
41
1
10
-36.5000000000001
20
-20.7446291690672
30
0
41
1
10
-36.5
20
-20.6796864194097
30
0
41
1
10
-36.5000000000003
20
-20.6101652524537
30
0
41
1
10
-36.5000000000001
20
-20.5353747251342
30
1E-16
41
1
10
-36.5000000000003
20
-20.476978332406
30
1E-16
41
1
10
-36.4999999999999
20
-20.4161995895792
30
1E-16
41
1
10
-36.5000000000003
20
-20.3530628196557
30
1E-16
41
1
10
-36.5000000000001
20
-20.2875896826627
30
1E-16
41
1
10
-36.4999999999999
20
-20.1970436182682
30
1E-16
41
1
10
-36.5000000000001
20
-20.1024192722933
30
1E-16
41
1
10
-36.5000000000001
20
-20.0027815031752
30
1E-16
41
1
10
-36.5000000000002
20
-19.9259535572618
30
1E-16
41
1
10
-36.4999999999998
20
-19.8469141355251
30
1E-16
41
1
10
-36.5000000000003
20
-19.7656833730652
30
1E-16
41
1
10
-36.4999999999999
20
-19.6822775189499
30
-3E-16
41
1
10
-36.5000000000001
20
-19.5967148149263
30
-3E-16
41
1
10
-36.5000000000002
20
-19.5090135394173
30
-3E-16
41
1
10
-36.5000000000001
20
-19.4191882696518
30
-3E-16
41
1
10
-36.5000000000002
20
-19.3272561697678
30
-3E-16
41
1
10
-36.5
20
-19.2332338822713
30
-3E-16
41
1
10
-36.5000000000001
20
-19.1371346902893
30
-3E-16
41
1
10
-36.4999999999999
20
-19.0389746878942
30
-3E-16
41
1
10
-36.5000000000002
20
-18.9387689752276
30
-3E-16
41
1
10
-36.5000000000001
20
-18.802221510079
30
-3E-16
41
1
10
-36.4999999999999
20
-18.6623317385553
30
-3E-16
41
1
10
-36.5000000000002
20
-18.5177544284038
30
-2E-16
41
1
10
-36.5000000000001
20
-18.4260133905722
30
-2E-16
41
1
10
-36.5
20
-18.3514175898237
30
-2E-16
41
1
10
-36.5000000000001
20
-18.2761667145513
30
-2E-16
41
1
10
-36.5000000000001
20
-18.1428549391526
30
-2E-16
41
1
10
-36.5
20
-17.9872696454239
30
7E-16
41
1
10
-36.4999999999999
20
-17.8270700659299
30
7E-16
41
1
10
-36.5
20
-17.7052055421089
30
7E-16
41
1
10
-36.5000000000001
20
-17.5814423770726
30
7E-16
41
1
10
-36.4999999999999
20
-17.4136311437529
30
7E-16
41
1
10
-36.5
20
-17.2428939764416
30
7E-16
41
1
10
-36.5000000000002
20
-17.0675963011876
30
7E-16
41
1
10
-36.5000000000002
20
-16.9568152899197
30
7E-16
41
1
10
-36.5000000000002
20
-16.867008999151
30
7E-16
41
1
10
-36.5000000000001
20
-16.7765898513273
30
7E-16
41
1
10
-36.5000000000001
20
-16.6168596157573
30
8E-16
41
1
10
-36.5
20
-16.4314438788637
30
8E-16
41
1
10
-36.4999999999999
20
-16.2414991337764
30
8E-16
41
1
10
-36.5000000000003
20
-16.0974747197411
30
8E-16
41
1
10
-36.5000000000003
20
-15.9516616651349
30
8E-16
41
1
10
-36.5000000000002
20
-15.754544535149
30
8E-16
41
1
10
-36.4999999999999
20
-15.554861344689
30
8E-16
41
1
10
-36.5000000000001
20
-15.350663385132
30
8E-16
41
1
10
-36.5000000000002
20
-15.2219600388738
30
8E-16
41
1
10
-36.5000000000002
20
-15.1178164480938
30
9E-16
41
1
10
-36.5000000000001
20
-15.0130920883854
30
9E-16
41
1
10
-36.4999999999999
20
-14.8814910451208
30
9E-16
41
1
10
-36.5000000000001
20
-14.7216281332594
30
9E-16
41
1
10
-36.5000000000001
20
-14.5871530954063
30
9E-16
41
1
10
-36.5000000000003
20
-14.4783873813364
30
-9E-16
41
1
10
-36.5000000000001
20
-14.3690494022437
30
-9E-16
41
1
10
-36.5000000000001
20
-14.2317235183089
30
-9E-16
41
1
10
-36.5000000000001
20
-14.0650028858775
30
-9E-16
41
1
10
-36.5000000000002
20
-13.8965816080866
30
-9E-16
41
1
10
-36.4999999999999
20
-13.7264689694464
30
-8E-16
41
1
10
-36.5000000000002
20
-13.5546710496343
30
-8E-16
41
1
10
-36.5000000000003
20
-13.3811910773123
30
-8E-16
41
1
10
-36.5000000000002
20
-13.2060373742644
30
-8E-16
41
1
10
-36.4999999999999
20
-13.0292149133302
30
-8E-16
41
1
10
-36.5
20
-12.8507281773019
30
-8E-16
41
1
10
-36.5000000000001
20
-12.6705857874604
30
-8E-16
41
1
10
-36.5000000000001
20
-12.4887914218501
30
-8E-16
41
1
10
-36.5
20
-12.3053503484466
30
-8E-16
41
1
10
-36.4999999999999
20
-12.1202706879328
30
-7E-16
41
1
10
-36.5000000000001
20
-11.9335555855444
30
-7E-16
41
1
10
-36.5000000000001
20
-11.6819759204348
30
-7E-16
41
1
10
-36.5000000000003
20
-11.4285505376589
30
-7E-16
41
1
10
-36.5000000000003
20
-11.1704660874501
30
-7E-16
41
1
10
-36.4999999999999
20
-10.9756651586937
30
-7E-16
41
1
10
-36.5000000000003
20
-10.7792636737399
30
-7E-16
41
1
10
-36.4999999999999
20
-10.5812696725584
30
-6E-16
41
1
10
-36.5
20
-10.3816871154457
30
-6E-16
41
1
10
-36.5000000000001
20
-10.180523710493
30
-6E-16
41
1
10
-36.5
20
-9.97778558435021
30
-6E-16
41
1
10
-36.5
20
-9.70483576808862
30
-6E-16
41
1
10
-36.5000000000002
20
-9.36101276272165
30
-6E-16
41
1
10
-36.5
20
-8.94153438933258
30
-5E-16
41
1
10
-36.5000000000003
20
-8.587457871937
30
-5E-16
41
1
10
-36.5000000000003
20
-8.30004464023616
30
-5E-16
41
1
10
-36.5000000000003
20
-8.083469503944
30
-5E-16
41
1
10
-36.5000000000003
20
-7.86540102208488
30
-5E-16
41
1
10
-36.5000000000003
20
-7.64585131899622
30
-5E-16
41
1
10
-36.5
20
-7.42483318088824
30
-5E-16
41
1
10
-36.5000000000002
20
-7.20235735193429
30
-4E-16
41
1
10
-36.5000000000003
20
-6.97843755879986
30
-4E-16
41
1
10
-36.5
20
-6.75308981071322
30
-4E-16
41
1
10
-36.5000000000002
20
-6.52633035082286
30
-4E-16
41
1
10
-36.4999999999999
20
-6.2981775323307
30
-4E-16
41
1
10
-36.5000000000003
20
-6.06865022444904
30
-4E-16
41
1
10
-36.5000000000001
20
-5.83776884649413
30
-4E-16
41
1
10
-36.4999999999999
20
-5.60555660448847
30
-3E-16
41
1
10
-36.4999999999999
20
-5.37203985998673
30
-3E-16
41
1
10
-36.5000000000003
20
-5.13724579696898
30
-3E-16
41
1
10
-36.5
20
-4.90120595303733
30
-3E-16
41
1
10
-36.5
20
-4.70396583147394
30
-3E-16
41
1
10
-36.5000000000001
20
-4.5446963857683
30
-3E-16
41
1
10
-36.5000000000001
20
-4.42533999597054
30
-3E-16
41
1
10
-36.5000000000003
20
-4.30569972295416
30
-3E-16
41
1
10
-36.5000000000003
20
-4.14529336499862
30
-3E-16
41
1
10
-36.5000000000002
20
-3.94531865595212
30
-2E-16
41
1
10
-36.5
20
-3.74444957084984
30
-2E-16
41
1
10
-36.4999999999999
20
-3.58224076117992
30
-2E-16
41
1
10
-36.5000000000001
20
-3.46078958963508
30
-2E-16
41
1
10
-36.5000000000001
20
-3.33910702605104
30
-2E-16
41
1
10
-36.5000000000003
20
-3.1759708592235
30
-2E-16
41
1
10
-36.5000000000001
20
-3.01425651604561
30
-2E-16
41
1
10
-36.5000000000003
20
-2.8502314999601
30
-2E-16
41
1
10
-36.5000000000003
20
-2.72752154931186
30
-2E-16
41
1
10
-36.5000000000002
20
-2.60463052157445
30
-2E-16
41
1
10
-36.5000000000001
20
-2.48157378937674
30
-2E-16
41
1
10
-36.5
20
-2.3583562112303
30
-1E-16
41
1
10
-36.5
20
-2.23499061660047
30
-1E-16
41
1
10
-36.5000000000002
20
-2.11148761081347
30
-1E-16
41
1
10
-36.5
20
-1.98785451527641
30
-1E-16
41
1
10
-36.5000000000002
20
-1.86410632124097
30
-1E-16
41
1
10
-36.5
20
-1.74024827700822
30
-1E-16
41
1
10
-36.5000000000001
20
-1.61629526151506
30
-1E-16
41
1
10
-36.5000000000002
20
-1.49225310041967
30
-1E-16
41
1
10
-36.5
20
-1.36813478148929
30
-1E-16
41
1
10
-36.5000000000003
20
-1.24394732222791
30
-1E-16
41
1
10
-36.5000000000002
20
-1.11970117534869
30
-1E-16
41
1
10
-36.5000000000003
20
-0.995403485642896
30
-1E-16
41
1
10
-36.5000000000002
20
-0.871062917068428
30
-1E-16
41
1
10
-36.5000000000003
20
-0.746686102657776
30
0
41
1
10
-36.5000000000003
20
-0.622280124115718
30
0
41
1
10
-36.5000000000001
20
-0.497850420758368
30
0
41
1
10
-36.5000000000001
20
-0.373402935182213
30
0
41
1
10
-36.5000000000003
20
-0.24894223879329
30
0
41
1
10
-36.5000000000002
20
-0.124473257200947
30
0
41
1
10
-36.5000000000003
20
-9.2464063E-09
30
0
41
1
10
-36.5000000000001
20
0.124473254673973
30
0
41
1
10
-36.5000000000001
20
0.248942266430561
30
0
41
1
10
-36.5000000000001
20
0.373402960091368
30
0
41
1
10
-36.5000000000002
20
0.497850400790554
30
0
41
1
10
-36.5000000000004
20
0.622280094010762
30
0
41
1
10
-36.5
20
0.746686131491913
30
0
41
1
10
-36.5000000000003
20
0.871062970095039
30
1E-16
41
1
10
-36.5000000000003
20
0.995403468230705
30
1E-16
41
1
10
-36.5
20
1.11970111692682
30
1E-16
41
1
10
-36.5000000000001
20
1.24394734076816
30
1E-16
41
1
10
-36.5000000000002
20
1.36813486147517
30
1E-16
41
1
10
-36.5000000000002
20
1.49225310642993
30
1E-16
41
1
10
-36.5000000000002
20
1.6162951835696
30
1E-16
41
1
10
-36.5000000000002
20
1.7402482546413
30
1E-16
41
1
10
-36.5
20
1.86410640329157
30
1E-16
41
1
10
-36.5000000000003
20
1.98785458048849
30
1E-16
41
1
10
-36.5000000000001
20
2.11148756075906
30
1E-16
41
1
10
-36.5000000000003
20
2.23499052786056
30
1E-16
41
1
10
-36.5
20
2.35835622798231
30
1E-16
41
1
10
-36.5000000000001
20
2.48157389743915
30
2E-16
41
1
10
-36.4999999999999
20
2.60463057106853
30
2E-16
41
1
10
-36.5
20
2.72752148004809
30
2E-16
41
1
10
-36.5
20
2.85023140656233
30
2E-16
41
1
10
-36.5000000000003
20
3.01425656877092
30
2E-16
41
1
10
-36.5000000000003
20
3.17597095993778
30
2E-16
41
1
10
-36.5000000000002
20
3.33910698167949
30
2E-16
41
1
10
-36.5
20
3.46078948211175
30
2E-16
41
1
10
-36.5000000000001
20
3.58224072191865
30
2E-16
41
1
10
-36.5000000000003
20
3.7444496705034
30
2E-16
41
1
10
-36.5
20
3.94531869048148
30
2E-16
41
1
10
-36.5000000000003
20
4.14529326648036
30
3E-16
41
1
10
-36.5000000000003
20
4.3056996917185
30
3E-16
41
1
10
-36.5000000000003
20
4.42534006396781
30
3E-16
41
1
10
-36.4999999999999
20
4.54469650094617
30
3E-16
41
1
10
-36.5000000000001
20
4.70396584910509
30
3E-16
41
1
10
-36.5000000000001
20
4.90120586463618
30
3E-16
41
1
10
-36.5
20
5.13724581146556
30
3E-16
41
1
10
-36.5
20
5.37203995090814
30
3E-16
41
1
10
-36.5000000000003
20
5.60555655529336
30
3E-16
41
1
10
-36.5000000000001
20
5.83776875015036
30
4E-16
41
1
10
-36.5000000000001
20
6.06865017711212
30
4E-16
41
1
10
-36.5000000000002
20
6.29817748211644
30
4E-16
41
1
10
-36.5000000000002
20
6.52633051401983
30
4E-16
41
1
10
-36.5
20
6.75309051279782
30
4E-16
41
1
10
-36.5000000000001
20
6.97843834484939
30
4E-16
41
1
10
-36.5
20
7.20235684280956
30
4E-16
41
1
10
-36.5000000000003
20
7.42483229470741
30
5E-16
41
1
10
-36.5000000000002
20
7.64585158611572
30
5E-16
41
1
10
-36.5000000000002
20
7.8654012840374
30
5E-16
41
1
10
-36.5000000000001
20
8.08346945831604
30
5E-16
41
1
10
-36.5000000000003
20
8.30004452993876
30
5E-16
41
1
10
-36.5000000000001
20
8.58745782596952
30
5E-16
41
1
10
-36.5000000000002
20
8.94153442741847
30
5E-16
41
1
10
-36.5000000000004
20
9.36101273737577
30
6E-16
41
1
10
-36.5000000000001
20
9.70483575174822
30
6E-16
41
1
10
-36.5000000000003
20
9.97778564072302
30
6E-16
41
1
10
-36.4999999999999
20
10.1805237146601
30
6E-16
41
1
10
-36.5
20
10.3816870614505
30
6E-16
41
1
10
-36.5000000000003
20
10.5812696339218
30
6E-16
41
1
10
-36.5000000000003
20
10.7792636942326
30
7E-16
41
1
10
-36.4999999999999
20
10.9756652058486
30
7E-16
41
1
10
-36.5000000000001
20
11.1704660987635
30
7E-16
41
1
10
-36.5
20
11.4285504962005
30
7E-16
41
1
10
-36.5000000000002
20
11.6819759007756
30
7E-16
41
1
10
-36.5000000000003
20
11.9335556252713
30
7E-16
41
1
10
-36.5000000000002
20
12.1202707134412
30
7E-16
41
1
10
-36.5
20
12.3053503320752
30
8E-16
41
1
10
-36.5000000000001
20
12.4887913848282
30
8E-16
41
1
10
-36.5000000000003
20
12.6705857704288
30
8E-16
41
1
10
-36.5000000000002
20
12.8507281979537
30
8E-16
41
1
10
-36.5
20
13.0292149436137
30
8E-16
41
1
10
-36.5000000000003
20
13.2060373895954
30
8E-16
41
1
10
-36.5000000000001
20
13.3811911431361
30
8E-16
41
1
10
-36.5000000000001
20
13.5546713888901
30
8E-16
41
1
10
-36.5
20
13.7264696827894
30
8E-16
41
1
10
-36.5
20
13.95367691736
30
9E-16
41
1
10
-36.5000000000003
20
14.1763485768089
30
9E-16
41
1
10
-36.5
20
14.3967384349215
30
9E-16
41
1
10
-36.5000000000002
20
14.6148460432234
30
-9E-16
41
1
10
-36.5
20
14.8284315021107
30
-9E-16
41
1
10
-36.5
20
15.0396227184097
30
-9E-16
41
1
10
-36.5
20
15.1960147192183
30
-8E-16
41
1
10
-36.4999999999999
20
15.3506631330604
30
-8E-16
41
1
10
-36.4999999999999
20
15.5548624364723
30
-8E-16
41
1
10
-36.5000000000001
20
15.7545451164335
30
-8E-16
41
1
10
-36.5000000000002
20
15.9516609547094
30
-8E-16
41
1
10
-36.5000000000001
20
16.0974737380164
30
-8E-16
41
1
10
-36.5000000000001
20
16.2414988132779
30
-8E-16
41
1
10
-36.5
20
16.4314450331353
30
-8E-16
41
1
10
-36.5000000000002
20
16.6168608854211
30
-8E-16
41
1
10
-36.5
20
16.7995343923806
30
-7E-16
41
1
10
-36.5000000000003
20
16.9344844206002
30
-7E-16
41
1
10
-36.5000000000004
20
17.0675955495036
30
-7E-16
41
1
10
-36.5000000000003
20
17.2428947983013
30
-7E-16
41
1
10
-36.5000000000002
20
17.4136313821348
30
-7E-16
41
1
10
-36.5
20
17.5814422063202
30
-7E-16
41
1
10
-36.5000000000001
20
17.7052052466276
30
-7E-16
41
1
10
-36.5000000000002
20
17.827069915531
30
-7E-16
41
1
10
-36.5000000000003
20
17.9872703841191
30
-7E-16
41
1
10
-36.5
20
18.1428562465544
30
2E-16
41
1
10
-36.5000000000001
20
18.2953166794047
30
2E-16
41
1
10
-36.5
20
18.4075180436268
30
2E-16
41
1
10
-36.5
20
18.5177535555592
30
2E-16
41
1
10
-36.5000000000001
20
18.6623326618875
30
3E-16
41
1
10
-36.5000000000001
20
18.8022222651529
30
3E-16
41
1
10
-36.4999999999999
20
18.9387686023438
30
3E-16
41
1
10
-36.5000000000002
20
19.0389739868784
30
3E-16
41
1
10
-36.4999999999999
20
19.1371342717785
30
3E-16
41
1
10
-36.5
20
19.2332339353277
30
3E-16
41
1
10
-36.4999999999999
20
19.3272562516114
30
3E-16
41
1
10
-36.5
20
19.4191882978898
30
3E-16
41
1
10
-36.5000000000002
20
19.5090135437132
30
3E-16
41
1
10
-36.5
20
19.5967148362679
30
3E-16
41
1
10
-36.5
20
19.6822775521963
30
3E-16
41
1
10
-36.4999999999999
20
19.7656833992677
30
-1E-16
41
1
10
-36.5000000000003
20
19.8469141406671
30
-1E-16
41
1
10
-36.4999999999999
20
19.9259535527381
30
-1E-16
41
1
10
-36.5
20
20.0027815100321
30
-1E-16
41
1
10
-36.5000000000003
20
20.102419306139
30
-1E-16
41
1
10
-36.5
20
20.1970436522849
30
-1E-16
41
1
10
-36.5
20
20.2875896816241
30
-1E-16
41
1
10
-36.5
20
20.3530628162381
30
-1E-16
41
1
10
-36.5000000000003
20
20.4161996091986
30
-1E-16
41
1
10
-36.4999999999999
20
20.4769783724375
30
-1E-16
41
1
10
-36.5000000000003
20
20.5353747607016
30
-1E-16
41
1
10
-36.5
20
20.6101652553123
30
0
41
1
10
-36.5
20
20.6796864153796
30
0
41
1
10
-36.5
20
20.7446292080422
30
0
41
1
10
-36.4999999999999
20
20.7907268231739
30
0
41
1
10
-36.5
20
20.8342802793506
30
0
41
1
10
-36.5000000000003
20
20.8890285523335
30
-1E-16
41
1
10
-36.5000000000002
20
20.9382580424268
30
-1E-16
41
1
10
-36.5000000000001
20
20.9824409225429
30
0
41
1
10
-36.4999999999999
20
21.0128017234865
30
0
41
1
10
-36.4999999999999
20
21.0404207944711
30
0
41
1
10
-36.4999999999999
20
21.0652596303333
30
0
41
1
10
-36.5
20
21.0872797892675
30
0
41
1
10
-36.5000000000002
20
21.1064402531506
30
0
41
1
10
-36.4999999999999
20
21.1226986516192
30
0
41
1
10
-36.5000000000002
20
21.1360112646483
30
0
41
1
10
-36.5000000000003
20
21.1457469884743
30
0
41
1
10
-36.5000000000002
20
21.1503460521269
30
0
41
1
10
-36.5000000000002
20
21.1520782022966
30
0
0
SPLINE
5
141
100
AcDbEntity
8
SK1
62
256
6
ByLayer
370
18
48
1
60
0
100
AcDbSpline
70
4
71
3
72
299
73
295
40
0
40
0
40
0
40
0
40
0.0028846471331029
40
0.0064102031304931
40
0.0099357591278834
40
0.0134613151252736
40
0.0169868711226638
40
0.020512427120054
40
0.0240379831174442
40
0.0275635391148344
40
0.0346146511096149
40
0.0416657631043953
40
0.0487168750991758
40
0.052242431096566
40
0.0557679870939562
40
0.0592935430913464
40
0.0628190990887366
40
0.0698702110835171
40
0.0733957670809073
40
0.0769213230782975
40
0.0804468790756877
40
0.0839724350730779
40
0.0874979910704682
40
0.0910235470678584
40
0.0980746590626388
40
0.101600215060029
40
0.105125771057419
40
0.108651327054809
40
0.1121768830522
40
0.11570243904959
40
0.11922799504698
40
0.12275355104437
40
0.126279107041761
40
0.129804663039151
40
0.133330219036541
40
0.136855775033931
40
0.140381331031321
40
0.143906887028712
40
0.147432443026102
40
0.154483555020882
40
0.158009111018273
40
0.161534667015663
40
0.163297445014358
40
0.165060223013053
40
0.168585779010443
40
0.175636891005224
40
0.179162447002614
40
0.182688003000004
40
0.186213558997394
40
0.189739114994784
40
0.196790226989565
40
0.200315782986955
40
0.203841338984345
40
0.205604116983041
40
0.207366894981736
40
0.210892450979126
40
0.217943562973906
40
0.221469118971297
40
0.224994674968687
40
0.228520230966077
40
0.232045786963467
40
0.239096898958248
40
0.242622454955638
40
0.246148010953028
40
0.247910788951723
40
0.249673566950418
40
0.253199122947808
40
0.256724678945199
40
0.260250234942589
40
0.262013012941284
40
0.263775790939979
40
0.267301346937369
40
0.270826902934759
40
0.27435245893215
40
0.27787801492954
40
0.28140357092693
40
0.28492912692432
40
0.288454682921711
40
0.291980238919101
40
0.295505794916491
40
0.299031350913881
40
0.302556906911272
40
0.306082462908662
40
0.309608018906052
40
0.313133574903442
40
0.316659130900832
40
0.323710242895613
40
0.327235798893003
40
0.330761354890393
40
0.334286910887784
40
0.337812466885174
40
0.341338022882564
40
0.344863578879954
40
0.348389134877344
40
0.351914690874735
40
0.358965802869515
40
0.366016914864295
40
0.373068026859076
40
0.376593582856466
40
0.380119138853856
40
0.383644694851247
40
0.387170250848637
40
0.390695806846027
40
0.394221362843417
40
0.397746918840807
40
0.401272474838198
40
0.404798030835588
40
0.408323586832978
40
0.411849142830368
40
0.415374698827759
40
0.418900254825149
40
0.422425810822539
40
0.425951366819929
40
0.429476922817319
40
0.433002478814709
40
0.434765256813405
40
0.4365280348121
40
0.438290812810795
40
0.44005359080949
40
0.44357914680688
40
0.44710470280427
40
0.448867480802966
40
0.450630258801661
40
0.452393036800356
40
0.454155814799051
40
0.457681370796441
40
0.459444148795136
40
0.461206926793831
40
0.462969704792526
40
0.464732482791222
40
0.466495260789917
40
0.468258038788612
40
0.470020816787307
40
0.471783594786002
40
0.473546372784697
40
0.475309150783392
40
0.477071928782087
40
0.478834706780782
40
0.480597484779478
40
0.482360262778173
40
0.484123040776868
40
0.485885818775563
40
0.487648596774258
40
0.489411374772953
40
0.491174152771648
40
0.492936930770343
40
0.494699708769038
40
0.496462486767734
40
0.498225264766429
40
0.499988042765124
40
0.501750820763819
40
0.503513598762514
40
0.505276376761209
40
0.507039154759904
40
0.508801932758599
40
0.510564710757294
40
0.51232748875599
40
0.514090266754685
40
0.51585304475338
40
0.517615822752075
40
0.51937860075077
40
0.521141378749465
40
0.52290415674816
40
0.524666934746855
40
0.52642971274555
40
0.528192490744245
40
0.529955268742941
40
0.531718046741636
40
0.533480824740331
40
0.535243602739026
40
0.537006380737721
40
0.538769158736416
40
0.540531936735111
40
0.542294714733806
40
0.545820270731197
40
0.547583048729892
40
0.549345826728587
40
0.551108604727282
40
0.552871382725977
40
0.556396938723367
40
0.559922494720757
40
0.561685272719453
40
0.563448050718148
40
0.565210828716843
40
0.566973606715538
40
0.570499162712928
40
0.574024718710318
40
0.577550274707709
40
0.581075830705099
40
0.584601386702489
40
0.588126942699879
40
0.591652498697269
40
0.59517805469466
40
0.59870361069205
40
0.60222916668944
40
0.60575472268683
40
0.609280278684221
40
0.612805834681611
40
0.616331390679001
40
0.619856946676391
40
0.623382502673781
40
0.626908058671172
40
0.633959170665952
40
0.641010282660732
40
0.648061394655513
40
0.651586950652903
40
0.655112506650293
40
0.658638062647684
40
0.662163618645074
40
0.665689174642464
40
0.669214730639854
40
0.672740286637244
40
0.676265842634635
40
0.683316954629415
40
0.686842510626805
40
0.690368066624196
40
0.693893622621586
40
0.697419178618976
40
0.700944734616366
40
0.704470290613756
40
0.707995846611147
40
0.711521402608537
40
0.715046958605927
40
0.718572514603317
40
0.722098070600708
40
0.725623626598098
40
0.732674738592878
40
0.736200294590268
40
0.739725850587659
40
0.746776962582439
40
0.750302518579829
40
0.753828074577219
40
0.75735363057461
40
0.760879186572
40
0.76793029856678
40
0.771455854564171
40
0.774981410561561
40
0.778506966558951
40
0.782032522556341
40
0.789083634551122
40
0.792609190548512
40
0.796134746545902
40
0.799660302543292
40
0.803185858540683
40
0.810236970535463
40
0.813762526532853
40
0.817288082530243
40
0.820813638527634
40
0.824339194525024
40
0.831390306519804
40
0.834915862517195
40
0.838441418514585
40
0.841966974511975
40
0.845492530509365
40
0.852543642504146
40
0.856069198501536
40
0.859594754498926
40
0.863120310496316
40
0.866645866493706
40
0.870171422491097
40
0.873696978488487
40
0.877222534485877
40
0.880748090483267
40
0.884273646480658
40
0.887799202478048
40
0.891324758475438
40
0.894850314472828
40
0.898375870470218
40
0.901901426467609
40
0.908952538462389
40
0.912478094459779
40
0.916003650457169
40
0.91952920645456
40
0.92305476245195
40
0.92658031844934
40
0.93010587444673
40
0.937156986441511
40
0.940682542438901
40
0.944208098436291
40
0.947733654433681
40
0.951259210431072
40
0.958310322425852
40
0.961835878423242
40
0.965361434420632
40
0.968886990418023
40
0.972412546415413
40
0.975938102412803
40
0.979463658410193
40
0.982989214407584
40
0.986514770404974
40
0.990040326402364
40
0.993565882399754
40
0.997091438397145
40
1
40
1
40
1
40
1
41
1
10
-1.99503997793946
20
-21.8251859332537
30
3E-16
41
1
10
-1.99503997793946
20
-21.825176860769
30
2E-16
41
1
10
-1.9950399779394
20
-21.8243418854684
30
0
41
1
10
-1.99503997793934
20
-21.8202836860757
30
0
41
1
10
-1.99503997793946
20
-21.8127830441421
30
0
41
1
10
-1.99503997793951
20
-21.8021565364936
30
0
41
1
10
-1.99503997793914
20
-21.7884557330327
30
0
41
1
10
-1.99503997793917
20
-21.7717308612526
30
0
41
1
10
-1.99503997793943
20
-21.752029198582
30
0
41
1
10
-1.99503997793914
20
-21.7218385059105
30
0
41
1
10
-1.9950399779392
20
-21.6769140218914
30
0
41
1
10
-1.99503997793946
20
-21.6117670092986
30
0
41
1
10
-1.99503997793951
20
-21.5484022523456
30
0
41
1
10
-1.9950399779392
20
-21.4923512863894
30
0
41
1
10
-1.9950399779392
20
-21.4477036012608
30
0
41
1
10
-1.99503997793926
20
-21.4004602751572
30
0
41
1
10
-1.99503997793934
20
-21.3340243579834
30
0
41
1
10
-1.9950399779392
20
-21.2626002065084
30
0
41
1
10
-1.99503997793934
20
-21.1861355372813
30
0
41
1
10
-1.99503997793948
20
-21.1263556154561
30
0
41
1
10
-1.9950399779394
20
-21.0641493981767
30
0
41
1
10
-1.9950399779394
20
-20.9995415089613
30
0
41
1
10
-1.9950399779394
20
-20.9325549476399
30
1E-16
41
1
10
-1.9950399779392
20
-20.8400664063015
30
1E-16
41
1
10
-1.99503997793917
20
-20.7430171949631
30
1E-16
41
1
10
-1.99503997793951
20
-20.6412830606925
30
1E-16
41
1
10
-1.99503997793954
20
-20.5627395849405
30
1E-16
41
1
10
-1.99503997793934
20
-20.4819464711493
30
1E-16
41
1
10
-1.9950399779392
20
-20.3989234016942
30
-4E-16
41
1
10
-1.99503997793931
20
-20.3136873945745
30
-4E-16
41
1
10
-1.99503997793931
20
-20.2262576082901
30
-4E-16
41
1
10
-1.99503997793917
20
-20.136651569995
30
-3E-16
41
1
10
-1.99503997793957
20
-20.0448848271877
30
-3E-16
41
1
10
-1.99503997793928
20
-19.9509751576252
30
-3E-16
41
1
10
-1.99503997793954
20
-19.8549383078338
30
-3E-16
41
1
10
-1.99503997793934
20
-19.7567886026657
30
-3E-16
41
1
10
-1.99503997793923
20
-19.6565424313981
30
-3E-16
41
1
10
-1.99503997793917
20
-19.5542139601406
30
-3E-16
41
1
10
-1.99503997793931
20
-19.4149698127943
30
-3E-16
41
1
10
-1.99503997793923
20
-19.2717622924355
30
-3E-16
41
1
10
-1.99503997793914
20
-19.1243520606763
30
-3E-16
41
1
10
-1.99503997793917
20
-19.0305969699325
30
-3E-16
41
1
10
-1.99503997793951
20
-18.9545457436667
30
-3E-16
41
1
10
-1.99503997793951
20
-18.8778283452341
30
-3E-16
41
1
10
-1.9950399779394
20
-18.7418485706133
30
6E-16
41
1
10
-1.99503997793917
20
-18.5826225030746
30
6E-16
41
1
10
-1.99503997793928
20
-18.4193199892891
30
6E-16
41
1
10
-1.9950399779394
20
-18.2949375082747
30
7E-16
41
1
10
-1.99503997793954
20
-18.1686188381619
30
7E-16
41
1
10
-1.99503997793926
20
-17.9975681157064
30
7E-16
41
1
10
-1.99503997793923
20
-17.8228588844704
30
7E-16
41
1
10
-1.99503997793946
20
-17.644179567268
30
7E-16
41
1
10
-1.99503997793931
20
-17.5309981410347
30
7E-16
41
1
10
-1.99503997793957
20
-17.4394590341186
30
7E-16
41
1
10
-1.99503997793928
20
-17.3472945498448
30
7E-16
41
1
10
-1.99503997793914
20
-17.1843913435574
30
7E-16
41
1
10
-1.99503997793954
20
-16.9946548235123
30
7E-16
41
1
10
-1.99503997793926
20
-16.8010333841431
30
7E-16
41
1
10
-1.99503997793957
20
-16.6540270238881
30
8E-16
41
1
10
-1.99503997793937
20
-16.5051894370888
30
8E-16
41
1
10
-1.99503997793954
20
-16.3042392155798
30
8E-16
41
1
10
-1.99503997793948
20
-16.0998599858609
30
8E-16
41
1
10
-1.99503997793948
20
-15.8916662065006
30
8E-16
41
1
10
-1.99503997793948
20
-15.7601264684357
30
8E-16
41
1
10
-1.99503997793931
20
-15.6539352235828
30
8E-16
41
1
10
-1.99503997793957
20
-15.5471478788445
30
8E-16
41
1
10
-1.99503997793937
20
-15.4126292313155
30
8E-16
41
1
10
-1.99503997793931
20
-15.2493853238091
30
8E-16
41
1
10
-1.99503997793943
20
-15.1119089381337
30
9E-16
41
1
10
-1.99503997793943
20
-15.0009760777422
30
9E-16
41
1
10
-1.99503997793934
20
-14.8894548819647
30
9E-16
41
1
10
-1.99503997793946
20
-14.7490386600655
30
9E-16
41
1
10
-1.99503997793923
20
-14.578735707937
30
9E-16
41
1
10
-1.99503997793926
20
-14.4066808882548
30
-9E-16
41
1
10
-1.99503997793946
20
-14.2328806917249
30
-9E-16
41
1
10
-1.99503997793923
20
-14.0573388809363
30
-9E-16
41
1
10
-1.99503997793937
20
-13.8800596938692
30
-8E-16
41
1
10
-1.99503997793954
20
-13.7010488098079
30
-8E-16
41
1
10
-1.99503997793946
20
-13.5203096364964
30
-8E-16
41
1
10
-1.99503997793957
20
-13.3378467409435
30
-8E-16
41
1
10
-1.99503997793931
20
-13.1536651576331
30
-8E-16
41
1
10
-1.9950399779394
20
-12.967767664355
30
-8E-16
41
1
10
-1.99503997793951
20
-12.7801589185362
30
-8E-16
41
1
10
-1.99503997793946
20
-12.5908431445087
30
-8E-16
41
1
10
-1.99503997793931
20
-12.3998230002593
30
-8E-16
41
1
10
-1.99503997793923
20
-12.1427688173784
30
-7E-16
41
1
10
-1.99503997793928
20
-11.8826118718573
30
-7E-16
41
1
10
-1.99503997793934
20
-11.6187779306707
30
-7E-16
41
1
10
-1.99503997793951
20
-11.4192921752592
30
-7E-16
41
1
10
-1.99503997793926
20
-11.218123373303
30
-7E-16
41
1
10
-1.99503997793923
20
-11.0152750188842
30
-7E-16
41
1
10
-1.99503997793954
20
-10.8107494713072
30
-7E-16
41
1
10
-1.99503997793957
20
-10.6045508021233
30
-6E-16
41
1
10
-1.99503997793943
20
-10.3966814407573
30
-6E-16
41
1
10
-1.99503997793957
20
-10.117187003324
30
-6E-16
41
1
10
-1.99503997793963
20
-9.76392166117966
30
-6E-16
41
1
10
-1.99503997793943
20
-9.33322608836655
30
-6E-16
41
1
10
-1.99503997793926
20
-8.96893242084846
30
-5E-16
41
1
10
-1.99503997793954
20
-8.67397578579329
30
-5E-16
41
1
10
-1.99503997793957
20
-8.45121977200673
30
-5E-16
41
1
10
-1.99503997793923
20
-8.22682776167488
30
-5E-16
41
1
10
-1.99503997793934
20
-8.00080467620239
30
-5E-16
41
1
10
-1.99503997793957
20
-7.77315513008739
30
-5E-16
41
1
10
-1.99503997793931
20
-7.54388372935193
30
-5E-16
41
1
10
-1.99503997793957
20
-7.31299637479296
30
-4E-16
41
1
10
-1.99503997793926
20
-7.08049945458941
30
-4E-16
41
1
10
-1.99503997793928
20
-6.84639974828044
30
-4E-16
41
1
10
-1.99503997793934
20
-6.61070495432835
30
-4E-16
41
1
10
-1.99503997793963
20
-6.37342319970764
30
-4E-16
41
1
10
-1.99503997793923
20
-6.13456384015981
30
-4E-16
41
1
10
-1.99503997793926
20
-5.89413749968619
30
-4E-16
41
1
10
-1.99503997793934
20
-5.65215638001945
30
-3E-16
41
1
10
-1.99503997793948
20
-5.40863365108973
30
-3E-16
41
1
10
-1.99503997793937
20
-5.1635849907345
30
-3E-16
41
1
10
-1.9950399779392
20
-4.95821799704322
30
-3E-16
41
1
10
-1.99503997793951
20
-4.79299516838276
30
-3E-16
41
1
10
-1.9950399779396
20
-4.66878842905299
30
-3E-16
41
1
10
-1.99503997793954
20
-4.54421502813739
30
-3E-16
41
1
10
-1.99503997793934
20
-4.3775256179415
30
-3E-16
41
1
10
-1.9950399779394
20
-4.16851547631597
30
-3E-16
41
1
10
-1.99503997793926
20
-3.95832363498758
30
-2E-16
41
1
10
-1.99503997793957
20
-3.78926935835423
30
-2E-16
41
1
10
-1.9950399779396
20
-3.66223142121851
30
-2E-16
41
1
10
-1.99503997793957
20
-3.53485872774337
30
-2E-16
41
1
10
-1.99503997793957
20
-3.36446603264326
30
-2E-16
41
1
10
-1.99503997793928
20
-3.19381064862617
30
-2E-16
41
1
10
-1.99503997793928
20
-3.02213557666005
30
-2E-16
41
1
10
-1.99503997793954
20
-2.89317848373028
30
-2E-16
41
1
10
-1.9950399779392
20
-2.76392442628153
30
-2E-16
41
1
10
-1.99503997793934
20
-2.6343825134451
30
-2E-16
41
1
10
-1.99503997793946
20
-2.50455988721876
30
-2E-16
41
1
10
-1.99503997793923
20
-2.3744663633492
30
-1E-16
41
1
10
-1.99503997793954
20
-2.24411116870448
30
-1E-16
41
1
10
-1.99503997793934
20
-2.11350398186613
30
-1E-16
41
1
10
-1.9950399779394
20
-1.98265625862299
30
-1E-16
41
1
10
-1.99503997793926
20
-1.85157817347519
30
-1E-16
41
1
10
-1.99503997793937
20
-1.7202826240534
30
-1E-16
41
1
10
-1.99503997793946
20
-1.58878098022359
30
-1E-16
41
1
10
-1.99503997793937
20
-1.45708718468359
30
-1E-16
41
1
10
-1.99503997793948
20
-1.32521409071339
30
-1E-16
41
1
10
-1.9950399779394
20
-1.19317647053171
30
-1E-16
41
1
10
-1.99503997793928
20
-1.0609885268243
30
-1E-16
41
1
10
-1.99503997793951
20
-0.928665923975728
30
-1E-16
41
1
10
-1.99503997793963
20
-0.796224037396285
30
0
41
1
10
-1.99503997793951
20
-0.663679321648402
30
0
41
1
10
-1.99503997793928
20
-0.531048033506152
30
0
41
1
10
-1.99503997793928
20
-0.39834729386888
30
0
41
1
10
-1.99503997793948
20
-0.265594055935224
30
0
41
1
10
-1.99503997793928
20
-0.132805828560208
30
0
41
1
10
-1.99503997793957
20
2.0604318E-09
30
0
41
1
10
-1.99503997793957
20
0.132805835966735
30
0
41
1
10
-1.99503997793928
20
0.265594069601576
30
0
41
1
10
-1.99503997793928
20
0.398347307093473
30
0
41
1
10
-1.9950399779396
20
0.531048037421897
30
0
41
1
10
-1.99503997793957
20
0.663679323048967
30
0
41
1
10
-1.9950399779396
20
0.796224050824918
30
0
41
1
10
-1.99503997793948
20
0.928665943031973
30
1E-16
41
1
10
-1.99503997793923
20
1.0609885315877
30
1E-16
41
1
10
-1.99503997793934
20
1.19317646571216
30
1E-16
41
1
10
-1.9950399779392
20
1.32521410103661
30
1E-16
41
1
10
-1.99503997793934
20
1.45708720896547
30
1E-16
41
1
10
-1.99503997793948
20
1.58878099035144
30
1E-16
41
1
10
-1.99503997793931
20
1.7202826153094
30
1E-16
41
1
10
-1.99503997793923
20
1.85157817419844
30
1E-16
41
1
10
-1.9950399779394
20
1.98265628188179
30
1E-16
41
1
10
-1.99503997793931
20
2.11350400419806
30
1E-16
41
1
10
-1.99503997793934
20
2.24411116714705
30
1E-16
41
1
10
-1.99503997793928
20
2.37446635053553
30
1E-16
41
1
10
-1.99503997793926
20
2.5045598943334
30
2E-16
41
1
10
-1.9950399779394
20
2.63438254221708
30
2E-16
41
1
10
-1.99503997793926
20
2.76392444618187
30
2E-16
41
1
10
-1.99503997793926
20
2.89317847799566
30
2E-16
41
1
10
-1.99503997793954
20
3.02213556164855
30
2E-16
41
1
10
-1.9950399779392
20
3.19381066067959
30
2E-16
41
1
10
-1.99503997793934
20
3.36446606295527
30
2E-16
41
1
10
-1.99503997793951
20
3.53485872835628
30
2E-16
41
1
10
-1.99503997793954
20
3.6622314039667
30
2E-16
41
1
10
-1.99503997793934
20
3.78926935085317
30
2E-16
41
1
10
-1.99503997793943
20
3.95832365779984
30
2E-16
41
1
10
-1.99503997793951
20
4.16851549788907
30
3E-16
41
1
10
-1.99503997793934
20
4.377525601847
30
3E-16
41
1
10
-1.99503997793934
20
4.54421502107891
30
3E-16
41
1
10
-1.99503997793937
20
4.66878844332791
30
3E-16
41
1
10
-1.99503997793923
20
4.79299519854541
30
3E-16
41
1
10
-1.99503997793954
20
4.95821801342211
30
3E-16
41
1
10
-1.99503997793963
20
5.16358497720131
30
3E-16
41
1
10
-1.99503997793951
20
5.4086336478467
30
3E-16
41
1
10
-1.99503997793957
20
5.6521564089121
30
3E-16
41
1
10
-1.99503997793926
20
5.89413750153946
30
4E-16
41
1
10
-1.99503997793931
20
6.13456381441395
30
4E-16
41
1
10
-1.99503997793951
20
6.37342317953835
30
4E-16
41
1
10
-1.99503997793943
20
6.61070492919378
30
4E-16
41
1
10
-1.99503997793926
20
6.8463997631448
30
4E-16
41
1
10
-1.99503997793928
20
7.08049963775403
30
4E-16
41
1
10
-1.99503997793934
20
7.31299670603019
30
4E-16
41
1
10
-1.99503997793954
20
7.54388383469125
30
5E-16
41
1
10
-1.99503997793963
20
7.77315487290255
30
5E-16
41
1
10
-1.99503997793928
20
8.00080468509071
30
5E-16
41
1
10
-1.9950399779394
20
8.22682785520689
30
5E-16
41
1
10
-1.99503997793951
20
8.4512197921853
30
5E-16
41
1
10
-1.99503997793937
20
8.67397577159849
30
5E-16
41
1
10
-1.99503997793948
20
8.96893239301764
30
5E-16
41
1
10
-1.99503997793926
20
9.33322609823673
30
6E-16
41
1
10
-1.99503997793937
20
9.76392165975841
30
6E-16
41
1
10
-1.99503997793937
20
10.1171869828061
30
6E-16
41
1
10
-1.99503997793934
20
10.3966814549587
30
6E-16
41
1
10
-1.99503997793934
20
10.6045508126063
30
6E-16
41
1
10
-1.99503997793934
20
10.8107494592904
30
7E-16
41
1
10
-1.99503997793946
20
11.0152749978462
30
7E-16
41
1
10
-1.99503997793954
20
11.2181233670388
30
7E-16
41
1
10
-1.99503997793934
20
11.4192921870092
30
7E-16
41
1
10
-1.99503997793951
20
11.6187779427601
30
7E-16
41
1
10
-1.99503997793937
20
11.8826118620781
30
7E-16
41
1
10
-1.9950399779394
20
12.1427687977971
30
7E-16
41
1
10
-1.99503997793946
20
12.3998230071701
30
8E-16
41
1
10
-1.9950399779394
20
12.5908431584255
30
8E-16
41
1
10
-1.99503997793951
20
12.7801589212447
30
8E-16
41
1
10
-1.99503997793937
20
12.9677676529032
30
8E-16
41
1
10
-1.99503997793931
20
13.1536651432542
30
8E-16
41
1
10
-1.9950399779394
20
13.3378467396349
30
8E-16
41
1
10
-1.99503997793948
20
13.5203096469929
30
8E-16
41
1
10
-1.99503997793934
20
13.7010488212408
30
8E-16
41
1
10
-1.99503997793931
20
13.8800597145163
30
8E-16
41
1
10
-1.9950399779394
20
14.0573389921213
30
9E-16
41
1
10
-1.99503997793948
20
14.2328810143212
30
9E-16
41
1
10
-1.99503997793943
20
14.4646959102749
30
9E-16
41
1
10
-1.99503997793934
20
14.6927797943809
30
-9E-16
41
1
10
-1.99503997793943
20
14.9175842595472
30
-9E-16
41
1
10
-1.99503997793928
20
15.1400402265274
30
-8E-16
41
1
10
-1.99503997793934
20
15.3587351142266
30
-8E-16
41
1
10
-1.99503997793931
20
15.574095422854
30
-8E-16
41
1
10
-1.99503997793928
20
15.733775855726
30
-8E-16
41
1
10
-1.99503997793926
20
15.8916657661057
30
-8E-16
41
1
10
-1.99503997793931
20
16.0998603532658
30
-8E-16
41
1
10
-1.99503997793931
20
16.3042398246232
30
-8E-16
41
1
10
-1.99503997793931
20
16.5051894037979
30
-8E-16
41
1
10
-1.99503997793934
20
16.6540265683948
30
-8E-16
41
1
10
-1.9950399779394
20
16.8010329188421
30
-7E-16
41
1
10
-1.99503997793937
20
16.994655048121
30
-7E-16
41
1
10
-1.99503997793928
20
17.1843924611908
30
-7E-16
41
1
10
-1.99503997793937
20
17.3705928023913
30
-7E-16
41
1
10
-1.99503997793937
20
17.5083251903718
30
-7E-16
41
1
10
-1.99503997793931
20
17.6441786252735
30
-7E-16
41
1
10
-1.99503997793948
20
17.8228590748674
30
-7E-16
41
1
10
-1.99503997793937
20
17.9975683374733
30
-7E-16
41
1
10
-1.99503997793948
20
18.1686188521771
30
-7E-16
41
1
10
-1.99503997793928
20
18.2949373683469
30
-7E-16
41
1
10
-1.99503997793948
20
18.4193198181252
30
-6E-16
41
1
10
-1.99503997793928
20
18.5826226298873
30
-6E-16
41
1
10
-1.99503997793937
20
18.7418497326446
30
-6E-16
41
1
10
-1.99503997793946
20
18.8972761707097
30
3E-16
41
1
10
-1.99503997793931
20
19.0118150097952
30
3E-16
41
1
10
-1.99503997793928
20
19.1243510467918
30
3E-16
41
1
10
-1.9950399779394
20
19.2717625055689
30
3E-16
41
1
10
-1.99503997793934
20
19.414970513124
30
3E-16
41
1
10
-1.99503997793931
20
19.5542140249086
30
3E-16
41
1
10
-1.99503997793951
20
19.6565420567612
30
3E-16
41
1
10
-1.99503997793934
20
19.7567881415467
30
3E-16
41
1
10
-1.99503997793943
20
19.8549381550126
30
3E-16
41
1
10
-1.99503997793926
20
19.9509751416388
30
3E-16
41
1
10
-1.99503997793943
20
20.0448848362119
30
3E-16
41
1
10
-1.99503997793943
20
20.1366515718167
30
3E-16
41
1
10
-1.9950399779394
20
20.2262576202058
30
4E-16
41
1
10
-1.99503997793928
20
20.3136874196731
30
4E-16
41
1
10
-1.9950399779394
20
20.398923430088
30
4E-16
41
1
10
-1.9950399779394
20
20.4819464863243
30
-1E-16
41
1
10
-1.9950399779394
20
20.5627395868944
30
-1E-16
41
1
10
-1.99503997793928
20
20.6412830627252
30
-1E-16
41
1
10
-1.99503997793934
20
20.7430172190698
30
-1E-16
41
1
10
-1.99503997793946
20
20.8400664428987
30
-1E-16
41
1
10
-1.99503997793926
20
20.9325549572363
30
-1E-16
41
1
10
-1.99503997793926
20
20.9995415068112
30
0
41
1
10
-1.99503997793937
20
21.064149408511
30
0
41
1
10
-1.99503997793946
20
21.1263556466613
30
0
41
1
10
-1.99503997793928
20
21.1861355753667
30
0
41
1
10
-1.99503997793934
20
21.2626002183761
30
0
41
1
10
-1.99503997793937
20
21.3340243512754
30
0
41
1
10
-1.99503997793937
20
21.4004603045828
30
0
41
1
10
-1.99503997793951
20
21.4477036445724
30
0
41
1
10
-1.9950399779394
20
21.4923513092323
30
0
41
1
10
-1.99503997793926
20
21.5484022410127
30
0
41
1
10
-1.99503997793943
20
21.5990695510925
30
0
41
1
10
-1.99503997793937
20
21.6443396610233
30
0
41
1
10
-1.9950399779394
20
21.6755105092645
30
0
41
1
10
-1.99503997793937
20
21.7038764495608
30
0
41
1
10
-1.99503997793931
20
21.7293964429163
30
0
41
1
10
-1.9950399779394
20
21.7520292420694
30
0
41
1
10
-1.99503997793946
20
21.7717309018816
30
0
41
1
10
-1.99503997793934
20
21.7884557380592
30
0
41
1
10
-1.99503997793928
20
21.8021565310045
30
0
41
1
10
-1.99503997793926
20
21.8127830851058
30
0
41
1
10
-1.99503997793931
20
21.8202838734724
30
0
41
1
10
-1.99503997793934
20
21.8243519941585
30
0
41
1
10
-1.9950399779394
20
21.8251831619958
30
-2E-16
41
1
10
-1.9950399779394
20
21.8251860678329
30
-3E-16
0
SPLINE
5
142
100
AcDbEntity
8
SK1
62
256
6
ByLayer
370
18
48
1
60
0
100
AcDbSpline
70
4
71
3
72
13
73
9
40
0
40
0
40
0
40
0
40
0.239456135763749
40
0.368359721933654
40
0.499998984021085
40
0.631638415283701
40
0.760542467778103
40
1
40
1
40
1
40
1
41
1
10
-2.20000000000013
20
22.0200986606755
30
-4E-16
41
1
10
-2.19909198642284
20
21.9940411845602
30
-4E-16
41
1
10
-2.19103284106953
20
21.9566686002237
30
-4E-16
41
1
10
-2.16563592203349
20
21.9104494263858
30
-4E-16
41
1
10
-2.13886378679271
20
21.8791678725253
30
-4E-16
41
1
10
-2.1062771274988
20
21.8540005023229
30
-4E-16
41
1
10
-2.0588406423409
20
21.8309566998545
30
-4E-16
41
1
10
-2.02111030873039
20
21.8247844448325
30
-4E-16
41
1
10
-1.9950399779394
20
21.825186084775
30
-4E-16
0
SPLINE
5
143
100
AcDbEntity
8
SK1
62
256
6
ByLayer
370
18
48
1
60
0
100
AcDbSpline
70
4
71
3
72
13
73
9
40
0
40
0
40
0
40
0
40
0.239457532153152
40
0.36836158462331
40
0.500001015876251
40
0.631640277971267
40
0.760543864164306
40
1
40
1
40
1
40
1
41
1
10
-1.99503997793946
20
-21.8251861015555
30
4E-16
41
1
10
-2.02111030873183
20
-21.8247844616135
30
4E-16
41
1
10
-2.05884064234357
20
-21.8309567166393
30
4E-16
41
1
10
-2.1062771275009
20
-21.854000519123
30
4E-16
41
1
10
-2.13886378679467
20
-21.8791678893422
30
4E-16
41
1
10
-2.16563592203494
20
-21.9104494432231
30
4E-16
41
1
10
-2.19103284107058
20
-21.9566686170919
30
4E-16
41
1
10
-2.19909198642384
20
-21.9940412014509
30
4E-16
41
1
10
-2.19999999999996
20
-22.0200986775813
30
4E-16
0
SPLINE
5
144
100
AcDbEntity
8
SK1
62
256
6
ByLayer
370
18
48
1
60
0
100
AcDbSpline
70
4
71
3
72
26
73
22
40
0
40
0
40
0
40
0
40
0.125
40
0.125
40
0.25
40
0.25
40
0.3125
40
0.3125
40
0.375
40
0.375
40
0.5
40
0.5
40
0.625
40
0.625
40
0.6875
40
0.6875
40
0.75
40
0.75
40
0.875
40
0.875
40
1
40
1
40
1
40
1
41
1
10
-1.30710678118646
20
-4.81101329740278
30
-3E-16
41
1
10
-1.37461329628559
20
-4.42906267002709
30
-3E-16
41
1
10
-1.43842288357263
20
-4.04270825974376
30
-2E-16
41
1
10
-1.55482767545834
20
-3.25964078646061
30
-2E-16
41
1
10
-1.60743482920461
20
-2.86293463703896
30
-2E-16
41
1
10
-1.67407835953026
20
-2.25842147165599
30
-1E-16
41
1
10
-1.69423470862273
20
-2.0553344376402
30
-1E-16
41
1
10
-1.72965556309052
20
-1.64563836285305
30
-1E-16
41
1
10
-1.7448471032956
20
-1.43963199934157
30
-1E-16
41
1
10
-1.78162975563029
20
-0.822757523242984
30
-1E-16
41
1
10
-1.79445291889311
20
-0.411207816053604
30
0
41
1
10
-1.79442593338334
20
0.412525631248059
30
0
41
1
10
-1.78157312882851
20
0.824709416072295
30
1E-16
41
1
10
-1.7445898427946
20
1.44343920897947
30
1E-16
41
1
10
-1.72930597743905
20
1.65005948504421
30
1E-16
41
1
10
-1.69390777409214
20
2.05873054114895
30
1E-16
41
1
10
-1.6737721654803
20
2.26136839295086
30
1E-16
41
1
10
-1.60720273884687
20
2.86469699044167
30
2E-16
41
1
10
-1.55465955887382
20
3.26082920006925
30
2E-16
41
1
10
-1.43835988164514
20
4.04307426593763
30
2E-16
41
1
10
-1.3745923318163
20
4.42918087958256
30
3E-16
41
1
10
-1.30710678118672
20
4.81101321788435
30
3E-16
0
SPLINE
5
145
100
AcDbEntity
8
SK1
62
256
6
ByLayer
370
18
48
1
60
0
100
AcDbSpline
70
4
71
3
72
111
73
107
40
0
40
0
40
0
40
0
40
0.0023103668165505
40
0.0108509590757198
40
0.0193915513348891
40
0.0279321435940584
40
0.0364727358532277
40
0.0450133281123971
40
0.0535539203715664
40
0.0620945126307357
40
0.070635104889905
40
0.0791756971490743
40
0.0877162894082436
40
0.096256881667413
40
0.113338066185752
40
0.13041925070409
40
0.147500435222429
40
0.156041027481598
40
0.164581619740767
40
0.173122211999937
40
0.181662804259106
40
0.190203396518275
40
0.198743988777445
40
0.207284581036614
40
0.215825173295783
40
0.232906357814122
40
0.241446950073291
40
0.249987542332461
40
0.25852813459163
40
0.267068726850799
40
0.275609319109969
40
0.284149911369138
40
0.292690503628307
40
0.301231095887476
40
0.309771688146646
40
0.318312280405815
40
0.326852872664984
40
0.335393464924154
40
0.352474649442493
40
0.361015241701662
40
0.369555833960831
40
0.38663701847917
40
0.395177610738339
40
0.403718202997508
40
0.412258795256678
40
0.420799387515847
40
0.437880572034186
40
0.446421164293355
40
0.454961756552524
40
0.463502348811694
40
0.472042941070863
40
0.489124125589201
40
0.497664717848371
40
0.50620531010754
40
0.514745902366709
40
0.523286494625879
40
0.540367679144217
40
0.548908271403387
40
0.557448863662556
40
0.565989455921725
40
0.574530048180895
40
0.591611232699233
40
0.600151824958403
40
0.608692417217572
40
0.617233009476741
40
0.625773601735911
40
0.642854786254249
40
0.651395378513419
40
0.659935970772588
40
0.668476563031757
40
0.677017155290926
40
0.685557747550096
40
0.694098339809265
40
0.702638932068434
40
0.711179524327604
40
0.719720116586773
40
0.728260708845942
40
0.736801301105112
40
0.745341893364281
40
0.75388248562345
40
0.76242307788262
40
0.779504262400958
40
0.788044854660128
40
0.796585446919297
40
0.805126039178466
40
0.813666631437636
40
0.822207223696805
40
0.830747815955974
40
0.847829000474313
40
0.856369592733482
40
0.864910184992651
40
0.873450777251821
40
0.88199136951099
40
0.899072554029329
40
0.907613146288498
40
0.916153738547667
40
0.924694330806837
40
0.933234923066006
40
0.941775515325175
40
0.950316107584345
40
0.958856699843514
40
0.967397292102683
40
0.975937884361852
40
0.984478476621022
40
0.993019068880191
40
1
40
1
40
1
40
1
41
1
10
-0.394976888875334
20
6.32694279392976
30
4E-16
41
1
10
-0.394976888875334
20
6.34849163113912
30
4E-16
41
1
10
-0.394976888875334
20
6.44960775400912
30
4E-16
41
1
10
-0.394976888875277
20
6.62954555948872
30
4E-16
41
1
10
-0.394976888875391
20
6.86569504888012
30
4E-16
41
1
10
-0.394976888875391
20
7.10023740586416
30
4E-16
41
1
10
-0.394976888875334
20
7.33316546385944
30
4E-16
41
1
10
-0.394976888875306
20
7.56447269448583
30
5E-16
41
1
10
-0.394976888875334
20
7.79415340272947
30
5E-16
41
1
10
-0.394976888875476
20
8.02220293401995
30
5E-16
41
1
10
-0.394976888875476
20
8.24861635560847
30
5E-16
41
1
10
-0.394976888875362
20
8.47338951886388
30
5E-16
41
1
10
-0.394976888875448
20
8.69651811258552
30
5E-16
41
1
10
-0.394976888875504
20
8.99192948127944
30
6E-16
41
1
10
-0.394976888875448
20
9.35683912175989
30
6E-16
41
1
10
-0.394976888875504
20
9.78821091217483
30
6E-16
41
1
10
-0.394976888875419
20
10.142045462177
30
6E-16
41
1
10
-0.394976888875476
20
10.4219344727076
30
6E-16
41
1
10
-0.394976888875334
20
10.6301131683677
30
7E-16
41
1
10
-0.394976888875306
20
10.8366153667067
30
7E-16
41
1
10
-0.394976888875334
20
11.0414388905992
30
7E-16
41
1
10
-0.394976888875391
20
11.2445799004539
30
7E-16
41
1
10
-0.394976888875306
20
11.4460361162835
30
7E-16
41
1
10
-0.394976888875448
20
11.6458042976885
30
7E-16
41
1
10
-0.394976888875306
20
11.9099848253353
30
7E-16
41
1
10
-0.394976888875306
20
12.1705475695387
30
7E-16
41
1
10
-0.394976888875334
20
12.4279318067111
30
8E-16
41
1
10
-0.394976888875391
20
12.6192114874981
30
8E-16
41
1
10
-0.394976888875533
20
12.8087826250924
30
8E-16
41
1
10
-0.394976888875249
20
12.9966426041155
30
8E-16
41
1
10
-0.394976888875391
20
13.182787448996
30
8E-16
41
1
10
-0.394976888875391
20
13.3672125455488
30
8E-16
41
1
10
-0.394976888875306
20
13.5499151547098
30
8E-16
41
1
10
-0.394976888875448
20
13.7308904478326
30
8E-16
41
1
10
-0.394976888875362
20
13.9101338677051
30
9E-16
41
1
10
-0.394976888875334
20
14.0876421688896
30
9E-16
41
1
10
-0.394976888875448
20
14.2634098807097
30
9E-16
41
1
10
-0.394976888875391
20
14.4955025482494
30
9E-16
41
1
10
-0.394976888875391
20
14.7239127068147
30
-9E-16
41
1
10
-0.394976888875362
20
14.9489833053404
30
-9E-16
41
1
10
-0.394976888875306
20
15.1717014119151
30
-8E-16
41
1
10
-0.394976888875362
20
15.3907043201103
30
-8E-16
41
1
10
-0.394976888875504
20
15.6063159613101
30
-8E-16
41
1
10
-0.394976888875334
20
15.7661946363952
30
-8E-16
41
1
10
-0.394976888875533
20
15.9242799594928
30
-8E-16
41
1
10
-0.394976888875306
20
16.1327154012235
30
-8E-16
41
1
10
-0.394976888875334
20
16.3373780173449
30
-8E-16
41
1
10
-0.394976888875391
20
16.5385587125243
30
-8E-16
41
1
10
-0.394976888875362
20
16.6875782011067
30
-8E-16
41
1
10
-0.394976888875334
20
16.8347642769002
30
-7E-16
41
1
10
-0.394976888875391
20
17.0286080073569
30
-7E-16
41
1
10
-0.394976888875561
20
17.2186059445175
30
-7E-16
41
1
10
-0.394976888875277
20
17.4050188999402
30
-7E-16
41
1
10
-0.394976888875391
20
17.5429190217057
30
-7E-16
41
1
10
-0.394976888875306
20
17.6789377757624
30
-7E-16
41
1
10
-0.394976888875391
20
17.8578220601067
30
-7E-16
41
1
10
-0.394976888875391
20
18.0327708145484
30
-7E-16
41
1
10
-0.394976888875391
20
18.2040166330948
30
-7E-16
41
1
10
-0.394976888875448
20
18.3304892054167
30
-7E-16
41
1
10
-0.394976888875277
20
18.4550234389154
30
-6E-16
41
1
10
-0.394976888875419
20
18.6185132745736
30
-6E-16
41
1
10
-0.394976888875362
20
18.7779598884918
30
-6E-16
41
1
10
-0.394976888875391
20
18.9335651313569
30
3E-16
41
1
10
-0.394976888875533
20
19.048244884465
30
3E-16
41
1
10
-0.394976888875476
20
19.1609196079757
30
3E-16
41
1
10
-0.394976888875277
20
19.3085018143332
30
3E-16
41
1
10
-0.394976888875362
20
19.4519098709687
30
3E-16
41
1
10
-0.394976888875306
20
19.5913159811741
30
3E-16
41
1
10
-0.394976888875419
20
19.6937719762305
30
3E-16
41
1
10
-0.394976888875334
20
19.7941438028822
30
3E-16
41
1
10
-0.394976888875306
20
19.8924174211232
30
3E-16
41
1
10
-0.394976888875306
20
19.9885758615911
30
3E-16
41
1
10
-0.394976888875334
20
20.0826047781419
30
3E-16
41
1
10
-0.394976888875334
20
20.1744885559188
30
3E-16
41
1
10
-0.394976888875419
20
20.264209431984
30
4E-16
41
1
10
-0.394976888875362
20
20.3517517880636
30
4E-16
41
1
10
-0.394976888875419
20
20.437098129367
30
4E-16
41
1
10
-0.394976888875362
20
20.5202292348053
30
-1E-16
41
1
10
-0.394976888875362
20
20.6011280559991
30
-1E-16
41
1
10
-0.394976888875306
20
20.6797749513882
30
-1E-16
41
1
10
-0.394976888875448
20
20.781635486227
30
-1E-16
41
1
10
-0.394976888875391
20
20.8788308931333
30
-1E-16
41
1
10
-0.394976888875306
20
20.9714365096391
30
0
41
1
10
-0.394976888875533
20
21.0385142950144
30
0
41
1
10
-0.394976888875306
20
21.1032108820958
30
0
41
1
10
-0.394976888875419
20
21.1655031751742
30
0
41
1
10
-0.394976888875362
20
21.2253665102307
30
0
41
1
10
-0.394976888875419
20
21.301932078811
30
0
41
1
10
-0.394976888875362
20
21.3734709318986
30
0
41
1
10
-0.394976888875306
20
21.4399968999807
30
0
41
1
10
-0.394976888875362
20
21.487309309675
30
0
41
1
10
-0.394976888875391
20
21.5320229383891
30
0
41
1
10
-0.394976888875504
20
21.588152400593
30
0
41
1
10
-0.394976888875391
20
21.6389063892513
30
0
41
1
10
-0.394976888875362
20
21.6842420425294
30
0
41
1
10
-0.394976888875419
20
21.7154617242468
30
0
41
1
10
-0.394976888875362
20
21.7438726893518
30
0
41
1
10
-0.394976888875419
20
21.7694337460977
30
0
41
1
10
-0.394976888875504
20
21.792103478096
30
0
41
1
10
-0.394976888875277
20
21.8118377637546
30
0
41
1
10
-0.394976888875391
20
21.8285907189997
30
0
41
1
10
-0.394976888875362
20
21.8423149132634
30
0
41
1
10
-0.394976888875334
20
21.8529599173647
30
0
41
1
10
-0.394976888875362
20
21.8604739519412
30
0
41
1
10
-0.394976888875249
20
21.8645384044946
30
0
41
1
10
-0.394976888875306
20
21.8653750896251
30
-2E-16
41
1
10
-0.394976888875334
20
21.8653847939013
30
-3E-16
0
SPLINE
5
146
100
AcDbEntity
8
SK1
62
256
6
ByLayer
370
18
48
1
60
0
100
AcDbSpline
70
4
71
2
72
6
73
3
40
0
40
0
40
0
40
1
40
1
40
1
41
1
10
-1.99503997793943
20
21.8251812553753
30
-4E-16
41
1
10
-1.19500843340737
20
21.8452807024747
30
-4E-16
41
1
10
-0.394976888875306
20
21.8653801495793
30
-4E-16
0
SPLINE
5
147
100
AcDbEntity
8
SK1
62
256
6
ByLayer
370
18
48
1
60
0
100
AcDbSpline
70
4
71
2
72
6
73
3
40
0
40
0
40
0
40
1
40
1
40
1
41
1
10
-0.394976888875249
20
-21.8653802062991
30
4E-16
41
1
10
-1.19500843340734
20
-21.8452807593862
30
4E-16
41
1
10
-1.99503997793946
20
-21.825181312478
30
4E-16
0
SPLINE
5
148
100
AcDbEntity
8
SK1
62
256
6
ByLayer
370
18
48
1
60
0
100
AcDbSpline
70
4
71
3
72
297
73
293
40
0
40
0
40
0
40
0
40
0.0015364542400602
40
0.0050969078254035
40
0.0086573614107467
40
0.0122178149960899
40
0.0157782685814332
40
0.0193387221667764
40
0.0228991757521196
40
0.0300200829228061
40
0.0371409900934926
40
0.0442618972641791
40
0.0478223508495224
40
0.0513828044348656
40
0.0549432580202088
40
0.0585037116055521
40
0.0656246187762385
40
0.0691850723615818
40
0.072745525946925
40
0.0763059795322683
40
0.0798664331176115
40
0.0834268867029548
40
0.0869873402882981
40
0.0941082474589845
40
0.0976687010443278
40
0.101229154629671
40
0.104789608215014
40
0.108350061800358
40
0.111910515385701
40
0.115470968971044
40
0.119031422556387
40
0.12259187614173
40
0.126152329727074
40
0.129712783312417
40
0.13327323689776
40
0.136833690483103
40
0.140394144068447
40
0.14395459765379
40
0.151075504824476
40
0.15463595840982
40
0.158196411995163
40
0.159976638787834
40
0.161756865580506
40
0.165317319165849
40
0.172438226336536
40
0.175998679921879
40
0.179559133507222
40
0.183119587092566
40
0.186680040677909
40
0.193800947848595
40
0.197361401433938
40
0.200921855019282
40
0.202702081811954
40
0.204482308604625
40
0.208042762189968
40
0.215163669360655
40
0.218724122945998
40
0.222284576531341
40
0.225845030116685
40
0.229405483702028
40
0.236526390872714
40
0.240086844458058
40
0.243647298043401
40
0.245427524836072
40
0.247207751628744
40
0.250768205214087
40
0.254328658799431
40
0.257889112384774
40
0.259669339177445
40
0.261449565970117
40
0.26501001955546
40
0.268570473140804
40
0.272130926726147
40
0.27569138031149
40
0.279251833896833
40
0.282812287482176
40
0.28637274106752
40
0.289933194652863
40
0.293493648238206
40
0.297054101823549
40
0.300614555408893
40
0.304175008994236
40
0.307735462579579
40
0.311295916164922
40
0.314856369750266
40
0.321977276920952
40
0.325537730506295
40
0.329098184091638
40
0.332658637676982
40
0.336219091262325
40
0.339779544847668
40
0.343339998433012
40
0.346900452018355
40
0.350460905603698
40
0.357581812774384
40
0.364702719945071
40
0.371823627115757
40
0.375384080701101
40
0.378944534286444
40
0.382504987871787
40
0.386065441457131
40
0.389625895042474
40
0.393186348627817
40
0.39674680221316
40
0.400307255798503
40
0.403867709383847
40
0.40742816296919
40
0.410988616554533
40
0.414549070139876
40
0.41810952372522
40
0.421669977310563
40
0.425230430895906
40
0.428790884481249
40
0.432351338066592
40
0.434131564859264
40
0.435911791651936
40
0.437692018444607
40
0.439472245237279
40
0.443032698822622
40
0.446593152407965
40
0.448373379200637
40
0.450153605993309
40
0.45193383278598
40
0.453714059578652
40
0.457274513163995
40
0.459054739956667
40
0.460834966749338
40
0.46261519354201
40
0.464395420334682
40
0.466175647127353
40
0.467955873920025
40
0.469736100712697
40
0.471516327505368
40
0.47329655429804
40
0.475076781090711
40
0.476857007883383
40
0.478637234676055
40
0.480417461468726
40
0.482197688261398
40
0.48397791505407
40
0.485758141846741
40
0.487538368639413
40
0.489318595432084
40
0.491098822224756
40
0.492879049017428
40
0.494659275810099
40
0.496439502602771
40
0.498219729395443
40
0.499999956188114
40
0.501780182980786
40
0.503560409773458
40
0.505340636566129
40
0.507120863358801
40
0.508901090151472
40
0.510681316944144
40
0.512461543736816
40
0.514241770529487
40
0.516021997322159
40
0.51780222411483
40
0.519582450907502
40
0.521362677700174
40
0.523142904492845
40
0.524923131285517
40
0.526703358078189
40
0.52848358487086
40
0.530263811663532
40
0.532044038456204
40
0.533824265248875
40
0.535604492041547
40
0.537384718834218
40
0.53916494562689
40
0.540945172419562
40
0.542725399212233
40
0.546285852797576
40
0.548066079590248
40
0.549846306382919
40
0.551626533175591
40
0.553406759968263
40
0.556967213553606
40
0.560527667138949
40
0.562307893931621
40
0.564088120724292
40
0.565868347516964
40
0.567648574309636
40
0.571209027894979
40
0.574769481480322
40
0.578329935065666
40
0.581890388651009
40
0.585450842236352
40
0.589011295821695
40
0.592571749407038
40
0.596132202992382
40
0.599692656577725
40
0.603253110163068
40
0.606813563748412
40
0.610374017333755
40
0.613934470919098
40
0.617494924504441
40
0.621055378089784
40
0.624615831675128
40
0.628176285260471
40
0.635297192431157
40
0.642418099601844
40
0.64953900677253
40
0.653099460357873
40
0.656659913943217
40
0.66022036752856
40
0.663780821113903
40
0.667341274699247
40
0.67090172828459
40
0.674462181869933
40
0.678022635455276
40
0.685143542625963
40
0.688703996211306
40
0.692264449796649
40
0.695824903381992
40
0.699385356967336
40
0.702945810552679
40
0.706506264138022
40
0.710066717723365
40
0.713627171308709
40
0.717187624894052
40
0.720748078479395
40
0.724308532064738
40
0.727868985650082
40
0.734989892820768
40
0.738550346406112
40
0.742110799991455
40
0.749231707162141
40
0.752792160747484
40
0.756352614332828
40
0.759913067918171
40
0.763473521503514
40
0.770594428674201
40
0.774154882259544
40
0.777715335844887
40
0.78127578943023
40
0.784836243015573
40
0.79195715018626
40
0.795517603771603
40
0.799078057356946
40
0.80263851094229
40
0.806198964527633
40
0.813319871698319
40
0.816880325283663
40
0.820440778869006
40
0.824001232454349
40
0.827561686039692
40
0.834682593210379
40
0.838243046795722
40
0.841803500381065
40
0.845363953966409
40
0.848924407551752
40
0.856045314722438
40
0.859605768307782
40
0.863166221893125
40
0.866726675478468
40
0.870287129063811
40
0.873847582649155
40
0.877408036234498
40
0.880968489819841
40
0.884528943405184
40
0.888089396990528
40
0.891649850575871
40
0.895210304161214
40
0.898770757746558
40
0.902331211331901
40
0.905891664917244
40
0.91301257208793
40
0.916573025673273
40
0.920133479258617
40
0.92369393284396
40
0.927254386429303
40
0.930814840014647
40
0.93437529359999
40
0.941496200770676
40
0.945056654356019
40
0.948617107941363
40
0.952177561526706
40
0.955738015112049
40
0.962858922282736
40
0.966419375868079
40
0.969979829453422
40
0.973540283038766
40
0.977100736624109
40
0.980661190209452
40
0.984221643794795
40
0.987782097380139
40
0.991342550965482
40
0.994903004550825
40
0.998463458136168
40
1
40
1
40
1
40
1
41
1
10
-37.9999999999999
20
-20.2893878213941
30
1E-16
41
1
10
-37.9999999999999
20
-20.2887803310035
30
1E-16
41
1
10
-38
20
-20.2864571630953
30
1E-16
41
1
10
-38.0000000000001
20
-20.2807871950942
30
1E-16
41
1
10
-38.0000000000002
20
-20.2708642252781
30
1E-16
41
1
10
-38.0000000000002
20
-20.258055757539
30
1E-16
41
1
10
-38.0000000000002
20
-20.2424031034126
30
1E-16
41
1
10
-38.0000000000001
20
-20.2239454925533
30
1E-16
41
1
10
-37.9999999999998
20
-20.19551262204
30
1E-16
41
1
10
-38.0000000000001
20
-20.153458157969
30
1E-16
41
1
10
-38.0000000000002
20
-20.0921783324268
30
1E-16
41
1
10
-38.0000000000001
20
-20.0326760120609
30
0
41
1
10
-38.0000000000002
20
-19.9796195423854
30
0
41
1
10
-37.9999999999999
20
-19.9374871337362
30
0
41
1
10
-38.0000000000001
20
-19.8928775037255
30
0
41
1
10
-38
20
-19.8298739849263
30
0
41
1
10
-37.9999999999999
20
-19.7628242930463
30
0
41
1
10
-38.0000000000001
20
-19.6902080345968
30
-1E-16
41
1
10
-38.0000000000003
20
-19.6336084813317
30
-1E-16
41
1
10
-38
20
-19.5746836513966
30
-1E-16
41
1
10
-38.0000000000001
20
-19.5134574775014
30
-1E-16
41
1
10
-38.0000000000001
20
-19.4499498796239
30
-1E-16
41
1
10
-38
20
-19.361926580552
30
1E-16
41
1
10
-38.0000000000003
20
-19.2704514952517
30
2E-16
41
1
10
-38.0000000000001
20
-19.1735363516593
30
2E-16
41
1
10
-38.0000000000001
20
-19.0989364266239
30
2E-16
41
1
10
-37.9999999999999
20
-19.0221745884206
30
2E-16
41
1
10
-37.9999999999999
20
-18.9432715601189
30
2E-16
41
1
10
-38
20
-18.8622425921487
30
2E-16
41
1
10
-38.0000000000001
20
-18.7791047356356
30
-3E-16
41
1
10
-38.0000000000002
20
-18.6938772447033
30
-3E-16
41
1
10
-38.0000000000001
20
-18.6065734364562
30
-3E-16
41
1
10
-37.9999999999999
20
-18.5172096781028
30
-2E-16
41
1
10
-38.0000000000002
20
-18.4258037757916
30
-2E-16
41
1
10
-37.9999999999999
20
-18.3323676597213
30
-2E-16
41
1
10
-38.0000000000001
20
-18.236917040573
30
-2E-16
41
1
10
-38
20
-18.1394682315478
30
-2E-16
41
1
10
-38
20
-18.006423045464
30
-2E-16
41
1
10
-38.0000000000002
20
-17.8708421547932
30
-2E-16
41
1
10
-38.0000000000001
20
-17.7299440627733
30
-2E-16
41
1
10
-38
20
-17.6408187485726
30
-2E-16
41
1
10
-38
20
-17.5681131617785
30
-2E-16
41
1
10
-37.9999999999999
20
-17.4947669133712
30
-2E-16
41
1
10
-38.0000000000001
20
-17.3649201654158
30
-2E-16
41
1
10
-38.0000000000001
20
-17.214063276801
30
-2E-16
41
1
10
-37.9999999999999
20
-17.0578935907134
30
7E-16
41
1
10
-38.0000000000002
20
-16.939299229306
30
7E-16
41
1
10
-38.0000000000003
20
-16.8188549914819
30
7E-16
41
1
10
-38.0000000000001
20
-16.6552510003021
30
8E-16
41
1
10
-37.9999999999999
20
-16.489672496603
30
8E-16
41
1
10
-38.0000000000002
20
-16.3187666825073
30
8E-16
41
1
10
-38.0000000000002
20
-16.211103177294
30
8E-16
41
1
10
-37.9999999999999
20
-16.1235473577607
30
8E-16
41
1
10
-38
20
-16.0353949417432
30
8E-16
41
1
10
-37.9999999999999
20
-15.8797855584285
30
8E-16
41
1
10
-38.0000000000001
20
-15.6999813794667
30
8E-16
41
1
10
-37.9999999999999
20
-15.5148116907138
30
8E-16
41
1
10
-37.9999999999999
20
-15.3746600384839
30
8E-16
41
1
10
-38.0000000000002
20
-15.2327750536328
30
8E-16
41
1
10
-38.0000000000001
20
-15.0406360987563
30
9E-16
41
1
10
-38.0000000000001
20
-14.8470518249569
30
9E-16
41
1
10
-38.0000000000003
20
-14.6480433816338
30
9E-16
41
1
10
-38.0000000000001
20
-14.5230237603811
30
9E-16
41
1
10
-38.0000000000002
20
-14.4215395322792
30
-9E-16
41
1
10
-38.0000000000002
20
-14.3194944461192
30
-9E-16
41
1
10
-38.0000000000003
20
-14.1916826014271
30
-9E-16
41
1
10
-37.9999999999999
20
-14.0362107113461
30
-9E-16
41
1
10
-37.9999999999999
20
-13.9056336328639
30
-9E-16
41
1
10
-38.0000000000002
20
-13.7996824703934
30
-8E-16
41
1
10
-38.0000000000002
20
-13.6931799140641
30
-8E-16
41
1
10
-38.0000000000003
20
-13.5598675642287
30
-8E-16
41
1
10
-38.0000000000001
20
-13.3977994204325
30
-8E-16
41
1
10
-38.0000000000002
20
-13.2340971553999
30
-8E-16
41
1
10
-38.0000000000003
20
-13.0687736820567
30
-8E-16
41
1
10
-38.0000000000002
20
-12.9018380893652
30
-8E-16
41
1
10
-38.0000000000001
20
-12.733292295151
30
-8E-16
41
1
10
-38.0000000000003
20
-12.5631480531084
30
-8E-16
41
1
10
-38.0000000000001
20
-12.3914123687225
30
-8E-16
41
1
10
-38.0000000000003
20
-12.2180896154106
30
-7E-16
41
1
10
-38.0000000000001
20
-12.0431930727568
30
-7E-16
41
1
10
-38.0000000000001
20
-11.8667275879997
30
-7E-16
41
1
10
-38.0000000000001
20
-11.6886992220563
30
-7E-16
41
1
10
-38.0000000000001
20
-11.5091211559413
30
-7E-16
41
1
10
-38.0000000000001
20
-11.3279971676986
30
-7E-16
41
1
10
-38
20
-11.0835274575533
30
-7E-16
41
1
10
-38.0000000000003
20
-10.8388445996824
30
-7E-16
41
1
10
-37.9999999999999
20
-10.5882272221231
30
-6E-16
41
1
10
-37.9999999999999
20
-10.3995106478125
30
-6E-16
41
1
10
-38.0000000000002
20
-10.2093006505112
30
-6E-16
41
1
10
-38.0000000000001
20
-10.0176111741013
30
-6E-16
41
1
10
-38
20
-9.82444825814403
30
-6E-16
41
1
10
-38.0000000000001
20
-9.6298243336378
30
-6E-16
41
1
10
-38.0000000000001
20
-9.43375032895258
30
-6E-16
41
1
10
-38
20
-9.16930024978847
30
-6E-16
41
1
10
-38
20
-8.83774034996787
30
-5E-16
41
1
10
-38
20
-8.4328301606757
30
-5E-16
41
1
10
-38.0000000000002
20
-8.09202302704506
30
-5E-16
41
1
10
-38.0000000000002
20
-7.81440668711991
30
-5E-16
41
1
10
-38.0000000000003
20
-7.60585888080697
30
-5E-16
41
1
10
-38.0000000000002
20
-7.39600299493062
30
-5E-16
41
1
10
-38.0000000000001
20
-7.18486050853948
30
-4E-16
41
1
10
-38
20
-6.97245482074291
30
-4E-16
41
1
10
-38.0000000000003
20
-6.75880464755289
30
-4E-16
41
1
10
-38.0000000000001
20
-6.54393387937554
30
-4E-16
41
1
10
-38.0000000000001
20
-6.32787102064523
30
-4E-16
41
1
10
-38.0000000000001
20
-6.11064460524278
30
-4E-16
41
1
10
-38.0000000000001
20
-5.89228682406826
30
-4E-16
41
1
10
-38.0000000000001
20
-5.67283049766698
30
-3E-16
41
1
10
-38.0000000000002
20
-5.45231041402215
30
-3E-16
41
1
10
-37.9999999999999
20
-5.23076611988361
30
-3E-16
41
1
10
-37.9999999999999
20
-5.00824236668086
30
-3E-16
41
1
10
-38.0000000000003
20
-4.78478453894922
30
-3E-16
41
1
10
-38.0000000000001
20
-4.56044477194354
30
-3E-16
41
1
10
-37.9999999999999
20
-4.37375931423287
30
-3E-16
41
1
10
-38.0000000000002
20
-4.22222174308936
30
-3E-16
41
1
10
-38.0000000000003
20
-4.10916467830552
30
-3E-16
41
1
10
-38.0000000000002
20
-3.99593123757293
30
-2E-16
41
1
10
-38.0000000000002
20
-3.84368490764802
30
-2E-16
41
1
10
-38
20
-3.65544484289475
30
-2E-16
41
1
10
-38.0000000000003
20
-3.46668355973645
30
-2E-16
41
1
10
-38.0000000000003
20
-3.3133652065151
30
-2E-16
41
1
10
-38.0000000000003
20
-3.19916977025292
30
-2E-16
41
1
10
-38.0000000000001
20
-3.08487718492046
30
-2E-16
41
1
10
-38.0000000000001
20
-2.93116533478533
30
-2E-16
41
1
10
-38.0000000000001
20
-2.78106304592123
30
-2E-16
41
1
10
-38.0000000000001
20
-2.62697343511888
30
-2E-16
41
1
10
-37.9999999999999
20
-2.5123768749342
30
-2E-16
41
1
10
-38.0000000000003
20
-2.39774974487261
30
-1E-16
41
1
10
-38.0000000000002
20
-2.28311555219412
30
-1E-16
41
1
10
-38
20
-2.16847618976462
30
-1E-16
41
1
10
-38.0000000000003
20
-2.05384840107459
30
-1E-16
41
1
10
-38.0000000000003
20
-1.93924458170417
30
-1E-16
41
1
10
-38.0000000000003
20
-1.82466899171237
30
-1E-16
41
1
10
-38.0000000000002
20
-1.71014121398454
30
-1E-16
41
1
10
-38.0000000000002
20
-1.5956600989889
30
-1E-16
41
1
10
-38
20
-1.481243098856
30
-1E-16
41
1
10
-38.0000000000001
20
-1.36688883878048
30
-1E-16
41
1
10
-38.0000000000003
20
-1.25260906632707
30
-1E-16
41
1
10
-38.0000000000001
20
-1.13840321986399
30
-1E-16
41
1
10
-38.0000000000001
20
-1.02427614220741
30
-1E-16
41
1
10
-38.0000000000003
20
-0.910225811804025
30
-1E-16
41
1
10
-37.9999999999999
20
-0.79625180090386
30
0
41
1
10
-38.0000000000001
20
-0.682349388495595
30
0
41
1
10
-38.0000000000003
20
-0.568513483413539
30
0
41
1
10
-38
20
-0.454735475948894
30
0
41
1
10
-38
20
-0.341006791030054
30
0
41
1
10
-38.0000000000001
20
-0.227315919379578
30
0
41
1
10
-38.0000000000002
20
-0.113651444289218
30
0
41
1
10
-38.0000000000002
20
-2.39307667E-08
30
0
41
1
10
-37.9999999999999
20
0.113651428861203
30
0
41
1
10
-38.0000000000004
20
0.227315965161722
30
0
41
1
10
-38.0000000000003
20
0.341006831114669
30
0
41
1
10
-38.0000000000003
20
0.454735424962592
30
0
41
1
10
-37.9999999999999
20
0.568513412391581
30
0
41
1
10
-38.0000000000004
20
0.682349437336938
30
0
41
1
10
-38.0000000000001
20
0.796251898049263
30
0
41
1
10
-38.0000000000001
20
0.910225765592201
30
1E-16
41
1
10
-38.0000000000002
20
1.0242760141702
30
1E-16
41
1
10
-37.9999999999999
20
1.13840324907645
30
1E-16
41
1
10
-38.0000000000001
20
1.25260921865751
30
1E-16
41
1
10
-38
20
1.36688883944325
30
1E-16
41
1
10
-38.0000000000002
20
1.48124293103632
30
1E-16
41
1
10
-38
20
1.59566004663395
30
1E-16
41
1
10
-38.0000000000002
20
1.71014137238996
30
1E-16
41
1
10
-38.0000000000001
20
1.82466911261434
30
1E-16
41
1
10
-38.0000000000001
20
1.93924446866478
30
1E-16
41
1
10
-38
20
2.05384821372695
30
1E-16
41
1
10
-38.0000000000003
20
2.16847621903275
30
1E-16
41
1
10
-38.0000000000003
20
2.28311576323415
30
1E-16
41
1
10
-37.9999999999999
20
2.39774983280117
30
1E-16
41
1
10
-38
20
2.5123767231631
30
2E-16
41
1
10
-37.9999999999999
20
2.62697323991813
30
2E-16
41
1
10
-38.0000000000001
20
2.78106315146925
30
2E-16
41
1
10
-38.0000000000003
20
2.93116552693377
30
2E-16
41
1
10
-38.0000000000003
20
3.08487708212567
30
2E-16
41
1
10
-38.0000000000001
20
3.19916954549006
30
2E-16
41
1
10
-38.0000000000004
20
3.31336512600538
30
2E-16
41
1
10
-38.0000000000003
20
3.46668375918668
30
2E-16
41
1
10
-38.0000000000002
20
3.65544489425082
30
2E-16
41
1
10
-38.0000000000004
20
3.84368470208358
30
2E-16
41
1
10
-38.0000000000002
20
3.99593117493793
30
2E-16
41
1
10
-38
20
4.10916481607398
30
3E-16
41
1
10
-38
20
4.2222219686794
30
3E-16
41
1
10
-38.0000000000002
20
4.37375933349008
30
3E-16
41
1
10
-38.0000000000002
20
4.56044458630848
30
3E-16
41
1
10
-38.0000000000001
20
4.78478457648487
30
3E-16
41
1
10
-38.0000000000003
20
5.0082425381608
30
3E-16
41
1
10
-38.0000000000001
20
5.23076600439049
30
3E-16
41
1
10
-38.0000000000003
20
5.45231022599034
30
3E-16
41
1
10
-38.0000000000003
20
5.67283041504646
30
3E-16
41
1
10
-38.0000000000001
20
5.89228674128216
30
4E-16
41
1
10
-38.0000000000001
20
6.11064496108525
30
4E-16
41
1
10
-37.9999999999999
20
6.32787239667018
30
4E-16
41
1
10
-37.9999999999999
20
6.54393525610658
30
4E-16
41
1
10
-38.0000000000002
20
6.75880334040116
30
4E-16
41
1
10
-38
20
6.97245311766218
30
4E-16
41
1
10
-37.9999999999999
20
7.18486111103382
30
4E-16
41
1
10
-38.0000000000003
20
7.3960034756173
30
5E-16
41
1
10
-38.0000000000001
20
7.60585874971366
30
5E-16
41
1
10
-38.0000000000002
20
7.81440645201104
30
5E-16
41
1
10
-38.0000000000001
20
8.09202295752314
30
5E-16
41
1
10
-38
20
8.43283023540655
30
5E-16
41
1
10
-38.0000000000001
20
8.83774029355055
30
5E-16
41
1
10
-38
20
9.16930023887332
30
6E-16
41
1
10
-38.0000000000001
20
9.43375044009522
30
6E-16
41
1
10
-38
20
9.62982432960206
30
6E-16
41
1
10
-38.0000000000001
20
9.82444814962991
30
6E-16
41
1
10
-38.0000000000002
20
10.0176111126088
30
6E-16
41
1
10
-38
20
10.2093007057546
30
6E-16
41
1
10
-38
20
10.3995107409487
30
6E-16
41
1
10
-38.0000000000002
20
10.5882272324293
30
6E-16
41
1
10
-37.9999999999999
20
10.8388445170813
30
7E-16
41
1
10
-38
20
11.0835274377931
30
7E-16
41
1
10
-38.0000000000003
20
11.3279972500448
30
7E-16
41
1
10
-38.0000000000001
20
11.5091211965041
30
7E-16
41
1
10
-38.0000000000001
20
11.6886991809047
30
7E-16
41
1
10
-38.0000000000002
20
11.8667275177686
30
7E-16
41
1
10
-38.0000000000001
20
12.0431930522803
30
7E-16
41
1
10
-38.0000000000002
20
12.2180896645831
30
7E-16
41
1
10
-38
20
12.3914124247035
30
8E-16
41
1
10
-38.0000000000003
20
12.5631480735018
30
8E-16
41
1
10
-38.0000000000004
20
12.7332924196475
30
8E-16
41
1
10
-38.0000000000003
20
12.9018387248248
30
8E-16
41
1
10
-38
20
13.068774902876
30
8E-16
41
1
10
-38.0000000000003
20
13.2899980003418
30
8E-16
41
1
10
-38.0000000000003
20
13.5056406071552
30
8E-16
41
1
10
-38.0000000000002
20
13.7202970548284
30
8E-16
41
1
10
-38.0000000000002
20
13.9327572918621
30
9E-16
41
1
10
-37.9999999999999
20
14.1397069500696
30
9E-16
41
1
10
-38.0000000000001
20
14.3454836148157
30
9E-16
41
1
10
-38.0000000000001
20
14.4976048095278
30
9E-16
41
1
10
-37.9999999999999
20
14.6480433741444
30
-9E-16
41
1
10
-37.9999999999999
20
14.8470538575165
30
-9E-16
41
1
10
-38
20
15.0406366439894
30
-9E-16
41
1
10
-38.0000000000001
20
15.2327734637881
30
-8E-16
41
1
10
-38.0000000000003
20
15.3746583733235
30
-8E-16
41
1
10
-38.0000000000001
20
15.5148115582755
30
-8E-16
41
1
10
-38.0000000000003
20
15.6999837411245
30
-8E-16
41
1
10
-37.9999999999999
20
15.8797870255404
30
-8E-16
41
1
10
-38.0000000000001
20
16.0578801048402
30
-8E-16
41
1
10
-38.0000000000002
20
16.1892165814338
30
-8E-16
41
1
10
-38.0000000000001
20
16.3187661779867
30
-8E-16
41
1
10
-38.0000000000001
20
16.4896741385664
30
-8E-16
41
1
10
-38.0000000000001
20
16.6552512602625
30
-8E-16
41
1
10
-38
20
16.818854580765
30
-7E-16
41
1
10
-38.0000000000001
20
16.9392987318017
30
-7E-16
41
1
10
-38.0000000000001
20
17.0578934672826
30
-7E-16
41
1
10
-37.9999999999999
20
17.2140648101706
30
2E-16
41
1
10
-38
20
17.3649216616153
30
2E-16
41
1
10
-38
20
17.5135300358221
30
2E-16
41
1
10
-38.0000000000001
20
17.6226956365842
30
2E-16
41
1
10
-38.0000000000001
20
17.7299433731025
30
2E-16
41
1
10
-38.0000000000003
20
17.8708440004862
30
2E-16
41
1
10
-38
20
18.0064238716365
30
2E-16
41
1
10
-38
20
18.1394672902699
30
2E-16
41
1
10
-38
20
18.236915915677
30
2E-16
41
1
10
-38.0000000000001
20
18.3323672965474
30
2E-16
41
1
10
-38.0000000000001
20
18.4258040962283
30
2E-16
41
1
10
-38
20
18.5172098870021
30
2E-16
41
1
10
-38
20
18.6065734896479
30
3E-16
41
1
10
-38
20
18.6938772522128
30
3E-16
41
1
10
-38
20
18.7791047692188
30
3E-16
41
1
10
-38.0000000000001
20
18.8622426359768
30
-2E-16
41
1
10
-38.0000000000001
20
18.9432715834756
30
-2E-16
41
1
10
-38.0000000000001
20
19.0221745805325
30
-2E-16
41
1
10
-38.0000000000002
20
19.0989364136873
30
-2E-16
41
1
10
-38
20
19.1735363647815
30
-2E-16
41
1
10
-38
20
19.2704515417462
30
-2E-16
41
1
10
-38.0000000000003
20
19.3619266112171
30
-1E-16
41
1
10
-37.9999999999999
20
19.4499498647732
30
1E-16
41
1
10
-38.0000000000001
20
19.5134574724377
30
1E-16
41
1
10
-38.0000000000003
20
19.5746836830747
30
1E-16
41
1
10
-38
20
19.6336085328262
30
1E-16
41
1
10
-38.0000000000004
20
19.6902080668945
30
1E-16
41
1
10
-38.0000000000002
20
19.7628242842049
30
0
41
1
10
-37.9999999999999
20
19.829873984374
30
0
41
1
10
-38
20
19.8928775551027
30
0
41
1
10
-38.0000000000001
20
19.9374871757692
30
0
41
1
10
-38.0000000000003
20
19.9796195436672
30
0
41
1
10
-37.9999999999999
20
20.0326760063814
30
0
41
1
10
-38.0000000000003
20
20.0800381474624
30
-1E-16
41
1
10
-38
20
20.1228090027496
30
-1E-16
41
1
10
-38.0000000000001
20
20.1521177658613
30
-1E-16
41
1
10
-38
20
20.1787668505584
30
-1E-16
41
1
10
-38.0000000000001
20
20.2027210424567
30
-1E-16
41
1
10
-38.0000000000003
20
20.2239455432985
30
-1E-16
41
1
10
-38.0000000000002
20
20.2424031363825
30
-1E-16
41
1
10
-38.0000000000001
20
20.2580557552654
30
-1E-16
41
1
10
-38.0000000000002
20
20.2708642249462
30
-1E-16
41
1
10
-38
20
20.2807872561095
30
-1E-16
41
1
10
-38.0000000000001
20
20.2864574001641
30
-1E-16
41
1
10
-38.0000000000001
20
20.2887806527485
30
-1E-16
41
1
10
-38.0000000000001
20
20.289388178114
30
-1E-16
0
SPLINE
5
149
100
AcDbEntity
8
SK1
62
256
6
ByLayer
370
18
48
1
60
0
100
AcDbSpline
70
4
71
2
72
6
73
3
40
0
40
0
40
0
40
1
40
1
40
1
41
1
10
-38.0000000000001
20
20.289405225553
30
-1E-16
41
1
10
-37.2500000000014
20
20.7223540793632
30
-1E-16
41
1
10
-36.5000000000002
20
21.1553029418637
30
0
0
SPLINE
5
14A
100
AcDbEntity
8
SK1
62
256
6
ByLayer
370
18
48
1
60
0
100
AcDbSpline
70
4
71
2
72
6
73
3
40
0
40
0
40
0
40
1
40
1
40
1
41
1
10
-36.5000000000002
20
-21.1553027248969
30
0
41
1
10
-37.2500000000013
20
-20.7223538609617
30
1E-16
41
1
10
-37.9999999999999
20
-20.2894050057154
30
1E-16
0
SPLINE
5
14B
100
AcDbEntity
8
1
62
256
6
ByLayer
370
18
48
1
60
0
100
AcDbSpline
70
4
71
3
72
10
73
6
40
0
40
0
40
0
40
0
40
0.5
40
0.5
40
1
40
1
40
1
40
1
41
1
10
145.313615132501
20
28.3129725722923
30
0
41
1
10
145.129281736437
20
28.342309429313
30
0
41
1
10
144.954421747892
20
28.3795352782733
30
0
41
1
10
144.618880348015
20
28.4669691329701
30
0
41
1
10
144.45824359464
20
28.5172135464961
30
0
41
1
10
144.303389596732
20
28.5734070265994
30
0
0
SPLINE
5
14C
100
AcDbEntity
8
1
62
256
6
ByLayer
370
18
48
1
60
0
100
AcDbSpline
70
4
71
3
72
22
73
18
40
0
40
0
40
0
40
0
40
0.250000000000002
40
0.250000000000002
40
0.375000000000002
40
0.375000000000002
40
0.500000000000002
40
0.500000000000002
40
0.625000000000003
40
0.625000000000003
40
0.750000000000003
40
0.750000000000003
40
0.812500000000003
40
0.812500000000003
40
0.875000000000002
40
0.875000000000002
40
1
40
1
40
1
40
1
41
1
10
149.636768883666
20
30.1328221052574
30
1E-16
41
1
10
149.529200249073
20
29.9144152442385
30
1E-16
41
1
10
149.397576859076
20
29.7116782681314
30
0
41
1
10
149.16197476519
20
29.4291201428873
30
0
41
1
10
149.077011614696
20
29.3385463240964
30
0
41
1
10
148.89275708274
20
29.1645756434021
30
0
41
1
10
148.793078243676
20
29.0808813530124
30
0
41
1
10
148.578623232218
20
28.9222580161034
30
0
41
1
10
148.464526660139
20
28.8477508981559
30
0
41
1
10
148.220163102696
20
28.7085838346413
30
0
41
1
10
148.089935197655
20
28.6439109226437
30
0
41
1
10
147.879226637228
20
28.5549764132173
30
0
41
1
10
147.80658293528
20
28.526780470947
30
0
41
1
10
147.657828652607
20
28.4740883483188
30
0
41
1
10
147.58148174281
20
28.4494887196354
30
0
41
1
10
147.345912108662
20
28.3811600144568
30
0
41
1
10
147.18024588519
20
28.342835629913
30
0
41
1
10
147.00349545709
20
28.3129725722917
30
0
0
SPLINE
5
14D
100
AcDbEntity
8
1
62
256
6
ByLayer
370
18
48
1
60
0
100
AcDbSpline
70
4
71
3
72
28
73
24
40
0
40
0
40
0
40
0
40
0.125000000000022
40
0.125000000000022
40
0.187500000000032
40
0.187500000000032
40
0.250000000000043
40
0.250000000000043
40
0.312500000000053
40
0.312500000000053
40
0.375000000000063
40
0.375000000000063
40
0.437500000000074
40
0.437500000000074
40
0.500000000000084
40
0.500000000000084
40
0.625000000000063
40
0.625000000000063
40
0.750000000000042
40
0.750000000000042
40
0.875000000000021
40
0.875000000000021
40
1
40
1
40
1
40
1
41
1
10
150.982027119651
20
30.4870077223377
30
1E-16
41
1
10
150.922821256081
20
30.5146550605584
30
1E-16
41
1
10
150.860056906805
20
30.5381601999281
30
1E-16
41
1
10
150.759672325783
20
30.5659677261839
30
1E-16
41
1
10
150.724882824613
20
30.5740289509117
30
1E-16
41
1
10
150.654589478019
20
30.5869868727495
30
1E-16
41
1
10
150.619099518101
20
30.5919118586461
30
1E-16
41
1
10
150.547409369359
20
30.5985316865897
30
1E-16
41
1
10
150.511209436474
20
30.6002276579696
30
1E-16
41
1
10
150.438046742298
20
30.6001447129276
30
1E-16
41
1
10
150.401043016709
20
30.5983195508332
30
1E-16
41
1
10
150.329006475981
20
30.5912339570328
30
1E-16
41
1
10
150.293623221207
20
30.5859849306749
30
1E-16
41
1
10
150.224105138476
20
30.5721490883101
30
1E-16
41
1
10
150.18971782705
20
30.5634787424755
30
1E-16
41
1
10
150.090463111673
20
30.5330462284417
30
1E-16
41
1
10
150.029890327252
20
30.5071928463301
30
1E-16
41
1
10
149.91858494805
20
30.4460611636562
30
1E-16
41
1
10
149.870011802299
20
30.4119926388615
30
1E-16
41
1
10
149.784131360415
20
30.3385525585158
30
1E-16
41
1
10
149.746707447738
20
30.2988565007996
30
1E-16
41
1
10
149.683730246872
20
30.2174993937515
30
1E-16
41
1
10
149.65784922253
20
30.1756235283478
30
1E-16
41
1
10
149.636768883666
20
30.1328221052574
30
1E-16
0
SPLINE
5
14E
100
AcDbEntity
8
1
62
256
6
ByLayer
370
18
48
1
60
0
100
AcDbSpline
70
4
71
3
72
16
73
12
40
0
40
0
40
0
40
0
40
0.250000000000004
40
0.250000000000004
40
0.375000000000007
40
0.375000000000007
40
0.50000000000001
40
0.50000000000001
40
0.750000000000005
40
0.750000000000005
40
1
40
1
40
1
40
1
41
1
10
152.97624227024
20
29.5709502252077
30
0
41
1
10
153.162663117308
20
29.4868517803106
30
0
41
1
10
153.318809409571
20
29.3901002555899
30
0
41
1
10
153.522696510636
20
29.2351794453673
30
0
41
1
10
153.585571349446
20
29.1816746990064
30
0
41
1
10
153.701353622477
20
29.0726796314257
30
0
41
1
10
153.753601301118
20
29.0178525802988
30
0
41
1
10
153.896164621867
20
28.8531709605724
30
0
41
1
10
153.972445630095
20
28.7431498666237
30
0
41
1
10
154.095768875287
20
28.525342327507
30
0
41
1
10
154.142650108826
20
28.4174179850943
30
0
41
1
10
154.176626590014
20
28.3129725722911
30
0
0
SPLINE
5
14F
100
AcDbEntity
8
1
62
256
6
ByLayer
370
18
48
1
60
0
100
AcDbSpline
70
4
71
3
72
16
73
12
40
0
40
0
40
0
40
0
40
0.249999999999996
40
0.249999999999996
40
0.499999999999992
40
0.499999999999992
40
0.624999999999994
40
0.624999999999994
40
0.749999999999996
40
0.749999999999996
40
1
40
1
40
1
40
1
41
1
10
139.995380659267
20
30.204908646154
30
1E-16
41
1
10
139.494813753884
20
30.4011017797149
30
1E-16
41
1
10
139.026406169447
20
30.6244165566962
30
1E-16
41
1
10
138.140344627195
20
31.1237402165358
30
1E-16
41
1
10
137.722851934271
20
31.3998020850464
30
1E-16
41
1
10
137.131315782246
20
31.8565284708908
30
2E-16
41
1
10
136.939973751166
20
32.0159143040379
30
2E-16
41
1
10
136.568943700959
20
32.3499771102889
30
2E-16
41
1
10
136.388883012452
20
32.5250491844086
30
2E-16
41
1
10
135.86928392319
20
33.0725626475646
30
2E-16
41
1
10
135.552843334626
20
33.4640168375236
30
3E-16
41
1
10
135.267908828574
20
33.8857507343927
30
3E-16
0
SPLINE
5
150
100
AcDbEntity
8
1
62
256
6
ByLayer
370
18
48
1
60
0
100
AcDbSpline
70
4
71
3
72
10
73
6
40
0
40
0
40
0
40
0
40
0.5
40
0.5
40
1
40
1
40
1
40
1
41
1
10
131.691278740164
20
39.780780885445
30
-2E-16
41
1
10
131.924233205347
20
39.3265060061153
30
-3E-16
41
1
10
132.157277449133
20
38.8766125316413
30
-3E-16
41
1
10
132.638500121769
20
37.9930155869679
30
-3E-16
41
1
10
132.886634248854
20
37.5592963165686
30
-4E-16
41
1
10
133.15150807295
20
37.1379887822557
30
-4E-16
0
SPLINE
5
151
100
AcDbEntity
8
1
62
256
6
ByLayer
370
18
48
1
60
0
100
AcDbSpline
70
4
71
3
72
16
73
12
40
0
40
0
40
0
40
0
40
0.249999999999999
40
0.249999999999999
40
0.499999999999998
40
0.499999999999998
40
0.624999999999998
40
0.624999999999998
40
0.749999999999998
40
0.749999999999998
40
1
40
1
40
1
40
1
41
1
10
131.691278740163
20
39.780780885445
30
-2E-16
41
1
10
131.14690527785
20
39.2452834771395
30
-3E-16
41
1
10
130.626777072208
20
38.6986129626066
30
-3E-16
41
1
10
129.636510817519
20
37.585611307252
30
-4E-16
41
1
10
129.166347585301
20
37.0192758865702
30
-4E-16
41
1
10
128.500916836549
20
36.1569550540128
30
4E-16
41
1
10
128.285303855347
20
35.8666727187177
30
4E-16
41
1
10
127.873610052625
20
35.2902847696355
30
4E-16
41
1
10
127.676841090515
20
35.0033391683779
30
4E-16
41
1
10
127.113780805236
20
34.147380923856
30
3E-16
41
1
10
126.774618450882
20
33.5832080697436
30
3E-16
41
1
10
126.472882553897
20
33.0288477918466
30
2E-16
0
SPLINE
5
152
100
AcDbEntity
8
1
62
256
6
ByLayer
370
18
48
1
60
0
100
AcDbSpline
70
4
71
3
72
10
73
6
40
0
40
0
40
0
40
0
40
0.5
40
0.5
40
1
40
1
40
1
40
1
41
1
10
132.8884611807
20
41.0278525904804
30
-2E-16
41
1
10
133.197215139608
20
41.3028890958514
30
-1E-16
41
1
10
133.51040590191
20
41.5731287612396
30
-1E-16
41
1
10
134.143105731642
20
42.1019473218237
30
-1E-16
41
1
10
134.462984152562
20
42.3608574916696
30
-1E-16
41
1
10
134.786356182922
20
42.614322936788
30
-1E-16
0
SPLINE
5
153
100
AcDbEntity
8
1
62
256
6
ByLayer
370
18
48
1
60
0
100
AcDbSpline
70
4
71
3
72
10
73
6
40
0
40
0
40
0
40
0
40
0.197913927760985
40
0.197913927760985
40
1
40
1
40
1
40
1
41
1
10
134.182535176217
20
42.236287201441
30
0
41
1
10
134.213435427889
20
42.2609954390551
30
0
41
1
10
134.246109906713
20
42.2857496030144
30
0
41
1
10
134.42013466803
20
42.4110561695242
30
-1E-16
41
1
10
134.58870220822
20
42.5123130980815
30
-1E-16
41
1
10
134.786356182922
20
42.614322936788
30
-1E-16
0
SPLINE
5
154
100
AcDbEntity
8
1
62
256
6
ByLayer
370
18
48
1
60
0
100
AcDbSpline
70
4
71
3
72
20
73
16
40
0
40
0
40
0
40
0
40
0.125000000000001
40
0.125000000000001
40
0.250000000000003
40
0.250000000000003
40
0.375000000000005
40
0.375000000000005
40
0.500000000000007
40
0.500000000000007
40
0.750000000000006
40
0.750000000000006
40
0.875000000000003
40
0.875000000000003
40
1
40
1
40
1
40
1
41
1
10
131.691278740163
20
39.780780885445
30
-2E-16
41
1
10
131.70407043018
20
39.8049934778594
30
-2E-16
41
1
10
131.722510913915
20
39.8338421261703
30
-2E-16
41
1
10
131.770335956561
20
39.9004798729277
30
-2E-16
41
1
10
131.799985024937
20
39.9385712557738
30
-2E-16
41
1
10
131.868752791736
20
40.0217608614095
30
-2E-16
41
1
10
131.907895782005
20
40.0669335875744
30
-2E-16
41
1
10
131.99551212995
20
40.1642348349489
30
-2E-16
41
1
10
132.044193911488
20
40.2165810312852
30
-2E-16
41
1
10
132.203551901402
20
40.3830475732755
30
-2E-16
41
1
10
132.323780022015
20
40.5028072410847
30
-2E-16
41
1
10
132.525253088571
20
40.6954118756883
30
-2E-16
41
1
10
132.595544916017
20
40.761365532411
30
-2E-16
41
1
10
132.739076712822
20
40.893655135116
30
-2E-16
41
1
10
132.812776062363
20
40.9604326599648
30
-2E-16
41
1
10
132.8884611807
20
41.0278525904805
30
-2E-16
0
SPLINE
5
155
100
AcDbEntity
8
1
62
256
6
ByLayer
370
18
48
1
60
0
100
AcDbSpline
70
4
71
3
72
18
73
14
40
0
40
0
40
0
40
0
40
0.249999999999988
40
0.249999999999988
40
0.374999999999994
40
0.374999999999994
40
0.5
40
0.5
40
0.75000000000001
40
0.75000000000001
40
0.875000000000005
40
0.875000000000005
40
1
40
1
40
1
40
1
41
1
10
138.34395571251
20
32.3031970194768
30
2E-16
41
1
10
138.068587154293
20
32.3266261820723
30
2E-16
41
1
10
137.803973721351
20
32.380132211333
30
2E-16
41
1
10
137.41986180398
20
32.5010823883427
30
2E-16
41
1
10
137.293996002501
20
32.5482578728389
30
2E-16
41
1
10
137.046383780226
20
32.6564014191355
30
2E-16
41
1
10
136.924740421378
20
32.7174416264439
30
2E-16
41
1
10
136.573889385359
20
32.9167939876123
30
2E-16
41
1
10
136.355622273896
20
33.0723329074208
30
2E-16
41
1
10
136.049600436448
20
33.3394602912484
30
3E-16
41
1
10
135.950879330722
20
33.4346040930948
30
3E-16
41
1
10
135.76435746392
20
33.6327060818455
30
3E-16
41
1
10
135.676092429157
20
33.7360065304405
30
3E-16
41
1
10
135.592678009729
20
33.8435301072256
30
3E-16
0
SPLINE
5
156
100
AcDbEntity
8
1
62
256
6
ByLayer
370
18
48
1
60
0
100
AcDbSpline
70
4
71
3
72
14
73
10
40
0
40
0
40
0
40
0
40
0.14956980040302
40
0.14956980040302
40
0.362177350302262
40
0.362177350302262
40
0.574784900201504
40
0.574784900201504
40
1
40
1
40
1
40
1
41
1
10
142.408880636326
20
29.2729405238695
30
0
41
1
10
142.396391743892
20
29.3096245810144
30
0
41
1
10
142.384832741008
20
29.3467448804218
30
0
41
1
10
142.359127275885
20
29.4377522110921
30
0
41
1
10
142.345952612509
20
29.4921155464242
30
0
41
1
10
142.323635741375
20
29.6029391836262
30
0
41
1
10
142.314464432287
20
29.659692185963
30
0
41
1
10
142.293730942916
20
29.8309307365063
30
1E-16
41
1
10
142.288813755345
20
29.9462713536138
30
1E-16
41
1
10
142.293013302845
20
30.0630541899028
30
1E-16
0
SPLINE
5
157
100
AcDbEntity
8
1
62
256
6
ByLayer
370
18
48
1
60
0
100
AcDbSpline
70
4
71
3
72
20
73
16
40
0
40
0
40
0
40
0
40
0.124999999999998
40
0.124999999999998
40
0.249999999999997
40
0.249999999999997
40
0.499999999999998
40
0.499999999999998
40
0.624999999999998
40
0.624999999999998
40
0.749999999999999
40
0.749999999999999
40
0.874999999999999
40
0.874999999999999
40
1
40
1
40
1
40
1
41
1
10
135.592678009729
20
33.8435301072256
30
3E-16
41
1
10
135.488589325209
20
33.9777034041092
30
3E-16
41
1
10
135.392685782323
20
34.1166702723237
30
3E-16
41
1
10
135.216597940459
20
34.4037103324739
30
3E-16
41
1
10
135.136411496278
20
34.5517815103558
30
3E-16
41
1
10
134.920415597038
20
35.0102592232472
30
4E-16
41
1
10
134.815977076088
20
35.3186200143123
30
4E-16
41
1
10
134.716465313209
20
35.793666865734
30
4E-16
41
1
10
134.693472005572
20
35.9520469394867
30
0
41
1
10
134.66788164481
20
36.2692743776064
30
0
41
1
10
134.66522465604
20
36.4283822640345
30
0
41
1
10
134.681441768748
20
36.7496387668688
30
0
41
1
10
134.700574313948
20
36.9123707803119
30
0
41
1
10
134.761050376694
20
37.2337720998077
30
1E-16
41
1
10
134.802354857161
20
37.3934412346575
30
1E-16
41
1
10
134.855531908197
20
37.5527584867939
30
1E-16
0
SPLINE
5
158
100
AcDbEntity
8
1
62
256
6
ByLayer
370
18
48
1
60
0
100
AcDbSpline
70
4
71
3
72
8
73
4
40
0
40
0
40
0
40
0
40
1
40
1
40
1
40
1
41
1
10
148.141906836857
20
29.560261807657
30
0
41
1
10
148.006217048852
20
29.3406000998629
30
0
41
1
10
147.873739063454
20
29.1258879962109
30
0
41
1
10
147.744622115911
20
28.9163554782695
30
0
0
SPLINE
5
159
100
AcDbEntity
8
1
62
256
6
ByLayer
370
18
48
1
60
0
100
AcDbSpline
70
4
71
3
72
10
73
6
40
0
40
0
40
0
40
0
40
0.7315624052456
40
0.7315624052456
40
1
40
1
40
1
40
1
41
1
10
147.744622115911
20
28.9163554782695
30
0
41
1
10
147.650393093777
20
28.7634395005727
30
0
41
1
10
147.540476020882
20
28.6239796727294
30
0
41
1
10
147.369562811865
20
28.4507051438004
30
0
41
1
10
147.321629055937
20
28.4059182891144
30
0
41
1
10
147.271585496013
20
28.3628944054141
30
0
0
SPLINE
5
15A
100
AcDbEntity
8
1
62
256
6
ByLayer
370
18
48
1
60
0
100
AcDbSpline
70
4
71
3
72
10
73
6
40
0
40
0
40
0
40
0
40
0.706401666878298
40
0.706401666878298
40
1
40
1
40
1
40
1
41
1
10
154.592278022302
20
28.5815215419828
30
0
41
1
10
154.50267430751
20
28.4356487573863
30
0
41
1
10
154.416248103845
20
28.2943622234186
30
0
41
1
10
154.297698662628
20
28.0998348014201
30
-1E-16
41
1
10
154.263348215268
20
28.0433771257485
30
-1E-16
41
1
10
154.229446649985
20
27.9875678949294
30
-1E-16
0
SPLINE
5
15B
100
AcDbEntity
8
1
62
256
6
ByLayer
370
18
48
1
60
0
100
AcDbSpline
70
4
71
3
72
8
73
4
40
0
40
0
40
0
40
0
40
1
40
1
40
1
40
1
41
1
10
150.211929510494
20
31.5811232939161
30
2E-16
41
1
10
149.927216147862
20
31.5655801255984
30
2E-16
41
1
10
149.642717584754
20
31.5503148235157
30
2E-16
41
1
10
149.357926595679
20
31.5346855997902
30
2E-16
0
SPLINE
5
15C
100
AcDbEntity
8
1
62
256
6
ByLayer
370
18
48
1
60
0
100
AcDbSpline
70
4
71
3
72
16
73
12
40
0
40
0
40
0
40
0
40
0.249999999999999
40
0.249999999999999
40
0.499999999999998
40
0.499999999999998
40
0.749999999999997
40
0.749999999999997
40
0.874999999999999
40
0.874999999999999
40
1
40
1
40
1
40
1
41
1
10
149.357926595679
20
31.5346855997902
30
2E-16
41
1
10
149.252127548874
20
31.3632238808745
30
1E-16
41
1
10
149.149582213625
20
31.1968038151044
30
1E-16
41
1
10
148.948425052631
20
30.8700586892889
30
1E-16
41
1
10
148.849866589663
20
30.7098164775278
30
1E-16
41
1
10
148.65303992816
20
30.3897811016375
30
1E-16
41
1
10
148.554743454568
20
30.2299437938002
30
1E-16
41
1
10
148.403561829712
20
29.9844195502216
30
1E-16
41
1
10
148.352529761049
20
29.9015930231881
30
1E-16
41
1
10
148.248638791401
20
29.7331200802084
30
0
41
1
10
148.195771212644
20
29.6474602692992
30
0
41
1
10
148.141906836857
20
29.560261807657
30
0
0
SPLINE
5
15D
100
AcDbEntity
8
1
62
256
6
ByLayer
370
18
48
1
60
0
100
AcDbSpline
70
4
71
3
72
8
73
4
40
0
40
0
40
0
40
0
40
1
40
1
40
1
40
1
41
1
10
146.800058654159
20
38.889266454131
30
-1E-16
41
1
10
146.893916830434
20
38.9917353964106
30
-1E-16
41
1
10
146.996593399555
20
39.0877609110003
30
0
41
1
10
147.106051545459
20
39.1750612052874
30
0
0
SPLINE
5
15E
100
AcDbEntity
8
1
62
256
6
ByLayer
370
18
48
1
60
0
100
AcDbSpline
70
4
71
3
72
8
73
4
40
0
40
0
40
0
40
0
40
1
40
1
40
1
40
1
41
1
10
147.106051545459
20
39.175061205288
30
0
41
1
10
147.129572747859
20
39.2006784814014
30
0
41
1
10
147.153093763936
20
39.2262954557229
30
0
41
1
10
147.176614592798
20
39.2519121268099
30
2E-16
0
SPLINE
5
15F
100
AcDbEntity
8
1
62
256
6
ByLayer
370
18
48
1
60
0
100
AcDbSpline
70
4
71
3
72
8
73
4
40
0
40
0
40
0
40
0
40
1
40
1
40
1
40
1
41
1
10
156.052774291451
20
37.3361737567427
30
0
41
1
10
155.968106861189
20
37.3826887399171
30
0
41
1
10
155.883398857636
20
37.4291819877805
30
0
41
1
10
155.798630598748
20
37.4756429565651
30
0
0
SPLINE
5
160
100
AcDbEntity
8
1
62
256
6
ByLayer
370
18
48
1
60
0
100
AcDbSpline
70
4
71
3
72
8
73
4
40
0
40
0
40
0
40
0
40
1
40
1
40
1
40
1
41
1
10
151.772844392911
20
36.8473959449747
30
0
41
1
10
151.850773963715
20
36.9046749207922
30
0
41
1
10
151.928732941637
20
36.9619445055979
30
0
41
1
10
152.006732533343
20
37.0192011206002
30
0
0
SPLINE
5
161
100
AcDbEntity
8
1
62
256
6
ByLayer
370
18
48
1
60
0
100
AcDbSpline
70
4
71
3
72
8
73
4
40
0
40
0
40
0
40
0
40
1
40
1
40
1
40
1
41
1
10
151.819550068671
20
38.425349577528
30
0
41
1
10
151.715297802899
20
38.4470985930886
30
0
41
1
10
151.61109718736
20
38.4688689737061
30
0
41
1
10
151.506931350815
20
38.4906537406126
30
0
0
SPLINE
5
162
100
AcDbEntity
8
1
62
256
6
ByLayer
370
18
48
1
60
0
100
AcDbSpline
70
4
71
3
72
8
73
4
40
0
40
0
40
0
40
0
40
1
40
1
40
1
40
1
41
1
10
155.611448134076
20
38.8817914134928
30
0
41
1
10
155.684298633364
20
38.9248588057198
30
0
41
1
10
155.757083613843
20
38.9679334590241
30
0
41
1
10
155.829824476841
20
39.0110130016184
30
0
0
SPLINE
5
163
100
AcDbEntity
8
1
62
256
6
ByLayer
370
18
48
1
60
0
100
AcDbSpline
70
4
71
3
72
10
73
6
40
0
40
0
40
0
40
0
40
0.880408438132705
40
0.880408438132705
40
1
40
1
40
1
40
1
41
1
10
151.417146939129
20
38.4700523765753
30
1E-16
41
1
10
151.447846593672
20
38.5166430779628
30
1E-16
41
1
10
151.479878383968
20
38.5613963433019
30
1E-16
41
1
10
151.517527997614
20
38.6100199710942
30
1E-16
41
1
10
151.522053300548
20
38.6157997588753
30
1E-16
41
1
10
151.526599141467
20
38.6215428480096
30
1E-16
0
SPLINE
5
164
100
AcDbEntity
8
1
62
256
6
ByLayer
370
18
48
1
60
0
100
AcDbSpline
70
4
71
3
72
14
73
10
40
0
40
0
40
0
40
0
40
0.0567426427249013
40
0.0567426427249013
40
0.311763466851327
40
0.311763466851327
40
0.566784290977752
40
0.566784290977752
40
1
40
1
40
1
40
1
41
1
10
155.473937891205
20
36.4961161950724
30
-4E-16
41
1
10
155.469840979951
20
36.4848510882436
30
-4E-16
41
1
10
155.465639748064
20
36.4734631783676
30
-4E-16
41
1
10
155.442013997429
20
36.4105729878826
30
-4E-16
41
1
10
155.420837228855
20
36.3580240254868
30
-4E-16
41
1
10
155.374428710376
20
36.2525587145028
30
4E-16
41
1
10
155.349069235661
20
36.1993576416917
30
4E-16
41
1
10
155.275702150769
20
36.0580461121764
30
4E-16
41
1
10
155.22446267869
20
35.9717568586211
30
4E-16
41
1
10
155.167966323481
20
35.8885551198512
30
4E-16
0
SPLINE
5
165
100
AcDbEntity
8
1
62
256
6
ByLayer
370
18
48
1
60
0
100
AcDbSpline
70
4
71
3
72
10
73
6
40
0
40
0
40
0
40
0
40
0.861077622644088
40
0.861077622644088
40
1
40
1
40
1
40
1
41
1
10
151.620142321123
20
39.156642593757
30
-3E-16
41
1
10
151.764073923105
20
39.1876913293635
30
-3E-16
41
1
10
151.903984715028
20
39.2187295112167
30
-3E-16
41
1
10
152.062255788328
20
39.2547641968884
30
-3E-16
41
1
10
152.084157717425
20
39.2597699967629
30
-3E-16
41
1
10
152.105966244415
20
39.2647755514772
30
-3E-16
0
SPLINE
5
166
100
AcDbEntity
8
1
62
256
6
ByLayer
370
18
48
1
60
0
100
AcDbSpline
70
4
71
3
72
8
73
4
40
0
40
0
40
0
40
0
40
1
40
1
40
1
40
1
41
1
10
146.346669238133
20
38.198558137947
30
2E-16
41
1
10
146.369306292495
20
38.2036565040765
30
2E-16
41
1
10
146.391943831214
20
38.2087538399386
30
2E-16
41
1
10
146.4145818661
20
38.2138501204133
30
2E-16
0
SPLINE
5
167
100
AcDbEntity
8
1
62
256
6
ByLayer
370
18
48
1
60
0
100
AcDbSpline
70
4
71
3
72
14
73
10
40
0
40
0
40
0
40
0
40
0.499999999999967
40
0.499999999999967
40
0.624999999999968
40
0.624999999999968
40
0.74999999999997
40
0.74999999999997
40
1
40
1
40
1
40
1
41
1
10
138.091819987048
20
34.8235097744181
30
4E-16
41
1
10
137.912238256906
20
35.0379214555269
30
4E-16
41
1
10
137.73295880986
20
35.2593433745302
30
4E-16
41
1
10
137.509525173079
20
35.5515583526092
30
4E-16
41
1
10
137.464938805884
20
35.6106681554359
30
4E-16
41
1
10
137.37732849486
20
35.7283374825501
30
4E-16
41
1
10
137.334109698772
20
35.7871487896811
30
4E-16
41
1
10
137.205999757275
20
35.9635211115361
30
4E-16
41
1
10
137.122649032777
20
36.0810207667498
30
4E-16
41
1
10
137.040712789909
20
36.1984640789863
30
4E-16
0
SPLINE
5
168
100
AcDbEntity
8
1
62
256
6
ByLayer
370
18
48
1
60
0
100
AcDbSpline
70
4
71
3
72
14
73
10
40
0
40
0
40
0
40
0
40
0.25
40
0.25
40
0.5
40
0.5
40
0.75
40
0.75
40
1
40
1
40
1
40
1
41
1
10
138.091819987048
20
34.8235097744187
30
4E-16
41
1
10
138.226856473136
20
34.8352141851971
30
4E-16
41
1
10
138.365896398264
20
34.8481345424112
30
4E-16
41
1
10
138.646724392868
20
34.8767214738788
30
4E-16
41
1
10
138.788984423105
20
34.8924391673085
30
4E-16
41
1
10
139.077829876591
20
34.927211626011
30
4E-16
41
1
10
139.225473350855
20
34.9464309431819
30
4E-16
41
1
10
139.515346760604
20
34.9865772958024
30
4E-16
41
1
10
139.658546519631
20
35.0075800883266
30
4E-16
41
1
10
139.800593532014
20
35.0291998327112
30
4E-16
0
SPLINE
5
169
100
AcDbEntity
8
1
62
256
6
ByLayer
370
18
48
1
60
0
100
AcDbSpline
70
4
71
3
72
14
73
10
40
0
40
0
40
0
40
0
40
0.500000000000004
40
0.500000000000004
40
0.625000000000008
40
0.625000000000008
40
0.750000000000011
40
0.750000000000011
40
1
40
1
40
1
40
1
41
1
10
137.040712789909
20
36.1984640789857
30
4E-16
41
1
10
137.140140295937
20
36.4464609160803
30
-4E-16
41
1
10
137.244051541697
20
36.7019713252071
30
-4E-16
41
1
10
137.383814456078
20
37.0379053320599
30
-4E-16
41
1
10
137.412207828456
20
37.1057999191146
30
-4E-16
41
1
10
137.468959379862
20
37.2408465048983
30
-4E-16
41
1
10
137.497437517512
20
37.3082881811753
30
-4E-16
41
1
10
137.583141896794
20
37.5103979567931
30
-4E-16
41
1
10
137.64063705281
20
37.6448516416725
30
-4E-16
41
1
10
137.698379137737
20
37.7791084418465
30
-4E-16
0
SPLINE
5
16A
100
AcDbEntity
8
1
62
256
6
ByLayer
370
18
48
1
60
0
100
AcDbSpline
70
4
71
3
72
14
73
10
40
0
40
0
40
0
40
0
40
0.500000000000006
40
0.500000000000006
40
0.625
40
0.625
40
0.749999999999994
40
0.749999999999994
40
1
40
1
40
1
40
1
41
1
10
140.458259879841
20
36.6098441955714
30
-4E-16
41
1
10
140.342919330848
20
36.3416645297733
30
-4E-16
41
1
10
140.228843834918
20
36.0732626001157
30
4E-16
41
1
10
140.089035298711
20
35.7372707301942
30
4E-16
41
1
10
140.061252334638
20
35.6701503361265
30
4E-16
41
1
10
140.006880982591
20
35.5381226045023
30
4E-16
41
1
10
139.98017022678
20
35.4729225337422
30
4E-16
41
1
10
139.901290499672
20
35.2794686001338
30
4E-16
41
1
10
139.85036918808
20
35.1533526528083
30
4E-16
41
1
10
139.800593532014
20
35.0291998327109
30
4E-16
0
SPLINE
5
16B
100
AcDbEntity
8
1
62
256
6
ByLayer
370
18
48
1
60
0
100
AcDbSpline
70
4
71
3
72
14
73
10
40
0
40
0
40
0
40
0
40
0.25
40
0.25
40
0.5
40
0.5
40
0.75
40
0.75
40
1
40
1
40
1
40
1
41
1
10
137.698379137737
20
37.7791084418465
30
-4E-16
41
1
10
137.833415623619
20
37.7908128526071
30
-4E-16
41
1
10
137.972455548483
20
37.8037332097892
30
-3E-16
41
1
10
138.253283544719
20
37.8323201414268
30
-3E-16
41
1
10
138.395543576269
20
37.8480378350061
30
-3E-16
41
1
10
138.684389033646
20
37.8828102942335
30
-3E-16
41
1
10
138.832032507968
20
37.9020296114771
30
-3E-16
41
1
10
139.121905913117
20
37.9421759635052
30
-3E-16
41
1
10
139.265105670904
20
37.9631787558433
30
-3E-16
41
1
10
139.407152682703
20
37.984798500139
30
-3E-16
0
SPLINE
5
16C
100
AcDbEntity
8
1
62
256
6
ByLayer
370
18
48
1
60
0
100
AcDbSpline
70
4
71
3
72
14
73
10
40
0
40
0
40
0
40
0
40
0.5
40
0.5
40
0.625000000000008
40
0.625000000000008
40
0.750000000000015
40
0.750000000000015
40
1
40
1
40
1
40
1
41
1
10
139.407152682702
20
37.984798500139
30
-3E-16
41
1
10
139.570821369879
20
37.7502039903266
30
-4E-16
41
1
10
139.739936566755
20
37.5158905507927
30
-4E-16
41
1
10
139.96332458171
20
37.2236177096449
30
-4E-16
41
1
10
140.00852135721
20
37.1652820998051
30
-4E-16
41
1
10
140.098511867593
20
37.0506316268505
30
-4E-16
41
1
10
140.14349804552
20
36.9940619252364
30
-4E-16
41
1
10
140.278432639191
20
36.8263454453908
30
-4E-16
41
1
10
140.368357208112
20
36.7171835277309
30
-4E-16
41
1
10
140.458259879841
20
36.6098441955711
30
-4E-16
0
LINE
5
7D
100
AcDbEntity
8
1
62
256
6
ByLayer
370
18
48
1
60
0
100
AcDbLine
10
13.461325
20
-30.080593
30
0
11
10.538675
21
-30.080593
31
0
39
0
210
0
220
0
230
1
0
LINE
5
7E
100
AcDbEntity
8
1
62
256
6
ByLayer
370
18
48
1
60
0
100
AcDbLine
10
142.231733
20
20.083202
30
0
11
142.231733
21
19.193356
31
0
39
0
210
0
220
0
230
1
0
LINE
5
7F
100
AcDbEntity
8
1
62
256
6
ByLayer
370
18
48
1
60
0
100
AcDbLine
10
143.130527
20
20.248759
30
0
11
142.231733
21
20.083202
31
0
39
0
210
0
220
0
230
1
0
LINE
5
80
100
AcDbEntity
8
1
62
256
6
ByLayer
370
18
48
1
60
0
100
AcDbLine
10
144.029321
20
19.524469
30
0
11
143.130527
21
20.248759
31
0
39
0
210
0
220
0
230
1
0
LINE
5
81
100
AcDbEntity
8
1
62
256
6
ByLayer
370
18
48
1
60
0
100
AcDbLine
10
144.029321
20
18.634623
30
0
11
144.029321
21
19.524469
31
0
39
0
210
0
220
0
230
1
0
LINE
5
82
100
AcDbEntity
8
1
62
256
6
ByLayer
370
18
48
1
60
0
100
AcDbLine
10
143.130527
20
18.469066
30
0
11
144.029321
21
18.634623
31
0
39
0
210
0
220
0
230
1
0
LINE
5
83
100
AcDbEntity
8
1
62
256
6
ByLayer
370
18
48
1
60
0
100
AcDbLine
10
142.231733
20
19.193356
30
0
11
143.130527
21
18.469066
31
0
39
0
210
0
220
0
230
1
0
LINE
5
84
100
AcDbEntity
8
1
62
256
6
ByLayer
370
18
48
1
60
0
100
AcDbLine
10
143.371764
20
18.665289
30
0
11
144.029321
21
19.524469
31
0
39
0
210
0
220
0
230
1
0
LINE
5
85
100
AcDbEntity
8
1
62
256
6
ByLayer
370
18
48
1
60
0
100
AcDbLine
10
143.371764
20
18.513501
30
0
11
143.371764
21
18.665289
31
0
39
0
210
0
220
0
230
1
0
LINE
5
86
100
AcDbEntity
8
1
62
256
6
ByLayer
370
18
48
1
60
0
100
AcDbLine
10
142.47297
20
19.389579
30
0
11
142.231728
21
19.345143
31
0
39
0
210
0
220
0
230
1
0
LINE
5
87
100
AcDbEntity
8
1
62
256
6
ByLayer
370
18
48
1
60
0
100
AcDbLine
10
142.47297
20
19.389579
30
0
11
143.130527
21
20.248759
31
0
39
0
210
0
220
0
230
1
0
LINE
5
88
100
AcDbEntity
8
1
62
256
6
ByLayer
370
18
48
1
60
0
100
AcDbLine
10
143.371764
20
18.665289
30
0
11
142.47297
21
19.389579
31
0
39
0
210
0
220
0
230
1
0
LINE
5
89
100
AcDbEntity
8
1
62
256
6
ByLayer
370
18
48
1
60
0
100
AcDbLine
10
145.313615
20
28.312973
30
0
11
122.901781
21
28.312973
31
0
39
0
210
0
220
0
230
1
0
LINE
5
8A
100
AcDbEntity
8
1
62
256
6
ByLayer
370
18
48
1
60
0
100
AcDbLine
10
122.901781
20
-23.325264
30
0
11
122.901781
21
28.312973
31
0
39
0
210
0
220
0
230
1
0
LINE
5
8B
100
AcDbEntity
8
1
62
256
6
ByLayer
370
18
48
1
60
0
100
AcDbLine
10
154.176627
20
28.312973
30
0
11
147.003495
21
28.312973
31
0
39
0
210
0
220
0
230
1
0
LINE
5
8C
100
AcDbEntity
8
1
62
256
6
ByLayer
370
18
48
1
60
0
100
AcDbLine
10
126.472883
20
34.043478
30
0
11
126.472883
21
33.028848
31
0
39
0
210
0
220
0
230
1
0
LINE
5
8D
100
AcDbEntity
8
1
62
256
6
ByLayer
370
18
48
1
60
0
100
AcDbLine
10
121.568552
20
-25.387221
30
0
11
121.568552
21
31.5
31
0
39
0
210
0
220
0
230
1
0
LINE
5
8E
100
AcDbEntity
8
1
62
256
6
ByLayer
370
18
48
1
60
0
100
AcDbLine
10
0.3
20
31.5
30
0
11
121.568552
21
31.5
31
0
39
0
210
0
220
0
230
1
0
LINE
5
8F
100
AcDbEntity
8
1
62
256
6
ByLayer
370
18
48
1
60
0
100
AcDbLine
10
117.392194
20
-31.5
30
0
11
0.3
21
-31.5
31
0
39
0
210
0
220
0
230
1
0
LINE
5
90
100
AcDbEntity
8
1
62
256
6
ByLayer
370
18
48
1
60
0
100
AcDbLine
10
10.538675
20
30.080593
30
0
11
13.461325
21
30.080593
31
0
39
0
210
0
220
0
230
1
0
LINE
5
91
100
AcDbEntity
8
1
62
256
6
ByLayer
370
18
48
1
60
0
100
AcDbLine
10
13.461325
20
9.349221
30
0
11
10.538675
21
9.349221
31
0
39
0
210
0
220
0
230
1
0
LINE
5
92
100
AcDbEntity
8
1
62
256
6
ByLayer
370
18
48
1
60
0
100
AcDbLine
10
0.3
20
31.5
30
0
11
0.3
21
-31.5
31
0
39
0
210
0
220
0
230
1
0
LINE
5
93
100
AcDbEntity
8
1
62
256
6
ByLayer
370
18
48
1
60
0
100
AcDbLine
10
10.538675
20
-9.349221
30
0
11
13.461325
21
-9.349221
31
0
39
0
210
0
220
0
230
1
0
LINE
5
94
100
AcDbEntity
8
1
62
256
6
ByLayer
370
18
48
1
60
0
100
AcDbLine
10
0
20
31.2
30
0
11
0
21
-31.2
31
0
39
0
210
0
220
0
230
1
0
LINE
5
95
100
AcDbEntity
8
1
62
256
6
ByLayer
370
18
48
1
60
0
100
AcDbLine
10
0.3
20
-31.5
30
0
11
0
21
-31.2
31
0
39
0
210
0
220
0
230
1
0
LINE
5
96
100
AcDbEntity
8
1
62
256
6
ByLayer
370
18
48
1
60
0
100
AcDbLine
10
0
20
31.2
30
0
11
0.3
21
31.5
31
0
39
0
210
0
220
0
230
1
0
LINE
5
97
100
AcDbEntity
8
1
62
256
6
ByLayer
370
18
48
1
60
0
100
AcDbLine
10
13.461325
20
30.080593
30
0
11
13.461325
21
9.349221
31
0
39
0
210
0
220
0
230
1
0
LINE
5
98
100
AcDbEntity
8
1
62
256
6
ByLayer
370
18
48
1
60
0
100
AcDbLine
10
13.894338
20
29.913955
30
0
11
13.894338
21
9.869413
31
0
39
0
210
0
220
0
230
1
0
LINE
5
99
100
AcDbEntity
8
1
62
256
6
ByLayer
370
18
48
1
60
0
100
AcDbLine
10
10.105662
20
-9.869413
30
0
11
10.105662
21
-29.913955
31
0
39
0
210
0
220
0
230
1
0
LINE
5
9A
100
AcDbEntity
8
1
62
256
6
ByLayer
370
18
48
1
60
0
100
AcDbLine
10
10.538675
20
-9.349221
30
0
11
10.538675
21
-30.080593
31
0
39
0
210
0
220
0
230
1
0
LINE
5
9B
100
AcDbEntity
8
1
62
256
6
ByLayer
370
18
48
1
60
0
100
AcDbLine
10
13.461325
20
-9.349221
30
0
11
13.461325
21
-30.080593
31
0
39
0
210
0
220
0
230
1
0
LINE
5
9C
100
AcDbEntity
8
1
62
256
6
ByLayer
370
18
48
1
60
0
100
AcDbLine
10
13.894338
20
-9.869413
30
0
11
13.894338
21
-29.913955
31
0
39
0
210
0
220
0
230
1
0
LINE
5
9D
100
AcDbEntity
8
1
62
256
6
ByLayer
370
18
48
1
60
0
100
AcDbLine
10
10.105662
20
29.913955
30
0
11
10.105662
21
9.869413
31
0
39
0
210
0
220
0
230
1
0
LINE
5
9E
100
AcDbEntity
8
1
62
256
6
ByLayer
370
18
48
1
60
0
100
AcDbLine
10
10.538675
20
30.080593
30
0
11
10.538675
21
9.349221
31
0
39
0
210
0
220
0
230
1
0
LINE
5
9F
100
AcDbEntity
8
SK1
62
256
6
ByLayer
370
18
48
1
60
0
100
AcDbLine
10
-1.307107
20
4.811013
30
0
11
-1.307107
21
-4.811013
31
0
39
0
210
0
220
0
230
1
0
LINE
5
A1
100
AcDbEntity
8
SK1
62
256
6
ByLayer
370
18
48
1
60
0
100
AcDbLine
10
-0.2
20
-7.059518
30
0
11
-0.2
21
-22.533485
31
0
39
0
210
0
220
0
230
1
0
LINE
5
A2
100
AcDbEntity
8
SK1
62
256
6
ByLayer
370
18
48
1
60
0
100
AcDbLine
10
-0.2
20
22.533485
30
0
11
-0.2
21
7.059517
31
0
39
0
210
0
220
0
230
1
0
LINE
5
A3
100
AcDbEntity
8
SK1
62
256
6
ByLayer
370
18
48
1
60
0
100
AcDbLine
10
-0.394977
20
-21.865385
30
0
11
-0.394977
21
-6.326943
31
0
39
0
210
0
220
0
230
1
0
LINE
5
A4
100
AcDbEntity
8
1
62
256
6
ByLayer
370
18
48
1
60
0
100
AcDbLine
10
149.636769
20
30.132822
30
0
11
149.034448
21
29.368886
31
0
39
0
210
0
220
0
230
1
0
LINE
5
A5
100
AcDbEntity
8
1
62
256
6
ByLayer
370
18
48
1
60
0
100
AcDbLine
10
149.130922
20
29.517151
30
0
11
149.719903
21
30.264167
31
0
39
0
210
0
220
0
230
1
0
LINE
5
A6
100
AcDbEntity
8
1
62
256
6
ByLayer
370
18
48
1
60
0
100
AcDbLine
10
142.293013
20
30.063054
30
0
11
140.151368
21
31.102616
31
0
39
0
210
0
220
0
230
1
0
LINE
5
A7
100
AcDbEntity
8
1
62
256
6
ByLayer
370
18
48
1
60
0
100
AcDbLine
10
134.855532
20
37.552758
30
0
11
132.888461
21
41.027853
31
0
39
0
210
0
220
0
230
1
0
LINE
5
A8
100
AcDbEntity
8
1
62
256
6
ByLayer
370
18
48
1
60
0
100
AcDbLine
10
153.058488
20
30.149644
30
0
11
151.189711
21
31.224797
31
0
39
0
210
0
220
0
230
1
0
LINE
5
A9
100
AcDbEntity
8
1
62
256
6
ByLayer
370
18
48
1
60
0
100
AcDbLine
10
147.589343
20
28.686303
30
0
11
147.744622
21
28.916355
31
0
39
0
210
0
220
0
230
1
0
LINE
5
AA
100
AcDbEntity
8
1
62
256
6
ByLayer
370
18
48
1
60
0
100
AcDbLine
10
142.689214
20
31.982573
30
0
11
144.635387
21
35.135265
31
0
39
0
210
0
220
0
230
1
0
LINE
5
AB
100
AcDbEntity
8
1
62
256
6
ByLayer
370
18
48
1
60
0
100
AcDbLine
10
144.950509
20
35.931259
30
0
11
146.606699
21
38.614196
31
0
39
0
210
0
220
0
230
1
0
LINE
5
AC
100
AcDbEntity
8
1
62
256
6
ByLayer
370
18
48
1
60
0
100
AcDbLine
10
147.176615
20
39.251912
30
0
11
149.73589
21
43.397795
31
0
39
0
210
0
220
0
230
1
0
LINE
5
AD
100
AcDbEntity
8
1
62
256
6
ByLayer
370
18
48
1
60
0
100
AcDbLine
10
134.786356
20
42.614323
30
0
11
149.73589
21
43.397795
31
0
39
0
210
0
220
0
230
1
0
LINE
5
AE
100
AcDbEntity
8
1
62
256
6
ByLayer
370
18
48
1
60
0
100
AcDbLine
10
148.847256
20
30.815901
30
0
11
147.427926
21
28.516665
31
0
39
0
210
0
220
0
230
1
0
LINE
5
AF
100
AcDbEntity
8
1
62
256
6
ByLayer
370
18
48
1
60
0
100
AcDbLine
10
149.357927
20
31.534686
30
0
11
148.709439
21
30.570828
31
0
39
0
210
0
220
0
230
1
0
LINE
5
B0
100
AcDbEntity
8
1
62
256
6
ByLayer
370
18
48
1
60
0
100
AcDbLine
10
156.650729
20
31.932632
30
0
11
150.21193
21
31.581123
31
0
39
0
210
0
220
0
230
1
0
LINE
5
B1
100
AcDbEntity
8
1
62
256
6
ByLayer
370
18
48
1
60
0
100
AcDbLine
10
156.650729
20
31.932632
30
0
11
154.592278
21
28.581522
31
0
39
0
210
0
220
0
230
1
0
LINE
5
B2
100
AcDbEntity
8
1
62
256
6
ByLayer
370
18
48
1
60
0
100
AcDbLine
10
147.142016
20
28.344203
30
0
11
148.661798
21
30.806164
31
0
39
0
210
0
220
0
230
1
0
LINE
5
B3
100
AcDbEntity
8
1
62
256
6
ByLayer
370
18
48
1
60
0
100
AcDbLine
10
158.71466
20
33.749737
30
0
11
164.885066
21
43.795017
31
0
39
0
210
0
220
0
230
1
0
LINE
5
B4
100
AcDbEntity
8
1
62
256
6
ByLayer
370
18
48
1
60
0
100
AcDbLine
10
164.158974
20
44.998916
30
0
11
152.304772
21
44.377663
31
0
39
0
210
0
220
0
230
1
0
LINE
5
B5
100
AcDbEntity
8
1
62
256
6
ByLayer
370
18
48
1
60
0
100
AcDbLine
10
151.767247
20
44.215685
30
0
11
149.618031
21
42.94383
31
0
39
0
210
0
220
0
230
1
0
LINE
5
B6
100
AcDbEntity
8
1
62
256
6
ByLayer
370
18
48
1
60
0
100
AcDbLine
10
143.774972
20
31.302568
30
0
11
155.629174
21
31.92382
31
0
39
0
210
0
220
0
230
1
0
LINE
5
B7
100
AcDbEntity
8
1
62
256
6
ByLayer
370
18
48
1
60
0
100
AcDbLine
10
143.156111
20
30.517655
30
0
11
143.774972
21
31.302568
31
0
39
0
210
0
220
0
230
1
0
LINE
5
B8
100
AcDbEntity
8
1
62
256
6
ByLayer
370
18
48
1
60
0
100
AcDbLine
10
143.156111
20
30.517655
30
0
11
148.875393
21
30.81739
31
0
39
0
210
0
220
0
230
1
0
LINE
5
B9
100
AcDbEntity
8
1
62
256
6
ByLayer
370
18
48
1
60
0
100
AcDbLine
10
146.844945
20
38.908951
30
0
11
144.723771
21
35.45573
31
0
39
0
210
0
220
0
230
1
0
LINE
5
BA
100
AcDbEntity
8
1
62
256
6
ByLayer
370
18
48
1
60
0
100
AcDbLine
10
128.187845
20
21.709212
30
0
11
127.248153
21
21.52305
31
0
39
0
210
0
220
0
230
1
0
LINE
5
BB
100
AcDbEntity
8
1
62
256
6
ByLayer
370
18
48
1
60
0
100
AcDbLine
10
158.637047
20
33.638511
30
0
11
158.018187
21
32.853598
31
0
39
0
210
0
220
0
230
1
0
LINE
5
BC
100
AcDbEntity
8
1
62
256
6
ByLayer
370
18
48
1
60
0
100
AcDbLine
10
149.229549
20
42.577552
30
0
11
149.296898
21
42.662973
31
0
39
0
210
0
220
0
230
1
0
LINE
5
BD
100
AcDbEntity
8
1
62
256
6
ByLayer
370
18
48
1
60
0
100
AcDbLine
10
155.749439
20
36.845493
30
0
11
155.242655
21
36.202729
31
0
39
0
210
0
220
0
230
1
0
LINE
5
BE
100
AcDbEntity
8
1
62
256
6
ByLayer
370
18
48
1
60
0
100
AcDbLine
10
151.405631
20
38.362172
30
0
11
151.506931
21
38.490654
31
0
39
0
210
0
220
0
230
1
0
LINE
5
BF
100
AcDbEntity
8
1
62
256
6
ByLayer
370
18
48
1
60
0
100
AcDbLine
10
151.523687
20
38.61786
30
0
11
151.810267
21
38.981334
31
0
39
0
210
0
220
0
230
1
0
LINE
5
C0
100
AcDbEntity
8
1
62
256
6
ByLayer
370
18
48
1
60
0
100
AcDbLine
10
146.514218
20
38.37069
30
0
11
146.451468
21
38.362773
31
0
39
0
210
0
220
0
230
1
0
LINE
5
C1
100
AcDbEntity
8
1
62
256
6
ByLayer
370
18
48
1
60
0
100
AcDbLine
10
139.739593
20
35.325088
30
0
11
139.604905
21
35.001377
31
0
39
0
210
0
220
0
230
1
0
LINE
5
C2
100
AcDbEntity
8
1
62
256
6
ByLayer
370
18
48
1
60
0
100
AcDbLine
10
140.068426
20
36.115411
30
0
11
140.45826
21
36.609844
31
0
39
0
210
0
220
0
230
1
0
LINE
5
C3
100
AcDbEntity
8
1
62
256
6
ByLayer
370
18
48
1
60
0
100
AcDbLine
10
140.068426
20
36.115411
30
0
11
139.739593
21
35.325088
31
0
39
0
210
0
220
0
230
1
0
LINE
5
C4
100
AcDbEntity
8
1
62
256
6
ByLayer
370
18
48
1
60
0
100
AcDbLine
10
138.162932
20
37.38752
30
0
11
139.017319
21
37.490365
31
0
39
0
210
0
220
0
230
1
0
LINE
5
C5
100
AcDbEntity
8
1
62
256
6
ByLayer
370
18
48
1
60
0
100
AcDbLine
10
139.017319
20
37.490365
30
0
11
139.407153
21
37.984799
31
0
39
0
210
0
220
0
230
1
0
LINE
5
C6
100
AcDbEntity
8
1
62
256
6
ByLayer
370
18
48
1
60
0
100
AcDbLine
10
137.497365
20
37.307404
30
0
11
138.162932
21
37.38752
31
0
39
0
210
0
220
0
230
1
0
LINE
5
C7
100
AcDbEntity
8
1
62
256
6
ByLayer
370
18
48
1
60
0
100
AcDbLine
10
135.49324
20
38.7347
30
0
11
135.546501
21
38.802253
31
0
39
0
210
0
220
0
230
1
0
LINE
5
C8
100
AcDbEntity
8
1
62
256
6
ByLayer
370
18
48
1
60
0
100
AcDbLine
10
141.828706
20
33.849082
30
0
11
141.775444
21
33.781529
31
0
39
0
210
0
220
0
230
1
0
LINE
5
C9
100
AcDbEntity
8
1
62
256
6
ByLayer
370
18
48
1
60
0
100
AcDbLine
10
139.542873
20
36.802888
30
0
11
140.068426
21
36.115411
31
0
39
0
210
0
220
0
230
1
0
LINE
5
CA
100
AcDbEntity
8
1
62
256
6
ByLayer
370
18
48
1
60
0
100
AcDbLine
10
139.017319
20
37.490365
30
0
11
139.542873
21
36.802888
31
0
39
0
210
0
220
0
230
1
0
LINE
5
CB
100
AcDbEntity
8
1
62
256
6
ByLayer
370
18
48
1
60
0
100
AcDbLine
10
127.248153
20
21.52305
30
0
11
127.248153
21
20.682021
31
0
39
0
210
0
220
0
230
1
0
LINE
5
CC
100
AcDbEntity
8
1
62
256
6
ByLayer
370
18
48
1
60
0
100
AcDbLine
10
129.127538
20
21.054344
30
0
11
128.187845
21
21.709212
31
0
39
0
210
0
220
0
230
1
0
LINE
5
CD
100
AcDbEntity
8
1
62
256
6
ByLayer
370
18
48
1
60
0
100
AcDbLine
10
129.127538
20
20.213315
30
0
11
129.127538
21
21.054344
31
0
39
0
210
0
220
0
230
1
0
LINE
5
CE
100
AcDbEntity
8
1
62
256
6
ByLayer
370
18
48
1
60
0
100
AcDbLine
10
128.187845
20
20.027154
30
0
11
129.127538
21
20.213315
31
0
39
0
210
0
220
0
230
1
0
LINE
5
CF
100
AcDbEntity
8
1
62
256
6
ByLayer
370
18
48
1
60
0
100
AcDbLine
10
127.248153
20
20.682021
30
0
11
128.187845
21
20.027154
31
0
39
0
210
0
220
0
230
1
0
LINE
5
D0
100
AcDbEntity
8
1
62
256
6
ByLayer
370
18
48
1
60
0
100
AcDbLine
10
128.628255
20
20.114406
30
0
11
129.127538
21
21.054344
31
0
39
0
210
0
220
0
230
1
0
LINE
5
D1
100
AcDbEntity
8
1
62
256
6
ByLayer
370
18
48
1
60
0
100
AcDbLine
10
127.674815
20
20.743392
30
0
11
127.274022
21
20.663991
31
0
39
0
210
0
220
0
230
1
0
LINE
5
D2
100
AcDbEntity
8
1
62
256
6
ByLayer
370
18
48
1
60
0
100
AcDbLine
10
127.674815
20
20.743392
30
0
11
128.187845
21
21.709212
31
0
39
0
210
0
220
0
230
1
0
LINE
5
D3
100
AcDbEntity
8
1
62
256
6
ByLayer
370
18
48
1
60
0
100
AcDbLine
10
128.588622
20
20.106564
30
0
11
127.674815
21
20.743392
31
0
39
0
210
0
220
0
230
1
0
LINE
5
D4
100
AcDbEntity
8
1
62
256
6
ByLayer
370
18
48
1
60
0
100
AcDbLine
10
158.018187
20
32.853598
30
0
11
156.166699
21
32.085799
31
0
39
0
210
0
220
0
230
1
0
LINE
5
D5
100
AcDbEntity
8
SK4
62
256
6
ByLayer
370
18
48
0.05
60
0
100
AcDbLine
10
-45.7
20
0
30
0
11
146.3
21
0
31
0
39
0
210
0
220
0
230
1
0
LINE
5
D7
100
AcDbEntity
8
4
62
256
6
ByLayer
370
18
48
0.05
60
0
100
AcDbLine
10
0
20
0
30
0
11
146.3
21
0
31
0
39
0
210
0
220
0
230
1
0
LINE
5
D9
100
AcDbEntity
8
80
62
256
6
ByLayer
370
18
48
1
60
0
100
AcDbLine
10
0
20
0
30
0
11
-9.14758
21
0
31
0
39
0
210
0
220
0
230
1
0
LINE
5
DA
100
AcDbEntity
8
81
62
256
6
ByLayer
370
18
48
1
60
0
100
AcDbLine
10
174.820902
20
45.078279
30
0
11
165.673322
21
45.078279
31
0
39
0
210
0
220
0
230
1
0
MTEXT
5
16D
100
AcDbEntity
8
SK6
62
256
6
ByLayer
370
18
48
1
60
0
100
AcDbMText
10
21.770357
20
-64.476258
30
0
210
0
220
0
230
1
1
\W0.7227;C6-PDJNR-45165-15HP
40
3.175
41
0
44
1.084337
50
0
71
7
72
5
7
iso_b_vert
0
DIMENSION
5
180
100
AcDbEntity
8
SK2
62
256
6
ByLayer
370
13
48
1
60
0
100
AcDbDimension
2
DimnDraft3D1
10
-65.686717
20
31.5
30
0
11
-65.136807
21
1.830007
31
0
70
33
71
5
72
1
41
1
210
0
220
0
230
1
3
Standard
100
AcDbAlignedDimension
13
-1.2875
23
-31.5
33
0
14
-1.2875
24
31.5
34
0
1001
ACAD
1000
DSTYLE
1002
{
1070
   279
1070
     0
1070
    74
1070
     0
1070
   173
1070
     1
1070
   340
1005
16E
1070
   271
1070
     1
1070
   272
1070
     2
1070
    77
1070
     1
1070
    73
1070
     0
1070
   171
1070
     3
1070
   274
1070
     4
1070
   177
1070
     7
1070
   176
1070
     7
1070
   178
1070
     7
1070
    78
1070
     8
1070
    48
1040
-0.005
1070
    41
1041
3.175
1070
   147
1041
1.75006
1070
    42
1041
1.5875
1070
    44
1041
3.175
1070
   140
1041
3.50012
1070
   343
1005
181
1070
   344
1005
181
1002
}
0
DIMENSION
5
196
100
AcDbEntity
8
2
62
256
6
ByLayer
370
13
48
1
60
0
100
AcDbDimension
2
DimnDraft3D2
10
164.999654
20
62.041838
30
0
11
85.318852
21
62.041838
31
0
70
32
71
5
72
1
41
1
210
0
220
0
230
1
3
Standard
100
AcDbAlignedDimension
13
0
23
32.7875
33
0
14
164.999654
24
45.813532
34
0
50
0
100
AcDbRotatedDimension
1001
ACAD
1000
DSTYLE
1002
{
1070
   279
1070
     0
1070
   172
1070
     1
1070
   173
1070
     1
1070
   340
1005
16E
1070
   271
1070
     1
1070
   272
1070
     2
1070
    77
1070
     1
1070
    73
1070
     0
1070
   171
1070
     3
1070
   274
1070
     4
1070
   177
1070
     7
1070
   176
1070
     7
1070
   178
1070
     7
1070
    78
1070
     8
1070
    48
1040
-0.005
1070
    41
1041
3.175
1070
   147
1041
1.75006
1070
    42
1041
1.5875
1070
    44
1041
3.175
1070
   140
1041
3.50012
1070
   343
1005
181
1070
   344
1005
181
1002
}
0
DIMENSION
5
1A4
100
AcDbEntity
8
2
62
256
6
ByLayer
370
13
48
1
60
0
100
AcDbDimension
2
DimnDraft3D3
10
176.300619
20
44.998916
30
0
11
176.300619
21
21.438431
31
0
70
32
71
5
72
1
41
1
210
0
220
0
230
1
3
Standard
100
AcDbAlignedDimension
13
147.8875
23
0
33
0
14
165.746474
24
44.998916
34
0
50
90
100
AcDbRotatedDimension
1001
ACAD
1000
DSTYLE
1002
{
1070
    74
1070
     0
1070
   279
1070
     0
1070
   172
1070
     1
1070
   173
1070
     1
1070
   340
1005
16E
1070
   271
1070
     1
1070
   272
1070
     2
1070
    77
1070
     1
1070
    73
1070
     0
1070
   171
1070
     3
1070
   274
1070
     4
1070
   177
1070
     7
1070
   176
1070
     7
1070
   178
1070
     7
1070
    78
1070
     8
1070
    48
1040
-0.005
1070
    41
1041
3.175
1070
   147
1041
1.75006
1070
    42
1041
1.5875
1070
    44
1041
3.175
1070
   140
1041
3.50012
1070
   343
1005
181
1070
   344
1005
181
1002
}
0
DIMENSION
5
1B2
100
AcDbEntity
8
2
62
256
6
ByLayer
370
13
48
1
60
0
100
AcDbDimension
2
DimnDraft3D4
10
163.557472
20
45.664165
30
0
11
154.343351
21
55.368165
31
0
70
34
71
5
72
1
41
1
210
0
220
0
230
1
3
Standard
100
AcDb2LineAngularDimension
13
164.158974
23
44.998916
33
0
14
152.304772
24
44.377663
34
0
15
163.557472
25
44.664165
35
0
16
156.775443
26
52.847459
36
0
40
0
0
ENDSEC
0
SECTION
2
OBJECTS
0
DICTIONARY
5
21d
330
0
100
AcDbDictionary
280
0
281
1
3
ACAD_GROUP
350
21e
3
ACAD_MLINESTYLE
350
21f
0
DICTIONARY
5
21e
330
0
100
AcDbDictionary
280
0
281
1
0
DICTIONARY
5
21f
330
0
100
AcDbDictionary
280
0
281
1
3
Standard
350
18
0
MLINESTYLE
5
18
330
21f
100
AcDbMlineStyle
2
Standard
70
0
3

62
256
51
90
52
90
71
2
49
-0.5
62
256
6
ByLayer
49
0.5
62
256
6
ByLayer
0
RASTERVARIABLES
5
20b
330

100
AcDbRasterVariables
90
0
70
1
71
1
72
1
0
ENDSEC
0
EOF
