0
SECTION
2
HEADER
9
$ACADVER
1
AC1015
9
$DWGCODEPAGE
3
ANSI_1252
9
$HANDSEED
5
207
9
$ANGBASE
50
0
9
$ANGDIR
70
0
9
$ATTMODE
70
1
9
$AUNITS
70
0
9
$AUPREC
70
0
9
$CECOLOR
62
256
9
$CELTSCALE
40
1
9
$CELTYPE
6
ByLayer
9
$CELWEIGHT
370
18
9
$CLAYER
8
0
9
$CMLJUST
70
0
9
$CMLSCALE
40
1
9
$CMLSTYLE
2
Standard
9
$DIMSTYLE
2
Standard
9
$TEXTSIZE
40
0.2
9
$TEXTSTYLE
7
Standard
9
$LUNITS
70
2
9
$LUPREC
70
4
9
$EXTNAMES
290
1
9
$INSUNITS
70
4
9
$LTSCALE
40
1
9
$LWDISPLAY
290
1
9
$PDMODE
70
0
9
$PDSIZE
40
0
9
$PLINEGEN
70
0
0
ENDSEC
0
SECTION
2
CLASSES
0
CLASS
1
RASTERVARIABLES
2
AcDbRasterVariables
3
ISM
90
0
280
0
281
0
0
ENDSEC
0
SECTION
2
TABLES
0
TABLE
2
VPORT
5
1fd
100
AcDbSymbolTable
0
VPORT
5
1
100
AcDbSymbolTableRecord
100
AcDbViewportTableRecord
2
*Active
70
0
10
0
20
0
11
1
21
1
12
-1
22
1
13
0
23
0
14
0.5
24
0.5
15
10
25
10
16
0
26
0
36
1
17
0
27
0
37
0
0
ENDTAB
0
TABLE
2
LTYPE
5
1fe
100
AcDbSymbolTable
0
LTYPE
5
14
100
AcDbSymbolTableRecord
100
AcDbLinetypeTableRecord
70
0
2
ByBlock
3

72
65
73
0
40
0
0
LTYPE
5
15
100
AcDbSymbolTableRecord
100
AcDbLinetypeTableRecord
70
0
2
ByLayer
3

72
65
73
0
40
0
0
LTYPE
5
16
100
AcDbSymbolTableRecord
100
AcDbLinetypeTableRecord
70
0
2
CONTINUOUS
3
Solid line
72
65
73
0
40
0
0
LTYPE
5
6A
100
AcDbSymbolTableRecord
100
AcDbLinetypeTableRecord
70
0
2
CENTER
3
____ _ ____ _ ____ _ ____
72
65
73
4
40
47.5
49
22
74
0
49
-8.5
74
0
49
8.5
74
0
49
-8.5
74
0
0
LTYPE
5
6B
100
AcDbSymbolTableRecord
100
AcDbLinetypeTableRecord
70
0
2
DASHED
3
__ __ __ __ __ __ __ __ __
72
65
73
2
40
25.72
49
12.86
74
0
49
-12.86
74
0
0
ENDTAB
0
TABLE
2
LAYER
5
1ff
100
AcDbSymbolTable
0
LAYER
5
10
100
AcDbSymbolTableRecord
100
AcDbLayerTableRecord
2
0
70
0
62
7
6
CONTINUOUS
290
1
370
-3
390
0
0
LAYER
5
6D
100
AcDbSymbolTableRecord
100
AcDbLayerTableRecord
2
80
70
0
62
-6
6
CONTINUOUS
290
1
370
-3
390
0
0
LAYER
5
6F
100
AcDbSymbolTableRecord
100
AcDbLayerTableRecord
2
81
70
0
62
-3
6
CONTINUOUS
290
1
370
-3
390
0
0
LAYER
5
71
100
AcDbSymbolTableRecord
100
AcDbLayerTableRecord
2
1
70
0
62
4
6
CONTINUOUS
290
1
370
-3
390
0
0
LAYER
5
BC
100
AcDbSymbolTableRecord
100
AcDbLayerTableRecord
2
4
70
0
62
-2
6
CENTER
290
1
370
-3
390
0
0
LAYER
5
154
100
AcDbSymbolTableRecord
100
AcDbLayerTableRecord
2
2
70
0
62
7
6
CONTINUOUS
290
1
370
-3
390
0
0
LAYER
5
1e9
100
AcDbSymbolTableRecord
100
AcDbLayerTableRecord
2
SK1
70
0
62
4
6
CONTINUOUS
290
1
370
-3
390
0
0
LAYER
5
1ea
100
AcDbSymbolTableRecord
100
AcDbLayerTableRecord
2
SK4
70
0
62
2
6
CENTER
290
1
370
-3
390
0
0
LAYER
5
1eb
100
AcDbSymbolTableRecord
100
AcDbLayerTableRecord
2
SK6
70
0
62
5
6
CONTINUOUS
290
1
370
-3
390
0
0
LAYER
5
1ec
100
AcDbSymbolTableRecord
100
AcDbLayerTableRecord
2
SK2
70
0
62
7
6
CONTINUOUS
290
1
370
-3
390
0
0
ENDTAB
0
TABLE
2
STYLE
5
200
100
AcDbSymbolTable
0
STYLE
5
11
100
AcDbSymbolTableRecord
100
AcDbTextStyleTableRecord
2
Standard
3
txt
70
0
71
0
40
0
41
1
42
0
50
0
0
STYLE
5
14D
100
AcDbSymbolTableRecord
100
AcDbTextStyleTableRecord
2
iso_b_vert
3
simplex.shx
70
0
71
0
40
0
41
1
42
0
50
0
0
STYLE
5
14E
100
AcDbSymbolTableRecord
100
AcDbTextStyleTableRecord
2
DWGDirectTextStyle
3
simplex
70
0
71
0
40
0
41
1
42
0
50
0
0
ENDTAB
0
TABLE
2
DIMSTYLE
5
201
100
AcDbSymbolTable
100
AcDbDimStyleTable
0
DIMSTYLE
105
27
100
AcDbSymbolTableRecord
100
AcDbDimStyleTableRecord
2
Standard
70
0
3
<>
41
0.18
42
0.0625
44
0.18
140
0.18
147
0.09
73
0
74
0
77
1
271
2
275
0
278
52
280
0
340
11
0
ENDTAB
0
TABLE
2
VIEW
5
202
100
AcDbSymbolTable
0
ENDTAB
0
TABLE
2
UCS
5
203
100
AcDbSymbolTable
0
ENDTAB
0
TABLE
2
APPID
5
204
100
AcDbSymbolTable
0
APPID
5
12
100
AcDbSymbolTableRecord
100
AcDbRegAppTableRecord
2
ACAD
70
0
0
ENDTAB
0
TABLE
2
BLOCK_RECORD
5
205
100
AcDbSymbolTable
0
BLOCK_RECORD
5
1F
100
AcDbSymbolTableRecord
100
AcDbBlockTableRecord
2
*Model_Space
340
0
70
0
0
BLOCK_RECORD
5
1B
100
AcDbSymbolTableRecord
100
AcDbBlockTableRecord
2
*Paper_Space
340
0
70
0
0
BLOCK_RECORD
5
23
100
AcDbSymbolTableRecord
100
AcDbBlockTableRecord
2
*Paper_Space0
340
0
70
0
0
BLOCK_RECORD
5
150
100
AcDbSymbolTableRecord
100
AcDbBlockTableRecord
2
DimnDraft3D11
340
0
70
0
0
BLOCK_RECORD
5
15F
100
AcDbSymbolTableRecord
100
AcDbBlockTableRecord
2
DimnDraft3D2
340
0
70
0
0
BLOCK_RECORD
5
16E
100
AcDbSymbolTableRecord
100
AcDbBlockTableRecord
2
_CLOSED
340
0
70
0
0
BLOCK_RECORD
5
175
100
AcDbSymbolTableRecord
100
AcDbBlockTableRecord
2
DimnDraft3D3
340
0
70
0
0
BLOCK_RECORD
5
183
100
AcDbSymbolTableRecord
100
AcDbBlockTableRecord
2
DimnDraft3D4
340
0
70
0
0
ENDTAB
0
ENDSEC
0
SECTION
2
BLOCKS
0
BLOCK
5
20
100
AcDbEntity
8
0
100
AcDbBlockBegin
2
*Model_Space
70
0
10
0
20
0
30
0
3
*Model_Space
0
ENDBLK
5
21
100
AcDbEntity
8
0
100
AcDbBlockEnd
0
BLOCK
5
1C
100
AcDbEntity
8
0
100
AcDbBlockBegin
2
*Paper_Space
70
0
10
0
20
0
30
0
3
*Paper_Space
0
ENDBLK
5
1D
100
AcDbEntity
8
0
100
AcDbBlockEnd
0
BLOCK
5
24
100
AcDbEntity
8
0
100
AcDbBlockBegin
2
*Paper_Space0
70
0
10
0
20
0
30
0
3
*Paper_Space0
0
ENDBLK
5
25
100
AcDbEntity
8
0
100
AcDbBlockEnd
0
BLOCK
5
151
100
AcDbEntity
8
0
100
AcDbBlockBegin
2
DimnDraft3D11
70
0
10
0
20
0
30
0
3
DimnDraft3D11
0
LINE
5
153
100
AcDbEntity
8
2
62
256
6
ByLayer
370
25
48
1
60
0
100
AcDbLine
10
51.5875
20
0
30
0
11
82.425
21
0
31
0
39
0
210
0
220
0
230
1
0
LINE
5
155
100
AcDbEntity
8
2
62
256
6
ByLayer
370
25
48
1
60
0
100
AcDbLine
10
66.5875
20
45
30
0
11
82.425
21
45
31
0
39
0
210
0
220
0
230
1
0
LINE
5
156
100
AcDbEntity
8
2
62
256
6
ByLayer
370
25
48
1
60
0
100
AcDbLine
10
79.25
20
0
30
0
11
79.25
21
45
31
0
39
0
210
0
220
0
230
1
0
LINE
5
157
100
AcDbEntity
8
2
62
256
6
ByLayer
370
25
48
1
60
0
100
AcDbLine
10
79.25
20
0
30
0
11
78.399261
21
3.174997
31
0
39
0
210
0
220
0
230
1
0
LINE
5
158
100
AcDbEntity
8
2
62
256
6
ByLayer
370
25
48
1
60
0
100
AcDbLine
10
79.25
20
0
30
0
11
80.100739
21
3.175003
31
0
39
0
210
0
220
0
230
1
0
LINE
5
159
100
AcDbEntity
8
2
62
256
6
ByLayer
370
25
48
1
60
0
100
AcDbLine
10
78.399261
20
3.174997
30
0
11
80.100739
21
3.175003
31
0
39
0
210
0
220
0
230
1
0
LINE
5
15A
100
AcDbEntity
8
2
62
256
6
ByLayer
370
25
48
1
60
0
100
AcDbLine
10
79.25
20
45
30
0
11
80.100739
21
41.825003
31
0
39
0
210
0
220
0
230
1
0
LINE
5
15B
100
AcDbEntity
8
2
62
256
6
ByLayer
370
25
48
1
60
0
100
AcDbLine
10
79.25
20
45
30
0
11
78.399261
21
41.824997
31
0
39
0
210
0
220
0
230
1
0
LINE
5
15C
100
AcDbEntity
8
2
62
256
6
ByLayer
370
25
48
1
60
0
100
AcDbLine
10
80.100739
20
41.825003
30
0
11
78.399261
21
41.824997
31
0
39
0
210
0
220
0
230
1
0
MTEXT
5
15D
100
AcDbEntity
8
2
62
256
6
ByLayer
370
13
48
1
60
0
100
AcDbMText
10
78.125
20
20.7
30
0
210
0
220
0
230
1
1
\W0.7361;45
40
4.5
41
0
44
1.084337
50
90
71
7
72
5
7
iso_b_vert
0
ENDBLK
5
152
100
AcDbEntity
8
0
100
AcDbBlockEnd
0
BLOCK
5
16B
100
AcDbEntity
8
0
100
AcDbBlockBegin
2
DimnDraft3D2
70
0
10
0
20
0
30
0
3
DimnDraft3D2
0
MTEXT
5
160
100
AcDbEntity
8
SK2
62
256
6
ByLayer
370
13
48
1
60
0
100
AcDbMText
10
-48.875
20
-1.563158
30
0
210
0
220
0
230
1
1
\W0.6740;63
40
4.5
41
0
44
1.084337
50
90
71
7
72
5
7
iso_b_vert
0
LINE
5
162
100
AcDbEntity
8
SK2
62
256
6
ByLayer
370
13
48
1
60
0
100
AcDbLine
10
-1.5875
20
31.5
30
0
11
-50.925
21
31.5
31
0
39
0
210
0
220
0
230
1
0
LINE
5
163
100
AcDbEntity
8
SK2
62
256
6
ByLayer
370
13
48
1
60
0
100
AcDbLine
10
-1.5875
20
-31.5
30
0
11
-50.925
21
-31.5
31
0
39
0
210
0
220
0
230
1
0
LINE
5
164
100
AcDbEntity
8
SK2
62
256
6
ByLayer
370
13
48
1
60
0
100
AcDbLine
10
-47.75
20
31.5
30
0
11
-47.75
21
-31.5
31
0
39
0
210
0
220
0
230
1
0
LINE
5
165
100
AcDbEntity
8
SK2
62
256
6
ByLayer
370
13
48
1
60
0
100
AcDbLine
10
-47.75
20
31.5
30
0
11
-46.899261
21
28.325003
31
0
39
0
210
0
220
0
230
1
0
LINE
5
166
100
AcDbEntity
8
SK2
62
256
6
ByLayer
370
13
48
1
60
0
100
AcDbLine
10
-47.75
20
31.5
30
0
11
-48.600739
21
28.324997
31
0
39
0
210
0
220
0
230
1
0
LINE
5
167
100
AcDbEntity
8
SK2
62
256
6
ByLayer
370
13
48
1
60
0
100
AcDbLine
10
-46.899261
20
28.325003
30
0
11
-48.600739
21
28.324997
31
0
39
0
210
0
220
0
230
1
0
LINE
5
168
100
AcDbEntity
8
SK2
62
256
6
ByLayer
370
13
48
1
60
0
100
AcDbLine
10
-47.75
20
-31.5
30
0
11
-48.600739
21
-28.325003
31
0
39
0
210
0
220
0
230
1
0
LINE
5
169
100
AcDbEntity
8
SK2
62
256
6
ByLayer
370
13
48
1
60
0
100
AcDbLine
10
-47.75
20
-31.5
30
0
11
-46.899261
21
-28.324997
31
0
39
0
210
0
220
0
230
1
0
LINE
5
16A
100
AcDbEntity
8
SK2
62
256
6
ByLayer
370
13
48
1
60
0
100
AcDbLine
10
-48.600739
20
-28.325003
30
0
11
-46.899261
21
-28.324997
31
0
39
0
210
0
220
0
230
1
0
ENDBLK
5
16C
100
AcDbEntity
8
0
100
AcDbBlockEnd
0
BLOCK
5
16F
100
AcDbEntity
8
0
100
AcDbBlockBegin
2
_CLOSED
70
0
10
0
20
0
30
0
3
_CLOSED
0
LINE
5
171
100
AcDbEntity
8
0
62
256
6
ByLayer
370
-2
48
1
60
0
100
AcDbLine
10
-1
20
0.166667
30
0
11
0
21
0
31
0
39
0
210
0
220
0
230
1
0
LINE
5
172
100
AcDbEntity
8
0
62
256
6
ByLayer
370
-2
48
1
60
0
100
AcDbLine
10
0
20
0
30
0
11
-1
21
-0.166667
31
0
39
0
210
0
220
0
230
1
0
LINE
5
173
100
AcDbEntity
8
0
62
256
6
ByLayer
370
-2
48
1
60
0
100
AcDbLine
10
-1
20
0.166667
30
0
11
-1
21
-0.166667
31
0
39
0
210
0
220
0
230
1
0
LINE
5
174
100
AcDbEntity
8
0
62
256
6
ByLayer
370
-2
48
1
60
0
100
AcDbLine
10
0
20
0
30
0
11
-1
21
0
31
0
39
0
210
0
220
0
230
1
0
ENDBLK
5
170
100
AcDbEntity
8
0
100
AcDbBlockEnd
0
BLOCK
5
180
100
AcDbEntity
8
0
100
AcDbBlockBegin
2
DimnDraft3D3
70
0
10
0
20
0
30
0
3
DimnDraft3D3
0
MTEXT
5
176
100
AcDbEntity
8
2
62
256
6
ByLayer
370
13
48
1
60
0
100
AcDbMText
10
30.936842
20
63.625
30
0
210
0
220
0
230
1
1
\W0.6740;65
40
4.5
41
0
44
1.084337
50
0
71
7
72
5
7
iso_b_vert
0
LINE
5
177
100
AcDbEntity
8
2
62
256
6
ByLayer
370
13
48
1
60
0
100
AcDbLine
10
65
20
46.5875
30
0
11
65
21
65.675
31
0
39
0
210
0
220
0
230
1
0
LINE
5
178
100
AcDbEntity
8
2
62
256
6
ByLayer
370
13
48
1
60
0
100
AcDbLine
10
0
20
33.0875
30
0
11
0
21
65.675
31
0
39
0
210
0
220
0
230
1
0
LINE
5
179
100
AcDbEntity
8
2
62
256
6
ByLayer
370
13
48
1
60
0
100
AcDbLine
10
65
20
62.5
30
0
11
0
21
62.5
31
0
39
0
210
0
220
0
230
1
0
LINE
5
17A
100
AcDbEntity
8
2
62
256
6
ByLayer
370
13
48
1
60
0
100
AcDbLine
10
65
20
62.5
30
0
11
61.825003
21
61.649261
31
0
39
0
210
0
220
0
230
1
0
LINE
5
17B
100
AcDbEntity
8
2
62
256
6
ByLayer
370
13
48
1
60
0
100
AcDbLine
10
65
20
62.5
30
0
11
61.824997
21
63.350739
31
0
39
0
210
0
220
0
230
1
0
LINE
5
17C
100
AcDbEntity
8
2
62
256
6
ByLayer
370
13
48
1
60
0
100
AcDbLine
10
61.825003
20
61.649261
30
0
11
61.824997
21
63.350739
31
0
39
0
210
0
220
0
230
1
0
LINE
5
17D
100
AcDbEntity
8
2
62
256
6
ByLayer
370
13
48
1
60
0
100
AcDbLine
10
0
20
62.5
30
0
11
3.174997
21
63.350739
31
0
39
0
210
0
220
0
230
1
0
LINE
5
17E
100
AcDbEntity
8
2
62
256
6
ByLayer
370
13
48
1
60
0
100
AcDbLine
10
0
20
62.5
30
0
11
3.175003
21
61.649261
31
0
39
0
210
0
220
0
230
1
0
LINE
5
17F
100
AcDbEntity
8
2
62
256
6
ByLayer
370
13
48
1
60
0
100
AcDbLine
10
3.174997
20
63.350739
30
0
11
3.175003
21
61.649261
31
0
39
0
210
0
220
0
230
1
0
ENDBLK
5
181
100
AcDbEntity
8
0
100
AcDbBlockEnd
0
BLOCK
5
18D
100
AcDbEntity
8
0
100
AcDbBlockBegin
2
DimnDraft3D4
70
0
10
0
20
0
30
0
3
DimnDraft3D4
0
MTEXT
5
184
100
AcDbEntity
8
2
62
256
6
ByLayer
370
13
48
1
60
0
100
AcDbMText
10
51.396017
20
50.414082
30
0
210
0
220
0
230
1
1
\W0.8292;93%%d0'
40
4.5
41
0
44
1.084337
50
46.5000000000001
71
7
72
5
7
iso_b_vert
0
LINE
5
185
100
AcDbEntity
8
2
62
256
6
ByLayer
370
13
48
1
60
0
100
AcDbLine
10
65
20
46.5875
30
0
11
65
21
60.658093
31
0
39
0
210
0
220
0
230
1
0
ARC
5
186
100
AcDbEntity
8
2
62
256
6
ByLayer
370
13
48
1
60
0
100
AcDbCircle
39
0
10
65
20
45.042688
30
0
40
12.440404684557
210
0
220
0
230
1
100
AcDbArc
50
90
51
183
0
LINE
5
187
100
AcDbEntity
8
2
62
256
6
ByLayer
370
13
48
1
60
0
100
AcDbLine
10
65
20
57.483093
30
0
11
61.885347
21
56.432713
31
0
39
0
210
0
220
0
230
1
0
LINE
5
188
100
AcDbEntity
8
2
62
256
6
ByLayer
370
13
48
1
60
0
100
AcDbLine
10
65
20
57.483093
30
0
11
61.777435
21
58.130764
31
0
39
0
210
0
220
0
230
1
0
LINE
5
189
100
AcDbEntity
8
2
62
256
6
ByLayer
370
13
48
1
60
0
100
AcDbLine
10
61.885347
20
56.432713
30
0
11
61.777435
21
58.130764
31
0
39
0
210
0
220
0
230
1
0
LINE
5
18A
100
AcDbEntity
8
2
62
256
6
ByLayer
370
13
48
1
60
0
100
AcDbLine
10
52.576644
20
44.391607
30
0
11
51.761204
21
47.575853
31
0
39
0
210
0
220
0
230
1
0
LINE
5
18B
100
AcDbEntity
8
2
62
256
6
ByLayer
370
13
48
1
60
0
100
AcDbLine
10
52.576644
20
44.391607
30
0
11
53.462577
21
47.556971
31
0
39
0
210
0
220
0
230
1
0
LINE
5
18C
100
AcDbEntity
8
2
62
256
6
ByLayer
370
13
48
1
60
0
100
AcDbLine
10
51.761204
20
47.575853
30
0
11
53.462577
21
47.556971
31
0
39
0
210
0
220
0
230
1
0
ENDBLK
5
18E
100
AcDbEntity
8
0
100
AcDbBlockEnd
0
ENDSEC
0
SECTION
2
ENTITIES
0
ARC
5
D4
100
AcDbEntity
8
1
62
256
6
ByLayer
370
18
48
1
60
0
100
AcDbCircle
39
0
10
-22.186138
20
32.3
30
0
40
0.8
210
0
220
0
230
-1
100
AcDbArc
50
195
51
270
0
ARC
5
D5
100
AcDbEntity
8
SK1
62
256
6
ByLayer
370
18
48
1
60
0
100
AcDbCircle
39
0
10
0.6
20
-23.45
30
0
40
0.999999999999999
210
0
220
0
230
-1
100
AcDbArc
50
113.578178
51
126.869898
0
ARC
5
D6
100
AcDbEntity
8
SK1
62
256
6
ByLayer
370
18
48
1
60
0
100
AcDbCircle
39
0
10
0.6
20
23.45
30
0
40
0.999999999999999
210
0
220
0
230
-1
100
AcDbArc
50
233.130102
51
246.421822
0
ARC
5
D7
100
AcDbEntity
8
1
62
256
6
ByLayer
370
18
48
1
60
0
100
AcDbCircle
39
0
10
15.014029
20
1.061158
30
0
40
4
210
0
220
0
230
1
100
AcDbArc
50
339.960344
51
348.141451
0
ELLIPSE
5
D8
100
AcDbEntity
8
1
62
256
6
ByLayer
370
18
48
1
60
0
100
AcDbEllipse
10
19.218509
20
2.192048
30
0
11
0.0223533399804714
21
5.69994510067595
31
0
210
0
220
0
230
-1
40
0.085306
41
1.91366193916508
42
-2.94866980450471
0
ELLIPSE
5
D9
100
AcDbEntity
8
1
62
256
6
ByLayer
370
18
48
1
60
0
100
AcDbEllipse
10
19.218509
20
2.192048
30
0
11
0.0223533399804714
21
5.69994510067595
31
0
210
0
220
0
230
-1
40
0.085306
41
-2.23029868017729
42
1.17528071709743
0
ELLIPSE
5
DA
100
AcDbEntity
8
1
62
256
6
ByLayer
370
18
48
1
60
0
100
AcDbEllipse
10
26.347154
20
0
30
0
11
14.7536831606552
21
-31.0932549155798
31
0
210
0
220
0
230
-1
40
0.341999
41
2.05035306783694
42
2.98378646694436
0
ELLIPSE
5
DB
100
AcDbEntity
8
1
62
256
6
ByLayer
370
18
48
1
60
0
100
AcDbEllipse
10
48.468
20
30.784732
30
0
11
0.0958602922535448
21
0.155667897647247
31
0
210
0
220
0
230
-1
40
0.022144
41
3.01106452655726
42
-1.68968892548098
0
ELLIPSE
5
DC
100
AcDbEntity
8
1
62
256
6
ByLayer
370
18
48
1
60
0
100
AcDbEllipse
10
45.106063
20
29.734127
30
0
11
-1.75510285115541
21
1.80142297580612
31
0
210
0
220
0
230
1
40
0.987534
41
1.3769898826227
42
-2.89546307831325
0
ELLIPSE
5
DD
100
AcDbEntity
8
1
62
256
6
ByLayer
370
18
48
1
60
0
100
AcDbEllipse
10
47.225374
20
34.593308
30
0
11
-1.81437945872583
21
1.86226399303476
31
0
210
0
220
0
230
1
40
0.987534
41
0.246129575276548
42
0.587467347475969
0
ELLIPSE
5
DE
100
AcDbEntity
8
1
62
256
6
ByLayer
370
18
48
1
60
0
100
AcDbEllipse
10
-2.347154
20
0
30
0
11
14.7536831606575
21
31.0932549155827
31
0
210
0
220
0
230
-1
40
0.341999
41
0.157806186645427
42
1.09123958575279
0
ELLIPSE
5
DF
100
AcDbEntity
8
1
62
256
6
ByLayer
370
18
48
1
60
0
100
AcDbEllipse
10
26.347154
20
0
30
0
11
14.7536831606549
21
31.0932549155794
31
0
210
0
220
0
230
-1
40
0.341999
41
-2.98378646694436
42
-2.05035306783693
0
ELLIPSE
5
E0
100
AcDbEntity
8
1
62
256
6
ByLayer
370
18
48
1
60
0
100
AcDbEllipse
10
24.810988
20
64.854061
30
0
11
0.459413454325136
21
-36.6485921670719
31
0
210
-1.02679449398147E-15
220
-4.70874502443272E-16
230
1
40
0.109136
41
-0.351466565640158
42
-0.114361208820265
0
ELLIPSE
5
E1
100
AcDbEntity
8
1
62
256
6
ByLayer
370
18
48
1
60
0
100
AcDbEllipse
10
-2.347154
20
0
30
0
11
14.7536831606574
21
-31.0932549155826
31
0
210
0
220
0
230
-1
40
0.341999
41
-1.09123958575279
42
-0.157806186645427
0
ELLIPSE
5
E2
100
AcDbEntity
8
1
62
256
6
ByLayer
370
18
48
1
60
0
100
AcDbEllipse
10
44.51843
20
30.238215
30
0
11
1.6853190258198
21
-1.72979743761247
31
0
210
0
220
0
230
1
40
0.987534
41
-2.89546307831325
42
-1.45178563078505
0
ELLIPSE
5
E3
100
AcDbEntity
8
1
62
256
6
ByLayer
370
18
48
1
60
0
100
AcDbEllipse
10
20.724932
20
0
30
0
11
-1.92875500727024E-15
21
31.5
31
0
210
0
220
0
230
-1
40
0.087489
41
-2.67285521742454
42
-0.311401384074084
0
ELLIPSE
5
E4
100
AcDbEntity
8
1
62
256
6
ByLayer
370
18
48
1
60
0
100
AcDbEllipse
10
48.846793
20
37.242004
30
0
11
-1.81437945872583
21
1.86226399303475
31
0
210
0
220
0
230
1
40
0.987534
41
-0.0952081969228641
42
0.246129575276554
0
ELLIPSE
5
E5
100
AcDbEntity
8
1
62
256
6
ByLayer
370
18
48
1
60
0
100
AcDbEllipse
10
52.621737
20
36.812215
30
0
11
-1.93650115306315
21
1.98760868487364
31
0
210
0
220
0
230
1
40
0.987534
41
-2.67922848645965
42
-2.48304033611245
0
ELLIPSE
5
E6
100
AcDbEntity
8
1
62
256
6
ByLayer
370
18
48
1
60
0
100
AcDbEllipse
10
52.621737
20
36.812215
30
0
11
-1.93650115306315
21
1.98760868487364
31
0
210
0
220
0
230
1
40
0.987534
41
-0.707340581141727
42
-0.462334480131079
0
ELLIPSE
5
E7
100
AcDbEntity
8
1
62
256
6
ByLayer
370
18
48
1
60
0
100
AcDbEllipse
10
53.695541
20
38.47249
30
0
11
1.81437945872583
21
-1.86226399303476
31
0
210
0
220
0
230
1
40
0.987534
41
-1.48905042231244
42
0.358197683290157
0
ELLIPSE
5
E8
100
AcDbEntity
8
1
62
256
6
ByLayer
370
18
48
1
60
0
100
AcDbEllipse
10
53.768908
20
37.929889
30
0
11
1.63991989538681
21
-1.68320014755065
31
0
210
0
220
0
230
1
40
0.987534
41
-2.58487766018384
42
-2.34663043062028
0
ELLIPSE
5
E9
100
AcDbEntity
8
1
62
256
6
ByLayer
370
18
48
1
60
0
100
AcDbEllipse
10
53.109271
20
37.901295
30
0
11
-1.81437945872583
21
1.86226399303476
31
0
210
0
220
0
230
1
40
0.987534
41
2.84347804410179
42
3.14158514802224
0
ELLIPSE
5
EA
100
AcDbEntity
8
1
62
256
6
ByLayer
370
18
48
1
60
0
100
AcDbEllipse
10
52.415979
20
36.611748
30
0
11
1.98883902206485
21
-2.04132783851887
31
0
210
0
220
0
230
1
40
0.987534
41
2.52891192301876
42
2.61093886523932
0
ELLIPSE
5
EB
100
AcDbEntity
8
1
62
256
6
ByLayer
370
18
48
1
60
0
100
AcDbEllipse
10
52.415979
20
36.611748
30
0
11
1.98883902206485
21
-2.04132783851887
31
0
210
0
220
0
230
1
40
0.987534
41
0.5306733813061
42
0.644797593459325
0
ELLIPSE
5
EC
100
AcDbEntity
8
1
62
256
6
ByLayer
370
18
48
1
60
0
100
AcDbEllipse
10
52.415979
20
36.611748
30
0
11
2.07012279951076
21
-2.12475683195648
31
0
210
0
220
0
230
1
40
0.987534
41
2.36274421319848
42
2.38554986737487
0
ELLIPSE
5
ED
100
AcDbEntity
8
1
62
256
6
ByLayer
370
18
48
1
60
0
100
AcDbEllipse
10
38.24575
20
35.798509
30
0
11
1.08513848396872
21
-1.11377711891117
31
0
210
0
220
0
230
1
40
0.987534
41
0.166063775877551
42
0.804690822844404
0
ELLIPSE
5
EE
100
AcDbEntity
8
1
62
256
6
ByLayer
370
18
48
1
60
0
100
AcDbEllipse
10
38.24575
20
35.798509
30
0
11
1.08513848396872
21
-1.11377711891117
31
0
210
0
220
0
230
1
40
0.987534
41
0.804690175893227
42
2.8938495261287
0
ELLIPSE
5
EF
100
AcDbEntity
8
1
62
256
6
ByLayer
370
18
48
1
60
0
100
AcDbEllipse
10
38.358494
20
35.908354
30
0
11
-1.08513848396872
21
1.11377711891117
31
0
210
0
220
0
230
1
40
0.987534
41
-0.422459640635456
42
-0.212803999713354
0
ELLIPSE
5
F0
100
AcDbEntity
8
1
62
256
6
ByLayer
370
18
48
1
60
0
100
AcDbEllipse
10
38.358494
20
35.908354
30
0
11
-1.08513848396872
21
1.11377711891117
31
0
210
0
220
0
230
1
40
0.987534
41
-3.05435612323204
42
-2.95991214823885
0
ELLIPSE
5
F1
100
AcDbEntity
8
1
62
256
6
ByLayer
370
18
48
1
60
0
100
AcDbEllipse
10
18.433972
20
1.981029
30
0
11
0.476701332565738
21
-1.7723036810321
31
0
210
0
220
0
230
1
40
0.084186
41
0.164441546650817
42
1.23062044216836
0
ELLIPSE
5
F2
100
AcDbEntity
8
1
62
256
6
ByLayer
370
18
48
1
60
0
100
AcDbEllipse
10
18.768
20
2.070874
30
0
11
0.450259565784291
21
-1.67399717882974
31
0
210
0
220
0
230
1
40
0.084186
41
0
42
1.94140628666741
0
ELLIPSE
5
F3
100
AcDbEntity
8
1
62
256
6
ByLayer
370
18
48
1
60
0
100
AcDbEllipse
10
19.212177
20
2.190345
30
0
11
-0.519482221385738
21
1.9313565754837
31
0
210
0
220
0
230
1
40
0.084186
41
3.09280198343605
42
-0.306304359482428
0
ELLIPSE
5
F4
100
AcDbEntity
8
1
62
256
6
ByLayer
370
18
48
1
60
0
100
AcDbEllipse
10
22.003911
20
2.941246
30
0
11
0.519482221385737
21
-1.9313565754837
31
0
210
0
220
0
230
1
40
0.084186
41
0
42
3.14159216320591
0
ELLIPSE
5
F5
100
AcDbEntity
8
1
62
256
6
ByLayer
370
18
48
1
60
0
100
AcDbEllipse
10
22.196361
20
2.993009
30
0
11
-0.467533999247164
21
1.73822091793533
31
0
210
0
220
0
230
1
40
0.084186
41
-3.05706413675318
42
-0.0846243017047752
0
ELLIPSE
5
F6
100
AcDbEntity
8
1
62
256
6
ByLayer
370
18
48
1
60
0
100
AcDbEllipse
10
43.044645
20
31.374112
30
0
11
0.553909113601395
21
-0.568527709412054
31
0
210
0
220
0
230
1
40
0.987534
41
-2.05627389022535
42
-0.71380151332034
0
ELLIPSE
5
F7
100
AcDbEntity
8
1
62
256
6
ByLayer
370
18
48
1
60
0
100
AcDbEllipse
10
53.270015
20
37.443824
30
0
11
-1.799027017152
21
1.84650637463216
31
0
210
0
220
0
230
1
40
0.987534
41
-2.94391696274905
42
-2.5400260034385
0
ELLIPSE
5
F8
100
AcDbEntity
8
1
62
256
6
ByLayer
370
18
48
1
60
0
100
AcDbEllipse
10
53.270015
20
37.443824
30
0
11
-1.799027017152
21
1.84650637463216
31
0
210
0
220
0
230
1
40
0.987534
41
-0.938697240715158
42
-0.19767426918564
0
ELLIPSE
5
F9
100
AcDbEntity
8
1
62
256
6
ByLayer
370
18
48
1
60
0
100
AcDbEllipse
10
56.992896
20
33.66881
30
0
11
0.837405904027306
21
-0.859506458323734
31
0
210
0
220
0
230
1
40
0.987534
41
-0.233835969021885
42
4.61459187098433E-06
0
ELLIPSE
5
FA
100
AcDbEntity
8
1
62
256
6
ByLayer
370
18
48
1
60
0
100
AcDbEllipse
10
52.404823
20
43.187691
30
0
11
-0.837405904027306
21
0.859506458323735
31
0
210
0
220
0
230
1
40
0.987534
41
-0.713801513320342
42
-0.233835969021891
0
ELLIPSE
5
FB
100
AcDbEntity
8
1
62
256
6
ByLayer
370
18
48
1
60
0
100
AcDbEllipse
10
50.26306
20
41.916355
30
0
11
-0.837405904027306
21
0.859506458323735
31
0
210
0
220
0
230
1
40
0.987534
41
-0.233835969021891
42
0.246129575276545
0
ELLIPSE
5
FC
100
AcDbEntity
8
1
62
256
6
ByLayer
370
18
48
1
60
0
100
AcDbEllipse
10
55.567058
20
33.09499
30
0
11
-0.837405904027306
21
0.859506458323735
31
0
210
0
220
0
230
1
40
0.987534
41
2.42779114026947
42
2.90775668456791
0
ELLIPSE
5
FD
100
AcDbEntity
8
1
62
256
6
ByLayer
370
18
48
1
60
0
100
AcDbEllipse
10
64.211311
20
44.211053
30
0
11
-0.553909113601395
21
0.568527709412054
31
0
210
0
220
0
230
1
40
0.987534
41
-2.89546307831324
42
-0.713801513320353
0
ELLIPSE
5
FE
100
AcDbEntity
8
1
62
256
6
ByLayer
370
18
48
1
60
0
100
AcDbEllipse
10
57.70882
20
34.366326
30
0
11
-0.837405904027306
21
0.859506458323735
31
0
210
0
220
0
230
1
40
0.987534
41
2.90775668456791
42
-2.89546307831322
0
ELLIPSE
5
FF
100
AcDbEntity
8
1
62
256
6
ByLayer
370
18
48
1
60
0
100
AcDbEllipse
10
43.76057
20
32.071628
30
0
11
-0.553909113601395
21
0.568527709412054
31
0
210
0
220
0
230
1
40
0.987534
41
0.246129575276539
42
2.42779114026947
0
ELLIPSE
5
100
100
AcDbEntity
8
1
62
256
6
ByLayer
370
18
48
1
60
0
100
AcDbEllipse
10
53.98594
20
38.141341
30
0
11
-1.799027017152
21
1.84650637463216
31
0
210
0
220
0
230
1
40
0.987534
41
0
42
6.28318530717959
0
ELLIPSE
5
101
100
AcDbEntity
8
1
62
256
6
ByLayer
370
18
48
1
60
0
100
AcDbEllipse
10
53.876098
20
37.420242
30
0
11
-1.605027982719
21
1.64738737845383
31
0
210
0
220
0
230
1
40
0.987534
41
-1.63313016874078
42
0.345153482259659
0
ELLIPSE
5
102
100
AcDbEntity
8
1
62
256
6
ByLayer
370
18
48
1
60
0
100
AcDbEllipse
10
53.729364
20
38.505443
30
0
11
-1.605027982719
21
1.64738737845383
31
0
210
0
220
0
230
1
40
0.987534
41
1.50846248484901
42
-2.79643917133013
0
ELLIPSE
5
103
100
AcDbEntity
8
1
62
256
6
ByLayer
370
18
48
1
60
0
100
AcDbEllipse
10
53.768908
20
37.929889
30
0
11
1.63991989538681
21
-1.68320014755065
31
0
210
0
220
0
230
1
40
0.987534
41
0.556714993405947
42
1.29690097370272
0
ELLIPSE
5
104
100
AcDbEntity
8
1
62
256
6
ByLayer
370
18
48
1
60
0
100
AcDbEllipse
10
53.802731
20
37.962842
30
0
11
-1.43056841937998
21
1.46832353296971
31
0
210
0
220
0
230
1
40
0.987534
41
0.571248083191581
42
1.2823678839171
0
ELLIPSE
5
105
100
AcDbEntity
8
1
62
256
6
ByLayer
370
18
48
1
60
0
100
AcDbEllipse
10
53.802731
20
37.962842
30
0
11
-1.43056841937998
21
1.46832353296971
31
0
210
0
220
0
230
1
40
0.987534
41
-2.57034457039822
42
-1.85922476967269
0
ELLIPSE
5
106
100
AcDbEntity
8
1
62
256
6
ByLayer
370
18
48
1
60
0
100
AcDbEllipse
10
53.842275
20
37.387288
30
0
11
1.81437945872583
21
-1.86226399303476
31
0
210
0
220
0
230
1
40
0.987534
41
1.49541828381852
42
-2.78339497029964
0
ELLIPSE
5
107
100
AcDbEntity
8
1
62
256
6
ByLayer
370
18
48
1
60
0
100
AcDbEllipse
10
38.785231
20
36.324117
30
0
11
-1.08513848396872
21
1.11377711891117
31
0
210
0
220
0
230
1
40
0.987534
41
-2.95991214823885
42
-2.51685474302867
0
ELLIPSE
5
108
100
AcDbEntity
8
1
62
256
6
ByLayer
370
18
48
1
60
0
100
AcDbEllipse
10
38.785231
20
36.324117
30
0
11
-1.08513848396872
21
1.11377711891117
31
0
210
0
220
0
230
1
40
0.987534
41
1.22887805654755
42
1.67193546175773
0
ELLIPSE
5
109
100
AcDbEntity
8
1
62
256
6
ByLayer
370
18
48
1
60
0
100
AcDbEllipse
10
38.358494
20
35.908354
30
0
11
-1.08513848396872
21
1.11377711891117
31
0
210
0
220
0
230
1
40
0.987534
41
-2.51685474302867
42
-1.91271459704225
0
ELLIPSE
5
10A
100
AcDbEntity
8
1
62
256
6
ByLayer
370
18
48
1
60
0
100
AcDbEllipse
10
38.809471
20
36.347734
30
0
11
2.25750674960695
21
-2.3170861605644
31
0
210
0
220
0
230
1
40
0.987534
41
0
42
6.28318530717959
0
ELLIPSE
5
10B
100
AcDbEntity
8
1
62
256
6
ByLayer
370
18
48
1
60
0
100
AcDbEllipse
10
38.785231
20
36.324117
30
0
11
-1.08513848396872
21
1.11377711891117
31
0
210
0
220
0
230
1
40
0.987534
41
2.27607560774414
42
2.71913301295432
0
ELLIPSE
5
10C
100
AcDbEntity
8
1
62
256
6
ByLayer
370
18
48
1
60
0
100
AcDbEllipse
10
38.809471
20
36.347734
30
0
11
1.34500711567846
21
-1.38050412214352
31
0
210
0
220
0
230
1
40
0.987534
41
0
42
6.28318530717959
0
ELLIPSE
5
10D
100
AcDbEntity
8
1
62
256
6
ByLayer
370
18
48
1
60
0
100
AcDbEllipse
10
38.785231
20
36.324117
30
0
11
-1.08513848396872
21
1.11377711891117
31
0
210
0
220
0
230
1
40
0.987534
41
-0.865517045845669
42
-0.422459640635456
0
ELLIPSE
5
10E
100
AcDbEntity
8
1
62
256
6
ByLayer
370
18
48
1
60
0
100
AcDbEllipse
10
38.723222
20
36.263703
30
0
11
2.79135301342436
21
-2.86502152774578
31
0
210
0
220
0
230
1
40
0.987534
41
0
42
6.28318530717959
0
ELLIPSE
5
10F
100
AcDbEntity
8
1
62
256
6
ByLayer
370
18
48
1
60
0
100
AcDbEllipse
10
38.358494
20
35.908354
30
0
11
-1.08513848396872
21
1.11377711891117
31
0
210
0
220
0
230
1
40
0.987534
41
-1.46965719183206
42
-0.865517045845663
0
ELLIPSE
5
110
100
AcDbEntity
8
1
62
256
6
ByLayer
370
18
48
1
60
0
100
AcDbEllipse
10
38.785231
20
36.324117
30
0
11
-1.08513848396872
21
1.11377711891117
31
0
210
0
220
0
230
1
40
0.987534
41
-1.91271459704225
42
-1.46965719183206
0
ELLIPSE
5
111
100
AcDbEntity
8
1
62
256
6
ByLayer
370
18
48
1
60
0
100
AcDbEllipse
10
38.785231
20
36.324117
30
0
11
-1.08513848396872
21
1.11377711891117
31
0
210
0
220
0
230
1
40
0.987534
41
0.181680505350945
42
0.624737910561136
0
POINT
5
6C
100
AcDbEntity
8
80
62
256
6
ByLayer
370
18
48
1
60
0
100
AcDbPoint
10
0
20
0
30
0
39
0
210
0
220
0
230
1
50
360
0
POINT
5
6E
100
AcDbEntity
8
81
62
256
6
ByLayer
370
18
48
1
60
0
100
AcDbPoint
10
65
20
45
30
0
39
0
210
0
220
0
230
1
50
360
0
POINT
5
70
100
AcDbEntity
8
1
62
256
6
ByLayer
370
18
48
1
60
0
100
AcDbPoint
10
0
20
0
30
0
39
0
210
0
220
0
230
1
50
360
0
SPLINE
5
112
100
AcDbEntity
8
1
62
256
6
ByLayer
370
18
48
1
60
0
100
AcDbSpline
70
4
71
3
72
9
73
5
40
0
40
0
40
0
40
0
40
0.739181483025911
40
1
40
1
40
1
40
1
41
1
10
54.985475641763
20
36.0972007786383
30
0
41
1
10
54.9135968518422
20
36.0195372433559
30
0
41
1
10
54.8091314476058
20
35.9218788640545
30
0
41
1
10
54.6900705292516
20
35.8436820031605
30
0
41
1
10
54.6582458263615
20
35.824177201022
30
0
0
SPLINE
5
113
100
AcDbEntity
8
1
62
256
6
ByLayer
370
18
48
1
60
0
100
AcDbSpline
70
4
71
3
72
10
73
6
40
0
40
0
40
0
40
0
40
0.0718731223587196
40
0.507349420420125
40
1
40
1
40
1
40
1
41
1
10
18.9639141768307
20
0.310638245694093
30
0
41
1
10
18.9655367939613
20
0.313787171516452
30
0
41
1
10
18.9786094019518
20
0.33570960389099
30
0
41
1
10
19.0440612340786
20
0.389006529395914
30
0
41
1
10
19.1090921274673
20
0.402883780908724
30
0
41
1
10
19.1504948548945
20
0.404965947343953
30
0
0
SPLINE
5
114
100
AcDbEntity
8
SK1
62
256
6
ByLayer
370
18
48
1
60
0
100
AcDbSpline
70
4
71
2
72
6
73
3
40
0
40
0
40
0
40
1
40
1
40
1
41
1
10
-36.5
20
-21.1521177089669
30
0
41
1
10
-19.34999999997
20
-21.5828554470541
30
0
41
1
10
-2.19999999999999
20
-22.0135928951589
30
0
0
SPLINE
5
115
100
AcDbEntity
8
SK1
62
256
6
ByLayer
370
18
48
1
60
0
100
AcDbSpline
70
4
71
2
72
6
73
3
40
0
40
0
40
0
40
1
40
1
40
1
41
1
10
-2.19999999999999
20
22.0135927638551
30
0
41
1
10
-19.3499999999869
20
21.5828539542124
30
0
41
1
10
-36.5
20
21.1521149580209
30
0
0
SPLINE
5
116
100
AcDbEntity
8
SK1
62
256
6
ByLayer
370
18
48
1
60
0
100
AcDbSpline
70
4
71
3
72
13
73
9
40
0
40
0
40
0
40
0
40
0.239456135763074
40
0.368359721933076
40
0.499998984020609
40
0.631638415283335
40
0.760542467777863
40
1
40
1
40
1
40
1
41
1
10
-2.19999999999999
20
-22.0200986606755
30
0
41
1
10
-2.1990919864227
20
-21.9940411845604
30
0
41
1
10
-2.19103284106944
20
-21.9566686002239
30
0
41
1
10
-2.16563592203346
20
-21.910449426386
30
0
41
1
10
-2.13886378679268
20
-21.8791678725254
30
0
41
1
10
-2.10627712749877
20
-21.854000502323
30
0
41
1
10
-2.05884064234084
20
-21.8309566998545
30
0
41
1
10
-2.02111030873027
20
-21.8247844448325
30
0
41
1
10
-1.99503997793926
20
-21.825186084775
30
0
0
SPLINE
5
117
100
AcDbEntity
8
SK1
62
256
6
ByLayer
370
18
48
1
60
0
100
AcDbSpline
70
4
71
3
72
13
73
9
40
0
40
0
40
0
40
0
40
0.239457532153299
40
0.368361584623582
40
0.500001015876671
40
0.631640277971779
40
0.760543864164922
40
1
40
1
40
1
40
1
41
1
10
-1.99503997793928
20
21.8251861015554
30
0
41
1
10
-2.02111030873169
20
21.8247844616134
30
0
41
1
10
-2.05884064234348
20
21.8309567166392
30
0
41
1
10
-2.10627712750087
20
21.8540005191231
30
0
41
1
10
-2.13886378679464
20
21.8791678893423
30
0
41
1
10
-2.16563592203497
20
21.9104494432233
30
0
41
1
10
-2.19103284107058
20
21.956668617092
30
0
41
1
10
-2.19909198642384
20
21.994041201451
30
0
41
1
10
-2.19999999999999
20
22.0200986775813
30
0
0
SPLINE
5
118
100
AcDbEntity
8
SK1
62
256
6
ByLayer
370
18
48
1
60
0
100
AcDbSpline
70
4
71
2
72
6
73
3
40
0
40
0
40
0
40
1
40
1
40
1
41
1
10
-1.99503997793926
20
-21.8251812553753
30
0
41
1
10
-1.19500843340725
20
-21.8452807024746
30
0
41
1
10
-0.394976888875249
20
-21.8653801495793
30
0
0
SPLINE
5
119
100
AcDbEntity
8
SK1
62
256
6
ByLayer
370
18
48
1
60
0
100
AcDbSpline
70
4
71
2
72
6
73
3
40
0
40
0
40
0
40
1
40
1
40
1
41
1
10
-0.394976888875277
20
21.8653802062992
30
0
41
1
10
-1.19500843340728
20
21.8452807593863
30
0
41
1
10
-1.99503997793928
20
21.8251813124779
30
0
0
SPLINE
5
11A
100
AcDbEntity
8
SK1
62
256
6
ByLayer
370
18
48
1
60
0
100
AcDbSpline
70
4
71
2
72
6
73
3
40
0
40
0
40
0
40
1
40
1
40
1
41
1
10
-38
20
-20.2894052255531
30
0
41
1
10
-37.2500000000012
20
-20.7223540793632
30
0
41
1
10
-36.5
20
-21.1553029418638
30
0
0
SPLINE
5
11B
100
AcDbEntity
8
SK1
62
256
6
ByLayer
370
18
48
1
60
0
100
AcDbSpline
70
4
71
2
72
6
73
3
40
0
40
0
40
0
40
1
40
1
40
1
41
1
10
-36.5
20
21.1553027248969
30
0
41
1
10
-37.2500000000012
20
20.7223538609616
30
0
41
1
10
-38
20
20.2894050057151
30
0
0
SPLINE
5
11C
100
AcDbEntity
8
SK1
62
256
6
ByLayer
370
18
48
1
60
0
100
AcDbSpline
70
4
71
2
72
6
73
3
40
0
40
0
40
0
40
1
40
1
40
1
41
1
10
-0.394976888875249
20
-21.8653849865467
30
0
41
1
10
-0.265172990617003
20
-21.868901290676
30
0
41
1
10
-0.240502439654279
20
-21.9465691723769
30
0
0
SPLINE
5
11D
100
AcDbEntity
8
SK1
62
256
6
ByLayer
370
18
48
1
60
0
100
AcDbSpline
70
4
71
2
72
6
73
3
40
0
40
0
40
0
40
1
40
1
40
1
41
1
10
-0.239684768755751
20
21.9481214799356
30
0
41
1
10
-0.264174311740362
20
21.8692639605625
30
0
41
1
10
-0.394976888875277
20
21.865385003355
30
0
0
SPLINE
5
11E
100
AcDbEntity
8
SK1
62
256
6
ByLayer
370
18
48
1
60
0
100
AcDbSpline
70
4
71
3
72
299
73
295
40
0
40
0
40
0
40
0
40
0.0029484369563402
40
0.0064739575036669
40
0.0099994780509938
40
0.0135249985983206
40
0.0170505191456474
40
0.0205760396929742
40
0.024101560240301
40
0.0276270807876278
40
0.0346781218822814
40
0.041729162976935
40
0.0487802040715885
40
0.0523057246189154
40
0.0558312451662421
40
0.0593567657135689
40
0.0628822862608958
40
0.0699333273555493
40
0.0734588479028762
40
0.0769843684502029
40
0.0805098889975297
40
0.0840354095448565
40
0.0875609300921833
40
0.0910864506395101
40
0.0981374917341637
40
0.10166301228149
40
0.105188532828817
40
0.108714053376144
40
0.112239573923471
40
0.115765094470798
40
0.119290615018125
40
0.122816135565451
40
0.126341656112778
40
0.129867176660105
40
0.133392697207432
40
0.136918217754758
40
0.140443738302085
40
0.143969258849412
40
0.147494779396739
40
0.154545820491392
40
0.158071341038719
40
0.161596861586046
40
0.163359621859709
40
0.165122382133373
40
0.1686479026807
40
0.175698943775353
40
0.17922446432268
40
0.182749984870007
40
0.186275505417334
40
0.189801025964661
40
0.196852067059314
40
0.200377587606641
40
0.203903108153968
40
0.205665868427631
40
0.207428628701294
40
0.210954149248621
40
0.218005190343275
40
0.221530710890602
40
0.225056231437928
40
0.228581751985255
40
0.232107272532582
40
0.239158313627236
40
0.242683834174562
40
0.246209354721889
40
0.247972114995553
40
0.249734875269216
40
0.253260395816543
40
0.25678591636387
40
0.260311436911196
40
0.26207419718486
40
0.263836957458523
40
0.26736247800585
40
0.270887998553177
40
0.274413519100504
40
0.27793903964783
40
0.281464560195157
40
0.284990080742484
40
0.288515601289811
40
0.292041121837138
40
0.295566642384464
40
0.299092162931791
40
0.302617683479118
40
0.306143204026445
40
0.309668724573772
40
0.313194245121098
40
0.316719765668425
40
0.323770806763079
40
0.327296327310405
40
0.330821847857732
40
0.334347368405059
40
0.337872888952386
40
0.341398409499713
40
0.344923930047039
40
0.348449450594366
40
0.351974971141693
40
0.359026012236347
40
0.366077053331
40
0.373128094425654
40
0.376653614972981
40
0.380179135520307
40
0.383704656067634
40
0.387230176614961
40
0.390755697162288
40
0.394281217709615
40
0.397806738256941
40
0.401332258804268
40
0.404857779351595
40
0.408383299898922
40
0.411908820446249
40
0.415434340993576
40
0.418959861540902
40
0.422485382088229
40
0.426010902635556
40
0.429536423182883
40
0.43306194373021
40
0.434824704003873
40
0.436587464277536
40
0.4383502245512
40
0.440112984824863
40
0.44363850537219
40
0.447164025919517
40
0.44892678619318
40
0.450689546466843
40
0.452452306740507
40
0.45421506701417
40
0.457740587561497
40
0.45950334783516
40
0.461266108108824
40
0.463028868382487
40
0.464791628656151
40
0.466554388929814
40
0.468317149203477
40
0.470079909477141
40
0.471842669750804
40
0.473605430024468
40
0.475368190298131
40
0.477130950571794
40
0.478893710845458
40
0.480656471119121
40
0.482419231392785
40
0.484181991666448
40
0.485944751940111
40
0.487707512213775
40
0.489470272487438
40
0.491233032761102
40
0.492995793034765
40
0.494758553308428
40
0.496521313582092
40
0.498284073855755
40
0.500046834129419
40
0.501809594403082
40
0.503572354676745
40
0.505335114950409
40
0.507097875224072
40
0.508860635497736
40
0.510623395771399
40
0.512386156045062
40
0.514148916318726
40
0.515911676592389
40
0.517674436866053
40
0.519437197139716
40
0.521199957413379
40
0.522962717687043
40
0.524725477960706
40
0.52648823823437
40
0.528250998508033
40
0.530013758781696
40
0.53177651905536
40
0.533539279329023
40
0.535302039602687
40
0.53706479987635
40
0.538827560150013
40
0.540590320423677
40
0.54235308069734
40
0.545878601244667
40
0.54764136151833
40
0.549404121791994
40
0.551166882065657
40
0.552929642339321
40
0.556455162886647
40
0.559980683433974
40
0.561743443707638
40
0.563506203981301
40
0.565268964254964
40
0.567031724528628
40
0.570557245075955
40
0.574082765623281
40
0.577608286170608
40
0.581133806717935
40
0.584659327265262
40
0.588184847812589
40
0.591710368359915
40
0.595235888907242
40
0.598761409454569
40
0.602286930001896
40
0.605812450549223
40
0.609337971096549
40
0.612863491643876
40
0.616389012191203
40
0.61991453273853
40
0.623440053285857
40
0.626965573833183
40
0.634016614927837
40
0.641067656022491
40
0.648118697117144
40
0.651644217664471
40
0.655169738211798
40
0.658695258759124
40
0.662220779306451
40
0.665746299853778
40
0.669271820401105
40
0.672797340948432
40
0.676322861495758
40
0.683373902590412
40
0.686899423137739
40
0.690424943685065
40
0.693950464232392
40
0.697475984779719
40
0.701001505327046
40
0.704527025874373
40
0.708052546421699
40
0.711578066969026
40
0.715103587516353
40
0.71862910806368
40
0.722154628611007
40
0.725680149158334
40
0.732731190252987
40
0.736256710800314
40
0.739782231347641
40
0.746833272442295
40
0.750358792989621
40
0.753884313536948
40
0.757409834084275
40
0.760935354631602
40
0.767986395726255
40
0.771511916273582
40
0.775037436820909
40
0.778562957368236
40
0.782088477915563
40
0.789139519010216
40
0.792665039557543
40
0.79619056010487
40
0.799716080652196
40
0.803241601199523
40
0.810292642294177
40
0.813818162841504
40
0.817343683388831
40
0.820869203936157
40
0.824394724483484
40
0.831445765578138
40
0.834971286125465
40
0.838496806672791
40
0.842022327220118
40
0.845547847767445
40
0.852598888862098
40
0.856124409409425
40
0.859649929956752
40
0.863175450504079
40
0.866700971051406
40
0.870226491598732
40
0.873752012146059
40
0.877277532693386
40
0.880803053240713
40
0.88432857378804
40
0.887854094335366
40
0.891379614882693
40
0.89490513543002
40
0.898430655977347
40
0.901956176524674
40
0.909007217619327
40
0.912532738166654
40
0.916058258713981
40
0.919583779261308
40
0.923109299808634
40
0.926634820355961
40
0.930160340903288
40
0.937211381997942
40
0.940736902545268
40
0.944262423092595
40
0.947787943639922
40
0.951313464187249
40
0.958364505281902
40
0.961890025829229
40
0.965415546376556
40
0.968941066923883
40
0.972466587471209
40
0.975992108018536
40
0.979517628565863
40
0.98304314911319
40
0.986568669660517
40
0.990094190207844
40
0.99361971075517
40
0.997145231302497
40
1
40
1
40
1
40
1
41
1
10
-38
20
20.2923486449733
30
0
41
1
10
-38
20
20.2923551348148
30
0
41
1
10
-38
20
20.2915871107213
30
0
41
1
10
-38
20
20.2877827415225
30
0
41
1
10
-38
20
20.2807871950942
30
0
41
1
10
-38
20
20.270864225278
30
0
41
1
10
-38
20
20.2580557575388
30
0
41
1
10
-38
20
20.2424031034125
30
0
41
1
10
-38
20
20.2239454925533
30
0
41
1
10
-38
20
20.19551262204
30
0
41
1
10
-38
20
20.153458157969
30
0
41
1
10
-38
20
20.0921783324266
30
0
41
1
10
-38
20
20.0326760120608
30
0
41
1
10
-38
20
19.9796195423852
30
0
41
1
10
-38
20
19.9374871337363
30
0
41
1
10
-38
20
19.8928775037255
30
0
41
1
10
-38
20
19.8298739849262
30
0
41
1
10
-38
20
19.7628242930463
30
0
41
1
10
-38
20
19.6902080345967
30
0
41
1
10
-38
20
19.6336084813315
30
0
41
1
10
-38
20
19.5746836513967
30
0
41
1
10
-38
20
19.5134574775013
30
0
41
1
10
-38
20
19.4499498796239
30
0
41
1
10
-38
20
19.361926580552
30
0
41
1
10
-38
20
19.2704514952515
30
0
41
1
10
-38
20
19.1735363516591
30
0
41
1
10
-38
20
19.0989364266239
30
0
41
1
10
-38
20
19.0221745884206
30
0
41
1
10
-38
20
18.9432715601189
30
0
41
1
10
-38
20
18.8622425921487
30
0
41
1
10
-38
20
18.7791047356355
30
0
41
1
10
-38
20
18.6938772447032
30
0
41
1
10
-38
20
18.6065734364562
30
0
41
1
10
-38
20
18.5172096781029
30
0
41
1
10
-38
20
18.4258037757915
30
0
41
1
10
-38
20
18.3323676597213
30
0
41
1
10
-38
20
18.236917040573
30
0
41
1
10
-38
20
18.1394682315479
30
0
41
1
10
-38
20
18.006423045464
30
0
41
1
10
-38
20
17.870842154793
30
0
41
1
10
-38
20
17.7299440627733
30
0
41
1
10
-38
20
17.6408187485726
30
0
41
1
10
-38
20
17.5681131617785
30
0
41
1
10
-38
20
17.4947669133713
30
0
41
1
10
-38
20
17.3649201654158
30
0
41
1
10
-38
20
17.2140632768009
30
0
41
1
10
-38
20
17.0578935907134
30
0
41
1
10
-38
20
16.9392992293059
30
0
41
1
10
-38
20
16.8188549914818
30
0
41
1
10
-38
20
16.6552510003021
30
0
41
1
10
-38
20
16.489672496603
30
0
41
1
10
-38
20
16.3187666825072
30
0
41
1
10
-38
20
16.2111031772939
30
0
41
1
10
-38
20
16.1235473577608
30
0
41
1
10
-38
20
16.0353949417433
30
0
41
1
10
-38
20
15.8797855584285
30
0
41
1
10
-38
20
15.6999813794666
30
0
41
1
10
-38
20
15.5148116907138
30
0
41
1
10
-38
20
15.3746600384839
30
0
41
1
10
-38
20
15.2327750536327
30
0
41
1
10
-38
20
15.0406360987563
30
0
41
1
10
-38
20
14.8470518249568
30
0
41
1
10
-38
20
14.6480433816337
30
0
41
1
10
-38
20
14.5230237603812
30
0
41
1
10
-38
20
14.4215395322791
30
0
41
1
10
-38
20
14.319494446119
30
0
41
1
10
-38
20
14.1916826014269
30
0
41
1
10
-38
20
14.0362107113461
30
0
41
1
10
-38
20
13.905633632864
30
0
41
1
10
-38
20
13.7996824703933
30
0
41
1
10
-38
20
13.693179914064
30
0
41
1
10
-38
20
13.5598675642285
30
0
41
1
10
-38
20
13.3977994204325
30
0
41
1
10
-38
20
13.2340971553998
30
0
41
1
10
-38
20
13.0687736820565
30
0
41
1
10
-38
20
12.9018380893652
30
0
41
1
10
-38
20
12.7332922951509
30
0
41
1
10
-38
20
12.5631480531082
30
0
41
1
10
-38
20
12.3914123687224
30
0
41
1
10
-38
20
12.2180896154105
30
0
41
1
10
-38
20
12.0431930727568
30
0
41
1
10
-38
20
11.8667275879997
30
0
41
1
10
-38
20
11.6886992220563
30
0
41
1
10
-38
20
11.5091211559413
30
0
41
1
10
-38
20
11.3279971676985
30
0
41
1
10
-38
20
11.0835274575533
30
0
41
1
10
-38
20
10.8388445996823
30
0
41
1
10
-38
20
10.5882272221232
30
0
41
1
10
-38
20
10.3995106478125
30
0
41
1
10
-38
20
10.2093006505111
30
0
41
1
10
-38
20
10.0176111741013
30
0
41
1
10
-38
20
9.82444825814403
30
0
41
1
10
-38
20
9.62982433363783
30
0
41
1
10
-38
20
9.43375032895253
30
0
41
1
10
-38
20
9.16930024978845
30
0
41
1
10
-38
20
8.83774034996793
30
0
41
1
10
-38
20
8.43283016067576
30
0
41
1
10
-38
20
8.09202302704495
30
0
41
1
10
-38
20
7.8144066871198
30
0
41
1
10
-38
20
7.60585888080686
30
0
41
1
10
-38
20
7.39600299493051
30
0
41
1
10
-38
20
7.18486050853949
30
0
41
1
10
-38
20
6.97245482074297
30
0
41
1
10
-38
20
6.75880464755275
30
0
41
1
10
-38
20
6.54393387937546
30
0
41
1
10
-38
20
6.3278710206452
30
0
41
1
10
-38
20
6.11064460524278
30
0
41
1
10
-38
20
5.89228682406824
30
0
41
1
10
-38
20
5.67283049766698
30
0
41
1
10
-38
20
5.45231041402207
30
0
41
1
10
-38
20
5.23076611988367
30
0
41
1
10
-38
20
5.00824236668089
30
0
41
1
10
-38
20
4.78478453894905
30
0
41
1
10
-38
20
4.56044477194348
30
0
41
1
10
-38
20
4.3737593142329
30
0
41
1
10
-38
20
4.22222174308928
30
0
41
1
10
-38
20
4.10916467830538
30
0
41
1
10
-38
20
3.99593123757285
30
0
41
1
10
-38
20
3.84368490764803
30
0
41
1
10
-38
20
3.65544484289475
30
0
41
1
10
-38
20
3.46668355973628
30
0
41
1
10
-38
20
3.31336520651502
30
0
41
1
10
-38
20
3.19916977025281
30
0
41
1
10
-38
20
3.0848771849204
30
0
41
1
10
-38
20
2.93116533478536
30
0
41
1
10
-38
20
2.7810630459212
30
0
41
1
10
-38
20
2.62697343511894
30
0
41
1
10
-38
20
2.51237687493429
30
0
41
1
10
-38
20
2.3977497448725
30
0
41
1
10
-38
20
2.28311555219403
30
0
41
1
10
-38
20
2.16847618976473
30
0
41
1
10
-38
20
2.0538484010745
30
0
41
1
10
-38
20
1.93924458170403
30
0
41
1
10
-38
20
1.82466899171223
30
0
41
1
10
-38
20
1.71014121398443
30
0
41
1
10
-38
20
1.59566009898879
30
0
41
1
10
-38
20
1.48124309885608
30
0
41
1
10
-38
20
1.36688883878043
30
0
41
1
10
-38
20
1.25260906632698
30
0
41
1
10
-38
20
1.13840321986402
30
0
41
1
10
-38
20
1.02427614220738
30
0
41
1
10
-38
20
0.910225811803883
30
0
41
1
10
-38
20
0.796251800903946
30
0
41
1
10
-38
20
0.682349388495595
30
0
41
1
10
-38
20
0.568513483413511
30
0
41
1
10
-38
20
0.454735475948951
30
0
41
1
10
-38
20
0.341006791030083
30
0
41
1
10
-38
20
0.227315919379521
30
0
41
1
10
-38
20
0.113651444289076
30
0
41
1
10
-38
20
2.39306814E-08
30
0
41
1
10
-38
20
-0.113651428861147
30
0
41
1
10
-38
20
-0.227315965161836
30
0
41
1
10
-38
20
-0.341006831114754
30
0
41
1
10
-38
20
-0.454735424962763
30
0
41
1
10
-38
20
-0.568513412391553
30
0
41
1
10
-38
20
-0.682349437337081
30
0
41
1
10
-38
20
-0.796251898049235
30
0
41
1
10
-38
20
-0.91022576559223
30
0
41
1
10
-38
20
-1.02427601417028
30
0
41
1
10
-38
20
-1.13840324907633
30
0
41
1
10
-38
20
-1.25260921865757
30
0
41
1
10
-38
20
-1.36688883944316
30
0
41
1
10
-38
20
-1.48124293103632
30
0
41
1
10
-38
20
-1.59566004663384
30
0
41
1
10
-38
20
-1.71014137238998
30
0
41
1
10
-38
20
-1.82466911261432
30
0
41
1
10
-38
20
-1.93924446866484
30
0
41
1
10
-38
20
-2.05384821372692
30
0
41
1
10
-38
20
-2.1684762190329
30
0
41
1
10
-38
20
-2.28311576323421
30
0
41
1
10
-38
20
-2.39774983280105
30
0
41
1
10
-38
20
-2.51237672316307
30
0
41
1
10
-38
20
-2.62697323991802
30
0
41
1
10
-38
20
-2.78106315146931
30
0
41
1
10
-38
20
-2.93116552693385
30
0
41
1
10
-38
20
-3.08487708212584
30
0
41
1
10
-38
20
-3.19916954549007
30
0
41
1
10
-38
20
-3.31336512600549
30
0
41
1
10
-38
20
-3.46668375918679
30
0
41
1
10
-38
20
-3.65544489425088
30
0
41
1
10
-38
20
-3.84368470208375
30
0
41
1
10
-38
20
-3.99593117493794
30
0
41
1
10
-38
20
-4.10916481607396
30
0
41
1
10
-38
20
-4.22222196867941
30
0
41
1
10
-38
20
-4.37375933349009
30
0
41
1
10
-38
20
-4.56044458630848
30
0
41
1
10
-38
20
-4.78478457648492
30
0
41
1
10
-38
20
-5.00824253816089
30
0
41
1
10
-38
20
-5.23076600439055
30
0
41
1
10
-38
20
-5.45231022599046
30
0
41
1
10
-38
20
-5.67283041504652
30
0
41
1
10
-38
20
-5.89228674128225
30
0
41
1
10
-38
20
-6.11064496108523
30
0
41
1
10
-38
20
-6.32787239667016
30
0
41
1
10
-38
20
-6.54393525610647
30
0
41
1
10
-38
20
-6.75880334040127
30
0
41
1
10
-38
20
-6.9724531176621
30
0
41
1
10
-38
20
-7.18486111103377
30
0
41
1
10
-38
20
-7.39600347561742
30
0
41
1
10
-38
20
-7.60585874971361
30
0
41
1
10
-38
20
-7.8144064520111
30
0
41
1
10
-38
20
-8.09202295752314
30
0
41
1
10
-38
20
-8.43283023540658
30
0
41
1
10
-38
20
-8.83774029355055
30
0
41
1
10
-38
20
-9.16930023887323
30
0
41
1
10
-38
20
-9.43375044009514
30
0
41
1
10
-38
20
-9.62982432960192
30
0
41
1
10
-38
20
-9.82444814962994
30
0
41
1
10
-38
20
-10.0176111126089
30
0
41
1
10
-38
20
-10.2093007057547
30
0
41
1
10
-38
20
-10.3995107409486
30
0
41
1
10
-38
20
-10.5882272324294
30
0
41
1
10
-38
20
-10.8388445170812
30
0
41
1
10
-38
20
-11.0835274377931
30
0
41
1
10
-38
20
-11.327997250045
30
0
41
1
10
-38
20
-11.5091211965041
30
0
41
1
10
-38
20
-11.6886991809047
30
0
41
1
10
-38
20
-11.8667275177687
30
0
41
1
10
-38
20
-12.0431930522803
30
0
41
1
10
-38
20
-12.2180896645831
30
0
41
1
10
-38
20
-12.3914124247035
30
0
41
1
10
-38
20
-12.5631480735019
30
0
41
1
10
-38
20
-12.7332924196477
30
0
41
1
10
-38
20
-12.9018387248249
30
0
41
1
10
-38
20
-13.068774902876
30
0
41
1
10
-38
20
-13.2899980003419
30
0
41
1
10
-38
20
-13.5056406071554
30
0
41
1
10
-38
20
-13.7202970548285
30
0
41
1
10
-38
20
-13.9327572918622
30
0
41
1
10
-38
20
-14.1397069500695
30
0
41
1
10
-38
20
-14.3454836148157
30
0
41
1
10
-38
20
-14.4976048095277
30
0
41
1
10
-38
20
-14.6480433741444
30
0
41
1
10
-38
20
-14.8470538575164
30
0
41
1
10
-38
20
-15.0406366439893
30
0
41
1
10
-38
20
-15.2327734637881
30
0
41
1
10
-38
20
-15.3746583733236
30
0
41
1
10
-38
20
-15.5148115582755
30
0
41
1
10
-38
20
-15.6999837411247
30
0
41
1
10
-38
20
-15.8797870255404
30
0
41
1
10
-38
20
-16.0578801048401
30
0
41
1
10
-38
20
-16.189216581434
30
0
41
1
10
-38
20
-16.3187661779867
30
0
41
1
10
-38
20
-16.4896741385663
30
0
41
1
10
-38
20
-16.6552512602625
30
0
41
1
10
-38
20
-16.8188545807649
30
0
41
1
10
-38
20
-16.9392987318018
30
0
41
1
10
-38
20
-17.0578934672827
30
0
41
1
10
-38
20
-17.2140648101705
30
0
41
1
10
-38
20
-17.3649216616153
30
0
41
1
10
-38
20
-17.513530035822
30
0
41
1
10
-38
20
-17.6226956365842
30
0
41
1
10
-38
20
-17.7299433731025
30
0
41
1
10
-38
20
-17.8708440004863
30
0
41
1
10
-38
20
-18.0064238716364
30
0
41
1
10
-38
20
-18.1394672902699
30
0
41
1
10
-38
20
-18.236915915677
30
0
41
1
10
-38
20
-18.3323672965474
30
0
41
1
10
-38
20
-18.4258040962282
30
0
41
1
10
-38
20
-18.517209887002
30
0
41
1
10
-38
20
-18.6065734896479
30
0
41
1
10
-38
20
-18.6938772522127
30
0
41
1
10
-38
20
-18.7791047692188
30
0
41
1
10
-38
20
-18.8622426359768
30
0
41
1
10
-38
20
-18.9432715834756
30
0
41
1
10
-38
20
-19.0221745805325
30
0
41
1
10
-38
20
-19.0989364136873
30
0
41
1
10
-38
20
-19.1735363647814
30
0
41
1
10
-38
20
-19.2704515417461
30
0
41
1
10
-38
20
-19.3619266112172
30
0
41
1
10
-38
20
-19.4499498647732
30
0
41
1
10
-38
20
-19.5134574724377
30
0
41
1
10
-38
20
-19.5746836830748
30
0
41
1
10
-38
20
-19.6336085328263
30
0
41
1
10
-38
20
-19.6902080668946
30
0
41
1
10
-38
20
-19.7628242842049
30
0
41
1
10
-38
20
-19.829873984374
30
0
41
1
10
-38
20
-19.8928775551026
30
0
41
1
10
-38
20
-19.9374871757692
30
0
41
1
10
-38
20
-19.9796195436674
30
0
41
1
10
-38
20
-20.0326760063813
30
0
41
1
10
-38
20
-20.0800381474625
30
0
41
1
10
-38
20
-20.1228090027496
30
0
41
1
10
-38
20
-20.1521177658612
30
0
41
1
10
-38
20
-20.1787668505585
30
0
41
1
10
-38
20
-20.2027210424566
30
0
41
1
10
-38
20
-20.2239455432986
30
0
41
1
10
-38
20
-20.2424031363825
30
0
41
1
10
-38
20
-20.2580557552655
30
0
41
1
10
-38
20
-20.2708642249464
30
0
41
1
10
-38
20
-20.2807872561095
30
0
41
1
10
-38
20
-20.2877829489452
30
0
41
1
10
-38
20
-20.291551797491
30
0
41
1
10
-38
20
-20.2923326511116
30
0
41
1
10
-38
20
-20.292348176416
30
0
0
SPLINE
5
11F
100
AcDbEntity
8
1
62
256
6
ByLayer
370
18
48
1
60
0
100
AcDbSpline
70
4
71
3
72
8
73
4
40
0
40
0
40
0
40
0
40
1
40
1
40
1
40
1
41
1
10
25.4554420678284
20
41.1638057661222
30
0
41
1
10
25.4107365604406
20
41.1614628497583
30
0
41
1
10
25.3883572076968
20
41.1602899975792
30
0
41
1
10
25.3884738802636
20
41.1602961121293
30
0
0
SPLINE
5
120
100
AcDbEntity
8
SK1
62
256
6
ByLayer
370
18
48
1
60
0
100
AcDbSpline
70
4
71
3
72
295
73
291
40
0
40
0
40
0
40
0
40
0.0029467571770594
40
0.0065226820628371
40
0.0100986069486149
40
0.0136745318343926
40
0.0172504567201703
40
0.020826381605948
40
0.0244023064917258
40
0.0279782313775035
40
0.0315541562632812
40
0.0351300811490589
40
0.0422819309206144
40
0.0458578558063921
40
0.0494337806921698
40
0.0530097055779475
40
0.0565856304637253
40
0.0637374802352807
40
0.0673134051210584
40
0.0708893300068361
40
0.0744652548926139
40
0.0780411797783916
40
0.0816171046641693
40
0.085193029549947
40
0.0923448793215025
40
0.0959208042072802
40
0.0994967290930579
40
0.103072653978836
40
0.106648578864613
40
0.110224503750391
40
0.113800428636169
40
0.117376353521947
40
0.120952278407724
40
0.124528203293502
40
0.12810412817928
40
0.131680053065057
40
0.135255977950835
40
0.138831902836613
40
0.142407827722391
40
0.149559677493946
40
0.153135602379724
40
0.156711527265501
40
0.160287452151279
40
0.163863377037057
40
0.171015226808612
40
0.17459115169439
40
0.178167076580168
40
0.181743001465945
40
0.185318926351723
40
0.192470776123279
40
0.196046701009056
40
0.199622625894834
40
0.203198550780612
40
0.20677447566639
40
0.213926325437945
40
0.217502250323723
40
0.2210781752095
40
0.224654100095278
40
0.228230024981056
40
0.235381874752611
40
0.238957799638389
40
0.242533724524167
40
0.246109649409945
40
0.249685574295722
40
0.256837424067278
40
0.260413348953056
40
0.263989273838833
40
0.271141123610389
40
0.274717048496166
40
0.278292973381944
40
0.281868898267722
40
0.2854448231535
40
0.289020748039277
40
0.292596672925055
40
0.296172597810833
40
0.299748522696611
40
0.303324447582388
40
0.306900372468166
40
0.310476297353944
40
0.314052222239721
40
0.321204072011277
40
0.324779996897055
40
0.328355921782832
40
0.33193184666861
40
0.335507771554388
40
0.339083696440165
40
0.342659621325943
40
0.346235546211721
40
0.349811471097498
40
0.356963320869054
40
0.364115170640609
40
0.371267020412165
40
0.374842945297943
40
0.37841887018372
40
0.381994795069498
40
0.385570719955276
40
0.389146644841053
40
0.392722569726831
40
0.396298494612609
40
0.399874419498387
40
0.403450344384164
40
0.407026269269942
40
0.41060219415572
40
0.414178119041497
40
0.417754043927275
40
0.421329968813053
40
0.424905893698831
40
0.428481818584608
40
0.432057743470386
40
0.433845705913275
40
0.435633668356164
40
0.437421630799053
40
0.439209593241942
40
0.442785518127719
40
0.446361443013497
40
0.448149405456386
40
0.449937367899275
40
0.451725330342164
40
0.453513292785052
40
0.45708921767083
40
0.458877180113719
40
0.460665142556608
40
0.462453104999497
40
0.464241067442386
40
0.466029029885275
40
0.467816992328163
40
0.469604954771052
40
0.471392917213941
40
0.47318087965683
40
0.474968842099719
40
0.476756804542608
40
0.478544766985496
40
0.480332729428386
40
0.482120691871274
40
0.483908654314163
40
0.485696616757052
40
0.487484579199941
40
0.48927254164283
40
0.491060504085719
40
0.492848466528607
40
0.494636428971496
40
0.496424391414385
40
0.498212353857274
40
0.500000316300163
40
0.501788278743052
40
0.503576241185941
40
0.50536420362883
40
0.507152166071718
40
0.508940128514607
40
0.510728090957496
40
0.512516053400385
40
0.514304015843274
40
0.516091978286163
40
0.517879940729052
40
0.51966790317194
40
0.521455865614829
40
0.523243828057718
40
0.525031790500607
40
0.526819752943496
40
0.528607715386385
40
0.530395677829274
40
0.532183640272162
40
0.533971602715051
40
0.53575956515794
40
0.537547527600829
40
0.539335490043718
40
0.541123452486607
40
0.542911414929496
40
0.546487339815273
40
0.548275302258162
40
0.550063264701051
40
0.55185122714394
40
0.553639189586829
40
0.557215114472607
40
0.560791039358384
40
0.562579001801273
40
0.564366964244162
40
0.566154926687051
40
0.56794288912994
40
0.571518814015717
40
0.575094738901495
40
0.578670663787273
40
0.582246588673051
40
0.585822513558828
40
0.589398438444606
40
0.592974363330384
40
0.596550288216161
40
0.600126213101939
40
0.603702137987717
40
0.607278062873495
40
0.610853987759272
40
0.61442991264505
40
0.618005837530828
40
0.621581762416605
40
0.625157687302383
40
0.628733612188161
40
0.635885461959716
40
0.643037311731272
40
0.650189161502827
40
0.653765086388605
40
0.657341011274383
40
0.66091693616016
40
0.664492861045938
40
0.668068785931716
40
0.671644710817494
40
0.675220635703271
40
0.678796560589049
40
0.685948410360605
40
0.689524335246382
40
0.69310026013216
40
0.696676185017938
40
0.700252109903715
40
0.703828034789493
40
0.707403959675271
40
0.710979884561049
40
0.714555809446826
40
0.718131734332604
40
0.721707659218382
40
0.725283584104159
40
0.728859508989937
40
0.732435433875715
40
0.736011358761493
40
0.73958728364727
40
0.741375246090159
40
0.743163208533048
40
0.746739133418826
40
0.750315058304604
40
0.753890983190381
40
0.75567894563327
40
0.757466908076159
40
0.761042832961937
40
0.764618757847714
40
0.77177060761927
40
0.775346532505047
40
0.778922457390825
40
0.782498382276603
40
0.786074307162381
40
0.793226156933936
40
0.796802081819714
40
0.798590044262603
40
0.800378006705492
40
0.803953931591269
40
0.807529856477047
40
0.814681706248603
40
0.81825763113438
40
0.821833556020158
40
0.825409480905936
40
0.828985405791713
40
0.836137255563269
40
0.839713180449047
40
0.841501142891935
40
0.843289105334824
40
0.846865030220602
40
0.85044095510638
40
0.857592804877935
40
0.861168729763713
40
0.864744654649491
40
0.868320579535268
40
0.871896504421046
40
0.875472429306824
40
0.879048354192602
40
0.882624279078379
40
0.886200203964157
40
0.889776128849935
40
0.893352053735712
40
0.89692797862149
40
0.900503903507268
40
0.904079828393046
40
0.907655753278823
40
0.914807603050379
40
0.918383527936156
40
0.921959452821934
40
0.925535377707712
40
0.92911130259349
40
0.932687227479267
40
0.936263152365045
40
0.943415002136601
40
0.946990927022378
40
0.950566851908156
40
0.954142776793934
40
0.957718701679711
40
0.964870551451267
40
0.972022401222822
40
0.979174250994378
40
0.982750175880155
40
0.986326100765933
40
0.989902025651711
40
0.993477950537489
40
0.997053875423266
40
1
40
1
40
1
40
1
41
1
10
-2.19999999999999
20
-22.0135206569015
30
0
41
1
10
-2.19999999999999
20
-22.0117283854117
30
0
41
1
10
-2.19999999999996
20
-22.0069601747888
30
0
41
1
10
-2.19999999999999
20
-21.9968726399857
30
0
41
1
10
-2.19999999999999
20
-21.9830583809744
30
0
41
1
10
-2.19999999999999
20
-21.9661972037607
30
0
41
1
10
-2.19999999999999
20
-21.9463373508774
30
0
41
1
10
-2.19999999999999
20
-21.9235254752891
30
0
41
1
10
-2.19999999999999
20
-21.8978063777089
30
0
41
1
10
-2.19999999999999
20
-21.8692221254414
30
0
41
1
10
-2.19999999999999
20
-21.8378144981283
30
0
41
1
10
-2.19999999999999
20
-21.7922265879071
30
0
41
1
10
-2.19999999999999
20
-21.7411389990572
30
0
41
1
10
-2.19999999999999
20
-21.6847072964973
30
0
41
1
10
-2.19999999999996
20
-21.6397397916631
30
0
41
1
10
-2.19999999999999
20
-21.5921615531195
30
0
41
1
10
-2.19999999999996
20
-21.5252891448141
30
0
41
1
10
-2.19999999999999
20
-21.4533087676779
30
0
41
1
10
-2.19999999999999
20
-21.3763547664481
30
0
41
1
10
-2.19999999999996
20
-21.3161704250344
30
0
41
1
10
-2.19999999999999
20
-21.2535469320083
30
0
41
1
10
-2.19999999999999
20
-21.1885090211437
30
0
41
1
10
-2.19999999999999
20
-21.1210800961781
30
0
41
1
10
-2.19999999999999
20
-21.0280237880878
30
0
41
1
10
-2.19999999999999
20
-20.9302657657864
30
0
41
1
10
-2.19999999999999
20
-20.82791883753
30
0
41
1
10
-2.19999999999999
20
-20.7488739108727
30
0
41
1
10
-2.19999999999999
20
-20.6675682022903
30
0
41
1
10
-2.19999999999999
20
-20.5840212474559
30
0
41
1
10
-2.19999999999999
20
-20.4982502752196
30
0
41
1
10
-2.19999999999999
20
-20.4102747220553
30
0
41
1
10
-2.19999999999999
20
-20.3201119082527
30
0
41
1
10
-2.19999999999999
20
-20.2277776697998
30
0
41
1
10
-2.19999999999999
20
-20.133289903145
30
0
41
1
10
-2.19999999999999
20
-20.0366640227898
30
0
41
1
10
-2.19999999999999
20
-19.9379146863563
30
0
41
1
10
-2.19999999999999
20
-19.8370589164793
30
0
41
1
10
-2.19999999999999
20
-19.7341104289282
30
0
41
1
10
-2.19999999999999
20
-19.5940785255289
30
0
41
1
10
-2.19999999999999
20
-19.4499005391959
30
0
41
1
10
-2.19999999999999
20
-19.3016611759423
30
0
41
1
10
-2.19999999999999
20
-19.1884526890887
30
0
41
1
10
-2.20000000000002
20
-19.0732305996174
30
0
41
1
10
-2.19999999999999
20
-18.9169371900015
30
0
41
1
10
-2.19999999999999
20
-18.7566457425986
30
0
41
1
10
-2.19999999999999
20
-18.5924361073221
30
0
41
1
10
-2.19999999999999
20
-18.4673177032106
30
0
41
1
10
-2.19999999999999
20
-18.3402522143585
30
0
41
1
10
-2.19999999999999
20
-18.1682547291306
30
0
41
1
10
-2.19999999999999
20
-17.9923842415008
30
0
41
1
10
-2.19999999999999
20
-17.8127154575359
30
0
41
1
10
-2.19999999999999
20
-17.676060438985
30
0
41
1
10
-2.19999999999999
20
-17.5375147595292
30
0
41
1
10
-2.19999999999999
20
-17.3502835148979
30
0
41
1
10
-2.19999999999999
20
-17.1592828976246
30
0
41
1
10
-2.19999999999999
20
-16.9645862898264
30
0
41
1
10
-2.19999999999999
20
-16.8167085043733
30
0
41
1
10
-2.20000000000002
20
-16.666987304737
30
0
41
1
10
-2.19999999999999
20
-16.4649171124643
30
0
41
1
10
-2.19999999999999
20
-16.2591647559547
30
0
41
1
10
-2.20000000000002
20
-16.0498023362736
30
0
41
1
10
-2.19999999999999
20
-15.8909649274654
30
0
41
1
10
-2.20000000000002
20
-15.7303232767805
30
0
41
1
10
-2.19999999999999
20
-15.513744330902
30
0
41
1
10
-2.19999999999999
20
-15.2935559429894
30
0
41
1
10
-2.19999999999999
20
-15.069828938707
30
0
41
1
10
-2.19999999999999
20
-14.8437340716545
30
0
41
1
10
-2.19999999999999
20
-14.61406817927
30
0
41
1
10
-2.19999999999999
20
-14.3809064511142
30
0
41
1
10
-2.19999999999999
20
-14.2042701267483
30
0
41
1
10
-2.19999999999999
20
-14.0258803815961
30
0
41
1
10
-2.19999999999999
20
-13.845742035678
30
0
41
1
10
-2.19999999999999
20
-13.6638579908946
30
0
41
1
10
-2.19999999999999
20
-13.4802328404438
30
0
41
1
10
-2.19999999999999
20
-13.2948705838035
30
0
41
1
10
-2.19999999999999
20
-13.1077737445537
30
0
41
1
10
-2.19999999999999
20
-12.9189467887917
30
0
41
1
10
-2.19999999999999
20
-12.7283927892775
30
0
41
1
10
-2.19999999999999
20
-12.5361142561418
30
0
41
1
10
-2.19999999999999
20
-12.277459839655
30
0
41
1
10
-2.19999999999999
20
-12.015335258712
30
0
41
1
10
-2.19999999999999
20
-11.7498207382014
30
0
41
1
10
-2.19999999999999
20
-11.5489655840494
30
0
41
1
10
-2.19999999999999
20
-11.3464032666245
30
0
41
1
10
-2.19999999999999
20
-11.1421359694817
30
0
41
1
10
-2.19999999999999
20
-10.9361655882296
30
0
41
1
10
-2.19999999999999
20
-10.7284951094206
30
0
41
1
10
-2.19999999999999
20
-10.5191258633122
30
0
41
1
10
-2.19999999999999
20
-10.2377183913447
30
0
41
1
10
-2.19999999999999
20
-9.88169305528194
30
0
41
1
10
-2.20000000000002
20
-9.44771866001568
30
0
41
1
10
-2.19999999999999
20
-9.08043846702645
30
0
41
1
10
-2.20000000000002
20
-8.78327691067398
30
0
41
1
10
-2.19999999999999
20
-8.55871423477029
30
0
41
1
10
-2.20000000000002
20
-8.33247384441506
30
0
41
1
10
-2.20000000000002
20
-8.10455846042146
30
0
41
1
10
-2.20000000000002
20
-7.87497052861914
30
0
41
1
10
-2.20000000000002
20
-7.64371312168015
30
0
41
1
10
-2.20000000000002
20
-7.41078904293681
30
0
41
1
10
-2.20000000000002
20
-7.17620223308296
30
0
41
1
10
-2.19999999999999
20
-6.93995689241024
30
0
41
1
10
-2.19999999999999
20
-6.70205756880284
30
0
41
1
10
-2.20000000000002
20
-6.46250917346816
30
0
41
1
10
-2.20000000000002
20
-6.22131783489101
30
0
41
1
10
-2.20000000000002
20
-5.97849051253723
30
0
41
1
10
-2.20000000000002
20
-5.73403522651992
30
0
41
1
10
-2.19999999999999
20
-5.48796106514416
30
0
41
1
10
-2.20000000000002
20
-5.24027911954084
30
0
41
1
10
-2.19999999999999
20
-5.0325366262478
30
0
41
1
10
-2.20000000000002
20
-4.86557359653662
30
0
41
1
10
-2.20000000000002
20
-4.73994907984502
30
0
41
1
10
-2.20000000000002
20
-4.61393371339872
30
0
41
1
10
-2.19999999999999
20
-4.44540775759583
30
0
41
1
10
-2.19999999999999
20
-4.23375654375477
30
0
41
1
10
-2.20000000000002
20
-4.020839617489
30
0
41
1
10
-2.20000000000002
20
-3.84978439330678
30
0
41
1
10
-2.19999999999999
20
-3.72111343644576
30
0
41
1
10
-2.19999999999999
20
-3.59207750684843
30
0
41
1
10
-2.20000000000002
20
-3.41956370437865
30
0
41
1
10
-2.19999999999999
20
-3.24629481975686
30
0
41
1
10
-2.19999999999999
20
-3.072383622975
30
0
41
1
10
-2.20000000000002
20
-2.94160047796314
30
0
41
1
10
-2.20000000000002
20
-2.81048648769612
30
0
41
1
10
-2.19999999999999
20
-2.67904893291686
30
0
41
1
10
-2.20000000000002
20
-2.54729563151926
30
0
41
1
10
-2.20000000000002
20
-2.41523552035437
30
0
41
1
10
-2.20000000000002
20
-2.28287741514001
30
0
41
1
10
-2.19999999999999
20
-2.15023167925048
30
0
41
1
10
-2.20000000000002
20
-2.01730874020455
30
0
41
1
10
-2.20000000000002
20
-1.8841202184704
30
0
41
1
10
-2.20000000000002
20
-1.75067843002714
30
0
41
1
10
-2.19999999999999
20
-1.61699635855226
30
0
41
1
10
-2.20000000000002
20
-1.48308822685567
30
0
41
1
10
-2.19999999999999
20
-1.34896860046499
30
0
41
1
10
-2.20000000000002
20
-1.21465351395383
30
0
41
1
10
-2.20000000000002
20
-1.08015922751395
30
0
41
1
10
-2.19999999999999
20
-0.945503451789534
30
0
41
1
10
-2.20000000000002
20
-0.810704122044939
30
0
41
1
10
-2.19999999999999
20
-0.675780432522174
30
0
41
1
10
-2.19999999999999
20
-0.540751798686529
30
0
41
1
10
-2.19999999999999
20
-0.405638608907907
30
0
41
1
10
-2.20000000000002
20
-0.270461437853925
30
0
41
1
10
-2.20000000000002
20
-0.135241472589996
30
0
41
1
10
-2.19999999999999
20
-5.3655071E-09
30
0
41
1
10
-2.20000000000002
20
0.135241462279822
30
0
41
1
10
-2.20000000000002
20
0.270461428271403
30
0
41
1
10
-2.20000000000002
20
0.405638599098921
30
0
41
1
10
-2.19999999999999
20
0.540751787789588
30
0
41
1
10
-2.20000000000002
20
0.675780421912322
30
0
41
1
10
-2.20000000000002
20
0.810704113119073
30
0
41
1
10
-2.20000000000002
20
0.945503442662783
30
0
41
1
10
-2.19999999999999
20
1.0801592162689
30
0
41
1
10
-2.20000000000002
20
1.21465350310538
30
0
41
1
10
-2.20000000000002
20
1.34896859254374
30
0
41
1
10
-2.19999999999999
20
1.48308821885627
30
0
41
1
10
-2.19999999999999
20
1.61699634722072
30
0
41
1
10
-2.20000000000002
20
1.75067841854351
30
0
41
1
10
-2.20000000000002
20
1.88412021099791
30
0
41
1
10
-2.20000000000002
20
2.01730873413069
30
0
41
1
10
-2.20000000000002
20
2.15023166945255
30
0
41
1
10
-2.20000000000002
20
2.28287740252156
30
0
41
1
10
-2.19999999999999
20
2.41523551097487
30
0
41
1
10
-2.20000000000002
20
2.54729562722176
30
0
41
1
10
-2.19999999999999
20
2.67904892732179
30
0
41
1
10
-2.19999999999999
20
2.81048647644627
30
0
41
1
10
-2.19999999999999
20
2.94160046512798
30
0
41
1
10
-2.20000000000002
20
3.07238361507387
30
0
41
1
10
-2.20000000000002
20
3.24629481959221
30
0
41
1
10
-2.19999999999999
20
3.41956369464535
30
0
41
1
10
-2.20000000000002
20
3.59207749308621
30
0
41
1
10
-2.19999999999999
20
3.72111342731068
30
0
41
1
10
-2.20000000000002
20
3.84978439152417
30
0
41
1
10
-2.19999999999999
20
4.02083961713782
30
0
41
1
10
-2.19999999999999
20
4.23375652596863
30
0
41
1
10
-2.20000000000002
20
4.44540774959788
30
0
41
1
10
-2.20000000000002
20
4.61393371339017
30
0
41
1
10
-2.19999999999999
20
4.73994908127321
30
0
41
1
10
-2.19999999999999
20
4.86557359122418
30
0
41
1
10
-2.20000000000002
20
5.03253661023487
30
0
41
1
10
-2.19999999999999
20
5.24027911118978
30
0
41
1
10
-2.20000000000002
20
5.48796107357256
30
0
41
1
10
-2.20000000000002
20
5.73403521575824
30
0
41
1
10
-2.19999999999999
20
5.97849049576266
30
0
41
1
10
-2.20000000000002
20
6.22131784000118
30
0
41
1
10
-2.20000000000002
20
6.46250918569615
30
0
41
1
10
-2.20000000000002
20
6.70205758660663
30
0
41
1
10
-2.20000000000002
20
6.93995692090419
30
0
41
1
10
-2.20000000000002
20
7.17620220160032
30
0
41
1
10
-2.19999999999999
20
7.41078884464241
30
0
41
1
10
-2.19999999999999
20
7.6437128367312
30
0
41
1
10
-2.20000000000002
20
7.87497060194642
30
0
41
1
10
-2.19999999999999
20
8.10455852701506
30
0
41
1
10
-2.19999999999999
20
8.33247380011301
30
0
41
1
10
-2.20000000000002
20
8.55871419535617
30
0
41
1
10
-2.19999999999999
20
8.78327689677772
30
0
41
1
10
-2.19999999999999
20
9.08043848955603
30
0
41
1
10
-2.20000000000002
20
9.44771865839309
30
0
41
1
10
-2.20000000000002
20
9.88169304970984
30
0
41
1
10
-2.20000000000002
20
10.2377184130835
30
0
41
1
10
-2.19999999999999
20
10.5191258614377
30
0
41
1
10
-2.19999999999999
20
10.7284950970913
30
0
41
1
10
-2.19999999999999
20
10.9361655879759
30
0
41
1
10
-2.19999999999999
20
11.1421359853757
30
0
41
1
10
-2.20000000000002
20
11.3464032807099
30
0
41
1
10
-2.20000000000002
20
11.5489655826482
30
0
41
1
10
-2.20000000000002
20
11.7498207258851
30
0
41
1
10
-2.20000000000002
20
12.0153352592314
30
0
41
1
10
-2.19999999999999
20
12.2774598592137
30
0
41
1
10
-2.19999999999999
20
12.5361142588231
30
0
41
1
10
-2.19999999999999
20
12.728392778749
30
0
41
1
10
-2.19999999999999
20
12.9189467805057
30
0
41
1
10
-2.19999999999999
20
13.1077737485311
30
0
41
1
10
-2.19999999999999
20
13.2948705974071
30
0
41
1
10
-2.19999999999999
20
13.4802328481714
30
0
41
1
10
-2.19999999999999
20
13.6638579861817
30
0
41
1
10
-2.19999999999999
20
13.8457420253844
30
0
41
1
10
-2.19999999999999
20
14.0258803741545
30
0
41
1
10
-2.19999999999999
20
14.2042700822291
30
0
41
1
10
-2.19999999999999
20
14.3809062427341
30
0
41
1
10
-2.19999999999999
20
14.5557843226631
30
0
41
1
10
-2.19999999999999
20
14.7289012367181
30
0
41
1
10
-2.19999999999999
20
14.90025131083
30
0
41
1
10
-2.19999999999999
20
15.0415708470876
30
0
41
1
10
-2.19999999999999
20
15.1537302031574
30
0
41
1
10
-2.19999999999999
20
15.2652965264295
30
0
41
1
10
-2.19999999999999
20
15.4036502143979
30
0
41
1
10
-2.19999999999999
20
15.567882396309
30
0
41
1
10
-2.19999999999999
20
15.7032538676567
30
0
41
1
10
-2.20000000000002
20
15.8106442286412
30
0
41
1
10
-2.19999999999999
20
15.9174340084588
30
0
41
1
10
-2.19999999999999
20
16.049802831716
30
0
41
1
10
-2.19999999999999
20
16.2591646002876
30
0
41
1
10
-2.19999999999999
20
16.4649164953067
30
0
41
1
10
-2.19999999999999
20
16.6669871400996
30
0
41
1
10
-2.19999999999999
20
16.8167088060477
30
0
41
1
10
-2.20000000000002
20
16.9645867974536
30
0
41
1
10
-2.19999999999999
20
17.1592829447589
30
0
41
1
10
-2.19999999999999
20
17.3502824417036
30
0
41
1
10
-2.19999999999999
20
17.5141131161323
30
0
41
1
10
-2.19999999999999
20
17.606787767091
30
0
41
1
10
-2.19999999999999
20
17.6988333809735
30
0
41
1
10
-2.19999999999999
20
17.8127164551587
30
0
41
1
10
-2.19999999999999
20
17.9923842356821
30
0
41
1
10
-2.19999999999999
20
18.1682545122203
30
0
41
1
10
-2.19999999999999
20
18.3402521463352
30
0
41
1
10
-2.19999999999999
20
18.4673177976698
30
0
41
1
10
-2.19999999999999
20
18.5924362845557
30
0
41
1
10
-2.19999999999999
20
18.756645794641
30
0
41
1
10
-2.19999999999999
20
18.9169360704622
30
0
41
1
10
-2.19999999999999
20
19.0536957086557
30
0
41
1
10
-2.19999999999999
20
19.1308417758755
30
0
41
1
10
-2.19999999999999
20
19.2073184270571
30
0
41
1
10
-2.19999999999999
20
19.3016622310533
30
0
41
1
10
-2.19999999999999
20
19.4499005336558
30
0
41
1
10
-2.19999999999999
20
19.5940778412012
30
0
41
1
10
-2.19999999999999
20
19.7341102362335
30
0
41
1
10
-2.19999999999999
20
19.8370591957147
30
0
41
1
10
-2.19999999999999
20
19.9379151599299
30
0
41
1
10
-2.19999999999999
20
20.0366642357895
30
0
41
1
10
-2.19999999999999
20
20.1332899477274
30
0
41
1
10
-2.19999999999999
20
20.2277776663919
30
0
41
1
10
-2.19999999999999
20
20.3201119071544
30
0
41
1
10
-2.19999999999999
20
20.4102747128949
30
0
41
1
10
-2.19999999999999
20
20.4982502525025
30
0
41
1
10
-2.19999999999999
20
20.5840212184218
30
0
41
1
10
-2.19999999999999
20
20.6675681841826
30
0
41
1
10
-2.19999999999999
20
20.7488739070252
30
0
41
1
10
-2.19999999999999
20
20.8279188369072
30
0
41
1
10
-2.19999999999999
20
20.9302657445266
30
0
41
1
10
-2.19999999999999
20
21.0280237507364
30
0
41
1
10
-2.19999999999999
20
21.121080083473
30
0
41
1
10
-2.19999999999999
20
21.1885090229233
30
0
41
1
10
-2.19999999999999
20
21.2535469243879
30
0
41
1
10
-2.19999999999999
20
21.3161703964091
30
0
41
1
10
-2.19999999999999
20
21.3763547276269
30
0
41
1
10
-2.19999999999999
20
21.453308753177
30
0
41
1
10
-2.19999999999999
20
21.5252891523049
30
0
41
1
10
-2.19999999999999
20
21.5921615264853
30
0
41
1
10
-2.19999999999999
20
21.6397397481888
30
0
41
1
10
-2.19999999999999
20
21.6847072709128
30
0
41
1
10
-2.19999999999999
20
21.7411390111089
30
0
41
1
10
-2.19999999999999
20
21.8049949078793
30
0
41
1
10
-2.19999999999999
20
21.870633664349
30
0
41
1
10
-2.19999999999996
20
21.9159230944434
30
0
41
1
10
-2.19999999999999
20
21.9463373083127
30
0
41
1
10
-2.19999999999999
20
21.9661971621578
30
0
41
1
10
-2.19999999999999
20
21.9830583750197
30
0
41
1
10
-2.19999999999999
20
21.9968726461305
30
0
41
1
10
-2.19999999999999
20
22.006959507084
30
0
41
1
10
-2.19999999999999
20
22.0117273411373
30
0
41
1
10
-2.19999999999999
20
22.0135193414057
30
0
0
SPLINE
5
121
100
AcDbEntity
8
SK1
62
256
6
ByLayer
370
18
48
1
60
0
100
AcDbSpline
70
4
71
3
72
303
73
299
40
0
40
0
40
0
40
0
40
0.0004865395961263
40
0.0039796373686978
40
0.0074727351412693
40
0.0109658329138408
40
0.0144589306864123
40
0.0179520284589838
40
0.0214451262315552
40
0.0249382240041267
40
0.0284313217766982
40
0.0319244195492697
40
0.0354175173218411
40
0.0389106150944126
40
0.0424037128669841
40
0.0458968106395556
40
0.0528830061846985
40
0.05637610395727
40
0.0598692017298415
40
0.0633622995024129
40
0.0668553972749844
40
0.0738415928201274
40
0.0773346905926989
40
0.0808277883652703
40
0.0843208861378419
40
0.0878139839104133
40
0.0913070816829848
40
0.0948001794555562
40
0.101786375000699
40
0.105279472773271
40
0.108772570545842
40
0.112265668318414
40
0.115758766090985
40
0.119251863863557
40
0.122744961636128
40
0.1262380594087
40
0.129731157181271
40
0.133224254953842
40
0.136717352726414
40
0.140210450498985
40
0.143703548271557
40
0.147196646044128
40
0.1506897438167
40
0.157675939361843
40
0.161169037134414
40
0.164662134906986
40
0.168155232679557
40
0.171648330452129
40
0.178634525997272
40
0.182127623769843
40
0.185620721542415
40
0.189113819314986
40
0.192606917087558
40
0.199593112632701
40
0.203086210405272
40
0.206579308177844
40
0.210072405950415
40
0.213565503722986
40
0.22055169926813
40
0.224044797040701
40
0.227537894813272
40
0.231030992585844
40
0.234524090358416
40
0.241510285903558
40
0.24500338367613
40
0.248496481448701
40
0.251989579221273
40
0.255482676993844
40
0.262468872538987
40
0.265961970311559
40
0.26945506808413
40
0.276441263629273
40
0.279934361401845
40
0.283427459174416
40
0.286920556946987
40
0.290413654719559
40
0.293906752492131
40
0.297399850264702
40
0.300892948037274
40
0.304386045809845
40
0.307879143582417
40
0.311372241354988
40
0.314865339127559
40
0.318358436900131
40
0.325344632445274
40
0.328837730217845
40
0.332330827990417
40
0.335823925762988
40
0.33931702353556
40
0.342810121308131
40
0.346303219080703
40
0.349796316853274
40
0.353289414625846
40
0.360275610170989
40
0.367261805716131
40
0.374248001261275
40
0.377741099033846
40
0.381234196806418
40
0.384727294578989
40
0.38822039235156
40
0.391713490124132
40
0.395206587896703
40
0.398699685669275
40
0.402192783441846
40
0.405685881214418
40
0.409178978986989
40
0.412672076759561
40
0.416165174532132
40
0.419658272304704
40
0.423151370077275
40
0.426644467849847
40
0.430137565622418
40
0.43363066339499
40
0.435377212281275
40
0.437123761167561
40
0.438870310053847
40
0.440616858940133
40
0.444109956712704
40
0.447603054485275
40
0.449349603371561
40
0.451096152257847
40
0.452842701144133
40
0.454589250030418
40
0.45808234780299
40
0.459828896689276
40
0.461575445575562
40
0.463321994461847
40
0.465068543348133
40
0.466815092234419
40
0.468561641120704
40
0.47030819000699
40
0.472054738893276
40
0.473801287779561
40
0.475547836665847
40
0.477294385552133
40
0.479040934438419
40
0.480787483324705
40
0.48253403221099
40
0.484280581097276
40
0.486027129983562
40
0.487773678869848
40
0.489520227756133
40
0.491266776642419
40
0.493013325528705
40
0.49475987441499
40
0.496506423301276
40
0.498252972187562
40
0.499999521073848
40
0.501746069960133
40
0.503492618846419
40
0.505239167732705
40
0.506985716618991
40
0.508732265505276
40
0.510478814391562
40
0.512225363277848
40
0.513971912164134
40
0.515718461050419
40
0.517465009936705
40
0.519211558822991
40
0.520958107709277
40
0.522704656595562
40
0.524451205481848
40
0.526197754368134
40
0.52794430325442
40
0.529690852140705
40
0.531437401026991
40
0.533183949913277
40
0.534930498799563
40
0.536677047685848
40
0.538423596572134
40
0.54017014545842
40
0.541916694344705
40
0.545409792117277
40
0.547156341003563
40
0.548902889889848
40
0.550649438776134
40
0.55239598766242
40
0.555889085434991
40
0.559382183207563
40
0.561128732093849
40
0.562875280980134
40
0.56462182986642
40
0.566368378752706
40
0.569861476525277
40
0.573354574297849
40
0.57684767207042
40
0.580340769842992
40
0.583833867615563
40
0.587326965388135
40
0.590820063160706
40
0.594313160933278
40
0.597806258705849
40
0.60129935647842
40
0.604792454250992
40
0.608285552023563
40
0.611778649796135
40
0.615271747568707
40
0.618764845341278
40
0.622257943113849
40
0.625751040886421
40
0.632737236431564
40
0.639723431976707
40
0.64670962752185
40
0.650202725294421
40
0.653695823066993
40
0.657188920839564
40
0.660682018612136
40
0.664175116384707
40
0.667668214157279
40
0.67116131192985
40
0.674654409702422
40
0.681640605247565
40
0.685133703020136
40
0.688626800792707
40
0.692119898565279
40
0.69561299633785
40
0.699106094110422
40
0.702599191882994
40
0.706092289655565
40
0.709585387428136
40
0.713078485200708
40
0.716571582973279
40
0.720064680745851
40
0.723557778518422
40
0.727050876290994
40
0.730543974063565
40
0.734037071836137
40
0.735783620722422
40
0.737530169608708
40
0.74102326738128
40
0.744516365153851
40
0.748009462926423
40
0.749756011812708
40
0.751502560698994
40
0.754995658471566
40
0.758488756244137
40
0.76547495178928
40
0.768968049561851
40
0.772461147334423
40
0.775954245106994
40
0.779447342879566
40
0.786433538424709
40
0.789926636197281
40
0.791673185083566
40
0.793419733969852
40
0.796912831742423
40
0.800405929514995
40
0.807392125060138
40
0.810885222832709
40
0.814378320605281
40
0.817871418377852
40
0.821364516150424
40
0.828350711695567
40
0.831843809468138
40
0.833590358354424
40
0.83533690724071
40
0.838830005013281
40
0.842323102785853
40
0.849309298330996
40
0.852802396103567
40
0.856295493876138
40
0.85978859164871
40
0.863281689421281
40
0.866774787193853
40
0.870267884966424
40
0.873760982738996
40
0.877254080511567
40
0.880747178284139
40
0.88424027605671
40
0.887733373829282
40
0.891226471601853
40
0.894719569374425
40
0.898212667146996
40
0.905198862692139
40
0.908691960464711
40
0.912185058237282
40
0.915678156009854
40
0.919171253782425
40
0.922664351554997
40
0.926157449327568
40
0.933143644872711
40
0.936636742645283
40
0.940129840417854
40
0.943622938190426
40
0.947116035962997
40
0.95410223150814
40
0.961088427053283
40
0.968074622598426
40
0.971567720370997
40
0.975060818143569
40
0.97855391591614
40
0.982047013688712
40
0.985540111461283
40
0.989033209233855
40
0.992526307006426
40
0.996019404778998
40
0.999512502551569
40
1
40
1
40
1
40
1
41
1
10
-36.5
20
-21.1556097691149
30
0
41
1
10
-36.5
20
-21.1558059424225
30
0
41
1
10
-36.5
20
-21.1573243063761
30
0
41
1
10
-36.5
20
-21.1588543296933
30
0
41
1
10
-36.5
20
-21.1578041644649
30
0
41
1
10
-36.5
20
-21.1536128319466
30
0
41
1
10
-36.5
20
-21.1463317710584
30
0
41
1
10
-36.5
20
-21.1360112646484
30
0
41
1
10
-36.5
20
-21.1226986516191
30
0
41
1
10
-36.5
20
-21.1064402531507
30
0
41
1
10
-36.5
20
-21.0872797892674
30
0
41
1
10
-36.5
20
-21.0652596303332
30
0
41
1
10
-36.5
20
-21.0404207944711
30
0
41
1
10
-36.5
20
-21.0128017234864
30
0
41
1
10
-36.5
20
-20.9824409225429
30
0
41
1
10
-36.5
20
-20.9382580424269
30
0
41
1
10
-36.5
20
-20.8890285523336
30
0
41
1
10
-36.5
20
-20.8342802793506
30
0
41
1
10
-36.5
20
-20.7907268231739
30
0
41
1
10
-36.5
20
-20.7446292080422
30
0
41
1
10
-36.5
20
-20.6796864153796
30
0
41
1
10
-36.5
20
-20.6101652553123
30
0
41
1
10
-36.5
20
-20.5353747607017
30
0
41
1
10
-36.5
20
-20.4769783724375
30
0
41
1
10
-36.5
20
-20.4161996091987
30
0
41
1
10
-36.5
20
-20.353062816238
30
0
41
1
10
-36.5
20
-20.287589681624
30
0
41
1
10
-36.5
20
-20.1970436522849
30
0
41
1
10
-36.5
20
-20.1024193061391
30
0
41
1
10
-36.5
20
-20.0027815100322
30
0
41
1
10
-36.5
20
-19.9259535527381
30
0
41
1
10
-36.5
20
-19.8469141406672
30
0
41
1
10
-36.5
20
-19.7656833992676
30
0
41
1
10
-36.5
20
-19.6822775521962
30
0
41
1
10
-36.5
20
-19.5967148362678
30
0
41
1
10
-36.5
20
-19.5090135437133
30
0
41
1
10
-36.5
20
-19.4191882978898
30
0
41
1
10
-36.5
20
-19.3272562516113
30
0
41
1
10
-36.5
20
-19.2332339353276
30
0
41
1
10
-36.5
20
-19.1371342717784
30
0
41
1
10
-36.5
20
-19.0389739868785
30
0
41
1
10
-36.5
20
-18.9387686023437
30
0
41
1
10
-36.5
20
-18.8022222651529
30
0
41
1
10
-36.5
20
-18.6623326618876
30
0
41
1
10
-36.5
20
-18.5177535555592
30
0
41
1
10
-36.5
20
-18.4075180436268
30
0
41
1
10
-36.5
20
-18.2953166794047
30
0
41
1
10
-36.5
20
-18.1428562465544
30
0
41
1
10
-36.5
20
-17.9872703841193
30
0
41
1
10
-36.5
20
-17.827069915531
30
0
41
1
10
-36.5
20
-17.7052052466277
30
0
41
1
10
-36.5
20
-17.5814422063202
30
0
41
1
10
-36.5
20
-17.4136313821348
30
0
41
1
10
-36.5
20
-17.2428947983014
30
0
41
1
10
-36.5
20
-17.0675955495038
30
0
41
1
10
-36.5
20
-16.9344844206004
30
0
41
1
10
-36.5
20
-16.7995343923806
30
0
41
1
10
-36.5
20
-16.6168608854212
30
0
41
1
10
-36.5
20
-16.4314450331352
30
0
41
1
10
-36.5
20
-16.241498813278
30
0
41
1
10
-36.5
20
-16.0974737380165
30
0
41
1
10
-36.5
20
-15.9516609547094
30
0
41
1
10
-36.5
20
-15.7545451164335
30
0
41
1
10
-36.5
20
-15.5548624364723
30
0
41
1
10
-36.5
20
-15.3506631330604
30
0
41
1
10
-36.5
20
-15.1960147192182
30
0
41
1
10
-36.5
20
-15.0396227184096
30
0
41
1
10
-36.5
20
-14.8284315021107
30
0
41
1
10
-36.5
20
-14.6148460432235
30
0
41
1
10
-36.5
20
-14.3967384349214
30
0
41
1
10
-36.5
20
-14.176348576809
30
0
41
1
10
-36.5
20
-13.95367691736
30
0
41
1
10
-36.5
20
-13.7264696827894
30
0
41
1
10
-36.5
20
-13.5546713888901
30
0
41
1
10
-36.5
20
-13.3811911431361
30
0
41
1
10
-36.5
20
-13.2060373895955
30
0
41
1
10
-36.5
20
-13.0292149436137
30
0
41
1
10
-36.5
20
-12.8507281979538
30
0
41
1
10
-36.5
20
-12.6705857704289
30
0
41
1
10
-36.5
20
-12.4887913848281
30
0
41
1
10
-36.5
20
-12.3053503320752
30
0
41
1
10
-36.5
20
-12.1202707134413
30
0
41
1
10
-36.5
20
-11.9335556252714
30
0
41
1
10
-36.5
20
-11.6819759007756
30
0
41
1
10
-36.5
20
-11.4285504962004
30
0
41
1
10
-36.5
20
-11.1704660987636
30
0
41
1
10
-36.5
20
-10.9756652058486
30
0
41
1
10
-36.5
20
-10.7792636942328
30
0
41
1
10
-36.5
20
-10.5812696339219
30
0
41
1
10
-36.5
20
-10.3816870614505
30
0
41
1
10
-36.5
20
-10.18052371466
30
0
41
1
10
-36.5
20
-9.9777856407232
30
0
41
1
10
-36.5
20
-9.70483575174822
30
0
41
1
10
-36.5
20
-9.36101273737589
30
0
41
1
10
-36.5
20
-8.94153442741853
30
0
41
1
10
-36.5
20
-8.58745782596952
30
0
41
1
10
-36.5
20
-8.30004452993893
30
0
41
1
10
-36.5
20
-8.08346945831602
30
0
41
1
10
-36.5
20
-7.86540128403746
30
0
41
1
10
-36.5
20
-7.64585158611581
30
0
41
1
10
-36.5
20
-7.42483229470756
30
0
41
1
10
-36.5
20
-7.20235684280954
30
0
41
1
10
-36.5
20
-6.97843834484934
30
0
41
1
10
-36.5
20
-6.7530905127978
30
0
41
1
10
-36.5
20
-6.52633051401983
30
0
41
1
10
-36.5
20
-6.29817748211656
30
0
41
1
10
-36.5
20
-6.06865017711212
30
0
41
1
10
-36.5
20
-5.83776875015039
30
0
41
1
10
-36.5
20
-5.60555655529353
30
0
41
1
10
-36.5
20
-5.37203995090809
30
0
41
1
10
-36.5
20
-5.1372458114655
30
0
41
1
10
-36.5
20
-4.90120586463621
30
0
41
1
10
-36.5
20
-4.70396584910506
30
0
41
1
10
-36.5
20
-4.54469650094609
30
0
41
1
10
-36.5
20
-4.42534006396795
30
0
41
1
10
-36.5
20
-4.30569969171862
30
0
41
1
10
-36.5
20
-4.14529326648051
30
0
41
1
10
-36.5
20
-3.94531869048151
30
0
41
1
10
-36.5
20
-3.74444967050349
30
0
41
1
10
-36.5
20
-3.58224072191865
30
0
41
1
10
-36.5
20
-3.46078948211164
30
0
41
1
10
-36.5
20
-3.33910698167958
30
0
41
1
10
-36.5
20
-3.17597095993787
30
0
41
1
10
-36.5
20
-3.01425656877106
30
0
41
1
10
-36.5
20
-2.8502314065623
30
0
41
1
10
-36.5
20
-2.72752148004804
30
0
41
1
10
-36.5
20
-2.60463057106841
30
0
41
1
10
-36.5
20
-2.48157389743918
30
0
41
1
10
-36.5
20
-2.35835622798223
30
0
41
1
10
-36.5
20
-2.2349905278607
30
0
41
1
10
-36.5
20
-2.11148756075912
30
0
41
1
10
-36.5
20
-1.98785458048857
30
0
41
1
10
-36.5
20
-1.86410640329151
30
0
41
1
10
-36.5
20
-1.7402482546413
30
0
41
1
10
-36.5
20
-1.61629518356966
30
0
41
1
10
-36.5
20
-1.49225310642999
30
0
41
1
10
-36.5
20
-1.3681348614752
30
0
41
1
10
-36.5
20
-1.24394734076813
30
0
41
1
10
-36.5
20
-1.11970111692673
30
0
41
1
10
-36.5
20
-0.995403468230791
30
0
41
1
10
-36.5
20
-0.871062970095153
30
0
41
1
10
-36.5
20
-0.746686131491828
30
0
41
1
10
-36.5
20
-0.622280094010875
30
0
41
1
10
-36.5
20
-0.497850400790583
30
0
41
1
10
-36.5
20
-0.373402960091425
30
0
41
1
10
-36.5
20
-0.248942266430646
30
0
41
1
10
-36.5
20
-0.124473254674001
30
0
41
1
10
-36.5
20
9.2462074E-09
30
0
41
1
10
-36.5
20
0.124473257200918
30
0
41
1
10
-36.5
20
0.248942238793148
30
0
41
1
10
-36.5
20
0.373402935182156
30
0
41
1
10
-36.5
20
0.497850420758368
30
0
41
1
10
-36.5
20
0.622280124115548
30
0
41
1
10
-36.5
20
0.746686102657719
30
0
41
1
10
-36.5
20
0.871062917068372
30
0
41
1
10
-36.5
20
0.995403485642754
30
0
41
1
10
-36.5
20
1.11970117534864
30
0
41
1
10
-36.5
20
1.24394732222777
30
0
41
1
10
-36.5
20
1.36813478148937
30
0
41
1
10
-36.5
20
1.49225310041956
30
0
41
1
10
-36.5
20
1.61629526151509
30
0
41
1
10
-36.5
20
1.74024827700825
30
0
41
1
10
-36.5
20
1.86410632124094
30
0
41
1
10
-36.5
20
1.98785451527647
30
0
41
1
10
-36.5
20
2.11148761081347
30
0
41
1
10
-36.5
20
2.23499061660053
30
0
41
1
10
-36.5
20
2.35835621123036
30
0
41
1
10
-36.5
20
2.48157378937663
30
0
41
1
10
-36.5
20
2.60463052157439
30
0
41
1
10
-36.5
20
2.72752154931172
30
0
41
1
10
-36.5
20
2.85023149996007
30
0
41
1
10
-36.5
20
3.01425651604552
30
0
41
1
10
-36.5
20
3.17597085922341
30
0
41
1
10
-36.5
20
3.33910702605104
30
0
41
1
10
-36.5
20
3.46078958963508
30
0
41
1
10
-36.5
20
3.58224076117995
30
0
41
1
10
-36.5
20
3.74444957084981
30
0
41
1
10
-36.5
20
3.94531865595207
30
0
41
1
10
-36.5
20
4.14529336499851
30
0
41
1
10
-36.5
20
4.30569972295402
30
0
41
1
10
-36.5
20
4.42533999597055
30
0
41
1
10
-36.5
20
4.54469638576828
30
0
41
1
10
-36.5
20
4.70396583147402
30
0
41
1
10
-36.5
20
4.90120595303733
30
0
41
1
10
-36.5
20
5.13724579696881
30
0
41
1
10
-36.5
20
5.37203985998676
30
0
41
1
10
-36.5
20
5.60555660448858
30
0
41
1
10
-36.5
20
5.83776884649416
30
0
41
1
10
-36.5
20
6.06865022444893
30
0
41
1
10
-36.5
20
6.29817753233076
30
0
41
1
10
-36.5
20
6.52633035082275
30
0
41
1
10
-36.5
20
6.75308981071322
30
0
41
1
10
-36.5
20
6.97843755879964
30
0
41
1
10
-36.5
20
7.20235735193418
30
0
41
1
10
-36.5
20
7.4248331808883
30
0
41
1
10
-36.5
20
7.64585131899611
30
0
41
1
10
-36.5
20
7.86540102208471
30
0
41
1
10
-36.5
20
8.08346950394389
30
0
41
1
10
-36.5
20
8.300044640236
30
0
41
1
10
-36.5
20
8.58745787193686
30
0
41
1
10
-36.5
20
8.94153438933259
30
0
41
1
10
-36.5
20
9.36101276272154
30
0
41
1
10
-36.5
20
9.70483576808863
30
0
41
1
10
-36.5
20
9.97778558435027
30
0
41
1
10
-36.5
20
10.180523710493
30
0
41
1
10
-36.5
20
10.3816871154457
30
0
41
1
10
-36.5
20
10.5812696725585
30
0
41
1
10
-36.5
20
10.7792636737398
30
0
41
1
10
-36.5
20
10.9756651586938
30
0
41
1
10
-36.5
20
11.1704660874498
30
0
41
1
10
-36.5
20
11.4285505376587
30
0
41
1
10
-36.5
20
11.6819759204348
30
0
41
1
10
-36.5
20
11.9335555855444
30
0
41
1
10
-36.5
20
12.1202706879328
30
0
41
1
10
-36.5
20
12.3053503484466
30
0
41
1
10
-36.5
20
12.4887914218501
30
0
41
1
10
-36.5
20
12.6705857874604
30
0
41
1
10
-36.5
20
12.8507281773019
30
0
41
1
10
-36.5
20
13.0292149133303
30
0
41
1
10
-36.5
20
13.2060373742643
30
0
41
1
10
-36.5
20
13.3811910773122
30
0
41
1
10
-36.5
20
13.5546710496343
30
0
41
1
10
-36.5
20
13.7264689694465
30
0
41
1
10
-36.5
20
13.8965816080865
30
0
41
1
10
-36.5
20
14.0650028858775
30
0
41
1
10
-36.5
20
14.2317235183089
30
0
41
1
10
-36.5
20
14.3690494022437
30
0
41
1
10
-36.5
20
14.4783873813363
30
0
41
1
10
-36.5
20
14.5871530954062
30
0
41
1
10
-36.5
20
14.7216281332594
30
0
41
1
10
-36.5
20
14.8814910451208
30
0
41
1
10
-36.5
20
15.0130920883853
30
0
41
1
10
-36.5
20
15.1178164480938
30
0
41
1
10
-36.5
20
15.2219600388738
30
0
41
1
10
-36.5
20
15.350663385132
30
0
41
1
10
-36.5
20
15.5548613446891
30
0
41
1
10
-36.5
20
15.7545445351489
30
0
41
1
10
-36.5
20
15.9516616651348
30
0
41
1
10
-36.5
20
16.097474719741
30
0
41
1
10
-36.5
20
16.2414991337765
30
0
41
1
10
-36.5
20
16.4314438788638
30
0
41
1
10
-36.5
20
16.6168596157572
30
0
41
1
10
-36.5
20
16.7765898513273
30
0
41
1
10
-36.5
20
16.867008999151
30
0
41
1
10
-36.5
20
16.9568152899196
30
0
41
1
10
-36.5
20
17.0675963011875
30
0
41
1
10
-36.5
20
17.2428939764416
30
0
41
1
10
-36.5
20
17.4136311437529
30
0
41
1
10
-36.5
20
17.5814423770725
30
0
41
1
10
-36.5
20
17.7052055421089
30
0
41
1
10
-36.5
20
17.8270700659299
30
0
41
1
10
-36.5
20
17.987269645424
30
0
41
1
10
-36.5
20
18.1428549391526
30
0
41
1
10
-36.5
20
18.2761667145511
30
0
41
1
10
-36.5
20
18.3514175898237
30
0
41
1
10
-36.5
20
18.4260133905722
30
0
41
1
10
-36.5
20
18.5177544284037
30
0
41
1
10
-36.5
20
18.6623317385554
30
0
41
1
10
-36.5
20
18.8022215100789
30
0
41
1
10
-36.5
20
18.9387689752275
30
0
41
1
10
-36.5
20
19.0389746878943
30
0
41
1
10
-36.5
20
19.1371346902892
30
0
41
1
10
-36.5
20
19.2332338822713
30
0
41
1
10
-36.5
20
19.3272561697677
30
0
41
1
10
-36.5
20
19.4191882696517
30
0
41
1
10
-36.5
20
19.5090135394173
30
0
41
1
10
-36.5
20
19.5967148149262
30
0
41
1
10
-36.5
20
19.6822775189499
30
0
41
1
10
-36.5
20
19.7656833730651
30
0
41
1
10
-36.5
20
19.8469141355251
30
0
41
1
10
-36.5
20
19.9259535572617
30
0
41
1
10
-36.5
20
20.0027815031752
30
0
41
1
10
-36.5
20
20.1024192722933
30
0
41
1
10
-36.5
20
20.1970436182683
30
0
41
1
10
-36.5
20
20.2875896826626
30
0
41
1
10
-36.5
20
20.3530628196555
30
0
41
1
10
-36.5
20
20.4161995895792
30
0
41
1
10
-36.5
20
20.4769783324059
30
0
41
1
10
-36.5
20
20.5353747251341
30
0
41
1
10
-36.5
20
20.6101652524536
30
0
41
1
10
-36.5
20
20.6796864194097
30
0
41
1
10
-36.5
20
20.7446291690672
30
0
41
1
10
-36.5
20
20.7907267804185
30
0
41
1
10
-36.5
20
20.8342802658871
30
0
41
1
10
-36.5
20
20.8890285612071
30
0
41
1
10
-36.5
20
20.950713074722
30
0
41
1
10
-36.5
20
21.0141777773224
30
0
41
1
10
-36.5
20
21.0578537406018
30
0
41
1
10
-36.5
20
21.0872797426226
30
0
41
1
10
-36.5
20
21.1064402158535
30
0
41
1
10
-36.5
20
21.1226986497682
30
0
41
1
10
-36.5
20
21.1360112678938
30
0
41
1
10
-36.5
20
21.1463317213718
30
0
41
1
10
-36.5
20
21.1536126358382
30
0
41
1
10
-36.5
20
21.1578038223016
30
0
41
1
10
-36.5
20
21.1588544331657
30
0
41
1
10
-36.5
20
21.1573244475909
30
0
41
1
10
-36.5
20
21.1558055946727
30
0
41
1
10
-36.5
20
21.1556089979371
30
0
0
SPLINE
5
122
100
AcDbEntity
8
SK1
62
256
6
ByLayer
370
18
48
1
60
0
100
AcDbSpline
70
4
71
3
72
299
73
295
40
0
40
0
40
0
40
0
40
0.0033211318331995
40
0.0068436556556162
40
0.010366179478033
40
0.0138887033004497
40
0.0174112271228665
40
0.0209337509452832
40
0.0244562747677
40
0.0279787985901167
40
0.0315013224125334
40
0.0350238462349502
40
0.0385463700573669
40
0.0420688938797837
40
0.0491139415246172
40
0.0526364653470339
40
0.0561589891694506
40
0.0596815129918674
40
0.0632040368142841
40
0.0702490844591176
40
0.0737716082815344
40
0.0772941321039511
40
0.0808166559263678
40
0.0843391797487846
40
0.0878617035712013
40
0.0913842273936181
40
0.0984292750384516
40
0.101951798860868
40
0.105474322683285
40
0.108996846505702
40
0.112519370328118
40
0.116041894150535
40
0.119564417972952
40
0.123086941795369
40
0.126609465617785
40
0.130131989440202
40
0.133654513262619
40
0.137177037085036
40
0.140699560907453
40
0.144222084729869
40
0.147744608552286
40
0.15478965619712
40
0.158312180019536
40
0.161834703841953
40
0.16535722766437
40
0.168879751486786
40
0.17592479913162
40
0.179447322954037
40
0.182969846776453
40
0.18649237059887
40
0.190014894421287
40
0.19705994206612
40
0.200582465888537
40
0.204104989710954
40
0.207627513533371
40
0.211150037355787
40
0.218195085000621
40
0.221717608823038
40
0.225240132645454
40
0.228762656467871
40
0.232285180290288
40
0.239330227935121
40
0.242852751757538
40
0.246375275579955
40
0.249897799402372
40
0.253420323224788
40
0.260465370869622
40
0.263987894692038
40
0.267510418514455
40
0.274555466159289
40
0.278077989981706
40
0.281600513804122
40
0.285123037626539
40
0.288645561448956
40
0.292168085271372
40
0.295690609093789
40
0.299213132916206
40
0.302735656738623
40
0.306258180561039
40
0.309780704383456
40
0.313303228205873
40
0.31682575202829
40
0.323870799673123
40
0.32739332349554
40
0.330915847317957
40
0.334438371140373
40
0.33796089496279
40
0.341483418785207
40
0.345005942607624
40
0.34852846643004
40
0.352050990252457
40
0.359096037897291
40
0.366141085542124
40
0.373186133186957
40
0.376708657009374
40
0.380231180831791
40
0.383753704654208
40
0.387276228476625
40
0.390798752299041
40
0.394321276121458
40
0.397843799943875
40
0.401366323766292
40
0.404888847588708
40
0.408411371411125
40
0.411933895233542
40
0.415456419055958
40
0.418978942878375
40
0.422501466700792
40
0.426023990523209
40
0.429546514345626
40
0.433069038168042
40
0.434830300079251
40
0.436591561990459
40
0.438352823901667
40
0.440114085812876
40
0.443636609635292
40
0.447159133457709
40
0.448920395368917
40
0.450681657280126
40
0.452442919191334
40
0.454204181102543
40
0.457726704924959
40
0.459487966836168
40
0.461249228747376
40
0.463010490658585
40
0.464771752569793
40
0.466533014481001
40
0.46829427639221
40
0.470055538303418
40
0.471816800214626
40
0.473578062125835
40
0.475339324037043
40
0.477100585948251
40
0.47886184785946
40
0.480623109770668
40
0.482384371681877
40
0.484145633593085
40
0.485906895504293
40
0.487668157415502
40
0.48942941932671
40
0.491190681237918
40
0.492951943149127
40
0.494713205060335
40
0.496474466971544
40
0.498235728882752
40
0.49999699079396
40
0.501758252705169
40
0.503519514616377
40
0.505280776527585
40
0.507042038438794
40
0.508803300350002
40
0.510564562261211
40
0.512325824172419
40
0.514087086083627
40
0.515848347994836
40
0.517609609906044
40
0.519370871817252
40
0.521132133728461
40
0.522893395639669
40
0.524654657550877
40
0.526415919462086
40
0.528177181373294
40
0.529938443284503
40
0.531699705195711
40
0.533460967106919
40
0.535222229018128
40
0.536983490929336
40
0.538744752840544
40
0.540506014751753
40
0.542267276662961
40
0.545789800485378
40
0.547551062396586
40
0.549312324307795
40
0.551073586219003
40
0.552834848130211
40
0.556357371952628
40
0.559879895775045
40
0.561641157686253
40
0.563402419597462
40
0.56516368150867
40
0.566924943419878
40
0.570447467242295
40
0.573969991064712
40
0.577492514887129
40
0.581015038709545
40
0.584537562531962
40
0.588060086354379
40
0.591582610176796
40
0.595105133999212
40
0.598627657821629
40
0.602150181644046
40
0.605672705466463
40
0.609195229288879
40
0.612717753111296
40
0.616240276933713
40
0.61976280075613
40
0.623285324578546
40
0.626807848400963
40
0.633852896045797
40
0.64089794369063
40
0.647942991335464
40
0.65146551515788
40
0.654988038980297
40
0.658510562802714
40
0.662033086625131
40
0.665555610447547
40
0.669078134269964
40
0.672600658092381
40
0.676123181914797
40
0.683168229559631
40
0.686690753382048
40
0.690213277204464
40
0.693735801026881
40
0.697258324849298
40
0.700780848671715
40
0.704303372494131
40
0.707825896316548
40
0.711348420138965
40
0.714870943961382
40
0.718393467783798
40
0.721915991606215
40
0.725438515428632
40
0.728961039251048
40
0.732483563073465
40
0.736006086895882
40
0.737767348807091
40
0.739528610718299
40
0.743051134540715
40
0.746573658363132
40
0.750096182185549
40
0.751857444096757
40
0.753618706007966
40
0.757141229830382
40
0.760663753652799
40
0.767708801297633
40
0.771231325120049
40
0.774753848942466
40
0.778276372764883
40
0.7817988965873
40
0.788843944232133
40
0.79236646805455
40
0.794127729965758
40
0.795888991876967
40
0.799411515699383
40
0.8029340395218
40
0.809979087166634
40
0.81350161098905
40
0.817024134811467
40
0.820546658633884
40
0.824069182456301
40
0.831114230101134
40
0.834636753923551
40
0.836398015834759
40
0.838159277745968
40
0.841681801568384
40
0.845204325390801
40
0.852249373035635
40
0.855771896858051
40
0.859294420680468
40
0.862816944502885
40
0.866339468325302
40
0.869861992147718
40
0.873384515970135
40
0.876907039792552
40
0.880429563614969
40
0.883952087437385
40
0.887474611259802
40
0.890997135082219
40
0.894519658904636
40
0.898042182727052
40
0.901564706549469
40
0.908609754194303
40
0.912132278016719
40
0.915654801839136
40
0.919177325661553
40
0.92269984948397
40
0.926222373306386
40
0.929744897128803
40
0.936789944773637
40
0.940312468596053
40
0.94383499241847
40
0.947357516240887
40
0.950880040063304
40
0.957925087708137
40
0.96497013535297
40
0.972015182997804
40
0.975537706820221
40
0.979060230642637
40
0.982582754465054
40
0.986105278287471
40
0.989627802109888
40
0.993150325932304
40
0.996672849754721
40
1
40
1
40
1
40
1
41
1
10
-1.99503997793923
20
-21.825164479243
30
0
41
1
10
-1.99503997793926
20
-21.8252830023194
30
0
41
1
10
-1.99503997793926
20
-21.8245216799906
30
0
41
1
10
-1.99503997793928
20
-21.8202838734724
30
0
41
1
10
-1.99503997793926
20
-21.8127830851058
30
0
41
1
10
-1.99503997793928
20
-21.8021565310045
30
0
41
1
10
-1.99503997793928
20
-21.7884557380592
30
0
41
1
10
-1.99503997793928
20
-21.7717309018817
30
0
41
1
10
-1.99503997793926
20
-21.7520292420694
30
0
41
1
10
-1.99503997793928
20
-21.7293964429163
30
0
41
1
10
-1.99503997793928
20
-21.7038764495607
30
0
41
1
10
-1.99503997793928
20
-21.6755105092645
30
0
41
1
10
-1.99503997793926
20
-21.6443396610233
30
0
41
1
10
-1.99503997793928
20
-21.5990695510926
30
0
41
1
10
-1.99503997793928
20
-21.5484022410126
30
0
41
1
10
-1.99503997793928
20
-21.4923513092323
30
0
41
1
10
-1.99503997793928
20
-21.4477036445725
30
0
41
1
10
-1.99503997793928
20
-21.4004603045828
30
0
41
1
10
-1.99503997793928
20
-21.3340243512753
30
0
41
1
10
-1.99503997793928
20
-21.262600218376
30
0
41
1
10
-1.99503997793928
20
-21.1861355753666
30
0
41
1
10
-1.99503997793928
20
-21.1263556466612
30
0
41
1
10
-1.99503997793928
20
-21.064149408511
30
0
41
1
10
-1.99503997793928
20
-20.9995415068112
30
0
41
1
10
-1.99503997793928
20
-20.9325549572362
30
0
41
1
10
-1.99503997793928
20
-20.8400664428987
30
0
41
1
10
-1.99503997793928
20
-20.7430172190697
30
0
41
1
10
-1.99503997793928
20
-20.6412830627252
30
0
41
1
10
-1.99503997793928
20
-20.5627395868944
30
0
41
1
10
-1.99503997793928
20
-20.4819464863244
30
0
41
1
10
-1.99503997793928
20
-20.398923430088
30
0
41
1
10
-1.99503997793928
20
-20.3136874196731
30
0
41
1
10
-1.99503997793928
20
-20.2262576202058
30
0
41
1
10
-1.99503997793928
20
-20.1366515718167
30
0
41
1
10
-1.99503997793928
20
-20.0448848362118
30
0
41
1
10
-1.99503997793928
20
-19.9509751416388
30
0
41
1
10
-1.99503997793928
20
-19.8549381550126
30
0
41
1
10
-1.99503997793928
20
-19.7567881415466
30
0
41
1
10
-1.99503997793928
20
-19.6565420567613
30
0
41
1
10
-1.99503997793928
20
-19.5542140249085
30
0
41
1
10
-1.99503997793928
20
-19.414970513124
30
0
41
1
10
-1.99503997793928
20
-19.2717625055688
30
0
41
1
10
-1.99503997793928
20
-19.1243510467918
30
0
41
1
10
-1.99503997793928
20
-19.0118150097952
30
0
41
1
10
-1.99503997793928
20
-18.8972761707097
30
0
41
1
10
-1.99503997793928
20
-18.7418497326446
30
0
41
1
10
-1.99503997793928
20
-18.5826226298873
30
0
41
1
10
-1.99503997793928
20
-18.4193198181252
30
0
41
1
10
-1.99503997793928
20
-18.2949373683468
30
0
41
1
10
-1.99503997793928
20
-18.1686188521771
30
0
41
1
10
-1.99503997793931
20
-17.9975683374733
30
0
41
1
10
-1.99503997793931
20
-17.8228590748675
30
0
41
1
10
-1.99503997793928
20
-17.6441786252734
30
0
41
1
10
-1.99503997793931
20
-17.5083251903719
30
0
41
1
10
-1.99503997793928
20
-17.3705928023913
30
0
41
1
10
-1.99503997793928
20
-17.1843924611908
30
0
41
1
10
-1.99503997793928
20
-16.9946550481209
30
0
41
1
10
-1.99503997793928
20
-16.8010329188422
30
0
41
1
10
-1.99503997793931
20
-16.6540265683948
30
0
41
1
10
-1.99503997793928
20
-16.5051894037979
30
0
41
1
10
-1.99503997793928
20
-16.3042398246232
30
0
41
1
10
-1.99503997793928
20
-16.0998603532658
30
0
41
1
10
-1.99503997793928
20
-15.8916657661057
30
0
41
1
10
-1.99503997793928
20
-15.733775855726
30
0
41
1
10
-1.99503997793928
20
-15.574095422854
30
0
41
1
10
-1.99503997793928
20
-15.3587351142266
30
0
41
1
10
-1.99503997793931
20
-15.1400402265273
30
0
41
1
10
-1.99503997793928
20
-14.9175842595472
30
0
41
1
10
-1.99503997793931
20
-14.6927797943809
30
0
41
1
10
-1.99503997793928
20
-14.4646959102749
30
0
41
1
10
-1.99503997793931
20
-14.2328810143213
30
0
41
1
10
-1.99503997793931
20
-14.0573389921213
30
0
41
1
10
-1.99503997793928
20
-13.8800597145162
30
0
41
1
10
-1.99503997793928
20
-13.7010488212408
30
0
41
1
10
-1.99503997793928
20
-13.520309646993
30
0
41
1
10
-1.99503997793928
20
-13.3378467396349
30
0
41
1
10
-1.99503997793931
20
-13.1536651432542
30
0
41
1
10
-1.99503997793931
20
-12.9677676529033
30
0
41
1
10
-1.99503997793928
20
-12.7801589212449
30
0
41
1
10
-1.99503997793928
20
-12.5908431584255
30
0
41
1
10
-1.99503997793931
20
-12.3998230071702
30
0
41
1
10
-1.99503997793928
20
-12.1427687977971
30
0
41
1
10
-1.99503997793928
20
-11.8826118620781
30
0
41
1
10
-1.99503997793928
20
-11.6187779427602
30
0
41
1
10
-1.99503997793931
20
-11.4192921870092
30
0
41
1
10
-1.99503997793931
20
-11.2181233670389
30
0
41
1
10
-1.99503997793931
20
-11.0152749978462
30
0
41
1
10
-1.99503997793928
20
-10.8107494592904
30
0
41
1
10
-1.99503997793931
20
-10.6045508126063
30
0
41
1
10
-1.99503997793928
20
-10.3966814549587
30
0
41
1
10
-1.99503997793928
20
-10.1171869828061
30
0
41
1
10
-1.99503997793931
20
-9.76392165975841
30
0
41
1
10
-1.99503997793931
20
-9.33322609823665
30
0
41
1
10
-1.99503997793931
20
-8.96893239301764
30
0
41
1
10
-1.99503997793931
20
-8.67397577159846
30
0
41
1
10
-1.99503997793931
20
-8.4512197921853
30
0
41
1
10
-1.99503997793931
20
-8.22682785520686
30
0
41
1
10
-1.99503997793931
20
-8.00080468509063
30
0
41
1
10
-1.99503997793931
20
-7.77315487290267
30
0
41
1
10
-1.99503997793931
20
-7.54388383469134
30
0
41
1
10
-1.99503997793931
20
-7.31299670603016
30
0
41
1
10
-1.99503997793931
20
-7.08049963775395
30
0
41
1
10
-1.99503997793931
20
-6.84639976314466
30
0
41
1
10
-1.99503997793931
20
-6.61070492919379
30
0
41
1
10
-1.99503997793931
20
-6.37342317953835
30
0
41
1
10
-1.99503997793931
20
-6.13456381441387
30
0
41
1
10
-1.99503997793931
20
-5.89413750153935
30
0
41
1
10
-1.99503997793931
20
-5.65215640891225
30
0
41
1
10
-1.99503997793931
20
-5.4086336478467
30
0
41
1
10
-1.99503997793931
20
-5.16358497720142
30
0
41
1
10
-1.99503997793931
20
-4.95821801342223
30
0
41
1
10
-1.99503997793931
20
-4.7929951985453
30
0
41
1
10
-1.99503997793931
20
-4.66878844332791
30
0
41
1
10
-1.99503997793931
20
-4.54421502107888
30
0
41
1
10
-1.99503997793931
20
-4.37752560184694
30
0
41
1
10
-1.99503997793931
20
-4.16851549788919
30
0
41
1
10
-1.99503997793931
20
-3.95832365779984
30
0
41
1
10
-1.99503997793931
20
-3.78926935085312
30
0
41
1
10
-1.99503997793931
20
-3.66223140396673
30
0
41
1
10
-1.99503997793931
20
-3.53485872835634
30
0
41
1
10
-1.99503997793931
20
-3.36446606295527
30
0
41
1
10
-1.99503997793931
20
-3.19381066067948
30
0
41
1
10
-1.99503997793931
20
-3.02213556164864
30
0
41
1
10
-1.99503997793931
20
-2.89317847799561
30
0
41
1
10
-1.99503997793931
20
-2.76392444618185
30
0
41
1
10
-1.99503997793931
20
-2.63438254221708
30
0
41
1
10
-1.99503997793931
20
-2.50455989433328
30
0
41
1
10
-1.99503997793931
20
-2.37446635053541
30
0
41
1
10
-1.99503997793928
20
-2.24411116714702
30
0
41
1
10
-1.99503997793931
20
-2.11350400419804
30
0
41
1
10
-1.99503997793931
20
-1.98265628188182
30
0
41
1
10
-1.99503997793931
20
-1.85157817419838
30
0
41
1
10
-1.99503997793931
20
-1.72028261530932
30
0
41
1
10
-1.99503997793931
20
-1.58878099035152
30
0
41
1
10
-1.99503997793931
20
-1.45708720896539
30
0
41
1
10
-1.99503997793931
20
-1.32521410103647
30
0
41
1
10
-1.99503997793931
20
-1.1931764657121
30
0
41
1
10
-1.99503997793931
20
-1.06098853158755
30
0
41
1
10
-1.99503997793931
20
-0.928665943032058
30
0
41
1
10
-1.99503997793928
20
-0.796224050825089
30
0
41
1
10
-1.99503997793931
20
-0.663679323049081
30
0
41
1
10
-1.99503997793931
20
-0.531048037421982
30
0
41
1
10
-1.99503997793931
20
-0.398347307093388
30
0
41
1
10
-1.99503997793928
20
-0.265594069601519
30
0
41
1
10
-1.99503997793931
20
-0.132805835966792
30
0
41
1
10
-1.99503997793931
20
-2.0605171E-09
30
0
41
1
10
-1.99503997793931
20
0.132805828560208
30
0
41
1
10
-1.99503997793931
20
0.265594055935196
30
0
41
1
10
-1.99503997793931
20
0.398347293868909
30
0
41
1
10
-1.99503997793931
20
0.531048033506266
30
0
41
1
10
-1.99503997793931
20
0.663679321648374
30
0
41
1
10
-1.99503997793931
20
0.796224037396229
30
0
41
1
10
-1.99503997793931
20
0.928665923975672
30
0
41
1
10
-1.99503997793931
20
1.06098852682436
30
0
41
1
10
-1.99503997793931
20
1.19317647053174
30
0
41
1
10
-1.99503997793931
20
1.32521409071333
30
0
41
1
10
-1.99503997793931
20
1.45708718468356
30
0
41
1
10
-1.99503997793931
20
1.58878098022356
30
0
41
1
10
-1.99503997793931
20
1.72028262405345
30
0
41
1
10
-1.99503997793931
20
1.85157817347519
30
0
41
1
10
-1.99503997793931
20
1.98265625862297
30
0
41
1
10
-1.99503997793931
20
2.11350398186613
30
0
41
1
10
-1.99503997793931
20
2.24411116870436
30
0
41
1
10
-1.99503997793931
20
2.37446636334928
30
0
41
1
10
-1.99503997793931
20
2.50455988721873
30
0
41
1
10
-1.99503997793931
20
2.63438251344516
30
0
41
1
10
-1.99503997793931
20
2.76392442628162
30
0
41
1
10
-1.99503997793931
20
2.8931784837302
30
0
41
1
10
-1.99503997793931
20
3.02213557666008
30
0
41
1
10
-1.99503997793931
20
3.19381064862623
30
0
41
1
10
-1.99503997793931
20
3.36446603264315
30
0
41
1
10
-1.99503997793931
20
3.53485872774323
30
0
41
1
10
-1.99503997793931
20
3.66223142121836
30
0
41
1
10
-1.99503997793931
20
3.78926935835412
30
0
41
1
10
-1.99503997793931
20
3.95832363498766
30
0
41
1
10
-1.99503997793931
20
4.16851547631592
30
0
41
1
10
-1.99503997793931
20
4.37752561794156
30
0
41
1
10
-1.99503997793931
20
4.5442150281373
30
0
41
1
10
-1.99503997793931
20
4.66878842905288
30
0
41
1
10
-1.99503997793928
20
4.79299516838267
30
0
41
1
10
-1.99503997793931
20
4.95821799704331
30
0
41
1
10
-1.99503997793931
20
5.16358499073448
30
0
41
1
10
-1.99503997793931
20
5.4086336510897
30
0
41
1
10
-1.99503997793931
20
5.65215638001948
30
0
41
1
10
-1.99503997793931
20
5.89413749968628
30
0
41
1
10
-1.99503997793931
20
6.13456384015993
30
0
41
1
10
-1.99503997793931
20
6.37342319970753
30
0
41
1
10
-1.99503997793931
20
6.61070495432838
30
0
41
1
10
-1.99503997793928
20
6.84639974828048
30
0
41
1
10
-1.99503997793931
20
7.0804994545895
30
0
41
1
10
-1.99503997793931
20
7.31299637479282
30
0
41
1
10
-1.99503997793931
20
7.54388372935193
30
0
41
1
10
-1.99503997793931
20
7.77315513008728
30
0
41
1
10
-1.99503997793928
20
8.00080467620242
30
0
41
1
10
-1.99503997793931
20
8.22682776167494
30
0
41
1
10
-1.99503997793928
20
8.45121977200662
30
0
41
1
10
-1.99503997793931
20
8.6739757857932
30
0
41
1
10
-1.99503997793931
20
8.96893242084855
30
0
41
1
10
-1.99503997793931
20
9.33322608836653
30
0
41
1
10
-1.99503997793931
20
9.76392166117952
30
0
41
1
10
-1.99503997793928
20
10.1171870033238
30
0
41
1
10
-1.99503997793931
20
10.3966814407573
30
0
41
1
10
-1.99503997793931
20
10.6045508021232
30
0
41
1
10
-1.99503997793931
20
10.8107494713071
30
0
41
1
10
-1.99503997793928
20
11.0152750188843
30
0
41
1
10
-1.99503997793928
20
11.2181233733031
30
0
41
1
10
-1.99503997793928
20
11.4192921752591
30
0
41
1
10
-1.99503997793931
20
11.6187779306707
30
0
41
1
10
-1.99503997793931
20
11.8826118718573
30
0
41
1
10
-1.99503997793931
20
12.1427688173785
30
0
41
1
10
-1.99503997793931
20
12.3998230002593
30
0
41
1
10
-1.99503997793931
20
12.5908431445086
30
0
41
1
10
-1.99503997793928
20
12.7801589185361
30
0
41
1
10
-1.99503997793928
20
12.967767664355
30
0
41
1
10
-1.99503997793931
20
13.1536651576331
30
0
41
1
10
-1.99503997793931
20
13.3378467409434
30
0
41
1
10
-1.99503997793928
20
13.5203096364964
30
0
41
1
10
-1.99503997793931
20
13.7010488098078
30
0
41
1
10
-1.99503997793928
20
13.8800596938692
30
0
41
1
10
-1.99503997793931
20
14.0573388809364
30
0
41
1
10
-1.99503997793928
20
14.2328806917249
30
0
41
1
10
-1.99503997793931
20
14.4066808882548
30
0
41
1
10
-1.99503997793931
20
14.578735707937
30
0
41
1
10
-1.99503997793931
20
14.7490386600654
30
0
41
1
10
-1.99503997793928
20
14.8894548819647
30
0
41
1
10
-1.99503997793931
20
15.0009760777421
30
0
41
1
10
-1.99503997793931
20
15.1119089381336
30
0
41
1
10
-1.99503997793928
20
15.2493853238091
30
0
41
1
10
-1.99503997793931
20
15.4126292313156
30
0
41
1
10
-1.99503997793928
20
15.5471478788444
30
0
41
1
10
-1.99503997793931
20
15.6539352235828
30
0
41
1
10
-1.99503997793928
20
15.7601264684356
30
0
41
1
10
-1.99503997793928
20
15.8916662065006
30
0
41
1
10
-1.99503997793931
20
16.0998599858609
30
0
41
1
10
-1.99503997793931
20
16.3042392155796
30
0
41
1
10
-1.99503997793928
20
16.5051894370887
30
0
41
1
10
-1.99503997793928
20
16.654027023888
30
0
41
1
10
-1.99503997793928
20
16.8010333841432
30
0
41
1
10
-1.99503997793931
20
16.9946548235122
30
0
41
1
10
-1.99503997793928
20
17.1843913435575
30
0
41
1
10
-1.99503997793928
20
17.3472945498449
30
0
41
1
10
-1.99503997793928
20
17.4394590341184
30
0
41
1
10
-1.99503997793928
20
17.5309981410348
30
0
41
1
10
-1.99503997793928
20
17.6441795672679
30
0
41
1
10
-1.99503997793931
20
17.8228588844704
30
0
41
1
10
-1.99503997793928
20
17.9975681157064
30
0
41
1
10
-1.99503997793928
20
18.1686188381619
30
0
41
1
10
-1.99503997793928
20
18.2949375082747
30
0
41
1
10
-1.99503997793928
20
18.4193199892891
30
0
41
1
10
-1.99503997793928
20
18.5826225030747
30
0
41
1
10
-1.99503997793928
20
18.7418485706132
30
0
41
1
10
-1.99503997793928
20
18.877828345234
30
0
41
1
10
-1.99503997793928
20
18.9545457436666
30
0
41
1
10
-1.99503997793928
20
19.0305969699326
30
0
41
1
10
-1.99503997793928
20
19.1243520606764
30
0
41
1
10
-1.99503997793928
20
19.2717622924356
30
0
41
1
10
-1.99503997793928
20
19.4149698127943
30
0
41
1
10
-1.99503997793928
20
19.5542139601407
30
0
41
1
10
-1.99503997793928
20
19.6565424313982
30
0
41
1
10
-1.99503997793928
20
19.7567886026657
30
0
41
1
10
-1.99503997793928
20
19.8549383078336
30
0
41
1
10
-1.99503997793928
20
19.9509751576252
30
0
41
1
10
-1.99503997793928
20
20.0448848271876
30
0
41
1
10
-1.99503997793928
20
20.136651569995
30
0
41
1
10
-1.99503997793928
20
20.2262576082901
30
0
41
1
10
-1.99503997793928
20
20.3136873945745
30
0
41
1
10
-1.99503997793928
20
20.3989234016943
30
0
41
1
10
-1.99503997793928
20
20.4819464711493
30
0
41
1
10
-1.99503997793928
20
20.5627395849404
30
0
41
1
10
-1.99503997793928
20
20.6412830606924
30
0
41
1
10
-1.99503997793928
20
20.7430171949632
30
0
41
1
10
-1.99503997793928
20
20.8400664063016
30
0
41
1
10
-1.99503997793928
20
20.9325549476398
30
0
41
1
10
-1.99503997793928
20
20.9995415089612
30
0
41
1
10
-1.99503997793928
20
21.0641493981766
30
0
41
1
10
-1.99503997793928
20
21.126355615456
30
0
41
1
10
-1.99503997793928
20
21.1861355372814
30
0
41
1
10
-1.99503997793928
20
21.2626002065085
30
0
41
1
10
-1.99503997793928
20
21.3340243579833
30
0
41
1
10
-1.99503997793928
20
21.4004602751572
30
0
41
1
10
-1.99503997793928
20
21.4477036012609
30
0
41
1
10
-1.99503997793928
20
21.4923512863894
30
0
41
1
10
-1.99503997793928
20
21.5484022523455
30
0
41
1
10
-1.99503997793928
20
21.6117670092986
30
0
41
1
10
-1.99503997793928
20
21.6769140218914
30
0
41
1
10
-1.99503997793928
20
21.7218385059106
30
0
41
1
10
-1.99503997793928
20
21.7520291985819
30
0
41
1
10
-1.99503997793928
20
21.7717308612526
30
0
41
1
10
-1.99503997793928
20
21.7884557330328
30
0
41
1
10
-1.99503997793928
20
21.8021565364934
30
0
41
1
10
-1.99503997793928
20
21.812783044142
30
0
41
1
10
-1.99503997793928
20
21.8202836860757
30
0
41
1
10
-1.99503997793928
20
21.8245237929112
30
0
41
1
10
-1.99503997793928
20
21.8252842773721
30
0
41
1
10
-1.99503997793928
20
21.8251638938154
30
0
0
SPLINE
5
123
100
AcDbEntity
8
SK1
62
256
6
ByLayer
370
18
48
1
60
0
100
AcDbSpline
70
4
71
3
72
111
73
107
40
0
40
0
40
0
40
0
40
0.0065522654705125
40
0.0150965445254755
40
0.0236408235804384
40
0.0321851026354014
40
0.0407293816903644
40
0.0492736607453273
40
0.0578179398002902
40
0.0663622188552532
40
0.0749064979102161
40
0.0834507769651791
40
0.091995056020142
40
0.100539335075105
40
0.117627893185031
40
0.126172172239994
40
0.134716451294957
40
0.14326073034992
40
0.151805009404883
40
0.168893567514809
40
0.177437846569772
40
0.185982125624735
40
0.194526404679698
40
0.20307068373466
40
0.211614962789623
40
0.220159241844586
40
0.237247799954512
40
0.245792079009475
40
0.254336358064438
40
0.262880637119401
40
0.271424916174364
40
0.279969195229327
40
0.28851347428429
40
0.297057753339253
40
0.305602032394216
40
0.314146311449179
40
0.322690590504142
40
0.331234869559105
40
0.339779148614068
40
0.348323427669031
40
0.356867706723993
40
0.37395626483392
40
0.382500543888882
40
0.391044822943845
40
0.399589101998808
40
0.408133381053771
40
0.425221939163697
40
0.43376621821866
40
0.442310497273623
40
0.450854776328586
40
0.459399055383549
40
0.476487613493475
40
0.485031892548438
40
0.493576171603401
40
0.502120450658364
40
0.510664729713327
40
0.527753287823253
40
0.536297566878216
40
0.544841845933178
40
0.553386124988141
40
0.561930404043104
40
0.57901896215303
40
0.587563241207993
40
0.596107520262956
40
0.604651799317919
40
0.613196078372882
40
0.630284636482808
40
0.638828915537771
40
0.647373194592734
40
0.66446175270266
40
0.673006031757623
40
0.681550310812586
40
0.690094589867549
40
0.698638868922511
40
0.707183147977475
40
0.715727427032437
40
0.7242717060874
40
0.732815985142363
40
0.741360264197326
40
0.749904543252289
40
0.758448822307252
40
0.766993101362215
40
0.784081659472141
40
0.792625938527104
40
0.801170217582067
40
0.80971449663703
40
0.818258775691993
40
0.826803054746956
40
0.835347333801919
40
0.843891612856882
40
0.852435891911845
40
0.86952445002177
40
0.886613008131697
40
0.903701566241622
40
0.912245845296585
40
0.920790124351548
40
0.929334403406511
40
0.937878682461474
40
0.946422961516437
40
0.9549672405714
40
0.963511519626363
40
0.972055798681326
40
0.980600077736289
40
0.989144356791252
40
0.997688635846215
40
1
40
1
40
1
40
1
41
1
10
-0.39497688887522
20
-21.8653787939211
30
0
41
1
10
-0.39497688887522
20
-21.8653271909313
30
0
41
1
10
-0.394976888875277
20
-21.8644655188652
30
0
41
1
10
-0.394976888875277
20
-21.8604739519412
30
0
41
1
10
-0.394976888875277
20
-21.8529599173646
30
0
41
1
10
-0.394976888875277
20
-21.8423149132633
30
0
41
1
10
-0.394976888875277
20
-21.8285907189997
30
0
41
1
10
-0.394976888875277
20
-21.8118377637545
30
0
41
1
10
-0.394976888875277
20
-21.7921034780961
30
0
41
1
10
-0.394976888875277
20
-21.7694337460976
30
0
41
1
10
-0.394976888875277
20
-21.7438726893518
30
0
41
1
10
-0.394976888875277
20
-21.7154617242468
30
0
41
1
10
-0.394976888875277
20
-21.6842420425293
30
0
41
1
10
-0.394976888875277
20
-21.6389063892513
30
0
41
1
10
-0.394976888875277
20
-21.5881524005931
30
0
41
1
10
-0.394976888875277
20
-21.5320229383892
30
0
41
1
10
-0.394976888875277
20
-21.4873093096751
30
0
41
1
10
-0.394976888875277
20
-21.4399968999807
30
0
41
1
10
-0.394976888875277
20
-21.3734709318986
30
0
41
1
10
-0.394976888875277
20
-21.301932078811
30
0
41
1
10
-0.394976888875277
20
-21.2253665102307
30
0
41
1
10
-0.394976888875277
20
-21.1655031751743
30
0
41
1
10
-0.394976888875277
20
-21.1032108820957
30
0
41
1
10
-0.394976888875277
20
-21.0385142950144
30
0
41
1
10
-0.394976888875277
20
-20.9714365096391
30
0
41
1
10
-0.394976888875277
20
-20.8788308931333
30
0
41
1
10
-0.394976888875277
20
-20.781635486227
30
0
41
1
10
-0.394976888875277
20
-20.6797749513881
30
0
41
1
10
-0.394976888875277
20
-20.6011280559991
30
0
41
1
10
-0.394976888875277
20
-20.5202292348052
30
0
41
1
10
-0.394976888875277
20
-20.437098129367
30
0
41
1
10
-0.394976888875277
20
-20.3517517880635
30
0
41
1
10
-0.394976888875277
20
-20.264209431984
30
0
41
1
10
-0.394976888875277
20
-20.1744885559187
30
0
41
1
10
-0.394976888875277
20
-20.082604778142
30
0
41
1
10
-0.394976888875277
20
-19.988575861591
30
0
41
1
10
-0.394976888875277
20
-19.8924174211231
30
0
41
1
10
-0.394976888875277
20
-19.7941438028822
30
0
41
1
10
-0.394976888875277
20
-19.6937719762305
30
0
41
1
10
-0.394976888875277
20
-19.5913159811741
30
0
41
1
10
-0.394976888875277
20
-19.4519098709686
30
0
41
1
10
-0.394976888875277
20
-19.3085018143331
30
0
41
1
10
-0.394976888875277
20
-19.1609196079758
30
0
41
1
10
-0.394976888875277
20
-19.048244884465
30
0
41
1
10
-0.394976888875277
20
-18.933565131357
30
0
41
1
10
-0.394976888875277
20
-18.7779598884918
30
0
41
1
10
-0.394976888875277
20
-18.6185132745736
30
0
41
1
10
-0.394976888875277
20
-18.4550234389153
30
0
41
1
10
-0.394976888875277
20
-18.3304892054167
30
0
41
1
10
-0.394976888875277
20
-18.2040166330947
30
0
41
1
10
-0.394976888875277
20
-18.0327708145484
30
0
41
1
10
-0.394976888875277
20
-17.8578220601067
30
0
41
1
10
-0.394976888875277
20
-17.6789377757623
30
0
41
1
10
-0.394976888875277
20
-17.5429190217058
30
0
41
1
10
-0.394976888875277
20
-17.4050188999402
30
0
41
1
10
-0.394976888875277
20
-17.2186059445176
30
0
41
1
10
-0.394976888875277
20
-17.0286080073569
30
0
41
1
10
-0.394976888875277
20
-16.8347642769002
30
0
41
1
10
-0.394976888875277
20
-16.6875782011067
30
0
41
1
10
-0.394976888875277
20
-16.5385587125243
30
0
41
1
10
-0.394976888875277
20
-16.3373780173449
30
0
41
1
10
-0.394976888875277
20
-16.1327154012234
30
0
41
1
10
-0.394976888875277
20
-15.9242799594928
30
0
41
1
10
-0.394976888875277
20
-15.7661946363952
30
0
41
1
10
-0.394976888875306
20
-15.6063159613101
30
0
41
1
10
-0.394976888875277
20
-15.3907043201103
30
0
41
1
10
-0.394976888875277
20
-15.171701411915
30
0
41
1
10
-0.394976888875277
20
-14.9489833053404
30
0
41
1
10
-0.394976888875277
20
-14.7239127068147
30
0
41
1
10
-0.394976888875277
20
-14.4955025482493
30
0
41
1
10
-0.394976888875277
20
-14.2634098807097
30
0
41
1
10
-0.394976888875306
20
-14.0876421688895
30
0
41
1
10
-0.394976888875277
20
-13.9101338677051
30
0
41
1
10
-0.394976888875277
20
-13.7308904478326
30
0
41
1
10
-0.394976888875277
20
-13.5499151547097
30
0
41
1
10
-0.394976888875277
20
-13.3672125455487
30
0
41
1
10
-0.394976888875277
20
-13.182787448996
30
0
41
1
10
-0.394976888875306
20
-12.9966426041155
30
0
41
1
10
-0.394976888875277
20
-12.8087826250924
30
0
41
1
10
-0.394976888875277
20
-12.6192114874981
30
0
41
1
10
-0.394976888875277
20
-12.4279318067111
30
0
41
1
10
-0.394976888875277
20
-12.1705475695385
30
0
41
1
10
-0.394976888875277
20
-11.9099848253352
30
0
41
1
10
-0.394976888875277
20
-11.6458042976886
30
0
41
1
10
-0.394976888875306
20
-11.4460361162834
30
0
41
1
10
-0.394976888875277
20
-11.2445799004538
30
0
41
1
10
-0.394976888875277
20
-11.0414388905992
30
0
41
1
10
-0.394976888875306
20
-10.8366153667066
30
0
41
1
10
-0.394976888875277
20
-10.6301131683678
30
0
41
1
10
-0.394976888875277
20
-10.4219344727077
30
0
41
1
10
-0.394976888875277
20
-10.142045462177
30
0
41
1
10
-0.394976888875306
20
-9.78821091217486
30
0
41
1
10
-0.394976888875306
20
-9.35683912175983
30
0
41
1
10
-0.394976888875277
20
-8.99192948127941
30
0
41
1
10
-0.394976888875306
20
-8.69651811258549
30
0
41
1
10
-0.394976888875277
20
-8.47338951886388
30
0
41
1
10
-0.394976888875277
20
-8.24861635560848
30
0
41
1
10
-0.394976888875277
20
-8.02220293401996
30
0
41
1
10
-0.394976888875306
20
-7.79415340272945
30
0
41
1
10
-0.394976888875306
20
-7.56447269448574
30
0
41
1
10
-0.394976888875277
20
-7.33316546385936
30
0
41
1
10
-0.394976888875306
20
-7.10023740586414
30
0
41
1
10
-0.394976888875277
20
-6.8656950488801
30
0
41
1
10
-0.394976888875306
20
-6.62954555948869
30
0
41
1
10
-0.394976888875306
20
-6.44960775400912
30
0
41
1
10
-0.394976888875306
20
-6.3484916311391
30
0
41
1
10
-0.394976888875306
20
-6.32694279392973
30
0
0
SPLINE
5
124
100
AcDbEntity
8
SK1
62
256
6
ByLayer
370
18
48
1
60
0
100
AcDbSpline
70
4
71
3
72
115
73
111
40
0
40
0
40
0
40
0
40
0.0023113241410934
40
0.0108554918920937
40
0.0193996596430941
40
0.0279438273940944
40
0.0364879951450947
40
0.0450321628960951
40
0.0535763306470954
40
0.0621204983980957
40
0.0706646661490961
40
0.0792088339000964
40
0.0877530016510967
40
0.0962971694020971
40
0.113385504904098
40
0.130473840406098
40
0.147562175908099
40
0.156106343659099
40
0.1646505114101
40
0.1731946791611
40
0.1817388469121
40
0.190283014663101
40
0.198827182414101
40
0.207371350165101
40
0.215915517916102
40
0.233003853418103
40
0.241548021169103
40
0.250092188920103
40
0.258636356671103
40
0.267180524422104
40
0.275724692173104
40
0.284268859924104
40
0.292813027675105
40
0.301357195426105
40
0.309901363177105
40
0.318445530928106
40
0.326989698679106
40
0.335533866430107
40
0.344078034181107
40
0.352622201932107
40
0.361166369683107
40
0.365438453558608
40
0.369710537434108
40
0.378254705185108
40
0.386798872936108
40
0.395343040687109
40
0.399615124562609
40
0.403887208438109
40
0.41243137618911
40
0.42097554394011
40
0.43806387944211
40
0.446608047193111
40
0.455152214944111
40
0.463696382695111
40
0.472240550446112
40
0.489328885948113
40
0.497873053699113
40
0.502145137574613
40
0.506417221450113
40
0.514961389201114
40
0.523505556952114
40
0.540593892454114
40
0.549138060205115
40
0.557682227956115
40
0.566226395707116
40
0.574770563458116
40
0.591858898960117
40
0.600403066711117
40
0.604675150586617
40
0.608947234462117
40
0.617491402213117
40
0.626035569964118
40
0.643123905466119
40
0.651668073217119
40
0.660212240968119
40
0.668756408719119
40
0.67730057647012
40
0.68584474422112
40
0.69438891197212
40
0.702933079723121
40
0.711477247474121
40
0.720021415225122
40
0.728565582976122
40
0.737109750727122
40
0.745653918478122
40
0.754198086229123
40
0.762742253980123
40
0.779830589482124
40
0.788374757233124
40
0.796918924984125
40
0.805463092735125
40
0.814007260486125
40
0.822551428237126
40
0.831095595988126
40
0.848183931490127
40
0.856728099241127
40
0.865272266992127
40
0.873816434743128
40
0.882360602494128
40
0.899448937996129
40
0.916537273498129
40
0.93362560900013
40
0.94216977675113
40
0.950713944502131
40
0.959258112253131
40
0.967802280004131
40
0.976346447755132
40
0.984890615506132
40
0.993434783257132
40
1
40
1
40
1
40
1
41
1
10
-0.394976888875306
20
6.32694309067119
30
0
41
1
10
-0.394976888875306
20
6.34849183540922
30
0
41
1
10
-0.394976888875306
20
6.44960786563362
30
0
41
1
10
-0.394976888875306
20
6.62954558311137
30
0
41
1
10
-0.394976888875277
20
6.86569504295815
30
0
41
1
10
-0.394976888875277
20
7.10023725398264
30
0
41
1
10
-0.394976888875306
20
7.33316516004027
30
0
41
1
10
-0.394976888875306
20
7.56447255210352
30
0
41
1
10
-0.394976888875277
20
7.79415362199521
30
0
41
1
10
-0.394976888875277
20
8.0222029406992
30
0
41
1
10
-0.394976888875306
20
8.24861627222975
30
0
41
1
10
-0.394976888875306
20
8.47338949471808
30
0
41
1
10
-0.394976888875277
20
8.69651812098672
30
0
41
1
10
-0.394976888875277
20
8.99192950801697
30
0
41
1
10
-0.394976888875306
20
9.3568391135907
30
0
41
1
10
-0.394976888875306
20
9.78821091215369
30
0
41
1
10
-0.394976888875277
20
10.1420454829465
30
0
41
1
10
-0.394976888875277
20
10.4219344610486
30
0
41
1
10
-0.394976888875277
20
10.630113157504
30
0
41
1
10
-0.394976888875277
20
10.8366153761928
30
0
41
1
10
-0.394976888875277
20
11.0414389105764
30
0
41
1
10
-0.394976888875277
20
11.244579908331
30
0
41
1
10
-0.394976888875306
20
11.4460361066677
30
0
41
1
10
-0.394976888875277
20
11.6458042855523
30
0
41
1
10
-0.394976888875306
20
11.9099848332047
30
0
41
1
10
-0.394976888875277
20
12.1705475891153
30
0
41
1
10
-0.394976888875277
20
12.4279318017785
30
0
41
1
10
-0.394976888875306
20
12.6192114742801
30
0
41
1
10
-0.394976888875306
20
12.8087826212334
30
0
41
1
10
-0.394976888875277
20
12.9966426140257
30
0
41
1
10
-0.394976888875277
20
13.182787463215
30
0
41
1
10
-0.394976888875277
20
13.3672125481811
30
0
41
1
10
-0.394976888875306
20
13.549915145406
30
0
41
1
10
-0.394976888875277
20
13.7308904366346
30
0
41
1
10
-0.394976888875277
20
13.9101338497815
30
0
41
1
10
-0.394976888875277
20
14.0876420714538
30
0
41
1
10
-0.394976888875277
20
14.2634095816693
30
0
41
1
10
-0.394976888875306
20
14.4374320816019
30
0
41
1
10
-0.394976888875306
20
14.6097059483473
30
0
41
1
10
-0.394976888875277
20
14.7802248596231
30
0
41
1
10
-0.394976888875277
20
14.9208273816877
30
0
41
1
10
-0.394976888875277
20
15.0324801920762
30
0
41
1
10
-0.394976888875277
20
15.1435436982815
30
0
41
1
10
-0.394976888875306
20
15.2812010193763
30
0
41
1
10
-0.394976888875277
20
15.4446487492657
30
0
41
1
10
-0.394976888875277
20
15.5793432837569
30
0
41
1
10
-0.394976888875277
20
15.6862549949744
30
0
41
1
10
-0.394976888875277
20
15.7925696820839
30
0
41
1
10
-0.394976888875277
20
15.9242804112408
30
0
41
1
10
-0.394976888875277
20
16.1327150774874
30
0
41
1
10
-0.394976888875277
20
16.3373774066279
30
0
41
1
10
-0.394976888875277
20
16.5385587049942
30
0
41
1
10
-0.394976888875277
20
16.6875786248762
30
0
41
1
10
-0.394976888875277
20
16.8347647509306
30
0
41
1
10
-0.394976888875277
20
17.0286078387926
30
0
41
1
10
-0.394976888875277
20
17.2186048360495
30
0
41
1
10
-0.394976888875277
20
17.3816993239948
30
0
41
1
10
-0.394976888875277
20
17.4739690253912
30
0
41
1
10
-0.394976888875277
20
17.5656125946474
30
0
41
1
10
-0.394976888875277
20
17.6789387292296
30
0
41
1
10
-0.394976888875277
20
17.8578219077773
30
0
41
1
10
-0.394976888875277
20
18.0327705937831
30
0
41
1
10
-0.394976888875277
20
18.2040166079408
30
0
41
1
10
-0.394976888875277
20
18.330489335967
30
0
41
1
10
-0.394976888875277
20
18.4550236113311
30
0
41
1
10
-0.394976888875277
20
18.6185131846482
30
0
41
1
10
-0.394976888875277
20
18.777958735224
30
0
41
1
10
-0.394976888875277
20
18.9140993494365
30
0
41
1
10
-0.394976888875277
20
18.9909051568102
30
0
41
1
10
-0.394976888875277
20
19.0670441229991
30
0
41
1
10
-0.394976888875277
20
19.160920630363
30
0
41
1
10
-0.394976888875277
20
19.308501644014
30
0
41
1
10
-0.394976888875277
20
19.4519091739392
30
0
41
1
10
-0.394976888875277
20
19.5913158900225
30
0
41
1
10
-0.394976888875277
20
19.6937723311917
30
0
41
1
10
-0.394976888875277
20
19.79414426657
30
0
41
1
10
-0.394976888875277
20
19.8924175863555
30
0
41
1
10
-0.394976888875277
20
19.9885758834751
30
0
41
1
10
-0.394976888875277
20
20.082604770276
30
0
41
1
10
-0.394976888875277
20
20.1744885542463
30
0
41
1
10
-0.394976888875277
20
20.2642094206366
30
0
41
1
10
-0.394976888875277
20
20.3517517634561
30
0
41
1
10
-0.394976888875277
20
20.4370981008412
30
0
41
1
10
-0.394976888875277
20
20.5202292190253
30
0
41
1
10
-0.394976888875277
20
20.6011280536546
30
0
41
1
10
-0.394976888875277
20
20.6797749496461
30
0
41
1
10
-0.394976888875277
20
20.7816354627076
30
0
41
1
10
-0.394976888875277
20
20.8788308563806
30
0
41
1
10
-0.394976888875277
20
20.9714364994015
30
0
41
1
10
-0.394976888875277
20
21.038514297088
30
0
41
1
10
-0.394976888875277
20
21.1032108723211
30
0
41
1
10
-0.394976888875277
20
21.1655031445011
30
0
41
1
10
-0.394976888875277
20
21.2253664719936
30
0
41
1
10
-0.394976888875277
20
21.3019320664004
30
0
41
1
10
-0.394976888875277
20
21.3734709387681
30
0
41
1
10
-0.394976888875277
20
21.4399968711308
30
0
41
1
10
-0.394976888875277
20
21.4873092663299
30
0
41
1
10
-0.394976888875277
20
21.5320229149808
30
0
41
1
10
-0.394976888875277
20
21.5881524120742
30
0
41
1
10
-0.394976888875277
20
21.651618462036
30
0
41
1
10
-0.394976888875277
20
21.7168668922192
30
0
41
1
10
-0.394976888875277
20
21.7618666429643
30
0
41
1
10
-0.394976888875277
20
21.7921034347989
30
0
41
1
10
-0.394976888875277
20
21.8118377229246
30
0
41
1
10
-0.394976888875277
20
21.8285907137819
30
0
41
1
10
-0.394976888875277
20
21.8423149188875
30
0
41
1
10
-0.394976888875277
20
21.8529598769268
30
0
41
1
10
-0.394976888875277
20
21.8604737650697
30
0
41
1
10
-0.394976888875249
20
21.8644673817078
30
0
41
1
10
-0.394976888875277
20
21.8653285669029
30
0
41
1
10
-0.394976888875277
20
21.8653790906559
30
0
0
SPLINE
5
125
100
AcDbEntity
8
SK1
62
256
6
ByLayer
370
18
48
1
60
0
100
AcDbSpline
70
4
71
3
72
26
73
22
40
0
40
0
40
0
40
0
40
0.125
40
0.125
40
0.25
40
0.25
40
0.3125
40
0.3125
40
0.375
40
0.375
40
0.5
40
0.5
40
0.625
40
0.625
40
0.6875
40
0.6875
40
0.75
40
0.75
40
0.875
40
0.875
40
1
40
1
40
1
40
1
41
1
10
-1.30710678118655
20
4.81101329740287
30
0
41
1
10
-1.37461329628556
20
4.42906267002715
30
0
41
1
10
-1.43842288357251
20
4.04270825974379
30
0
41
1
10
-1.5548276754584
20
3.25964078646072
30
0
41
1
10
-1.60743482920458
20
2.86293463703907
30
0
41
1
10
-1.67407835953026
20
2.25842147165613
30
0
41
1
10
-1.69423470862273
20
2.05533443764031
30
0
41
1
10
-1.72965556309055
20
1.64563836285319
30
0
41
1
10
-1.7448471032956
20
1.43963199934166
30
0
41
1
10
-1.78162975563032
20
0.82275752324307
30
0
41
1
10
-1.79445291889309
20
0.41120781605369
30
0
41
1
10
-1.79442593338337
20
-0.412525631247945
30
0
41
1
10
-1.78157312882851
20
-0.824709416072182
30
0
41
1
10
-1.74458984279462
20
-1.44343920897936
30
0
41
1
10
-1.72930597743911
20
-1.65005948504413
30
0
41
1
10
-1.6939077740922
20
-2.05873054114889
30
0
41
1
10
-1.67377216548036
20
-2.2613683929508
30
0
41
1
10
-1.60720273884689
20
-2.86469699044164
30
0
41
1
10
-1.55465955887388
20
-3.26082920006925
30
0
41
1
10
-1.43835988164517
20
-4.04307426593763
30
0
41
1
10
-1.37459233181622
20
-4.42918087958253
30
0
41
1
10
-1.30710678118663
20
-4.81101321788435
30
0
0
SPLINE
5
126
100
AcDbEntity
8
SK1
62
256
6
ByLayer
370
18
48
1
60
0
100
AcDbSpline
70
4
71
3
72
24
73
20
40
0
40
0
40
0
40
0
40
0.0312499999999988
40
0.0312499999999988
40
0.0624999999999975
40
0.0624999999999975
40
0.0937499999999963
40
0.0937499999999963
40
0.124999999999995
40
0.124999999999995
40
0.187499999999993
40
0.187499999999993
40
0.249999999999991
40
0.249999999999991
40
0.374999999999992
40
0.374999999999992
40
0.499999999999993
40
0.499999999999993
40
1
40
1
40
1
40
1
41
1
10
-0.394976888875277
20
6.326943090669
30
0
41
1
10
-0.38847879114121
20
6.32122083099978
30
0
41
1
10
-0.381313154819537
20
6.31618565872654
30
0
41
1
10
-0.365409710573573
20
6.30942196278454
30
0
41
1
10
-0.356491145072283
20
6.30782589043289
30
0
41
1
10
-0.338830866580082
20
6.31048209062152
30
0
41
1
10
-0.330289930609808
20
6.3147388234654
30
0
41
1
10
-0.315858342049893
20
6.32593033296189
30
0
41
1
10
-0.309649778597219
20
6.33285276949908
30
0
41
1
10
-0.293313689377101
20
6.35478748070284
30
0
41
1
10
-0.285093867610613
20
6.37118996774478
30
0
41
1
10
-0.271027300228269
20
6.40434328922584
30
0
41
1
10
-0.265260102162785
20
6.42121101452722
30
0
41
1
10
-0.249955006097821
20
6.47225869816404
30
0
41
1
10
-0.24239685395699
20
6.50696236445458
30
0
41
1
10
-0.229806665913117
20
6.57651474417162
30
0
41
1
10
-0.224881575141865
20
6.6112317240092
30
0
41
1
10
-0.204383593087527
20
6.78454973877442
30
0
41
1
10
-0.200000000000983
20
6.92236219959716
30
0
41
1
10
-0.200000000000983
20
7.05951756777665
30
0
0
SPLINE
5
127
100
AcDbEntity
8
SK1
62
256
6
ByLayer
370
18
48
1
60
0
100
AcDbSpline
70
4
71
3
72
30
73
26
40
0
40
0
40
0
40
0
40
0.0312500000000001
40
0.0312500000000001
40
0.0625000000000003
40
0.0625000000000003
40
0.0937500000000004
40
0.0937500000000004
40
0.125000000000001
40
0.125000000000001
40
0.156250000000001
40
0.156250000000001
40
0.187500000000001
40
0.187500000000001
40
0.250000000000001
40
0.250000000000001
40
0.3125
40
0.3125
40
0.375
40
0.375
40
0.499999999999999
40
0.499999999999999
40
0.75
40
0.75
40
1
40
1
40
1
40
1
41
1
10
-0.394976888875306
20
-6.3269427939276
30
0
41
1
10
-0.411238696721767
20
-6.34126302490418
30
0
41
1
10
-0.428507485946397
20
-6.35445833731507
30
0
41
1
10
-0.466057816276162
20
-6.37750355983715
30
0
41
1
10
-0.486259278879999
20
-6.38723211102035
30
0
41
1
10
-0.528928737140916
20
-6.40070980810012
30
0
41
1
10
-0.552005370573369
20
-6.40446654618015
30
0
41
1
10
-0.597682826800479
20
-6.40404538429897
30
0
41
1
10
-0.620747969171418
20
-6.39988942772294
30
0
41
1
10
-0.663841284887184
20
-6.38551624086298
30
0
41
1
10
-0.684254761753095
20
-6.37530734814359
30
0
41
1
10
-0.721714491331937
20
-6.35175818060955
30
0
41
1
10
-0.739184552681479
20
-6.33820913265023
30
0
41
1
10
-0.788162075932092
20
-6.29461172820726
30
0
41
1
10
-0.815964113388588
20
-6.26223556861285
30
0
41
1
10
-0.866810585477168
20
-6.19416487342835
30
0
41
1
10
-0.889725334639508
20
-6.1583192245233
30
0
41
1
10
-0.931663440024437
20
-6.0857602140492
30
0
41
1
10
-0.950810679353566
20
-6.0488206370035
30
0
41
1
10
-1.00456810808541
20
-5.93660131926188
30
0
41
1
10
-1.03556300059236
20
-5.85994358458373
30
0
41
1
10
-1.12018816360205
20
-5.62641894994653
30
0
41
1
10
-1.16556178401135
20
-5.46581692848358
30
0
41
1
10
-1.24442385148592
20
-5.14144332217063
30
0
41
1
10
-1.2777459036995
20
-4.97713666802878
30
0
41
1
10
-1.30710678118655
20
-4.81101321788441
30
0
0
SPLINE
5
128
100
AcDbEntity
8
SK1
62
256
6
ByLayer
370
18
48
1
60
0
100
AcDbSpline
70
4
71
3
72
26
73
22
40
0
40
0
40
0
40
0
40
0.25
40
0.25
40
0.5
40
0.5
40
0.625000000000002
40
0.625000000000002
40
0.750000000000003
40
0.750000000000003
40
0.812500000000003
40
0.812500000000003
40
0.875000000000002
40
0.875000000000002
40
0.906250000000002
40
0.906250000000002
40
0.937500000000001
40
0.937500000000001
40
0.968750000000001
40
0.968750000000001
40
1
40
1
40
1
40
1
41
1
10
-0.200000000000017
20
-7.05951749342083
30
0
41
1
10
-0.200000000000017
20
-6.99088366827036
30
0
41
1
10
-0.201319609066843
20
-6.92203745653026
30
0
41
1
10
-0.207680242986754
20
-6.78384770613772
30
0
41
1
10
-0.212644818423314
20
-6.71441370073745
30
0
41
1
10
-0.225032362287777
20
-6.610101532507
30
0
41
1
10
-0.229988536108948
20
-6.57535167439425
30
0
41
1
10
-0.242605757740421
20
-6.50597096289755
30
0
41
1
10
-0.250188173910772
20
-6.47131022305024
30
0
41
1
10
-0.265534367861733
20
-6.4203844584319
30
0
41
1
10
-0.271315983615779
20
-6.40356588205816
30
0
41
1
10
-0.285411407521423
20
-6.37054221190877
30
0
41
1
10
-0.293612475506336
20
-6.3542515820991
30
0
41
1
10
-0.31007005883302
20
-6.33235891704217
30
0
41
1
10
-0.31618897533005
20
-6.32559855176618
30
0
41
1
10
-0.330728129253003
20
-6.31447788013509
30
0
41
1
10
-0.339136190980355
20
-6.31039609843526
30
0
41
1
10
-0.356576769858549
20
-6.30785340244552
30
0
41
1
10
-0.365590532907504
20
-6.30947164062371
30
0
41
1
10
-0.381451989855151
20
-6.31627189389673
30
0
41
1
10
-0.388510166361158
20
-6.32124816508073
30
0
41
1
10
-0.394976888875306
20
-6.32694279392757
30
0
0
SPLINE
5
129
100
AcDbEntity
8
SK1
62
256
6
ByLayer
370
18
48
1
60
0
100
AcDbSpline
70
4
71
3
72
26
73
22
40
0
40
0
40
0
40
0
40
0.250000000000002
40
0.250000000000002
40
0.500000000000005
40
0.500000000000005
40
0.625000000000004
40
0.625000000000004
40
0.687500000000004
40
0.687500000000004
40
0.750000000000003
40
0.750000000000003
40
0.812500000000002
40
0.812500000000002
40
0.875000000000002
40
0.875000000000002
40
0.906250000000001
40
0.906250000000001
40
0.937500000000001
40
0.937500000000001
40
1
40
1
40
1
40
1
41
1
10
-1.30710678118655
20
4.81101329740287
30
0
41
1
10
-1.27777674809065
20
4.97696208805667
30
0
41
1
10
-1.2444918437221
20
5.14110933888219
30
0
41
1
10
-1.16572403812288
20
5.46520409815253
30
0
41
1
10
-1.1204198695232
20
5.62560509654318
30
0
41
1
10
-1.03604034231242
20
5.85871268051358
30
0
41
1
10
-1.00514324915821
20
5.93523451486101
30
0
41
1
10
-0.951595196520486
20
6.04726373371713
30
0
41
1
10
-0.932528346395429
20
6.0841422654172
30
0
41
1
10
-0.890792591053469
20
6.1565891448071
30
0
41
1
10
-0.86800236553799
20
6.19240090738069
30
0
41
1
10
-0.817160575690593
20
6.26079505981269
30
0
41
1
10
-0.78943316382356
20
6.29319778625549
30
0
41
1
10
-0.724969179209722
20
6.35113158829384
30
0
41
1
10
-0.687361729545614
20
6.37733024516984
30
0
41
1
10
-0.622158748113947
20
6.39958064489676
30
0
41
1
10
-0.599752058371365
20
6.40383193252993
30
0
41
1
10
-0.553302263741188
20
6.40463597982043
30
0
41
1
10
-0.530550758270607
20
6.40110290558204
30
0
41
1
10
-0.464963827942824
20
6.38073633145459
30
0
41
1
10
-0.427743955231904
20
6.35579794481987
30
0
41
1
10
-0.394976888874766
20
6.32694309068148
30
0
0
SPLINE
5
12A
100
AcDbEntity
8
1
62
256
6
ByLayer
370
18
48
1
60
0
100
AcDbSpline
70
4
71
3
72
20
73
16
40
0
40
0
40
0
40
0
40
0.125000000000002
40
0.125000000000002
40
0.250000000000005
40
0.250000000000005
40
0.375000000000007
40
0.375000000000007
40
0.500000000000009
40
0.500000000000009
40
0.750000000000007
40
0.750000000000007
40
0.875000000000004
40
0.875000000000004
40
1
40
1
40
1
40
1
41
1
10
22.1861384096169
20
30.8492969840994
30
0
41
1
10
22.2284560181517
20
30.8533382620016
30
0
41
1
10
22.2710609047693
20
30.8606693915029
30
0
41
1
10
22.354489183363
20
30.8815071059651
30
0
41
1
10
22.3956369284028
20
30.8950358187275
30
0
41
1
10
22.4766719417696
20
30.9285199441631
30
0
41
1
10
22.5168988313127
20
30.9487029449822
30
0
41
1
10
22.5936315176066
20
30.9947492112495
30
0
41
1
10
22.6302326509818
20
31.020576164347
30
0
41
1
10
22.7345109945785
20
31.10655808126
30
0
41
1
10
22.7972222679296
20
31.1763580407731
30
0
41
1
10
22.8720156567182
20
31.2919899658112
30
0
41
1
10
22.8940293186287
20
31.3325607916466
30
0
41
1
10
22.9317926686272
20
31.4179910374093
30
0
41
1
10
22.9472186865952
20
31.462251546318
30
0
41
1
10
22.9588790706481
20
31.5071034439369
30
0
0
SPLINE
5
12B
100
AcDbEntity
8
1
62
256
6
ByLayer
370
18
48
1
60
0
100
AcDbSpline
70
4
71
3
72
16
73
12
40
0
40
0
40
0
40
0
40
0.125000000000003
40
0.125000000000003
40
0.250000000000006
40
0.250000000000006
40
0.500000000000004
40
0.500000000000004
40
0.750000000000002
40
0.750000000000002
40
1
40
1
40
1
40
1
41
1
10
13.4613248654052
20
-30.0805927603169
30
0
41
1
10
13.4928040273173
20
-30.0805927603169
30
0
41
1
10
13.5234304266402
20
-30.078685990659
30
0
41
1
10
13.5815263070002
20
-30.0717959485601
30
0
41
1
10
13.6079581046676
20
-30.0669872793662
30
0
41
1
10
13.6817632688741
20
-30.049647240705
30
0
41
1
10
13.7208296342407
20
-30.0350452819075
30
0
41
1
10
13.7874862877332
20
-30.0032932993815
30
0
41
1
10
13.8142652669256
20
-29.9863830332716
30
0
41
1
10
13.8599440812239
20
-29.9511519005795
30
0
41
1
10
13.8787443055274
20
-29.9327613369587
30
0
41
1
10
13.8943375672975
20
-29.9139548464691
30
0
0
SPLINE
5
12C
100
AcDbEntity
8
1
62
256
6
ByLayer
370
18
48
1
60
0
100
AcDbSpline
70
4
71
3
72
16
73
12
40
0
40
0
40
0
40
0
40
0.249999999999998
40
0.249999999999998
40
0.499999999999995
40
0.499999999999995
40
0.749999999999993
40
0.749999999999993
40
0.874999999999996
40
0.874999999999996
40
1
40
1
40
1
40
1
41
1
10
13.8943375672974
20
29.9139548464691
30
0
41
1
10
13.8787501654512
20
29.9327542695084
30
0
41
1
10
13.8600981524864
20
29.9510098933136
30
0
41
1
10
13.8145135903111
20
29.9862144781928
30
0
41
1
10
13.7875017792166
20
30.0032856662985
30
0
41
1
10
13.720820003123
20
30.0350501233766
30
0
41
1
10
13.6810618560869
20
30.0498069467437
30
0
41
1
10
13.6084081576259
20
30.0668840803113
30
0
41
1
10
13.5814155034803
20
30.0718038277879
30
0
41
1
10
13.5238105256953
20
30.0786461490401
30
0
41
1
10
13.4927587974109
20
30.0805927603169
30
0
41
1
10
13.4613248654052
20
30.0805927603169
30
0
0
SPLINE
5
12D
100
AcDbEntity
8
1
62
256
6
ByLayer
370
18
48
1
60
0
100
AcDbSpline
70
4
71
3
72
16
73
12
40
0
40
0
40
0
40
0
40
0.125000000000001
40
0.125000000000001
40
0.250000000000002
40
0.250000000000002
40
0.500000000000001
40
0.500000000000001
40
0.750000000000001
40
0.750000000000001
40
1
40
1
40
1
40
1
41
1
10
13.4613248654051
20
9.3492213145251
30
0
41
1
10
13.4928040273173
20
9.3492213145251
30
0
41
1
10
13.5234304266402
20
9.35536120669457
30
0
41
1
10
13.5815263070002
20
9.37748487924964
30
0
41
1
10
13.6079581046675
20
9.39290424748307
30
0
41
1
10
13.6817632688741
20
9.44829073160849
30
0
41
1
10
13.7208296342407
20
9.4946722005341
30
0
41
1
10
13.7874862877331
20
9.594536803469
30
0
41
1
10
13.8142652669256
20
9.64728479257934
30
0
41
1
10
13.8599440812239
20
9.75611455014877
30
0
41
1
10
13.8787443055274
20
9.81241059371428
30
0
41
1
10
13.8943375672974
20
9.86941261896618
30
0
0
SPLINE
5
12E
100
AcDbEntity
8
1
62
256
6
ByLayer
370
18
48
1
60
0
100
AcDbSpline
70
4
71
3
72
10
73
6
40
0
40
0
40
0
40
0
40
0.5
40
0.5
40
1
40
1
40
1
40
1
41
1
10
23.230808929982
20
32.5502096252266
30
0
41
1
10
23.1854006253871
20
32.3764844142206
30
0
41
1
10
23.1400318609133
20
32.2026914811288
30
0
41
1
10
23.0493800759759
20
31.8549669593258
30
0
41
1
10
23.0040837888831
20
31.6809842856799
30
0
41
1
10
22.9588790706481
20
31.5071034439369
30
0
0
SPLINE
5
12F
100
AcDbEntity
8
1
62
256
6
ByLayer
370
18
48
1
60
0
100
AcDbSpline
70
4
71
3
72
8
73
4
40
0
40
0
40
0
40
0
40
1
40
1
40
1
40
1
41
1
10
23.8653246960696
20
30.4285787104717
30
0
41
1
10
23.6456039072545
20
31.1343477181173
30
0
41
1
10
23.4317796159222
20
31.8408526379394
30
0
41
1
10
23.230808929982
20
32.5502096252266
30
0
0
SPLINE
5
130
100
AcDbEntity
8
1
62
256
6
ByLayer
370
18
48
1
60
0
100
AcDbSpline
70
4
71
3
72
16
73
12
40
0
40
0
40
0
40
0
40
0.249999999999999
40
0.249999999999999
40
0.499999999999998
40
0.499999999999998
40
0.749999999999997
40
0.749999999999997
40
0.874999999999998
40
0.874999999999998
40
1
40
1
40
1
40
1
41
1
10
10.1056624327026
20
-29.9139548464691
30
0
41
1
10
10.1212498345488
20
-29.9327542695084
30
0
41
1
10
10.1399018475135
20
-29.9510098933136
30
0
41
1
10
10.1854864096889
20
-29.9862144781928
30
0
41
1
10
10.2124982207834
20
-30.0032856662985
30
0
41
1
10
10.279179996877
20
-30.0350501233766
30
0
41
1
10
10.3189381439131
20
-30.0498069467437
30
0
41
1
10
10.3915918423741
20
-30.0668840803113
30
0
41
1
10
10.4185844965197
20
-30.0718038277879
30
0
41
1
10
10.4761894743047
20
-30.0786461490401
30
0
41
1
10
10.5072412025891
20
-30.080592760317
30
0
41
1
10
10.5386751345948
20
-30.0805927603169
30
0
0
SPLINE
5
131
100
AcDbEntity
8
1
62
256
6
ByLayer
370
18
48
1
60
0
100
AcDbSpline
70
4
71
3
72
12
73
8
40
0
40
0
40
0
40
0
40
0.500000000000002
40
0.500000000000002
40
0.750000000000001
40
0.750000000000001
40
1
40
1
40
1
40
1
41
1
10
24.6882393446858
20
38.2311076792165
30
0
41
1
10
24.4402325193897
20
37.2806191974147
30
0
41
1
10
24.1942159986122
20
36.3319176632639
30
0
41
1
10
23.8292991250012
20
34.9115006749043
30
0
41
1
10
23.7083514211253
20
34.4384695384736
30
0
41
1
10
23.4681349112134
20
33.4933095285441
30
0
41
1
10
23.3487395663879
20
33.0206777657457
30
0
41
1
10
23.230808929982
20
32.5502096252266
30
0
0
SPLINE
5
132
100
AcDbEntity
8
1
62
256
6
ByLayer
370
18
48
1
60
0
100
AcDbSpline
70
4
71
3
72
8
73
4
40
0
40
0
40
0
40
0
40
1
40
1
40
1
40
1
41
1
10
25.4554420678284
20
41.1638057661222
30
0
41
1
10
25.1991299185107
20
40.1863878826489
30
0
41
1
10
24.9433529120288
20
39.208832816504
30
0
41
1
10
24.6882393446858
20
38.2311076792165
30
0
0
SPLINE
5
133
100
AcDbEntity
8
1
62
256
6
ByLayer
370
18
48
1
60
0
100
AcDbSpline
70
4
71
3
72
22
73
18
40
0
40
0
40
0
40
0
40
0.249999999999997
40
0.249999999999997
40
0.312499999999996
40
0.312499999999996
40
0.374999999999995
40
0.374999999999995
40
0.499999999999995
40
0.499999999999995
40
0.624999999999994
40
0.624999999999994
40
0.687499999999995
40
0.687499999999995
40
0.749999999999996
40
0.749999999999996
40
1
40
1
40
1
40
1
41
1
10
19.8805459037026
20
29.9850116132029
30
0
41
1
10
19.9105671689421
20
30.0954607356012
30
0
41
1
10
19.9837889807291
20
30.19664247449
30
0
41
1
10
20.1298818030594
20
30.3128088070581
30
0
41
1
10
20.1618690127445
20
30.3355233372456
30
0
41
1
10
20.2315654242975
20
30.3799347239518
30
0
41
1
10
20.2692469173455
20
30.4015930693559
30
0
41
1
10
20.3892626600103
20
30.4641612517419
30
0
41
1
10
20.4790294546591
20
30.5029985798411
30
0
41
1
10
20.6779371451878
20
30.5755002217927
30
0
41
1
10
20.7870750525453
20
30.6091636146663
30
0
41
1
10
20.9659298049445
20
30.6560647705262
30
0
41
1
10
21.028326873569
20
30.6711474392303
30
0
41
1
10
21.1564743695222
20
30.6997363296123
30
0
41
1
10
21.2223439224707
20
30.7132833649601
30
0
41
1
10
21.5604964702935
20
30.7775442048416
30
0
41
1
10
21.8587282294849
20
30.8180297274719
30
0
41
1
10
22.1861384096168
20
30.8492969840993
30
0
0
SPLINE
5
134
100
AcDbEntity
8
1
62
256
6
ByLayer
370
18
48
1
60
0
100
AcDbSpline
70
4
71
3
72
16
73
12
40
0
40
0
40
0
40
0
40
0.125000000000002
40
0.125000000000002
40
0.250000000000005
40
0.250000000000005
40
0.500000000000003
40
0.500000000000003
40
0.750000000000002
40
0.750000000000002
40
1
40
1
40
1
40
1
41
1
10
10.5386751345948
20
30.0805927603169
30
0
41
1
10
10.5071959726827
20
30.0805927603169
30
0
41
1
10
10.4765695733598
20
30.078685990659
30
0
41
1
10
10.4184736929998
20
30.0717959485601
30
0
41
1
10
10.3920418953324
20
30.0669872793661
30
0
41
1
10
10.3182367311259
20
30.049647240705
30
0
41
1
10
10.2791703657593
20
30.0350452819075
30
0
41
1
10
10.2125137122668
20
30.0032932993814
30
0
41
1
10
10.1857347330744
20
29.9863830332716
30
0
41
1
10
10.1400559187761
20
29.9511519005795
30
0
41
1
10
10.1212556944726
20
29.9327613369587
30
0
41
1
10
10.1056624327025
20
29.9139548464691
30
0
0
SPLINE
5
135
100
AcDbEntity
8
1
62
256
6
ByLayer
370
18
48
1
60
0
100
AcDbSpline
70
4
71
3
72
16
73
12
40
0
40
0
40
0
40
0
40
0.25
40
0.25
40
0.500000000000001
40
0.500000000000001
40
0.750000000000001
40
0.750000000000001
40
0.875000000000001
40
0.875000000000001
40
1
40
1
40
1
40
1
41
1
10
13.8943375672974
20
-9.86941261896621
30
0
41
1
10
13.8787501654512
20
-9.81243201498808
30
0
41
1
10
13.8600981524864
20
-9.75655023082973
30
0
41
1
10
13.8145135903111
20
-9.64780841973393
30
0
41
1
10
13.7875017792166
20
-9.59456078532611
30
0
41
1
10
13.720820003123
20
-9.49465699870629
30
0
41
1
10
13.6810618560869
20
-9.44778039735209
30
0
41
1
10
13.6084081576259
20
-9.39323398486457
30
0
41
1
10
13.5814155034803
20
-9.37745951316344
30
0
41
1
10
13.5238105256953
20
-9.35548920253851
30
0
41
1
10
13.4927587974109
20
-9.34922131452501
30
0
41
1
10
13.4613248654052
20
-9.34922131452504
30
0
0
SPLINE
5
136
100
AcDbEntity
8
1
62
256
6
ByLayer
370
18
48
1
60
0
100
AcDbSpline
70
4
71
3
72
16
73
12
40
0
40
0
40
0
40
0
40
0.25
40
0.25
40
0.500000000000001
40
0.500000000000001
40
0.750000000000001
40
0.750000000000001
40
0.875
40
0.875
40
1
40
1
40
1
40
1
41
1
10
10.1056624327026
20
9.86941261896621
30
0
41
1
10
10.1212498345487
20
9.81243201498805
30
0
41
1
10
10.1399018475135
20
9.7565502308297
30
0
41
1
10
10.1854864096889
20
9.64780841973393
30
0
41
1
10
10.2124982207834
20
9.59456078532611
30
0
41
1
10
10.279179996877
20
9.49465699870629
30
0
41
1
10
10.3189381439131
20
9.44778039735209
30
0
41
1
10
10.3915918423741
20
9.39323398486459
30
0
41
1
10
10.4185844965196
20
9.37745951316344
30
0
41
1
10
10.4761894743047
20
9.35548920253854
30
0
41
1
10
10.5072412025891
20
9.34922131452504
30
0
41
1
10
10.5386751345948
20
9.34922131452504
30
0
0
SPLINE
5
137
100
AcDbEntity
8
1
62
256
6
ByLayer
370
18
48
1
60
0
100
AcDbSpline
70
4
71
3
72
16
73
12
40
0
40
0
40
0
40
0
40
0.125000000000001
40
0.125000000000001
40
0.250000000000002
40
0.250000000000002
40
0.500000000000001
40
0.500000000000001
40
0.750000000000001
40
0.750000000000001
40
1
40
1
40
1
40
1
41
1
10
10.5386751345948
20
-9.34922131452512
30
0
41
1
10
10.5071959726827
20
-9.34922131452512
30
0
41
1
10
10.4765695733597
20
-9.35536120669457
30
0
41
1
10
10.4184736929998
20
-9.37748487924964
30
0
41
1
10
10.3920418953324
20
-9.39290424748307
30
0
41
1
10
10.3182367311259
20
-9.44829073160849
30
0
41
1
10
10.2791703657593
20
-9.49467220053413
30
0
41
1
10
10.2125137122668
20
-9.59453680346903
30
0
41
1
10
10.1857347330743
20
-9.64728479257934
30
0
41
1
10
10.1400559187761
20
-9.75611455014877
30
0
41
1
10
10.1212556944726
20
-9.81241059371428
30
0
41
1
10
10.1056624327025
20
-9.86941261896621
30
0
0
SPLINE
5
138
100
AcDbEntity
8
1
62
256
6
ByLayer
370
18
48
1
60
0
100
AcDbSpline
70
4
71
3
72
8
73
4
40
0
40
0
40
0
40
0
40
1
40
1
40
1
40
1
41
1
10
47.0532225407123
20
39.1300335486465
30
0
41
1
10
47.1073019147887
20
39.1754122775332
30
0
41
1
10
47.1613805875804
20
39.2207898610868
30
0
41
1
10
47.2154585526078
20
39.2661662887265
30
0
0
SPLINE
5
139
100
AcDbEntity
8
1
62
256
6
ByLayer
370
18
48
1
60
0
100
AcDbSpline
70
4
71
3
72
8
73
4
40
0
40
0
40
0
40
0
40
1
40
1
40
1
40
1
41
1
10
52.0056900674578
20
37.0261236227808
30
0
41
1
10
51.9333253679445
20
36.9745695876693
30
0
41
1
10
51.8609942336415
20
36.9230051025503
30
0
41
1
10
51.7886882090088
20
36.8714328225738
30
0
0
SPLINE
5
13A
100
AcDbEntity
8
1
62
256
6
ByLayer
370
18
48
1
60
0
100
AcDbSpline
70
4
71
3
72
14
73
10
40
0
40
0
40
0
40
0
40
0.292804977844843
40
0.292804977844843
40
0.737795398455925
40
0.737795398455925
40
0.960290608761464
40
0.960290608761464
40
1
40
1
40
1
40
1
41
1
10
54.892990024672
20
35.7560374281096
30
0
41
1
10
54.9440980256203
20
35.8149520472084
30
0
41
1
10
54.9923506290765
20
35.8762805117922
30
0
41
1
10
55.106864243098
20
36.0367338739451
30
0
41
1
10
55.16956668234
20
36.1395122491487
30
0
41
1
10
55.251432341549
20
36.2960004516603
30
0
41
1
10
55.2768575889877
20
36.3487855110268
30
0
41
1
10
55.3046428976347
20
36.411090019152
30
0
41
1
10
55.3087838563188
20
36.4205115071248
30
0
41
1
10
55.3128591271694
20
36.4299128140655
30
0
0
SPLINE
5
13B
100
AcDbEntity
8
1
62
256
6
ByLayer
370
18
48
1
60
0
100
AcDbSpline
70
4
71
3
72
12
73
8
40
0
40
0
40
0
40
0
40
0.115919248926235
40
0.115919248926235
40
0.6252530242298
40
0.6252530242298
40
1
40
1
40
1
40
1
41
1
10
51.6766255287363
20
38.9072997208249
30
0
41
1
10
51.6692404784562
20
38.9001493176578
30
0
41
1
10
51.6618154395515
20
38.8928468142347
30
0
41
1
10
51.6216171939417
20
38.8526634976791
30
0
41
1
10
51.5881796488168
20
38.8169001997198
30
0
41
1
10
51.5312315725944
20
38.7512639016701
30
0
41
1
10
51.5073802894516
20
38.7222944619033
30
0
41
1
10
51.4839594243629
20
38.6922430955036
30
0
0
SPLINE
5
13C
100
AcDbEntity
8
1
62
256
6
ByLayer
370
18
48
1
60
0
100
AcDbSpline
70
4
71
3
72
10
73
6
40
0
40
0
40
0
40
0
40
0.749505221263346
40
0.749505221263346
40
1
40
1
40
1
40
1
41
1
10
52.3883906384021
20
39.4673257476023
30
0
41
1
10
52.2367182802564
20
39.4325648894867
30
0
41
1
10
52.0770252738829
20
39.3975528573037
30
0
41
1
10
51.8574798781994
20
39.3506363774349
30
0
41
1
10
51.8018804075264
20
39.3388645571196
30
0
41
1
10
51.7456922189461
20
39.3270810239192
30
0
0
SPLINE
5
13D
100
AcDbEntity
8
1
62
256
6
ByLayer
370
18
48
1
60
0
100
AcDbSpline
70
4
71
3
72
8
73
4
40
0
40
0
40
0
40
0
40
1
40
1
40
1
40
1
41
1
10
51.4983077844897
20
38.5031868070324
30
0
41
1
10
51.6039317366878
20
38.4801721617197
30
0
41
1
10
51.7095899370167
20
38.4571724161036
30
0
41
1
10
51.8152989189515
20
38.434194815467
30
0
0
SPLINE
5
13E
100
AcDbEntity
8
1
62
256
6
ByLayer
370
18
48
1
60
0
100
AcDbSpline
70
4
71
3
72
8
73
4
40
0
40
0
40
0
40
0
40
1
40
1
40
1
40
1
41
1
10
55.7901634108276
20
37.4914899370176
30
0
41
1
10
55.8733324501171
20
37.4465519649787
30
0
41
1
10
55.9564407457974
20
37.4015821421105
30
0
41
1
10
56.0395080969016
20
37.3565908952867
30
0
0
SPLINE
5
13F
100
AcDbEntity
8
1
62
256
6
ByLayer
370
18
48
1
60
0
100
AcDbSpline
70
4
71
3
72
8
73
4
40
0
40
0
40
0
40
0
40
1
40
1
40
1
40
1
41
1
10
55.8127364741584
20
39.0337202776583
30
0
41
1
10
55.7418001345784
20
38.9889944971966
30
0
41
1
10
55.670819249053
20
38.94427392734
30
0
41
1
10
55.5997722623213
20
38.8995611297039
30
0
0
SPLINE
5
140
100
AcDbEntity
8
1
62
256
6
ByLayer
370
18
48
1
60
0
100
AcDbSpline
70
4
71
3
72
10
73
6
40
0
40
0
40
0
40
0
40
0.5
40
0.5
40
1
40
1
40
1
40
1
41
1
10
39.862771533292
20
34.9460435470471
30
0
41
1
10
39.7739817330358
20
34.9327067147271
30
0
41
1
10
39.6845883067774
20
34.9195402948129
30
0
41
1
10
39.5042057038362
20
34.8936579585547
30
0
41
1
10
39.41378622427
20
34.8810283486783
30
0
41
1
10
39.3240058914247
20
34.8688939897318
30
0
0
SPLINE
5
141
100
AcDbEntity
8
1
62
256
6
ByLayer
370
18
48
1
60
0
100
AcDbSpline
70
4
71
3
72
10
73
6
40
0
40
0
40
0
40
0
40
0.5
40
0.5
40
1
40
1
40
1
40
1
41
1
10
38.651176304968
20
34.7861579796322
30
0
41
1
10
38.5634183846983
20
34.7764678283726
30
0
41
1
10
38.4759269329211
20
34.7672362429073
30
0
41
1
10
38.3048976546669
20
34.7498968966438
30
0
41
1
10
38.2208860939409
20
34.7417337093007
30
0
41
1
10
38.1380156701717
20
34.7339550459127
30
0
0
SPLINE
5
142
100
AcDbEntity
8
1
62
256
6
ByLayer
370
18
48
1
60
0
100
AcDbSpline
70
4
71
3
72
10
73
6
40
0
40
0
40
0
40
0
40
0.5
40
0.5
40
1
40
1
40
1
40
1
41
1
10
40.5227891403218
20
36.5486791347071
30
0
41
1
10
40.4666408419689
20
36.6155016445659
30
0
41
1
10
40.4099872309073
20
36.6836258155869
30
0
41
1
10
40.2972565501128
20
36.8209761428643
30
0
41
1
10
40.241132760174
20
36.8902557682466
30
0
41
1
10
40.1852954230037
20
36.9602522200056
30
0
0
SPLINE
5
143
100
AcDbEntity
8
1
62
256
6
ByLayer
370
18
48
1
60
0
100
AcDbSpline
70
4
71
3
72
10
73
6
40
0
40
0
40
0
40
0
40
0.5
40
0.5
40
1
40
1
40
1
40
1
41
1
10
37.0732774140813
20
36.1245021324382
30
0
41
1
10
37.1237184359816
20
36.052119097756
30
0
41
1
10
37.175227615163
20
35.9789827740192
30
0
41
1
10
37.279296375219
20
35.8331932506236
30
0
41
1
10
37.3318960565896
20
35.7604801323421
30
0
41
1
10
37.3851661243284
20
35.6879824235438
30
0
0
SPLINE
5
144
100
AcDbEntity
8
1
62
256
6
ByLayer
370
18
48
1
60
0
100
AcDbSpline
70
4
71
3
72
10
73
6
40
0
40
0
40
0
40
0
40
0.5
40
0.5
40
1
40
1
40
1
40
1
41
1
10
37.7332950211112
20
37.7271377200981
30
0
41
1
10
37.6974047057081
20
37.6441387574918
30
0
41
1
10
37.661308125645
20
37.5602297936578
30
0
41
1
10
37.5897815670443
20
37.3928477952132
30
0
41
1
10
37.5543213691314
20
37.3093061949379
30
0
41
1
10
37.5192205930265
20
37.2259417656864
30
0
0
SPLINE
5
145
100
AcDbEntity
8
1
62
256
6
ByLayer
370
18
48
1
60
0
100
AcDbSpline
70
4
71
3
72
10
73
6
40
0
40
0
40
0
40
0
40
0.5
40
0.5
40
1
40
1
40
1
40
1
41
1
10
38.2464556559074
20
37.7793406538176
30
0
41
1
10
38.1586977356377
20
37.769650502558
30
0
41
1
10
38.0712062838606
20
37.7604189170927
30
0
41
1
10
37.9001770056063
20
37.7430795708292
30
0
41
1
10
37.8161654448804
20
37.7349163834862
30
0
41
1
10
37.7332950211112
20
37.7271377200981
30
0
0
SPLINE
5
146
100
AcDbEntity
8
1
62
256
6
ByLayer
370
18
48
1
60
0
100
AcDbSpline
70
4
71
3
72
8
73
4
40
0
40
0
40
0
40
0
40
1
40
1
40
1
40
1
41
1
10
40.3087147122372
20
36.0474831802954
30
0
41
1
10
40.3800551155386
20
36.2169168129315
30
0
41
1
10
40.4514159449861
20
36.383623433629
30
0
41
1
10
40.5227891403218
20
36.5486791347071
30
0
0
SPLINE
5
147
100
AcDbEntity
8
1
62
256
6
ByLayer
370
18
48
1
60
0
100
AcDbSpline
70
4
71
3
72
10
73
6
40
0
40
0
40
0
40
0
40
0.5
40
0.5
40
1
40
1
40
1
40
1
41
1
10
39.4580508842314
20
37.9392262212326
30
0
41
1
10
39.3692610839753
20
37.9258893889125
30
0
41
1
10
39.2798676577169
20
37.9127229689983
30
0
41
1
10
39.0994850547756
20
37.8868406327401
30
0
41
1
10
39.0090655752095
20
37.8742110228637
30
0
41
1
10
38.9192852423642
20
37.8620766639173
30
0
0
SPLINE
5
148
100
AcDbEntity
8
1
62
256
6
ByLayer
370
18
48
1
60
0
100
AcDbSpline
70
4
71
3
72
8
73
4
40
0
40
0
40
0
40
0
40
1
40
1
40
1
40
1
41
1
10
37.8005219528536
20
35.1455281312112
30
0
41
1
10
37.914008279797
20
35.0032641800315
30
0
41
1
10
38.0263564824186
20
34.866841480468
30
0
41
1
10
38.1380156701717
20
34.7339550459127
30
0
0
SPLINE
5
149
100
AcDbEntity
8
1
62
256
6
ByLayer
370
18
48
1
60
0
100
AcDbSpline
70
4
71
3
72
8
73
4
40
0
40
0
40
0
40
0
40
1
40
1
40
1
40
1
41
1
10
39.7699395944785
20
37.5027065123383
30
0
41
1
10
39.6616711019236
20
37.6500541313379
30
0
41
1
10
39.5583603094508
20
37.7952818614422
30
0
41
1
10
39.4580508842314
20
37.9392262212326
30
0
0
SPLINE
5
14A
100
AcDbEntity
8
1
62
256
6
ByLayer
370
18
48
1
60
0
100
AcDbSpline
70
4
71
3
72
8
73
4
40
0
40
0
40
0
40
0
40
1
40
1
40
1
40
1
41
1
10
37.261746835095
20
36.6007514632541
30
0
41
1
10
37.195624266182
20
36.4364014984378
30
0
41
1
10
37.1333008468833
20
36.2784999082812
30
0
41
1
10
37.0732774140813
20
36.1245021324382
30
0
0
SPLINE
5
14B
100
AcDbEntity
8
1
62
256
6
ByLayer
370
18
48
1
60
0
100
AcDbSpline
70
4
71
3
72
10
73
6
40
0
40
0
40
0
40
0
40
0.5
40
0.5
40
1
40
1
40
1
40
1
41
1
10
39.862771533292
20
34.9460435470471
30
0
41
1
10
39.8929545722424
20
35.0234819848301
30
0
41
1
10
39.9239067204254
20
35.1023787959483
30
0
41
1
10
39.9867713582875
20
35.2613215982747
30
0
41
1
10
40.0187074476322
20
35.3414297056508
30
0
41
1
10
40.0512409543056
20
35.4222928778631
30
0
0
INSERT
5
15E
100
AcDbEntity
8
2
62
256
6
ByLayer
370
25
48
1
60
0
100
AcDbBlockReference
2
DimnDraft3D11
10
0
20
0
30
0
41
1
42
1
43
1
50
0
210
0
220
0
230
1
0
LINE
5
72
100
AcDbEntity
8
1
62
256
6
ByLayer
370
18
48
1
60
0
100
AcDbLine
10
0.3
20
-31.5
30
0
11
17.400056
21
-31.5
31
0
39
0
210
0
220
0
230
1
0
LINE
5
73
100
AcDbEntity
8
1
62
256
6
ByLayer
370
18
48
1
60
0
100
AcDbLine
10
54.923651
20
36.039031
30
0
11
55.50992
21
36.610226
31
0
39
0
210
0
220
0
230
1
0
LINE
5
74
100
AcDbEntity
8
1
62
256
6
ByLayer
370
18
48
1
60
0
100
AcDbLine
10
52.027896
20
39.249552
30
0
11
51.670413
21
38.901261
31
0
39
0
210
0
220
0
230
1
0
LINE
5
75
100
AcDbEntity
8
1
62
256
6
ByLayer
370
18
48
1
60
0
100
AcDbLine
10
41.46761
20
33.352924
30
0
11
41.514575
21
33.398681
31
0
39
0
210
0
220
0
230
1
0
LINE
5
76
100
AcDbEntity
8
1
62
256
6
ByLayer
370
18
48
1
60
0
100
AcDbLine
10
57.830301
20
32.809304
30
0
11
58.546226
21
33.50682
31
0
39
0
210
0
220
0
230
1
0
LINE
5
77
100
AcDbEntity
8
1
62
256
6
ByLayer
370
18
48
1
60
0
100
AcDbLine
10
21.742861
20
4.728341
30
0
11
21.500023
21
4.869392
31
0
39
0
210
0
220
0
230
1
0
LINE
5
78
100
AcDbEntity
8
1
62
256
6
ByLayer
370
18
48
1
60
0
100
AcDbLine
10
22.535272
20
1.020489
30
0
11
22.674586
21
1.264328
31
0
39
0
210
0
220
0
230
1
0
LINE
5
79
100
AcDbEntity
8
1
62
256
6
ByLayer
370
18
48
1
60
0
100
AcDbLine
10
19.210849
20
0.39702
30
0
11
19.72311
21
0.259154
31
0
39
0
210
0
220
0
230
1
0
LINE
5
7A
100
AcDbEntity
8
1
62
256
6
ByLayer
370
18
48
1
60
0
100
AcDbLine
10
35.931869
20
39.128724
30
0
11
35.884904
21
39.082967
31
0
39
0
210
0
220
0
230
1
0
LINE
5
7B
100
AcDbEntity
8
1
62
256
6
ByLayer
370
18
48
1
60
0
100
AcDbLine
10
22.186138
20
31.5
30
0
11
0.3
21
31.5
31
0
39
0
210
0
220
0
230
1
0
LINE
5
7C
100
AcDbEntity
8
1
62
256
6
ByLayer
370
18
48
1
60
0
100
AcDbLine
10
0.3
20
31.5
30
0
11
0
21
31.2
31
0
39
0
210
0
220
0
230
1
0
LINE
5
7D
100
AcDbEntity
8
1
62
256
6
ByLayer
370
18
48
1
60
0
100
AcDbLine
10
0
20
-31.2
30
0
11
0.3
21
-31.5
31
0
39
0
210
0
220
0
230
1
0
LINE
5
7E
100
AcDbEntity
8
1
62
256
6
ByLayer
370
18
48
1
60
0
100
AcDbLine
10
25.389297
20
41.163387
30
0
11
22.958879
21
32.092945
31
0
39
0
210
0
220
0
230
1
0
LINE
5
7F
100
AcDbEntity
8
1
62
256
6
ByLayer
370
18
48
1
60
0
100
AcDbLine
10
49.425654
20
42.775861
30
0
11
49.039681
21
42.399813
31
0
39
0
210
0
220
0
230
1
0
LINE
5
80
100
AcDbEntity
8
1
62
256
6
ByLayer
370
18
48
1
60
0
100
AcDbLine
10
21.484428
20
4.872602
30
0
11
18.769205
21
4.142281
31
0
39
0
210
0
220
0
230
1
0
LINE
5
81
100
AcDbEntity
8
1
62
256
6
ByLayer
370
18
48
1
60
0
100
AcDbLine
10
19.731659
20
0.258989
30
0
11
22.523393
21
1.009889
31
0
39
0
210
0
220
0
230
1
0
LINE
5
82
100
AcDbEntity
8
1
62
256
6
ByLayer
370
18
48
1
60
0
100
AcDbLine
10
22.186138
20
31.5
30
0
11
22.186138
21
30.849297
31
0
39
0
210
0
220
0
230
1
0
LINE
5
83
100
AcDbEntity
8
1
62
256
6
ByLayer
370
18
48
1
60
0
100
AcDbLine
10
17.400056
20
-31.5
30
0
11
19.479929
21
-28.10239
31
0
39
0
210
0
220
0
230
1
0
LINE
5
84
100
AcDbEntity
8
1
62
256
6
ByLayer
370
18
48
1
60
0
100
AcDbLine
10
0.3
20
-31.5
30
0
11
0.3
21
31.5
31
0
39
0
210
0
220
0
230
1
0
LINE
5
85
100
AcDbEntity
8
1
62
256
6
ByLayer
370
18
48
1
60
0
100
AcDbLine
10
19.880546
20
-27.447956
30
0
11
19.880546
21
0.299346
31
0
39
0
210
0
220
0
230
1
0
LINE
5
86
100
AcDbEntity
8
1
62
256
6
ByLayer
370
18
48
1
60
0
100
AcDbLine
10
19.880546
20
4.440802
30
0
11
19.880546
21
29.985012
31
0
39
0
210
0
220
0
230
1
0
LINE
5
87
100
AcDbEntity
8
1
62
256
6
ByLayer
370
18
48
1
60
0
100
AcDbLine
10
0
20
-31.2
30
0
11
0
21
31.2
31
0
39
0
210
0
220
0
230
1
0
LINE
5
88
100
AcDbEntity
8
1
62
256
6
ByLayer
370
18
48
1
60
0
100
AcDbLine
10
22.958879
20
31.507103
30
0
11
22.958879
21
32.092945
31
0
39
0
210
0
220
0
230
1
0
LINE
5
89
100
AcDbEntity
8
1
62
256
6
ByLayer
370
18
48
1
60
0
100
AcDbLine
10
49.13092
20
31.49543
30
0
11
54.360605
21
31.792433
31
0
39
0
210
0
220
0
230
1
0
LINE
5
8A
100
AcDbEntity
8
1
62
256
6
ByLayer
370
18
48
1
60
0
100
AcDbLine
10
55.71445
20
31.869321
30
0
11
56.209271
21
31.897422
31
0
39
0
210
0
220
0
230
1
0
LINE
5
8B
100
AcDbEntity
8
1
62
256
6
ByLayer
370
18
48
1
60
0
100
AcDbLine
10
47.241721
20
28.409297
30
0
11
46.670497
21
27.765264
31
0
39
0
210
0
220
0
230
1
0
LINE
5
8C
100
AcDbEntity
8
1
62
256
6
ByLayer
370
18
48
1
60
0
100
AcDbLine
10
48.461297
20
30.867398
30
0
11
46.478127
21
27.62776
31
0
39
0
210
0
220
0
230
1
0
LINE
5
8D
100
AcDbEntity
8
1
62
256
6
ByLayer
370
18
48
1
60
0
100
AcDbLine
10
48.453207
20
30.768376
30
0
11
48.515594
21
30.87029
31
0
39
0
210
0
220
0
230
1
0
LINE
5
8E
100
AcDbEntity
8
1
62
256
6
ByLayer
370
18
48
1
60
0
100
AcDbLine
10
42.121237
20
30.376964
30
0
11
42.432135
21
30.884836
31
0
39
0
210
0
220
0
230
1
0
LINE
5
8F
100
AcDbEntity
8
1
62
256
6
ByLayer
370
18
48
1
60
0
100
AcDbLine
10
48.453207
20
30.768376
30
0
11
48.496643
21
30.770842
31
0
39
0
210
0
220
0
230
1
0
LINE
5
90
100
AcDbEntity
8
1
62
256
6
ByLayer
370
18
48
1
60
0
100
AcDbLine
10
46.201069
20
27.473511
30
0
11
48.272613
21
30.857515
31
0
39
0
210
0
220
0
230
1
0
LINE
5
91
100
AcDbEntity
8
1
62
256
6
ByLayer
370
18
48
1
60
0
100
AcDbLine
10
42.474027
20
30.836705
30
0
11
42.118821
21
30.256452
31
0
39
0
210
0
220
0
230
1
0
LINE
5
92
100
AcDbEntity
8
SK1
62
256
6
ByLayer
370
18
48
1
60
0
100
AcDbLine
10
-0.2
20
7.059518
30
0
11
-0.2
21
22.533485
31
0
39
0
210
0
220
0
230
1
0
LINE
5
94
100
AcDbEntity
8
SK1
62
256
6
ByLayer
370
18
48
1
60
0
100
AcDbLine
10
-0.2
20
-22.533485
30
0
11
-0.2
21
-7.059517
31
0
39
0
210
0
220
0
230
1
0
LINE
5
95
100
AcDbEntity
8
SK1
62
256
6
ByLayer
370
18
48
1
60
0
100
AcDbLine
10
-1.307107
20
-4.811013
30
0
11
-1.307107
21
4.811013
31
0
39
0
210
0
220
0
230
1
0
LINE
5
96
100
AcDbEntity
8
1
62
256
6
ByLayer
370
18
48
1
60
0
100
AcDbLine
10
44.695879
20
35.150266
30
0
11
42.467688
21
31.510368
31
0
39
0
210
0
220
0
230
1
0
LINE
5
97
100
AcDbEntity
8
1
62
256
6
ByLayer
370
18
48
1
60
0
100
AcDbLine
10
19.479929
20
-28.10239
30
0
11
19.880546
21
-27.447956
31
0
39
0
210
0
220
0
230
1
0
LINE
5
98
100
AcDbEntity
8
1
62
256
6
ByLayer
370
18
48
1
60
0
100
AcDbLine
10
24.688239
20
38.231108
30
0
11
24.810988
21
28.43914
31
0
39
0
210
0
220
0
230
1
0
LINE
5
99
100
AcDbEntity
8
1
62
256
6
ByLayer
370
18
48
1
60
0
100
AcDbLine
10
48.373404
20
30.630112
30
0
11
49.13092
21
31.49543
31
0
39
0
210
0
220
0
230
1
0
LINE
5
9A
100
AcDbEntity
8
1
62
256
6
ByLayer
370
18
48
1
60
0
100
AcDbLine
10
23.865325
20
30.428579
30
0
11
23.865325
21
-20.938556
31
0
39
0
210
0
220
0
230
1
0
LINE
5
9B
100
AcDbEntity
8
1
62
256
6
ByLayer
370
18
48
1
60
0
100
AcDbLine
10
24.810988
20
28.43914
30
0
11
42.793563
21
9.981975
31
0
39
0
210
0
220
0
230
1
0
LINE
5
9C
100
AcDbEntity
8
1
62
256
6
ByLayer
370
18
48
1
60
0
100
AcDbLine
10
13.894338
20
29.913955
30
0
11
13.894338
21
9.869413
31
0
39
0
210
0
220
0
230
1
0
LINE
5
9D
100
AcDbEntity
8
1
62
256
6
ByLayer
370
18
48
1
60
0
100
AcDbLine
10
13.461325
20
30.080593
30
0
11
10.538675
21
30.080593
31
0
39
0
210
0
220
0
230
1
0
LINE
5
9E
100
AcDbEntity
8
1
62
256
6
ByLayer
370
18
48
1
60
0
100
AcDbLine
10
13.461325
20
-9.349221
30
0
11
13.461325
21
-30.080593
31
0
39
0
210
0
220
0
230
1
0
LINE
5
9F
100
AcDbEntity
8
1
62
256
6
ByLayer
370
18
48
1
60
0
100
AcDbLine
10
10.105662
20
-9.869413
30
0
11
10.105662
21
-29.913955
31
0
39
0
210
0
220
0
230
1
0
LINE
5
A0
100
AcDbEntity
8
1
62
256
6
ByLayer
370
18
48
1
60
0
100
AcDbLine
10
13.461325
20
-9.349221
30
0
11
10.538675
21
-9.349221
31
0
39
0
210
0
220
0
230
1
0
LINE
5
A1
100
AcDbEntity
8
1
62
256
6
ByLayer
370
18
48
1
60
0
100
AcDbLine
10
13.894338
20
-9.869413
30
0
11
13.894338
21
-29.913955
31
0
39
0
210
0
220
0
230
1
0
LINE
5
A2
100
AcDbEntity
8
1
62
256
6
ByLayer
370
18
48
1
60
0
100
AcDbLine
10
56.209271
20
31.897422
30
0
11
42.793563
21
9.981975
31
0
39
0
210
0
220
0
230
1
0
LINE
5
A3
100
AcDbEntity
8
1
62
256
6
ByLayer
370
18
48
1
60
0
100
AcDbLine
10
23.865325
20
-20.938556
30
0
11
19.880546
21
-27.447956
31
0
39
0
210
0
220
0
230
1
0
LINE
5
A4
100
AcDbEntity
8
1
62
256
6
ByLayer
370
18
48
1
60
0
100
AcDbLine
10
10.538675
20
-30.080593
30
0
11
13.461325
21
-30.080593
31
0
39
0
210
0
220
0
230
1
0
LINE
5
A5
100
AcDbEntity
8
1
62
256
6
ByLayer
370
18
48
1
60
0
100
AcDbLine
10
23.865325
20
-20.938556
30
0
11
42.793563
21
9.981975
31
0
39
0
210
0
220
0
230
1
0
LINE
5
A6
100
AcDbEntity
8
1
62
256
6
ByLayer
370
18
48
1
60
0
100
AcDbLine
10
10.538675
20
30.080593
30
0
11
10.538675
21
9.349221
31
0
39
0
210
0
220
0
230
1
0
LINE
5
A7
100
AcDbEntity
8
1
62
256
6
ByLayer
370
18
48
1
60
0
100
AcDbLine
10
10.105662
20
29.913955
30
0
11
10.105662
21
9.869413
31
0
39
0
210
0
220
0
230
1
0
LINE
5
A8
100
AcDbEntity
8
1
62
256
6
ByLayer
370
18
48
1
60
0
100
AcDbLine
10
25.455442
20
41.163806
30
0
11
49.136856
21
42.404896
31
0
39
0
210
0
220
0
230
1
0
LINE
5
A9
100
AcDbEntity
8
1
62
256
6
ByLayer
370
18
48
1
60
0
100
AcDbLine
10
47.241721
20
28.409297
30
0
11
49.13092
21
31.49543
31
0
39
0
210
0
220
0
230
1
0
LINE
5
AA
100
AcDbEntity
8
1
62
256
6
ByLayer
370
18
48
1
60
0
100
AcDbLine
10
49.136856
20
42.404896
30
0
11
47.215459
21
39.266166
31
0
39
0
210
0
220
0
230
1
0
LINE
5
AB
100
AcDbEntity
8
1
62
256
6
ByLayer
370
18
48
1
60
0
100
AcDbLine
10
10.538675
20
-9.349221
30
0
11
10.538675
21
-30.080593
31
0
39
0
210
0
220
0
230
1
0
LINE
5
AC
100
AcDbEntity
8
1
62
256
6
ByLayer
370
18
48
1
60
0
100
AcDbLine
10
46.639006
20
38.611578
30
0
11
45.017587
21
35.962882
31
0
39
0
210
0
220
0
230
1
0
LINE
5
AD
100
AcDbEntity
8
1
62
256
6
ByLayer
370
18
48
1
60
0
100
AcDbLine
10
13.461325
20
30.080593
30
0
11
13.461325
21
9.349221
31
0
39
0
210
0
220
0
230
1
0
LINE
5
AE
100
AcDbEntity
8
1
62
256
6
ByLayer
370
18
48
1
60
0
100
AcDbLine
10
10.538675
20
9.349221
30
0
11
13.461325
21
9.349221
31
0
39
0
210
0
220
0
230
1
0
LINE
5
AF
100
AcDbEntity
8
1
62
256
6
ByLayer
370
18
48
1
60
0
100
AcDbLine
10
18.82054
20
-1.298936
30
0
11
19.103344
21
-3.401786
31
0
39
0
210
0
220
0
230
1
0
LINE
5
B0
100
AcDbEntity
8
1
62
256
6
ByLayer
370
18
48
1
60
0
100
AcDbLine
10
51.498308
20
38.503187
30
0
11
51.438849
21
38.445257
31
0
39
0
210
0
220
0
230
1
0
LINE
5
B1
100
AcDbEntity
8
1
62
256
6
ByLayer
370
18
48
1
60
0
100
AcDbLine
10
39.624505
20
35.006529
30
0
11
39.582697
21
34.905012
31
0
39
0
210
0
220
0
230
1
0
LINE
5
B2
100
AcDbEntity
8
1
62
256
6
ByLayer
370
18
48
1
60
0
100
AcDbLine
10
37.564422
20
37.332184
30
0
11
37.819719
21
37.363577
31
0
39
0
210
0
220
0
230
1
0
LINE
5
B3
100
AcDbEntity
8
1
62
256
6
ByLayer
370
18
48
1
60
0
100
AcDbLine
10
19.210834
20
0.397024
30
0
11
19.218259
21
0.396877
31
0
39
0
210
0
220
0
230
1
0
LINE
5
B4
100
AcDbEntity
8
1
62
256
6
ByLayer
370
18
48
1
60
0
100
AcDbLine
10
55.596399
20
31.857193
30
0
11
55.644321
21
31.903883
31
0
39
0
210
0
220
0
230
1
0
LINE
5
B5
100
AcDbEntity
8
1
62
256
6
ByLayer
370
18
48
1
60
0
100
AcDbLine
10
48.587023
20
30.874029
30
0
11
43.095751
21
30.586244
31
0
39
0
210
0
220
0
230
1
0
LINE
5
B6
100
AcDbEntity
8
1
62
256
6
ByLayer
370
18
48
1
60
0
100
AcDbLine
10
43.038636
20
32.443053
30
0
11
43.086558
21
32.489743
31
0
39
0
210
0
220
0
230
1
0
LINE
5
B7
100
AcDbEntity
8
1
62
256
6
ByLayer
370
18
48
1
60
0
100
AcDbLine
10
49.244082
20
42.548466
30
0
11
49.094431
21
42.402664
31
0
39
0
210
0
220
0
230
1
0
LINE
5
B8
100
AcDbEntity
8
1
62
256
6
ByLayer
370
18
48
1
60
0
100
AcDbLine
10
56.184999
20
32.067258
30
0
11
55.998378
21
31.885435
31
0
39
0
210
0
220
0
230
1
0
LINE
5
B9
100
AcDbEntity
8
1
62
256
6
ByLayer
370
18
48
1
60
0
100
AcDbLine
10
57.610837
20
32.641078
30
0
11
56.124387
21
31.758731
31
0
39
0
210
0
220
0
230
1
0
LINE
5
BA
100
AcDbEntity
8
80
62
256
6
ByLayer
370
18
48
1
60
0
100
AcDbLine
10
0
20
0
30
0
11
-5
21
0
31
0
39
0
210
0
220
0
230
1
0
LINE
5
BB
100
AcDbEntity
8
4
62
256
6
ByLayer
370
18
48
0.05
60
0
100
AcDbLine
10
0
20
0
30
0
11
65
21
0
31
0
39
0
210
0
220
0
230
1
0
LINE
5
BD
100
AcDbEntity
8
81
62
256
6
ByLayer
370
18
48
1
60
0
100
AcDbLine
10
65
20
45
30
0
11
75
21
45
31
0
39
0
210
0
220
0
230
1
0
LINE
5
BE
100
AcDbEntity
8
SK4
62
256
6
ByLayer
370
18
48
0.05
60
0
100
AcDbLine
10
-43
20
0
30
0
11
65
21
0
31
0
39
0
210
0
220
0
230
1
0
LINE
5
C0
100
AcDbEntity
8
1
62
256
6
ByLayer
370
18
48
1
60
0
100
AcDbLine
10
57.610837
20
32.641078
30
0
11
58.326762
21
33.338594
31
0
39
0
210
0
220
0
230
1
0
LINE
5
C1
100
AcDbEntity
8
1
62
256
6
ByLayer
370
18
48
1
60
0
100
AcDbLine
10
55.644321
20
31.903883
30
0
11
43.811676
21
31.28376
31
0
39
0
210
0
220
0
230
1
0
LINE
5
C2
100
AcDbEntity
8
1
62
256
6
ByLayer
370
18
48
1
60
0
100
AcDbLine
10
43.086558
20
32.489743
30
0
11
49.244082
21
42.548466
31
0
39
0
210
0
220
0
230
1
0
LINE
5
C3
100
AcDbEntity
8
1
62
256
6
ByLayer
370
18
48
1
60
0
100
AcDbLine
10
64.885323
20
43.792938
30
0
11
58.727799
21
33.734215
31
0
39
0
210
0
220
0
230
1
0
LINE
5
C4
100
AcDbEntity
8
1
62
256
6
ByLayer
370
18
48
1
60
0
100
AcDbLine
10
43.811676
20
31.28376
30
0
11
43.095751
21
30.586244
31
0
39
0
210
0
220
0
230
1
0
LINE
5
C5
100
AcDbEntity
8
1
62
256
6
ByLayer
370
18
48
1
60
0
100
AcDbLine
10
52.32756
20
44.378798
30
0
11
64.160205
21
44.998921
31
0
39
0
210
0
220
0
230
1
0
LINE
5
C6
100
AcDbEntity
8
1
62
256
6
ByLayer
370
18
48
1
60
0
100
AcDbLine
10
49.645119
20
42.944087
30
0
11
51.786881
21
44.215423
31
0
39
0
210
0
220
0
230
1
0
LINE
5
C7
100
AcDbEntity
8
1
62
256
6
ByLayer
370
18
48
1
60
0
100
AcDbLine
10
58.326762
20
33.338594
30
0
11
56.184999
21
32.067258
31
0
39
0
210
0
220
0
230
1
0
LINE
5
C8
100
AcDbEntity
8
1
62
256
6
ByLayer
370
18
48
1
60
0
100
AcDbLine
10
39.018512
20
37.510989
30
0
11
39.343203
21
37.086943
31
0
39
0
210
0
220
0
230
1
0
LINE
5
C9
100
AcDbEntity
8
1
62
256
6
ByLayer
370
18
48
1
60
0
100
AcDbLine
10
39.758559
20
36.544489
30
0
11
40.08325
21
36.120442
31
0
39
0
210
0
220
0
230
1
0
LINE
5
CA
100
AcDbEntity
8
1
62
256
6
ByLayer
370
18
48
1
60
0
100
AcDbLine
10
38.246456
20
37.779341
30
0
11
37.819719
21
37.363577
31
0
39
0
210
0
220
0
230
1
0
LINE
5
CB
100
AcDbEntity
8
1
62
256
6
ByLayer
370
18
48
1
60
0
100
AcDbLine
10
39.758559
20
36.544489
30
0
11
40.185295
21
36.960252
31
0
39
0
210
0
220
0
230
1
0
LINE
5
CC
100
AcDbEntity
8
1
62
256
6
ByLayer
370
18
48
1
60
0
100
AcDbLine
10
39.624505
20
35.006529
30
0
11
40.051241
21
35.422293
31
0
39
0
210
0
220
0
230
1
0
LINE
5
CD
100
AcDbEntity
8
1
62
256
6
ByLayer
370
18
48
1
60
0
100
AcDbLine
10
40.522789
20
36.548679
30
0
11
40.08325
21
36.120442
31
0
39
0
210
0
220
0
230
1
0
LINE
5
CE
100
AcDbEntity
8
1
62
256
6
ByLayer
370
18
48
1
60
0
100
AcDbLine
10
38.492549
20
37.446313
30
0
11
39.018512
21
37.510989
31
0
39
0
210
0
220
0
230
1
0
LINE
5
CF
100
AcDbEntity
8
1
62
256
6
ByLayer
370
18
48
1
60
0
100
AcDbLine
10
39.76994
20
37.502707
30
0
11
39.343203
21
37.086943
31
0
39
0
210
0
220
0
230
1
0
LINE
5
D0
100
AcDbEntity
8
1
62
256
6
ByLayer
370
18
48
1
60
0
100
AcDbLine
10
40.08325
20
36.120442
30
0
11
39.881978
21
35.63172
31
0
39
0
210
0
220
0
230
1
0
LINE
5
D1
100
AcDbEntity
8
1
62
256
6
ByLayer
370
18
48
1
60
0
100
AcDbLine
10
39.458051
20
37.939226
30
0
11
39.018512
21
37.510989
31
0
39
0
210
0
220
0
230
1
0
LINE
5
D2
100
AcDbEntity
8
1
62
256
6
ByLayer
370
18
48
1
60
0
100
AcDbLine
10
40.308715
20
36.047483
30
0
11
39.881978
21
35.63172
31
0
39
0
210
0
220
0
230
1
0
LINE
5
D3
100
AcDbEntity
8
1
62
256
6
ByLayer
370
18
48
1
60
0
100
AcDbLine
10
38.492549
20
37.446313
30
0
11
38.919285
21
37.862077
31
0
39
0
210
0
220
0
230
1
0
MTEXT
5
14C
100
AcDbEntity
8
SK6
62
256
6
ByLayer
370
13
48
1
60
0
100
AcDbMText
10
-4.859793
20
-46.797905
30
0
210
0
220
0
230
1
1
\W0.7390;C6-PDJNR-45065-15
40
3.5
41
0
44
1.084337
50
0
71
7
72
5
7
iso_b_vert
0
DIMENSION
5
16D
100
AcDbEntity
8
SK2
62
256
6
ByLayer
370
13
48
1
60
0
100
AcDbDimension
2
DimnDraft3D2
10
-47.75
20
-31.5
30
0
11
-47.75
21
0
31
0
70
32
71
5
72
1
41
1
210
0
220
0
230
1
3
Standard
100
AcDbAlignedDimension
13
-1.5875
23
31.5
33
0
14
-1.5875
24
-31.5
34
0
50
90
100
AcDbRotatedDimension
1001
ACAD
1000
DSTYLE
1002
{
1070
    74
1070
     0
1070
   279
1070
     0
1070
   172
1070
     1
1070
   173
1070
     1
1070
   340
1005
14D
1070
   271
1070
     1
1070
   272
1070
     2
1070
    77
1070
     1
1070
    73
1070
     0
1070
   171
1070
     3
1070
   274
1070
     4
1070
   177
1070
   150
1070
   176
1070
     9
1070
   178
1070
    43
1070
    78
1070
     8
1070
    48
1040
-0.005
1070
    41
1041
3.175
1070
   147
1041
2.25
1070
    42
1041
1.5875
1070
    44
1041
3.175
1070
   140
1041
4.5
1070
   343
1005
16E
1070
   344
1005
16E
1002
}
0
DIMENSION
5
182
100
AcDbEntity
8
2
62
256
6
ByLayer
370
13
48
1
60
0
100
AcDbDimension
2
DimnDraft3D3
10
0
20
62.5
30
0
11
32.5
21
62.5
31
0
70
32
71
5
72
1
41
1
210
0
220
0
230
1
3
Standard
100
AcDbAlignedDimension
13
65
23
46.5875
33
0
14
0
24
33.0875
34
0
50
0
100
AcDbRotatedDimension
1001
ACAD
1000
DSTYLE
1002
{
1070
   279
1070
     0
1070
   172
1070
     1
1070
   173
1070
     1
1070
   340
1005
14D
1070
   271
1070
     1
1070
   272
1070
     2
1070
    77
1070
     1
1070
    73
1070
     0
1070
   171
1070
     3
1070
   274
1070
     4
1070
   177
1070
   150
1070
   176
1070
     9
1070
   178
1070
    43
1070
    78
1070
     8
1070
    48
1040
-0.005
1070
    41
1041
3.175
1070
   147
1041
2.25
1070
    42
1041
1.5875
1070
    44
1041
3.175
1070
   140
1041
4.5
1070
   343
1005
16E
1070
   344
1005
16E
1002
}
0
DIMENSION
5
18F
100
AcDbEntity
8
2
62
256
6
ByLayer
370
13
48
1
60
0
100
AcDbDimension
2
DimnDraft3D4
10
49.185265
20
44.213873
30
0
11
52.711865
21
56.703693
31
0
70
34
71
5
72
1
41
1
210
0
220
0
230
1
3
Standard
100
AcDb2LineAngularDimension
13
65
23
45
33
0
14
65
24
43.4125
34
0
15
64.164708
25
44.998912
35
0
16
55.976049
26
53.606097
36
0
40
0
0
ENDSEC
0
SECTION
2
OBJECTS
0
DICTIONARY
5
1fa
330
0
100
AcDbDictionary
280
0
281
1
3
ACAD_GROUP
350
1fb
3
ACAD_MLINESTYLE
350
1fc
0
DICTIONARY
5
1fb
330
0
100
AcDbDictionary
280
0
281
1
0
DICTIONARY
5
1fc
330
0
100
AcDbDictionary
280
0
281
1
3
Standard
350
18
0
MLINESTYLE
5
18
330
1fc
100
AcDbMlineStyle
2
Standard
70
0
3

62
256
51
90
52
90
71
2
49
-0.5
62
256
6
ByLayer
49
0.5
62
256
6
ByLayer
0
RASTERVARIABLES
5
1e8
330

100
AcDbRasterVariables
90
0
70
1
71
1
72
1
0
ENDSEC
0
EOF
