0
SECTION
2
HEADER
9
$ACADVER
1
AC1015
9
$DWGCODEPAGE
3
ANSI_1252
9
$HANDSEED
5
214
9
$ANGBASE
50
0
9
$ANGDIR
70
0
9
$ATTMODE
70
1
9
$AUNITS
70
0
9
$AUPREC
70
0
9
$CECOLOR
62
256
9
$CELTSCALE
40
1
9
$CELTYPE
6
ByLayer
9
$CELWEIGHT
370
18
9
$CLAYER
8
0
9
$CMLJUST
70
0
9
$CMLSCALE
40
1
9
$CMLSTYLE
2
Standard
9
$DIMSTYLE
2
Standard
9
$TEXTSIZE
40
0.2
9
$TEXTSTYLE
7
Standard
9
$LUNITS
70
2
9
$LUPREC
70
4
9
$EXTNAMES
290
1
9
$INSUNITS
70
4
9
$LTSCALE
40
1
9
$LWDISPLAY
290
1
9
$PDMODE
70
0
9
$PDSIZE
40
0
9
$PLINEGEN
70
0
0
ENDSEC
0
SECTION
2
CLASSES
0
CLASS
1
RASTERVARIABLES
2
AcDbRasterVariables
3
ISM
90
0
280
0
281
0
0
ENDSEC
0
SECTION
2
TABLES
0
TABLE
2
VPORT
5
20a
100
AcDbSymbolTable
0
VPORT
5
1
100
AcDbSymbolTableRecord
100
AcDbViewportTableRecord
2
*Active
70
0
10
0
20
0
11
1
21
1
12
-1
22
1
13
0
23
0
14
0.5
24
0.5
15
10
25
10
16
0
26
0
36
1
17
0
27
0
37
0
0
ENDTAB
0
TABLE
2
LTYPE
5
20b
100
AcDbSymbolTable
0
LTYPE
5
14
100
AcDbSymbolTableRecord
100
AcDbLinetypeTableRecord
70
0
2
ByBlock
3

72
65
73
0
40
0
0
LTYPE
5
15
100
AcDbSymbolTableRecord
100
AcDbLinetypeTableRecord
70
0
2
ByLayer
3

72
65
73
0
40
0
0
LTYPE
5
16
100
AcDbSymbolTableRecord
100
AcDbLinetypeTableRecord
70
0
2
CONTINUOUS
3
Solid line
72
65
73
0
40
0
0
LTYPE
5
6A
100
AcDbSymbolTableRecord
100
AcDbLinetypeTableRecord
70
0
2
CENTER
3
____ _ ____ _ ____ _ ____
72
65
73
4
40
47.5
49
22
74
0
49
-8.5
74
0
49
8.5
74
0
49
-8.5
74
0
0
LTYPE
5
6B
100
AcDbSymbolTableRecord
100
AcDbLinetypeTableRecord
70
0
2
DASHED
3
__ __ __ __ __ __ __ __ __
72
65
73
2
40
25.72
49
12.86
74
0
49
-12.86
74
0
0
ENDTAB
0
TABLE
2
LAYER
5
20c
100
AcDbSymbolTable
0
LAYER
5
10
100
AcDbSymbolTableRecord
100
AcDbLayerTableRecord
2
0
70
0
62
7
6
CONTINUOUS
290
1
370
-3
390
0
0
LAYER
5
6D
100
AcDbSymbolTableRecord
100
AcDbLayerTableRecord
2
80
70
0
62
-6
6
CONTINUOUS
290
1
370
-3
390
0
0
LAYER
5
6F
100
AcDbSymbolTableRecord
100
AcDbLayerTableRecord
2
81
70
0
62
-3
6
CONTINUOUS
290
1
370
-3
390
0
0
LAYER
5
71
100
AcDbSymbolTableRecord
100
AcDbLayerTableRecord
2
1
70
0
62
4
6
CONTINUOUS
290
1
370
-3
390
0
0
LAYER
5
167
100
AcDbSymbolTableRecord
100
AcDbLayerTableRecord
2
2
70
0
62
7
6
CONTINUOUS
290
1
370
-3
390
0
0
LAYER
5
1f7
100
AcDbSymbolTableRecord
100
AcDbLayerTableRecord
2
SK1
70
0
62
4
6
CONTINUOUS
290
1
370
-3
390
0
0
LAYER
5
1f8
100
AcDbSymbolTableRecord
100
AcDbLayerTableRecord
2
SK6
70
0
62
5
6
CONTINUOUS
290
1
370
-3
390
0
0
LAYER
5
1f9
100
AcDbSymbolTableRecord
100
AcDbLayerTableRecord
2
SK2
70
0
62
7
6
CONTINUOUS
290
1
370
-3
390
0
0
ENDTAB
0
TABLE
2
STYLE
5
20d
100
AcDbSymbolTable
0
STYLE
5
11
100
AcDbSymbolTableRecord
100
AcDbTextStyleTableRecord
2
Standard
3
txt
70
0
71
0
40
0
41
1
42
0
50
0
0
STYLE
5
14C
100
AcDbSymbolTableRecord
100
AcDbTextStyleTableRecord
2
iso_b_vert
3
simplex.shx
70
0
71
0
40
0
41
1
42
0
50
0
0
STYLE
5
14D
100
AcDbSymbolTableRecord
100
AcDbTextStyleTableRecord
2
DWGDirectTextStyle
3
simplex
70
0
71
0
40
0
41
1
42
0
50
0
0
ENDTAB
0
TABLE
2
DIMSTYLE
5
20e
100
AcDbSymbolTable
100
AcDbDimStyleTable
0
DIMSTYLE
105
27
100
AcDbSymbolTableRecord
100
AcDbDimStyleTableRecord
2
Standard
70
0
3
<>
41
0.18
42
0.0625
44
0.18
140
0.18
147
0.09
73
0
74
0
77
1
271
2
275
0
278
52
280
0
340
11
0
ENDTAB
0
TABLE
2
VIEW
5
20f
100
AcDbSymbolTable
0
ENDTAB
0
TABLE
2
UCS
5
210
100
AcDbSymbolTable
0
ENDTAB
0
TABLE
2
APPID
5
211
100
AcDbSymbolTable
0
APPID
5
12
100
AcDbSymbolTableRecord
100
AcDbRegAppTableRecord
2
ACAD
70
0
0
ENDTAB
0
TABLE
2
BLOCK_RECORD
5
212
100
AcDbSymbolTable
0
BLOCK_RECORD
5
1F
100
AcDbSymbolTableRecord
100
AcDbBlockTableRecord
2
*Model_Space
340
0
70
0
0
BLOCK_RECORD
5
1B
100
AcDbSymbolTableRecord
100
AcDbBlockTableRecord
2
*Paper_Space
340
0
70
0
0
BLOCK_RECORD
5
23
100
AcDbSymbolTableRecord
100
AcDbBlockTableRecord
2
*Paper_Space0
340
0
70
0
0
BLOCK_RECORD
5
14F
100
AcDbSymbolTableRecord
100
AcDbBlockTableRecord
2
DimnDraft3D1
340
0
70
0
0
BLOCK_RECORD
5
15E
100
AcDbSymbolTableRecord
100
AcDbBlockTableRecord
2
_CLOSED
340
0
70
0
0
BLOCK_RECORD
5
165
100
AcDbSymbolTableRecord
100
AcDbBlockTableRecord
2
DimnDraft3D2
340
0
70
0
0
BLOCK_RECORD
5
174
100
AcDbSymbolTableRecord
100
AcDbBlockTableRecord
2
DimnDraft3D3
340
0
70
0
0
BLOCK_RECORD
5
182
100
AcDbSymbolTableRecord
100
AcDbBlockTableRecord
2
DimnDraft3D4
340
0
70
0
0
BLOCK_RECORD
5
190
100
AcDbSymbolTableRecord
100
AcDbBlockTableRecord
2
DimnDraft3D5
340
0
70
0
0
ENDTAB
0
ENDSEC
0
SECTION
2
BLOCKS
0
BLOCK
5
20
100
AcDbEntity
8
0
100
AcDbBlockBegin
2
*Model_Space
70
0
10
0
20
0
30
0
3
*Model_Space
0
ENDBLK
5
21
100
AcDbEntity
8
0
100
AcDbBlockEnd
0
BLOCK
5
1C
100
AcDbEntity
8
0
100
AcDbBlockBegin
2
*Paper_Space
70
0
10
0
20
0
30
0
3
*Paper_Space
0
ENDBLK
5
1D
100
AcDbEntity
8
0
100
AcDbBlockEnd
0
BLOCK
5
24
100
AcDbEntity
8
0
100
AcDbBlockBegin
2
*Paper_Space0
70
0
10
0
20
0
30
0
3
*Paper_Space0
0
ENDBLK
5
25
100
AcDbEntity
8
0
100
AcDbBlockEnd
0
BLOCK
5
15B
100
AcDbEntity
8
0
100
AcDbBlockBegin
2
DimnDraft3D1
70
0
10
0
20
0
30
0
3
DimnDraft3D1
0
MTEXT
5
150
100
AcDbEntity
8
SK2
62
256
6
ByLayer
370
18
48
1
60
0
100
AcDbMText
10
33.784211
20
54.975
30
0
210
0
220
0
230
1
1
\W0.6740;70
40
3.5
41
0
44
1.084337
50
0
71
7
72
5
7
iso_b_vert
0
LINE
5
152
100
AcDbEntity
8
SK2
62
256
6
ByLayer
370
13
48
1
60
0
100
AcDbLine
10
0
20
2
30
0
11
0
21
56.1
31
0
39
0
210
0
220
0
230
1
0
LINE
5
153
100
AcDbEntity
8
SK2
62
256
6
ByLayer
370
13
48
1
60
0
100
AcDbLine
10
70
20
-37
30
0
11
70
21
56.1
31
0
39
0
210
0
220
0
230
1
0
LINE
5
154
100
AcDbEntity
8
SK2
62
256
6
ByLayer
370
13
48
1
60
0
100
AcDbLine
10
0
20
54.1
30
0
11
70
21
54.1
31
0
39
0
210
0
220
0
230
1
0
LINE
5
155
100
AcDbEntity
8
SK2
62
256
6
ByLayer
370
13
48
1
60
0
100
AcDbLine
10
0
20
54.1
30
0
11
3.174998
21
54.517997
31
0
39
0
210
0
220
0
230
1
0
LINE
5
156
100
AcDbEntity
8
SK2
62
256
6
ByLayer
370
13
48
1
60
0
100
AcDbLine
10
0
20
54.1
30
0
11
3.175002
21
53.682003
31
0
39
0
210
0
220
0
230
1
0
LINE
5
157
100
AcDbEntity
8
SK2
62
256
6
ByLayer
370
13
48
1
60
0
100
AcDbLine
10
3.174998
20
54.517997
30
0
11
3.175002
21
53.682003
31
0
39
0
210
0
220
0
230
1
0
LINE
5
158
100
AcDbEntity
8
SK2
62
256
6
ByLayer
370
13
48
1
60
0
100
AcDbLine
10
70
20
54.1
30
0
11
66.825002
21
53.682003
31
0
39
0
210
0
220
0
230
1
0
LINE
5
159
100
AcDbEntity
8
SK2
62
256
6
ByLayer
370
13
48
1
60
0
100
AcDbLine
10
70
20
54.1
30
0
11
66.824998
21
54.517997
31
0
39
0
210
0
220
0
230
1
0
LINE
5
15A
100
AcDbEntity
8
SK2
62
256
6
ByLayer
370
13
48
1
60
0
100
AcDbLine
10
66.825002
20
53.682003
30
0
11
66.824998
21
54.517997
31
0
39
0
210
0
220
0
230
1
0
ENDBLK
5
15C
100
AcDbEntity
8
0
100
AcDbBlockEnd
0
BLOCK
5
15F
100
AcDbEntity
8
0
100
AcDbBlockBegin
2
_CLOSED
70
0
10
0
20
0
30
0
3
_CLOSED
0
LINE
5
161
100
AcDbEntity
8
0
62
256
6
ByLayer
370
-2
48
1
60
0
100
AcDbLine
10
-1
20
0.166667
30
0
11
0
21
0
31
0
39
0
210
0
220
0
230
1
0
LINE
5
162
100
AcDbEntity
8
0
62
256
6
ByLayer
370
-2
48
1
60
0
100
AcDbLine
10
0
20
0
30
0
11
-1
21
-0.166667
31
0
39
0
210
0
220
0
230
1
0
LINE
5
163
100
AcDbEntity
8
0
62
256
6
ByLayer
370
-2
48
1
60
0
100
AcDbLine
10
-1
20
0.166667
30
0
11
-1
21
-0.166667
31
0
39
0
210
0
220
0
230
1
0
LINE
5
164
100
AcDbEntity
8
0
62
256
6
ByLayer
370
-2
48
1
60
0
100
AcDbLine
10
0
20
0
30
0
11
-1
21
0
31
0
39
0
210
0
220
0
230
1
0
ENDBLK
5
160
100
AcDbEntity
8
0
100
AcDbBlockEnd
0
BLOCK
5
171
100
AcDbEntity
8
0
100
AcDbBlockBegin
2
DimnDraft3D2
70
0
10
0
20
0
30
0
3
DimnDraft3D2
0
MTEXT
5
166
100
AcDbEntity
8
2
62
256
6
ByLayer
370
18
48
1
60
0
100
AcDbMText
10
56.284211
20
-54.446483
30
0
210
0
220
0
230
1
1
\W0.6740;25
40
3.5
41
0
44
1.084337
50
0
71
7
72
5
7
iso_b_vert
0
LINE
5
168
100
AcDbEntity
8
2
62
256
6
ByLayer
370
13
48
1
60
0
100
AcDbLine
10
70
20
-41
30
0
11
70
21
-57.321483
31
0
39
0
210
0
220
0
230
1
0
LINE
5
169
100
AcDbEntity
8
2
62
256
6
ByLayer
370
13
48
1
60
0
100
AcDbLine
10
45
20
-33.5
30
0
11
45
21
-57.321483
31
0
39
0
210
0
220
0
230
1
0
LINE
5
16A
100
AcDbEntity
8
2
62
256
6
ByLayer
370
13
48
1
60
0
100
AcDbLine
10
70
20
-55.321483
30
0
11
45
21
-55.321483
31
0
39
0
210
0
220
0
230
1
0
LINE
5
16B
100
AcDbEntity
8
2
62
256
6
ByLayer
370
13
48
1
60
0
100
AcDbLine
10
70
20
-55.321483
30
0
11
66.825002
21
-55.739479
31
0
39
0
210
0
220
0
230
1
0
LINE
5
16C
100
AcDbEntity
8
2
62
256
6
ByLayer
370
13
48
1
60
0
100
AcDbLine
10
70
20
-55.321483
30
0
11
66.824998
21
-54.903486
31
0
39
0
210
0
220
0
230
1
0
LINE
5
16D
100
AcDbEntity
8
2
62
256
6
ByLayer
370
13
48
1
60
0
100
AcDbLine
10
66.825002
20
-55.739479
30
0
11
66.824998
21
-54.903486
31
0
39
0
210
0
220
0
230
1
0
LINE
5
16E
100
AcDbEntity
8
2
62
256
6
ByLayer
370
13
48
1
60
0
100
AcDbLine
10
45
20
-55.321483
30
0
11
48.174998
21
-54.903486
31
0
39
0
210
0
220
0
230
1
0
LINE
5
16F
100
AcDbEntity
8
2
62
256
6
ByLayer
370
13
48
1
60
0
100
AcDbLine
10
45
20
-55.321483
30
0
11
48.175002
21
-55.739479
31
0
39
0
210
0
220
0
230
1
0
LINE
5
170
100
AcDbEntity
8
2
62
256
6
ByLayer
370
13
48
1
60
0
100
AcDbLine
10
48.174998
20
-54.903486
30
0
11
48.175002
21
-55.739479
31
0
39
0
210
0
220
0
230
1
0
ENDBLK
5
172
100
AcDbEntity
8
0
100
AcDbBlockEnd
0
BLOCK
5
17F
100
AcDbEntity
8
0
100
AcDbBlockBegin
2
DimnDraft3D3
70
0
10
0
20
0
30
0
3
DimnDraft3D3
0
MTEXT
5
175
100
AcDbEntity
8
SK2
62
256
6
ByLayer
370
18
48
1
60
0
100
AcDbMText
10
-48.475
20
-1.215789
30
0
210
0
220
0
230
1
1
\W0.6740;63
40
3.5
41
0
44
1.084337
50
90
71
7
72
5
7
iso_b_vert
0
LINE
5
176
100
AcDbEntity
8
SK2
62
256
6
ByLayer
370
13
48
1
60
0
100
AcDbLine
10
-2
20
-31.5
30
0
11
-49.6
21
-31.5
31
0
39
0
210
0
220
0
230
1
0
LINE
5
177
100
AcDbEntity
8
SK2
62
256
6
ByLayer
370
13
48
1
60
0
100
AcDbLine
10
-2
20
31.5
30
0
11
-49.6
21
31.5
31
0
39
0
210
0
220
0
230
1
0
LINE
5
178
100
AcDbEntity
8
SK2
62
256
6
ByLayer
370
13
48
1
60
0
100
AcDbLine
10
-47.6
20
-31.5
30
0
11
-47.6
21
31.5
31
0
39
0
210
0
220
0
230
1
0
LINE
5
179
100
AcDbEntity
8
SK2
62
256
6
ByLayer
370
13
48
1
60
0
100
AcDbLine
10
-47.6
20
-31.5
30
0
11
-48.017997
21
-28.325002
31
0
39
0
210
0
220
0
230
1
0
LINE
5
17A
100
AcDbEntity
8
SK2
62
256
6
ByLayer
370
13
48
1
60
0
100
AcDbLine
10
-47.6
20
-31.5
30
0
11
-47.182003
21
-28.324998
31
0
39
0
210
0
220
0
230
1
0
LINE
5
17B
100
AcDbEntity
8
SK2
62
256
6
ByLayer
370
13
48
1
60
0
100
AcDbLine
10
-48.017997
20
-28.325002
30
0
11
-47.182003
21
-28.324998
31
0
39
0
210
0
220
0
230
1
0
LINE
5
17C
100
AcDbEntity
8
SK2
62
256
6
ByLayer
370
13
48
1
60
0
100
AcDbLine
10
-47.6
20
31.5
30
0
11
-47.182003
21
28.325002
31
0
39
0
210
0
220
0
230
1
0
LINE
5
17D
100
AcDbEntity
8
SK2
62
256
6
ByLayer
370
13
48
1
60
0
100
AcDbLine
10
-47.6
20
31.5
30
0
11
-48.017997
21
28.324998
31
0
39
0
210
0
220
0
230
1
0
LINE
5
17E
100
AcDbEntity
8
SK2
62
256
6
ByLayer
370
13
48
1
60
0
100
AcDbLine
10
-47.182003
20
28.325002
30
0
11
-48.017997
21
28.324998
31
0
39
0
210
0
220
0
230
1
0
ENDBLK
5
180
100
AcDbEntity
8
0
100
AcDbBlockEnd
0
BLOCK
5
18D
100
AcDbEntity
8
0
100
AcDbBlockBegin
2
DimnDraft3D4
70
0
10
0
20
0
30
0
3
DimnDraft3D4
0
MTEXT
5
183
100
AcDbEntity
8
2
62
256
6
ByLayer
370
18
48
1
60
0
100
AcDbMText
10
94.225
20
-20.715789
30
0
210
0
220
0
230
1
1
\W0.6927;39
40
3.5
41
0
44
1.084337
50
90
71
7
72
5
7
iso_b_vert
0
LINE
5
184
100
AcDbEntity
8
2
62
256
6
ByLayer
370
13
48
1
60
0
100
AcDbLine
10
63
20
0
30
0
11
97.1
21
0
31
0
39
0
210
0
220
0
230
1
0
LINE
5
185
100
AcDbEntity
8
2
62
256
6
ByLayer
370
13
48
1
60
0
100
AcDbLine
10
72
20
-39
30
0
11
97.1
21
-39
31
0
39
0
210
0
220
0
230
1
0
LINE
5
186
100
AcDbEntity
8
2
62
256
6
ByLayer
370
13
48
1
60
0
100
AcDbLine
10
95.1
20
0
30
0
11
95.1
21
-39
31
0
39
0
210
0
220
0
230
1
0
LINE
5
187
100
AcDbEntity
8
2
62
256
6
ByLayer
370
13
48
1
60
0
100
AcDbLine
10
95.1
20
0
30
0
11
95.517997
21
-3.174998
31
0
39
0
210
0
220
0
230
1
0
LINE
5
188
100
AcDbEntity
8
2
62
256
6
ByLayer
370
13
48
1
60
0
100
AcDbLine
10
95.1
20
0
30
0
11
94.682003
21
-3.175002
31
0
39
0
210
0
220
0
230
1
0
LINE
5
189
100
AcDbEntity
8
2
62
256
6
ByLayer
370
13
48
1
60
0
100
AcDbLine
10
95.517997
20
-3.174998
30
0
11
94.682003
21
-3.175002
31
0
39
0
210
0
220
0
230
1
0
LINE
5
18A
100
AcDbEntity
8
2
62
256
6
ByLayer
370
13
48
1
60
0
100
AcDbLine
10
95.1
20
-39
30
0
11
94.682003
21
-35.825002
31
0
39
0
210
0
220
0
230
1
0
LINE
5
18B
100
AcDbEntity
8
2
62
256
6
ByLayer
370
13
48
1
60
0
100
AcDbLine
10
95.1
20
-39
30
0
11
95.517997
21
-35.824998
31
0
39
0
210
0
220
0
230
1
0
LINE
5
18C
100
AcDbEntity
8
2
62
256
6
ByLayer
370
13
48
1
60
0
100
AcDbLine
10
94.682003
20
-35.825002
30
0
11
95.517997
21
-35.824998
31
0
39
0
210
0
220
0
230
1
0
ENDBLK
5
18E
100
AcDbEntity
8
0
100
AcDbBlockEnd
0
BLOCK
5
19B
100
AcDbEntity
8
0
100
AcDbBlockBegin
2
DimnDraft3D5
70
0
10
0
20
0
30
0
3
DimnDraft3D5
0
MTEXT
5
191
100
AcDbEntity
8
2
62
256
6
ByLayer
370
18
48
1
60
0
100
AcDbMText
10
87.225
20
-50.314211
30
0
210
0
220
0
230
1
1
\W0.6380;4
40
3.5
41
0
44
1.084337
50
90
71
7
72
5
7
iso_b_vert
0
LINE
5
192
100
AcDbEntity
8
2
62
256
6
ByLayer
370
13
48
1
60
0
100
AcDbLine
10
72
20
-39
30
0
11
90.1
21
-39
31
0
39
0
210
0
220
0
230
1
0
LINE
5
193
100
AcDbEntity
8
2
62
256
6
ByLayer
370
13
48
1
60
0
100
AcDbLine
10
72
20
-35
30
0
11
90.1
21
-35
31
0
39
0
210
0
220
0
230
1
0
LINE
5
194
100
AcDbEntity
8
2
62
256
6
ByLayer
370
13
48
1
60
0
100
AcDbLine
10
88.1
20
-26.25
30
0
11
88.1
21
-51.189211
31
0
39
0
210
0
220
0
230
1
0
LINE
5
195
100
AcDbEntity
8
2
62
256
6
ByLayer
370
13
48
1
60
0
100
AcDbLine
10
88.1
20
-39
30
0
11
88.517997
21
-42.174998
31
0
39
0
210
0
220
0
230
1
0
LINE
5
196
100
AcDbEntity
8
2
62
256
6
ByLayer
370
13
48
1
60
0
100
AcDbLine
10
88.1
20
-39
30
0
11
87.682003
21
-42.175002
31
0
39
0
210
0
220
0
230
1
0
LINE
5
197
100
AcDbEntity
8
2
62
256
6
ByLayer
370
13
48
1
60
0
100
AcDbLine
10
88.517997
20
-42.174998
30
0
11
87.682003
21
-42.175002
31
0
39
0
210
0
220
0
230
1
0
LINE
5
198
100
AcDbEntity
8
2
62
256
6
ByLayer
370
13
48
1
60
0
100
AcDbLine
10
88.1
20
-35
30
0
11
87.682003
21
-31.825002
31
0
39
0
210
0
220
0
230
1
0
LINE
5
199
100
AcDbEntity
8
2
62
256
6
ByLayer
370
13
48
1
60
0
100
AcDbLine
10
88.1
20
-35
30
0
11
88.517997
21
-31.824998
31
0
39
0
210
0
220
0
230
1
0
LINE
5
19A
100
AcDbEntity
8
2
62
256
6
ByLayer
370
13
48
1
60
0
100
AcDbLine
10
87.682003
20
-31.825002
30
0
11
88.517997
21
-31.824998
31
0
39
0
210
0
220
0
230
1
0
ENDBLK
5
19C
100
AcDbEntity
8
0
100
AcDbBlockEnd
0
ENDSEC
0
SECTION
2
ENTITIES
0
ARC
5
E5
100
AcDbEntity
8
1
62
256
6
ByLayer
370
13
48
1
60
0
100
AcDbCircle
39
0
10
-22.279208
20
-32.7
30
0
40
1.2
210
0
220
0
230
-1
100
AcDbArc
50
90
51
119.246071
0
ARC
5
E6
100
AcDbEntity
8
1
62
256
6
ByLayer
370
13
48
1
60
0
100
AcDbCircle
39
0
10
-45
20
-33.725
30
0
40
1.6
210
0
220
0
230
-1
100
AcDbArc
50
314.628818
51
0
0
ARC
5
E7
100
AcDbEntity
8
1
62
256
6
ByLayer
370
13
48
1
60
0
100
AcDbCircle
39
0
10
29.6
20
-32.15
30
0
40
0.5
210
0
220
0
230
1
100
AcDbArc
50
0
51
84.26083
0
ARC
5
E8
100
AcDbEntity
8
1
62
256
6
ByLayer
370
18
48
1
60
0
100
AcDbCircle
39
0
10
45.3
20
-38.7
30
0
40
0.3
210
0
220
0
230
1
100
AcDbArc
50
205.050071
51
272.5
0
ARC
5
E9
100
AcDbEntity
8
1
62
256
6
ByLayer
370
18
48
1
60
0
100
AcDbCircle
39
0
10
-62.55644
20
-36.332701
30
0
40
0.0999999999985876
210
0
220
0
230
-1
100
AcDbArc
50
321.950819
51
349.999999
0
ARC
5
EA
100
AcDbEntity
8
1
62
256
6
ByLayer
370
18
48
1
60
0
100
AcDbCircle
39
0
10
69.7
20
-35.3
30
0
40
0.3
210
0
220
0
230
1
100
AcDbArc
50
0
51
92.5
0
ARC
5
EB
100
AcDbEntity
8
1
62
256
6
ByLayer
370
18
48
1
60
0
100
AcDbCircle
39
0
10
-45.3
20
-35.3
30
0
40
0.3
210
0
220
0
230
-1
100
AcDbArc
50
0
51
92.5
0
ARC
5
EC
100
AcDbEntity
8
1
62
256
6
ByLayer
370
18
48
1
60
0
100
AcDbCircle
39
0
10
-62.55644
20
-37.667299
30
0
40
0.0999999999985876
210
0
220
0
230
-1
100
AcDbArc
50
10.000001
51
38.049181
0
ARC
5
ED
100
AcDbEntity
8
1
62
256
6
ByLayer
370
18
48
1
60
0
100
AcDbCircle
39
0
10
-69.7
20
-38.7
30
0
40
0.3
210
0
220
0
230
-1
100
AcDbArc
50
180
51
272.5
0
ELLIPSE
5
EE
100
AcDbEntity
8
1
62
256
6
ByLayer
370
13
48
1
60
0
100
AcDbEllipse
10
26.347154
20
0
30
0
11
14.7536831606548
21
-31.0932549155797
31
0
210
0
220
0
230
-1
40
0.341999
41
2.05035306783694
42
2.98378646694434
0
ELLIPSE
5
EF
100
AcDbEntity
8
1
62
256
6
ByLayer
370
13
48
1
60
0
100
AcDbEllipse
10
26.347154
20
0
30
0
11
14.7536831606565
21
31.0932549155818
31
0
210
0
220
0
230
-1
40
0.341999
41
-2.98378646694435
42
-2.05035306783699
0
ELLIPSE
5
F0
100
AcDbEntity
8
1
62
256
6
ByLayer
370
13
48
1
60
0
100
AcDbEllipse
10
-746.266702
20
-149.667477
30
0
11
4967.91052311057
21
19.9191934023997
31
0
210
0
220
0
230
-1
40
0.022664
41
-1.40919736768001
42
-1.40738568195769
0
ELLIPSE
5
F1
100
AcDbEntity
8
1
62
256
6
ByLayer
370
13
48
1
60
0
100
AcDbEllipse
10
63.567568
20
-148.999951
30
0
11
118.477038394289
21
1.19737522131761E-13
31
0
210
0
220
0
230
-1
40
0.959468
41
-1.60513519412011
42
-1.58467654394113
0
ELLIPSE
5
F2
100
AcDbEntity
8
1
62
256
6
ByLayer
370
13
48
1
60
0
100
AcDbEllipse
10
65.073637
20
-149
30
0
11
162.344724852185
21
1.64071919322218E-13
31
0
210
0
220
0
230
-1
40
0.700208
41
-1.66859897175899
42
-1.60513518663833
0
ELLIPSE
5
F3
100
AcDbEntity
8
1
62
256
6
ByLayer
370
13
48
1
60
0
100
AcDbEllipse
10
65.073637
20
-285.200004
30
0
11
352.074190082261
21
3.55819926783625E-13
31
0
210
0
220
0
230
-1
40
0.700208
41
-1.60573968867026
42
-1.5866278481818
0
ELLIPSE
5
F4
100
AcDbEntity
8
1
62
256
6
ByLayer
370
13
48
1
60
0
100
AcDbEllipse
10
185.286875
20
-148.965437
30
0
11
821.428923086078
21
-20.2950456975391
31
0
210
0
220
0
230
-1
40
0.136121
41
-1.74080320296008
42
-1.7371006542781
0
ELLIPSE
5
F5
100
AcDbEntity
8
1
62
256
6
ByLayer
370
13
48
1
60
0
100
AcDbEllipse
10
52.64875
20
-36.327019
30
0
11
3.57037001685523
21
3.60835538012897E-15
31
0
210
0
220
0
230
-1
40
0.700208
41
1.53585296464437
42
2.85779854438146
0
ELLIPSE
5
F6
100
AcDbEntity
8
1
62
256
6
ByLayer
370
13
48
1
60
0
100
AcDbEllipse
10
-2.347154
20
0
30
0
11
14.7536831606549
21
-31.0932549155796
31
0
210
0
220
0
230
-1
40
0.341999
41
-1.09123958575286
42
-0.15780618664545
0
ELLIPSE
5
F7
100
AcDbEntity
8
1
62
256
6
ByLayer
370
13
48
1
60
0
100
AcDbEllipse
10
-2.347154
20
0
30
0
11
14.7536831606535
21
31.0932549155778
31
0
210
0
220
0
230
-1
40
0.341999
41
0.157806186645463
42
1.0912395857529
0
ELLIPSE
5
F8
100
AcDbEntity
8
1
62
256
6
ByLayer
370
13
48
1
60
0
100
AcDbEllipse
10
62.201523
20
-37.274969
30
0
11
-9.18454765368112E-18
21
0.150000000000217
31
0
210
0
220
0
230
-1
40
0.723181
41
1.5707963267949
42
2.79252680318959
0
ELLIPSE
5
F9
100
AcDbEntity
8
1
62
256
6
ByLayer
370
13
48
1
60
0
100
AcDbEllipse
10
22.274896
20
0
30
0
11
-1.92875500727026E-15
21
31.5000000000003
31
0
210
0
220
0
230
-1
40
0.008727
41
-2.64292377203424
42
-0.785398163397453
0
ELLIPSE
5
FA
100
AcDbEntity
8
1
62
256
6
ByLayer
370
13
48
1
60
0
100
AcDbEllipse
10
62.167523
20
-37.611334
30
0
11
-9.1845476536306E-18
21
0.149999999999392
31
0
210
0
220
0
230
-1
40
0.723181
41
-1.39626340159727
42
-0.349065850396285
0
ELLIPSE
5
FB
100
AcDbEntity
8
1
62
256
6
ByLayer
370
13
48
1
60
0
100
AcDbEllipse
10
80.237268
20
-119.182471
30
0
11
66.6444080599657
21
-65.3474658785298
31
0
210
0
220
0
230
-1
40
0.788553
41
-2.44894840274393
42
-2.4481331465565
0
ELLIPSE
5
FC
100
AcDbEntity
8
1
62
256
6
ByLayer
370
13
48
1
60
0
100
AcDbEllipse
10
62.167523
20
-36.388666
30
0
11
-9.18454765358737E-18
21
0.149999999998686
31
0
210
0
220
0
230
-1
40
0.723181
41
-2.79252680319563
42
-1.74532925199008
0
ELLIPSE
5
FD
100
AcDbEntity
8
1
62
256
6
ByLayer
370
13
48
1
60
0
100
AcDbEllipse
10
858.681787
20
-201.992731
30
0
11
5061.74427555554
21
-22.0090516941364
31
0
210
0
220
0
230
-1
40
0.031971
41
-1.72929317486169
42
-1.72879303705693
0
ELLIPSE
5
FE
100
AcDbEntity
8
1
62
256
6
ByLayer
370
13
48
1
60
0
100
AcDbEllipse
10
61.159732
20
-37.004608
30
0
11
0.958517047491022
21
0.0111727433142456
31
0
210
0
220
0
230
-1
40
0.782391
41
0
42
6.28318530717959
0
ELLIPSE
5
FF
100
AcDbEntity
8
1
62
256
6
ByLayer
370
13
48
1
60
0
100
AcDbEllipse
10
73.874334
20
-285.2
30
0
11
-1.5094804075513E-14
21
246.525000109585
31
0
210
0
220
0
230
-1
40
0.57735
41
-0.133079220507496
42
-0.0437419498155729
0
ELLIPSE
5
100
100
AcDbEntity
8
1
62
256
6
ByLayer
370
13
48
1
60
0
100
AcDbEllipse
10
62.201523
20
-36.725031
30
0
11
-9.18454765368112E-18
21
0.150000000000217
31
0
210
0
220
0
230
-1
40
0.723181
41
0.349065850400205
42
1.5707963267949
0
ELLIPSE
5
101
100
AcDbEntity
8
1
62
256
6
ByLayer
370
13
48
1
60
0
100
AcDbEllipse
10
63.567557
20
-285.199062
30
0
11
256.938664169228
21
0.00013145498886927
31
0
210
0
220
0
230
-1
40
0.959467
41
-1.58662734518768
42
-1.57720388806724
0
ELLIPSE
5
102
100
AcDbEntity
8
1
62
256
6
ByLayer
370
18
48
1
60
0
100
AcDbEllipse
10
62.434518
20
-35.641251
30
0
11
0.0997917253481474
21
0.00645071622317116
31
0
210
0
220
0
230
-1
40
1
41
3.0316117121618
42
-3.07704067069813
0
ELLIPSE
5
103
100
AcDbEntity
8
1
62
256
6
ByLayer
370
18
48
1
60
0
100
AcDbEllipse
10
62.434518
20
-38.358749
30
0
11
0.0997917253481474
21
-0.00645071622317109
31
0
210
0
220
0
230
-1
40
1
41
3.07704067069813
42
-3.0316117121618
0
POINT
5
6C
100
AcDbEntity
8
80
62
256
6
ByLayer
370
18
48
1
60
0
100
AcDbPoint
10
0
20
0
30
0
39
0
210
0
220
0
230
1
50
360
0
POINT
5
6E
100
AcDbEntity
8
81
62
256
6
ByLayer
370
18
48
1
60
0
100
AcDbPoint
10
70
20
-39
30
0
39
0
210
0
220
0
230
1
50
360
0
SPLINE
5
104
100
AcDbEntity
8
SK1
62
256
6
ByLayer
370
13
48
1
60
0
100
AcDbSpline
70
4
71
2
72
6
73
3
40
0
40
0
40
0
40
1
40
1
40
1
41
1
10
-0.194976888875288
20
21.8639496970129
30
0
41
1
10
-0.995008433397771
20
21.8438664509463
30
0
41
1
10
-1.7950399779393
20
21.8237832115739
30
0
0
SPLINE
5
105
100
AcDbEntity
8
SK1
62
256
6
ByLayer
370
13
48
1
60
0
100
AcDbSpline
70
4
71
2
72
6
73
3
40
0
40
0
40
0
40
1
40
1
40
1
41
1
10
-1.7950399779393
20
-21.8237832285765
30
0
41
1
10
-0.995008433397771
20
-21.8438664676548
30
0
41
1
10
-0.194976888875288
20
-21.8639497134274
30
0
0
SPLINE
5
106
100
AcDbEntity
8
SK1
62
256
6
ByLayer
370
13
48
1
60
0
100
AcDbSpline
70
4
71
2
72
6
73
3
40
0
40
0
40
0
40
1
40
1
40
1
41
1
10
-36.5
20
-21.1524613224032
30
0
41
1
10
-19.2499999976426
20
-21.5855495141176
30
0
41
1
10
-2
20
-22.0186362439355
30
0
0
SPLINE
5
107
100
AcDbEntity
8
SK1
62
256
6
ByLayer
370
13
48
1
60
0
100
AcDbSpline
70
4
71
2
72
6
73
3
40
0
40
0
40
0
40
1
40
1
40
1
41
1
10
-2
20
22.018635875508
30
0
41
1
10
-19.2499999976431
20
21.5855491455244
30
0
41
1
10
-36.5
20
21.1524609537578
30
0
0
SPLINE
5
108
100
AcDbEntity
8
SK1
62
256
6
ByLayer
370
13
48
1
60
0
100
AcDbSpline
70
4
71
3
72
13
73
9
40
0
40
0
40
0
40
0
40
0.239406675533167
40
0.368294170919314
40
0.499927912611497
40
0.631573622065845
40
0.760494133569014
40
1
40
1
40
1
40
1
41
1
10
-2
20
-22.0251209952818
30
0
41
1
10
-1.99909122094999
20
-21.9990737575566
30
0
41
1
10
-1.99103207881225
20
-21.9617163884141
30
0
41
1
10
-1.96563491014865
20
-21.9155180963751
30
0
41
1
10
-1.93886244237069
20
-21.8842503451972
30
0
41
1
10
-1.90627568046546
20
-21.8590943224454
30
0
41
1
10
-1.85883864366616
20
-21.8360608861174
30
0
41
1
10
-1.82110926269925
20
-21.8298912593851
30
0
41
1
10
-1.7950399779393
20
-21.8302933674113
30
0
0
SPLINE
5
109
100
AcDbEntity
8
SK1
62
256
6
ByLayer
370
13
48
1
60
0
100
AcDbSpline
70
4
71
3
72
13
73
9
40
0
40
0
40
0
40
0
40
0.239505865890039
40
0.368426377204607
40
0.500072086585736
40
0.631705828339977
40
0.760593323909275
40
1
40
1
40
1
40
1
41
1
10
-1.7950399779393
20
21.8302932076066
30
0
41
1
10
-1.82110926271045
20
21.8298910995853
30
0
41
1
10
-1.85883864368742
20
21.8360607263469
30
0
41
1
10
-1.90627568048191
20
21.8590941627914
30
0
41
1
10
-1.9388624423861
20
21.8842501856704
30
0
41
1
10
-1.96563491016022
20
21.9155179370029
30
0
41
1
10
-1.99103207882064
20
21.9617162292748
30
0
41
1
10
-1.99909122095849
20
21.9990735985877
30
0
41
1
10
-2
20
22.0251208364275
30
0
0
SPLINE
5
10A
100
AcDbEntity
8
SK1
62
256
6
ByLayer
370
13
48
1
60
0
100
AcDbSpline
70
4
71
2
72
6
73
3
40
0
40
0
40
0
40
1
40
1
40
1
41
1
10
-38
20
-20.2898800072421
30
0
41
1
10
-37.2499998580851
20
-20.7226367943925
30
0
41
1
10
-36.5
20
-21.1553909678899
30
0
0
SPLINE
5
10B
100
AcDbEntity
8
SK1
62
256
6
ByLayer
370
13
48
1
60
0
100
AcDbSpline
70
4
71
2
72
6
73
3
40
0
40
0
40
0
40
1
40
1
40
1
41
1
10
-36.5
20
21.155390865424
30
0
41
1
10
-37.2499998580829
20
20.722636690256
30
0
41
1
10
-38
20
20.2898799013384
30
0
0
SPLINE
5
10C
100
AcDbEntity
8
SK1
62
256
6
ByLayer
370
13
48
1
60
0
100
AcDbSpline
70
4
71
2
72
6
73
3
40
0
40
0
40
0
40
1
40
1
40
1
41
1
10
-0.194976888875288
20
-21.8700250299902
30
0
41
1
10
-0.14419243169786
20
-21.8714778839666
30
0
41
1
10
-0.0999999999983174
20
-21.8967449895895
30
0
0
SPLINE
5
10D
100
AcDbEntity
8
SK1
62
256
6
ByLayer
370
13
48
1
60
0
100
AcDbSpline
70
4
71
2
72
6
73
3
40
0
40
0
40
0
40
1
40
1
40
1
41
1
10
-0.0999999999982322
20
21.8967448275103
30
0
41
1
10
-0.144192431674185
20
21.8714777217787
30
0
41
1
10
-0.194976888875288
20
21.8700248677912
30
0
0
SPLINE
5
10E
100
AcDbEntity
8
1
62
256
6
ByLayer
370
13
48
1
60
0
100
AcDbSpline
70
4
71
2
72
6
73
3
40
0
40
0
40
0
40
1
40
1
40
1
41
1
10
-0.0999999999997385
20
-21.8971947566797
30
0
41
1
10
-0.0215334574149608
20
-21.9476462123989
30
0
41
1
10
-0.0144090440567197
20
-21.9724722589999
30
0
0
SPLINE
5
10F
100
AcDbEntity
8
1
62
256
6
ByLayer
370
13
48
1
60
0
100
AcDbSpline
70
4
71
2
72
6
73
3
40
0
40
0
40
0
40
1
40
1
40
1
41
1
10
-0.014357794837764
20
21.9725544699438
30
0
41
1
10
-0.0214564109290052
20
21.9477058124068
30
0
41
1
10
-0.0999999999998522
20
21.8971945972014
30
0
0
SPLINE
5
110
100
AcDbEntity
8
SK1
62
256
6
ByLayer
370
13
48
1
60
0
100
AcDbSpline
70
4
71
3
72
24
73
20
40
0
40
0
40
0
40
0
40
0.0882167025504706
40
0.0882167025504706
40
0.163407185711295
40
0.163407185711295
40
0.193936204017597
40
0.193936204017597
40
0.224999210742398
40
0.224999210742398
40
0.25249259604753
40
0.25249259604753
40
0.284445117859726
40
0.284445117859726
40
0.339507625463051
40
0.339507625463051
40
0.508206772293182
40
0.508206772293182
40
1
40
1
40
1
40
1
41
1
10
-0.194976888875288
20
-6.03119623886727
30
0
41
1
10
-0.225255617399512
20
-6.09380830292858
30
0
41
1
10
-0.259090827933107
20
-6.15517981130716
30
0
41
1
10
-0.333828065101756
20
-6.26130876163603
30
0
41
1
10
-0.373313691233506
20
-6.30837086961591
30
0
41
1
10
-0.442276593128867
20
-6.36083106863123
30
0
41
1
10
-0.464228533248132
20
-6.37447162419369
30
0
41
1
10
-0.511891060090591
20
-6.39512398968839
30
0
41
1
10
-0.538407851727897
20
-6.4021260135961
30
0
41
1
10
-0.588769847053413
20
-6.40516176863187
30
0
41
1
10
-0.613175825667184
20
-6.40234161197489
30
0
41
1
10
-0.662408101361365
20
-6.38862822540165
30
0
41
1
10
-0.687472034228023
20
-6.37650855040579
30
0
41
1
10
-0.748978617614739
20
-6.3373247525291
30
0
41
1
10
-0.782291194817617
20
-6.30542438589029
30
0
41
1
10
-0.900777356860743
20
-6.1693427532189
30
0
41
1
10
-0.961154548901533
20
-6.04757516428933
30
0
41
1
10
-1.16501717694098
20
-5.57099583373522
30
0
41
1
10
-1.24739247760993
20
-5.18857253643435
30
0
41
1
10
-1.31543506509493
20
-4.80312334332291
30
0
0
SPLINE
5
111
100
AcDbEntity
8
SK1
62
256
6
ByLayer
370
13
48
1
60
0
100
AcDbSpline
70
4
71
3
72
14
73
10
40
0
40
0
40
0
40
0
40
0.61471562657469
40
0.61471562657469
40
0.765803628384917
40
0.765803628384917
40
0.919654011638252
40
0.919654011638252
40
1
40
1
40
1
40
1
41
1
10
-0.194976888875288
20
6.03119978687531
30
0
41
1
10
-0.181693002446366
20
6.00373062844986
30
0
41
1
10
-0.166836124756173
20
5.97658223440177
30
0
41
1
10
-0.14205005229141
20
5.94985588030073
30
0
41
1
10
-0.136736151758839
20
5.94491338424106
30
0
41
1
10
-0.125040190484555
20
5.93673131376119
30
0
41
1
10
-0.118460637898494
20
5.93340982364464
30
0
41
1
10
-0.107726720154602
20
5.93153298269081
30
0
41
1
10
-0.103829573191064
20
5.93148270158719
30
0
41
1
10
-0.0999999999999943
20
5.9321806775321
30
0
0
SPLINE
5
112
100
AcDbEntity
8
SK1
62
256
6
ByLayer
370
13
48
1
60
0
100
AcDbSpline
70
4
71
3
72
20
73
16
40
0
40
0
40
0
40
0
40
0.0082172539227162
40
0.0758566403375679
40
0.14349602675242
40
0.211135413167271
40
0.346414185996975
40
0.414053572411826
40
0.481692958826678
40
0.616971731656381
40
0.752250504486085
40
0.819889890900937
40
0.887529277315788
40
0.95516866373064
40
1
40
1
40
1
40
1
41
0.874315756983313
10
-0.0999999999996109
20
5.93218067753222
30
0
41
0.874315756983313
10
-0.0999999999996109
20
6.01059185206914
30
0
41
0.874315756983313
10
-0.0999999999996109
20
6.73213804659129
30
0
41
0.874315756983313
10
-0.0999999999996109
20
8.05656070083069
30
0
41
0.874315756983313
10
-0.0999999999996109
20
9.82418283626007
30
0
41
0.874315756983313
10
-0.0999999999996109
20
12.0391436023147
30
0
41
0.874315756983313
10
-0.0999999999996759
20
14.0363164219539
30
0
41
0.874315756983313
10
-0.0999999999996109
20
15.8105343678305
30
0
41
0.874315756983313
10
-0.0999999999996109
20
17.4318488950201
30
0
41
0.874315756983313
10
-0.0999999999996109
20
19.1618577460513
30
0
41
0.874315756983313
10
-0.0999999999996759
20
20.4659241239112
30
0
41
0.874315756983313
10
-0.0999999999996109
20
21.2218114181416
30
0
41
0.874315756983313
10
-0.0999999999996109
20
21.63339534317
30
0
41
0.874315756983313
10
-0.0999999999996109
20
21.8476393483648
30
0
41
0.874315756983313
10
-0.0999999999995784
20
21.8936923116228
30
0
41
0.874315756983313
10
-0.0999999999995784
20
21.8967406775704
30
0
0
SPLINE
5
113
100
AcDbEntity
8
SK1
62
256
6
ByLayer
370
13
48
1
60
0
100
AcDbSpline
70
4
71
3
72
20
73
16
40
0
40
0
40
0
40
0
40
0.0448324105401345
40
0.112471712633527
40
0.18011101472692
40
0.247750316820312
40
0.383028921007097
40
0.518307525193883
40
0.585946827287275
40
0.653586129380668
40
0.788864733567453
40
0.856504035660845
40
0.924143337754238
40
0.99178263984763
40
1
40
1
40
1
40
1
41
0.874315756983303
10
-0.0999999999996121
20
-21.896741090934
30
0
41
0.874315756983303
10
-0.0999999999996121
20
-21.8936935075565
30
0
41
0.874315756983303
10
-0.0999999999995796
20
-21.8476413941279
30
0
41
0.874315756983303
10
-0.0999999999996121
20
-21.6333957601053
30
0
41
0.874315756983303
10
-0.0999999999996121
20
-21.2218112502423
30
0
41
0.874315756983303
10
-0.0999999999996446
20
-20.4659250881949
30
0
41
0.874315756983303
10
-0.0999999999996121
20
-19.1618572175681
30
0
41
0.874315756983303
10
-0.0999999999996121
20
-17.4318493644904
30
0
41
0.874315756983303
10
-0.0999999999996121
20
-15.8105341716198
30
0
41
0.874315756983303
10
-0.0999999999996446
20
-14.0363164146728
30
0
41
0.874315756983303
10
-0.0999999999996121
20
-12.0391433543184
30
0
41
0.874315756983303
10
-0.0999999999996121
20
-9.82418264807942
30
0
41
0.874315756983303
10
-0.0999999999996121
20
-8.05656082106038
30
0
41
0.874315756983303
10
-0.0999999999996121
20
-6.73213673632542
30
0
41
0.874315756983303
10
-0.0999999999996121
20
-6.01058938422896
30
0
41
0.874315756983303
10
-0.0999999999996121
20
-5.93217709109652
30
0
0
SPLINE
5
114
100
AcDbEntity
8
SK1
62
256
6
ByLayer
370
13
48
1
60
0
100
AcDbSpline
70
4
71
3
72
39
73
35
40
0
40
0
40
0
40
0
40
0.0209475016179189
40
0.0491271128537231
40
0.0773067240895272
40
0.105486335325331
40
0.161845557796939
40
0.218204780268548
40
0.246384391504352
40
0.274564002740156
40
0.330923225211764
40
0.359102836447568
40
0.387282447683372
40
0.415462058919176
40
0.443641670154981
40
0.471821281390785
40
0.485911087008687
40
0.500000892626589
40
0.514090698244491
40
0.528180503862393
40
0.556360115098197
40
0.584539726334001
40
0.612719337569805
40
0.640898948805609
40
0.669078560041413
40
0.725437782513021
40
0.753617393748826
40
0.78179700498463
40
0.838156227456238
40
0.894515449927846
40
0.92269506116365
40
0.950874672399454
40
0.979054283635258
40
1
40
1
40
1
40
1
41
1
10
-38
20
20.29309156233
30
0
41
1
10
-38
20
20.2936151150965
30
0
41
1
10
-38
20
20.2527531224228
30
0
41
1
10
-38
20
20.0459061788578
30
0
41
1
10
-38
20
19.6579418108061
30
0
41
1
10
-38
20
18.9398394400737
30
0
41
1
10
-38
20
17.7044407938012
30
0
41
1
10
-38
20
16.0627612954468
30
0
41
1
10
-38
20
14.51564115501
30
0
41
1
10
-38
20
12.824703617907
30
0
41
1
10
-38
20
10.9474697913535
30
0
41
1
10
-38
20
8.85369717199418
30
0
41
1
10
-38
20
7.20137624192128
30
0
41
1
10
-38
20
5.4683053958629
30
0
41
1
10
-38
20
3.67033144630469
30
0
41
1
10
-38
20
2.14779050597912
30
0
41
1
10
-38
20
0.911746463163155
30
0
41
1
10
-38
20
3.125426247E-07
30
0
41
1
10
-38
20
-0.911746507027743
30
0
41
1
10
-38
20
-2.14779063761847
30
0
41
1
10
-38
20
-3.67033088291657
30
0
41
1
10
-38
20
-5.46830515172121
30
0
41
1
10
-38
20
-7.20137650942655
30
0
41
1
10
-38
20
-8.8536968073017
30
0
41
1
10
-38
20
-10.9474696029841
30
0
41
1
10
-38
20
-12.8247036249508
30
0
41
1
10
-38
20
-14.5156410584189
30
0
41
1
10
-38
20
-16.0627617322198
30
0
41
1
10
-38
20
-17.7044403459469
30
0
41
1
10
-38
20
-18.9398403790116
30
0
41
1
10
-38
20
-19.6579416385018
30
0
41
1
10
-38
20
-20.0459066437043
30
0
41
1
10
-38
20
-20.2527490240967
30
0
41
1
10
-38
20
-20.2936123752203
30
0
41
1
10
-38
20
-20.2930918601917
30
0
0
SPLINE
5
115
100
AcDbEntity
8
SK1
62
256
6
ByLayer
370
13
48
1
60
0
100
AcDbSpline
70
4
71
3
72
8
73
4
40
0
40
0
40
0
40
0
40
1
40
1
40
1
40
1
41
1
10
-1.79503997793932
20
0.497941450129446
30
0
41
1
10
-1.75803826196625
20
1.99502758923302
30
0
41
1
10
-1.55746231783283
20
3.43208263626954
30
0
41
1
10
-1.31543506509499
20
4.80312611568488
30
0
0
SPLINE
5
116
100
AcDbEntity
8
SK1
62
256
6
ByLayer
370
13
48
1
60
0
100
AcDbSpline
70
4
71
3
72
23
73
19
40
0
40
0
40
0
40
0
40
0.0423309020933369
40
0.0994514393569418
40
0.156571976620547
40
0.213692513884152
40
0.327933588411361
40
0.442174662938571
40
0.499295200202176
40
0.556415737465781
40
0.67065681199299
40
0.727777349256595
40
0.7848978865202
40
0.842018423783805
40
0.89913896104741
40
0.956259498311015
40
0.984819766942817
40
1
40
1
40
1
40
1
41
1
10
-1.79503997793927
20
21.830276965117
30
0
41
1
10
-1.7950399779393
20
21.8309229201213
30
0
41
1
10
-1.79503997793932
20
21.7871504500183
30
0
41
1
10
-1.7950399779393
20
21.5671864477184
30
0
41
1
10
-1.79503997793927
20
21.1565876158886
30
0
41
1
10
-1.79503997793932
20
20.4022762052016
30
0
41
1
10
-1.79503997793927
20
19.101073730141
30
0
41
1
10
-1.7950399779393
20
17.37474880276
30
0
41
1
10
-1.79503997793927
20
15.7565286767834
30
0
41
1
10
-1.79503997793932
20
13.9857840798918
30
0
41
1
10
-1.7950399779393
20
11.9936135169182
30
0
41
1
10
-1.7950399779393
20
9.78370710557346
30
0
41
1
10
-1.7950399779393
20
8.02089380010179
30
0
41
1
10
-1.7950399779393
20
6.15385433510394
30
0
41
1
10
-1.7950399779393
20
4.18621524287374
30
0
41
1
10
-1.7950399779393
20
2.47030995483453
30
0
41
1
10
-1.79503997793932
20
1.22796960684957
30
0
41
1
10
-1.79503997793932
20
0.686152378387987
30
0
41
1
10
-1.79503997793932
20
0.497941450129758
30
0
0
SPLINE
5
117
100
AcDbEntity
8
SK1
62
256
6
ByLayer
370
13
48
1
60
0
100
AcDbSpline
70
4
71
3
72
39
73
35
40
0
40
0
40
0
40
0
40
0.0136745859331847
40
0.0422819838100175
40
0.0708893816868502
40
0.099496779563683
40
0.156711575317348
40
0.213926371071014
40
0.242533768947847
40
0.271141166824679
40
0.328355962578345
40
0.356963360455178
40
0.38557075833201
40
0.414178156208843
40
0.442785554085676
40
0.471392951962509
40
0.485696650900925
40
0.500000349839341
40
0.514304048777758
40
0.528607747716174
40
0.557215145593007
40
0.58582254346984
40
0.614429941346672
40
0.643037339223505
40
0.671644737100338
40
0.728859532854003
40
0.757466930730836
40
0.786074328607669
40
0.843289124361334
40
0.900503920115
40
0.929111317991833
40
0.957718715868665
40
0.986326113745498
40
1
40
1
40
1
40
1
41
1
10
-1.99999999999997
20
22.0185530025539
30
0
41
1
10
-2
20
22.0102354303367
30
0
41
1
10
-2
20
21.9603732596835
30
0
41
1
10
-1.99999999999997
20
21.7599974084889
30
0
41
1
10
-1.99999999999997
20
21.3465298267009
30
0
41
1
10
-2.00000000000003
20
20.5876291894755
30
0
41
1
10
-1.99999999999997
20
19.2780865684796
30
0
41
1
10
-1.99999999999997
20
17.5410334624522
30
0
41
1
10
-1.99999999999997
20
15.9138019420578
30
0
41
1
10
-2.00000000000003
20
14.1329423938392
30
0
41
1
10
-1.99999999999997
20
12.1262044542747
30
0
41
1
10
-2
20
9.90157894844813
30
0
41
1
10
-2
20
8.12476155609352
30
0
41
1
10
-2
20
6.24074256492978
30
0
41
1
10
-1.99999999999997
20
4.25159967761499
30
0
41
1
10
-2.00000000000003
20
2.51118689649607
30
0
41
1
10
-2.00000000000003
20
1.08235400424982
30
0
41
1
10
-2.00000000000003
20
2.27208261E-08
30
0
41
1
10
-2.00000000000003
20
-1.08235390921516
30
0
41
1
10
-2.00000000000003
20
-2.51118690843623
30
0
41
1
10
-1.99999999999997
20
-4.25159964823038
30
0
41
1
10
-2
20
-6.24074217144334
30
0
41
1
10
-2
20
-8.12476166457799
30
0
41
1
10
-2
20
-9.9015787743443
30
0
41
1
10
-2
20
-12.1262042015231
30
0
41
1
10
-2.00000000000006
20
-14.1329423854158
30
0
41
1
10
-1.99999999999997
20
-15.9138017379024
30
0
41
1
10
-2
20
-17.54103393453
30
0
41
1
10
-1.99999999999997
20
-19.2780860335662
30
0
41
1
10
-2.00000000000006
20
-20.5876301557806
30
0
41
1
10
-1.99999999999997
20
-21.3465296591529
30
0
41
1
10
-2.00000000000003
20
-21.7599978216033
30
0
41
1
10
-2
20
-21.9603719655512
30
0
41
1
10
-2.00000000000003
20
-22.0102341392577
30
0
41
1
10
-2.00000000000003
20
-22.0185519975638
30
0
0
SPLINE
5
118
100
AcDbEntity
8
SK1
62
256
6
ByLayer
370
13
48
1
60
0
100
AcDbSpline
70
4
71
3
72
8
73
4
40
0
40
0
40
0
40
0
40
1
40
1
40
1
40
1
41
1
10
-1.31543506509499
20
-4.80312334332291
30
0
41
1
10
-1.55708569514772
20
-3.43421537242526
30
0
41
1
10
-1.75811874205655
20
-1.99176847042148
30
0
41
1
10
-1.7950399779393
20
-0.497935257501297
30
0
0
SPLINE
5
119
100
AcDbEntity
8
SK1
62
256
6
ByLayer
370
13
48
1
60
0
100
AcDbSpline
70
4
71
3
72
16
73
12
40
0
40
0
40
0
40
0
40
0.0159096422442882
40
0.0159096422442882
40
0.0961961736770507
40
0.0961961736770507
40
0.227496467327186
40
0.227496467327186
40
0.489079305584444
40
0.489079305584444
40
1
40
1
40
1
40
1
41
1
10
-0.0999999999999659
20
-5.93217709109624
30
0
41
1
10
-0.100761549829429
20
-5.93203829151537
30
0
41
1
10
-0.101524775514378
20
-5.93192820888123
30
0
41
1
10
-0.106111102991065
20
-5.93143686552804
30
0
41
1
10
-0.109953457220769
20
-5.9317580980871
30
0
41
1
10
-0.119521740108667
20
-5.93403248815545
30
0
41
1
10
-0.125085397453233
20
-5.93686267389185
30
0
41
1
10
-0.140226025321738
20
-5.94716754386738
30
0
41
1
10
-0.148822941849602
20
-5.95654506934395
30
0
41
1
10
-0.171647896181241
20
-5.9859470203163
30
0
41
1
10
-0.183906329926231
20
-6.00830391214612
30
0
41
1
10
-0.194976888875288
20
-6.03119623886727
30
0
0
SPLINE
5
11A
100
AcDbEntity
8
SK1
62
256
6
ByLayer
370
13
48
1
60
0
100
AcDbSpline
70
4
71
3
72
23
73
19
40
0
40
0
40
0
40
0
40
0.0151801831980813
40
0.0437400495294594
40
0.100859782192215
40
0.157979514854971
40
0.215099247517728
40
0.272218980180484
40
0.32933871284324
40
0.443578178168752
40
0.500697910831508
40
0.557817643494264
40
0.672057108819776
40
0.786296574145288
40
0.843416306808044
40
0.9005360394708
40
0.957655772133556
40
1
40
1
40
1
40
1
41
1
10
-1.79503997793932
20
-0.497935257503173
30
0
41
1
10
-1.79503997793932
20
-0.686148227368051
30
0
41
1
10
-1.79503997793932
20
-1.22796752001233
30
0
41
1
10
-1.79503997793932
20
-2.47030998023916
30
0
41
1
10
-1.7950399779393
20
-4.18621515342133
30
0
41
1
10
-1.7950399779393
20
-6.1538539584167
30
0
41
1
10
-1.7950399779393
20
-8.02089392647383
30
0
41
1
10
-1.7950399779393
20
-9.7837069100311
30
0
41
1
10
-1.7950399779393
20
-11.9936132714087
30
0
41
1
10
-1.79503997793935
20
-13.9857840732081
30
0
41
1
10
-1.7950399779393
20
-15.7565284847275
30
0
41
1
10
-1.7950399779393
20
-17.3747492708665
30
0
41
1
10
-1.7950399779393
20
-19.1010732050206
30
0
41
1
10
-1.79503997793935
20
-20.4022771684282
30
0
41
1
10
-1.7950399779393
20
-21.1565874478055
30
0
41
1
10
-1.79503997793932
20
-21.567186866652
30
0
41
1
10
-1.79503997793927
20
-21.7871707175148
30
0
41
1
10
-1.79503997793927
20
-21.8309354021638
30
0
41
1
10
-1.7950399779393
20
-21.8302764774881
30
0
0
SPLINE
5
11B
100
AcDbEntity
8
SK1
62
256
6
ByLayer
370
13
48
1
60
0
100
AcDbSpline
70
4
71
3
72
20
73
16
40
0
40
0
40
0
40
0
40
0.0451025231808642
40
0.112997896796023
40
0.180893270411181
40
0.24878864402634
40
0.384579391256657
40
0.520370138486974
40
0.588265512102133
40
0.656160885717291
40
0.791951632947608
40
0.859847006562767
40
0.927742380177925
40
0.995637753793084
40
1
40
1
40
1
40
1
41
1
10
-0.194976888875317
20
21.870040786877
30
0
41
1
10
-0.194976888875288
20
21.8670557303186
30
0
41
1
10
-0.19497688887526
20
21.821091700941
30
0
41
1
10
-0.194976888875288
20
21.6069519109193
30
0
41
1
10
-0.19497688887526
20
21.1957614261542
30
0
41
1
10
-0.194976888875317
20
20.4405035302762
30
0
41
1
10
-0.19497688887526
20
19.1375809778665
30
0
41
1
10
-0.194976888875288
20
17.4090434636519
30
0
41
1
10
-0.19497688887526
20
15.7889648215842
30
0
41
1
10
-0.194976888875317
20
14.016134110277
30
0
41
1
10
-0.194976888875288
20
12.0209591616842
30
0
41
1
10
-0.194976888875288
20
9.80801707431965
30
0
41
1
10
-0.194976888875288
20
8.04231555647988
30
0
41
1
10
-0.194976888875288
20
6.7552275299754
30
0
41
1
10
-0.194976888875288
20
6.07248683105718
30
0
41
1
10
-0.194976888875288
20
6.03119978687545
30
0
0
SPLINE
5
11C
100
AcDbEntity
8
SK1
62
256
6
ByLayer
370
13
48
1
60
0
100
AcDbSpline
70
4
71
3
72
10
73
6
40
0
40
0
40
0
40
0
40
0.400830938786445
40
0.400830938786445
40
1
40
1
40
1
40
1
41
1
10
-1.79503997793935
20
-0.497935257498284
30
0
41
1
10
-1.79832582073135
20
-0.364990057323183
30
0
41
1
10
-1.8003922287937
20
-0.231874603742341
30
0
41
1
10
-1.80209524241684
20
0.10017752853858
30
0
41
1
10
-1.79995030817477
20
0.299269925289479
30
0
41
1
10
-1.7950399779393
20
0.497941450127314
30
0
0
SPLINE
5
11D
100
AcDbEntity
8
SK1
62
256
6
ByLayer
370
13
48
1
60
0
100
AcDbSpline
70
4
71
3
72
12
73
8
40
0
40
0
40
0
40
0
40
0.5
40
0.5
40
0.75
40
0.75
40
1
40
1
40
1
40
1
41
1
10
-1.31543506509496
20
4.80312611568488
30
0
41
1
10
-1.24610370017882
20
5.19587657957663
30
0
41
1
10
-1.1641833385045
20
5.57907839838936
30
0
41
1
10
-0.929100156501136
20
6.11927416699197
30
0
41
1
10
-0.84118340318463
20
6.34397714608801
30
0
41
1
10
-0.420334197998187
20
6.45078944962839
30
0
41
1
10
-0.281070263314092
20
6.2092284499852
30
0
41
1
10
-0.194976888875288
20
6.03119978687536
30
0
0
SPLINE
5
11E
100
AcDbEntity
8
SK1
62
256
6
ByLayer
370
13
48
1
60
0
100
AcDbSpline
70
4
71
3
72
20
73
16
40
0
40
0
40
0
40
0
40
0.0043623778733553
40
0.0722579932977516
40
0.140153608722148
40
0.208049224146544
40
0.343840454995337
40
0.411736070419733
40
0.479631685844129
40
0.615422916692921
40
0.751214147541714
40
0.81910976296611
40
0.887005378390506
40
0.954900993814903
40
1
40
1
40
1
40
1
41
1
10
-0.194976888875288
20
-6.03119623886735
30
0
41
1
10
-0.194976888875288
20
-6.0724843869487
30
0
41
1
10
-0.194976888875288
20
-6.75522624019274
30
0
41
1
10
-0.194976888875288
20
-8.04231567916278
30
0
41
1
10
-0.194976888875288
20
-9.8080168831988
30
0
41
1
10
-0.194976888875288
20
-12.0209589146812
30
0
41
1
10
-0.194976888875317
20
-14.0161341032345
30
0
41
1
10
-0.19497688887526
20
-15.788964627033
30
0
41
1
10
-0.194976888875288
20
-17.4090439325775
30
0
41
1
10
-0.19497688887526
20
-19.1375804507264
30
0
41
1
10
-0.194976888875317
20
-20.4405044941377
30
0
41
1
10
-0.19497688887526
20
-21.1957612581815
30
0
41
1
10
-0.194976888875288
20
-21.6069523286527
30
0
41
1
10
-0.194976888875288
20
-21.8210880484961
30
0
41
1
10
-0.194976888875317
20
-21.8670530080225
30
0
41
1
10
-0.194976888875317
20
-21.8700402387813
30
0
0
SPLINE
5
11F
100
AcDbEntity
8
SK1
62
256
6
ByLayer
370
13
48
1
60
0
100
AcDbSpline
70
4
71
3
72
39
73
35
40
0
40
0
40
0
40
0
40
0.0160271531868473
40
0.0444953789621099
40
0.0729636047373725
40
0.101431830512635
40
0.15836828206316
40
0.215304733613686
40
0.243772959388948
40
0.272241185164211
40
0.329177636714736
40
0.357645862489999
40
0.386114088265261
40
0.414582314040524
40
0.443050539815787
40
0.471518765591049
40
0.485752878478681
40
0.499986991366312
40
0.514221104253943
40
0.528455217141575
40
0.556923442916837
40
0.5853916686921
40
0.613859894467363
40
0.642328120242625
40
0.670796346017888
40
0.727732797568413
40
0.756201023343676
40
0.784669249118939
40
0.841605700669464
40
0.898542152219989
40
0.927010377995252
40
0.955478603770514
40
0.983946829545777
40
1
40
1
40
1
40
1
41
1
10
-36.5
20
21.1559175376398
30
0
41
1
10
-36.5
20
21.1495972645517
30
0
41
1
10
-36.5
20
21.1028324804902
30
0
41
1
10
-36.5
20
20.9025884164263
30
0
41
1
10
-36.5
20
20.5018778480377
30
0
41
1
10
-36.5
20
19.763384993051
30
0
41
1
10
-36.5
20
18.4909300775028
30
0
41
1
10
-36.5
20
16.8015839939551
30
0
41
1
10
-36.5
20
15.2144251466804
30
0
41
1
10
-36.5
20
13.4785456669564
30
0
41
1
10
-36.5
20
11.5365872380066
30
0
41
1
10
-36.5
20
9.37741591545517
30
0
41
1
10
-36.5
20
7.6628731467583
30
0
41
1
10
-36.5
20
5.85436022826505
30
0
41
1
10
-36.5
20
3.96084233651774
30
0
41
1
10
-36.5
20
2.32941166334294
30
0
41
1
10
-36.5
20
0.997014065912396
30
0
41
1
10
-36.5
20
1.676930594E-07
30
0
41
1
10
-36.5
20
-0.997014040356845
30
0
41
1
10
-36.5
20
-2.32941173515798
30
0
41
1
10
-36.5
20
-3.96084204001821
30
0
41
1
10
-36.5
20
-5.85435990948267
30
0
41
1
10
-36.5
20
-7.66287333478687
30
0
41
1
10
-36.5
20
-9.37741564601663
30
0
41
1
10
-36.5
20
-11.5365870174598
30
0
41
1
10
-36.5
20
-13.4785456662699
30
0
41
1
10
-36.5
20
-15.21442499633
30
0
41
1
10
-36.5
20
-16.8015844483731
30
0
41
1
10
-36.5
20
-18.4909295861374
30
0
41
1
10
-36.5
20
-19.7633859456667
30
0
41
1
10
-36.5
20
-20.5018776781105
30
0
41
1
10
-36.5
20
-20.9025888554178
30
0
41
1
10
-36.5
20
-21.1029045619545
30
0
41
1
10
-36.5
20
-21.1496522452283
30
0
41
1
10
-36.5
20
-21.1559484627016
30
0
0
SPLINE
5
120
100
AcDbEntity
8
1
62
256
6
ByLayer
370
13
48
1
60
0
100
AcDbSpline
70
4
71
3
72
12
73
8
40
0
40
0
40
0
40
0
40
0.366012158774537
40
0.366012158774537
40
0.743081186723794
40
0.743081186723794
40
1
40
1
40
1
40
1
41
1
10
61.4891778925997
20
-35.3328115866915
30
0
41
1
10
61.5397318481153
20
-35.3327978025279
30
0
41
1
10
61.5911402425733
20
-35.3328821641463
30
0
41
1
10
61.6890909698957
20
-35.3332483317307
30
0
41
1
10
61.7367864295671
20
-35.3335416614424
30
0
41
1
10
61.8070081158751
20
-35.3341990514199
30
0
41
1
10
61.8332066982422
20
-35.3345148843455
30
0
41
1
10
61.8561029812476
20
-35.3348732487423
30
0
0
SPLINE
5
121
100
AcDbEntity
8
1
62
256
6
ByLayer
370
13
48
1
60
0
100
AcDbSpline
70
4
71
3
72
8
73
4
40
0
40
0
40
0
40
0
40
1
40
1
40
1
40
1
41
1
10
52.0329763206783
20
-35.3349736971501
30
0
41
1
10
52.2228930036979
20
-35.3353264589818
30
0
41
1
10
52.415609056646
20
-35.3354809650327
30
0
41
1
10
52.6073319333853
20
-35.3354206056695
30
0
0
SPLINE
5
122
100
AcDbEntity
8
1
62
256
6
ByLayer
370
13
48
1
60
0
100
AcDbSpline
70
4
71
3
72
14
73
10
40
0
40
0
40
0
40
0
40
0.292021994589516
40
0.292021994589516
40
0.580798417450998
40
0.580798417450998
40
0.91794348357931
40
0.91794348357931
40
1
40
1
40
1
40
1
41
1
10
45
20
-35.329615500139
30
0
41
1
10
44.8453148227046
20
-35.3292328586105
30
0
41
1
10
44.6949855027124
20
-35.3053777902032
30
0
41
1
10
44.4302145468508
20
-35.2288568727429
30
0
41
1
10
44.3115095440686
20
-35.1758405370684
30
0
41
1
10
44.0915881298294
20
-35.0498446177874
30
0
41
1
10
43.9934881005422
20
-34.9731442600593
30
0
41
1
10
43.9002825969162
20
-34.8874515207586
30
0
41
1
10
43.8832980115834
20
-34.8710388957719
30
0
41
1
10
43.8676869164407
20
-34.8553844620866
30
0
0
SPLINE
5
123
100
AcDbEntity
8
1
62
256
6
ByLayer
370
13
48
1
60
0
100
AcDbSpline
70
4
71
3
72
20
73
16
40
0
40
0
40
0
40
0
40
0.0081647521976098
40
0.075371976663309
40
0.142579201129008
40
0.209786425594708
40
0.344200874526106
40
0.411408098991805
40
0.478615323457505
40
0.613029772388903
40
0.747444221320302
40
0.814651445786001
40
0.8818586702517
40
0.949065894717399
40
1
40
1
40
1
40
1
41
0.874315756983313
10
-0.0999999999996109
20
5.93218067753222
30
0
41
0.874315756983313
10
-0.0999999999996109
20
6.01059185206914
30
0
41
0.874315756983313
10
-0.0999999999996109
20
6.73213804659129
30
0
41
0.874315756983313
10
-0.0999999999996109
20
8.05656070083069
30
0
41
0.874315756983313
10
-0.0999999999996109
20
9.82418283626007
30
0
41
0.874315756983313
10
-0.0999999999996109
20
12.0391436023147
30
0
41
0.874315756983313
10
-0.0999999999996759
20
14.0363164219539
30
0
41
0.874315756983313
10
-0.0999999999996109
20
15.8105343678305
30
0
41
0.874315756983313
10
-0.0999999999996109
20
17.4318488950201
30
0
41
0.874315756983313
10
-0.0999999999996109
20
19.1618577460513
30
0
41
0.874315756983313
10
-0.0999999999996759
20
20.4659241239112
30
0
41
0.874315756983313
10
-0.0999999999996109
20
21.2218114181416
30
0
41
0.874315756983313
10
-0.0999999999996109
20
21.63339534317
30
0
41
0.874315756983313
10
-0.0999999999996109
20
21.8552882866135
30
0
41
0.874315756983313
10
-0.0999999999996109
20
21.8986715078882
30
0
41
0.874315756983313
10
-0.0999999999995784
20
21.8971035170195
30
0
0
SPLINE
5
124
100
AcDbEntity
8
1
62
256
6
ByLayer
370
13
48
1
60
0
100
AcDbSpline
70
4
71
3
72
20
73
16
40
0
40
0
40
0
40
0
40
0.0509366216933846
40
0.118143659766522
40
0.185350697839659
40
0.252557735912796
40
0.386971812059069
40
0.521385888205343
40
0.58859292627848
40
0.655799964351617
40
0.790214040497891
40
0.857421078571028
40
0.924628116644165
40
0.991835154717302
40
1
40
1
40
1
40
1
41
0.874315756983303
10
-0.0999999999996446
20
-21.8971034223073
30
0
41
0.874315756983303
10
-0.0999999999996121
20
-21.898673678848
30
0
41
0.874315756983303
10
-0.0999999999996121
20
-21.8552921798729
30
0
41
0.874315756983303
10
-0.0999999999996121
20
-21.6333957601053
30
0
41
0.874315756983303
10
-0.0999999999996121
20
-21.2218112502423
30
0
41
0.874315756983303
10
-0.0999999999996446
20
-20.4659250881949
30
0
41
0.874315756983303
10
-0.0999999999996121
20
-19.1618572175681
30
0
41
0.874315756983303
10
-0.0999999999996121
20
-17.4318493644904
30
0
41
0.874315756983303
10
-0.0999999999996121
20
-15.8105341716198
30
0
41
0.874315756983303
10
-0.0999999999996446
20
-14.0363164146728
30
0
41
0.874315756983303
10
-0.0999999999996121
20
-12.0391433543184
30
0
41
0.874315756983303
10
-0.0999999999996121
20
-9.82418264807942
30
0
41
0.874315756983303
10
-0.0999999999996121
20
-8.05656082106038
30
0
41
0.874315756983303
10
-0.0999999999996121
20
-6.73213673632525
30
0
41
0.874315756983303
10
-0.0999999999996121
20
-6.0105893842286
30
0
41
0.874315756983303
10
-0.0999999999996121
20
-5.93217709109597
30
0
0
SPLINE
5
125
100
AcDbEntity
8
1
62
256
6
ByLayer
370
13
48
1
60
0
100
AcDbSpline
70
4
71
3
72
10
73
6
40
0
40
0
40
0
40
0
40
0.0098332535519064
40
0.0098332535519064
40
1
40
1
40
1
40
1
41
1
10
29.8933156645823
20
-31.8565053428156
30
0
41
1
10
29.8933048709579
20
-31.8565423986615
30
0
41
1
10
29.8932940640036
20
-31.8565794591094
30
0
41
1
10
29.8921787916377
20
-31.8603998417824
30
0
41
1
10
29.8909390960634
20
-31.8642400382596
30
0
41
1
10
29.8895651857753
20
-31.8681402478396
30
0
0
SPLINE
5
126
100
AcDbEntity
8
1
62
256
6
ByLayer
370
13
48
1
60
0
100
AcDbSpline
70
4
71
3
72
12
73
8
40
0
40
0
40
0
40
0
40
0.5
40
0.5
40
0.75
40
0.75
40
1
40
1
40
1
40
1
41
1
10
24.15
20
0.589529378969644
30
0
41
1
10
23.5250206308567
20
0.972554263177585
30
0
41
1
10
23.0753348274127
20
1.47336497496377
30
0
41
1
10
22.6065399958056
20
2.29796786265069
30
0
41
1
10
22.4849267612549
20
2.58427149638055
30
0
41
1
10
22.3054554575239
20
3.20995519567052
30
0
41
1
10
22.2438730049824
20
3.55492155609315
30
0
41
1
10
22.2402934855321
20
3.96509385800658
30
0
0
SPLINE
5
127
100
AcDbEntity
8
1
62
256
6
ByLayer
370
13
48
1
60
0
100
AcDbSpline
70
4
71
3
72
20
73
16
40
0
40
0
40
0
40
0
40
0.640583359850896
40
0.640583359850896
40
0.759101824518428
40
0.759101824518428
40
0.866718478391822
40
0.866718478391822
40
0.915822063788945
40
0.915822063788945
40
0.956547844830984
40
0.956547844830984
40
0.980212390339354
40
0.980212390339354
40
1
40
1
40
1
40
1
41
1
10
-2.84E-14
20
-6.51832721803828
30
0
41
1
10
0
20
-6.39051441761299
30
0
41
1
10
-0.0024492443047563
20
-6.26067013501364
30
0
41
1
10
-0.0235684783978343
20
-6.1062870637102
30
0
41
1
10
-0.0275227865785723
20
-6.08204171360396
30
0
41
1
10
-0.0373581185365595
20
-6.03611892748023
30
0
41
1
10
-0.0429624475522132
20
-6.01422940095426
30
0
41
1
10
-0.0544674411239043
20
-5.98354037617921
30
0
41
1
10
-0.0585956228704845
20
-5.97402407582393
30
0
41
1
10
-0.0677536332753448
20
-5.95770574854188
30
0
41
1
10
-0.0725911733208875
20
-5.95057226823337
30
0
41
1
10
-0.0817350698631856
20
-5.941267308709
30
0
41
1
10
-0.0854989899226268
20
-5.93823126653984
30
0
41
1
10
-0.0928516466983638
20
-5.93414644248139
30
0
41
1
10
-0.0964314327882221
20
-5.93282749585595
30
0
41
1
10
-0.0999999999951058
20
-5.93217709109712
30
0
0
SPLINE
5
128
100
AcDbEntity
8
1
62
256
6
ByLayer
370
13
48
1
60
0
100
AcDbSpline
70
4
71
3
72
16
73
12
40
0
40
0
40
0
40
0
40
0.113316224833583
40
0.113316224833583
40
0.252990411571556
40
0.252990411571556
40
0.473309013928266
40
0.473309013928266
40
0.896716357718727
40
0.896716357718727
40
1
40
1
40
1
40
1
41
1
10
13.4613248654051
20
30.0805927603168
30
0
41
1
10
13.4894125595717
20
30.0805927603168
30
0
41
1
10
13.5178493577629
20
30.0790101689566
30
0
41
1
10
13.5767970345724
20
30.0726712338968
30
0
41
1
10
13.6072473721287
20
30.0672275748684
30
0
41
1
10
13.6769143636601
20
30.0506647867051
30
0
41
1
10
13.712826650765
20
30.0378702684274
30
0
41
1
10
13.8014637450834
20
29.9980833386354
30
0
41
1
10
13.8423708397529
20
29.9679759349079
30
0
41
1
10
13.8809034737597
20
29.9294196064671
30
0
41
1
10
13.8878971837969
20
29.9217223689308
30
0
41
1
10
13.8943375672974
20
29.913954846469
30
0
0
SPLINE
5
129
100
AcDbEntity
8
1
62
256
6
ByLayer
370
13
48
1
60
0
100
AcDbSpline
70
4
71
3
72
10
73
6
40
0
40
0
40
0
40
0
40
0.5
40
0.5
40
1
40
1
40
1
40
1
41
1
10
28.7830887800466
20
-40.8547687647868
30
0
41
1
10
27.8702604507774
20
-40.2296093996713
30
0
41
1
10
27.0552058798145
20
-39.7345429727304
30
0
41
1
10
25.7900458392171
20
-39.0139296906502
30
0
41
1
10
25.347535801888
20
-38.7894983696529
30
0
41
1
10
25.1896897122131
20
-38.7090962631682
30
0
0
SPLINE
5
12A
100
AcDbEntity
8
1
62
256
6
ByLayer
370
13
48
1
60
0
100
AcDbSpline
70
4
71
3
72
16
73
12
40
0
40
0
40
0
40
0
40
0.215926136414504
40
0.215926136414504
40
0.431335020381172
40
0.431335020381172
40
0.6721611404599
40
0.6721611404599
40
0.869813352548949
40
0.869813352548949
40
1
40
1
40
1
40
1
41
1
10
23.4383186059722
20
-32.1289275523567
30
0
41
1
10
23.4230552316287
20
-32.071809452417
30
0
41
1
10
23.4029604041873
20
-32.0156369311877
30
0
41
1
10
23.3571146044635
20
-31.9142649300576
30
0
41
1
10
23.3308367540119
20
-31.8676544110763
30
0
41
1
10
23.2738592633343
20
-31.7824366687234
30
0
41
1
10
23.2421631375404
20
-31.7441211566148
30
0
41
1
10
23.1902409712922
20
-31.6906650552047
30
0
41
1
10
23.1684438174896
20
-31.6720397277892
30
0
41
1
10
23.1422398358844
20
-31.6539144932496
30
0
41
1
10
23.1343504796324
20
-31.6499999999841
30
0
41
1
10
23.1303372598626
20
-31.6499999999837
30
0
0
SPLINE
5
12B
100
AcDbEntity
8
1
62
256
6
ByLayer
370
13
48
1
60
0
100
AcDbSpline
70
4
71
3
72
14
73
10
40
0
40
0
40
0
40
0
40
0.204215537825811
40
0.204215537825811
40
0.47718846542462
40
0.47718846542462
40
0.933538546975312
40
0.933538546975312
40
1
40
1
40
1
40
1
41
1
10
23.4383186059721
20
-30.0228644404845
30
0
41
1
10
23.3940753516616
20
-29.8282907161619
30
0
41
1
10
23.3178674173243
20
-29.6456070877454
30
0
41
1
10
23.1164966182369
20
-29.271087297715
30
0
41
1
10
22.9805155127767
20
-29.088463125227
30
0
41
1
10
22.6427695558337
20
-28.6705700221235
30
0
41
1
10
22.4530398762582
20
-28.4691594308918
30
0
41
1
10
22.311610362331
20
-28.2429490155049
30
0
41
1
10
22.2947486312024
20
-28.2140088916372
30
0
41
1
10
22.2792076144253
20
-28.18502279196
30
0
0
SPLINE
5
12C
100
AcDbEntity
8
1
62
256
6
ByLayer
370
13
48
1
60
0
100
AcDbSpline
70
4
71
3
72
12
73
8
40
0
40
0
40
0
40
0
40
0.489915449118231
40
0.489915449118231
40
0.979827993831862
40
0.979827993831862
40
1
40
1
40
1
40
1
41
1
10
25.9
20
-38.7090962631682
30
0
41
1
10
26.3700439971596
20
-38.7090962631682
30
0
41
1
10
26.8465700327573
20
-38.7077107419257
30
0
41
1
10
27.7336591902098
20
-38.7028342006392
30
0
41
1
10
28.1564556529082
20
-38.6992957601574
30
0
41
1
10
28.5388172132256
20
-38.695350426665
30
0
41
1
10
28.5540445912026
20
-38.6951919500863
30
0
41
1
10
28.5691843185411
20
-38.6950330707821
30
0
0
SPLINE
5
12D
100
AcDbEntity
8
1
62
256
6
ByLayer
370
13
48
1
60
0
100
AcDbSpline
70
4
71
3
72
12
73
8
40
0
40
0
40
0
40
0
40
0.180556962169261
40
0.180556962169261
40
0.733077151848106
40
0.733077151848106
40
1
40
1
40
1
40
1
41
1
10
29.9792156108742
20
-32.1499999999999
30
0
41
1
10
29.9792156108742
20
-32.1318331580368
30
0
41
1
10
29.9781928228407
20
-32.113637826592
30
0
41
1
10
29.9699965068578
20
-32.040927798562
30
0
41
1
10
29.954196685626
20
-31.9865964013314
30
0
41
1
10
29.9185593643427
20
-31.9130950952138
30
0
41
1
10
29.9049188100019
20
-31.8899614567314
30
0
41
1
10
29.8895651857754
20
-31.8681402478396
30
0
0
SPLINE
5
12E
100
AcDbEntity
8
1
62
256
6
ByLayer
370
13
48
1
60
0
100
AcDbSpline
70
4
71
3
72
16
73
12
40
0
40
0
40
0
40
0
40
0.113316224833524
40
0.113316224833524
40
0.252990411571505
40
0.252990411571505
40
0.473309013928272
40
0.473309013928272
40
0.896716357718861
40
0.896716357718861
40
1
40
1
40
1
40
1
41
1
10
10.5386751345946
20
-30.0805927603168
30
0
41
1
10
10.5105874404279
20
-30.0805927603168
30
0
41
1
10
10.4821506422367
20
-30.0790101689566
30
0
41
1
10
10.4232029654273
20
-30.0726712338968
30
0
41
1
10
10.3927526278709
20
-30.0672275748684
30
0
41
1
10
10.3230856363396
20
-30.0506647867051
30
0
41
1
10
10.2871733492347
20
-30.0378702684274
30
0
41
1
10
10.1985362549161
20
-29.9980833386354
30
0
41
1
10
10.1576291602467
20
-29.9679759349079
30
0
41
1
10
10.1190965262399
20
-29.9294196064671
30
0
41
1
10
10.1121028162028
20
-29.9217223689308
30
0
41
1
10
10.1056624327023
20
-29.913954846469
30
0
0
SPLINE
5
12F
100
AcDbEntity
8
1
62
256
6
ByLayer
370
13
48
1
60
0
100
AcDbSpline
70
4
71
3
72
16
73
12
40
0
40
0
40
0
40
0
40
0.463423600832264
40
0.463423600832264
40
0.646243952932849
40
0.646243952932849
40
0.831657283224508
40
0.831657283224508
40
0.947504344290838
40
0.947504344290838
40
1
40
1
40
1
40
1
41
1
10
10.1056624327024
20
29.913954846469
30
0
41
1
10
10.1343390747263
20
29.9485407466771
30
0
41
1
10
10.1736499876089
20
29.9822690906119
30
0
41
1
10
10.2546180633466
20
30.0239686896251
30
0
41
1
10
10.2809130191138
20
30.0352936109064
30
0
41
1
10
10.3420137796672
20
30.0555697561517
30
0
41
1
10
10.377740009453
20
30.064724606048
30
0
41
1
10
10.4433516536447
20
30.0751823136667
30
0
41
1
10
10.471040202401
20
30.0781795790238
30
0
41
1
10
10.5123223625247
20
30.0802576981001
30
0
41
1
10
10.5255210031397
20
30.0805927603169
30
0
41
1
10
10.5386751345946
20
30.0805927603169
30
0
0
SPLINE
5
130
100
AcDbEntity
8
1
62
256
6
ByLayer
370
13
48
1
60
0
100
AcDbSpline
70
4
71
3
72
18
73
14
40
0
40
0
40
0
40
0
40
0.172083447732971
40
0.172083447732971
40
0.342831461641145
40
0.342831461641145
40
0.532288674240982
40
0.532288674240982
40
0.700377466883605
40
0.700377466883605
40
0.869608303808746
40
0.869608303808746
40
1
40
1
40
1
40
1
41
1
10
26.2401411777888
20
8.53E-14
30
0
41
1
10
25.9410519516201
20
8.53E-14
30
0
41
1
10
25.6487669200177
20
0.0349990153360977
30
0
41
1
10
25.1294354150096
20
0.148164979800896
30
0
41
1
10
24.8944894150608
20
0.22696253564439
30
0
41
1
10
24.47478456641
20
0.402679931494731
30
0
41
1
10
24.2919771299426
20
0.502996484774485
30
0
41
1
10
24.0403515153696
20
0.656331789683776
30
0
41
1
10
23.9584880371036
20
0.714266893203103
30
0
41
1
10
23.8857464299086
20
0.765989245911214
30
0
41
1
10
23.8951115965234
20
0.758837854757275
30
0
41
1
10
23.9905756046067
20
0.692123354374331
30
0
41
1
10
24.0591255319288
20
0.645222709548165
30
0
41
1
10
24.15
20
0.589529378969672
30
0
0
SPLINE
5
131
100
AcDbEntity
8
1
62
256
6
ByLayer
370
13
48
1
60
0
100
AcDbSpline
70
4
71
3
72
8
73
4
40
0
40
0
40
0
40
0
40
1
40
1
40
1
40
1
41
1
10
22.1434252530547
20
-27.6639286264524
30
0
41
1
10
22.1463245173056
20
-27.8448489643793
30
0
41
1
10
22.1911254984095
20
-28.0207377241795
30
0
41
1
10
22.2792076144253
20
-28.18502279196
30
0
0
SPLINE
5
132
100
AcDbEntity
8
1
62
256
6
ByLayer
370
13
48
1
60
0
100
AcDbSpline
70
4
71
3
72
20
73
16
40
0
40
0
40
0
40
0
40
0.0008912074097488
40
0.0008912074097488
40
0.0228218466437171
40
0.0228218466437171
40
0.0494368103979507
40
0.0494368103979507
40
0.0942961377355566
40
0.0942961377355566
40
0.228604296351934
40
0.228604296351934
40
0.792194931712537
40
0.792194931712537
40
1
40
1
40
1
40
1
41
1
10
-0.0999999999996817
20
5.93218067753216
30
0
41
1
10
-0.0998347555557757
20
5.93221079489541
30
0
41
1
10
-0.0996695660887497
20
5.93224226598204
30
0
41
1
10
-0.0955006986488627
20
5.93307106226078
30
0
41
1
10
-0.0914919861689611
20
5.93472019870703
30
0
41
1
10
-0.0833557731713199
20
5.93977244020962
30
0
41
1
10
-0.0792517524982941
20
5.94351211698347
30
0
41
1
10
-0.0695520361300908
20
5.95460796353987
30
0
41
1
10
-0.0645769135488479
20
5.96283654379238
30
0
41
1
10
-0.0477164990183496
20
5.9963022853955
30
0
41
1
10
-0.0402705175320648
20
6.02401260946596
30
0
41
1
10
-0.0086504361431707
20
6.16478955582261
30
0
41
1
10
-0.0045491916415585
20
6.28040085327294
30
0
41
1
10
-0.0004670060177716
20
6.43515258622844
30
0
41
1
10
-2.84E-14
20
6.47681436300778
30
0
41
1
10
-2.84E-14
20
6.51833045883691
30
0
0
SPLINE
5
133
100
AcDbEntity
8
1
62
256
6
ByLayer
370
13
48
1
60
0
100
AcDbSpline
70
4
71
3
72
8
73
4
40
0
40
0
40
0
40
0
40
1
40
1
40
1
40
1
41
1
10
23.4383186059722
20
-32.1289275523567
30
0
41
1
10
23.4401941314705
20
-32.1359460824958
30
0
41
1
10
23.4420669145755
20
-32.1429731473015
30
0
41
1
10
23.4439346278449
20
-32.15
30
0
0
SPLINE
5
134
100
AcDbEntity
8
1
62
256
6
ByLayer
370
13
48
1
60
0
100
AcDbSpline
70
4
71
3
72
16
73
12
40
0
40
0
40
0
40
0
40
0.463423600832234
40
0.463423600832234
40
0.646243952932821
40
0.646243952932821
40
0.83165728322448
40
0.83165728322448
40
0.947504344290828
40
0.947504344290828
40
1
40
1
40
1
40
1
41
1
10
13.8943375672973
20
9.86941261896663
30
0
41
1
10
13.8656609252733
20
9.76458357826328
30
0
41
1
10
13.8263500123908
20
9.66039292789981
30
0
41
1
10
13.7453819366531
20
9.52957658281082
30
0
41
1
10
13.7190869808858
20
9.49380155568116
30
0
41
1
10
13.6579862203324
20
9.42941539787677
30
0
41
1
10
13.6222599905466
20
9.40014891155752
30
0
41
1
10
13.5566483463549
20
9.36662118733827
30
0
41
1
10
13.5289597975986
20
9.35698328824279
30
0
41
1
10
13.487677637475
20
9.35029954873147
30
0
41
1
10
13.4744789968599
20
9.34922131452544
30
0
41
1
10
13.4613248654051
20
9.34922131452544
30
0
0
SPLINE
5
135
100
AcDbEntity
8
1
62
256
6
ByLayer
370
13
48
1
60
0
100
AcDbSpline
70
4
71
3
72
16
73
12
40
0
40
0
40
0
40
0
40
0.463423600832254
40
0.463423600832254
40
0.646243952932849
40
0.646243952932849
40
0.831657283224519
40
0.831657283224519
40
0.947504344290871
40
0.947504344290871
40
1
40
1
40
1
40
1
41
1
10
10.1056624327024
20
-9.86941261896644
30
0
41
1
10
10.1343390747263
20
-9.76458357826309
30
0
41
1
10
10.1736499876089
20
-9.66039292789961
30
0
41
1
10
10.2546180633466
20
-9.52957658281062
30
0
41
1
10
10.2809130191138
20
-9.49380155568096
30
0
41
1
10
10.3420137796672
20
-9.42941539787657
30
0
41
1
10
10.377740009453
20
-9.40014891155732
30
0
41
1
10
10.4433516536447
20
-9.36662118733807
30
0
41
1
10
10.471040202401
20
-9.35698328824259
30
0
41
1
10
10.5123223625247
20
-9.35029954873124
30
0
41
1
10
10.5255210031397
20
-9.34922131452521
30
0
41
1
10
10.5386751345946
20
-9.34922131452521
30
0
0
SPLINE
5
136
100
AcDbEntity
8
1
62
256
6
ByLayer
370
13
48
1
60
0
100
AcDbSpline
70
4
71
3
72
20
73
16
40
0
40
0
40
0
40
0
40
0.0078056482631045
40
0.0078056482631045
40
0.0178791649910687
40
0.0178791649910687
40
0.0421325437823106
40
0.0421325437823106
40
0.13406884582126
40
0.13406884582126
40
0.48664911387599
40
0.48664911387599
40
0.838559076534479
40
0.838559076534479
40
1
40
1
40
1
40
1
41
1
10
28.5691843185411
20
-32.1499999999999
30
0
41
1
10
28.5691843185411
20
-32.1433851841125
30
0
41
1
10
28.5680071478997
20
-32.1366851518017
30
0
41
1
10
28.5633820944979
20
-32.1225771543723
30
0
41
1
10
28.5593818811553
20
-32.1152420578061
30
0
41
1
10
28.5439533506108
20
-32.0929174621982
30
0
41
1
10
28.5298267419238
20
-32.0804408906989
30
0
41
1
10
28.4606388573465
20
-32.0278287898485
30
0
41
1
10
28.3969206142513
20
-32.0017610563747
30
0
41
1
10
28.0891405632357
20
-31.8831567134504
30
0
41
1
10
27.8136794286948
20
-31.8236719611028
30
0
41
1
10
27.2505768813528
20
-31.7217703918825
30
0
41
1
10
26.9545865555965
20
-31.6836685477773
30
0
41
1
10
26.5300952771726
20
-31.655090481865
30
0
41
1
10
26.3962924676521
20
-31.6499999999999
30
0
41
1
10
26.26476832549
20
-31.6499999999999
30
0
0
SPLINE
5
137
100
AcDbEntity
8
1
62
256
6
ByLayer
370
13
48
1
60
0
100
AcDbSpline
70
4
71
3
72
8
73
4
40
0
40
0
40
0
40
0
40
1
40
1
40
1
40
1
41
1
10
23.4383186059722
20
-30.0228644404845
30
0
41
1
10
23.561401279393
20
-30.5641594817343
30
0
41
1
10
23.6871076806127
20
-31.1065878657808
30
0
41
1
10
23.8148812705254
20
-31.6499999999999
30
0
0
SPLINE
5
138
100
AcDbEntity
8
1
62
256
6
ByLayer
370
13
48
1
60
0
100
AcDbSpline
70
4
71
3
72
12
73
8
40
0
40
0
40
0
40
0
40
0.351990479393181
40
0.351990479393181
40
0.715070435854673
40
0.715070435854673
40
1
40
1
40
1
40
1
41
1
10
29.6578049547364
20
-31.6533497359655
30
0
41
1
10
29.7763044171577
20
-31.6670553163719
30
0
41
1
10
29.8529619358953
20
-31.7170675243389
30
0
41
1
10
29.9158051678807
20
-31.7604332700547
30
0
41
1
10
29.8991609534495
20
-31.7430259481785
30
0
41
1
10
29.7861639333061
20
-31.6825115078726
30
0
41
1
10
29.7065202391714
20
-31.6499999999999
30
0
41
1
10
29.6
20
-31.6499999999999
30
0
0
SPLINE
5
139
100
AcDbEntity
8
1
62
256
6
ByLayer
370
13
48
1
60
0
100
AcDbSpline
70
4
71
3
72
16
73
12
40
0
40
0
40
0
40
0
40
0.113316224833584
40
0.113316224833584
40
0.252990411571546
40
0.252990411571546
40
0.473309013928283
40
0.473309013928283
40
0.896716357718728
40
0.896716357718728
40
1
40
1
40
1
40
1
41
1
10
13.4613248654051
20
-9.34922131452527
30
0
41
1
10
13.4894125595717
20
-9.34922131452527
30
0
41
1
10
13.5178493577629
20
-9.35431657338998
30
0
41
1
10
13.5767970345724
20
-9.37467777536585
30
0
41
1
10
13.6072473721287
20
-9.39213979793431
30
0
41
1
10
13.6769143636601
20
-9.44503542604403
30
0
41
1
10
13.712826650765
20
-9.48569380431897
30
0
41
1
10
13.8014637450835
20
-9.61105923366821
30
0
41
1
10
13.8423708397529
20
-9.7046542939008
30
0
41
1
10
13.8809034737597
20
-9.82244573862488
30
0
41
1
10
13.8878971837969
20
-9.84586944318048
30
0
41
1
10
13.8943375672974
20
-9.86941261896641
30
0
0
SPLINE
5
13A
100
AcDbEntity
8
1
62
256
6
ByLayer
370
13
48
1
60
0
100
AcDbSpline
70
4
71
3
72
10
73
6
40
0
40
0
40
0
40
0
40
0.781306202627983
40
0.781306202627983
40
1
40
1
40
1
40
1
41
1
10
23.4383186059721
20
-31.6499999999999
30
0
41
1
10
23.3384569246836
20
-31.6499999999999
30
0
41
1
10
23.071655455124
20
-31.6499999999999
30
0
41
1
10
22.8924873668059
20
-31.6499999999999
30
0
41
1
10
22.875446502486
20
-31.6499999999999
30
0
41
1
10
22.8755210934813
20
-31.6499999999999
30
0
0
SPLINE
5
13B
100
AcDbEntity
8
1
62
256
6
ByLayer
370
13
48
1
60
0
100
AcDbSpline
70
4
71
3
72
10
73
6
40
0
40
0
40
0
40
0
40
0.115582308336394
40
0.115582308336394
40
1
40
1
40
1
40
1
41
1
10
28.5691843185411
20
-38.6950330707821
30
0
41
1
10
28.6037140395022
20
-38.6947382876374
30
0
41
1
10
28.6377705475651
20
-38.6944375437017
30
0
41
1
10
28.9255844702884
20
-38.6918142041528
30
0
41
1
10
29.1529181037737
20
-38.6891740077333
30
0
41
1
10
29.3366985862022
20
-38.6866826619705
30
0
0
SPLINE
5
13C
100
AcDbEntity
8
1
62
256
6
ByLayer
370
13
48
1
60
0
100
AcDbSpline
70
4
71
3
72
16
73
12
40
0
40
0
40
0
40
0
40
0.113316224833521
40
0.113316224833521
40
0.252990411571484
40
0.252990411571484
40
0.473309013928256
40
0.473309013928256
40
0.896716357718765
40
0.896716357718765
40
1
40
1
40
1
40
1
41
1
10
10.5386751345946
20
9.34922131452552
30
0
41
1
10
10.5105874404279
20
9.34922131452552
30
0
41
1
10
10.4821506422367
20
9.35431657339024
30
0
41
1
10
10.4232029654273
20
9.37467777536608
30
0
41
1
10
10.3927526278709
20
9.39213979793453
30
0
41
1
10
10.3230856363396
20
9.44503542604426
30
0
41
1
10
10.2871733492347
20
9.48569380431923
30
0
41
1
10
10.1985362549162
20
9.61105923366847
30
0
41
1
10
10.1576291602467
20
9.70465429390109
30
0
41
1
10
10.11909652624
20
9.82244573862516
30
0
41
1
10
10.1121028162028
20
9.84586944318073
30
0
41
1
10
10.1056624327023
20
9.86941261896666
30
0
0
SPLINE
5
13D
100
AcDbEntity
8
1
62
256
6
ByLayer
370
13
48
1
60
0
100
AcDbSpline
70
4
71
3
72
8
73
4
40
0
40
0
40
0
40
0
40
1
40
1
40
1
40
1
41
1
10
23.4383186059721
20
-31.6499999999999
30
0
41
1
10
23.5326148334928
20
-31.6499999999999
30
0
41
1
10
23.6594704046385
20
-31.6499999999999
30
0
41
1
10
23.8148812705254
20
-31.6499999999999
30
0
0
SPLINE
5
13E
100
AcDbEntity
8
1
62
256
6
ByLayer
370
13
48
1
60
0
100
AcDbSpline
70
4
71
3
72
18
73
14
40
0
40
0
40
0
40
0
40
0.048792136560284
40
0.048792136560284
40
0.265182447973658
40
0.265182447973658
40
0.48147766638999
40
0.48147766638999
40
0.697065837545729
40
0.697065837545729
40
0.830803130713779
40
0.830803130713779
40
1
40
1
40
1
40
1
41
1
10
43.3999999999999
20
-34.26066226006
30
0
41
1
10
43.3999999999999
20
-34.3017581169553
30
0
41
1
10
43.4015708994912
20
-34.3428838809072
30
0
41
1
10
43.4184910004691
20
-34.5640370133966
30
0
41
1
10
43.4635620152847
20
-34.7443279556972
30
0
41
1
10
43.6088868589654
20
-35.0751326649498
30
0
41
1
10
43.7111374663284
20
-35.2302392183451
30
0
41
1
10
43.957611586572
20
-35.493510516613
30
0
41
1
10
44.1051212999386
20
-35.6054672199548
30
0
41
1
10
44.3648251043911
20
-35.7404551352559
30
0
41
1
10
44.4709102434975
20
-35.7820086229319
30
0
41
1
10
44.7159659935917
20
-35.8490651984984
30
0
41
1
10
44.8586006934989
20
-35.8682377711723
30
0
41
1
10
45
20
-35.8682377711723
30
0
0
SPLINE
5
13F
100
AcDbEntity
8
1
62
256
6
ByLayer
370
13
48
1
60
0
100
AcDbSpline
70
4
71
3
72
8
73
4
40
0
40
0
40
0
40
0
40
1
40
1
40
1
40
1
41
1
10
45.45
20
-35.3301781474079
30
0
41
1
10
45.2986440652284
20
-35.3301781474079
30
0
41
1
10
45.1459565314291
20
-35.3299765497965
30
0
41
1
10
45
20
-35.329615500139
30
0
0
SPLINE
5
140
100
AcDbEntity
8
1
62
256
6
ByLayer
370
13
48
1
60
0
100
AcDbSpline
70
4
71
3
72
16
73
12
40
0
40
0
40
0
40
0
40
0.46342360083222
40
0.46342360083222
40
0.646243952932817
40
0.646243952932817
40
0.831657283224476
40
0.831657283224476
40
0.947504344290818
40
0.947504344290818
40
1
40
1
40
1
40
1
41
1
10
13.8943375672973
20
-29.913954846469
30
0
41
1
10
13.8656609252733
20
-29.9485407466771
30
0
41
1
10
13.8263500123908
20
-29.9822690906119
30
0
41
1
10
13.7453819366531
20
-30.0239686896251
30
0
41
1
10
13.7190869808858
20
-30.0352936109063
30
0
41
1
10
13.6579862203324
20
-30.0555697561517
30
0
41
1
10
13.6222599905466
20
-30.064724606048
30
0
41
1
10
13.5566483463549
20
-30.0751823136667
30
0
41
1
10
13.5289597975986
20
-30.0781795790238
30
0
41
1
10
13.487677637475
20
-30.0802576981001
30
0
41
1
10
13.4744789968599
20
-30.0805927603168
30
0
41
1
10
13.4613248654051
20
-30.0805927603168
30
0
0
SPLINE
5
141
100
AcDbEntity
8
1
62
256
6
ByLayer
370
13
48
1
60
0
100
AcDbSpline
70
4
71
3
72
10
73
6
40
0
40
0
40
0
40
0
40
0.0877196000107755
40
0.0877196000107755
40
1
40
1
40
1
40
1
41
1
10
29.9792156108742
20
-38.6766428408861
30
0
41
1
10
29.9855583467752
20
-38.6765483831079
30
0
41
1
10
29.9916551886576
20
-38.67645777469
30
0
41
1
10
30.0580597598512
20
-38.6754737378753
30
0
41
1
10
30.0921163018689
20
-38.6750029206623
30
0
41
1
10
30.0987841300196
20
-38.6750003937308
30
0
0
SPLINE
5
142
100
AcDbEntity
8
1
62
256
6
ByLayer
370
13
48
1
60
0
100
AcDbSpline
70
4
71
3
72
8
73
4
40
0
40
0
40
0
40
0
40
1
40
1
40
1
40
1
41
1
10
25.1896897122131
20
-38.7090962631682
30
0
41
1
10
24.6071530344819
20
-36.5228787782264
30
0
41
1
10
24.0251102508697
20
-34.3365430641243
30
0
41
1
10
23.443934627845
20
-32.1499999999999
30
0
0
SPLINE
5
143
100
AcDbEntity
8
1
62
256
6
ByLayer
370
18
48
1
60
0
100
AcDbSpline
70
4
71
3
72
8
73
4
40
0
40
0
40
0
40
0
40
1
40
1
40
1
40
1
41
1
10
62.59011863841
20
-36.516914648177
30
0
41
1
10
62.5765866338566
20
-36.5066472427349
30
0
41
1
10
62.5630546293033
20
-36.4963798372928
30
0
41
1
10
62.54952262475
20
-36.4861124318506
30
0
0
SPLINE
5
144
100
AcDbEntity
8
1
62
256
6
ByLayer
370
18
48
1
60
0
100
AcDbSpline
70
4
71
3
72
8
73
4
40
0
40
0
40
0
40
0
40
1
40
1
40
1
40
1
41
1
10
62.74894541545
20
-36.572267476298
30
0
41
1
10
62.6960031564367
20
-36.5538165335886
30
0
41
1
10
62.6430608974233
20
-36.5353655908793
30
0
41
1
10
62.59011863841
20
-36.51691464817
30
0
0
SPLINE
5
145
100
AcDbEntity
8
1
62
256
6
ByLayer
370
18
48
1
60
0
100
AcDbSpline
70
4
71
2
72
10
73
7
40
0
40
0
40
0
40
0.5
40
0.5
40
0.75
40
0.75
40
1
40
1
40
1
41
1
10
62.7489454154435
20
-36.572267476262
30
0
41
1
10
62.8165392416659
20
-36.591762163515
30
0
41
1
10
62.864235482769
20
-36.6434857110098
30
0
41
1
10
62.8902224727208
20
-36.6716669529259
30
0
41
1
10
62.9068593747304
20
-36.7075223538962
30
0
41
1
10
62.9248252361523
20
-36.7462418922267
30
0
41
1
10
62.928946197083
20
-36.789264413028
30
0
0
SPLINE
5
146
100
AcDbEntity
8
1
62
256
6
ByLayer
370
18
48
1
60
0
100
AcDbSpline
70
4
71
2
72
6
73
3
40
0
40
0
40
0
40
1
40
1
40
1
41
1
10
62.9289461971205
20
-36.789264412942
30
0
41
1
10
62.9378374892931
20
-36.8844834459601
30
0
41
1
10
62.9378609595315
20
-36.9799999993024
30
0
0
SPLINE
5
147
100
AcDbEntity
8
1
62
256
6
ByLayer
370
18
48
1
60
0
100
AcDbSpline
70
4
71
3
72
9
73
5
40
0
40
0
40
0
40
0
40
0.508287091433909
40
1
40
1
40
1
40
1
41
1
10
62.74894541544
20
-37.427732523738
30
0
41
1
10
62.7914754634341
20
-37.4107098141081
30
0
41
1
10
62.8751487431826
20
-37.377219469937
30
0
41
1
10
62.911212957408
20
-37.26561362272
30
0
41
1
10
62.92894619708
20
-37.210735586972
30
0
0
SPLINE
5
148
100
AcDbEntity
8
1
62
256
6
ByLayer
370
18
48
1
60
0
100
AcDbSpline
70
4
71
3
72
8
73
4
40
0
40
0
40
0
40
0
40
1
40
1
40
1
40
1
41
1
10
62.92894619712
20
-37.210735587058
30
0
41
1
10
62.93191778459
20
-37.1471570582711
30
0
41
1
10
62.93488937206
20
-37.0835785294844
30
0
41
1
10
62.93786095953
20
-37.0200000006976
30
0
0
SPLINE
5
149
100
AcDbEntity
8
1
62
256
6
ByLayer
370
18
48
1
60
0
100
AcDbSpline
70
4
71
2
72
6
73
3
40
0
40
0
40
0
40
1
40
1
40
1
41
1
10
62.748945415452
20
-37.427732523702
30
0
41
1
10
62.6679467190156
20
-37.4509847566719
30
0
41
1
10
62.5901186384125
20
-37.48308535183
30
0
0
SPLINE
5
14A
100
AcDbEntity
8
1
62
256
6
ByLayer
370
18
48
1
60
0
100
AcDbSpline
70
4
71
2
72
6
73
3
40
0
40
0
40
0
40
1
40
1
40
1
41
1
10
62.5901186384115
20
-37.483085351823
30
0
41
1
10
62.565819759419
20
-37.4932546708632
30
0
41
1
10
62.5495226247505
20
-37.513887568149
30
0
0
LINE
5
70
100
AcDbEntity
8
1
62
256
6
ByLayer
370
13
48
1
60
0
100
AcDbLine
10
0.3
20
-31.5
30
0
11
22.279208
21
-31.5
31
0
39
0
210
0
220
0
230
1
0
LINE
5
72
100
AcDbEntity
8
1
62
256
6
ByLayer
370
13
48
1
60
0
100
AcDbLine
10
22
20
31.5
30
0
11
0.3
21
31.5
31
0
39
0
210
0
220
0
230
1
0
LINE
5
73
100
AcDbEntity
8
1
62
256
6
ByLayer
370
13
48
1
60
0
100
AcDbLine
10
0.3
20
31.5
30
0
11
0
21
31.2
31
0
39
0
210
0
220
0
230
1
0
LINE
5
74
100
AcDbEntity
8
1
62
256
6
ByLayer
370
13
48
1
60
0
100
AcDbLine
10
0
20
-31.2
30
0
11
0.3
21
-31.5
31
0
39
0
210
0
220
0
230
1
0
LINE
5
75
100
AcDbEntity
8
1
62
256
6
ByLayer
370
13
48
1
60
0
100
AcDbLine
10
30.1
20
-38.827019
30
0
11
52.64875
21
-38.827019
31
0
39
0
210
0
220
0
230
1
0
LINE
5
76
100
AcDbEntity
8
80
62
256
6
ByLayer
370
18
48
1
60
0
100
AcDbLine
10
0
20
0
30
0
11
-5
21
0
31
0
39
0
210
0
220
0
230
1
0
LINE
5
77
100
AcDbEntity
8
81
62
256
6
ByLayer
370
18
48
1
60
0
100
AcDbLine
10
70
20
-39
30
0
11
75
21
-39
31
0
39
0
210
0
220
0
230
1
0
LINE
5
78
100
AcDbEntity
8
SK1
62
256
6
ByLayer
370
13
48
1
60
0
100
AcDbLine
10
-1.79504
20
21.823125
30
0
11
-1.79504
21
21.830277
31
0
39
0
210
0
220
0
230
1
0
LINE
5
7A
100
AcDbEntity
8
SK1
62
256
6
ByLayer
370
13
48
1
60
0
100
AcDbLine
10
-0.1
20
5.932181
30
0
11
-0.1
21
-5.932177
31
0
39
0
210
0
220
0
230
1
0
LINE
5
7B
100
AcDbEntity
8
SK1
62
256
6
ByLayer
370
13
48
1
60
0
100
AcDbLine
10
-1.79504
20
-21.830277
30
0
11
-1.79504
21
-21.823125
31
0
39
0
210
0
220
0
230
1
0
LINE
5
7C
100
AcDbEntity
8
SK1
62
256
6
ByLayer
370
13
48
1
60
0
100
AcDbLine
10
-1.315435
20
-4.803123
30
0
11
-1.315435
21
4.803126
31
0
39
0
210
0
220
0
230
1
0
LINE
5
7D
100
AcDbEntity
8
SK1
62
256
6
ByLayer
370
13
48
1
60
0
100
AcDbLine
10
-0.194977
20
21.86392
30
0
11
-0.194977
21
21.87004
31
0
39
0
210
0
220
0
230
1
0
LINE
5
7E
100
AcDbEntity
8
SK1
62
256
6
ByLayer
370
13
48
1
60
0
100
AcDbLine
10
-0.194977
20
-21.870041
30
0
11
-0.194977
21
-21.86392
31
0
39
0
210
0
220
0
230
1
0
LINE
5
7F
100
AcDbEntity
8
1
62
256
6
ByLayer
370
13
48
1
60
0
100
AcDbLine
10
23.438319
20
-31.65
30
0
11
23.438319
21
-30.022864
31
0
39
0
210
0
220
0
230
1
0
LINE
5
80
100
AcDbEntity
8
1
62
256
6
ByLayer
370
13
48
1
60
0
100
AcDbLine
10
22.080515
20
22.273864
30
0
11
22.143425
21
15.065094
31
0
39
0
210
0
220
0
230
1
0
LINE
5
81
100
AcDbEntity
8
1
62
256
6
ByLayer
370
13
48
1
60
0
100
AcDbLine
10
13.461325
20
9.349221
30
0
11
13.461325
21
30.080593
31
0
39
0
210
0
220
0
230
1
0
LINE
5
82
100
AcDbEntity
8
1
62
256
6
ByLayer
370
13
48
1
60
0
100
AcDbLine
10
13.461325
20
9.349221
30
0
11
10.538675
21
9.349221
31
0
39
0
210
0
220
0
230
1
0
LINE
5
83
100
AcDbEntity
8
1
62
256
6
ByLayer
370
13
48
1
60
0
100
AcDbLine
10
60.460797
20
-38.693017
30
0
11
60.46089
21
-38.719421
31
0
39
0
210
0
220
0
230
1
0
LINE
5
84
100
AcDbEntity
8
1
62
256
6
ByLayer
370
13
48
1
60
0
100
AcDbLine
10
25.9
20
-32.15
30
0
11
28.569184
21
-32.15
31
0
39
0
210
0
220
0
230
1
0
LINE
5
85
100
AcDbEntity
8
1
62
256
6
ByLayer
370
13
48
1
60
0
100
AcDbLine
10
24.15
20
-31.65
30
0
11
23.814881
21
-31.65
31
0
39
0
210
0
220
0
230
1
0
LINE
5
86
100
AcDbEntity
8
1
62
256
6
ByLayer
370
13
48
1
60
0
100
AcDbLine
10
13.461325
20
-30.080593
30
0
11
10.538675
21
-30.080593
31
0
39
0
210
0
220
0
230
1
0
LINE
5
87
100
AcDbEntity
8
1
62
256
6
ByLayer
370
13
48
1
60
0
100
AcDbLine
10
13.894338
20
-29.913955
30
0
11
13.894338
21
-9.869413
31
0
39
0
210
0
220
0
230
1
0
LINE
5
88
100
AcDbEntity
8
1
62
256
6
ByLayer
370
13
48
1
60
0
100
AcDbLine
10
22.080515
20
22.273864
30
0
11
22
21
31.5
31
0
39
0
210
0
220
0
230
1
0
LINE
5
89
100
AcDbEntity
8
1
62
256
6
ByLayer
370
13
48
1
60
0
100
AcDbLine
10
42.371421
20
-12.537383
30
0
11
43.4
21
-23.6
31
0
39
0
210
0
220
0
230
1
0
LINE
5
8A
100
AcDbEntity
8
1
62
256
6
ByLayer
370
13
48
1
60
0
100
AcDbLine
10
30.1
20
-38.827019
30
0
11
30.1
21
-37.027019
31
0
39
0
210
0
220
0
230
1
0
LINE
5
8B
100
AcDbEntity
8
1
62
256
6
ByLayer
370
13
48
1
60
0
100
AcDbLine
10
62.31
20
-37.274969
30
0
11
62.31
21
-36.725031
31
0
39
0
210
0
220
0
230
1
0
LINE
5
8C
100
AcDbEntity
8
1
62
256
6
ByLayer
370
13
48
1
60
0
100
AcDbLine
10
29.65
20
-31.652506
30
0
11
29.65
21
0
31
0
39
0
210
0
220
0
230
1
0
LINE
5
8D
100
AcDbEntity
8
1
62
256
6
ByLayer
370
13
48
1
60
0
100
AcDbLine
10
62.060694
20
-36.414713
30
0
11
61.923134
21
-35.33595
31
0
39
0
210
0
220
0
230
1
0
LINE
5
8E
100
AcDbEntity
8
1
62
256
6
ByLayer
370
13
48
1
60
0
100
AcDbLine
10
23.443935
20
-32.15
30
0
11
25.9
21
-32.15
31
0
39
0
210
0
220
0
230
1
0
LINE
5
8F
100
AcDbEntity
8
1
62
256
6
ByLayer
370
13
48
1
60
0
100
AcDbLine
10
29.979216
20
-38.676643
30
0
11
30.100085
21
-38.676643
31
0
39
0
210
0
220
0
230
1
0
LINE
5
90
100
AcDbEntity
8
1
62
256
6
ByLayer
370
13
48
1
60
0
100
AcDbLine
10
29.979216
20
-32.15
30
0
11
30.1
21
-32.15
31
0
39
0
210
0
220
0
230
1
0
LINE
5
91
100
AcDbEntity
8
1
62
256
6
ByLayer
370
13
48
1
60
0
100
AcDbLine
10
45
20
-40.854769
30
0
11
54.988858
21
-40.854769
31
0
39
0
210
0
220
0
230
1
0
LINE
5
92
100
AcDbEntity
8
1
62
256
6
ByLayer
370
13
48
1
60
0
100
AcDbLine
10
62.130421
20
-37.47038
30
0
11
62.238624
21
-37.415923
31
0
39
0
210
0
220
0
230
1
0
LINE
5
93
100
AcDbEntity
8
1
62
256
6
ByLayer
370
13
48
1
60
0
100
AcDbLine
10
43.4
20
-23.6
30
0
11
43.4
21
-34.260662
31
0
39
0
210
0
220
0
230
1
0
LINE
5
94
100
AcDbEntity
8
1
62
256
6
ByLayer
370
13
48
1
60
0
100
AcDbLine
10
59.5
20
-38.705894
30
0
11
59.5
21
-35.392014
31
0
39
0
210
0
220
0
230
1
0
LINE
5
95
100
AcDbEntity
8
1
62
256
6
ByLayer
370
13
48
1
60
0
100
AcDbLine
10
30.1
20
-32.15
30
0
11
30.1
21
-37.027019
31
0
39
0
210
0
220
0
230
1
0
LINE
5
96
100
AcDbEntity
8
1
62
256
6
ByLayer
370
13
48
1
60
0
100
AcDbLine
10
0.3
20
31.5
30
0
11
0.3
21
-31.5
31
0
39
0
210
0
220
0
230
1
0
LINE
5
97
100
AcDbEntity
8
1
62
256
6
ByLayer
370
13
48
1
60
0
100
AcDbLine
10
-0.1
20
5.932181
30
0
11
-0.1
21
-5.932177
31
0
39
0
210
0
220
0
230
1
0
LINE
5
98
100
AcDbEntity
8
1
62
256
6
ByLayer
370
13
48
1
60
0
100
AcDbLine
10
10.105662
20
9.869413
30
0
11
10.105662
21
29.913955
31
0
39
0
210
0
220
0
230
1
0
LINE
5
99
100
AcDbEntity
8
1
62
256
6
ByLayer
370
13
48
1
60
0
100
AcDbLine
10
22.240293
20
3.965094
30
0
11
22.143425
21
15.065094
31
0
39
0
210
0
220
0
230
1
0
LINE
5
9A
100
AcDbEntity
8
1
62
256
6
ByLayer
370
13
48
1
60
0
100
AcDbLine
10
49.221194
20
-37.027019
30
0
11
49.221194
21
-35.868238
31
0
39
0
210
0
220
0
230
1
0
LINE
5
9B
100
AcDbEntity
8
1
62
256
6
ByLayer
370
13
48
1
60
0
100
AcDbLine
10
45
20
-35.868238
30
0
11
45
21
-35.329616
31
0
39
0
210
0
220
0
230
1
0
LINE
5
9C
100
AcDbEntity
8
1
62
256
6
ByLayer
370
13
48
1
60
0
100
AcDbLine
10
13.894338
20
9.869413
30
0
11
13.894338
21
29.913955
31
0
39
0
210
0
220
0
230
1
0
LINE
5
9D
100
AcDbEntity
8
1
62
256
6
ByLayer
370
13
48
1
60
0
100
AcDbLine
10
24.15
20
-31.65
30
0
11
24.15
21
0.589529
31
0
39
0
210
0
220
0
230
1
0
LINE
5
9E
100
AcDbEntity
8
1
62
256
6
ByLayer
370
13
48
1
60
0
100
AcDbLine
10
29.65
20
0
30
0
11
38.4
21
0
31
0
39
0
210
0
220
0
230
1
0
LINE
5
9F
100
AcDbEntity
8
1
62
256
6
ByLayer
370
13
48
1
60
0
100
AcDbLine
10
25.9
20
-38.709096
30
0
11
25.9
21
-32.15
31
0
39
0
210
0
220
0
230
1
0
LINE
5
A0
100
AcDbEntity
8
1
62
256
6
ByLayer
370
13
48
1
60
0
100
AcDbLine
10
30.1
20
-37.027019
30
0
11
49.221194
21
-37.027019
31
0
39
0
210
0
220
0
230
1
0
LINE
5
A1
100
AcDbEntity
8
1
62
256
6
ByLayer
370
13
48
1
60
0
100
AcDbLine
10
24.150018
20
-31.65
30
0
11
29.6
21
-31.65
31
0
39
0
210
0
220
0
230
1
0
LINE
5
A2
100
AcDbEntity
8
1
62
256
6
ByLayer
370
13
48
1
60
0
100
AcDbLine
10
10.105662
20
-29.913955
30
0
11
10.105662
21
-9.869413
31
0
39
0
210
0
220
0
230
1
0
LINE
5
A3
100
AcDbEntity
8
1
62
256
6
ByLayer
370
13
48
1
60
0
100
AcDbLine
10
22.279208
20
-31.5
30
0
11
22.279208
21
-28.185023
31
0
39
0
210
0
220
0
230
1
0
LINE
5
A4
100
AcDbEntity
8
1
62
256
6
ByLayer
370
13
48
1
60
0
100
AcDbLine
10
0
20
31.2
30
0
11
0
21
-31.2
31
0
39
0
210
0
220
0
230
1
0
LINE
5
A5
100
AcDbEntity
8
1
62
256
6
ByLayer
370
13
48
1
60
0
100
AcDbLine
10
10.538675
20
30.080593
30
0
11
13.461325
21
30.080593
31
0
39
0
210
0
220
0
230
1
0
LINE
5
A6
100
AcDbEntity
8
1
62
256
6
ByLayer
370
13
48
1
60
0
100
AcDbLine
10
13.461325
20
-30.080593
30
0
11
13.461325
21
-9.349221
31
0
39
0
210
0
220
0
230
1
0
LINE
5
A7
100
AcDbEntity
8
1
62
256
6
ByLayer
370
13
48
1
60
0
100
AcDbLine
10
60.46089
20
-38.719421
30
0
11
58.390335
21
-38.719421
31
0
39
0
210
0
220
0
230
1
0
LINE
5
A8
100
AcDbEntity
8
1
62
256
6
ByLayer
370
13
48
1
60
0
100
AcDbLine
10
28.783089
20
-40.854769
30
0
11
45
21
-40.854769
31
0
39
0
210
0
220
0
230
1
0
LINE
5
A9
100
AcDbEntity
8
1
62
256
6
ByLayer
370
13
48
1
60
0
100
AcDbLine
10
49.032784
20
-35.330178
30
0
11
45.45
21
-35.330178
31
0
39
0
210
0
220
0
230
1
0
LINE
5
AA
100
AcDbEntity
8
1
62
256
6
ByLayer
370
13
48
1
60
0
100
AcDbLine
10
25.18969
20
-38.709096
30
0
11
25.9
21
-38.709096
31
0
39
0
210
0
220
0
230
1
0
LINE
5
AB
100
AcDbEntity
8
1
62
256
6
ByLayer
370
13
48
1
60
0
100
AcDbLine
10
62.960469
20
-38.599995
30
0
11
62.960883
21
-38.717536
31
0
39
0
210
0
220
0
230
1
0
LINE
5
AC
100
AcDbEntity
8
1
62
256
6
ByLayer
370
13
48
1
60
0
100
AcDbLine
10
65.790115
20
-38.717536
30
0
11
62.960883
21
-38.717536
31
0
39
0
210
0
220
0
230
1
0
LINE
5
AD
100
AcDbEntity
8
1
62
256
6
ByLayer
370
13
48
1
60
0
100
AcDbLine
10
29.649983
20
0
30
0
11
26.240141
21
0
31
0
39
0
210
0
220
0
230
1
0
LINE
5
AE
100
AcDbEntity
8
1
62
256
6
ByLayer
370
13
48
1
60
0
100
AcDbLine
10
29.979216
20
-32.15
30
0
11
29.979216
21
-38.676643
31
0
39
0
210
0
220
0
230
1
0
LINE
5
AF
100
AcDbEntity
8
1
62
256
6
ByLayer
370
13
48
1
60
0
100
AcDbLine
10
38.4
20
0
30
0
11
42.371421
21
-12.537383
31
0
39
0
210
0
220
0
230
1
0
LINE
5
B0
100
AcDbEntity
8
1
62
256
6
ByLayer
370
13
48
1
60
0
100
AcDbLine
10
29.336699
20
-38.686683
30
0
11
29.336699
21
-31.649938
31
0
39
0
210
0
220
0
230
1
0
LINE
5
B1
100
AcDbEntity
8
1
62
256
6
ByLayer
370
13
48
1
60
0
100
AcDbLine
10
28.569184
20
-32.15
30
0
11
28.569184
21
-38.695033
31
0
39
0
210
0
220
0
230
1
0
LINE
5
B2
100
AcDbEntity
8
1
62
256
6
ByLayer
370
13
48
1
60
0
100
AcDbLine
10
10.538675
20
-9.349221
30
0
11
13.461325
21
-9.349221
31
0
39
0
210
0
220
0
230
1
0
LINE
5
B3
100
AcDbEntity
8
1
62
256
6
ByLayer
370
13
48
1
60
0
100
AcDbLine
10
22.143425
20
15.065094
30
0
11
22.143425
21
-27.663929
31
0
39
0
210
0
220
0
230
1
0
LINE
5
B4
100
AcDbEntity
8
1
62
256
6
ByLayer
370
13
48
1
60
0
100
AcDbLine
10
25.9
20
-32.15
30
0
11
25.9
21
-31.65
31
0
39
0
210
0
220
0
230
1
0
LINE
5
B5
100
AcDbEntity
8
1
62
256
6
ByLayer
370
13
48
1
60
0
100
AcDbLine
10
61.921092
20
-38.680062
30
0
11
62.060694
21
-37.585287
31
0
39
0
210
0
220
0
230
1
0
LINE
5
B6
100
AcDbEntity
8
1
62
256
6
ByLayer
370
13
48
1
60
0
100
AcDbLine
10
10.538675
20
9.349221
30
0
11
10.538675
21
30.080593
31
0
39
0
210
0
220
0
230
1
0
LINE
5
B7
100
AcDbEntity
8
1
62
256
6
ByLayer
370
13
48
1
60
0
100
AcDbLine
10
45
20
-35.868238
30
0
11
49.221194
21
-35.868238
31
0
39
0
210
0
220
0
230
1
0
LINE
5
B8
100
AcDbEntity
8
1
62
256
6
ByLayer
370
13
48
1
60
0
100
AcDbLine
10
29.889565
20
-31.80291
30
0
11
29.889565
21
-31.86814
31
0
39
0
210
0
220
0
230
1
0
LINE
5
B9
100
AcDbEntity
8
1
62
256
6
ByLayer
370
13
48
1
60
0
100
AcDbLine
10
30.100072
20
-38.686683
30
0
11
29.336699
21
-38.686683
31
0
39
0
210
0
220
0
230
1
0
LINE
5
BA
100
AcDbEntity
8
1
62
256
6
ByLayer
370
13
48
1
60
0
100
AcDbLine
10
62.238624
20
-36.584077
30
0
11
62.130421
21
-36.52962
31
0
39
0
210
0
220
0
230
1
0
LINE
5
BB
100
AcDbEntity
8
1
62
256
6
ByLayer
370
13
48
1
60
0
100
AcDbLine
10
10.538675
20
-30.080593
30
0
11
10.538675
21
-9.349221
31
0
39
0
210
0
220
0
230
1
0
LINE
5
BC
100
AcDbEntity
8
1
62
256
6
ByLayer
370
18
48
1
60
0
100
AcDbLine
10
61.931289
20
-35.4
30
0
11
62.334518
21
-35.4
31
0
39
0
210
0
220
0
230
1
0
LINE
5
BD
100
AcDbEntity
8
1
62
256
6
ByLayer
370
13
48
1
60
0
100
AcDbLine
10
62.309958
20
-37.02
30
0
11
62.937861
21
-37.02
31
0
39
0
210
0
220
0
230
1
0
LINE
5
BE
100
AcDbEntity
8
1
62
256
6
ByLayer
370
18
48
1
60
0
100
AcDbLine
10
61.931289
20
-38.6
30
0
11
62.334518
21
-38.6
31
0
39
0
210
0
220
0
230
1
0
LINE
5
BF
100
AcDbEntity
8
1
62
256
6
ByLayer
370
13
48
1
60
0
100
AcDbLine
10
61.961958
20
-35.641251
30
0
11
62.334518
21
-35.641251
31
0
39
0
210
0
220
0
230
1
0
LINE
5
C0
100
AcDbEntity
8
1
62
256
6
ByLayer
370
13
48
1
60
0
100
AcDbLine
10
61.964267
20
-35.658616
30
0
11
62.336037
21
-35.658616
31
0
39
0
210
0
220
0
230
1
0
LINE
5
C1
100
AcDbEntity
8
1
62
256
6
ByLayer
370
13
48
1
60
0
100
AcDbLine
10
61.964267
20
-38.341384
30
0
11
62.336037
21
-38.341384
31
0
39
0
210
0
220
0
230
1
0
LINE
5
C2
100
AcDbEntity
8
1
62
256
6
ByLayer
370
13
48
1
60
0
100
AcDbLine
10
61.961958
20
-38.358749
30
0
11
62.334518
21
-38.358749
31
0
39
0
210
0
220
0
230
1
0
LINE
5
C3
100
AcDbEntity
8
1
62
256
6
ByLayer
370
13
48
1
60
0
100
AcDbLine
10
62.052336
20
-37.649934
30
0
11
62.457959
21
-37.649934
31
0
39
0
210
0
220
0
230
1
0
LINE
5
C4
100
AcDbEntity
8
1
62
256
6
ByLayer
370
13
48
1
60
0
100
AcDbLine
10
62.05801
20
-37.605665
30
0
11
62.477691
21
-37.605665
31
0
39
0
210
0
220
0
230
1
0
LINE
5
C5
100
AcDbEntity
8
1
62
256
6
ByLayer
370
13
48
1
60
0
100
AcDbLine
10
62.052336
20
-36.350066
30
0
11
62.457959
21
-36.350066
31
0
39
0
210
0
220
0
230
1
0
LINE
5
C6
100
AcDbEntity
8
1
62
256
6
ByLayer
370
13
48
1
60
0
100
AcDbLine
10
62.05801
20
-36.394335
30
0
11
62.477691
21
-36.394335
31
0
39
0
210
0
220
0
230
1
0
LINE
5
C7
100
AcDbEntity
8
1
62
256
6
ByLayer
370
13
48
1
60
0
100
AcDbLine
10
62.085045
20
-36.486112
30
0
11
62.549523
21
-36.486112
31
0
39
0
210
0
220
0
230
1
0
LINE
5
C8
100
AcDbEntity
8
1
62
256
6
ByLayer
370
13
48
1
60
0
100
AcDbLine
10
62.590119
20
-37.483085
30
0
11
62.11125
21
-37.483085
31
0
39
0
210
0
220
0
230
1
0
LINE
5
C9
100
AcDbEntity
8
1
62
256
6
ByLayer
370
13
48
1
60
0
100
AcDbLine
10
62.085045
20
-37.513888
30
0
11
62.549523
21
-37.513888
31
0
39
0
210
0
220
0
230
1
0
LINE
5
CA
100
AcDbEntity
8
1
62
256
6
ByLayer
370
18
48
1
60
0
100
AcDbLine
10
49
20
-38.83874
30
0
11
49.020307
21
-38.827016
31
0
39
0
210
0
220
0
230
1
0
LINE
5
CB
100
AcDbEntity
8
1
62
256
6
ByLayer
370
13
48
1
60
0
100
AcDbLine
10
62.215111
20
-37.427733
30
0
11
62.748945
21
-37.427733
31
0
39
0
210
0
220
0
230
1
0
LINE
5
CC
100
AcDbEntity
8
1
62
256
6
ByLayer
370
18
48
1
60
0
100
AcDbLine
10
49
20
-35.16126
30
0
11
49.293185
21
-35.33053
31
0
39
0
210
0
220
0
230
1
0
LINE
5
CD
100
AcDbEntity
8
1
62
256
6
ByLayer
370
13
48
1
60
0
100
AcDbLine
10
62.590119
20
-36.516915
30
0
11
62.11125
21
-36.516915
31
0
39
0
210
0
220
0
230
1
0
LINE
5
CE
100
AcDbEntity
8
1
62
256
6
ByLayer
370
13
48
1
60
0
100
AcDbLine
10
62.215111
20
-36.572267
30
0
11
62.748945
21
-36.572267
31
0
39
0
210
0
220
0
230
1
0
LINE
5
CF
100
AcDbEntity
8
1
62
256
6
ByLayer
370
13
48
1
60
0
100
AcDbLine
10
62.309962
20
-37.210736
30
0
11
62.928946
21
-37.210736
31
0
39
0
210
0
220
0
230
1
0
LINE
5
D0
100
AcDbEntity
8
1
62
256
6
ByLayer
370
13
48
1
60
0
100
AcDbLine
10
62.309962
20
-36.789264
30
0
11
62.928946
21
-36.789264
31
0
39
0
210
0
220
0
230
1
0
LINE
5
D1
100
AcDbEntity
8
1
62
256
6
ByLayer
370
13
48
1
60
0
100
AcDbLine
10
62.309958
20
-36.98
30
0
11
62.937861
21
-36.98
31
0
39
0
210
0
220
0
230
1
0
LINE
5
D2
100
AcDbEntity
8
1
62
256
6
ByLayer
370
18
48
1
60
0
100
AcDbLine
10
63.63
20
-35.4
30
0
11
65.58649
21
-35.4
31
0
39
0
210
0
220
0
230
1
0
LINE
5
D3
100
AcDbEntity
8
1
62
256
6
ByLayer
370
18
48
1
60
0
100
AcDbLine
10
62.937861
20
-37.02
30
0
11
62.937861
21
-36.98
31
0
39
0
210
0
220
0
230
1
0
LINE
5
D4
100
AcDbEntity
8
1
62
256
6
ByLayer
370
18
48
1
60
0
100
AcDbLine
10
63.63
20
-35.4
30
0
11
62.334518
21
-35.4
31
0
39
0
210
0
220
0
230
1
0
LINE
5
D5
100
AcDbEntity
8
1
62
256
6
ByLayer
370
18
48
1
60
0
100
AcDbLine
10
62.334518
20
-35.4
30
0
11
62.334518
21
-35.641251
31
0
39
0
210
0
220
0
230
1
0
LINE
5
D6
100
AcDbEntity
8
1
62
256
6
ByLayer
370
18
48
1
60
0
100
AcDbLine
10
62.336037
20
-35.658616
30
0
11
62.457959
21
-36.350066
31
0
39
0
210
0
220
0
230
1
0
LINE
5
D7
100
AcDbEntity
8
1
62
256
6
ByLayer
370
18
48
1
60
0
100
AcDbLine
10
62.477691
20
-36.394335
30
0
11
62.549523
21
-36.486112
31
0
39
0
210
0
220
0
230
1
0
LINE
5
D8
100
AcDbEntity
8
1
62
256
6
ByLayer
370
18
48
1
60
0
100
AcDbLine
10
63.63
20
-38.6
30
0
11
63.63
21
-35.4
31
0
39
0
210
0
220
0
230
1
0
LINE
5
D9
100
AcDbEntity
8
1
62
256
6
ByLayer
370
18
48
1
60
0
100
AcDbLine
10
70
20
-38.7
30
0
11
70
21
-35.3
31
0
39
0
210
0
220
0
230
1
0
LINE
5
DA
100
AcDbEntity
8
1
62
256
6
ByLayer
370
18
48
1
60
0
100
AcDbLine
10
69.686914
20
-35.000286
30
0
11
66
21
-35.16126
31
0
39
0
210
0
220
0
230
1
0
LINE
5
DB
100
AcDbEntity
8
1
62
256
6
ByLayer
370
18
48
1
60
0
100
AcDbLine
10
66
20
-35.16126
30
0
11
65.58649
21
-35.4
31
0
39
0
210
0
220
0
230
1
0
LINE
5
DC
100
AcDbEntity
8
1
62
256
6
ByLayer
370
18
48
1
60
0
100
AcDbLine
10
45.313086
20
-35.000286
30
0
11
49
21
-35.16126
31
0
39
0
210
0
220
0
230
1
0
LINE
5
DD
100
AcDbEntity
8
1
62
256
6
ByLayer
370
18
48
1
60
0
100
AcDbLine
10
63.63
20
-38.6
30
0
11
62.334518
21
-38.6
31
0
39
0
210
0
220
0
230
1
0
LINE
5
DE
100
AcDbEntity
8
1
62
256
6
ByLayer
370
18
48
1
60
0
100
AcDbLine
10
62.334518
20
-38.6
30
0
11
62.334518
21
-38.358749
31
0
39
0
210
0
220
0
230
1
0
LINE
5
DF
100
AcDbEntity
8
1
62
256
6
ByLayer
370
18
48
1
60
0
100
AcDbLine
10
62.336037
20
-38.341384
30
0
11
62.457959
21
-37.649934
31
0
39
0
210
0
220
0
230
1
0
LINE
5
E0
100
AcDbEntity
8
1
62
256
6
ByLayer
370
18
48
1
60
0
100
AcDbLine
10
62.477691
20
-37.605665
30
0
11
62.549523
21
-37.513888
31
0
39
0
210
0
220
0
230
1
0
LINE
5
E1
100
AcDbEntity
8
1
62
256
6
ByLayer
370
18
48
1
60
0
100
AcDbLine
10
69.686914
20
-38.999714
30
0
11
66
21
-38.83874
31
0
39
0
210
0
220
0
230
1
0
LINE
5
E2
100
AcDbEntity
8
1
62
256
6
ByLayer
370
18
48
1
60
0
100
AcDbLine
10
66
20
-38.83874
30
0
11
65.58649
21
-38.6
31
0
39
0
210
0
220
0
230
1
0
LINE
5
E3
100
AcDbEntity
8
1
62
256
6
ByLayer
370
18
48
1
60
0
100
AcDbLine
10
63.63
20
-38.6
30
0
11
65.58649
21
-38.6
31
0
39
0
210
0
220
0
230
1
0
LINE
5
E4
100
AcDbEntity
8
1
62
256
6
ByLayer
370
18
48
1
60
0
100
AcDbLine
10
45.313086
20
-38.999714
30
0
11
49
21
-38.83874
31
0
39
0
210
0
220
0
230
1
0
MTEXT
5
14B
100
AcDbEntity
8
SK6
62
256
6
ByLayer
370
18
48
1
60
0
100
AcDbMText
10
-15.625
20
-56.235741
30
0
210
0
220
0
230
1
1
\W0.7481;C6-LF123H25CE-220B
40
3.5
41
0
44
1.084337
50
0
71
7
72
5
7
iso_b_vert
0
DIMENSION
5
15D
100
AcDbEntity
8
SK2
62
256
6
ByLayer
370
13
48
1
60
0
100
AcDbDimension
2
DimnDraft3D1
10
70
20
54.1
30
0
11
32.909211
21
54.1
31
0
70
32
71
5
72
1
41
1
210
0
220
0
230
1
3
Standard
100
AcDbAlignedDimension
13
0
23
2
33
0
14
70
24
-37
34
0
50
0
100
AcDbRotatedDimension
1001
ACAD
1000
DSTYLE
1002
{
1070
   279
1070
     0
1070
   172
1070
     1
1070
   173
1070
     1
1070
   340
1005
14C
1070
   271
1070
     1
1070
    77
1070
     1
1070
    73
1070
     0
1070
   171
1070
     3
1070
   274
1070
     4
1070
   177
1070
     2
1070
   176
1070
     2
1070
   178
1070
     7
1070
    78
1070
     8
1070
    41
1041
3.175
1070
   147
1041
1.75
1070
    42
1041
2.0
1070
    44
1041
2.0
1070
   140
1041
3.5
1070
   343
1005
15E
1070
   344
1005
15E
1002
}
0
DIMENSION
5
173
100
AcDbEntity
8
2
62
256
6
ByLayer
370
13
48
1
60
0
100
AcDbDimension
2
DimnDraft3D2
10
45
20
-55.321483
30
0
11
55.409211
21
-55.321483
31
0
70
32
71
5
72
1
41
1
210
0
220
0
230
1
3
Standard
100
AcDbAlignedDimension
13
70
23
-41
33
0
14
45
24
-33.5
34
0
50
0
100
AcDbRotatedDimension
1001
ACAD
1000
DSTYLE
1002
{
1070
   279
1070
     0
1070
   172
1070
     1
1070
   173
1070
     1
1070
   340
1005
14C
1070
   271
1070
     1
1070
    77
1070
     1
1070
    73
1070
     0
1070
   171
1070
     3
1070
   274
1070
     4
1070
   177
1070
     2
1070
   176
1070
     2
1070
   178
1070
     7
1070
    78
1070
     8
1070
    41
1041
3.175
1070
   147
1041
1.75
1070
    42
1041
2.0
1070
    44
1041
2.0
1070
   140
1041
3.5
1070
   343
1005
15E
1070
   344
1005
15E
1002
}
0
DIMENSION
5
181
100
AcDbEntity
8
SK2
62
256
6
ByLayer
370
13
48
1
60
0
100
AcDbDimension
2
DimnDraft3D3
10
-47.6
20
31.5
30
0
11
-47.6
21
-2.090789
31
0
70
32
71
5
72
1
41
1
210
0
220
0
230
1
3
Standard
100
AcDbAlignedDimension
13
-2
23
-31.5
33
0
14
-2
24
31.5
34
0
50
90
100
AcDbRotatedDimension
1001
ACAD
1000
DSTYLE
1002
{
1070
    74
1070
     0
1070
   279
1070
     0
1070
   172
1070
     1
1070
   173
1070
     1
1070
   340
1005
14C
1070
   271
1070
     1
1070
    77
1070
     1
1070
    73
1070
     0
1070
   171
1070
     3
1070
   274
1070
     4
1070
   177
1070
     2
1070
   176
1070
     2
1070
   178
1070
     7
1070
    78
1070
     8
1070
    41
1041
3.175
1070
   147
1041
1.75
1070
    42
1041
2.0
1070
    44
1041
2.0
1070
   140
1041
3.5
1070
   343
1005
15E
1070
   344
1005
15E
1002
}
0
DIMENSION
5
18F
100
AcDbEntity
8
2
62
256
6
ByLayer
370
13
48
1
60
0
100
AcDbDimension
2
DimnDraft3D4
10
95.1
20
-39
30
0
11
95.1
21
-21.590789
31
0
70
32
71
5
72
1
41
1
210
0
220
0
230
1
3
Standard
100
AcDbAlignedDimension
13
63
23
0
33
0
14
72
24
-39
34
0
50
90
100
AcDbRotatedDimension
1001
ACAD
1000
DSTYLE
1002
{
1070
    74
1070
     0
1070
   279
1070
     0
1070
   172
1070
     1
1070
   173
1070
     1
1070
   340
1005
14C
1070
   271
1070
     1
1070
    77
1070
     1
1070
    73
1070
     0
1070
   171
1070
     3
1070
   274
1070
     4
1070
   177
1070
     2
1070
   176
1070
     2
1070
   178
1070
     7
1070
    78
1070
     8
1070
    41
1041
3.175
1070
   147
1041
1.75
1070
    42
1041
2.0
1070
    44
1041
2.0
1070
   140
1041
3.5
1070
   343
1005
15E
1070
   344
1005
15E
1002
}
0
DIMENSION
5
19D
100
AcDbEntity
8
2
62
256
6
ByLayer
370
13
48
1
60
0
100
AcDbDimension
2
DimnDraft3D5
10
88.1
20
-35
30
0
11
88.1
21
-51.189211
31
0
70
32
71
5
72
1
41
1
210
0
220
0
230
1
3
Standard
100
AcDbAlignedDimension
13
72
23
-39
33
0
14
72
24
-35
34
0
50
90
100
AcDbRotatedDimension
1001
ACAD
1000
DSTYLE
1002
{
1070
    74
1070
     0
1070
   279
1070
     0
1070
   172
1070
     1
1070
   173
1070
     1
1070
   340
1005
14C
1070
   271
1070
     1
1070
    77
1070
     1
1070
    73
1070
     0
1070
   171
1070
     3
1070
   274
1070
     4
1070
   177
1070
     2
1070
   176
1070
     2
1070
   178
1070
     7
1070
    78
1070
     8
1070
    41
1041
3.175
1070
   147
1041
1.75
1070
    42
1041
2.0
1070
    44
1041
2.0
1070
   140
1041
3.5
1070
   343
1005
15E
1070
   344
1005
15E
1002
}
0
ENDSEC
0
SECTION
2
OBJECTS
0
DICTIONARY
5
207
330
0
100
AcDbDictionary
280
0
281
1
3
ACAD_GROUP
350
208
3
ACAD_MLINESTYLE
350
209
0
DICTIONARY
5
208
330
0
100
AcDbDictionary
280
0
281
1
0
DICTIONARY
5
209
330
0
100
AcDbDictionary
280
0
281
1
3
Standard
350
18
0
MLINESTYLE
5
18
330
209
100
AcDbMlineStyle
2
Standard
70
0
3

62
256
51
90
52
90
71
2
49
-0.5
62
256
6
ByLayer
49
0.5
62
256
6
ByLayer
0
RASTERVARIABLES
5
1f6
330

100
AcDbRasterVariables
90
0
70
1
71
1
72
1
0
ENDSEC
0
EOF
