0
SECTION
2
HEADER
9
$ACADVER
1
AC1015
9
$DWGCODEPAGE
3
ANSI_1252
9
$HANDSEED
5
29a
9
$ANGBASE
50
0
9
$ANGDIR
70
0
9
$ATTMODE
70
1
9
$AUNITS
70
0
9
$AUPREC
70
0
9
$CECOLOR
62
256
9
$CELTSCALE
40
1
9
$CELTYPE
6
ByLayer
9
$CELWEIGHT
370
18
9
$CLAYER
8
0
9
$CMLJUST
70
0
9
$CMLSCALE
40
1
9
$CMLSTYLE
2
Standard
9
$DIMSTYLE
2
Standard
9
$TEXTSIZE
40
0.2
9
$TEXTSTYLE
7
Standard
9
$LUNITS
70
2
9
$LUPREC
70
4
9
$EXTNAMES
290
1
9
$INSUNITS
70
4
9
$LTSCALE
40
1
9
$LWDISPLAY
290
1
9
$PDMODE
70
0
9
$PDSIZE
40
0
9
$PLINEGEN
70
0
0
ENDSEC
0
SECTION
2
CLASSES
0
CLASS
1
RASTERVARIABLES
2
AcDbRasterVariables
3
ISM
90
0
280
0
281
0
0
ENDSEC
0
SECTION
2
TABLES
0
TABLE
2
VPORT
5
290
100
AcDbSymbolTable
0
VPORT
5
1
100
AcDbSymbolTableRecord
100
AcDbViewportTableRecord
2
*Active
70
0
10
0
20
0
11
1
21
1
12
-1
22
1
13
0
23
0
14
0.5
24
0.5
15
10
25
10
16
0
26
0
36
1
17
0
27
0
37
0
0
ENDTAB
0
TABLE
2
LTYPE
5
291
100
AcDbSymbolTable
0
LTYPE
5
14
100
AcDbSymbolTableRecord
100
AcDbLinetypeTableRecord
70
0
2
ByBlock
3

72
65
73
0
40
0
0
LTYPE
5
15
100
AcDbSymbolTableRecord
100
AcDbLinetypeTableRecord
70
0
2
ByLayer
3

72
65
73
0
40
0
0
LTYPE
5
16
100
AcDbSymbolTableRecord
100
AcDbLinetypeTableRecord
70
0
2
CONTINUOUS
3
Solid line
72
65
73
0
40
0
0
LTYPE
5
6A
100
AcDbSymbolTableRecord
100
AcDbLinetypeTableRecord
70
0
2
CENTER
3
____ _ ____ _ ____ _ ____
72
65
73
4
40
47.5
49
22
74
0
49
-8.5
74
0
49
8.5
74
0
49
-8.5
74
0
0
LTYPE
5
6B
100
AcDbSymbolTableRecord
100
AcDbLinetypeTableRecord
70
0
2
DASHED
3
__ __ __ __ __ __ __ __ __
72
65
73
2
40
25.72
49
12.86
74
0
49
-12.86
74
0
0
ENDTAB
0
TABLE
2
LAYER
5
292
100
AcDbSymbolTable
0
LAYER
5
10
100
AcDbSymbolTableRecord
100
AcDbLayerTableRecord
2
0
70
0
62
7
6
CONTINUOUS
290
1
370
-3
390
0
0
LAYER
5
6D
100
AcDbSymbolTableRecord
100
AcDbLayerTableRecord
2
81
70
0
62
-3
6
CONTINUOUS
290
1
370
-3
390
0
0
LAYER
5
6F
100
AcDbSymbolTableRecord
100
AcDbLayerTableRecord
2
80
70
0
62
-6
6
CONTINUOUS
290
1
370
-3
390
0
0
LAYER
5
71
100
AcDbSymbolTableRecord
100
AcDbLayerTableRecord
2
4
70
0
62
-2
6
CENTER
290
1
370
-3
390
0
0
LAYER
5
73
100
AcDbSymbolTableRecord
100
AcDbLayerTableRecord
2
1
70
0
62
4
6
CONTINUOUS
290
1
370
-3
390
0
0
LAYER
5
1EC
100
AcDbSymbolTableRecord
100
AcDbLayerTableRecord
2
2
70
0
62
7
6
CONTINUOUS
290
1
370
-3
390
0
0
LAYER
5
27c
100
AcDbSymbolTableRecord
100
AcDbLayerTableRecord
2
SK1
70
0
62
4
6
CONTINUOUS
290
1
370
-3
390
0
0
LAYER
5
27d
100
AcDbSymbolTableRecord
100
AcDbLayerTableRecord
2
SK4
70
0
62
2
6
CENTER
290
1
370
-3
390
0
0
LAYER
5
27e
100
AcDbSymbolTableRecord
100
AcDbLayerTableRecord
2
SK6
70
0
62
5
6
CONTINUOUS
290
1
370
-3
390
0
0
LAYER
5
27f
100
AcDbSymbolTableRecord
100
AcDbLayerTableRecord
2
SK2
70
0
62
7
6
CONTINUOUS
290
1
370
-3
390
0
0
ENDTAB
0
TABLE
2
STYLE
5
293
100
AcDbSymbolTable
0
STYLE
5
11
100
AcDbSymbolTableRecord
100
AcDbTextStyleTableRecord
2
Standard
3
txt
70
0
71
0
40
0
41
1
42
0
50
0
0
STYLE
5
1D1
100
AcDbSymbolTableRecord
100
AcDbTextStyleTableRecord
2
iso_b_vert
3
simplex.shx
70
0
71
0
40
0
41
1
42
0
50
0
0
STYLE
5
1D2
100
AcDbSymbolTableRecord
100
AcDbTextStyleTableRecord
2
DWGDirectTextStyle
3
simplex
70
0
71
0
40
0
41
1
42
0
50
0
0
ENDTAB
0
TABLE
2
DIMSTYLE
5
294
100
AcDbSymbolTable
100
AcDbDimStyleTable
0
DIMSTYLE
105
27
100
AcDbSymbolTableRecord
100
AcDbDimStyleTableRecord
2
Standard
70
0
3
<>
41
0.18
42
0.0625
44
0.18
140
0.18
147
0.09
73
0
74
0
77
1
271
2
275
0
278
52
280
0
340
11
0
ENDTAB
0
TABLE
2
VIEW
5
295
100
AcDbSymbolTable
0
ENDTAB
0
TABLE
2
UCS
5
296
100
AcDbSymbolTable
0
ENDTAB
0
TABLE
2
APPID
5
297
100
AcDbSymbolTable
0
APPID
5
12
100
AcDbSymbolTableRecord
100
AcDbRegAppTableRecord
2
ACAD
70
0
0
ENDTAB
0
TABLE
2
BLOCK_RECORD
5
298
100
AcDbSymbolTable
0
BLOCK_RECORD
5
1F
100
AcDbSymbolTableRecord
100
AcDbBlockTableRecord
2
*Model_Space
340
0
70
0
0
BLOCK_RECORD
5
1B
100
AcDbSymbolTableRecord
100
AcDbBlockTableRecord
2
*Paper_Space
340
0
70
0
0
BLOCK_RECORD
5
23
100
AcDbSymbolTableRecord
100
AcDbBlockTableRecord
2
*Paper_Space0
340
0
70
0
0
BLOCK_RECORD
5
1D4
100
AcDbSymbolTableRecord
100
AcDbBlockTableRecord
2
DimnDraft3D1
340
0
70
0
0
BLOCK_RECORD
5
1E3
100
AcDbSymbolTableRecord
100
AcDbBlockTableRecord
2
_CLOSED
340
0
70
0
0
BLOCK_RECORD
5
1EA
100
AcDbSymbolTableRecord
100
AcDbBlockTableRecord
2
DimnDraft3D2
340
0
70
0
0
BLOCK_RECORD
5
1F9
100
AcDbSymbolTableRecord
100
AcDbBlockTableRecord
2
DimnDraft3D3
340
0
70
0
0
BLOCK_RECORD
5
207
100
AcDbSymbolTableRecord
100
AcDbBlockTableRecord
2
DimnDraft3D4
340
0
70
0
0
BLOCK_RECORD
5
215
100
AcDbSymbolTableRecord
100
AcDbBlockTableRecord
2
DimnDraft3D5
340
0
70
0
0
ENDTAB
0
ENDSEC
0
SECTION
2
BLOCKS
0
BLOCK
5
20
100
AcDbEntity
8
0
100
AcDbBlockBegin
2
*Model_Space
70
0
10
0
20
0
30
0
3
*Model_Space
0
ENDBLK
5
21
100
AcDbEntity
8
0
100
AcDbBlockEnd
0
BLOCK
5
1C
100
AcDbEntity
8
0
100
AcDbBlockBegin
2
*Paper_Space
70
0
10
0
20
0
30
0
3
*Paper_Space
0
ENDBLK
5
1D
100
AcDbEntity
8
0
100
AcDbBlockEnd
0
BLOCK
5
24
100
AcDbEntity
8
0
100
AcDbBlockBegin
2
*Paper_Space0
70
0
10
0
20
0
30
0
3
*Paper_Space0
0
ENDBLK
5
25
100
AcDbEntity
8
0
100
AcDbBlockEnd
0
BLOCK
5
1E0
100
AcDbEntity
8
0
100
AcDbBlockBegin
2
DimnDraft3D1
70
0
10
0
20
0
30
0
3
DimnDraft3D1
0
MTEXT
5
1D5
100
AcDbEntity
8
SK2
62
256
6
ByLayer
370
18
48
1
60
0
100
AcDbMText
10
-50.915489
20
-4.452632
30
0
210
0
220
0
230
1
1
\W1.2949;%%c63
40
3
41
0
44
1.084337
50
90
71
7
72
5
7
iso_b_vert
0
LINE
5
1D7
100
AcDbEntity
8
SK2
62
256
6
ByLayer
370
13
48
1
60
0
100
AcDbLine
10
-1.7
20
-31.5
30
0
11
-51.415489
21
-31.5
31
0
39
0
210
0
220
0
230
1
0
LINE
5
1D8
100
AcDbEntity
8
SK2
62
256
6
ByLayer
370
13
48
1
60
0
100
AcDbLine
10
-1.7
20
31.5
30
0
11
-51.415489
21
31.5
31
0
39
0
210
0
220
0
230
1
0
LINE
5
1D9
100
AcDbEntity
8
SK2
62
256
6
ByLayer
370
13
48
1
60
0
100
AcDbLine
10
-49.415489
20
-31.5
30
0
11
-49.415489
21
31.5
31
0
39
0
210
0
220
0
230
1
0
LINE
5
1DA
100
AcDbEntity
8
SK2
62
256
6
ByLayer
370
13
48
1
60
0
100
AcDbLine
10
-49.415489
20
-31.5
30
0
11
-49.833486
21
-28.325002
31
0
39
0
210
0
220
0
230
1
0
LINE
5
1DB
100
AcDbEntity
8
SK2
62
256
6
ByLayer
370
13
48
1
60
0
100
AcDbLine
10
-49.415489
20
-31.5
30
0
11
-48.997492
21
-28.324998
31
0
39
0
210
0
220
0
230
1
0
LINE
5
1DC
100
AcDbEntity
8
SK2
62
256
6
ByLayer
370
13
48
1
60
0
100
AcDbLine
10
-49.833486
20
-28.325002
30
0
11
-48.997492
21
-28.324998
31
0
39
0
210
0
220
0
230
1
0
LINE
5
1DD
100
AcDbEntity
8
SK2
62
256
6
ByLayer
370
13
48
1
60
0
100
AcDbLine
10
-49.415489
20
31.5
30
0
11
-48.997492
21
28.325002
31
0
39
0
210
0
220
0
230
1
0
LINE
5
1DE
100
AcDbEntity
8
SK2
62
256
6
ByLayer
370
13
48
1
60
0
100
AcDbLine
10
-49.415489
20
31.5
30
0
11
-49.833486
21
28.324998
31
0
39
0
210
0
220
0
230
1
0
LINE
5
1DF
100
AcDbEntity
8
SK2
62
256
6
ByLayer
370
13
48
1
60
0
100
AcDbLine
10
-48.997492
20
28.325002
30
0
11
-49.833486
21
28.324998
31
0
39
0
210
0
220
0
230
1
0
ENDBLK
5
1E1
100
AcDbEntity
8
0
100
AcDbBlockEnd
0
BLOCK
5
1E4
100
AcDbEntity
8
0
100
AcDbBlockBegin
2
_CLOSED
70
0
10
0
20
0
30
0
3
_CLOSED
0
LINE
5
1E6
100
AcDbEntity
8
0
62
256
6
ByLayer
370
-2
48
1
60
0
100
AcDbLine
10
-1
20
0.166667
30
0
11
0
21
0
31
0
39
0
210
0
220
0
230
1
0
LINE
5
1E7
100
AcDbEntity
8
0
62
256
6
ByLayer
370
-2
48
1
60
0
100
AcDbLine
10
0
20
0
30
0
11
-1
21
-0.166667
31
0
39
0
210
0
220
0
230
1
0
LINE
5
1E8
100
AcDbEntity
8
0
62
256
6
ByLayer
370
-2
48
1
60
0
100
AcDbLine
10
-1
20
0.166667
30
0
11
-1
21
-0.166667
31
0
39
0
210
0
220
0
230
1
0
LINE
5
1E9
100
AcDbEntity
8
0
62
256
6
ByLayer
370
-2
48
1
60
0
100
AcDbLine
10
0
20
0
30
0
11
-1
21
0
31
0
39
0
210
0
220
0
230
1
0
ENDBLK
5
1E5
100
AcDbEntity
8
0
100
AcDbBlockEnd
0
BLOCK
5
1F6
100
AcDbEntity
8
0
100
AcDbBlockBegin
2
DimnDraft3D2
70
0
10
0
20
0
30
0
3
DimnDraft3D2
0
MTEXT
5
1EB
100
AcDbEntity
8
2
62
256
6
ByLayer
370
18
48
1
60
0
100
AcDbMText
10
58.152471
20
61.467074
30
0
210
0
220
0
230
1
1
\W0.6044;120
40
3
41
0
44
1.084337
50
0
71
7
72
5
7
iso_b_vert
0
LINE
5
1ED
100
AcDbEntity
8
2
62
256
6
ByLayer
370
13
48
1
60
0
100
AcDbLine
10
0
20
33.2
30
0
11
0
21
62.717074
31
0
39
0
210
0
220
0
230
1
0
LINE
5
1EE
100
AcDbEntity
8
2
62
256
6
ByLayer
370
13
48
1
60
0
100
AcDbLine
10
119.762836
20
34.944162
30
0
11
119.762836
21
62.717074
31
0
39
0
210
0
220
0
230
1
0
LINE
5
1EF
100
AcDbEntity
8
2
62
256
6
ByLayer
370
13
48
1
60
0
100
AcDbLine
10
0
20
60.717074
30
0
11
119.762836
21
60.717074
31
0
39
0
210
0
220
0
230
1
0
LINE
5
1F0
100
AcDbEntity
8
2
62
256
6
ByLayer
370
13
48
1
60
0
100
AcDbLine
10
0
20
60.717074
30
0
11
3.174998
21
61.135071
31
0
39
0
210
0
220
0
230
1
0
LINE
5
1F1
100
AcDbEntity
8
2
62
256
6
ByLayer
370
13
48
1
60
0
100
AcDbLine
10
0
20
60.717074
30
0
11
3.175002
21
60.299078
31
0
39
0
210
0
220
0
230
1
0
LINE
5
1F2
100
AcDbEntity
8
2
62
256
6
ByLayer
370
13
48
1
60
0
100
AcDbLine
10
3.174998
20
61.135071
30
0
11
3.175002
21
60.299078
31
0
39
0
210
0
220
0
230
1
0
LINE
5
1F3
100
AcDbEntity
8
2
62
256
6
ByLayer
370
13
48
1
60
0
100
AcDbLine
10
119.762836
20
60.717074
30
0
11
116.587838
21
60.299078
31
0
39
0
210
0
220
0
230
1
0
LINE
5
1F4
100
AcDbEntity
8
2
62
256
6
ByLayer
370
13
48
1
60
0
100
AcDbLine
10
119.762836
20
60.717074
30
0
11
116.587834
21
61.135071
31
0
39
0
210
0
220
0
230
1
0
LINE
5
1F5
100
AcDbEntity
8
2
62
256
6
ByLayer
370
13
48
1
60
0
100
AcDbLine
10
116.587838
20
60.299078
30
0
11
116.587834
21
61.135071
31
0
39
0
210
0
220
0
230
1
0
ENDBLK
5
1F7
100
AcDbEntity
8
0
100
AcDbBlockEnd
0
BLOCK
5
204
100
AcDbEntity
8
0
100
AcDbBlockBegin
2
DimnDraft3D3
70
0
10
0
20
0
30
0
3
DimnDraft3D3
0
MTEXT
5
1FA
100
AcDbEntity
8
2
62
256
6
ByLayer
370
18
48
1
60
0
100
AcDbMText
10
135.642451
20
13.779976
30
0
210
0
220
0
230
1
1
\W0.7259;32.9
40
3
41
0
44
1.084337
50
90
71
7
72
5
7
iso_b_vert
0
LINE
5
1FB
100
AcDbEntity
8
2
62
256
6
ByLayer
370
13
48
1
60
0
100
AcDbLine
10
121.762836
20
32.944162
30
0
11
138.392451
21
32.944162
31
0
39
0
210
0
220
0
230
1
0
LINE
5
1FC
100
AcDbEntity
8
2
62
256
6
ByLayer
370
13
48
1
60
0
100
AcDbLine
10
116.566067
20
0
30
0
11
138.392451
21
0
31
0
39
0
210
0
220
0
230
1
0
LINE
5
1FD
100
AcDbEntity
8
2
62
256
6
ByLayer
370
13
48
1
60
0
100
AcDbLine
10
136.392451
20
32.944162
30
0
11
136.392451
21
0
31
0
39
0
210
0
220
0
230
1
0
LINE
5
1FE
100
AcDbEntity
8
2
62
256
6
ByLayer
370
13
48
1
60
0
100
AcDbLine
10
136.392451
20
32.944162
30
0
11
136.810448
21
29.769164
31
0
39
0
210
0
220
0
230
1
0
LINE
5
1FF
100
AcDbEntity
8
2
62
256
6
ByLayer
370
13
48
1
60
0
100
AcDbLine
10
136.392451
20
32.944162
30
0
11
135.974455
21
29.769161
31
0
39
0
210
0
220
0
230
1
0
LINE
5
200
100
AcDbEntity
8
2
62
256
6
ByLayer
370
13
48
1
60
0
100
AcDbLine
10
136.810448
20
29.769164
30
0
11
135.974455
21
29.769161
31
0
39
0
210
0
220
0
230
1
0
LINE
5
201
100
AcDbEntity
8
2
62
256
6
ByLayer
370
13
48
1
60
0
100
AcDbLine
10
136.392451
20
0
30
0
11
135.974455
21
3.174998
31
0
39
0
210
0
220
0
230
1
0
LINE
5
202
100
AcDbEntity
8
2
62
256
6
ByLayer
370
13
48
1
60
0
100
AcDbLine
10
136.392451
20
0
30
0
11
136.810448
21
3.175002
31
0
39
0
210
0
220
0
230
1
0
LINE
5
203
100
AcDbEntity
8
2
62
256
6
ByLayer
370
13
48
1
60
0
100
AcDbLine
10
135.974455
20
3.174998
30
0
11
136.810448
21
3.175002
31
0
39
0
210
0
220
0
230
1
0
ENDBLK
5
205
100
AcDbEntity
8
0
100
AcDbBlockEnd
0
BLOCK
5
212
100
AcDbEntity
8
0
100
AcDbBlockBegin
2
DimnDraft3D4
70
0
10
0
20
0
30
0
3
DimnDraft3D4
0
MTEXT
5
208
100
AcDbEntity
8
2
62
256
6
ByLayer
370
18
48
1
60
0
100
AcDbMText
10
105.423715
20
44.25478
30
0
210
0
220
0
230
1
1
\W0.7505;76%%d17'
40
3
41
0
44
1.084337
50
38.1391756326113
71
7
72
5
7
iso_b_vert
0
LINE
5
209
100
AcDbEntity
8
2
62
256
6
ByLayer
370
13
48
1
60
0
100
AcDbLine
10
119.762836
20
34.944162
30
0
11
119.762836
21
51.945575
31
0
39
0
210
0
220
0
230
1
0
LINE
5
20A
100
AcDbEntity
8
2
62
256
6
ByLayer
370
13
48
1
60
0
100
AcDbLine
10
105.758984
20
36.36354
30
0
11
101.303732
21
37.451397
31
0
39
0
210
0
220
0
230
1
0
ARC
5
20B
100
AcDbEntity
8
2
62
256
6
ByLayer
370
13
48
1
60
0
100
AcDbCircle
39
0
10
119.762836
20
32.944162
30
0
40
17.0014122186369
210
0
220
0
230
1
100
AcDbArc
50
90
51
166.278351
0
LINE
5
20C
100
AcDbEntity
8
2
62
256
6
ByLayer
370
13
48
1
60
0
100
AcDbLine
10
119.762836
20
49.945575
30
0
11
116.610729
21
49.380281
31
0
39
0
210
0
220
0
230
1
0
LINE
5
20D
100
AcDbEntity
8
2
62
256
6
ByLayer
370
13
48
1
60
0
100
AcDbLine
10
119.762836
20
49.945575
30
0
11
116.571822
21
50.215368
31
0
39
0
210
0
220
0
230
1
0
LINE
5
20E
100
AcDbEntity
8
2
62
256
6
ByLayer
370
13
48
1
60
0
100
AcDbLine
10
116.610729
20
49.380281
30
0
11
116.571822
21
50.215368
31
0
39
0
210
0
220
0
230
1
0
LINE
5
20F
100
AcDbEntity
8
2
62
256
6
ByLayer
370
13
48
1
60
0
100
AcDbLine
10
103.246651
20
36.976986
30
0
11
103.741482
21
40.14092
31
0
39
0
210
0
220
0
230
1
0
LINE
5
210
100
AcDbEntity
8
2
62
256
6
ByLayer
370
13
48
1
60
0
100
AcDbLine
10
103.246651
20
36.976986
30
0
11
104.543509
21
39.905043
31
0
39
0
210
0
220
0
230
1
0
LINE
5
211
100
AcDbEntity
8
2
62
256
6
ByLayer
370
13
48
1
60
0
100
AcDbLine
10
103.741482
20
40.14092
30
0
11
104.543509
21
39.905043
31
0
39
0
210
0
220
0
230
1
0
ENDBLK
5
213
100
AcDbEntity
8
0
100
AcDbBlockEnd
0
BLOCK
5
220
100
AcDbEntity
8
0
100
AcDbBlockBegin
2
DimnDraft3D5
70
0
10
0
20
0
30
0
3
DimnDraft3D5
0
MTEXT
5
216
100
AcDbEntity
8
2
62
256
6
ByLayer
370
18
48
1
60
0
100
AcDbMText
10
106.551051
20
11.442905
30
0
210
0
220
0
230
1
1
\W0.8425;48%%d0'
40
3
41
0
44
1.084337
50
336
71
7
72
5
7
iso_b_vert
0
LINE
5
217
100
AcDbEntity
8
2
62
256
6
ByLayer
370
13
48
1
60
0
100
AcDbLine
10
109.2522
20
22.496599
30
0
11
99.796469
21
13.982619
31
0
39
0
210
0
220
0
230
1
0
LINE
5
218
100
AcDbEntity
8
2
62
256
6
ByLayer
370
13
48
1
60
0
100
AcDbLine
10
119.762836
20
30.944163
30
0
11
119.762836
21
5.09302
31
0
39
0
210
0
220
0
230
1
0
ARC
5
219
100
AcDbEntity
8
2
62
256
6
ByLayer
370
13
48
1
60
0
100
AcDbCircle
39
0
10
119.762836
20
31.960417
30
0
40
24.867397437017
210
0
220
0
230
1
100
AcDbArc
50
205.216704
51
286.783296
0
LINE
5
21A
100
AcDbEntity
8
2
62
256
6
ByLayer
370
13
48
1
60
0
100
AcDbLine
10
101.282758
20
15.320881
30
0
11
98.915159
21
17.477222
31
0
39
0
210
0
220
0
230
1
0
LINE
5
21B
100
AcDbEntity
8
2
62
256
6
ByLayer
370
13
48
1
60
0
100
AcDbLine
10
101.282758
20
15.320881
30
0
11
99.553933
21
18.016529
31
0
39
0
210
0
220
0
230
1
0
LINE
5
21C
100
AcDbEntity
8
2
62
256
6
ByLayer
370
13
48
1
60
0
100
AcDbLine
10
98.915159
20
17.477222
30
0
11
99.553933
21
18.016529
31
0
39
0
210
0
220
0
230
1
0
LINE
5
21D
100
AcDbEntity
8
2
62
256
6
ByLayer
370
13
48
1
60
0
100
AcDbLine
10
119.762836
20
7.09302
30
0
11
122.9229
21
7.611994
31
0
39
0
210
0
220
0
230
1
0
LINE
5
21E
100
AcDbEntity
8
2
62
256
6
ByLayer
370
13
48
1
60
0
100
AcDbLine
10
119.762836
20
7.09302
30
0
11
122.949546
21
6.776425
31
0
39
0
210
0
220
0
230
1
0
LINE
5
21F
100
AcDbEntity
8
2
62
256
6
ByLayer
370
13
48
1
60
0
100
AcDbLine
10
122.9229
20
7.611994
30
0
11
122.949546
21
6.776425
31
0
39
0
210
0
220
0
230
1
0
ENDBLK
5
221
100
AcDbEntity
8
0
100
AcDbBlockEnd
0
ENDSEC
0
SECTION
2
ENTITIES
0
ARC
5
FA
100
AcDbEntity
8
1
62
256
6
ByLayer
370
18
48
1
60
0
100
AcDbCircle
39
0
10
68.259558
20
63.476876
30
0
40
35.0000000000002
210
0
220
0
230
1
100
AcDbArc
50
271.180532
51
306.62148
0
ELLIPSE
5
FB
100
AcDbEntity
8
1
62
256
6
ByLayer
370
18
48
1
60
0
100
AcDbEllipse
10
94.894406
20
28.790451
30
0
11
-0.578682344499898
21
2.29718215684964
31
0
210
0
220
0
230
1
40
0.984808
41
-0.479965544077216
42
-0.066039329520613
0
ELLIPSE
5
FC
100
AcDbEntity
8
1
62
256
6
ByLayer
370
18
48
1
60
0
100
AcDbEllipse
10
94.827122
20
28.499085
30
0
11
-0.578682345996738
21
2.29718215646975
31
0
210
0
220
0
230
1
40
0.984808
41
1.09083078206633
42
1.44037402030588
0
ELLIPSE
5
FD
100
AcDbEntity
8
1
62
256
6
ByLayer
370
18
48
1
60
0
100
AcDbEllipse
10
94.894406
20
28.790451
30
0
11
-0.578682344967864
21
2.29718215666953
31
0
210
0
220
0
230
1
40
0.984808
41
-0.0660393297283067
42
1.09083078250486
0
ELLIPSE
5
FE
100
AcDbEntity
8
1
62
256
6
ByLayer
370
18
48
1
60
0
100
AcDbEllipse
10
52
20
-21.163254
30
0
11
-2.49999999999854
21
2.52659763770443E-15
31
0
210
0
220
0
230
1
40
0.654767
41
0.800510504355184
42
1.5707963267949
0
ELLIPSE
5
FF
100
AcDbEntity
8
1
62
256
6
ByLayer
370
18
48
1
60
0
100
AcDbEllipse
10
52
20
-21.163254
30
0
11
-2.49999999999998
21
2.52659763770589E-15
31
0
210
0
220
0
230
1
40
0.654767
41
1.5707963267949
42
3.05288601977454
0
ELLIPSE
5
100
100
AcDbEntity
8
1
62
256
6
ByLayer
370
18
48
1
60
0
100
AcDbEllipse
10
98.320982
20
22.011873
30
0
11
-0.103818191893717
21
0.412124717816052
31
0
210
0
220
0
230
1
40
0.984808
41
1.54571918154331
42
2.26395563198348
0
ELLIPSE
5
101
100
AcDbEntity
8
1
62
256
6
ByLayer
370
18
48
1
60
0
100
AcDbEllipse
10
98.320982
20
22.011873
30
0
11
-0.103818192016107
21
0.412124717783666
31
0
210
0
220
0
230
1
40
0.984808
41
0.476211293701565
42
1.19444774414461
0
ELLIPSE
5
102
100
AcDbEntity
8
1
62
256
6
ByLayer
370
18
48
1
60
0
100
AcDbEllipse
10
97.793809
20
22.616858
30
0
11
-0.0928256775221095
21
0.368487982968992
31
0
210
0
220
0
230
1
40
0.984808
41
-2.66538135976864
42
0
0
ELLIPSE
5
103
100
AcDbEntity
8
1
62
256
6
ByLayer
370
18
48
1
60
0
100
AcDbEllipse
10
97.470259
20
23.353596
30
0
11
-0.103818191831506
21
0.41212471783599
31
0
210
0
220
0
230
1
40
0.984808
41
1.52340884535377
42
2.24164529578703
0
ELLIPSE
5
104
100
AcDbEntity
8
1
62
256
6
ByLayer
370
18
48
1
60
0
100
AcDbEllipse
10
96.693053
20
23.197135
30
0
11
-0.0928256775118342
21
0.36848798297201
31
0
210
0
220
0
230
1
40
0.984808
41
-1.61818380854324
42
0
0
ELLIPSE
5
105
100
AcDbEntity
8
1
62
256
6
ByLayer
370
18
48
1
60
0
100
AcDbEllipse
10
95.903803
20
23.286118
30
0
11
-0.103818192115822
21
0.412124717763217
31
0
210
0
220
0
230
1
40
0.984808
41
-2.64307102377951
42
-1.92483457334173
0
ELLIPSE
5
106
100
AcDbEntity
8
1
62
256
6
ByLayer
370
18
48
1
60
0
100
AcDbEllipse
10
95.188072
20
21.876916
30
0
11
-0.10381819185201
21
0.412124717829105
31
0
210
0
220
0
230
1
40
0.984808
41
-1.59587347194208
42
-0.877637021505941
0
ELLIPSE
5
107
100
AcDbEntity
8
1
62
256
6
ByLayer
370
18
48
1
60
0
100
AcDbEllipse
10
95.188072
20
21.876916
30
0
11
-0.103818191830268
21
0.412124717821818
31
0
210
0
220
0
230
1
40
0.984808
41
-2.66538135944653
42
-1.94714490899372
0
ELLIPSE
5
108
100
AcDbEntity
8
1
62
256
6
ByLayer
370
18
48
1
60
0
100
AcDbEllipse
10
95.715245
20
21.271931
30
0
11
-0.0928256775217839
21
0.368487982969094
31
0
210
0
220
0
230
1
40
0.984808
41
0.476211293822139
42
3.14159265358979
0
ELLIPSE
5
109
100
AcDbEntity
8
1
62
256
6
ByLayer
370
18
48
1
60
0
100
AcDbEllipse
10
96.038795
20
20.535193
30
0
11
-0.103818191874994
21
0.41212471782211
31
0
210
0
220
0
230
1
40
0.984808
41
-1.61818380834527
42
-0.899947357907262
0
ELLIPSE
5
10A
100
AcDbEntity
8
1
62
256
6
ByLayer
370
18
48
1
60
0
100
AcDbEllipse
10
96.816001
20
20.691654
30
0
11
-0.092825677511697
21
0.368487982972014
31
0
210
0
220
0
230
1
40
0.984808
41
1.52340884504692
42
3.14159265358979
0
ELLIPSE
5
10B
100
AcDbEntity
8
1
62
256
6
ByLayer
370
18
48
1
60
0
100
AcDbEllipse
10
97.60525
20
20.602671
30
0
11
-0.103818191524125
21
0.41212471788603
31
0
210
0
220
0
230
1
40
0.984808
41
0.498521631215968
42
1.21675808168444
0
ELLIPSE
5
10C
100
AcDbEntity
8
1
62
256
6
ByLayer
370
18
48
1
60
0
100
AcDbEllipse
10
96.754527
20
21.944395
30
0
11
-0.561839627107201
21
2.23032200218086
31
0
210
0
220
0
230
1
40
0.984808
41
0
42
6.28318530717959
0
ELLIPSE
5
10D
100
AcDbEntity
8
1
62
256
6
ByLayer
370
18
48
1
60
0
100
AcDbEllipse
10
96.60857
20
21.907627
30
0
11
-0.977112394969418
21
3.87882087335792
31
0
210
0
220
0
230
1
40
0.984808
41
0.32288591161885
42
3.14159265358979
0
ELLIPSE
5
10E
100
AcDbEntity
8
1
62
256
6
ByLayer
370
18
48
1
60
0
100
AcDbEllipse
10
95.653771
20
22.524672
30
0
11
-0.0928256775222582
21
0.368487982968974
31
0
210
0
220
0
230
1
40
0.984808
41
0
42
2.26395563180924
0
ELLIPSE
5
10F
100
AcDbEntity
8
1
62
256
6
ByLayer
370
18
48
1
60
0
100
AcDbEllipse
10
96.816001
20
20.691654
30
0
11
-0.0928256775172729
21
0.368487982969692
31
0
210
0
220
0
230
1
40
0.984808
41
3.14159265358979
42
-1.92483457296327
0
ELLIPSE
5
110
100
AcDbEntity
8
1
62
256
6
ByLayer
370
18
48
1
60
0
100
AcDbEllipse
10
96.693053
20
23.197135
30
0
11
-0.0928256775058147
21
0.368487982972165
31
0
210
0
220
0
230
1
40
0.984808
41
0
42
1.21675808065767
0
ELLIPSE
5
111
100
AcDbEntity
8
1
62
256
6
ByLayer
370
18
48
1
60
0
100
AcDbEllipse
10
96.314181
20
23.101693
30
0
11
-0.092825677554818
21
0.368487982959352
31
0
210
0
220
0
230
1
40
0.984808
41
-1.61818380866331
42
-0.526371038956722
0
ELLIPSE
5
112
100
AcDbEntity
8
1
62
256
6
ByLayer
370
18
48
1
60
0
100
AcDbEllipse
10
97.226379
20
20.507229
30
0
11
-0.103818191937694
21
0.412124717799894
31
0
210
0
220
0
230
1
40
0.984808
41
0
42
1.21675808068094
0
ELLIPSE
5
113
100
AcDbEntity
8
1
62
256
6
ByLayer
370
18
48
1
60
0
100
AcDbEllipse
10
97.091387
20
23.258155
30
0
11
-0.103818191975952
21
0.412124717791281
31
0
210
0
220
0
230
1
40
0.984808
41
1.52340884499181
42
3.14159265358979
0
ELLIPSE
5
114
100
AcDbEntity
8
1
62
256
6
ByLayer
370
18
48
1
60
0
100
AcDbEllipse
10
97.855283
20
21.364118
30
0
11
-0.092825677525021
21
0.368487982968334
31
0
210
0
220
0
230
1
40
0.984808
41
3.14159265358979
42
-0.877637021788308
0
ELLIPSE
5
115
100
AcDbEntity
8
1
62
256
6
ByLayer
370
18
48
1
60
0
100
AcDbEllipse
10
97.476411
20
21.268676
30
0
11
-0.092825677522262
21
0.36848798296901
31
0
210
0
220
0
230
1
40
0.984808
41
-2.62742535332124
42
-0.877637021780685
0
ELLIPSE
5
116
100
AcDbEntity
8
1
62
256
6
ByLayer
370
18
48
1
60
0
100
AcDbEllipse
10
96.198848
20
21.804414
30
0
11
-0.977112394990421
21
3.87882087335091
31
0
210
0
220
0
230
1
40
0.984808
41
2.16686114737542
42
3.14159265358979
0
ELLIPSE
5
117
100
AcDbEntity
8
1
62
256
6
ByLayer
370
18
48
1
60
0
100
AcDbEllipse
10
96.198848
20
21.804414
30
0
11
-0.977112394818928
21
3.87882087340306
31
0
210
0
220
0
230
1
40
0.984808
41
1.59477237694695
42
2.16686114742004
0
ELLIPSE
5
118
100
AcDbEntity
8
1
62
256
6
ByLayer
370
18
48
1
60
0
100
AcDbEllipse
10
96.198848
20
21.804414
30
0
11
-0.977112394979394
21
3.87882087335583
31
0
210
0
220
0
230
1
40
0.984808
41
0.322885911616358
42
1.5947723769045
0
ELLIPSE
5
119
100
AcDbEntity
8
1
62
256
6
ByLayer
370
18
48
1
60
0
100
AcDbEllipse
10
96.60857
20
21.907627
30
0
11
-0.977112395059527
21
3.87882087335702
31
0
210
0
220
0
230
1
40
0.984808
41
0
42
0.322885911596423
0
ELLIPSE
5
11A
100
AcDbEntity
8
1
62
256
6
ByLayer
370
18
48
1
60
0
100
AcDbEllipse
10
96.60857
20
21.907627
30
0
11
-0.977112394968816
21
3.87882087335807
31
0
210
0
220
0
230
1
40
0.984808
41
3.14159265358979
42
0
0
ELLIPSE
5
11B
100
AcDbEntity
8
1
62
256
6
ByLayer
370
18
48
1
60
0
100
AcDbEllipse
10
96.198848
20
21.804414
30
0
11
-0.977112396654066
21
3.87882087325466
31
0
210
0
220
0
230
1
40
0.984808
41
0
42
0.322885911197768
0
ELLIPSE
5
11C
100
AcDbEntity
8
1
62
256
6
ByLayer
370
18
48
1
60
0
100
AcDbEllipse
10
97.94211
20
21.916431
30
0
11
-0.103818191963586
21
0.412124717794654
31
0
210
0
220
0
230
1
40
0.984808
41
0.476211293825567
42
2.2639556318145
0
ELLIPSE
5
11D
100
AcDbEntity
8
1
62
256
6
ByLayer
370
18
48
1
60
0
100
AcDbEllipse
10
97.414937
20
22.521416
30
0
11
-0.0928256775225556
21
0.368487982968875
31
0
210
0
220
0
230
1
40
0.984808
41
-2.66538135976985
42
-0.247124720589718
0
ELLIPSE
5
11E
100
AcDbEntity
8
1
62
256
6
ByLayer
370
18
48
1
60
0
100
AcDbEllipse
10
96.375655
20
21.848953
30
0
11
-0.280919813434009
21
1.11516100110247
31
0
210
0
220
0
230
1
40
0.984808
41
-3.14159265348803
42
-2.81870674186653
0
ELLIPSE
5
11F
100
AcDbEntity
8
1
62
256
6
ByLayer
370
18
48
1
60
0
100
AcDbEllipse
10
96.375655
20
21.848953
30
0
11
-0.280919813553624
21
1.11516100109043
31
0
210
0
220
0
230
1
40
0.984808
41
-2.81870674197083
42
-0.0893060215012774
0
ELLIPSE
5
120
100
AcDbEntity
8
1
62
256
6
ByLayer
370
18
48
1
60
0
100
AcDbEllipse
10
96.375655
20
21.848953
30
0
11
-0.280919811857591
21
1.115161002062
31
0
210
0
220
0
230
1
40
0.984808
41
2.90008079563795
42
-3.14159265197826
0
ELLIPSE
5
121
100
AcDbEntity
8
1
62
256
6
ByLayer
370
18
48
1
60
0
100
AcDbEllipse
10
96.375655
20
21.848953
30
0
11
-0.280919812801081
21
1.11516100131559
31
0
210
0
220
0
230
1
40
0.984808
41
1.77874387021951
42
2.30053120542567
0
ELLIPSE
5
122
100
AcDbEntity
8
1
62
256
6
ByLayer
370
18
48
1
60
0
100
AcDbEllipse
10
96.375655
20
21.848953
30
0
11
-0.280919812901118
21
1.11516100121873
31
0
210
0
220
0
230
1
40
0.984808
41
0.340724619528326
42
0.889937394335327
0
ELLIPSE
5
123
100
AcDbEntity
8
1
62
256
6
ByLayer
370
18
48
1
60
0
100
AcDbEllipse
10
96.232526
20
21.812897
30
0
11
-0.280919813553581
21
1.11516100109043
31
0
210
0
220
0
230
1
40
0.984808
41
3.14159265358979
42
-0.179033329648342
0
ELLIPSE
5
124
100
AcDbEntity
8
1
62
256
6
ByLayer
370
18
48
1
60
0
100
AcDbEllipse
10
88.859749
20
22.163958
30
0
11
-0.0236972480144736
21
-1.99985960518175
31
0
210
0
220
0
230
1
40
0.747978
41
-2.49574042082588
42
-1.08306492656649
0
ELLIPSE
5
125
100
AcDbEntity
8
1
62
256
6
ByLayer
370
18
48
1
60
0
100
AcDbEllipse
10
93.357975
20
15.069555
30
0
11
-1.7123757168685
21
1.03332928163211
31
0
210
0
220
0
230
1
40
0.783271
41
1.23195720771847
42
2.64463270197821
0
ELLIPSE
5
126
100
AcDbEntity
8
1
62
256
6
ByLayer
370
18
48
1
60
0
100
AcDbEllipse
10
92.050655
20
22.4219
30
0
11
-4.64499390733563
21
-2.94517089542415
31
0
210
0
220
0
230
1
40
0.055099
41
0.747987982069083
42
1.18975572134245
0
ELLIPSE
5
127
100
AcDbEntity
8
1
62
256
6
ByLayer
370
18
48
1
60
0
100
AcDbEllipse
10
94.830951
20
18.03694
30
0
11
-4.6449939067824
21
-2.94517089504183
31
0
210
0
220
0
230
1
40
0.055099
41
0.747987982095409
42
1.18975572140934
0
ELLIPSE
5
128
100
AcDbEntity
8
1
62
256
6
ByLayer
370
18
48
1
60
0
100
AcDbEllipse
10
94.399033
20
13.990331
30
0
11
-0.817311208287068
21
2.88652080981316
31
0
210
0
220
0
230
1
40
0.981784
41
0.103263223804518
42
0.294220950745979
0
ELLIPSE
5
129
100
AcDbEntity
8
1
62
256
6
ByLayer
370
18
48
1
60
0
100
AcDbEllipse
10
95.072623
20
21.090963
30
0
11
-1.1306135144042
21
3.99302049813061
31
0
210
0
220
0
230
1
40
0.981784
41
-2.91247077337935
42
-2.84737162468887
0
ELLIPSE
5
12A
100
AcDbEntity
8
1
62
256
6
ByLayer
370
18
48
1
60
0
100
AcDbEllipse
10
96.763972
20
22.187724
30
0
11
-1.13061384273779
21
3.99302045306679
31
0
210
0
220
0
230
1
40
0.981784
41
-2.66980428631885
42
-0.0249582872701313
0
ELLIPSE
5
12B
100
AcDbEntity
8
1
62
256
6
ByLayer
370
18
48
1
60
0
100
AcDbEllipse
10
95.006619
20
21.048163
30
0
11
-0.70833638342083
21
2.5016513681799
31
0
210
0
220
0
230
1
40
0.981784
41
1.40936901618247
42
2.29067528442583
0
ELLIPSE
5
12C
100
AcDbEntity
8
1
62
256
6
ByLayer
370
18
48
1
60
0
100
AcDbEllipse
10
107.544132
20
24.119604
30
0
11
-0.290935215633525
21
1.15491891502985
31
0
210
0
220
0
230
1
40
0.984808
41
2.66162710926266
42
3.14159265358979
0
ELLIPSE
5
12D
100
AcDbEntity
8
1
62
256
6
ByLayer
370
18
48
1
60
0
100
AcDbEllipse
10
105.02367
20
34.125023
30
0
11
-0.290935215177168
21
1.15491891509787
31
0
210
0
220
0
230
1
40
0.984808
41
3.51671018994958E-10
42
0.479965544660583
0
ELLIPSE
5
12E
100
AcDbEntity
8
1
62
256
6
ByLayer
370
18
48
1
60
0
100
AcDbEllipse
10
107.434785
20
34.732406
30
0
11
-0.290935215984404
21
1.15491891489689
31
0
210
0
220
0
230
1
40
0.984808
41
-0.479965544644206
42
-3.35780972607102E-10
0
ELLIPSE
5
12F
100
AcDbEntity
8
1
62
256
6
ByLayer
370
18
48
1
60
0
100
AcDbEllipse
10
118.980194
20
32.320632
30
0
11
-0.193956810400328
21
0.769945943361876
31
0
210
0
220
0
230
1
40
0.984808
41
-2.66162710928986
42
-0.479965544297194
0
ELLIPSE
5
130
100
AcDbEntity
8
1
62
256
6
ByLayer
370
18
48
1
60
0
100
AcDbEllipse
10
109.955247
20
24.726987
30
0
11
-0.290935215336654
21
1.15491891507311
31
0
210
0
220
0
230
1
40
0.984808
41
-3.14159265337088
42
-2.66162710906516
0
ELLIPSE
5
131
100
AcDbEntity
8
1
62
256
6
ByLayer
370
18
48
1
60
0
100
AcDbEllipse
10
107.489459
20
29.426005
30
0
11
-0.630237494754264
21
2.50183946331612
31
0
210
0
220
0
230
1
40
0.984808
41
-2.57207508940971
42
0
0
ELLIPSE
5
132
100
AcDbEntity
8
1
62
256
6
ByLayer
370
18
48
1
60
0
100
AcDbEllipse
10
104.999333
20
34.797022
30
0
11
-0.290843611349021
21
1.15455527557229
31
0
210
0
220
0
230
1
40
0.984808
41
-0.47996554432932
42
0
0
ELLIPSE
5
133
100
AcDbEntity
8
1
62
256
6
ByLayer
370
18
48
1
60
0
100
AcDbEllipse
10
107.841062
20
23.516274
30
0
11
-0.290843611337476
21
1.15455527557512
31
0
210
0
220
0
230
1
40
0.984808
41
2.6616271092703
42
3.14159265358979
0
ELLIPSE
5
134
100
AcDbEntity
8
1
62
256
6
ByLayer
370
18
48
1
60
0
100
AcDbEllipse
10
107.841062
20
23.516274
30
0
11
-0.290843611204302
21
1.15455527560055
31
0
210
0
220
0
230
1
40
0.984808
41
3.14159265358979
42
-2.66162710919698
0
ELLIPSE
5
135
100
AcDbEntity
8
1
62
256
6
ByLayer
370
18
48
1
60
0
100
AcDbEllipse
10
107.098052
20
23.329102
30
0
11
-0.290843611430259
21
1.15455527554026
31
0
210
0
220
0
230
1
40
0.984808
41
2.66162710918656
42
3.14159265348828
0
ELLIPSE
5
136
100
AcDbEntity
8
1
62
256
6
ByLayer
370
18
48
1
60
0
100
AcDbEllipse
10
104.999333
20
34.797022
30
0
11
-0.290843611217191
21
1.15455527558856
31
0
210
0
220
0
230
1
40
0.984808
41
0
42
0.479965544381821
0
ELLIPSE
5
137
100
AcDbEntity
8
1
62
256
6
ByLayer
370
18
48
1
60
0
100
AcDbEllipse
10
104.256323
20
34.60985
30
0
11
-0.290843611551826
21
1.15455527555589
31
0
210
0
220
0
230
1
40
0.984808
41
0
42
0.479965544096542
0
ELLIPSE
5
138
100
AcDbEntity
8
1
62
256
6
ByLayer
370
18
48
1
60
0
100
AcDbEllipse
10
52
20
26.389787
30
0
11
-2.5
21
2.52659763770591E-15
31
0
210
0
220
0
230
1
40
0.524706
41
2.86071163771636
42
0.28532335531798
0
ELLIPSE
5
139
100
AcDbEntity
8
1
62
256
6
ByLayer
370
18
48
1
60
0
100
AcDbEllipse
10
63.898704
20
55.757241
30
0
11
-0.456255773416241
21
73.5985638670809
31
0
210
0
220
0
230
1
40
0.003796
41
2.53778293808031
42
2.83651661093371
0
ELLIPSE
5
13A
100
AcDbEntity
8
1
62
256
6
ByLayer
370
18
48
1
60
0
100
AcDbEllipse
10
64.245071
20
0
30
0
11
-0.197238076641142
21
31.7499999842291
31
0
210
0
220
0
230
1
40
0.00508
41
0.488855672467181
42
1.7234358537999
0
ELLIPSE
5
13B
100
AcDbEntity
8
1
62
256
6
ByLayer
370
18
48
1
60
0
100
AcDbEllipse
10
-2.358073
20
0
30
0
11
-14.7536831606569
21
-31.0932549155818
31
0
210
0
220
0
230
1
40
0.341999
41
2.03430384406495
42
2.9998356907164
0
ELLIPSE
5
13C
100
AcDbEntity
8
1
62
256
6
ByLayer
370
18
48
1
60
0
100
AcDbEllipse
10
26.358073
20
0
30
0
11
-14.7536831606565
21
31.0932549155813
31
0
210
0
220
0
230
1
40
0.341999
41
0.141756962873394
42
1.10728880952486
0
ELLIPSE
5
13D
100
AcDbEntity
8
1
62
256
6
ByLayer
370
18
48
1
60
0
100
AcDbEllipse
10
-2.358073
20
0
30
0
11
-14.7536831606562
21
31.0932549155809
31
0
210
0
220
0
230
1
40
0.341999
41
-2.9998356907164
42
-2.03430384406493
0
ELLIPSE
5
13E
100
AcDbEntity
8
1
62
256
6
ByLayer
370
18
48
1
60
0
100
AcDbEllipse
10
26.358073
20
0
30
0
11
-14.7536831606562
21
-31.0932549155808
31
0
210
0
220
0
230
1
40
0.341999
41
-1.10728880952487
42
-0.141756962873398
0
ELLIPSE
5
13F
100
AcDbEntity
8
1
62
256
6
ByLayer
370
18
48
1
60
0
100
AcDbEllipse
10
128.819242
20
0
30
0
11
-209.42246673045
21
1.58568636469004
31
0
210
0
220
0
230
1
40
0.170659
41
-1.44090657335257
42
-1.3788722122585
0
ELLIPSE
5
140
100
AcDbEntity
8
1
62
256
6
ByLayer
370
18
48
1
60
0
100
AcDbEllipse
10
82.709412
20
24.085163
30
0
11
-4.65517073444598
21
-3.07642546331793
31
0
210
0
220
0
230
1
40
0.715711
41
3.12807168736272
42
-2.46542881385282
0
ELLIPSE
5
141
100
AcDbEntity
8
1
62
256
6
ByLayer
370
18
48
1
60
0
100
AcDbEllipse
10
90.876708
20
24.273398
30
0
11
-4.77199931318614
21
-2.74404888272169
31
0
210
0
220
0
230
1
40
0.291278
41
0.587230160225006
42
0.640222463995099
0
ELLIPSE
5
142
100
AcDbEntity
8
1
62
256
6
ByLayer
370
18
48
1
60
0
100
AcDbEllipse
10
96.004897
20
16.185442
30
0
11
-4.52434367252609
21
-3.13517137061483
31
0
210
0
220
0
230
1
40
0.181284
41
-0.635043434479127
42
-0.582051126230019
0
ELLIPSE
5
143
100
AcDbEntity
8
1
62
256
6
ByLayer
370
18
48
1
60
0
100
AcDbEllipse
10
89.99531
20
25.881128
30
0
11
-3.09669325420423
21
-1.64874966517249
31
0
210
0
220
0
230
1
40
0.425012
41
-0.0633119426207118
42
0.659906163777785
0
ELLIPSE
5
144
100
AcDbEntity
8
1
62
256
6
ByLayer
370
18
48
1
60
0
100
AcDbEllipse
10
88.107778
20
22.066185
30
0
11
-0.066199647973259
21
3.00307676612504
31
0
210
0
220
0
230
1
40
0.989691
41
1.06674520446773
42
2.11843426753215
0
ELLIPSE
5
145
100
AcDbEntity
8
1
62
256
6
ByLayer
370
18
48
1
60
0
100
AcDbEllipse
10
91.250835
20
23.325537
30
0
11
-4.49641188761775
21
0.651987090002696
31
0
210
0
220
0
230
1
40
0.496675
41
-0.516741562565308
42
-0.157125829223331
0
ELLIPSE
5
146
100
AcDbEntity
8
1
62
256
6
ByLayer
370
18
48
1
60
0
100
AcDbEllipse
10
97.124263
20
14.637658
30
0
11
-2.82573297904321
21
-2.07794935531957
31
0
210
0
220
0
230
1
40
0.315466
41
-0.649419048391736
42
0.0737990580062919
0
ELLIPSE
5
147
100
AcDbEntity
8
1
62
256
6
ByLayer
370
18
48
1
60
0
100
AcDbEllipse
10
95.742081
20
16.242142
30
0
11
-1.99679912097416
21
-3.65274328571125
31
0
210
0
220
0
230
1
40
0.43895
41
0.321644682392195
42
0.48927642878051
0
ELLIPSE
5
148
100
AcDbEntity
8
1
62
256
6
ByLayer
370
18
48
1
60
0
100
AcDbEllipse
10
92.599024
20
14.98279
30
0
11
-0.0661996480884998
21
3.00307676611851
31
0
210
0
220
0
230
1
40
0.989691
41
2.11843426749319
42
-3.11306197662126
0
ELLIPSE
5
149
100
AcDbEntity
8
1
62
256
6
ByLayer
370
18
48
1
60
0
100
AcDbEllipse
10
95.742081
20
16.242142
30
0
11
-1.99679912038667
21
-3.65274328302987
31
0
210
0
220
0
230
1
40
0.43895
41
0.489276428998706
42
0.681260416042459
0
ELLIPSE
5
14A
100
AcDbEntity
8
1
62
256
6
ByLayer
370
18
48
1
60
0
100
AcDbEllipse
10
108.080151
20
29.6108
30
0
11
-1.67753974363946
21
1.62638492282893
31
0
210
0
220
0
230
1
40
0.768306
41
-1.69168741798291
42
-0.836476084505419
0
ELLIPSE
5
14B
100
AcDbEntity
8
1
62
256
6
ByLayer
370
18
48
1
60
0
100
AcDbEllipse
10
108.080151
20
29.6108
30
0
11
-0.0649050067924919
21
2.22179502014692
31
0
210
0
220
0
230
1
40
0.750374
41
-1.93873367111575
42
-1.08352233764129
0
POINT
5
6C
100
AcDbEntity
8
81
62
256
6
ByLayer
370
18
48
1
60
0
100
AcDbPoint
10
119.762836
20
32.944162
30
0
39
0
210
0
220
0
230
1
50
360
0
POINT
5
6E
100
AcDbEntity
8
80
62
256
6
ByLayer
370
18
48
1
60
0
100
AcDbPoint
10
0
20
0
30
0
39
0
210
0
220
0
230
1
50
360
0
SPLINE
5
14C
100
AcDbEntity
8
1
62
256
6
ByLayer
370
18
48
1
60
0
100
AcDbSpline
70
4
71
3
72
21
73
17
40
0
40
0
40
0
40
0
40
0.0098348796672598
40
0.0260930828894155
40
0.0472483636629068
40
0.0685113404095152
40
0.0897815286913158
40
0.173563955338636
40
0.2573963120872
40
0.341212220496977
40
0.450857525173518
40
0.560721084963676
40
0.670672183422954
40
0.780596050726179
40
0.890396709096697
40
1
40
1
40
1
40
1
41
1
10
28.8970791250087
20
-31.75
30
0
41
1
10
28.901615747481
20
-31.7499190862217
30
0
41
1
10
28.9385147138175
20
-31.7488709436243
30
0
41
1
10
29.1766616987842
20
-31.7420878683371
30
0
41
1
10
29.5368173668729
20
-31.7290519712254
30
0
41
1
10
29.9778330370745
20
-31.7096782888324
30
0
41
1
10
30.8874410770849
20
-31.6618232506354
30
0
41
1
10
32.2697945955893
20
-31.5556502585962
30
0
41
1
10
34.1569404795219
20
-31.3411878706656
30
0
41
1
10
36.2430425767746
20
-31.0237793476808
30
0
41
1
10
38.5105958388002
20
-30.5735617038237
30
0
41
1
10
40.9673514794433
20
-29.956330555163
30
0
41
1
10
43.4118011274071
20
-29.2082346783279
30
0
41
1
10
45.8378173861332
20
-28.327514961993
30
0
41
1
10
48.2386815408687
20
-27.3128042701545
30
0
41
1
10
49.8179068961031
20
-26.5442797887281
30
0
41
1
10
50.6021866658051
20
-26.137507199217
30
0
0
SPLINE
5
14D
100
AcDbEntity
8
1
62
256
6
ByLayer
370
18
48
1
60
0
100
AcDbSpline
70
4
71
3
72
24
73
20
40
0
40
0
40
0
40
0
40
0.053290244343922
40
0.117986093898916
40
0.182599699951016
40
0.247419680439252
40
0.312035345922287
40
0.37675976676561
40
0.4416882061969
40
0.506422842137525
40
0.572337854715559
40
0.638452322397627
40
0.704384067138047
40
0.773463879423855
40
0.842747566544276
40
0.911840336190656
40
0.951526349838258
40
0.991212457945712
40
1
40
1
40
1
40
1
41
1
10
23.1012215643759
20
31.7499999998403
30
0
41
1
10
23.101741331143
20
31.7493362036467
30
0
41
1
10
23.1417486415214
20
31.7298205692573
30
0
41
1
10
23.3348212628067
20
31.6386026045287
30
0
41
1
10
23.6994403474009
20
31.4678344418479
30
0
41
1
10
24.2150436251134
20
31.2361686658667
30
0
41
1
10
24.878325824086
20
30.9528798535602
30
0
41
1
10
25.6891512186411
20
30.6280215327738
30
0
41
1
10
26.6340153601947
20
30.278819048856
30
0
41
1
10
27.7089507151448
20
29.9178362580765
30
0
41
1
10
28.9085203692871
20
29.5616104795866
30
0
41
1
10
30.2156007959797
20
29.2252823413999
30
0
41
1
10
31.6300593491038
20
28.9194092188372
30
0
41
1
10
33.1420482092085
20
28.662097652482
30
0
41
1
10
34.7338114642759
20
28.4633968645405
30
0
41
1
10
36.13356177466
20
28.3532393074711
30
0
41
1
10
37.3117630078126
20
28.3055672818774
30
0
41
1
10
38.0140555829814
20
28.2959727149914
30
0
41
1
10
38.4000540699921
20
28.2971346662374
30
0
41
1
10
38.4700403233286
20
28.2975545998198
30
0
0
SPLINE
5
14E
100
AcDbEntity
8
1
62
256
6
ByLayer
370
18
48
1
60
0
100
AcDbSpline
70
4
71
3
72
14
73
10
40
0
40
0
40
0
40
0
40
0.119943970818741
40
0.266923597960476
40
0.413903856365386
40
0.561357294363035
40
0.708808000100256
40
0.856020598913524
40
1
40
1
40
1
40
1
41
1
10
50.7620621800407
20
-25.6978345357848
30
0
41
1
10
50.6361347926236
20
-25.6642529587753
30
0
41
1
10
50.3676902129791
20
-25.5787326632361
30
0
41
1
10
49.987919645804
20
-25.4071233514382
30
0
41
1
10
49.6396877712028
20
-25.1841639324942
30
0
41
1
10
49.359044311439
20
-24.9238392425362
30
0
41
1
10
49.151880953498
20
-24.6338096763855
30
0
41
1
10
49.0280044129709
20
-24.3216166115396
30
0
41
1
10
49.0003878771536
20
-24.1065162629587
30
0
41
1
10
49.0000000009516
20
-23.9975688864804
30
0
0
SPLINE
5
14F
100
AcDbEntity
8
1
62
256
6
ByLayer
370
18
48
1
60
0
100
AcDbSpline
70
4
71
1
72
4
73
2
40
0
40
0
40
1
40
1
41
1
10
50.7620621800407
20
-25.6978345357848
30
0
41
1
10
50.6021866657943
20
-26.1375071992228
30
0
0
SPLINE
5
150
100
AcDbEntity
8
1
62
256
6
ByLayer
370
18
48
1
60
0
100
AcDbSpline
70
4
71
3
72
15
73
11
40
0
40
0
40
0
40
0
40
0.122687514816
40
0.245376443848112
40
0.387058210951252
40
0.528739328286131
40
0.670688288926297
40
0.812634343736975
40
0.954152120973139
40
1
40
1
40
1
40
1
41
1
10
53.1150938246613
20
28.3854024763736
30
0
41
1
10
53.2514596306567
20
28.3608392321676
30
0
41
1
10
53.5130923898144
20
28.3029985551106
30
0
41
1
10
53.8948918881208
20
28.183928720445
30
0
41
1
10
54.2465347271862
20
28.0287137952369
30
0
41
1
10
54.5526302688876
20
27.8360592398405
30
0
41
1
10
54.7849405226607
20
27.6156553093446
30
0
41
1
10
54.939788231586
20
27.3737999453533
30
0
41
1
10
54.9933052171356
20
27.1732550844819
30
0
41
1
10
54.999855336295
20
27.0570351911823
30
0
41
1
10
54.9999999871614
20
27.0283951447914
30
0
0
SPLINE
5
151
100
AcDbEntity
8
1
62
256
6
ByLayer
370
18
48
1
60
0
100
AcDbSpline
70
4
71
1
72
4
73
2
40
0
40
0
40
1
40
1
41
1
10
63.9951955690168
20
28.0306783560432
30
0
41
1
10
64.0503760254995
20
28.4509974105795
30
0
0
SPLINE
5
152
100
AcDbEntity
8
1
62
256
6
ByLayer
370
18
48
1
60
0
100
AcDbSpline
70
4
71
3
72
19
73
15
40
0
40
0
40
0
40
0
40
0.100394695335868
40
0.200781927330832
40
0.302529649070608
40
0.404268349815009
40
0.478581907888609
40
0.552942317439867
40
0.627247686076925
40
0.70359328749407
40
0.78000089674116
40
0.856341133166175
40
0.928057003300894
40
1
40
1
40
1
40
1
41
1
10
64.1156554892529
20
-4.82849828273545
30
0
41
1
10
63.590539912451
20
-5.3803258413737
30
0
41
1
10
62.5613323186465
20
-6.49493232349947
30
0
41
1
10
61.0699778509434
20
-8.209500897224
30
0
41
1
10
59.6436740427173
20
-9.96113224831012
30
0
41
1
10
58.4115262744761
20
-11.582710587966
30
0
41
1
10
57.3637005885565
20
-13.053192901391
30
0
41
1
10
56.4798007886271
20
-14.3642815996875
30
0
41
1
10
55.6397340586587
20
-15.6835503757485
30
0
41
1
10
54.8481253434783
20
-17.0048319264707
30
0
41
1
10
54.1069677707697
20
-18.320524072649
30
0
41
1
10
53.4378098924669
20
-19.5851568893575
30
0
41
1
10
52.8368361301984
20
-20.7947284129783
30
0
41
1
10
52.4779882906851
20
-21.5598967419902
30
0
41
1
10
52.306802622413
20
-21.9373749851788
30
0
0
SPLINE
5
153
100
AcDbEntity
8
1
62
256
6
ByLayer
370
18
48
1
60
0
100
AcDbSpline
70
4
71
3
72
13
73
9
40
0
40
0
40
0
40
0
40
0.155577358742359
40
0.353261251498119
40
0.550835101738954
40
0.718322922766389
40
0.885906599714677
40
1
40
1
40
1
40
1
41
1
10
64.2499747319797
20
-14.4433644893397
30
0
41
1
10
64.2508325251545
20
-14.5295600645215
30
0
41
1
10
64.2788129385061
20
-14.6991574439204
30
0
41
1
10
64.4144355336841
20
-14.8756479482817
30
0
41
1
10
64.6587120558744
20
-14.9409837888922
30
0
41
1
10
64.9798909746153
20
-14.8943043143089
30
0
41
1
10
65.3075504873144
20
-14.7804068353465
30
0
41
1
10
65.5362283624937
20
-14.6746891692021
30
0
41
1
10
65.6330738940385
20
-14.6259360851866
30
0
0
SPLINE
5
154
100
AcDbEntity
8
1
62
256
6
ByLayer
370
18
48
1
60
0
100
AcDbSpline
70
4
71
3
72
14
73
10
40
0
40
0
40
0
40
0
40
0.0877400276586927
40
0.175826155457124
40
0.311510084516302
40
0.447390589666327
40
0.583201021774706
40
0.791576712641978
40
1
40
1
40
1
40
1
41
1
10
58.5917846437032
20
-20.9659414032585
30
0
41
1
10
58.3502389146756
20
-21.157084936199
30
0
41
1
10
57.8675753448278
20
-21.5322360139452
30
0
41
1
10
57.0168440892742
20
-22.1685708263224
30
0
41
1
10
56.0433144884529
20
-22.8629803592247
30
0
41
1
10
54.9536090502582
20
-23.5970776337823
30
0
41
1
10
53.6825186765922
20
-24.4062812261392
30
0
41
1
10
52.2326240416571
20
-25.2650130165306
30
0
41
1
10
51.1444360945418
20
-25.8565824332627
30
0
41
1
10
50.6021866657905
20
-26.1375071992246
30
0
0
SPLINE
5
155
100
AcDbEntity
8
1
62
256
6
ByLayer
370
18
48
1
60
0
100
AcDbSpline
70
4
71
3
72
20
73
16
40
0
40
0
40
0
40
0
40
0.124931719669757
40
0.252665630187845
40
0.380268328055379
40
0.467527017033878
40
0.554681897984423
40
0.623129629424922
40
0.691504087306743
40
0.749747016259079
40
0.807957200991394
40
0.866330815862923
40
0.924712877460844
40
0.980516033691398
40
1
40
1
40
1
40
1
41
1
10
50.7620621800407
20
-25.6978345357848
30
0
41
1
10
50.9617603089123
20
-25.6115825174612
30
0
41
1
10
51.3759965647511
20
-25.4085243900054
30
0
41
1
10
52.0376258586034
20
-25.0116409515973
30
0
41
1
10
52.6504320159688
20
-24.5822630105319
30
0
41
1
10
53.189538740149
20
-24.15556315506
30
0
41
1
10
53.6134393072152
20
-23.7844257639614
30
0
41
1
10
53.9835410365037
20
-23.4249537984997
30
0
41
1
10
54.2806561577151
20
-23.1042800423954
30
0
41
1
10
54.5271947409632
20
-22.801956416259
30
0
41
1
10
54.7226439045756
20
-22.524296226231
30
0
41
1
10
54.8697462889685
20
-22.2640307130179
30
0
41
1
10
54.9644769728551
20
-22.0312319464736
30
0
41
1
10
54.9960398848957
20
-21.874388937573
30
0
41
1
10
54.9999608692245
20
-21.7951739787049
30
0
41
1
10
54.9999998610203
20
-21.7752731801699
30
0
0
SPLINE
5
156
100
AcDbEntity
8
1
62
256
6
ByLayer
370
18
48
1
60
0
100
AcDbSpline
70
4
71
3
72
17
73
13
40
0
40
0
40
0
40
0
40
0.0480333112738279
40
0.128408212508699
40
0.208834238795748
40
0.325624461893459
40
0.442537194238437
40
0.560987679203502
40
0.679489154787597
40
0.822502352776617
40
0.965531286137429
40
1
40
1
40
1
40
1
41
1
10
54.9999998610203
20
-21.7752731801714
30
0
41
1
10
54.9998222955247
20
-21.7381998258754
30
0
41
1
10
54.9912238570495
20
-21.6449912250625
30
0
41
1
10
54.9398071964905
20
-21.5193134567509
30
0
41
1
10
54.8182900061378
20
-21.3942707822208
30
0
41
1
10
54.614209263747
20
-21.3091502108805
30
0
41
1
10
54.3161917868879
20
-21.2812207172055
30
0
41
1
10
53.9591492834809
20
-21.3165410487526
30
0
41
1
10
53.5274723317878
20
-21.4166245078158
30
0
41
1
10
53.0227369208017
20
-21.592323772895
30
0
41
1
10
52.5955631182229
20
-21.7867613676972
30
0
41
1
10
52.3539789927317
20
-21.9123032448229
30
0
41
1
10
52.3068026224145
20
-21.937374985172
30
0
0
SPLINE
5
157
100
AcDbEntity
8
1
62
256
6
ByLayer
370
18
48
1
60
0
100
AcDbSpline
70
4
71
3
72
18
73
14
40
0
40
0
40
0
40
0
40
0.00222064536582
40
0.1026324700004
40
0.203045578932034
40
0.30344625791523
40
0.403848748803321
40
0.504637574890052
40
0.60542593045061
40
0.70640227446813
40
0.807376532368683
40
0.938752086500053
40
1
40
1
40
1
40
1
41
1
10
49.0000000009516
20
-23.9975688864815
30
0
41
1
10
49.0000000479252
20
-23.9951376636897
30
0
41
1
10
49.0003199697743
20
-23.8827666944202
30
0
41
1
10
49.0308157977706
20
-23.6579312034912
30
0
41
1
10
49.1579961693148
20
-23.3285624473259
30
0
41
1
10
49.3667777818326
20
-23.013219955666
30
0
41
1
10
49.6483995587723
20
-22.7209881121713
30
0
41
1
10
49.9981291684727
20
-22.4625987503967
30
0
41
1
10
50.4041218324658
20
-22.2453618743636
30
0
41
1
10
50.8569040420158
20
-22.0792270333073
30
0
41
1
10
51.3901896186253
20
-21.9571389864893
30
0
41
1
10
51.8834122662131
20
-21.9177511759059
30
0
41
1
10
52.2043795099131
20
-21.9297613951008
30
0
41
1
10
52.3068026224191
20
-21.9373749851711
30
0
0
SPLINE
5
158
100
AcDbEntity
8
1
62
256
6
ByLayer
370
18
48
1
60
0
100
AcDbSpline
70
4
71
3
72
15
73
11
40
0
40
0
40
0
40
0
40
0.0031932750906745
40
0.147584893560002
40
0.29197835884101
40
0.436353949928607
40
0.580732146524881
40
0.725665890884655
40
0.870598958630534
40
1
40
1
40
1
40
1
41
1
10
49.0000000009516
20
27.0282891653827
30
0
41
1
10
49.0000000479252
20
27.0302374487685
30
0
41
1
10
49.0003199753138
20
27.1202438627046
30
0
41
1
10
49.0308148011765
20
27.2961254430853
30
0
41
1
10
49.1579996653879
20
27.5430367054921
30
0
41
1
10
49.3667647957868
20
27.7692036652031
30
0
41
1
10
49.6484480873087
20
27.9708417118129
30
0
41
1
10
49.997947286266
20
28.1426115379889
30
0
41
1
10
50.3900235764884
20
28.277620333289
30
0
41
1
10
50.6718650786671
20
28.344579226602
30
0
41
1
10
50.8110923719199
20
28.3715819986828
30
0
0
SPLINE
5
159
100
AcDbEntity
8
1
62
256
6
ByLayer
370
18
48
1
60
0
100
AcDbSpline
70
4
71
3
72
26
73
22
40
0
40
0
40
0
40
0
40
0.0362847585463268
40
0.08972168394268
40
0.143159580061773
40
0.19668186509501
40
0.250204823739204
40
0.30393761131029
40
0.357669712983131
40
0.411411419390363
40
0.465152126590895
40
0.518684671321592
40
0.572217472242656
40
0.625649933422272
40
0.679083478233713
40
0.732680282469817
40
0.786277316898972
40
0.840046898466079
40
0.893815483701719
40
0.947497242140758
40
1
40
1
40
1
40
1
41
1
10
54.9999999871614
20
27.0283951447923
30
0
41
1
10
54.9999835218897
20
26.9682640152388
30
0
41
1
10
54.9840973833643
20
26.8196634583427
30
0
41
1
10
54.894656069505
20
26.5799313303632
30
0
41
1
10
54.7145411392849
20
26.3184344359981
30
0
41
1
10
54.45643223947
20
26.0720803550988
30
0
41
1
10
54.1300011856065
20
25.848493997149
30
0
41
1
10
53.7416112683729
20
25.6569149696677
30
0
41
1
10
53.3041321093015
20
25.5031518815723
30
0
41
1
10
52.8286087823406
20
25.3952220178493
30
0
41
1
10
52.3304402759228
20
25.3353869600972
30
0
41
1
10
51.8232950935996
20
25.3281579388762
30
0
41
1
10
51.3220524385102
20
25.3711968764946
30
0
41
1
10
50.8407874451346
20
25.4649569255116
30
0
41
1
10
50.3914699699995
20
25.60360531111
30
0
41
1
10
49.9880847831626
20
25.7839130967752
30
0
41
1
10
49.63964336263
20
25.9978982804941
30
0
41
1
10
49.3590562319606
20
26.2390452913569
30
0
41
1
10
49.1518777475575
20
26.4978532085278
30
0
41
1
10
49.0280053067968
20
26.7647068205615
30
0
41
1
10
49.0003878771534
20
26.9408295713981
30
0
41
1
10
49.0000000009516
20
27.0282891653852
30
0
0
SPLINE
5
15A
100
AcDbEntity
8
1
62
256
6
ByLayer
370
18
48
1
60
0
100
AcDbSpline
70
4
71
1
72
4
73
2
40
0
40
0
40
1
40
1
41
1
10
64.8601641560243
20
-12.4867950328155
30
0
41
1
10
64.8378162158219
20
-12.5019365056931
30
0
0
SPLINE
5
15B
100
AcDbEntity
8
1
62
256
6
ByLayer
370
18
48
1
60
0
100
AcDbSpline
70
4
71
3
72
26
73
22
40
0
40
0
40
0
40
0
40
0.0143800538894171
40
0.0786525417200499
40
0.142923828281967
40
0.194663541886273
40
0.246331738859874
40
0.286843717743257
40
0.327697319936867
40
0.351394902895093
40
0.37516631937669
40
0.406817803017541
40
0.445449272256372
40
0.484262907040777
40
0.56944860257647
40
0.654982692937447
40
0.740348795264951
40
0.815447177402429
40
0.890442121585862
40
0.948116492308529
40
1
40
1
40
1
40
1
41
1
10
64.974422900897
20
-7.52816139058619
30
0
41
1
10
64.9954238804455
20
-7.51352708410977
30
0
41
1
10
65.1131239834915
20
-7.43700627616545
30
0
41
1
10
65.3568174341563
20
-7.33325946005615
30
0
41
1
10
65.7181250250366
20
-7.27382364264286
30
0
41
1
10
66.0953574895111
20
-7.27711447230996
30
0
41
1
10
66.4441252264759
20
-7.33585961875386
30
0
41
1
10
66.7767578644046
20
-7.45061177311414
30
0
41
1
10
67.0340939337685
20
-7.61443366514837
30
0
41
1
10
67.197607930356
20
-7.83543488528449
30
0
41
1
10
67.2744079378996
20
-8.08060199355636
30
0
41
1
10
67.2705600776968
20
-8.3863885116626
30
0
41
1
10
67.1953141431471
20
-8.72437700597768
30
0
41
1
10
67.0219124297287
20
-9.20010085534413
30
0
41
1
10
66.7534199798501
20
-9.78230766933317
30
0
41
1
10
66.3819372049767
20
-10.4438885712095
30
0
41
1
10
66.01090265575
20
-11.0378005620975
30
0
41
1
10
65.6594138921136
20
-11.5705352353653
30
0
41
1
10
65.3500036918856
20
-11.9878099115833
30
0
41
1
10
65.081998839636
20
-12.302759201671
30
0
41
1
10
64.9305210189707
20
-12.4345816657915
30
0
41
1
10
64.8601641560222
20
-12.486795032817
30
0
0
SPLINE
5
15C
100
AcDbEntity
8
1
62
256
6
ByLayer
370
18
48
1
60
0
100
AcDbSpline
70
4
71
3
72
24
73
20
40
0
40
0
40
0
40
0
40
0.0683332443669327
40
0.102970442593732
40
0.137568088750874
40
0.197821062116678
40
0.25530655763779
40
0.29868524512859
40
0.342123577691873
40
0.399985010660912
40
0.457906258711354
40
0.516880427974713
40
0.575873412473503
40
0.645043041693836
40
0.714227023171756
40
0.788404663101183
40
0.862598078183175
40
0.940473458063774
40
1
40
1
40
1
40
1
41
1
10
64.8378162158219
20
-12.5019365056931
30
0
41
1
10
64.7651943076758
20
-12.553192254546
30
0
41
1
10
64.6650295651473
20
-12.5891696992927
30
0
41
1
10
64.5478766188512
20
-12.5587511456363
30
0
41
1
10
64.4531614956229
20
-12.4689362655312
30
0
41
1
10
64.3711044744384
20
-12.2595892622849
30
0
41
1
10
64.3199357033786
20
-11.9418549235411
30
0
41
1
10
64.2917614497014
20
-11.616674219365
30
0
41
1
10
64.2743424150724
20
-11.2694965353888
30
0
41
1
10
64.2639856927635
20
-10.8728198079087
30
0
41
1
10
64.2610490928819
20
-10.4343344287236
30
0
41
1
10
64.264874122739
20
-10.0000035170514
30
0
41
1
10
64.2785061429727
20
-9.5543854175693
30
0
41
1
10
64.3071227019677
20
-9.11278972214963
30
0
41
1
10
64.3613082318086
20
-8.67962428080624
30
0
41
1
10
64.4505980220783
20
-8.29177593529641
30
0
41
1
10
64.5864820396889
20
-7.95228178399025
30
0
41
1
10
64.7630151285426
20
-7.70132476436962
30
0
41
1
10
64.906715751016
20
-7.57554663295157
30
0
41
1
10
64.9744229008987
20
-7.52816139058499
30
0
0
SPLINE
5
15D
100
AcDbEntity
8
1
62
256
6
ByLayer
370
18
48
1
60
0
100
AcDbSpline
70
4
71
1
72
4
73
2
40
0
40
0
40
1
40
1
41
1
10
68.4695006137077
20
28.4775053855255
30
0
41
1
10
68.9806529616362
20
28.4843047684655
30
0
0
SPLINE
5
15E
100
AcDbEntity
8
1
62
256
6
ByLayer
370
18
48
1
60
0
100
AcDbSpline
70
4
71
3
72
17
73
13
40
0
40
0
40
0
40
0
40
0.0975017312389484
40
0.19502352356326
40
0.292379503588928
40
0.389753084428772
40
0.490058809212742
40
0.590391863341257
40
0.695818848169101
40
0.801293090354026
40
0.916225568022097
40
1
40
1
40
1
40
1
41
1
10
64.0480091780824
20
25.1998208162918
30
0
41
1
10
64.0466726443254
20
25.3150582285641
30
0
41
1
10
64.0464123630289
20
25.541822009756
30
0
41
1
10
64.0526627044586
20
25.8751049520315
30
0
41
1
10
64.0673273030119
20
26.1880315789666
30
0
41
1
10
64.0933328430479
20
26.4775017063009
30
0
41
1
10
64.1347741446863
20
26.7343897318104
30
0
41
1
10
64.1958832477468
20
26.957623379723
30
0
41
1
10
64.2812373324223
20
27.1373069957544
30
0
41
1
10
64.3957282347365
20
27.2760574498619
30
0
41
1
10
64.5288988556665
20
27.3571885971753
30
0
41
1
10
64.6293750316879
20
27.3855038068791
30
0
41
1
10
64.6742622304402
20
27.3928051949216
30
0
0
SPLINE
5
15F
100
AcDbEntity
8
1
62
256
6
ByLayer
370
18
48
1
60
0
100
AcDbSpline
70
4
71
3
72
17
73
13
40
0
40
0
40
0
40
0
40
0.083393631851269
40
0.203533206450852
40
0.302151512527674
40
0.400699733829305
40
0.499706070469207
40
0.598697460558774
40
0.689998836650577
40
0.781319563699137
40
0.965926683407113
40
1
40
1
40
1
40
1
41
1
10
64.7315423753952
20
23.3460111494332
30
0
41
1
10
64.6888897303904
20
23.3383828390538
30
0
41
1
10
64.5893534335632
20
23.3316937354545
30
0
41
1
10
64.4561064777829
20
23.3611246861715
30
0
41
1
10
64.3386911598729
20
23.4481946166816
30
0
41
1
10
64.2479905250882
20
23.577465447504
30
0
41
1
10
64.1780019246364
20
23.7580218867822
30
0
41
1
10
64.1274789927033
20
23.9776926758778
30
0
41
1
10
64.0932970413234
20
24.2279139166229
30
0
41
1
10
64.0631893586871
20
24.5871637848635
30
0
41
1
10
64.0517987715208
20
24.9248371993671
30
0
41
1
10
64.0483919396363
20
25.162571088445
30
0
41
1
10
64.0480091780824
20
25.1998208162934
30
0
0
SPLINE
5
160
100
AcDbEntity
8
1
62
256
6
ByLayer
370
18
48
1
60
0
100
AcDbSpline
70
4
71
3
72
26
73
22
40
0
40
0
40
0
40
0
40
0.0128807238131676
40
0.0674038328193986
40
0.121961166442771
40
0.187703483052537
40
0.253467862692307
40
0.307332902932468
40
0.361123724897277
40
0.405307451730917
40
0.449956574276314
40
0.477412932976656
40
0.504840005152559
40
0.549443313205939
40
0.60911608922327
40
0.669031868834816
40
0.768217437045851
40
0.867296225564214
40
0.926594124855004
40
0.985813866212186
40
1
40
1
40
1
40
1
41
1
10
64.6742622304394
20
27.3928051949214
30
0
41
1
10
64.6910176517255
20
27.3955746645958
30
0
41
1
10
64.7802711731632
20
27.407281850823
30
0
41
1
10
64.9581877280519
20
27.4001662567683
30
0
41
1
10
65.2434255257814
20
27.3343157402108
30
0
41
1
10
65.5781164266729
20
27.2082650089769
30
0
41
1
10
65.9341768927493
20
27.0277695196659
30
0
41
1
10
66.27967684458
20
26.8165328110709
30
0
41
1
10
66.5806432333986
20
26.5877504295798
30
0
41
1
10
66.8461610948316
20
26.3256704544173
30
0
41
1
10
67.0212310987499
20
26.048978849856
30
0
41
1
10
67.0774777299497
20
25.7662784423652
30
0
41
1
10
67.0442673741376
20
25.4824616262386
30
0
41
1
10
66.8951424222008
20
25.1479195752824
30
0
41
1
10
66.6445978215446
20
24.7933543223598
30
0
41
1
10
66.2714134593405
20
24.3860522273682
30
0
41
1
10
65.8230213112289
20
23.9681338086906
30
0
41
1
10
65.385368700873
20
23.6429266662909
30
0
41
1
10
65.0430471016417
20
23.444696069012
30
0
41
1
10
64.8494240963587
20
23.3699136525309
30
0
41
1
10
64.750421281531
20
23.3493019960448
30
0
41
1
10
64.7315423753932
20
23.3460111494328
30
0
0
SPLINE
5
161
100
AcDbEntity
8
1
62
256
6
ByLayer
370
18
48
1
60
0
100
AcDbSpline
70
4
71
3
72
14
73
10
40
0
40
0
40
0
40
0
40
0.143761659296468
40
0.287513557104364
40
0.433698002136127
40
0.579901084704175
40
0.725043657217646
40
0.870233481789727
40
1
40
1
40
1
40
1
41
1
10
84.9624303645976
20
28.5697413154208
30
0
41
1
10
84.7429244814729
20
28.6011477426363
30
0
41
1
10
84.3059954337422
20
28.6272573716338
30
0
41
1
10
83.6444200586065
20
28.5571123069551
30
0
41
1
10
83.0031548088525
20
28.3718792513796
30
0
41
1
10
82.3996734039074
20
28.0800552793917
30
0
41
1
10
81.8551637575281
20
27.6911099417803
30
0
41
1
10
81.3944873548339
20
27.2384822934627
30
0
41
1
10
81.138695035227
20
26.9044446930495
30
0
41
1
10
81.0276594117554
20
26.7375488506253
30
0
0
SPLINE
5
162
100
AcDbEntity
8
1
62
256
6
ByLayer
370
18
48
1
60
0
100
AcDbSpline
70
4
71
3
72
10
73
6
40
0
40
0
40
0
40
0
40
0.323508576035951
40
0.661742938203811
40
1
40
1
40
1
40
1
41
1
10
81.0276594122938
20
26.7375488498941
30
0
41
1
10
81.0138591395011
20
26.7169563613252
30
0
41
1
10
80.9857948758592
20
26.6747224706845
30
0
41
1
10
80.9438913433573
20
26.6105532736088
30
0
41
1
10
80.915898595028
20
26.5669077652556
30
0
41
1
10
80.9019900284217
20
26.5450250110595
30
0
0
SPLINE
5
163
100
AcDbEntity
8
1
62
256
6
ByLayer
370
18
48
1
60
0
100
AcDbSpline
70
4
71
3
72
10
73
6
40
0
40
0
40
0
40
0
40
0.319932223077616
40
0.659954208224035
40
1
40
1
40
1
40
1
41
1
10
80.9019900290999
20
26.5450250104019
30
0
41
1
10
80.8886879412115
20
26.5240963875621
30
0
41
1
10
80.8614178119098
20
26.4808159902485
30
0
41
1
10
80.8206237202839
20
26.4148920634811
30
0
41
1
10
80.7932547921086
20
26.3698239556181
30
0
41
1
10
80.7796629441654
20
26.3472298484206
30
0
0
SPLINE
5
164
100
AcDbEntity
8
1
62
256
6
ByLayer
370
18
48
1
60
0
100
AcDbSpline
70
4
71
3
72
16
73
12
40
0
40
0
40
0
40
0
40
0.131649726003233
40
0.263474189893355
40
0.398658704099334
40
0.533867888047625
40
0.636382644140798
40
0.73897436439632
40
0.84111173640933
40
0.920611327398216
40
1
40
1
40
1
40
1
41
1
10
80.7796629444409
20
26.3472298481732
30
0
41
1
10
80.6169995520362
20
26.0703805044579
30
0
41
1
10
80.3386132270433
20
25.4984143177879
30
0
41
1
10
80.0650012045283
20
24.5659041210444
30
0
41
1
10
79.9251178663921
20
23.5959517760712
30
0
41
1
10
79.9345273002148
20
22.686006910485
30
0
41
1
10
80.0228737413481
20
21.8623963943104
30
0
41
1
10
80.1521237832733
20
21.1246511061419
30
0
41
1
10
80.3536924044683
20
20.4612042667466
30
0
41
1
10
80.598824637757
20
19.8738923246932
30
0
41
1
10
80.7843758716011
20
19.5353169129792
30
0
41
1
10
80.8857938037211
20
19.3702706962711
30
0
0
SPLINE
5
165
100
AcDbEntity
8
1
62
256
6
ByLayer
370
18
48
1
60
0
100
AcDbSpline
70
4
71
3
72
12
73
8
40
0
40
0
40
0
40
0
40
0.268709568615028
40
0.406756699497785
40
0.544647185260092
40
0.771826929075548
40
1
40
1
40
1
40
1
41
1
10
87.3312897188154
20
9.20471823139004
30
0
41
1
10
87.4930376705061
20
8.96033451413715
30
0
41
1
10
87.7617599230807
20
8.61196667817512
30
0
41
1
10
88.1702850766601
20
8.18668854623748
30
0
41
1
10
88.5774193809247
20
7.82589352722886
30
0
41
1
10
89.1030703685942
20
7.45939950782155
30
0
41
1
10
89.5148534793616
20
7.19355147061281
30
0
41
1
10
89.7262339472927
20
7.06764266667707
30
0
0
SPLINE
5
166
100
AcDbEntity
8
1
62
256
6
ByLayer
370
18
48
1
60
0
100
AcDbSpline
70
4
71
3
72
11
73
7
40
0
40
0
40
0
40
0
40
0.223725492686869
40
0.448779347534118
40
0.72438967376706
40
1
40
1
40
1
40
1
41
1
10
80.8855998386165
20
19.3704793920525
30
0
41
1
10
80.8863067029879
20
19.545173517371
30
0
41
1
10
80.9114818894847
20
19.8768660151568
30
0
41
1
10
81.0310642743816
20
20.3557400440384
30
0
41
1
10
81.2463493690199
20
20.7865474658135
30
0
41
1
10
81.4616354594854
20
21.0098721963474
30
0
41
1
10
81.5853580035949
20
21.1024043105162
30
0
0
SPLINE
5
167
100
AcDbEntity
8
1
62
256
6
ByLayer
370
18
48
1
60
0
100
AcDbSpline
70
4
71
3
72
19
73
15
40
0
40
0
40
0
40
0
40
0.10168037622561
40
0.203501214490911
40
0.306378583704062
40
0.413092332605639
40
0.530277269566966
40
0.651747916278045
40
0.727449293779074
40
0.78363205923517
40
0.834256114999526
40
0.888907073138945
40
0.944171114472279
40
1
40
1
40
1
40
1
41
1
10
80.779662944548
20
26.3472298487068
30
0
41
1
10
80.7245671143704
20
26.1859298261506
30
0
41
1
10
80.6305516394983
20
25.856130197785
30
0
41
1
10
80.5384186397209
20
25.3360589664224
30
0
41
1
10
80.4939406701985
20
24.7911074703713
30
0
41
1
10
80.5052578085772
20
24.2043176333822
30
0
41
1
10
80.6044085091672
20
23.5743093739533
30
0
41
1
10
80.747396312227
20
23.0036104648933
30
0
41
1
10
80.8774752874985
20
22.5449932714023
30
0
41
1
10
80.9988523381889
20
22.2189910571142
30
0
41
1
10
81.1291363876634
20
21.9375178597127
30
0
41
1
10
81.2626506801585
20
21.6591603590443
30
0
41
1
10
81.4163014491812
20
21.3780310679828
30
0
41
1
10
81.5273161428023
20
21.1938743744513
30
0
41
1
10
81.5853580035958
20
21.1024043105132
30
0
0
SPLINE
5
168
100
AcDbEntity
8
1
62
256
6
ByLayer
370
18
48
1
60
0
100
AcDbSpline
70
4
71
3
72
20
73
16
40
0
40
0
40
0
40
0
40
0.0954611577633991
40
0.190423686204099
40
0.286891044164505
40
0.385280336869949
40
0.485040453304319
40
0.585933952660487
40
0.641874070977274
40
0.702538367679674
40
0.766889033697339
40
0.820618933546103
40
0.860513065827666
40
0.928089036650722
40
1
40
1
40
1
40
1
41
1
10
86.7497425663377
20
26.7424549917665
30
0
41
1
10
86.5368737081369
20
26.6188063278564
30
0
41
1
10
86.1412209684682
20
26.3381157697528
30
0
41
1
10
85.627862623454
20
25.8066659345356
30
0
41
1
10
85.2065375101055
20
25.1786617646309
30
0
41
1
10
84.8936580919314
20
24.4545040931795
30
0
41
1
10
84.6981439455089
20
23.6538344894773
30
0
41
1
10
84.6321853878409
20
22.9272935631116
30
0
41
1
10
84.6579774282024
20
22.2939679991859
30
0
41
1
10
84.7393146871618
20
21.7607310993365
30
0
41
1
10
84.8654143482624
20
21.2355620043994
30
0
41
1
10
84.990605613499
20
20.7725544241025
30
0
41
1
10
85.153539371552
20
20.3048677821303
30
0
41
1
10
85.3951717798275
20
19.8000116127764
30
0
41
1
10
85.609484097215
20
19.421118282499
30
0
41
1
10
85.7299812191434
20
19.2295976800807
30
0
0
SPLINE
5
169
100
AcDbEntity
8
1
62
256
6
ByLayer
370
18
48
1
60
0
100
AcDbSpline
70
4
71
3
72
15
73
11
40
0
40
0
40
0
40
0
40
0.125000000000013
40
0.250000000000002
40
0.375
40
0.499999999999997
40
0.624999999999999
40
0.749999999999999
40
0.875000000000001
40
1
40
1
40
1
40
1
41
1
10
81.7253069308093
20
21.2070721396821
30
0
41
1
10
81.8490294749187
20
21.2996042538509
30
0
41
1
10
82.1178987078786
20
21.438395430019
30
0
41
1
10
82.5944744715065
20
21.5073876600309
30
0
41
1
10
83.117323709427
20
21.4383114889963
30
0
41
1
10
83.6699555645068
20
21.2271044941737
30
0
41
1
10
84.2298467684232
20
20.8889569656364
30
0
41
1
10
84.7749529043625
20
20.4306857611425
30
0
41
1
10
85.2873465606633
20
19.873348754896
30
0
41
1
10
85.5881773488265
20
19.4532445029814
30
0
41
1
10
85.7299812191426
20
19.229597680082
30
0
0
SPLINE
5
16A
100
AcDbEntity
8
1
62
256
6
ByLayer
370
18
48
1
60
0
100
AcDbSpline
70
4
71
3
72
19
73
15
40
0
40
0
40
0
40
0
40
0.100887001401802
40
0.202080415998098
40
0.303906078432769
40
0.407768028877121
40
0.520454629013341
40
0.643364750983957
40
0.724872140601644
40
0.785683642712907
40
0.835372205210002
40
0.889450173460605
40
0.94443292202629
40
1
40
1
40
1
40
1
41
1
10
81.0276594126966
20
26.7375488513273
30
0
41
1
10
80.9595703457315
20
26.5735308192232
30
0
41
1
10
80.8411965377138
20
26.2362681802413
30
0
41
1
10
80.7163330418297
20
25.7002612603659
30
0
41
1
10
80.6475136171737
20
25.1374167970985
30
0
41
1
10
80.6287174736566
20
24.5374476611641
30
0
41
1
10
80.7028681296901
20
23.8814834432282
30
0
41
1
10
80.8451256594739
20
23.2692326268757
30
0
41
1
10
80.9840805875579
20
22.7594931114695
30
0
41
1
10
81.1078157081529
20
22.3928994446948
30
0
41
1
10
81.2479930762518
20
22.0879588738486
30
0
41
1
10
81.3862220164295
20
21.7952259950365
30
0
41
1
10
81.5470008451497
20
21.4982994480029
30
0
41
1
10
81.6639869116251
20
21.3036988931683
30
0
41
1
10
81.7253069308111
20
21.2070721396795
30
0
0
SPLINE
5
16B
100
AcDbEntity
8
1
62
256
6
ByLayer
370
18
48
1
60
0
100
AcDbSpline
70
4
71
3
72
11
73
7
40
0
40
0
40
0
40
0
40
0.284610256884895
40
0.569220513769791
40
0.784610256884897
40
1
40
1
40
1
40
1
41
1
10
86.7497425663377
20
26.7424549917665
30
0
41
1
10
86.6077614067543
20
26.9658474922272
30
0
41
1
10
86.3066808235717
20
27.3855326371349
30
0
41
1
10
85.8363713919857
20
27.8987180073064
30
0
41
1
10
85.382749392501
20
28.2917339394422
30
0
41
1
10
85.1038860751152
20
28.4841469932198
30
0
41
1
10
84.9624303645966
20
28.5697413154215
30
0
0
SPLINE
5
16C
100
AcDbEntity
8
1
62
256
6
ByLayer
370
18
48
1
60
0
100
AcDbSpline
70
4
71
1
72
4
73
2
40
0
40
0
40
1
40
1
41
1
10
81.5853580035941
20
21.1024043105156
30
0
41
1
10
81.6553324672019
20
21.154738225099
30
0
0
SPLINE
5
16D
100
AcDbEntity
8
1
62
256
6
ByLayer
370
18
48
1
60
0
100
AcDbSpline
70
4
71
1
72
4
73
2
40
0
40
0
40
1
40
1
41
1
10
81.6553324672017
20
21.1547382250988
30
0
41
1
10
81.7253069308095
20
21.2070721396822
30
0
0
SPLINE
5
16E
100
AcDbEntity
8
1
62
256
6
ByLayer
370
18
48
1
60
0
100
AcDbSpline
70
4
71
3
72
17
73
13
40
0
40
0
40
0
40
0
40
0.0802529714544851
40
0.159864851341296
40
0.240117822795782
40
0.37006592220806
40
0.500014021620335
40
0.629962121032611
40
0.694677150262634
40
0.760080621221781
40
0.880040310610893
40
1
40
1
40
1
40
1
41
1
10
88.9380141073341
20
14.1700294073594
30
0
41
1
10
89.0283966425454
20
14.0276641172372
30
0
41
1
10
89.1969908842039
20
13.7393375783537
30
0
41
1
10
89.4178465304815
20
13.2887204732961
30
0
41
1
10
89.6385068827851
20
12.7359597809159
30
0
41
1
10
89.8261151914544
20
12.0838668086015
30
0
41
1
10
89.9229157768143
20
11.3667897209666
30
0
41
1
10
89.9078198771105
20
10.8165796703826
30
0
41
1
10
89.8353355579103
20
10.420532838986
30
0
41
1
10
89.7288477138558
20
10.0714094317394
30
0
41
1
10
89.537138025885
20
9.70297123161123
30
0
41
1
10
89.329358594241
20
9.49014490501795
30
0
41
1
10
89.2107170032587
20
9.40141283665532
30
0
0
SPLINE
5
16F
100
AcDbEntity
8
1
62
256
6
ByLayer
370
18
48
1
60
0
100
AcDbSpline
70
4
71
1
72
4
73
2
40
0
40
0
40
1
40
1
41
1
10
89.2107170032602
20
9.40141283665643
30
0
41
1
10
89.1407425396525
20
9.34907892207318
30
0
0
SPLINE
5
170
100
AcDbEntity
8
1
62
256
6
ByLayer
370
18
48
1
60
0
100
AcDbSpline
70
4
71
1
72
4
73
2
40
0
40
0
40
1
40
1
41
1
10
89.1407425396525
20
9.3490789220732
30
0
41
1
10
89.0707680760449
20
9.29674500748995
30
0
0
SPLINE
5
171
100
AcDbEntity
8
1
62
256
6
ByLayer
370
18
48
1
60
0
100
AcDbSpline
70
4
71
3
72
12
73
8
40
0
40
0
40
0
40
0
40
0.17694440954942
40
0.352475319176612
40
0.529419728726025
40
0.815933602366393
40
1
40
1
40
1
40
1
41
1
10
89.0707680760449
20
9.29674500748997
30
0
41
1
10
88.9920682351463
20
9.2376767073405
30
0
41
1
10
88.8255088105468
20
9.13880152005285
30
0
41
1
10
88.5439624964802
20
9.04552100813435
30
0
41
1
10
88.1738545762307
20
9.00318330722116
30
0
41
1
10
87.7645796991019
20
9.05063673359209
30
0
41
1
10
87.4550804776751
20
9.15371670085777
30
0
41
1
10
87.3314111543675
20
9.20441968861098
30
0
0
SPLINE
5
172
100
AcDbEntity
8
1
62
256
6
ByLayer
370
18
48
1
60
0
100
AcDbSpline
70
4
71
3
72
19
73
15
40
0
40
0
40
0
40
0
40
0.101356956348367
40
0.202814075967854
40
0.305120752948627
40
0.410205271903569
40
0.525075767117253
40
0.647716170742778
40
0.726330217393426
40
0.784812410734664
40
0.834831443738283
40
0.889198229478724
40
0.944311756543769
40
1
40
1
40
1
40
1
41
1
10
80.9019900294355
20
26.5450250118177
30
0
41
1
10
80.8404009120893
20
26.3820578684987
30
0
41
1
10
80.734330004689
20
26.0481221700676
30
0
41
1
10
80.6259507709092
20
25.5196436264308
30
0
41
1
10
80.5697917632635
20
24.9657711522747
30
0
41
1
10
80.5651857924504
20
24.372543358443
30
0
41
1
10
80.6527135050144
20
23.7285881267447
30
0
41
1
10
80.7961153492344
20
23.1363390455848
30
0
41
1
10
80.9307376247538
20
22.6515106712486
30
0
41
1
10
81.0531528153419
20
22.3055794583277
30
0
41
1
10
81.1886160737664
20
22.0127619837179
30
0
41
1
10
81.3243200856311
20
21.7273094331848
30
0
41
1
10
81.4816252761053
20
21.4382174025248
30
0
41
1
10
81.5956410478573
20
21.2488032751383
30
0
41
1
10
81.6553324672035
20
21.1547382250964
30
0
0
SPLINE
5
173
100
AcDbEntity
8
1
62
256
6
ByLayer
370
18
48
1
60
0
100
AcDbSpline
70
4
71
3
72
11
73
7
40
0
40
0
40
0
40
0
40
0.245894857395052
40
0.421626048538073
40
0.585895514093466
40
1
40
1
40
1
40
1
41
1
10
90.4434523134398
20
7.71342898431056
30
0
41
1
10
90.3108505241079
20
7.82161778314005
30
0
41
1
10
90.0922838690039
20
8.01746190160741
30
0
41
1
10
89.8074281924855
20
8.31411701412073
30
0
41
1
10
89.4677890760795
20
8.72180960627716
30
0
41
1
10
89.2290367162859
20
9.0508275974275
30
0
41
1
10
89.0707680760443
20
9.29674500749084
30
0
0
SPLINE
5
174
100
AcDbEntity
8
1
62
256
6
ByLayer
370
18
48
1
60
0
100
AcDbSpline
70
4
71
3
72
20
73
16
40
0
40
0
40
0
40
0
40
0.0994263999580706
40
0.200249400725401
40
0.301253669179203
40
0.403499274819498
40
0.511555287455003
40
0.632167147819216
40
0.709124950628074
40
0.769891086889356
40
0.815248785189944
40
0.858901207131059
40
0.90550887569458
40
0.952521037561525
40
1
40
1
40
1
40
1
41
1
10
94.0948755120976
20
11.0011851997173
30
0
41
1
10
93.9039726854497
20
11.0062760129012
30
0
41
1
10
93.5184883891831
20
11.0384250523374
30
0
41
1
10
92.9322507088212
20
11.1538096622998
30
0
41
1
10
92.3441148673802
20
11.3363972538807
30
0
41
1
10
91.750601581682
20
11.5835189142582
30
0
41
1
10
91.1405967629278
20
11.9272485782934
30
0
41
1
10
90.6154104165246
20
12.3268841436502
30
0
41
1
10
90.1888570044699
20
12.688890186595
30
0
41
1
10
89.892879200251
20
12.9555224136994
30
0
41
1
10
89.6694257770098
20
13.1957766706132
30
0
41
1
10
89.4787879287622
20
13.4239932530671
30
0
41
1
10
89.2902125067632
20
13.6588099022777
30
0
41
1
10
89.1083833736517
20
13.9096229993732
30
0
41
1
10
88.9937384241374
20
14.0820810254497
30
0
41
1
10
88.9380141073323
20
14.1700294073622
30
0
0
SPLINE
5
175
100
AcDbEntity
8
1
62
256
6
ByLayer
370
18
48
1
60
0
100
AcDbSpline
70
4
71
3
72
11
73
7
40
0
40
0
40
0
40
0
40
0.244739357763448
40
0.419820903710745
40
0.584795980862938
40
1
40
1
40
1
40
1
41
1
10
90.5712259399899
20
7.82847687443061
30
0
41
1
10
90.4403546607025
20
7.93549789328488
30
0
41
1
10
90.2245716847757
20
8.12927494751049
30
0
41
1
10
89.9431721199081
20
8.42388601649422
30
0
41
1
10
89.6056240058312
20
8.82904460946848
30
0
41
1
10
89.3681339645436
20
9.15670632536911
30
0
41
1
10
89.2107170032596
20
9.40141283665728
30
0
0
SPLINE
5
176
100
AcDbEntity
8
1
62
256
6
ByLayer
370
18
48
1
60
0
100
AcDbSpline
70
4
71
3
72
11
73
7
40
0
40
0
40
0
40
0
40
0.248134761381895
40
0.496268929866626
40
0.748135386648752
40
1
40
1
40
1
40
1
41
1
10
89.6512873049105
20
35.775
30
0
41
1
10
89.6512081069274
20
35.7749389452749
30
0
41
1
10
89.6302980838473
20
35.7587433866256
30
0
41
1
10
89.5353910843094
20
35.6857901210478
30
0
41
1
10
89.375530381881
20
35.5637231574231
30
0
41
1
10
89.2244545108858
20
35.4506097492524
30
0
41
1
10
89.1379611817847
20
35.3860893015818
30
0
0
SPLINE
5
177
100
AcDbEntity
8
1
62
256
6
ByLayer
370
18
48
1
60
0
100
AcDbSpline
70
4
71
3
72
11
73
7
40
0
40
0
40
0
40
0
40
0.245319610115303
40
0.420723817900245
40
0.585345800878828
40
1
40
1
40
1
40
1
41
1
10
90.5073373606586
20
7.77095133920611
30
0
41
1
10
90.3756004428568
20
7.8785561070507
30
0
41
1
10
90.1584271116878
20
8.07336508864914
30
0
41
1
10
89.8753017571739
20
8.36899892103637
30
0
41
1
10
89.5367085895953
20
8.77542430085366
30
0
41
1
10
89.2985860854289
20
9.10376582358651
30
0
41
1
10
89.140742539652
20
9.34907892207408
30
0
0
SPLINE
5
178
100
AcDbEntity
8
1
62
256
6
ByLayer
370
18
48
1
60
0
100
AcDbSpline
70
4
71
3
72
10
73
6
40
0
40
0
40
0
40
0
40
0.249999999942497
40
0.624999999931874
40
1
40
1
40
1
40
1
41
1
10
90.507337360653
20
7.77095133919644
30
0
41
1
10
90.5020134590661
20
7.76615767662361
30
0
41
1
10
90.4887037973969
20
7.75417360332566
30
0
41
1
10
90.4674087087327
20
7.73499941942571
30
0
41
1
10
90.4514377232961
20
7.72061907953295
30
0
41
1
10
90.4434523135048
20
7.71342898426147
30
0
0
SPLINE
5
179
100
AcDbEntity
8
1
62
256
6
ByLayer
370
18
48
1
60
0
100
AcDbSpline
70
4
71
3
72
10
73
6
40
0
40
0
40
0
40
0
40
0.249999999940968
40
0.624999999930474
40
1
40
1
40
1
40
1
41
1
10
90.5712259399837
20
7.82847687442015
30
0
41
1
10
90.5659017425513
20
7.82368294546216
30
0
41
1
10
90.5525913422078
20
7.81169820704997
30
0
41
1
10
90.5312950754329
20
7.79252296237926
30
0
41
1
10
90.515323209783
20
7.77814182993771
30
0
41
1
10
90.5073373607294
20
7.77095133915261
30
0
0
SPLINE
5
17A
100
AcDbEntity
8
1
62
256
6
ByLayer
370
18
48
1
60
0
100
AcDbSpline
70
4
71
3
72
11
73
7
40
0
40
0
40
0
40
0
40
0.0834915328201437
40
0.459303352876703
40
0.834919587653799
40
1
40
1
40
1
40
1
41
1
10
95.6036860892292
20
21.8205348206899
30
0
41
1
10
95.6039054129281
20
21.8243729012924
30
0
41
1
10
95.6049156431655
20
21.845699614751
30
0
41
1
10
95.6049819557496
20
21.887828096474
30
0
41
1
10
95.6011054392153
20
21.9351841730693
30
0
41
1
10
95.5976090065295
20
21.9610060612979
30
0
41
1
10
95.5964109226541
20
21.9687913887281
30
0
0
SPLINE
5
17B
100
AcDbEntity
8
1
62
256
6
ByLayer
370
18
48
1
60
0
100
AcDbSpline
70
4
71
3
72
11
73
7
40
0
40
0
40
0
40
0
40
0.165080412346176
40
0.540696647123626
40
0.916508467179909
40
1
40
1
40
1
40
1
41
1
10
96.2921672037668
20
20.8714752052117
30
0
41
1
10
96.2854719496189
20
20.8761389030939
30
0
41
1
10
96.2631804861827
20
20.8909885495993
30
0
41
1
10
96.2218405725512
20
20.9149458365028
30
0
41
1
10
96.184449512213
20
20.9316843041246
30
0
41
1
10
96.1653426622677
20
20.9388987827634
30
0
41
1
10
96.1618973695588
20
20.9401485584954
30
0
0
SPLINE
5
17C
100
AcDbEntity
8
1
62
256
6
ByLayer
370
18
48
1
60
0
100
AcDbSpline
70
4
71
3
72
10
73
6
40
0
40
0
40
0
40
0
40
0.392172072840865
40
0.78943741796621
40
1
40
1
40
1
40
1
41
1
10
96.0660458092498
20
22.8934541255683
30
0
41
1
10
96.0821978494439
20
22.9003706859368
30
0
41
1
10
96.1145004307925
20
22.9169357864669
30
0
41
1
10
96.1577281232675
20
22.9467122510909
30
0
41
1
10
96.181102441345
20
22.9660523270772
30
0
41
1
10
96.1890404768826
20
22.9730373403227
30
0
0
SPLINE
5
17D
100
AcDbEntity
8
1
62
256
6
ByLayer
370
18
48
1
60
0
100
AcDbSpline
70
4
71
3
72
10
73
6
40
0
40
0
40
0
40
0
40
0.392172072838113
40
0.789437417963528
40
1
40
1
40
1
40
1
41
1
10
97.4430080383249
20
20.9953348946118
30
0
41
1
10
97.4241417680607
20
20.9877345935058
30
0
41
1
10
97.388508777882
20
20.9703305308647
30
0
41
1
10
97.3466771740663
20
20.9409057544415
30
0
41
1
10
97.3265343741384
20
20.9223797290498
30
0
41
1
10
97.3200133706921
20
20.9157516798573
30
0
0
SPLINE
5
17E
100
AcDbEntity
8
1
62
256
6
ByLayer
370
18
48
1
60
0
100
AcDbSpline
70
4
71
3
72
11
73
7
40
0
40
0
40
0
40
0
40
0.165080412346199
40
0.540696647123343
40
0.916508467179886
40
1
40
1
40
1
40
1
41
1
10
97.2168866438079
20
23.0173138149683
30
0
41
1
10
97.2224802713
20
23.0123726067048
30
0
41
1
10
97.2417626250022
20
22.99676493643
30
0
41
1
10
97.2809722523124
20
22.9722710098525
30
0
41
1
10
97.3212822252219
20
22.9562678444646
30
0
41
1
10
97.3431616807141
20
22.9497518119089
30
0
41
1
10
97.3471564780159
20
22.9486404616847
30
0
0
SPLINE
5
17F
100
AcDbEntity
8
1
62
256
6
ByLayer
370
18
48
1
60
0
100
AcDbSpline
70
4
71
3
72
11
73
7
40
0
40
0
40
0
40
0
40
0.083491532820328
40
0.459303352876667
40
0.834919587653806
40
1
40
1
40
1
40
1
41
1
10
97.9053677583455
20
22.0682541994901
30
0
41
1
10
97.9045989300537
20
22.0642776933799
30
0
41
1
10
97.9008160942693
20
22.0422525338382
30
0
41
1
10
97.897830869114
20
21.9993887498812
30
0
41
1
10
97.9038376719697
20
21.9525693129601
30
0
41
1
10
97.9103432143894
20
21.9275054485008
30
0
41
1
10
97.9126429249206
20
21.9199976314519
30
0
0
SPLINE
5
180
100
AcDbEntity
8
SK1
62
256
6
ByLayer
370
18
48
1
60
0
100
AcDbSpline
70
4
71
3
72
17
73
13
40
0
40
0
40
0
40
0
40
0.0916970829334633
40
0.183391081738645
40
0.277661349850053
40
0.371929548727692
40
0.464104584053187
40
0.55627930075533
40
0.651207196052775
40
0.746136571187459
40
0.872254158021775
40
1
40
1
40
1
40
1
41
1
10
-1.51711681646361
20
4.37868787987639
30
0
41
1
10
-1.57394002814087
20
4.12869432918797
30
0
41
1
10
-1.67752328626724
20
3.62087590059014
30
0
41
1
10
-1.80439775990493
20
2.826086634555
30
0
41
1
10
-1.90022165182407
20
2.00413186629946
30
0
41
1
10
-1.96318710703689
20
1.1661195886769
30
0
41
1
10
-1.9924037569022
20
0.325961475993729
30
0
41
1
10
-1.98885339463336
20
-0.518505925475392
30
0
41
1
10
-1.95125708283224
20
-1.36760756571806
30
0
41
1
10
-1.87126630831359
20
-2.30726174251303
30
0
41
1
10
-1.73442807616122
20
-3.32233241229987
30
0
41
1
10
-1.59645095399116
20
-4.02964723478365
30
0
41
1
10
-1.51711681646268
20
-4.37868787988046
30
0
0
SPLINE
5
181
100
AcDbEntity
8
SK1
62
256
6
ByLayer
370
18
48
1
60
0
100
AcDbSpline
70
4
71
1
72
4
73
2
40
0
40
0
40
1
40
1
41
1
10
-1.30710678118661
20
5.31322292411285
30
0
41
1
10
-1.51711681646372
20
4.37868787987593
30
0
0
SPLINE
5
182
100
AcDbEntity
8
SK1
62
256
6
ByLayer
370
18
48
1
60
0
100
AcDbSpline
70
4
71
1
72
4
73
2
40
0
40
0
40
1
40
1
41
1
10
-1.51711681646361
20
-4.37868787987636
30
0
41
1
10
-1.30710678118651
20
-5.31322292411312
30
0
0
SPLINE
5
183
100
AcDbEntity
8
SK1
62
256
6
ByLayer
370
18
48
1
60
0
100
AcDbSpline
70
4
71
3
72
19
73
15
40
0
40
0
40
0
40
0
40
0.192560302658266
40
0.384638521604479
40
0.51810016272603
40
0.563684590672366
40
0.591267948733168
40
0.615713583718946
40
0.640028111718181
40
0.670924803783148
40
0.724987326986731
40
0.810145918538115
40
0.895622938748592
40
1
40
1
40
1
40
1
41
1
10
-1.30710678118661
20
5.31322292411285
30
0
41
1
10
-1.2740233491186
20
5.48277265931829
30
0
41
1
10
-1.18708536872418
20
5.81487265612247
30
0
41
1
10
-1.02859246368759
20
6.24791798474781
30
0
41
1
10
-0.863173762912108
20
6.54325826313805
30
0
41
1
10
-0.715725648098543
20
6.67194967721629
30
0
41
1
10
-0.627240525258402
20
6.70967012909411
30
0
41
1
10
-0.550399782172539
20
6.71493498995776
30
0
41
1
10
-0.474497881287916
20
6.69401562568579
30
0
41
1
10
-0.386488410971403
20
6.63872896243079
30
0
41
1
10
-0.281619866340073
20
6.52322280754496
30
0
41
1
10
-0.177982435065214
20
6.3509520594829
30
0
41
1
10
-0.0825623421663674
20
6.12696757500796
30
0
41
1
10
-0.0265068918990976
20
5.96882442958274
30
0
41
1
10
3.81E-13
20
5.88020144346672
30
0
0
SPLINE
5
184
100
AcDbEntity
8
SK1
62
256
6
ByLayer
370
18
48
1
60
0
100
AcDbSpline
70
4
71
3
72
19
73
15
40
0
40
0
40
0
40
0
40
0.122287031711581
40
0.244130836272735
40
0.321457372863058
40
0.351082292034461
40
0.380997063343766
40
0.403347257500467
40
0.425633966240504
40
0.462813592469267
40
0.555914205367528
40
0.723007321623253
40
0.890852872519123
40
1
40
1
40
1
40
1
41
1
10
3.5E-15
20
-5.88020144346786
30
0
41
1
10
-0.0288863071467191
20
-5.98491583646876
30
0
41
1
10
-0.102002960729784
20
-6.18773452757029
30
0
41
1
10
-0.226418320086272
20
-6.44454648783508
30
0
41
1
10
-0.353060079361309
20
-6.61068810985507
30
0
41
1
10
-0.45733136908581
20
-6.68572852593287
30
0
41
1
10
-0.533463690245326
20
-6.71311953047316
30
0
41
1
10
-0.608358068793046
20
-6.71244766982126
30
0
41
1
10
-0.685520550022667
20
-6.68794199951531
30
0
41
1
10
-0.805724464572255
20
-6.60374921848991
30
0
41
1
10
-0.963627155945464
20
-6.37974149216815
30
0
41
1
10
-1.11868960837549
20
-6.02964929191161
30
0
41
1
10
-1.22704515112991
20
-5.64890903546879
30
0
41
1
10
-1.286199646354
20
-5.40867917751224
30
0
41
1
10
-1.3071067811869
20
-5.31322292411134
30
0
0
SPLINE
5
185
100
AcDbEntity
8
1
62
256
6
ByLayer
370
18
48
1
60
0
100
AcDbSpline
70
4
71
3
72
13
73
9
40
0
40
0
40
0
40
0
40
0.260822121799805
40
0.395252665390487
40
0.52966597226515
40
0.740111661383763
40
0.956233497746071
40
1
40
1
40
1
40
1
41
1
10
91.071111644137
20
21.536209325677
30
0
41
1
10
90.7112452956934
20
21.5178312451373
30
0
41
1
10
90.181532510449
20
21.4873494437338
30
0
41
1
10
89.499507531456
20
21.4413358998895
30
0
41
1
10
88.9089813160475
20
21.396087426382
30
0
41
1
10
88.2658900436191
20
21.3373519976002
30
0
41
1
10
87.7946684103959
20
21.2814331272455
30
0
41
1
10
87.565099877029
20
21.2481140183312
30
0
41
1
10
87.5272110185664
20
21.2424365021224
30
0
0
SPLINE
5
186
100
AcDbEntity
8
1
62
256
6
ByLayer
370
18
48
1
60
0
100
AcDbSpline
70
4
71
3
72
13
73
9
40
0
40
0
40
0
40
0
40
0.185540104433749
40
0.376970109381426
40
0.562319173928967
40
0.751995371395343
40
0.875492911618998
40
1
40
1
40
1
40
1
41
1
10
87.9783510945304
20
23.7716889290024
30
0
41
1
10
88.1450195640517
20
23.7396469855093
30
0
41
1
10
88.5135189302183
20
23.6538222036463
30
0
41
1
10
89.1650762495594
20
23.4574607654048
30
0
41
1
10
89.8900911382954
20
23.2073827437707
30
0
41
1
10
90.5724273666953
20
22.949890663685
30
0
41
1
10
91.1914451048
20
22.7029343698581
30
0
41
1
10
91.5474291989961
20
22.5557136893393
30
0
41
1
10
91.7277757132324
20
22.4797922683804
30
0
0
SPLINE
5
187
100
AcDbEntity
8
1
62
256
6
ByLayer
370
18
48
1
60
0
100
AcDbSpline
70
4
71
3
72
11
73
7
40
0
40
0
40
0
40
0
40
0.228974136894835
40
0.466571673620236
40
0.928121431217299
40
1
40
1
40
1
40
1
41
1
10
91.7277757132342
20
22.4797922683891
30
0
41
1
10
91.6974569656626
20
22.3987442300325
30
0
41
1
10
91.6254493178448
20
22.2370907703009
30
0
41
1
10
91.4371847880209
20
21.9254469690942
30
0
41
1
10
91.2378903644753
20
21.6945603752487
30
0
41
1
10
91.0911601549557
20
21.5547325612751
30
0
41
1
10
91.0711116441366
20
21.5362093256767
30
0
0
SPLINE
5
188
100
AcDbEntity
8
1
62
256
6
ByLayer
370
18
48
1
60
0
100
AcDbSpline
70
4
71
3
72
14
73
10
40
0
40
0
40
0
40
0
40
0.165893799697863
40
0.331787599395726
40
0.497681399093589
40
0.663575198791453
40
0.829468998489317
40
0.995362798187181
40
1
40
1
40
1
40
1
41
1
10
94.2994703843984
20
27.8617442429121
30
0
41
1
10
94.361803250201
20
27.8152521603888
30
0
41
1
10
94.4940556234179
20
27.7075393699316
30
0
41
1
10
94.7163593061351
20
27.5007259535483
30
0
41
1
10
94.9590925175722
20
27.2518433698628
30
0
41
1
10
95.2197128188979
20
26.9635399575167
30
0
41
1
10
95.4950996918445
20
26.639257938315
30
0
41
1
10
95.6892150963356
20
26.3981035756462
30
0
41
1
10
95.7889888510709
20
26.2710137953924
30
0
41
1
10
95.7917032434536
20
26.2675539757932
30
0
0
SPLINE
5
189
100
AcDbEntity
8
1
62
256
6
ByLayer
370
18
48
1
60
0
100
AcDbSpline
70
4
71
1
72
4
73
2
40
0
40
0
40
1
40
1
41
1
10
95.7917032292361
20
26.2675539703244
30
0
41
1
10
95.7362653364891
20
26.2457875127189
30
0
0
SPLINE
5
18A
100
AcDbEntity
8
1
62
256
6
ByLayer
370
18
48
1
60
0
100
AcDbSpline
70
4
71
3
72
12
73
8
40
0
40
0
40
0
40
0
40
0.213658229661814
40
0.431854247933446
40
0.678785203842093
40
0.935224217946574
40
1
40
1
40
1
40
1
41
1
10
91.7945175348879
20
22.6872454225656
30
0
41
1
10
91.8436228971569
20
22.8686100336485
30
0
41
1
10
91.9692393255093
20
23.2229179217227
30
0
41
1
10
92.2499705912615
20
23.7448086149036
30
0
41
1
10
92.6453415097508
20
24.2459211391143
30
0
41
1
10
93.0356648714301
20
24.5834966757386
30
0
41
1
10
93.2779264109189
20
24.7481896683383
30
0
41
1
10
93.3277832861381
20
24.7804386301965
30
0
0
SPLINE
5
18B
100
AcDbEntity
8
1
62
256
6
ByLayer
370
18
48
1
60
0
100
AcDbSpline
70
4
71
1
72
4
73
2
40
0
40
0
40
1
40
1
41
1
10
91.7945175348879
20
22.6872454225656
30
0
41
1
10
91.7277757132342
20
22.479792268389
30
0
0
SPLINE
5
18C
100
AcDbEntity
8
1
62
256
6
ByLayer
370
18
48
1
60
0
100
AcDbSpline
70
4
71
3
72
14
73
10
40
0
40
0
40
0
40
0
40
0.185711059847537
40
0.374949563145765
40
0.487831160120499
40
0.600699303269452
40
0.717935915300256
40
0.835152857895956
40
1
40
1
40
1
40
1
41
1
10
95.0588971564982
20
17.2260941441806
30
0
41
1
10
95.0431305042551
20
16.9387550282402
30
0
41
1
10
95.0038862017804
20
16.375127963518
30
0
41
1
10
94.9337437735451
20
15.676867428081
30
0
41
1
10
94.8602066663173
20
15.1238892814537
30
0
41
1
10
94.7907347568335
20
14.695457711485
30
0
41
1
10
94.7112083358232
20
14.2973632373105
30
0
41
1
10
94.609063264397
20
13.8868136857741
30
0
41
1
10
94.5278785412705
20
13.646341441108
30
0
41
1
10
94.4773395591316
20
13.5217703694612
30
0
0
SPLINE
5
18D
100
AcDbEntity
8
1
62
256
6
ByLayer
370
18
48
1
60
0
100
AcDbSpline
70
4
71
3
72
12
73
8
40
0
40
0
40
0
40
0
40
0.181429666134873
40
0.366867448225743
40
0.582033047866579
40
0.802198386802964
40
1
40
1
40
1
40
1
41
1
10
92.0254369031247
20
14.1480326221565
30
0
41
1
10
92.1262847077639
20
14.262954049087
30
0
41
1
10
92.3369923758537
20
14.5207055768853
30
0
41
1
10
92.6964728053689
20
15.0184896720155
30
0
41
1
10
93.0973208439558
20
15.6269646308136
30
0
41
1
10
93.5175240767986
20
16.3153381305739
30
0
41
1
10
93.795324994244
20
16.7964592057017
30
0
41
1
10
93.9274091711029
20
17.0313825833836
30
0
0
SPLINE
5
18E
100
AcDbEntity
8
1
62
256
6
ByLayer
370
18
48
1
60
0
100
AcDbSpline
70
4
71
3
72
10
73
6
40
0
40
0
40
0
40
0
40
0.470923083159053
40
0.891368634980567
40
1
40
1
40
1
40
1
41
1
10
93.9274091711019
20
17.0313825833818
30
0
41
1
10
94.1006355954464
20
17.0981071345444
30
0
41
1
10
94.4297223193208
20
17.1912123193305
30
0
41
1
10
94.824927815748
20
17.2334941932673
30
0
41
1
10
95.0192035766933
20
17.2281963031459
30
0
41
1
10
95.0588971564987
20
17.2260941441805
30
0
0
SPLINE
5
18F
100
AcDbEntity
8
1
62
256
6
ByLayer
370
18
48
1
60
0
100
AcDbSpline
70
4
71
3
72
10
73
6
40
0
40
0
40
0
40
0
40
0.212842780707694
40
0.98626311172173
40
1
40
1
40
1
40
1
41
1
10
97.7655621148041
20
17.7813691862591
30
0
41
1
10
97.7191272126124
20
17.7513032751015
30
0
41
1
10
97.5024118530795
20
17.6158653227916
30
0
41
1
10
97.2712773440112
20
17.5113195586999
30
0
41
1
10
97.088082485493
20
17.4288247581579
30
0
41
1
10
97.0848842297566
20
17.4273881969478
30
0
0
SPLINE
5
190
100
AcDbEntity
8
1
62
256
6
ByLayer
370
18
48
1
60
0
100
AcDbSpline
70
4
71
2
72
6
73
3
40
0
40
0
40
0
40
1
40
1
40
1
41
1
10
100.13647909832
20
19.4151647131569
30
0
41
1
10
99.824568627961
20
19.1141787344825
30
0
41
1
10
99.4665732720908
20
18.8820017489178
30
0
0
SPLINE
5
191
100
AcDbEntity
8
1
62
256
6
ByLayer
370
18
48
1
60
0
100
AcDbSpline
70
4
71
3
72
14
73
10
40
0
40
0
40
0
40
0
40
0.0046371930015433
40
0.170530994167954
40
0.336424795334363
40
0.502318596500771
40
0.668212397667182
40
0.834106198833591
40
1
40
1
40
1
40
1
41
1
10
100.136479114835
20
19.41516469795
30
0
41
1
10
100.138295558272
20
19.4114786842748
30
0
41
1
10
100.204971542091
20
19.2760512644434
30
0
41
1
10
100.328016875303
20
19.0169936728435
30
0
41
1
10
100.483073417866
20
18.6623992826641
30
0
41
1
10
100.609488085702
20
18.3402881766252
30
0
41
1
10
100.70575793208
20
18.0545100584243
30
0
41
1
10
100.770829238919
20
17.8080882898173
30
0
41
1
10
100.792785043408
20
17.6725907297225
30
0
41
1
10
100.798458849
20
17.6118256833714
30
0
0
SPLINE
5
192
100
AcDbEntity
8
1
62
256
6
ByLayer
370
18
48
1
60
0
100
AcDbSpline
70
4
71
1
72
4
73
2
40
0
40
0
40
1
40
1
41
1
10
95.0588971564982
20
17.2260941441805
30
0
41
1
10
95.2702603937042
20
17.2054567671746
30
0
0
SPLINE
5
193
100
AcDbEntity
8
1
62
256
6
ByLayer
370
18
48
1
60
0
100
AcDbSpline
70
4
71
1
72
4
73
2
40
0
40
0
40
1
40
1
41
1
10
87.3830119103062
20
21.1591280712323
30
0
41
1
10
87.3469683722125
20
21.2189090838147
30
0
0
SPLINE
5
194
100
AcDbEntity
8
1
62
256
6
ByLayer
370
18
48
1
60
0
100
AcDbSpline
70
4
71
1
72
4
73
2
40
0
40
0
40
1
40
1
41
1
10
93.9274091711019
20
17.0313825833818
30
0
41
1
10
93.8409721010693
20
16.9979396570421
30
0
0
SPLINE
5
195
100
AcDbEntity
8
1
62
256
6
ByLayer
370
18
48
1
60
0
100
AcDbSpline
70
4
71
1
72
4
73
2
40
0
40
0
40
1
40
1
41
1
10
91.8742579537766
20
14.0757324894168
30
0
41
1
10
91.9130992013893
20
14.0174085139661
30
0
0
SPLINE
5
196
100
AcDbEntity
8
1
62
256
6
ByLayer
370
18
48
1
60
0
100
AcDbSpline
70
4
71
2
72
6
73
3
40
0
40
0
40
0
40
1
40
1
40
1
41
1
10
91.071111644137
20
21.536209325677
30
0
41
1
10
90.7888180288149
20
21.2771392468059
30
0
41
1
10
90.4738824829137
20
21.0890498542254
30
0
0
SPLINE
5
197
100
AcDbEntity
8
1
62
256
6
ByLayer
370
18
48
1
60
0
100
AcDbSpline
70
4
71
2
72
6
73
3
40
0
40
0
40
0
40
1
40
1
40
1
41
1
10
93.8409721010694
20
16.9979396570421
30
0
41
1
10
93.5293187166538
20
16.8717120340966
30
0
41
1
10
93.2541776526812
20
16.7040906845301
30
0
0
SPLINE
5
198
100
AcDbEntity
8
1
62
256
6
ByLayer
370
18
48
1
60
0
100
AcDbSpline
70
4
71
3
72
11
73
7
40
0
40
0
40
0
40
0
40
0.300840514275767
40
0.59950880563339
40
0.898303920695688
40
1
40
1
40
1
40
1
41
1
10
97.0848842297569
20
17.427388196948
30
0
41
1
10
96.9058930677386
20
17.3559613165708
30
0
41
1
10
96.5470539089159
20
17.2432044113518
30
0
41
1
10
95.9994505011346
20
17.1634679306827
30
0
41
1
10
95.5737183993551
20
17.1685353517832
30
0
41
1
10
95.3316554227622
20
17.1966705244302
30
0
41
1
10
95.2702603937033
20
17.2054567671748
30
0
0
SPLINE
5
199
100
AcDbEntity
8
1
62
256
6
ByLayer
370
18
48
1
60
0
100
AcDbSpline
70
4
71
3
72
21
73
17
40
0
40
0
40
0
40
0
40
0.0387846401374987
40
0.0869206919816711
40
0.143208125785327
40
0.206285280139473
40
0.31567611931618
40
0.432650019756174
40
0.540774574242064
40
0.645946529723407
40
0.743522580543514
40
0.828841547104868
40
0.899151826997125
40
0.936215701474593
40
0.969831648827314
40
1
40
1
40
1
40
1
41
1
10
94.2994703843984
20
27.8617442429121
30
0
41
1
10
94.4264833722692
20
27.9176247453921
30
0
41
1
10
94.7147035495561
20
28.0324672247172
30
0
41
1
10
95.207950410492
20
28.1719725450661
30
0
41
1
10
95.790191132206
20
28.3099851358695
30
0
41
1
10
96.5920362670792
20
28.469392668634
30
0
41
1
10
97.612406877411
20
28.6385045759797
30
0
41
1
10
98.7955495623192
20
28.8030538741191
30
0
41
1
10
99.9633108843125
20
28.9435221805775
30
0
41
1
10
101.059607047429
20
29.0621157170973
30
0
41
1
10
102.070827116704
20
29.1648745410839
30
0
41
1
10
102.952756659666
20
29.2511799546757
30
0
41
1
10
103.614222944313
20
29.3239466494804
30
0
41
1
10
104.074699410272
20
29.4270607508764
30
0
41
1
10
104.370292539367
20
29.5536964191326
30
0
41
1
10
104.539796080995
20
29.6487597635332
30
0
41
1
10
104.6159215882
20
29.6982455350999
30
0
0
SPLINE
5
19A
100
AcDbEntity
8
1
62
256
6
ByLayer
370
18
48
1
60
0
100
AcDbSpline
70
4
71
3
72
15
73
11
40
0
40
0
40
0
40
0
40
0.110693970968657
40
0.197429022413272
40
0.284502571994591
40
0.366456905974867
40
0.49767823441234
40
0.615432755153231
40
0.733526927695915
40
1
40
1
40
1
40
1
41
1
10
104.615921588267
20
29.6982455351404
30
0
41
1
10
104.617112459724
20
29.652555699126
30
0
41
1
10
104.642599678923
20
29.570143946535
30
0
41
1
10
104.736077966159
20
29.4429668463563
30
0
41
1
10
104.873576625263
20
29.3376630154063
30
0
41
1
10
105.070023666537
20
29.2389750716365
30
0
41
1
10
105.303985466291
20
29.1668446535896
30
0
41
1
10
105.556673929533
20
29.1206852412482
30
0
41
1
10
105.890581094989
20
29.0884871790973
30
0
41
1
10
106.133393837719
20
29.0840229939841
30
0
41
1
10
106.295259803066
20
29.0927055529763
30
0
0
SPLINE
5
19B
100
AcDbEntity
8
1
62
256
6
ByLayer
370
18
48
1
60
0
100
AcDbSpline
70
4
71
3
72
17
73
13
40
0
40
0
40
0
40
0
40
0.130238464790175
40
0.2633347320621
40
0.393954291856961
40
0.516373348690232
40
0.624775658811001
40
0.716205668354825
40
0.783807885365184
40
0.846432157703247
40
0.915848409145678
40
1
40
1
40
1
40
1
41
1
10
100.062256920833
20
25.5967701888005
30
0
41
1
10
100.355732331366
20
25.7569344597081
30
0
41
1
10
100.944706172639
20
26.0768300139143
30
0
41
1
10
101.812605141424
20
26.5430670515302
30
0
41
1
10
102.649889070453
20
26.9890926071685
30
0
41
1
10
103.421866775311
20
27.3971850536278
30
0
41
1
10
104.099223412671
20
27.7518962375625
30
0
41
1
10
104.649274875248
20
28.0384372690254
30
0
41
1
10
105.089523955958
20
28.2887381375901
30
0
41
1
10
105.467010909143
20
28.5376927305477
30
0
41
1
10
105.86283060772
20
28.8090629873602
30
0
41
1
10
106.142965653277
20
28.9933420007388
30
0
41
1
10
106.295259803053
20
29.0927055529684
30
0
0
SPLINE
5
19C
100
AcDbEntity
8
1
62
256
6
ByLayer
370
18
48
1
60
0
100
AcDbSpline
70
4
71
3
72
14
73
10
40
0
40
0
40
0
40
0
40
0.16080310800936
40
0.321601255345447
40
0.482749910744494
40
0.643860957374313
40
0.777689287684142
40
0.911384844347719
40
1
40
1
40
1
40
1
41
1
10
95.7917032434528
20
26.2675539757944
30
0
41
1
10
96.020650863315
20
26.354696214545
30
0
41
1
10
96.4857216517944
20
26.4896984569415
30
0
41
1
10
97.2147569744856
20
26.5754960182075
30
0
41
1
10
97.9470993453518
20
26.541080894141
30
0
41
1
10
98.6249039799642
20
26.397203328512
30
0
41
1
10
99.2308785033317
20
26.1617979461758
30
0
41
1
10
99.6997299882915
20
25.8910426906337
30
0
41
1
10
99.9618677148149
20
25.6849342452917
30
0
41
1
10
100.062257050764
20
25.5967702597787
30
0
0
SPLINE
5
19D
100
AcDbEntity
8
1
62
256
6
ByLayer
370
18
48
1
60
0
100
AcDbSpline
70
4
71
3
72
15
73
11
40
0
40
0
40
0
40
0
40
0.166515919983873
40
0.332774473620627
40
0.501628500714139
40
0.63096677658833
40
0.722350043801146
40
0.814286437225676
40
0.896171486345312
40
1
40
1
40
1
40
1
41
1
10
106.960538850761
20
28.0434567205772
30
0
41
1
10
106.917149604671
20
27.9478613852438
30
0
41
1
10
106.835139346414
20
27.7497061220787
30
0
41
1
10
106.72236284725
20
27.4318981673877
30
0
41
1
10
106.637336796543
20
27.1133377216898
30
0
41
1
10
106.597644713317
20
26.8264935504055
30
0
41
1
10
106.601097573895
20
26.6014531383852
30
0
41
1
10
106.637110194029
20
26.4386379762027
30
0
41
1
10
106.703887160015
20
26.3231281104122
30
0
41
1
10
106.757612433317
20
26.2798933786404
30
0
41
1
10
106.791601657765
20
26.2668586900424
30
0
0
SPLINE
5
19E
100
AcDbEntity
8
1
62
256
6
ByLayer
370
18
48
1
60
0
100
AcDbSpline
70
4
71
3
72
21
73
17
40
0
40
0
40
0
40
0
40
0.0387846401381879
40
0.0869206919828081
40
0.143208125786673
40
0.206285280140795
40
0.315676119316983
40
0.432650019755858
40
0.540774574240229
40
0.645946529719764
40
0.743522580537986
40
0.828841547097601
40
0.899151826988438
40
0.93621570146523
40
0.96983164881745
40
1
40
1
40
1
40
1
41
1
10
100.798458849
20
17.611825683372
30
0
41
1
10
100.90281364319
20
17.7034416916532
30
0
41
1
10
101.129048090119
20
17.916045336671
30
0
41
1
10
101.465944010249
20
18.3021404792401
30
0
41
1
10
101.839767603194
20
18.7688593922728
30
0
41
1
10
102.326921698956
20
19.4245837811106
30
0
41
1
10
102.915689644336
20
20.2744004150475
30
0
41
1
10
103.567882622727
20
21.2763402210596
30
0
41
1
10
104.188762340794
20
22.279326122745
30
0
41
1
10
104.757224871492
20
23.2303956322025
30
0
41
1
10
105.273271760565
20
24.1141198014046
30
0
41
1
10
105.71801968715
20
24.889928818192
30
0
41
1
10
106.056178337432
20
25.4726020838203
30
0
41
1
10
106.335580766644
20
25.8612981861626
30
0
41
1
10
106.566511005134
20
26.0899173194602
30
0
41
1
10
106.717867926357
20
26.2136007149125
30
0
41
1
10
106.791601657768
20
26.2668586900454
30
0
0
SPLINE
5
19F
100
AcDbEntity
8
1
62
256
6
ByLayer
370
18
48
1
60
0
100
AcDbSpline
70
4
71
3
72
15
73
11
40
0
40
0
40
0
40
0
40
0.113779781629085
40
0.227638929968222
40
0.353559136983215
40
0.479544210916591
40
0.632299923218907
40
0.785036244231014
40
0.892516027901574
40
1
40
1
40
1
40
1
41
1
10
101.352317595236
20
23.5621435498315
30
0
41
1
10
101.400303570287
20
23.3954616521589
30
0
41
1
10
101.472237376506
20
23.0593755127413
30
0
41
1
10
101.508077793539
20
22.5240117169252
30
0
41
1
10
101.466007883698
20
21.9728254491968
30
0
41
1
10
101.337033908705
20
21.3756948878486
30
0
41
1
10
101.108730550872
20
20.7637361309775
30
0
41
1
10
100.804700491374
20
20.2158117657654
30
0
41
1
10
100.473768307916
20
19.7671389215637
30
0
41
1
10
100.253503805676
20
19.5287792401033
30
0
41
1
10
100.136479104435
20
19.4151647190489
30
0
0
SPLINE
5
1A0
100
AcDbEntity
8
1
62
256
6
ByLayer
370
18
48
1
60
0
100
AcDbSpline
70
4
71
3
72
17
73
13
40
0
40
0
40
0
40
0
40
0.13023846474231
40
0.263334731270983
40
0.393954289831348
40
0.516373345248183
40
0.624775654101447
40
0.716205662892979
40
0.783807881204234
40
0.846432154747479
40
0.915848407525953
40
1
40
1
40
1
40
1
41
1
10
101.352317595236
20
23.5621435498315
30
0
41
1
10
101.61634107769
20
23.7687580917947
30
0
41
1
10
102.143813582408
20
24.185650816597
30
0
41
1
10
102.913176933917
20
24.8072938439888
30
0
41
1
10
103.649303624964
20
25.4128600908946
30
0
41
1
10
104.322947253394
20
25.9760406638925
30
0
41
1
10
104.909015079404
20
26.4747284993061
30
0
41
1
10
105.381639496172
20
26.8833840339339
30
0
41
1
10
105.777448589829
20
27.203773683405
30
0
41
1
10
106.146631025676
20
27.4658257955916
30
0
41
1
10
106.54161072273
20
27.7385208658393
30
0
41
1
10
106.813622751715
20
27.9356111434319
30
0
41
1
10
106.960538850756
20
28.0434567205729
30
0
0
SPLINE
5
1A1
100
AcDbEntity
8
1
62
256
6
ByLayer
370
18
48
1
60
0
100
AcDbSpline
70
4
71
2
72
6
73
3
40
0
40
0
40
0
40
1
40
1
40
1
41
1
10
95.7362653364891
20
26.2457875127189
30
0
41
1
10
95.3629483721229
20
26.0965807996479
30
0
41
1
10
95.0287944434235
20
25.8810711928546
30
0
0
SPLINE
5
1A2
100
AcDbEntity
8
1
62
256
6
ByLayer
370
18
48
1
60
0
100
AcDbSpline
70
4
71
3
72
11
73
7
40
0
40
0
40
0
40
0
40
0.287267503471613
40
0.570601528946044
40
0.78359306756729
40
1
40
1
40
1
40
1
41
1
10
100.062257050762
20
25.59677025978
30
0
41
1
10
100.237815930438
20
25.4414967649778
30
0
41
1
10
100.557544390612
20
25.1093355015126
30
0
41
1
10
100.922347264606
20
24.5818411801178
30
0
41
1
10
101.183971120582
20
24.0613101602965
30
0
41
1
10
101.302380251416
20
23.7323364720165
30
0
41
1
10
101.352317595236
20
23.5621435498303
30
0
0
SPLINE
5
1A3
100
AcDbEntity
8
1
62
256
6
ByLayer
370
18
48
1
60
0
100
AcDbSpline
70
4
71
2
72
6
73
3
40
0
40
0
40
0
40
1
40
1
40
1
41
1
10
106.295259803066
20
29.0927055529762
30
0
41
1
10
106.911422228085
20
29.1118512571182
30
0
41
1
10
107.493797301059
20
29.1705225946642
30
0
0
SPLINE
5
1A4
100
AcDbEntity
8
1
62
256
6
ByLayer
370
18
48
1
60
0
100
AcDbSpline
70
4
71
2
72
6
73
3
40
0
40
0
40
0
40
1
40
1
40
1
41
1
10
107.493797301043
20
29.1705225946626
30
0
41
1
10
107.218018276152
20
28.6275854375355
30
0
41
1
10
106.960538850761
20
28.0434567205766
30
0
0
SPLINE
5
1A5
100
AcDbEntity
8
1
62
256
6
ByLayer
370
18
48
1
60
0
100
AcDbSpline
70
4
71
3
72
15
73
11
40
0
40
0
40
0
40
0
40
0.074527539979738
40
0.149166569620987
40
0.296714101987989
40
0.404641565313067
40
0.512745133321916
40
0.692425899560696
40
0.872499590221621
40
1
40
1
40
1
40
1
41
1
10
87.3469683722125
20
21.2189090838147
30
0
41
1
10
87.2935839356347
20
21.3119891688444
30
0
41
1
10
87.1929549977219
20
21.4998159973615
30
0
41
1
10
87.014610055588
20
21.8833721917075
30
0
41
1
10
86.8669694366904
20
22.3073968158688
30
0
41
1
10
86.7645270433827
20
22.7349987154583
30
0
41
1
10
86.699076042385
20
23.1579689931426
30
0
41
1
10
86.6769857804901
20
23.5884010776719
30
0
41
1
10
86.7263356205313
20
23.9795764129052
30
0
41
1
10
86.8150132576387
20
24.2212795629263
30
0
41
1
10
86.860486104658
20
24.3189526627113
30
0
0
SPLINE
5
1A6
100
AcDbEntity
8
1
62
256
6
ByLayer
370
18
48
1
60
0
100
AcDbSpline
70
4
71
3
72
10
73
6
40
0
40
0
40
0
40
0
40
0.324059532807384
40
0.655488310967219
40
1
40
1
40
1
40
1
41
1
10
86.9113768609252
20
24.7592916442968
30
0
41
1
10
86.7449456916503
20
24.6686976459582
30
0
41
1
10
86.4151467391287
20
24.452921728694
30
0
41
1
10
85.9084007446163
20
24.0315836392495
30
0
41
1
10
85.6147108532845
20
23.6654854707618
30
0
41
1
10
85.4733216911772
20
23.459232783446
30
0
0
SPLINE
5
1A7
100
AcDbEntity
8
1
62
256
6
ByLayer
370
18
48
1
60
0
100
AcDbSpline
70
4
71
1
72
4
73
2
40
0
40
0
40
1
40
1
41
1
10
94.2994703843984
20
27.8617442429121
30
0
41
1
10
93.2009382650933
20
28.6806387581621
30
0
0
SPLINE
5
1A8
100
AcDbEntity
8
1
62
256
6
ByLayer
370
18
48
1
60
0
100
AcDbSpline
70
4
71
3
72
16
73
12
40
0
40
0
40
0
40
0
40
0.193175194179159
40
0.386603933897723
40
0.499007693810807
40
0.611232808940371
40
0.70362360227401
40
0.795912588408086
40
0.868506640166579
40
0.941036848444267
40
1
40
1
40
1
40
1
41
1
10
94.3545539793131
20
12.4996386551117
30
0
41
1
10
94.2081889244616
20
12.4785838001176
30
0
41
1
10
93.9162260495223
20
12.4779899627884
30
0
41
1
10
93.5690164014999
20
12.5884179581908
30
0
41
1
10
93.2437945189854
20
12.7469150077068
30
0
41
1
10
92.9766344242134
20
12.9160903648274
30
0
41
1
10
92.7096104160962
20
13.1223719500086
30
0
41
1
10
92.4717191311334
20
13.3403781659447
30
0
41
1
10
92.2543337396057
20
13.5736989935665
30
0
41
1
10
92.0725095240355
20
13.7959930107363
30
0
41
1
10
91.9617350544444
20
13.947494320069
30
0
41
1
10
91.9130992013881
20
14.0174085139679
30
0
0
SPLINE
5
1A9
100
AcDbEntity
8
1
62
256
6
ByLayer
370
18
48
1
60
0
100
AcDbSpline
70
4
71
2
72
6
73
3
40
0
40
0
40
0
40
1
40
1
40
1
41
1
10
93.9194470912505
20
12.280010045035
30
0
41
1
10
93.3909357849151
20
12.0594486675368
30
0
41
1
10
92.7499821230768
20
11.9828042255803
30
0
0
SPLINE
5
1AA
100
AcDbEntity
8
1
62
256
6
ByLayer
370
18
48
1
60
0
100
AcDbSpline
70
4
71
1
72
4
73
2
40
0
40
0
40
1
40
1
41
1
10
100.798458849
20
17.611825683372
30
0
41
1
10
100.897943174428
20
16.5412613915493
30
0
0
SPLINE
5
1AB
100
AcDbEntity
8
1
62
256
6
ByLayer
370
18
48
1
60
0
100
AcDbSpline
70
4
71
3
72
14
73
10
40
0
40
0
40
0
40
0
40
0.121523556149596
40
0.222387548357044
40
0.323386695988188
40
0.488282595064853
40
0.653577964344725
40
0.82669383649284
40
1
40
1
40
1
40
1
41
1
10
106.152070466882
20
31.9430046556583
30
0
41
1
10
105.978248301569
20
31.9214482225566
30
0
41
1
10
105.689866723081
20
31.8587790172336
30
0
41
1
10
105.347616401868
20
31.7012903071619
30
0
41
1
10
105.045319635233
20
31.4694256234306
30
0
41
1
10
104.804378755999
20
31.135532281853
30
0
41
1
10
104.646803690371
20
30.6952495134938
30
0
41
1
10
104.591328061919
20
30.2115847605124
30
0
41
1
10
104.598689957829
20
29.8721447880034
30
0
41
1
10
104.615921588266
20
29.6982455351382
30
0
0
SPLINE
5
1AC
100
AcDbEntity
8
1
62
256
6
ByLayer
370
18
48
1
60
0
100
AcDbSpline
70
4
71
3
72
13
73
9
40
0
40
0
40
0
40
0
40
0.126987822136552
40
0.254186992929747
40
0.381360015404301
40
0.57673788297183
40
0.772142294318531
40
1
40
1
40
1
40
1
41
1
10
93.2009382650939
20
28.6806387581617
30
0
41
1
10
93.484459125315
20
28.8572932639204
30
0
41
1
10
94.0618769531484
20
29.1915866938126
30
0
41
1
10
94.9647845476346
20
29.6250803049665
30
0
41
1
10
96.0485448728494
20
30.091605537508
30
0
41
1
10
97.323525884118
20
30.563838506678
30
0
41
1
10
98.8846980734618
20
31.0112929338456
30
0
41
1
10
99.9693685392222
20
31.244465043024
30
0
41
1
10
100.559168630146
20
31.3476152364879
30
0
0
SPLINE
5
1AD
100
AcDbEntity
8
1
62
256
6
ByLayer
370
18
48
1
60
0
100
AcDbSpline
70
4
71
3
72
11
73
7
40
0
40
0
40
0
40
0
40
0.277489935641322
40
0.563277494182932
40
0.780107031837108
40
1
40
1
40
1
40
1
41
1
10
102.661057024673
20
31.9911799635279
30
0
41
1
10
102.503886524412
20
31.9099840378622
30
0
41
1
10
102.162325616476
20
31.7575136720366
30
0
41
1
10
101.618742940266
20
31.573034280328
30
0
41
1
10
101.074748377319
20
31.4439545665072
30
0
41
1
10
100.734328814251
20
31.377362682244
30
0
41
1
10
100.559168630141
20
31.347615236487
30
0
0
SPLINE
5
1AE
100
AcDbEntity
8
1
62
256
6
ByLayer
370
18
48
1
60
0
100
AcDbSpline
70
4
71
1
72
4
73
2
40
0
40
0
40
1
40
1
41
1
10
102.661057024673
20
31.9911799635279
30
0
41
1
10
102.939018541561
20
32.1209253573178
30
0
0
SPLINE
5
1AF
100
AcDbEntity
8
1
62
256
6
ByLayer
370
18
48
1
60
0
100
AcDbSpline
70
4
71
1
72
4
73
2
40
0
40
0
40
1
40
1
41
1
10
104.930474604096
20
32.1163842891235
30
0
41
1
10
102.939080620131
20
32.1207439295201
30
0
0
SPLINE
5
1B0
100
AcDbEntity
8
1
62
256
6
ByLayer
370
18
48
1
60
0
100
AcDbSpline
70
4
71
1
72
4
73
2
40
0
40
0
40
1
40
1
41
1
10
104.930564469782
20
32.1163614623574
30
0
41
1
10
106.152070466905
20
31.943004655661
30
0
0
SPLINE
5
1B1
100
AcDbEntity
8
1
62
256
6
ByLayer
370
18
48
1
60
0
100
AcDbSpline
70
4
71
1
72
4
73
2
40
0
40
0
40
1
40
1
41
1
10
108.015822019407
20
24.1140143627716
30
0
41
1
10
107.794711199142
20
23.894606552488
30
0
0
SPLINE
5
1B2
100
AcDbEntity
8
1
62
256
6
ByLayer
370
18
48
1
60
0
100
AcDbSpline
70
4
71
3
72
11
73
7
40
0
40
0
40
0
40
0
40
0.302293823441656
40
0.613181578417229
40
0.805254037931529
40
1
40
1
40
1
40
1
41
1
10
106.373127460919
20
22.1780952644844
30
0
41
1
10
106.510509643818
20
22.3836992531941
30
0
41
1
10
106.793952428457
20
22.7812009107985
30
0
41
1
10
107.177329336052
20
23.2679864185463
30
0
41
1
10
107.52073269773
20
23.6291214319312
30
0
41
1
10
107.703550182774
20
23.8093975117536
30
0
41
1
10
107.794711199142
20
23.8946065524888
30
0
0
SPLINE
5
1B3
100
AcDbEntity
8
1
62
256
6
ByLayer
370
18
48
1
60
0
100
AcDbSpline
70
4
71
3
72
14
73
10
40
0
40
0
40
0
40
0
40
0.144402987238158
40
0.288816040396094
40
0.43464586630454
40
0.580466006356704
40
0.789543228855803
40
0.894806799335098
40
1
40
1
40
1
40
1
41
1
10
106.373127460919
20
22.1780952644844
30
0
41
1
10
106.158385503104
20
21.8627390013847
30
0
41
1
10
105.714761852
20
21.2431244715069
30
0
41
1
10
105.003434120949
20
20.343636525892
30
0
41
1
10
104.249329462247
20
19.4759422980791
30
0
41
1
10
103.329869043248
20
18.5297867970626
30
0
41
1
10
102.42817199845
20
17.7206707261445
30
0
41
1
10
101.576205862925
20
17.0189425034978
30
0
41
1
10
101.126964626596
20
16.696498538288
30
0
41
1
10
100.897943174425
20
16.5412613915476
30
0
0
SPLINE
5
1B4
100
AcDbEntity
8
1
62
256
6
ByLayer
370
18
48
1
60
0
100
AcDbSpline
70
4
71
3
72
15
73
11
40
0
40
0
40
0
40
0
40
0.183386250218152
40
0.366943563477102
40
0.549390059741182
40
0.671720177562542
40
0.793783034007534
40
0.892517276558755
40
0.991241635182388
40
1
40
1
40
1
40
1
41
1
10
106.791601657764
20
26.2668586900426
30
0
41
1
10
106.933448512668
20
26.1987294633168
30
0
41
1
10
107.221750554901
20
26.0944303828158
30
0
41
1
10
107.666360387631
20
26.0156729149575
30
0
41
1
10
108.074239494544
20
26.0635728584249
30
0
41
1
10
108.434212503783
20
26.215902451604
30
0
41
1
10
108.721476955467
20
26.4298205228442
30
0
41
1
10
108.976749125482
20
26.7259797271194
30
0
41
1
10
109.129874672093
20
26.9684327213182
30
0
41
1
10
109.204772042228
20
27.1074203643493
30
0
41
1
10
109.21084765783
20
27.1188359000298
30
0
0
SPLINE
5
1B5
100
AcDbEntity
8
1
62
256
6
ByLayer
370
18
48
1
60
0
100
AcDbSpline
70
4
71
1
72
4
73
2
40
0
40
0
40
1
40
1
41
1
10
108.84453668475
20
25.9434167557318
30
0
41
1
10
109.210847657829
20
27.1188359000284
30
0
0
SPLINE
5
1B6
100
AcDbEntity
8
1
62
256
6
ByLayer
370
18
48
1
60
0
100
AcDbSpline
70
4
71
1
72
4
73
2
40
0
40
0
40
1
40
1
41
1
10
108.015685153996
20
24.1141468990911
30
0
41
1
10
108.844514386757
20
25.9432968661076
30
0
0
SPLINE
5
1B7
100
AcDbEntity
8
1
62
256
6
ByLayer
370
18
48
1
60
0
100
AcDbSpline
70
4
71
1
72
4
73
2
40
0
40
0
40
1
40
1
41
1
10
107.662597410186
20
31.6937815363525
30
0
41
1
10
107.421239556047
20
31.7057855084852
30
0
0
SPLINE
5
1B8
100
AcDbEntity
8
1
62
256
6
ByLayer
370
18
48
1
60
0
100
AcDbSpline
70
4
71
1
72
4
73
2
40
0
40
0
40
1
40
1
41
1
10
109.516890045485
20
28.4006177946181
30
0
41
1
10
109.601881474944
20
28.6352280651697
30
0
0
SPLINE
5
1B9
100
AcDbEntity
8
1
62
256
6
ByLayer
370
18
48
1
60
0
100
AcDbSpline
70
4
71
2
72
6
73
3
40
0
40
0
40
0
40
1
40
1
40
1
41
0.500087462709682
10
93.5246082411327
20
30.5933860220074
30
0
41
0.499912537290318
10
93.4649749852465
20
30.6079469159147
30
0
41
0.500087462709682
10
93.4046883892227
20
30.6192969752355
30
0
0
SPLINE
5
1BA
100
AcDbEntity
8
1
62
256
6
ByLayer
370
18
48
1
60
0
100
AcDbSpline
70
4
71
2
72
6
73
3
40
0
40
0
40
0
40
1
40
1
40
1
41
0.500500306583632
10
97.443008038325
20
20.9953348946118
30
0
41
0.499499693416368
10
97.3840252069862
20
20.9515775246004
30
0
41
0.500500306583632
10
97.3200133706922
20
20.9157516798574
30
0
0
SPLINE
5
1BB
100
AcDbEntity
8
1
62
256
6
ByLayer
370
18
48
1
60
0
100
AcDbSpline
70
4
71
2
72
6
73
3
40
0
40
0
40
0
40
1
40
1
40
1
41
0.500678194481628
10
97.443008038325
20
20.9953348946118
30
0
41
0.499321805518372
10
97.4714964456731
20
21.0072543223602
30
0
41
0.500678194481628
10
97.5014323038852
20
21.0147954538195
30
0
0
SPLINE
5
1BC
100
AcDbEntity
8
1
62
256
6
ByLayer
370
18
48
1
60
0
100
AcDbSpline
70
4
71
2
72
6
73
3
40
0
40
0
40
0
40
1
40
1
40
1
41
0.510328307734716
10
97.7372550649014
20
21.004676795602
30
0
41
0.489671692265284
10
97.8415961528408
20
20.9687980730034
30
0
41
0.510328307734716
10
97.9481083571041
20
20.9956295247252
30
0
0
SPLINE
5
1BD
100
AcDbEntity
8
1
62
256
6
ByLayer
370
18
48
1
60
0
100
AcDbSpline
70
4
71
2
72
6
73
3
40
0
40
0
40
0
40
1
40
1
40
1
41
0.500500306583632
10
97.9053677583456
20
22.0682541994901
30
0
41
0.499499693416369
10
97.9136353479128
20
21.9943253620054
30
0
41
0.500500306583632
10
97.9126429249207
20
21.919997631452
30
0
0
SPLINE
5
1BE
100
AcDbEntity
8
1
62
256
6
ByLayer
370
18
48
1
60
0
100
AcDbSpline
70
4
71
2
72
6
73
3
40
0
40
0
40
0
40
1
40
1
40
1
41
0.500899539068629
10
97.641077048725
20
22.9646350249891
30
0
41
0.499100460931371
10
97.6085686470976
20
22.9501605169033
30
0
41
0.500899539068629
10
97.5740767434875
20
22.9414716736584
30
0
0
SPLINE
5
1BF
100
AcDbEntity
8
1
62
256
6
ByLayer
370
18
48
1
60
0
100
AcDbSpline
70
4
71
2
72
6
73
3
40
0
40
0
40
0
40
1
40
1
40
1
41
0.500500306583632
10
97.216886643808
20
23.0173138149683
30
0
41
0.499499693416368
10
97.284137064714
20
22.9871423474949
30
0
41
0.500500306583632
10
97.3471564780158
20
22.9486404616847
30
0
0
SPLINE
5
1C0
100
AcDbEntity
8
1
62
256
6
ByLayer
370
18
48
1
60
0
100
AcDbSpline
70
4
71
2
72
6
73
3
40
0
40
0
40
0
40
1
40
1
40
1
41
0.500500306583632
10
96.0660458092499
20
22.8934541255682
30
0
41
0.499499693416369
10
96.1250286405886
20
22.9372114955796
30
0
41
0.500500306583632
10
96.1890404768826
20
22.9730373403227
30
0
0
SPLINE
5
1C1
100
AcDbEntity
8
1
62
256
6
ByLayer
370
18
48
1
60
0
100
AcDbSpline
70
4
71
2
72
6
73
3
40
0
40
0
40
0
40
1
40
1
40
1
41
0.500678194481628
10
96.0660458092499
20
22.8934541255682
30
0
41
0.499321805518372
10
96.0375574019017
20
22.8815346978198
30
0
41
0.500678194481628
10
96.0076215436897
20
22.8739935663606
30
0
0
SPLINE
5
1C2
100
AcDbEntity
8
1
62
256
6
ByLayer
370
18
48
1
60
0
100
AcDbSpline
70
4
71
2
72
6
73
3
40
0
40
0
40
0
40
1
40
1
40
1
41
0.510328307734722
10
95.7717987826733
20
22.884112224578
30
0
41
0.489671692265278
10
95.6674576947338
20
22.9199909471767
30
0
41
0.510328307734722
10
95.5609454904705
20
22.8931594954548
30
0
0
SPLINE
5
1C3
100
AcDbEntity
8
1
62
256
6
ByLayer
370
18
48
1
60
0
100
AcDbSpline
70
4
71
2
72
6
73
3
40
0
40
0
40
0
40
1
40
1
40
1
41
0.500500306583632
10
95.6036860892293
20
21.8205348206899
30
0
41
0.499499693416368
10
95.595418499662
20
21.8944636581748
30
0
41
0.500500306583632
10
95.5964109226542
20
21.968791388728
30
0
0
SPLINE
5
1C4
100
AcDbEntity
8
1
62
256
6
ByLayer
370
18
48
1
60
0
100
AcDbSpline
70
4
71
2
72
6
73
3
40
0
40
0
40
0
40
1
40
1
40
1
41
0.500899539068629
10
95.8679767988498
20
20.924153995191
30
0
41
0.499100460931371
10
95.9004852004771
20
20.9386285032767
30
0
41
0.500899539068629
10
95.9349771040873
20
20.9473173465216
30
0
0
SPLINE
5
1C5
100
AcDbEntity
8
1
62
256
6
ByLayer
370
18
48
1
60
0
100
AcDbSpline
70
4
71
2
72
6
73
3
40
0
40
0
40
0
40
1
40
1
40
1
41
0.500500306583632
10
96.2921672037668
20
20.8714752052117
30
0
41
0.499499693416369
10
96.2249167828608
20
20.9016466726851
30
0
41
0.500500306583632
10
96.161897369559
20
20.9401485584954
30
0
0
SPLINE
5
1C6
100
AcDbEntity
8
1
62
256
6
ByLayer
370
18
48
1
60
0
100
AcDbSpline
70
4
71
2
72
6
73
3
40
0
40
0
40
0
40
1
40
1
40
1
41
0.500899539068629
10
95.8080706435785
20
20.9034432340012
30
0
41
0.499100460931371
10
95.838910463277
20
20.911212082079
30
0
41
0.500899539068629
10
95.8679767988497
20
20.924153995191
30
0
0
SPLINE
5
1C7
100
AcDbEntity
8
1
62
256
6
ByLayer
370
18
48
1
60
0
100
AcDbSpline
70
4
71
2
72
6
73
3
40
0
40
0
40
0
40
1
40
1
40
1
41
0.509526940736574
10
95.9349771040873
20
20.9473173465216
30
0
41
0.490473059263426
10
96.0492009277023
20
20.9760914295481
30
0
41
0.509526940736574
10
96.1618973695589
20
20.9401485584954
30
0
0
SPLINE
5
1C8
100
AcDbEntity
8
1
62
256
6
ByLayer
370
18
48
1
60
0
100
AcDbSpline
70
4
71
2
72
6
73
3
40
0
40
0
40
0
40
1
40
1
40
1
41
0.510328307734721
10
95.6287495696024
20
22.7785520613069
30
0
41
0.489671692265279
10
95.5096240779921
20
22.7485432008285
30
0
41
0.510328307734721
10
95.3929268085861
20
22.7886707195243
30
0
0
SPLINE
5
1C9
100
AcDbEntity
8
1
62
256
6
ByLayer
370
18
48
1
60
0
100
AcDbSpline
70
4
71
2
72
6
73
3
40
0
40
0
40
0
40
1
40
1
40
1
41
0.510328307734718
10
96.0076215436897
20
22.8739935663606
30
0
41
0.489671692265282
10
95.8884960520794
20
22.8439847058822
30
0
41
0.510328307734718
10
95.7717987826734
20
22.884112224578
30
0
0
SPLINE
5
1CA
100
AcDbEntity
8
1
62
256
6
ByLayer
370
18
48
1
60
0
100
AcDbSpline
70
4
71
2
72
6
73
3
40
0
40
0
40
0
40
1
40
1
40
1
41
0.511261073644733
10
96.7237487757593
20
20.3496863841335
30
0
41
0.488738926355267
10
96.7977979062087
20
20.4383447474269
30
0
41
0.511261073644733
10
96.8096938584717
20
20.5542080861062
30
0
0
SPLINE
5
1CB
100
AcDbEntity
8
1
62
256
6
ByLayer
370
18
48
1
60
0
100
AcDbSpline
70
4
71
2
72
6
73
3
40
0
40
0
40
0
40
1
40
1
40
1
41
0.510328307734719
10
97.5014323038852
20
21.0147954538195
30
0
41
0.489671692265281
10
97.6205577954954
20
21.0448043142978
30
0
41
0.510328307734719
10
97.7372550649014
20
21.004676795602
30
0
0
SPLINE
5
1CC
100
AcDbEntity
8
1
62
256
6
ByLayer
370
18
48
1
60
0
100
AcDbSpline
70
4
71
2
72
6
73
3
40
0
40
0
40
0
40
1
40
1
40
1
41
0.509526940736574
10
97.5740767434875
20
22.9414716736584
30
0
41
0.490473059263426
10
97.4598529198725
20
22.9126975906319
30
0
41
0.509526940736574
10
97.3471564780158
20
22.9486404616847
30
0
0
SPLINE
5
1CD
100
AcDbEntity
8
1
62
256
6
ByLayer
370
18
48
1
60
0
100
AcDbSpline
70
4
71
2
72
6
73
3
40
0
40
0
40
0
40
1
40
1
40
1
41
0.500899539068629
10
97.7009832039962
20
22.9853457861788
30
0
41
0.499100460931371
10
97.6701433842977
20
22.977576938101
30
0
41
0.500899539068629
10
97.6410770487249
20
22.964635024989
30
0
0
SPLINE
5
1CE
100
AcDbEntity
8
1
62
256
6
ByLayer
370
18
48
1
60
0
100
AcDbSpline
70
4
71
2
72
6
73
3
40
0
40
0
40
0
40
1
40
1
40
1
41
0.500006827532375
10
86.9113768609252
20
24.7592916442968
30
0
41
0.499993172467625
10
86.9450338851579
20
24.7783884072193
30
0
41
0.500006827532375
10
86.9782748230464
20
24.7971843234042
30
0
0
SPLINE
5
1CF
100
AcDbEntity
8
1
62
256
6
ByLayer
370
18
48
1
60
0
100
AcDbSpline
70
4
71
2
72
6
73
3
40
0
40
0
40
0
40
1
40
1
40
1
41
0.500250886381687
10
106.64131849415
20
31.8622832094083
30
0
41
0.499749113618313
10
106.748784717779
20
31.9000244202825
30
0
41
0.500250886381687
10
106.859221159975
20
31.9278444253948
30
0
0
LINE
5
70
100
AcDbEntity
8
4
62
256
6
ByLayer
370
18
48
0.05
60
0
100
AcDbLine
10
0
20
0
30
0
11
114.566067
21
0
31
0
39
0
210
0
220
0
230
1
0
LINE
5
72
100
AcDbEntity
8
1
62
256
6
ByLayer
370
18
48
1
60
0
100
AcDbLine
10
64.249975
20
-14.443364
30
0
11
63.995196
21
28.030678
31
0
39
0
210
0
220
0
230
1
0
LINE
5
74
100
AcDbEntity
8
1
62
256
6
ByLayer
370
18
48
1
60
0
100
AcDbLine
10
22
20
-31.75
30
0
11
28.903454
21
-31.75
31
0
39
0
210
0
220
0
230
1
0
LINE
5
75
100
AcDbEntity
8
1
62
256
6
ByLayer
370
18
48
1
60
0
100
AcDbLine
10
23.113634
20
31.75
30
0
11
22
21
31.75
31
0
39
0
210
0
220
0
230
1
0
LINE
5
76
100
AcDbEntity
8
1
62
256
6
ByLayer
370
18
48
1
60
0
100
AcDbLine
10
65.633074
20
-14.625936
30
0
11
58.591785
21
-20.965941
31
0
39
0
210
0
220
0
230
1
0
LINE
5
77
100
AcDbEntity
8
1
62
256
6
ByLayer
370
18
48
1
60
0
100
AcDbLine
10
0.3
20
-31.5
30
0
11
22
21
-31.5
31
0
39
0
210
0
220
0
230
1
0
LINE
5
78
100
AcDbEntity
8
1
62
256
6
ByLayer
370
18
48
1
60
0
100
AcDbLine
10
22
20
31.5
30
0
11
0.3
21
31.5
31
0
39
0
210
0
220
0
230
1
0
LINE
5
79
100
AcDbEntity
8
1
62
256
6
ByLayer
370
18
48
1
60
0
100
AcDbLine
10
13.75
20
30.068492
30
0
11
10.25
21
30.068492
31
0
39
0
210
0
220
0
230
1
0
LINE
5
7A
100
AcDbEntity
8
1
62
256
6
ByLayer
370
18
48
1
60
0
100
AcDbLine
10
10.25
20
9.388066
30
0
11
13.75
21
9.388066
31
0
39
0
210
0
220
0
230
1
0
LINE
5
7B
100
AcDbEntity
8
1
62
256
6
ByLayer
370
18
48
1
60
0
100
AcDbLine
10
13.75
20
-9.388066
30
0
11
10.25
21
-9.388066
31
0
39
0
210
0
220
0
230
1
0
LINE
5
7C
100
AcDbEntity
8
1
62
256
6
ByLayer
370
18
48
1
60
0
100
AcDbLine
10
10.25
20
-30.068492
30
0
11
13.75
21
-30.068492
31
0
39
0
210
0
220
0
230
1
0
LINE
5
7D
100
AcDbEntity
8
1
62
256
6
ByLayer
370
18
48
1
60
0
100
AcDbLine
10
0.3
20
31.5
30
0
11
0
21
31.2
31
0
39
0
210
0
220
0
230
1
0
LINE
5
7E
100
AcDbEntity
8
1
62
256
6
ByLayer
370
18
48
1
60
0
100
AcDbLine
10
0
20
-31.2
30
0
11
0.3
21
-31.5
31
0
39
0
210
0
220
0
230
1
0
LINE
5
7F
100
AcDbEntity
8
1
62
256
6
ByLayer
370
18
48
1
60
0
100
AcDbLine
10
10.25
20
-9.388066
30
0
11
10.25
21
-30.068492
31
0
39
0
210
0
220
0
230
1
0
LINE
5
80
100
AcDbEntity
8
1
62
256
6
ByLayer
370
18
48
1
60
0
100
AcDbLine
10
13.75
20
-9.388066
30
0
11
13.75
21
-30.068492
31
0
39
0
210
0
220
0
230
1
0
LINE
5
81
100
AcDbEntity
8
1
62
256
6
ByLayer
370
18
48
1
60
0
100
AcDbLine
10
10.25
20
30.068492
30
0
11
10.25
21
9.388066
31
0
39
0
210
0
220
0
230
1
0
LINE
5
82
100
AcDbEntity
8
1
62
256
6
ByLayer
370
18
48
1
60
0
100
AcDbLine
10
13.75
20
30.068492
30
0
11
13.75
21
9.388066
31
0
39
0
210
0
220
0
230
1
0
LINE
5
83
100
AcDbEntity
8
1
62
256
6
ByLayer
370
18
48
1
60
0
100
AcDbLine
10
69.219876
20
-11.396365
30
0
11
68.980653
21
28.484305
31
0
39
0
210
0
220
0
230
1
0
LINE
5
84
100
AcDbEntity
8
1
62
256
6
ByLayer
370
18
48
1
60
0
100
AcDbLine
10
104.12106
20
35.117015
30
0
11
101.962165
21
35.644161
31
0
39
0
210
0
220
0
230
1
0
LINE
5
85
100
AcDbEntity
8
1
62
256
6
ByLayer
370
18
48
1
60
0
100
AcDbLine
10
99.688595
20
31.161194
30
0
11
104.12106
21
35.117015
31
0
39
0
210
0
220
0
230
1
0
LINE
5
86
100
AcDbEntity
8
1
62
256
6
ByLayer
370
18
48
1
60
0
100
AcDbLine
10
95.425714
20
31.091223
30
0
11
97.481342
21
30.589292
31
0
39
0
210
0
220
0
230
1
0
LINE
5
87
100
AcDbEntity
8
1
62
256
6
ByLayer
370
18
48
1
60
0
100
AcDbLine
10
92.620531
20
29.345672
30
0
11
92.553247
21
29.054306
31
0
39
0
210
0
220
0
230
1
0
LINE
5
88
100
AcDbEntity
8
1
62
256
6
ByLayer
370
18
48
1
60
0
100
AcDbLine
10
106.891555
20
22.893012
30
0
11
107.214508
21
22.814155
31
0
39
0
210
0
220
0
230
1
0
LINE
5
89
100
AcDbEntity
8
1
62
256
6
ByLayer
370
18
48
1
60
0
100
AcDbLine
10
96.077883
20
13.420306
30
0
11
96.333624
21
13.016963
31
0
39
0
210
0
220
0
230
1
0
LINE
5
8A
100
AcDbEntity
8
1
62
256
6
ByLayer
370
18
48
1
60
0
100
AcDbLine
10
87.393927
20
27.11626
30
0
11
88.366599
21
25.582205
31
0
39
0
210
0
220
0
230
1
0
LINE
5
8B
100
AcDbEntity
8
1
62
256
6
ByLayer
370
18
48
1
60
0
100
AcDbLine
10
80.8856
20
19.370576
30
0
11
87.331503
21
9.204382
31
0
39
0
210
0
220
0
230
1
0
LINE
5
8C
100
AcDbEntity
8
1
62
256
6
ByLayer
370
18
48
1
60
0
100
AcDbLine
10
89.726234
20
7.067643
30
0
11
69.219876
21
-11.396365
31
0
39
0
210
0
220
0
230
1
0
LINE
5
8D
100
AcDbEntity
8
1
62
256
6
ByLayer
370
18
48
1
60
0
100
AcDbLine
10
107.214508
20
22.814155
30
0
11
106.128129
21
21.835976
31
0
39
0
210
0
220
0
230
1
0
LINE
5
8E
100
AcDbEntity
8
1
62
256
6
ByLayer
370
18
48
1
60
0
100
AcDbLine
10
98.540826
20
15.004337
30
0
11
96.333624
21
13.016963
31
0
39
0
210
0
220
0
230
1
0
LINE
5
8F
100
AcDbEntity
8
1
62
256
6
ByLayer
370
18
48
1
60
0
100
AcDbLine
10
85.729981
20
19.229598
30
0
11
88.938014
21
14.170029
31
0
39
0
210
0
220
0
230
1
0
LINE
5
90
100
AcDbEntity
8
1
62
256
6
ByLayer
370
18
48
1
60
0
100
AcDbLine
10
87.393927
20
27.11626
30
0
11
86.749743
21
26.742455
31
0
39
0
210
0
220
0
230
1
0
LINE
5
91
100
AcDbEntity
8
1
62
256
6
ByLayer
370
18
48
1
60
0
100
AcDbLine
10
94.094876
20
11.001185
30
0
11
96.333624
21
13.016963
31
0
39
0
210
0
220
0
230
1
0
LINE
5
92
100
AcDbEntity
8
1
62
256
6
ByLayer
370
18
48
1
60
0
100
AcDbLine
10
101.426321
20
35.775
30
0
11
89.651287
21
35.775
31
0
39
0
210
0
220
0
230
1
0
LINE
5
93
100
AcDbEntity
8
1
62
256
6
ByLayer
370
18
48
1
60
0
100
AcDbLine
10
93.583508
20
30.745432
30
0
11
95.425714
21
31.091223
31
0
39
0
210
0
220
0
230
1
0
LINE
5
94
100
AcDbEntity
8
1
62
256
6
ByLayer
370
18
48
1
60
0
100
AcDbLine
10
107.324939
20
22.913588
30
0
11
106.976427
21
22.998686
31
0
39
0
210
0
220
0
230
1
0
LINE
5
95
100
AcDbEntity
8
1
62
256
6
ByLayer
370
18
48
1
60
0
100
AcDbLine
10
107.324939
20
22.913588
30
0
11
107.214508
21
22.814155
31
0
39
0
210
0
220
0
230
1
0
LINE
5
96
100
AcDbEntity
8
1
62
256
6
ByLayer
370
18
48
1
60
0
100
AcDbLine
10
93.583508
20
30.745432
30
0
11
96.162014
21
30.115828
31
0
39
0
210
0
220
0
230
1
0
LINE
5
97
100
AcDbEntity
8
1
62
256
6
ByLayer
370
18
48
1
60
0
100
AcDbLine
10
104.12106
20
35.117015
30
0
11
104.266344
21
35.08154
31
0
39
0
210
0
220
0
230
1
0
LINE
5
98
100
AcDbEntity
8
1
62
256
6
ByLayer
370
18
48
1
60
0
100
AcDbLine
10
99.93204
20
31.213324
30
0
11
104.266344
21
35.08154
31
0
39
0
210
0
220
0
230
1
0
LINE
5
99
100
AcDbEntity
8
1
62
256
6
ByLayer
370
18
48
1
60
0
100
AcDbLine
10
93.524608
20
30.593386
30
0
11
93.583508
21
30.745432
31
0
39
0
210
0
220
0
230
1
0
LINE
5
9A
100
AcDbEntity
8
1
62
256
6
ByLayer
370
18
48
1
60
0
100
AcDbLine
10
93.524608
20
30.593386
30
0
11
95.890128
21
30.015787
31
0
39
0
210
0
220
0
230
1
0
LINE
5
9B
100
AcDbEntity
8
1
62
256
6
ByLayer
370
18
48
1
60
0
100
AcDbLine
10
95.745502
20
20.893301
30
0
11
95.867977
21
20.924154
31
0
39
0
210
0
220
0
230
1
0
LINE
5
9C
100
AcDbEntity
8
1
62
256
6
ByLayer
370
18
48
1
60
0
100
AcDbLine
10
95.392927
20
22.788671
30
0
11
95.771799
21
22.884112
31
0
39
0
210
0
220
0
230
1
0
LINE
5
9D
100
AcDbEntity
8
1
62
256
6
ByLayer
370
18
48
1
60
0
100
AcDbLine
10
95.934977
20
20.947317
30
0
11
95.716482
21
20.892276
31
0
39
0
210
0
220
0
230
1
0
LINE
5
9E
100
AcDbEntity
8
1
62
256
6
ByLayer
370
18
48
1
60
0
100
AcDbLine
10
95.62875
20
22.778552
30
0
11
96.007622
21
22.873994
31
0
39
0
210
0
220
0
230
1
0
LINE
5
9F
100
AcDbEntity
8
1
62
256
6
ByLayer
370
18
48
1
60
0
100
AcDbLine
10
96.809694
20
20.554208
30
0
11
97.188566
21
20.64965
31
0
39
0
210
0
220
0
230
1
0
LINE
5
A0
100
AcDbEntity
8
1
62
256
6
ByLayer
370
18
48
1
60
0
100
AcDbLine
10
96.681061
20
23.175551
30
0
11
97.059933
21
23.270992
31
0
39
0
210
0
220
0
230
1
0
LINE
5
A1
100
AcDbEntity
8
1
62
256
6
ByLayer
370
18
48
1
60
0
100
AcDbLine
10
97.501432
20
21.014795
30
0
11
97.12256
21
20.919354
31
0
39
0
210
0
220
0
230
1
0
LINE
5
A2
100
AcDbEntity
8
1
62
256
6
ByLayer
370
18
48
1
60
0
100
AcDbLine
10
97.195205
20
22.84603
30
0
11
97.574077
21
22.941472
31
0
39
0
210
0
220
0
230
1
0
LINE
5
A3
100
AcDbEntity
8
1
62
256
6
ByLayer
370
18
48
1
60
0
100
AcDbLine
10
97.696244
20
21.574449
30
0
11
98.075116
21
21.66989
31
0
39
0
210
0
220
0
230
1
0
LINE
5
A4
100
AcDbEntity
8
1
62
256
6
ByLayer
370
18
48
1
60
0
100
AcDbLine
10
97.17596
20
17.925593
30
0
11
97.585682
21
18.028806
31
0
39
0
210
0
220
0
230
1
0
LINE
5
A5
100
AcDbEntity
8
1
62
256
6
ByLayer
370
18
48
1
60
0
100
AcDbLine
10
95.631458
20
25.786447
30
0
11
95.221736
21
25.683235
31
0
39
0
210
0
220
0
230
1
0
LINE
5
A6
100
AcDbEntity
8
1
62
256
6
ByLayer
370
18
48
1
60
0
100
AcDbLine
10
97.663789
20
22.235833
30
0
11
98.042661
21
22.331275
31
0
39
0
210
0
220
0
230
1
0
LINE
5
A7
100
AcDbEntity
8
SK1
62
256
6
ByLayer
370
18
48
1
60
0
100
AcDbLine
10
-36.642113
20
-4.030013
30
0
11
-1.517117
21
-4.378688
31
0
39
0
210
0
220
0
230
1
0
LINE
5
A9
100
AcDbEntity
8
SK1
62
256
6
ByLayer
370
18
48
1
60
0
100
AcDbLine
10
-36.642113
20
4.030013
30
0
11
-1.517117
21
4.378688
31
0
39
0
210
0
220
0
230
1
0
LINE
5
AA
100
AcDbEntity
8
SK1
62
256
6
ByLayer
370
18
48
1
60
0
100
AcDbLine
10
-38
20
3.718991
30
0
11
-36.642113
21
4.030013
31
0
39
0
210
0
220
0
230
1
0
LINE
5
AB
100
AcDbEntity
8
SK1
62
256
6
ByLayer
370
18
48
1
60
0
100
AcDbLine
10
-38
20
-3.718991
30
0
11
-36.642113
21
-4.030013
31
0
39
0
210
0
220
0
230
1
0
LINE
5
AC
100
AcDbEntity
8
SK1
62
256
6
ByLayer
370
18
48
1
60
0
100
AcDbLine
10
-36.642113
20
-21.017182
30
0
11
0
21
-21.934027
31
0
39
0
210
0
220
0
230
1
0
LINE
5
AD
100
AcDbEntity
8
SK1
62
256
6
ByLayer
370
18
48
1
60
0
100
AcDbLine
10
0
20
21.934027
30
0
11
-36.642113
21
21.017182
31
0
39
0
210
0
220
0
230
1
0
LINE
5
AE
100
AcDbEntity
8
SK1
62
256
6
ByLayer
370
18
48
1
60
0
100
AcDbLine
10
-38
20
-20.233206
30
0
11
-36.642113
21
-21.017182
31
0
39
0
210
0
220
0
230
1
0
LINE
5
AF
100
AcDbEntity
8
SK1
62
256
6
ByLayer
370
18
48
1
60
0
100
AcDbLine
10
-36.642113
20
21.017182
30
0
11
-38
21
20.233206
31
0
39
0
210
0
220
0
230
1
0
LINE
5
B0
100
AcDbEntity
8
1
62
256
6
ByLayer
370
18
48
1
60
0
100
AcDbLine
10
93.327783
20
24.780439
30
0
11
95.028794
21
25.881071
31
0
39
0
210
0
220
0
230
1
0
LINE
5
B1
100
AcDbEntity
8
1
62
256
6
ByLayer
370
18
48
1
60
0
100
AcDbLine
10
87.978351
20
23.771689
30
0
11
94.29947
21
27.861744
31
0
39
0
210
0
220
0
230
1
0
LINE
5
B2
100
AcDbEntity
8
1
62
256
6
ByLayer
370
18
48
1
60
0
100
AcDbLine
10
99.466573
20
18.882002
30
0
11
97.765562
21
17.781369
31
0
39
0
210
0
220
0
230
1
0
LINE
5
B3
100
AcDbEntity
8
1
62
256
6
ByLayer
370
18
48
1
60
0
100
AcDbLine
10
94.47734
20
13.52177
30
0
11
100.798459
21
17.611826
31
0
39
0
210
0
220
0
230
1
0
LINE
5
B4
100
AcDbEntity
8
1
62
256
6
ByLayer
370
18
48
1
60
0
100
AcDbLine
10
87.383012
20
21.159128
30
0
11
91.874258
21
14.075732
31
0
39
0
210
0
220
0
230
1
0
LINE
5
B5
100
AcDbEntity
8
1
62
256
6
ByLayer
370
18
48
1
60
0
100
AcDbLine
10
88.755977
20
20.088837
30
0
11
91.536272
21
15.703878
31
0
39
0
210
0
220
0
230
1
0
LINE
5
B6
100
AcDbEntity
8
1
62
256
6
ByLayer
370
18
48
1
60
0
100
AcDbLine
10
93.841524
20
16.998161
30
0
11
93.293953
21
16.778762
31
0
39
0
210
0
220
0
230
1
0
LINE
5
B7
100
AcDbEntity
8
1
62
256
6
ByLayer
370
18
48
1
60
0
100
AcDbLine
10
93.254178
20
16.704091
30
0
11
92.795016
21
16.520115
31
0
39
0
210
0
220
0
230
1
0
LINE
5
B8
100
AcDbEntity
8
1
62
256
6
ByLayer
370
18
48
1
60
0
100
AcDbLine
10
97.765562
20
17.781369
30
0
11
97.291513
21
17.591428
31
0
39
0
210
0
220
0
230
1
0
LINE
5
B9
100
AcDbEntity
8
1
62
256
6
ByLayer
370
18
48
1
60
0
100
AcDbLine
10
92.795016
20
16.520115
30
0
11
91.536272
21
15.703878
31
0
39
0
210
0
220
0
230
1
0
LINE
5
BA
100
AcDbEntity
8
1
62
256
6
ByLayer
370
18
48
1
60
0
100
AcDbLine
10
99.466573
20
18.882002
30
0
11
98.982861
21
18.688189
31
0
39
0
210
0
220
0
230
1
0
LINE
5
BB
100
AcDbEntity
8
1
62
256
6
ByLayer
370
18
48
1
60
0
100
AcDbLine
10
97.291513
20
17.591428
30
0
11
98.688194
21
18.497111
31
0
39
0
210
0
220
0
230
1
0
LINE
5
BC
100
AcDbEntity
8
1
62
256
6
ByLayer
370
18
48
1
60
0
100
AcDbLine
10
87.383012
20
21.159128
30
0
11
85.604782
21
20.446632
31
0
39
0
210
0
220
0
230
1
0
LINE
5
BD
100
AcDbEntity
8
1
62
256
6
ByLayer
370
18
48
1
60
0
100
AcDbLine
10
87.501489
20
24.995736
30
0
11
86.911377
21
24.759292
31
0
39
0
210
0
220
0
230
1
0
LINE
5
BE
100
AcDbEntity
8
1
62
256
6
ByLayer
370
18
48
1
60
0
100
AcDbLine
10
91.874258
20
14.075732
30
0
11
90.096028
21
13.363236
31
0
39
0
210
0
220
0
230
1
0
LINE
5
BF
100
AcDbEntity
8
1
62
256
6
ByLayer
370
18
48
1
60
0
100
AcDbLine
10
90.096028
20
13.363236
30
0
11
85.604782
21
20.446632
31
0
39
0
210
0
220
0
230
1
0
LINE
5
C0
100
AcDbEntity
8
1
62
256
6
ByLayer
370
18
48
1
60
0
100
AcDbLine
10
88.693835
20
25.767239
30
0
11
87.501489
21
24.995736
31
0
39
0
210
0
220
0
230
1
0
LINE
5
C1
100
AcDbEntity
8
1
62
256
6
ByLayer
370
18
48
1
60
0
100
AcDbLine
10
88.693835
20
25.767239
30
0
11
88.699563
21
25.768042
31
0
39
0
210
0
220
0
230
1
0
LINE
5
C2
100
AcDbEntity
8
1
62
256
6
ByLayer
370
18
48
1
60
0
100
AcDbLine
10
93.200938
20
28.680639
30
0
11
88.699563
21
25.768042
31
0
39
0
210
0
220
0
230
1
0
LINE
5
C3
100
AcDbEntity
8
1
62
256
6
ByLayer
370
18
48
1
60
0
100
AcDbLine
10
93.914223
20
12.277906
30
0
11
94.733125
21
12.606021
31
0
39
0
210
0
220
0
230
1
0
LINE
5
C4
100
AcDbEntity
8
1
62
256
6
ByLayer
370
18
48
1
60
0
100
AcDbLine
10
100.897943
20
16.541261
30
0
11
96.396568
21
13.628664
31
0
39
0
210
0
220
0
230
1
0
LINE
5
C5
100
AcDbEntity
8
1
62
256
6
ByLayer
370
18
48
1
60
0
100
AcDbLine
10
96.393114
20
13.624275
30
0
11
96.396568
21
13.628664
31
0
39
0
210
0
220
0
230
1
0
LINE
5
C6
100
AcDbEntity
8
1
62
256
6
ByLayer
370
18
48
1
60
0
100
AcDbLine
10
95.200768
20
12.852773
30
0
11
96.393114
21
13.624275
31
0
39
0
210
0
220
0
230
1
0
LINE
5
C7
100
AcDbEntity
8
1
62
256
6
ByLayer
370
18
48
1
60
0
100
AcDbLine
10
107.192524
20
31.771339
30
0
11
106.15207
21
31.943005
31
0
39
0
210
0
220
0
230
1
0
LINE
5
C8
100
AcDbEntity
8
1
62
256
6
ByLayer
370
18
48
1
60
0
100
AcDbLine
10
107.42124
20
31.705786
30
0
11
107.192524
21
31.771339
31
0
39
0
210
0
220
0
230
1
0
LINE
5
C9
100
AcDbEntity
8
1
62
256
6
ByLayer
370
18
48
1
60
0
100
AcDbLine
10
107.883594
20
31.657319
30
0
11
107.662597
21
31.693782
31
0
39
0
210
0
220
0
230
1
0
LINE
5
CA
100
AcDbEntity
8
1
62
256
6
ByLayer
370
18
48
1
60
0
100
AcDbLine
10
107.493797
20
29.170523
30
0
11
109.522899
21
30.694121
31
0
39
0
210
0
220
0
230
1
0
LINE
5
CB
100
AcDbEntity
8
1
62
256
6
ByLayer
370
18
48
1
60
0
100
AcDbLine
10
109.480192
20
28.163329
30
0
11
109.51689
21
28.400618
31
0
39
0
210
0
220
0
230
1
0
LINE
5
CC
100
AcDbEntity
8
1
62
256
6
ByLayer
370
18
48
1
60
0
100
AcDbLine
10
109.480192
20
28.163329
30
0
11
109.210848
21
27.118836
31
0
39
0
210
0
220
0
230
1
0
LINE
5
CD
100
AcDbEntity
8
1
62
256
6
ByLayer
370
18
48
1
60
0
100
AcDbLine
10
109.659091
20
28.857082
30
0
11
109.601881
21
28.635228
31
0
39
0
210
0
220
0
230
1
0
LINE
5
CE
100
AcDbEntity
8
1
62
256
6
ByLayer
370
18
48
1
60
0
100
AcDbLine
10
88.693835
20
25.767239
30
0
11
86.978275
21
24.797184
31
0
39
0
210
0
220
0
230
1
0
LINE
5
CF
100
AcDbEntity
8
1
62
256
6
ByLayer
370
18
48
1
60
0
100
AcDbLine
10
107.001668
20
23.030113
30
0
11
107.277014
21
22.962881
31
0
39
0
210
0
220
0
230
1
0
LINE
5
D0
100
AcDbEntity
8
1
62
256
6
ByLayer
370
18
48
1
60
0
100
AcDbLine
10
104.240427
20
35.01715
30
0
11
100.042002
21
31.236871
31
0
39
0
210
0
220
0
230
1
0
LINE
5
D1
100
AcDbEntity
8
1
62
256
6
ByLayer
370
18
48
1
60
0
100
AcDbLine
10
104.732735
20
35.279942
30
0
11
107.14385
21
35.887325
31
0
39
0
210
0
220
0
230
1
0
LINE
5
D2
100
AcDbEntity
8
1
62
256
6
ByLayer
370
18
48
1
60
0
100
AcDbLine
10
119.158273
20
33.091781
30
0
11
107.701903
21
35.889129
31
0
39
0
210
0
220
0
230
1
0
LINE
5
D3
100
AcDbEntity
8
1
62
256
6
ByLayer
370
18
48
1
60
0
100
AcDbLine
10
110.73849
20
23.83486
30
0
11
119.502356
21
31.72588
31
0
39
0
210
0
220
0
230
1
0
LINE
5
D4
100
AcDbEntity
8
1
62
256
6
ByLayer
370
18
48
1
60
0
100
AcDbLine
10
110.246182
20
23.572068
30
0
11
107.835067
21
22.964685
31
0
39
0
210
0
220
0
230
1
0
LINE
5
D5
100
AcDbEntity
8
1
62
256
6
ByLayer
370
18
48
1
60
0
100
AcDbLine
10
104.240427
20
35.01715
30
0
11
103.171166
21
34.747793
31
0
39
0
210
0
220
0
230
1
0
LINE
5
D6
100
AcDbEntity
8
1
62
256
6
ByLayer
370
18
48
1
60
0
100
AcDbLine
10
107.20124
20
22.943792
30
0
11
107.277014
21
22.962881
31
0
39
0
210
0
220
0
230
1
0
LINE
5
D7
100
AcDbEntity
8
1
62
256
6
ByLayer
370
18
48
1
60
0
100
AcDbLine
10
107.835067
20
22.964685
30
0
11
107.205572
21
22.806109
31
0
39
0
210
0
220
0
230
1
0
LINE
5
D8
100
AcDbEntity
8
1
62
256
6
ByLayer
370
18
48
1
60
0
100
AcDbLine
10
104.10324
20
35.121366
30
0
11
104.732735
21
35.279942
31
0
39
0
210
0
220
0
230
1
0
LINE
5
D9
100
AcDbEntity
8
1
62
256
6
ByLayer
370
18
48
1
60
0
100
AcDbLine
10
107.574029
20
22.359914
30
0
11
106.894342
21
22.525876
31
0
39
0
210
0
220
0
230
1
0
LINE
5
DA
100
AcDbEntity
8
1
62
256
6
ByLayer
370
18
48
1
60
0
100
AcDbLine
10
103.696391
20
35.220708
30
0
11
104.216337
21
35.688869
31
0
39
0
210
0
220
0
230
1
0
LINE
5
DB
100
AcDbEntity
8
1
62
256
6
ByLayer
370
18
48
1
60
0
100
AcDbLine
10
105.266367
20
35.953381
30
0
11
106.352903
21
35.688077
31
0
39
0
210
0
220
0
230
1
0
LINE
5
DC
100
AcDbEntity
8
1
62
256
6
ByLayer
370
18
48
1
60
0
100
AcDbLine
10
109.455235
20
23.372821
30
0
11
108.624059
21
22.624427
31
0
39
0
210
0
220
0
230
1
0
LINE
5
DD
100
AcDbEntity
8
1
62
256
6
ByLayer
370
18
48
1
60
0
100
AcDbLine
10
107.574029
20
22.359914
30
0
11
106.831019
21
22.172743
31
0
39
0
210
0
220
0
230
1
0
LINE
5
DE
100
AcDbEntity
8
1
62
256
6
ByLayer
370
18
48
1
60
0
100
AcDbLine
10
106.831019
20
22.172743
30
0
11
106.572306
21
22.235914
31
0
39
0
210
0
220
0
230
1
0
LINE
5
DF
100
AcDbEntity
8
1
62
256
6
ByLayer
370
18
48
1
60
0
100
AcDbLine
10
104.216337
20
35.688869
30
0
11
103.473327
21
35.501697
31
0
39
0
210
0
220
0
230
1
0
LINE
5
E0
100
AcDbEntity
8
1
62
256
6
ByLayer
370
18
48
1
60
0
100
AcDbLine
10
103.275417
20
35.323499
30
0
11
103.473327
21
35.501697
31
0
39
0
210
0
220
0
230
1
0
LINE
5
E1
100
AcDbEntity
8
1
62
256
6
ByLayer
370
18
48
1
60
0
100
AcDbLine
10
107.388896
20
22.174547
30
0
11
108.131906
21
22.361719
31
0
39
0
210
0
220
0
230
1
0
LINE
5
E2
100
AcDbEntity
8
1
62
256
6
ByLayer
370
18
48
1
60
0
100
AcDbLine
10
104.70849
20
35.951577
30
0
11
103.965479
21
35.764406
31
0
39
0
210
0
220
0
230
1
0
LINE
5
E3
100
AcDbEntity
8
1
62
256
6
ByLayer
370
18
48
1
60
0
100
AcDbLine
10
90.443452
20
7.713429
30
0
11
89.726234
21
7.067643
31
0
39
0
210
0
220
0
230
1
0
LINE
5
E4
100
AcDbEntity
8
1
62
256
6
ByLayer
370
18
48
1
60
0
100
AcDbLine
10
94.094876
20
11.001185
30
0
11
90.571226
21
7.828477
31
0
39
0
210
0
220
0
230
1
0
LINE
5
E5
100
AcDbEntity
8
1
62
256
6
ByLayer
370
18
48
1
60
0
100
AcDbLine
10
22
20
-31.75
30
0
11
22
21
0
31
0
39
0
210
0
220
0
230
1
0
LINE
5
E6
100
AcDbEntity
8
1
62
256
6
ByLayer
370
18
48
1
60
0
100
AcDbLine
10
22
20
0
30
0
11
22
21
31.75
31
0
39
0
210
0
220
0
230
1
0
LINE
5
E7
100
AcDbEntity
8
1
62
256
6
ByLayer
370
18
48
1
60
0
100
AcDbLine
10
0.3
20
-31.5
30
0
11
0.3
21
31.5
31
0
39
0
210
0
220
0
230
1
0
LINE
5
E8
100
AcDbEntity
8
1
62
256
6
ByLayer
370
18
48
1
60
0
100
AcDbLine
10
0
20
-31.2
30
0
11
0
21
31.2
31
0
39
0
210
0
220
0
230
1
0
LINE
5
E9
100
AcDbEntity
8
SK1
62
256
6
ByLayer
370
18
48
1
60
0
100
AcDbLine
10
-1.307107
20
-5.313223
30
0
11
-1.307107
21
5.313223
31
0
39
0
210
0
220
0
230
1
0
LINE
5
EA
100
AcDbEntity
8
SK1
62
256
6
ByLayer
370
18
48
1
60
0
100
AcDbLine
10
-36.642113
20
4.030013
30
0
11
-36.642113
21
-4.030013
31
0
39
0
210
0
220
0
230
1
0
LINE
5
EB
100
AcDbEntity
8
SK1
62
256
6
ByLayer
370
18
48
1
60
0
100
AcDbLine
10
-38
20
-3.718991
30
0
11
-38
21
3.718991
31
0
39
0
210
0
220
0
230
1
0
LINE
5
EC
100
AcDbEntity
8
SK1
62
256
6
ByLayer
370
18
48
1
60
0
100
AcDbLine
10
-36.642113
20
-4.030013
30
0
11
-36.642113
21
-21.017182
31
0
39
0
210
0
220
0
230
1
0
LINE
5
ED
100
AcDbEntity
8
SK1
62
256
6
ByLayer
370
18
48
1
60
0
100
AcDbLine
10
-36.642113
20
21.017182
30
0
11
-36.642113
21
4.030013
31
0
39
0
210
0
220
0
230
1
0
LINE
5
EE
100
AcDbEntity
8
SK1
62
256
6
ByLayer
370
18
48
1
60
0
100
AcDbLine
10
-38
20
-20.233206
30
0
11
-38
21
-3.718991
31
0
39
0
210
0
220
0
230
1
0
LINE
5
EF
100
AcDbEntity
8
SK1
62
256
6
ByLayer
370
18
48
1
60
0
100
AcDbLine
10
-38
20
3.718991
30
0
11
-38
21
20.233206
31
0
39
0
210
0
220
0
230
1
0
LINE
5
F0
100
AcDbEntity
8
1
62
256
6
ByLayer
370
18
48
1
60
0
100
AcDbLine
10
38.47004
20
28.297555
30
0
11
50.811092
21
28.371582
31
0
39
0
210
0
220
0
230
1
0
LINE
5
F1
100
AcDbEntity
8
1
62
256
6
ByLayer
370
18
48
1
60
0
100
AcDbLine
10
53.115094
20
28.385402
30
0
11
64.050376
21
28.450997
31
0
39
0
210
0
220
0
230
1
0
LINE
5
F2
100
AcDbEntity
8
1
62
256
6
ByLayer
370
18
48
1
60
0
100
AcDbLine
10
53.115094
20
28.385402
30
0
11
50.811092
21
28.371582
31
0
39
0
210
0
220
0
230
1
0
LINE
5
F3
100
AcDbEntity
8
1
62
256
6
ByLayer
370
18
48
1
60
0
100
AcDbLine
10
64.050376
20
28.450997
30
0
11
68.469501
21
28.477505
31
0
39
0
210
0
220
0
230
1
0
LINE
5
F4
100
AcDbEntity
8
1
62
256
6
ByLayer
370
18
48
1
60
0
100
AcDbLine
10
69.219876
20
-11.396365
30
0
11
65.633074
21
-14.625936
31
0
39
0
210
0
220
0
230
1
0
LINE
5
F5
100
AcDbEntity
8
1
62
256
6
ByLayer
370
18
48
1
60
0
100
AcDbLine
10
101.962165
20
35.644161
30
0
11
101.426321
21
35.775
31
0
39
0
210
0
220
0
230
1
0
LINE
5
F6
100
AcDbEntity
8
SK4
62
256
6
ByLayer
370
18
48
0.05
60
0
100
AcDbLine
10
-38
20
0
30
0
11
114.566067
21
0
31
0
39
0
210
0
220
0
230
1
0
LINE
5
F8
100
AcDbEntity
8
80
62
256
6
ByLayer
370
18
48
1
60
0
100
AcDbLine
10
0
20
0
30
0
11
-18
21
0
31
0
39
0
210
0
220
0
230
1
0
LINE
5
F9
100
AcDbEntity
8
81
62
256
6
ByLayer
370
18
48
1
60
0
100
AcDbLine
10
137.762836
20
32.944162
30
0
11
119.762836
21
32.944162
31
0
39
0
210
0
220
0
230
1
0
MTEXT
5
1D0
100
AcDbEntity
8
SK6
62
256
6
ByLayer
370
18
48
1
60
0
100
AcDbMText
10
39.455715
20
-59.501575
30
0
210
0
220
0
230
1
1
\W0.7199;C6-DDMNL-33120-1504
40
3
41
0
44
1.084337
50
0
71
7
72
5
7
iso_b_vert
0
DIMENSION
5
1E2
100
AcDbEntity
8
SK2
62
256
6
ByLayer
370
13
48
1
60
0
100
AcDbDimension
2
DimnDraft3D1
10
31.5
20
49.415489
30
0
11
-5.202632
21
49.415489
31
0
70
32
71
5
72
1
41
1
210
0
220
0
230
1
3
Standard
100
AcDbAlignedDimension
13
-31.5
23
1.7
33
0
14
31.5
24
1.7
34
0
50
0
100
AcDbRotatedDimension
1001
ACAD
1000
DSTYLE
1002
{
1070
   279
1070
     0
1070
   172
1070
     1
1070
   173
1070
     1
1070
   340
1005
1D1
1070
    77
1070
     1
1070
    73
1070
     0
1070
   171
1070
     3
1070
   274
1070
     4
1070
   177
1070
     7
1070
   176
1070
     7
1070
   178
1070
     7
1070
    78
1070
     8
1070
    41
1041
3.175
1070
   147
1041
1.5
1070
    42
1041
2.0
1070
    44
1041
2.0
1070
   140
1041
3.0
1070
   343
1005
1E3
1070
   344
1005
1E3
1002
}
0
DIMENSION
5
1F8
100
AcDbEntity
8
2
62
256
6
ByLayer
370
13
48
1
60
0
100
AcDbDimension
2
DimnDraft3D2
10
-60.717074
20
119.762836
30
0
11
-60.717074
21
57.402471
31
0
70
32
71
5
72
1
41
1
210
0
220
0
230
1
3
Standard
100
AcDbAlignedDimension
13
-33.2
23
0
33
0
14
-34.944162
24
119.762836
34
0
50
90
100
AcDbRotatedDimension
1001
ACAD
1000
DSTYLE
1002
{
1070
    74
1070
     0
1070
   279
1070
     0
1070
   172
1070
     1
1070
   173
1070
     1
1070
   340
1005
1D1
1070
    77
1070
     1
1070
    73
1070
     0
1070
   171
1070
     3
1070
   274
1070
     4
1070
   177
1070
     7
1070
   176
1070
     7
1070
   178
1070
     7
1070
    78
1070
     8
1070
    41
1041
3.175
1070
   147
1041
1.5
1070
    42
1041
2.0
1070
    44
1041
2.0
1070
   140
1041
3.0
1070
   343
1005
1E3
1070
   344
1005
1E3
1002
}
0
DIMENSION
5
206
100
AcDbEntity
8
2
62
256
6
ByLayer
370
13
48
1
60
0
100
AcDbDimension
2
DimnDraft3D3
10
0
20
-136.392451
30
0
11
13.029976
21
-136.392451
31
0
70
32
71
5
72
1
41
1
210
0
220
0
230
1
3
Standard
100
AcDbAlignedDimension
13
32.944162
23
-121.762836
33
0
14
0
24
-116.566067
34
0
50
0
100
AcDbRotatedDimension
1001
ACAD
1000
DSTYLE
1002
{
1070
   279
1070
     0
1070
   172
1070
     1
1070
   173
1070
     1
1070
   340
1005
1D1
1070
    77
1070
     1
1070
    73
1070
     0
1070
   171
1070
     3
1070
   274
1070
     4
1070
   177
1070
     7
1070
   176
1070
     7
1070
   178
1070
     7
1070
    78
1070
     8
1070
    41
1041
3.175
1070
   147
1041
1.5
1070
    42
1041
2.0
1070
    44
1041
2.0
1070
   140
1041
3.0
1070
   343
1005
1E3
1070
   344
1005
1E3
1002
}
0
DIMENSION
5
214
100
AcDbEntity
8
2
62
256
6
ByLayer
370
13
48
1
60
0
100
AcDbDimension
2
DimnDraft3D4
10
107.701903
20
35.889129
30
0
11
107.410488
21
48.675532
31
0
70
34
71
5
72
1
41
1
210
0
220
0
230
1
3
Standard
100
AcDb2LineAngularDimension
13
119.762836
23
32.944162
33
0
14
119.762836
24
33.944162
34
0
15
119.158273
25
33.091781
35
0
16
109.263209
26
46.315993
36
0
40
0
0
DIMENSION
5
222
100
AcDbEntity
8
2
62
256
6
ByLayer
370
13
48
1
60
0
100
AcDbDimension
2
DimnDraft3D5
10
119.762836
20
33.944162
30
0
11
110.868564
21
11.983556
31
0
70
34
71
5
72
1
41
1
210
0
220
0
230
1
3
Standard
100
AcDb2LineAngularDimension
13
110.73849
23
23.83486
33
0
14
119.502356
24
31.72588
34
0
15
119.762836
25
32.944162
35
0
16
109.648354
26
9.242919
36
0
40
0
0
ENDSEC
0
SECTION
2
OBJECTS
0
DICTIONARY
5
28d
330
0
100
AcDbDictionary
280
0
281
1
3
ACAD_GROUP
350
28e
3
ACAD_MLINESTYLE
350
28f
0
DICTIONARY
5
28e
330
0
100
AcDbDictionary
280
0
281
1
0
DICTIONARY
5
28f
330
0
100
AcDbDictionary
280
0
281
1
3
Standard
350
18
0
MLINESTYLE
5
18
330
28f
100
AcDbMlineStyle
2
Standard
70
0
3

62
256
51
90
52
90
71
2
49
-0.5
62
256
6
ByLayer
49
0.5
62
256
6
ByLayer
0
RASTERVARIABLES
5
27b
330

100
AcDbRasterVariables
90
0
70
1
71
1
72
1
0
ENDSEC
0
EOF
