0
SECTION
2
HEADER
9
$ACADVER
1
AC1015
9
$DWGCODEPAGE
3
ANSI_1252
9
$HANDSEED
5
28a
9
$ANGBASE
50
0
9
$ANGDIR
70
0
9
$ATTMODE
70
1
9
$AUNITS
70
0
9
$AUPREC
70
0
9
$CECOLOR
62
256
9
$CELTSCALE
40
1
9
$CELTYPE
6
ByLayer
9
$CELWEIGHT
370
18
9
$CLAYER
8
0
9
$CMLJUST
70
0
9
$CMLSCALE
40
1
9
$CMLSTYLE
2
Standard
9
$DIMSTYLE
2
Standard
9
$TEXTSIZE
40
0.2
9
$TEXTSTYLE
7
Standard
9
$LUNITS
70
2
9
$LUPREC
70
4
9
$EXTNAMES
290
1
9
$INSUNITS
70
4
9
$LTSCALE
40
1
9
$LWDISPLAY
290
1
9
$PDMODE
70
0
9
$PDSIZE
40
0
9
$PLINEGEN
70
0
0
ENDSEC
0
SECTION
2
CLASSES
0
CLASS
1
RASTERVARIABLES
2
AcDbRasterVariables
3
ISM
90
0
280
0
281
0
0
ENDSEC
0
SECTION
2
TABLES
0
TABLE
2
VPORT
5
280
100
AcDbSymbolTable
0
VPORT
5
1
100
AcDbSymbolTableRecord
100
AcDbViewportTableRecord
2
*Active
70
0
10
0
20
0
11
1
21
1
12
-1
22
1
13
0
23
0
14
0.5
24
0.5
15
10
25
10
16
0
26
0
36
1
17
0
27
0
37
0
0
ENDTAB
0
TABLE
2
LTYPE
5
281
100
AcDbSymbolTable
0
LTYPE
5
14
100
AcDbSymbolTableRecord
100
AcDbLinetypeTableRecord
70
0
2
ByBlock
3

72
65
73
0
40
0
0
LTYPE
5
15
100
AcDbSymbolTableRecord
100
AcDbLinetypeTableRecord
70
0
2
ByLayer
3

72
65
73
0
40
0
0
LTYPE
5
16
100
AcDbSymbolTableRecord
100
AcDbLinetypeTableRecord
70
0
2
CONTINUOUS
3
Solid line
72
65
73
0
40
0
0
LTYPE
5
6A
100
AcDbSymbolTableRecord
100
AcDbLinetypeTableRecord
70
0
2
CENTER
3
____ _ ____ _ ____ _ ____
72
65
73
4
40
47.5
49
22
74
0
49
-8.5
74
0
49
8.5
74
0
49
-8.5
74
0
0
LTYPE
5
6B
100
AcDbSymbolTableRecord
100
AcDbLinetypeTableRecord
70
0
2
DASHED
3
__ __ __ __ __ __ __ __ __
72
65
73
2
40
25.72
49
12.86
74
0
49
-12.86
74
0
0
ENDTAB
0
TABLE
2
LAYER
5
282
100
AcDbSymbolTable
0
LAYER
5
10
100
AcDbSymbolTableRecord
100
AcDbLayerTableRecord
2
0
70
0
62
7
6
CONTINUOUS
290
1
370
-3
390
0
0
LAYER
5
6D
100
AcDbSymbolTableRecord
100
AcDbLayerTableRecord
2
2
70
0
62
7
6
CONTINUOUS
290
1
370
-3
390
0
0
LAYER
5
6F
100
AcDbSymbolTableRecord
100
AcDbLayerTableRecord
2
80
70
0
62
-6
6
CONTINUOUS
290
1
370
-3
390
0
0
LAYER
5
71
100
AcDbSymbolTableRecord
100
AcDbLayerTableRecord
2
81
70
0
62
-3
6
CONTINUOUS
290
1
370
-3
390
0
0
LAYER
5
74
100
AcDbSymbolTableRecord
100
AcDbLayerTableRecord
2
1
70
0
62
4
6
CONTINUOUS
290
1
370
-3
390
0
0
LAYER
5
8B
100
AcDbSymbolTableRecord
100
AcDbLayerTableRecord
2
4
70
0
62
-2
6
CENTER
290
1
370
-3
390
0
0
LAYER
5
26c
100
AcDbSymbolTableRecord
100
AcDbLayerTableRecord
2
SK4
70
0
62
2
6
CENTER
290
1
370
-3
390
0
0
LAYER
5
26d
100
AcDbSymbolTableRecord
100
AcDbLayerTableRecord
2
SK1
70
0
62
4
6
CONTINUOUS
290
1
370
-3
390
0
0
LAYER
5
26e
100
AcDbSymbolTableRecord
100
AcDbLayerTableRecord
2
SK6
70
0
62
5
6
CONTINUOUS
290
1
370
-3
390
0
0
LAYER
5
26f
100
AcDbSymbolTableRecord
100
AcDbLayerTableRecord
2
SK2
70
0
62
7
6
CONTINUOUS
290
1
370
-3
390
0
0
ENDTAB
0
TABLE
2
STYLE
5
283
100
AcDbSymbolTable
0
STYLE
5
11
100
AcDbSymbolTableRecord
100
AcDbTextStyleTableRecord
2
Standard
3
txt
70
0
71
0
40
0
41
1
42
0
50
0
0
STYLE
5
1D0
100
AcDbSymbolTableRecord
100
AcDbTextStyleTableRecord
2
iso_b_vert
3
simplex.shx
70
0
71
0
40
0
41
1
42
0
50
0
0
STYLE
5
1D1
100
AcDbSymbolTableRecord
100
AcDbTextStyleTableRecord
2
DWGDirectTextStyle
3
simplex
70
0
71
0
40
0
41
1
42
0
50
0
0
ENDTAB
0
TABLE
2
DIMSTYLE
5
284
100
AcDbSymbolTable
100
AcDbDimStyleTable
0
DIMSTYLE
105
27
100
AcDbSymbolTableRecord
100
AcDbDimStyleTableRecord
2
Standard
70
0
3
<>
41
0.18
42
0.0625
44
0.18
140
0.18
147
0.09
73
0
74
0
77
1
271
2
275
0
278
52
280
0
340
11
0
ENDTAB
0
TABLE
2
VIEW
5
285
100
AcDbSymbolTable
0
ENDTAB
0
TABLE
2
UCS
5
286
100
AcDbSymbolTable
0
ENDTAB
0
TABLE
2
APPID
5
287
100
AcDbSymbolTable
0
APPID
5
12
100
AcDbSymbolTableRecord
100
AcDbRegAppTableRecord
2
ACAD
70
0
0
ENDTAB
0
TABLE
2
BLOCK_RECORD
5
288
100
AcDbSymbolTable
0
BLOCK_RECORD
5
1F
100
AcDbSymbolTableRecord
100
AcDbBlockTableRecord
2
*Model_Space
340
0
70
0
0
BLOCK_RECORD
5
1B
100
AcDbSymbolTableRecord
100
AcDbBlockTableRecord
2
*Paper_Space
340
0
70
0
0
BLOCK_RECORD
5
23
100
AcDbSymbolTableRecord
100
AcDbBlockTableRecord
2
*Paper_Space0
340
0
70
0
0
BLOCK_RECORD
5
1D3
100
AcDbSymbolTableRecord
100
AcDbBlockTableRecord
2
DimnDraft3D11
340
0
70
0
0
BLOCK_RECORD
5
1E1
100
AcDbSymbolTableRecord
100
AcDbBlockTableRecord
2
DimnDraft3D2
340
0
70
0
0
BLOCK_RECORD
5
1EF
100
AcDbSymbolTableRecord
100
AcDbBlockTableRecord
2
_CLOSED
340
0
70
0
0
BLOCK_RECORD
5
1F6
100
AcDbSymbolTableRecord
100
AcDbBlockTableRecord
2
DimnDraft3D3
340
0
70
0
0
BLOCK_RECORD
5
205
100
AcDbSymbolTableRecord
100
AcDbBlockTableRecord
2
DimnDraft3D4
340
0
70
0
0
ENDTAB
0
ENDSEC
0
SECTION
2
BLOCKS
0
BLOCK
5
20
100
AcDbEntity
8
0
100
AcDbBlockBegin
2
*Model_Space
70
0
10
0
20
0
30
0
3
*Model_Space
0
ENDBLK
5
21
100
AcDbEntity
8
0
100
AcDbBlockEnd
0
BLOCK
5
1C
100
AcDbEntity
8
0
100
AcDbBlockBegin
2
*Paper_Space
70
0
10
0
20
0
30
0
3
*Paper_Space
0
ENDBLK
5
1D
100
AcDbEntity
8
0
100
AcDbBlockEnd
0
BLOCK
5
24
100
AcDbEntity
8
0
100
AcDbBlockBegin
2
*Paper_Space0
70
0
10
0
20
0
30
0
3
*Paper_Space0
0
ENDBLK
5
25
100
AcDbEntity
8
0
100
AcDbBlockEnd
0
BLOCK
5
1D4
100
AcDbEntity
8
0
100
AcDbBlockBegin
2
DimnDraft3D11
70
0
10
0
20
0
30
0
3
DimnDraft3D11
0
LINE
5
1D6
100
AcDbEntity
8
2
62
256
6
ByLayer
370
25
48
1
60
0
100
AcDbLine
10
65
20
47
30
0
11
65
21
75.75
31
0
39
0
210
0
220
0
230
1
0
LINE
5
1D7
100
AcDbEntity
8
2
62
256
6
ByLayer
370
25
48
1
60
0
100
AcDbLine
10
0
20
33.5
30
0
11
0
21
75.75
31
0
39
0
210
0
220
0
230
1
0
LINE
5
1D8
100
AcDbEntity
8
2
62
256
6
ByLayer
370
25
48
1
60
0
100
AcDbLine
10
65
20
73.75
30
0
11
0
21
73.75
31
0
39
0
210
0
220
0
230
1
0
LINE
5
1D9
100
AcDbEntity
8
2
62
256
6
ByLayer
370
25
48
1
60
0
100
AcDbLine
10
65
20
73.75
30
0
11
61.825002
21
73.332003
31
0
39
0
210
0
220
0
230
1
0
LINE
5
1DA
100
AcDbEntity
8
2
62
256
6
ByLayer
370
25
48
1
60
0
100
AcDbLine
10
65
20
73.75
30
0
11
61.824998
21
74.167997
31
0
39
0
210
0
220
0
230
1
0
LINE
5
1DB
100
AcDbEntity
8
2
62
256
6
ByLayer
370
25
48
1
60
0
100
AcDbLine
10
61.825002
20
73.332003
30
0
11
61.824998
21
74.167997
31
0
39
0
210
0
220
0
230
1
0
LINE
5
1DC
100
AcDbEntity
8
2
62
256
6
ByLayer
370
25
48
1
60
0
100
AcDbLine
10
0
20
73.75
30
0
11
3.174998
21
74.167997
31
0
39
0
210
0
220
0
230
1
0
LINE
5
1DD
100
AcDbEntity
8
2
62
256
6
ByLayer
370
25
48
1
60
0
100
AcDbLine
10
0
20
73.75
30
0
11
3.175002
21
73.332003
31
0
39
0
210
0
220
0
230
1
0
LINE
5
1DE
100
AcDbEntity
8
2
62
256
6
ByLayer
370
25
48
1
60
0
100
AcDbLine
10
3.174998
20
74.167997
30
0
11
3.175002
21
73.332003
31
0
39
0
210
0
220
0
230
1
0
MTEXT
5
1DF
100
AcDbEntity
8
2
62
256
6
ByLayer
370
18
48
1
60
0
100
AcDbMText
10
28.343421
20
74.875
30
0
210
0
220
0
230
1
1
\W0.7346;65.0
40
4.5
41
0
44
1.084337
50
0
71
7
72
5
7
iso_b_vert
0
ENDBLK
5
1D5
100
AcDbEntity
8
0
100
AcDbBlockEnd
0
BLOCK
5
1EC
100
AcDbEntity
8
0
100
AcDbBlockBegin
2
DimnDraft3D2
70
0
10
0
20
0
30
0
3
DimnDraft3D2
0
MTEXT
5
1E2
100
AcDbEntity
8
2
62
256
6
ByLayer
370
18
48
1
60
0
100
AcDbMText
10
53.150642
20
52.263071
30
0
210
0
220
0
230
1
1
\W0.7399;93%%d
40
4.5
41
0
44
1.084337
50
46.4999999999996
71
7
72
5
7
iso_b_vert
0
LINE
5
1E3
100
AcDbEntity
8
2
62
256
6
ByLayer
370
13
48
1
60
0
100
AcDbLine
10
65
20
47
30
0
11
65
21
59.483093
31
0
39
0
210
0
220
0
230
1
0
LINE
5
1E4
100
AcDbEntity
8
2
62
256
6
ByLayer
370
13
48
1
60
0
100
AcDbLine
10
61.16882
20
44.841904
30
0
11
50.579385
21
44.286936
31
0
39
0
210
0
220
0
230
1
0
ARC
5
1E5
100
AcDbEntity
8
2
62
256
6
ByLayer
370
13
48
1
60
0
100
AcDbCircle
39
0
10
65
20
45.042688
30
0
40
12.440404683847
210
0
220
0
230
1
100
AcDbArc
50
90
51
183
0
LINE
5
1E6
100
AcDbEntity
8
2
62
256
6
ByLayer
370
13
48
1
60
0
100
AcDbLine
10
65
20
57.483093
30
0
11
61.857902
21
56.864583
31
0
39
0
210
0
220
0
230
1
0
LINE
5
1E7
100
AcDbEntity
8
2
62
256
6
ByLayer
370
13
48
1
60
0
100
AcDbLine
10
65
20
57.483093
30
0
11
61.804881
21
57.698894
31
0
39
0
210
0
220
0
230
1
0
LINE
5
1E8
100
AcDbEntity
8
2
62
256
6
ByLayer
370
13
48
1
60
0
100
AcDbLine
10
61.857902
20
56.864583
30
0
11
61.804881
21
57.698894
31
0
39
0
210
0
220
0
230
1
0
LINE
5
1E9
100
AcDbEntity
8
2
62
256
6
ByLayer
370
13
48
1
60
0
100
AcDbLine
10
52.576644
20
44.391607
30
0
11
52.19392
21
47.571051
31
0
39
0
210
0
220
0
230
1
0
LINE
5
1EA
100
AcDbEntity
8
2
62
256
6
ByLayer
370
13
48
1
60
0
100
AcDbLine
10
52.576644
20
44.391607
30
0
11
53.029861
21
47.561773
31
0
39
0
210
0
220
0
230
1
0
LINE
5
1EB
100
AcDbEntity
8
2
62
256
6
ByLayer
370
13
48
1
60
0
100
AcDbLine
10
52.19392
20
47.571051
30
0
11
53.029861
21
47.561773
31
0
39
0
210
0
220
0
230
1
0
ENDBLK
5
1ED
100
AcDbEntity
8
0
100
AcDbBlockEnd
0
BLOCK
5
1F0
100
AcDbEntity
8
0
100
AcDbBlockBegin
2
_CLOSED
70
0
10
0
20
0
30
0
3
_CLOSED
0
LINE
5
1F2
100
AcDbEntity
8
0
62
256
6
ByLayer
370
-2
48
1
60
0
100
AcDbLine
10
-1
20
0.166667
30
0
11
0
21
0
31
0
39
0
210
0
220
0
230
1
0
LINE
5
1F3
100
AcDbEntity
8
0
62
256
6
ByLayer
370
-2
48
1
60
0
100
AcDbLine
10
0
20
0
30
0
11
-1
21
-0.166667
31
0
39
0
210
0
220
0
230
1
0
LINE
5
1F4
100
AcDbEntity
8
0
62
256
6
ByLayer
370
-2
48
1
60
0
100
AcDbLine
10
-1
20
0.166667
30
0
11
-1
21
-0.166667
31
0
39
0
210
0
220
0
230
1
0
LINE
5
1F5
100
AcDbEntity
8
0
62
256
6
ByLayer
370
-2
48
1
60
0
100
AcDbLine
10
0
20
0
30
0
11
-1
21
0
31
0
39
0
210
0
220
0
230
1
0
ENDBLK
5
1F1
100
AcDbEntity
8
0
100
AcDbBlockEnd
0
BLOCK
5
202
100
AcDbEntity
8
0
100
AcDbBlockBegin
2
DimnDraft3D3
70
0
10
0
20
0
30
0
3
DimnDraft3D3
0
MTEXT
5
1F7
100
AcDbEntity
8
SK2
62
256
6
ByLayer
370
18
48
1
60
0
100
AcDbMText
10
-46.875
20
-1.563158
30
0
210
0
220
0
230
1
1
\W0.6740;63
40
4.5
41
0
44
1.084337
50
90
71
7
72
5
7
iso_b_vert
0
LINE
5
1F9
100
AcDbEntity
8
SK2
62
256
6
ByLayer
370
13
48
1
60
0
100
AcDbLine
10
-2
20
-31.5
30
0
11
-47.75
21
-31.5
31
0
39
0
210
0
220
0
230
1
0
LINE
5
1FA
100
AcDbEntity
8
SK2
62
256
6
ByLayer
370
13
48
1
60
0
100
AcDbLine
10
-2
20
31.5
30
0
11
-47.75
21
31.5
31
0
39
0
210
0
220
0
230
1
0
LINE
5
1FB
100
AcDbEntity
8
SK2
62
256
6
ByLayer
370
13
48
1
60
0
100
AcDbLine
10
-45.75
20
-31.5
30
0
11
-45.75
21
31.5
31
0
39
0
210
0
220
0
230
1
0
LINE
5
1FC
100
AcDbEntity
8
SK2
62
256
6
ByLayer
370
13
48
1
60
0
100
AcDbLine
10
-45.75
20
-31.5
30
0
11
-46.167997
21
-28.325002
31
0
39
0
210
0
220
0
230
1
0
LINE
5
1FD
100
AcDbEntity
8
SK2
62
256
6
ByLayer
370
13
48
1
60
0
100
AcDbLine
10
-45.75
20
-31.5
30
0
11
-45.332003
21
-28.324998
31
0
39
0
210
0
220
0
230
1
0
LINE
5
1FE
100
AcDbEntity
8
SK2
62
256
6
ByLayer
370
13
48
1
60
0
100
AcDbLine
10
-46.167997
20
-28.325002
30
0
11
-45.332003
21
-28.324998
31
0
39
0
210
0
220
0
230
1
0
LINE
5
1FF
100
AcDbEntity
8
SK2
62
256
6
ByLayer
370
13
48
1
60
0
100
AcDbLine
10
-45.75
20
31.5
30
0
11
-45.332003
21
28.325002
31
0
39
0
210
0
220
0
230
1
0
LINE
5
200
100
AcDbEntity
8
SK2
62
256
6
ByLayer
370
13
48
1
60
0
100
AcDbLine
10
-45.75
20
31.5
30
0
11
-46.167997
21
28.324998
31
0
39
0
210
0
220
0
230
1
0
LINE
5
201
100
AcDbEntity
8
SK2
62
256
6
ByLayer
370
13
48
1
60
0
100
AcDbLine
10
-45.332003
20
28.325002
30
0
11
-46.167997
21
28.324998
31
0
39
0
210
0
220
0
230
1
0
ENDBLK
5
203
100
AcDbEntity
8
0
100
AcDbBlockEnd
0
BLOCK
5
210
100
AcDbEntity
8
0
100
AcDbBlockBegin
2
DimnDraft3D4
70
0
10
0
20
0
30
0
3
DimnDraft3D4
0
MTEXT
5
206
100
AcDbEntity
8
2
62
256
6
ByLayer
370
18
48
1
60
0
100
AcDbMText
10
86.125
20
18.106579
30
0
210
0
220
0
230
1
1
\W0.7640;45.0
40
4.5
41
0
44
1.084337
50
90
71
7
72
5
7
iso_b_vert
0
LINE
5
207
100
AcDbEntity
8
2
62
256
6
ByLayer
370
13
48
1
60
0
100
AcDbLine
10
67
20
0
30
0
11
89.25
21
0
31
0
39
0
210
0
220
0
230
1
0
LINE
5
208
100
AcDbEntity
8
2
62
256
6
ByLayer
370
13
48
1
60
0
100
AcDbLine
10
67
20
45
30
0
11
89.25
21
45
31
0
39
0
210
0
220
0
230
1
0
LINE
5
209
100
AcDbEntity
8
2
62
256
6
ByLayer
370
13
48
1
60
0
100
AcDbLine
10
87.25
20
0
30
0
11
87.25
21
45
31
0
39
0
210
0
220
0
230
1
0
LINE
5
20A
100
AcDbEntity
8
2
62
256
6
ByLayer
370
13
48
1
60
0
100
AcDbLine
10
87.25
20
0
30
0
11
86.832003
21
3.174998
31
0
39
0
210
0
220
0
230
1
0
LINE
5
20B
100
AcDbEntity
8
2
62
256
6
ByLayer
370
13
48
1
60
0
100
AcDbLine
10
87.25
20
0
30
0
11
87.667997
21
3.175002
31
0
39
0
210
0
220
0
230
1
0
LINE
5
20C
100
AcDbEntity
8
2
62
256
6
ByLayer
370
13
48
1
60
0
100
AcDbLine
10
86.832003
20
3.174998
30
0
11
87.667997
21
3.175002
31
0
39
0
210
0
220
0
230
1
0
LINE
5
20D
100
AcDbEntity
8
2
62
256
6
ByLayer
370
13
48
1
60
0
100
AcDbLine
10
87.25
20
45
30
0
11
87.667997
21
41.825002
31
0
39
0
210
0
220
0
230
1
0
LINE
5
20E
100
AcDbEntity
8
2
62
256
6
ByLayer
370
13
48
1
60
0
100
AcDbLine
10
87.25
20
45
30
0
11
86.832003
21
41.824998
31
0
39
0
210
0
220
0
230
1
0
LINE
5
20F
100
AcDbEntity
8
2
62
256
6
ByLayer
370
13
48
1
60
0
100
AcDbLine
10
87.667997
20
41.825002
30
0
11
86.832003
21
41.824998
31
0
39
0
210
0
220
0
230
1
0
ENDBLK
5
211
100
AcDbEntity
8
0
100
AcDbBlockEnd
0
ENDSEC
0
SECTION
2
ENTITIES
0
ARC
5
107
100
AcDbEntity
8
1
62
256
6
ByLayer
370
18
48
1
60
0
100
AcDbCircle
39
0
10
-19.06259
20
2.913722
30
0
40
0.25
210
0
220
0
230
-1
100
AcDbArc
50
2.311218
51
95
0
ARC
5
108
100
AcDbEntity
8
SK1
62
256
6
ByLayer
370
18
48
1
60
0
100
AcDbCircle
39
0
10
0.6
20
-23.45
30
0
40
0.999999999999999
210
0
220
0
230
-1
100
AcDbArc
50
113.578178
51
126.869898
0
ARC
5
109
100
AcDbEntity
8
SK1
62
256
6
ByLayer
370
18
48
1
60
0
100
AcDbCircle
39
0
10
0.6
20
23.45
30
0
40
0.999999999999999
210
0
220
0
230
-1
100
AcDbArc
50
233.130102
51
246.421822
0
ARC
5
10A
100
AcDbEntity
8
1
62
256
6
ByLayer
370
18
48
1
60
0
100
AcDbCircle
39
0
10
14.816047
20
3.085113
30
0
40
4
210
0
220
0
230
1
100
AcDbArc
50
337.45415
51
357.688782
0
ARC
5
10B
100
AcDbEntity
8
1
62
256
6
ByLayer
370
18
48
1
60
0
100
AcDbCircle
39
0
10
-8.2
20
0
30
0
40
2.5075
210
0
220
0
230
-1
100
AcDbArc
50
270
51
271.068752
0
ARC
5
10C
100
AcDbEntity
8
1
62
256
6
ByLayer
370
18
48
1
60
0
100
AcDbCircle
39
0
10
-8.2
20
0
30
0
40
2.5075
210
0
220
0
230
-1
100
AcDbArc
50
89.566873
51
105.890629
0
ARC
5
10D
100
AcDbEntity
8
1
62
256
6
ByLayer
370
18
48
1
60
0
100
AcDbCircle
39
0
10
-8.2
20
0
30
0
40
2.5075
210
0
220
0
230
-1
100
AcDbArc
50
267.215619
51
270
0
CIRCLE
5
10E
100
AcDbEntity
8
1
62
256
6
ByLayer
370
18
48
1
60
0
100
AcDbCircle
10
-8.2
20
0
30
0
40
2
39
0
210
0
220
0
230
-1
0
ELLIPSE
5
10F
100
AcDbEntity
8
1
62
256
6
ByLayer
370
18
48
1
60
0
100
AcDbEllipse
10
52.958437
20
37.221133
30
0
11
1.90160924039537
21
-1.95179591577678
31
0
210
0
220
0
230
1
40
0.987534
41
0.323882917365384
42
0.550863121161779
0
ELLIPSE
5
110
100
AcDbEntity
8
1
62
256
6
ByLayer
370
18
48
1
60
0
100
AcDbEllipse
10
33.547344
20
39.884977
30
0
11
1.97548026366513
21
-2.25775944862812
31
0
210
0
220
0
230
1
40
0.985051
41
-0.50389293716849
42
-0.187717665000398
0
ELLIPSE
5
111
100
AcDbEntity
8
1
62
256
6
ByLayer
370
18
48
1
60
0
100
AcDbEllipse
10
39.071512
20
35.35021
30
0
11
2.7327476980701
21
-3.12323390393557
31
0
210
0
220
0
230
1
40
0.985051
41
2.6376997164213
42
2.9305376261347
0
ELLIPSE
5
112
100
AcDbEntity
8
1
62
256
6
ByLayer
370
18
48
1
60
0
100
AcDbEllipse
10
41.054151
20
35.769745
30
0
11
-2.73274769807009
21
3.12323390393557
31
0
210
0
220
0
230
1
40
0.985051
41
3.0229866199574
42
-0.503892937168489
0
ELLIPSE
5
113
100
AcDbEntity
8
1
62
256
6
ByLayer
370
18
48
1
60
0
100
AcDbEllipse
10
38.994141
20
35.333838
30
0
11
-1.71208289517644
21
1.95672485547771
31
0
210
0
220
0
230
1
40
0.985051
41
0.976435233351492
42
1.16738499093872
0
ELLIPSE
5
114
100
AcDbEntity
8
1
62
256
6
ByLayer
370
18
48
1
60
0
100
AcDbEllipse
10
39.232839
20
35.464359
30
0
11
-0.265178536275319
21
0.272177045135845
31
0
210
0
220
0
230
1
40
0.987534
41
-0.403396498438485
42
-0.342180053776477
0
ELLIPSE
5
115
100
AcDbEntity
8
1
62
256
6
ByLayer
370
18
48
1
60
0
100
AcDbEllipse
10
40.797237
20
34.176699
30
0
11
0.296581257676342
21
-0.304408537322985
31
0
210
0
220
0
230
1
40
0.987534
41
3.1415858437697
42
-2.80444236523646
0
ELLIPSE
5
116
100
AcDbEntity
8
1
62
256
6
ByLayer
370
18
48
1
60
0
100
AcDbEllipse
10
38.939684
20
36.212431
30
0
11
0.296581257676342
21
-0.304408537322985
31
0
210
0
220
0
230
1
40
0.987534
41
-0.403396498438448
42
1.8810542918947E-05
0
ELLIPSE
5
117
100
AcDbEntity
8
1
62
256
6
ByLayer
370
18
48
1
60
0
100
AcDbEllipse
10
41.295164
20
34.796593
30
0
11
-0.265178536275319
21
0.272177045135845
31
0
210
0
220
0
230
1
40
0.987534
41
-2.79939683891865
42
-1.75724481403986
0
ELLIPSE
5
118
100
AcDbEntity
8
1
62
256
6
ByLayer
370
18
48
1
60
0
100
AcDbEllipse
10
39.603347
20
36.650691
30
0
11
-0.265178536275319
21
0.272177045135845
31
0
210
0
220
0
230
1
40
0.987534
41
-1.45059404963504
42
-0.34217499429628
0
ELLIPSE
5
119
100
AcDbEntity
8
1
62
256
6
ByLayer
370
18
48
1
60
0
100
AcDbEllipse
10
41.958827
20
35.234853
30
0
11
0.296581257676342
21
-0.304408537322985
31
0
210
0
220
0
230
1
40
0.987534
41
-3.14157244993311
42
-1.75724481403988
0
ELLIPSE
5
11A
100
AcDbEntity
8
1
62
256
6
ByLayer
370
18
48
1
60
0
100
AcDbEllipse
10
40.101273
20
37.270585
30
0
11
0.296581257676342
21
-0.304408537322985
31
0
210
0
220
0
230
1
40
0.987534
41
-1.45059404963508
42
-6.81496147787582E-06
0
ELLIPSE
5
11B
100
AcDbEntity
8
1
62
256
6
ByLayer
370
18
48
1
60
0
100
AcDbEllipse
10
40.35906
20
35.635766
30
0
11
2.7913530134244
21
-2.86502152774574
31
0
210
0
220
0
230
1
40
0.987534
41
3.14152162621429
42
-0.778646137219366
0
ELLIPSE
5
11C
100
AcDbEntity
8
1
62
256
6
ByLayer
370
18
48
1
60
0
100
AcDbEllipse
10
40.35906
20
35.635766
30
0
11
2.7913530134244
21
-2.86502152774574
31
0
210
0
220
0
230
1
40
0.987534
41
-0.778645885634939
42
0
0
ELLIPSE
5
11D
100
AcDbEntity
8
1
62
256
6
ByLayer
370
18
48
1
60
0
100
AcDbEllipse
10
41.665672
20
35.982924
30
0
11
-0.265178536275319
21
0.272177045135845
31
0
210
0
220
0
230
1
40
0.987534
41
-2.7993554831388
42
-0.71004726284325
0
ELLIPSE
5
11E
100
AcDbEntity
8
1
62
256
6
ByLayer
370
18
48
1
60
0
100
AcDbEllipse
10
40.819763
20
36.909974
30
0
11
-0.265178536275319
21
0.272177045135845
31
0
210
0
220
0
230
1
40
0.987534
41
-2.49779160083166
42
-0.342171625757653
0
ELLIPSE
5
11F
100
AcDbEntity
8
1
62
256
6
ByLayer
370
18
48
1
60
0
100
AcDbEllipse
10
40.449255
20
35.723642
30
0
11
0.802513991359514
21
-0.8236936892269
31
0
210
0
220
0
230
1
40
0.987534
41
-1.29804002362821
42
-0.778646487249854
0
ELLIPSE
5
120
100
AcDbEntity
8
1
62
256
6
ByLayer
370
18
48
1
60
0
100
AcDbEllipse
10
40.449255
20
35.723642
30
0
11
0.802513991359514
21
-0.8236936892269
31
0
210
0
220
0
230
1
40
0.987534
41
-2.58854668707933
42
-1.92164538258303
0
ELLIPSE
5
121
100
AcDbEntity
8
1
62
256
6
ByLayer
370
18
48
1
60
0
100
AcDbEllipse
10
40.449255
20
35.723642
30
0
11
0.802513991359514
21
-0.8236936892269
31
0
210
0
220
0
230
1
40
0.987534
41
-0.195831875445831
42
0
0
ELLIPSE
5
122
100
AcDbEntity
8
1
62
256
6
ByLayer
370
18
48
1
60
0
100
AcDbEllipse
10
40.449255
20
35.723642
30
0
11
0.802513991359514
21
-0.8236936892269
31
0
210
0
220
0
230
1
40
0.987534
41
0
42
-3.00009578200859
0
ELLIPSE
5
123
100
AcDbEntity
8
1
62
256
6
ByLayer
370
18
48
1
60
0
100
AcDbEllipse
10
40.449255
20
35.723642
30
0
11
0.802513991359514
21
-0.8236936892269
31
0
210
0
220
0
230
1
40
0.987534
41
-0.778645612173603
42
-0.634966971337266
0
ELLIPSE
5
124
100
AcDbEntity
8
1
62
256
6
ByLayer
370
18
48
1
60
0
100
AcDbEllipse
10
40.392883
20
35.668719
30
0
11
0.802513991359514
21
-0.8236936892269
31
0
210
0
220
0
230
1
40
0.987534
41
0.0346827327960043
42
3.10686561729262
0
ELLIPSE
5
125
100
AcDbEntity
8
1
62
256
6
ByLayer
370
18
48
1
60
0
100
AcDbEllipse
10
53.98594
20
38.141341
30
0
11
1.80042269365874
21
-1.847938885396
31
0
210
0
220
0
230
1
40
0.987534
41
-0.330418070028269
42
0
0
ELLIPSE
5
126
100
AcDbEntity
8
1
62
256
6
ByLayer
370
18
48
1
60
0
100
AcDbEllipse
10
53.98594
20
38.141341
30
0
11
1.80042269365874
21
-1.847938885396
31
0
210
0
220
0
230
1
40
0.987534
41
0
42
2.3383648589003
0
ELLIPSE
5
127
100
AcDbEntity
8
1
62
256
6
ByLayer
370
18
48
1
60
0
100
AcDbEllipse
10
53.270015
20
37.443824
30
0
11
-1.80042269365874
21
1.847938885396
31
0
210
0
220
0
230
1
40
0.987534
41
-2.94406070229374
42
-2.64305685094319
0
ELLIPSE
5
128
100
AcDbEntity
8
1
62
256
6
ByLayer
370
18
48
1
60
0
100
AcDbEllipse
10
56.999402
20
33.662213
30
0
11
0.831125359747115
21
-0.853060159886294
31
0
210
0
220
0
230
1
40
0.987534
41
-0.233835969021915
42
4.44879703472798E-06
0
ELLIPSE
5
129
100
AcDbEntity
8
1
62
256
6
ByLayer
370
18
48
1
60
0
100
AcDbEllipse
10
55.530129
20
32.372825
30
0
11
1.11654120536976
21
-1.14600861109829
31
0
210
0
220
0
230
1
40
0.987534
41
-0.71380151332036
42
-2.69989447524098E-06
0
ELLIPSE
5
12A
100
AcDbEntity
8
1
62
256
6
ByLayer
370
18
48
1
60
0
100
AcDbEllipse
10
50.014935
20
41.545441
30
0
11
1.11654120536974
21
-1.14600861109828
31
0
210
0
220
0
230
1
40
0.987534
41
3.14158983163959
42
-2.89546307831331
0
ELLIPSE
5
12B
100
AcDbEntity
8
1
62
256
6
ByLayer
370
18
48
1
60
0
100
AcDbEllipse
10
18.743654
20
4.916586
30
0
11
-0.0154518450041308
21
-5.24462626351683
31
0
210
0
220
0
230
1
40
0.079183
41
-0.930714028420133
42
0.160955508346663
0
ELLIPSE
5
12C
100
AcDbEntity
8
1
62
256
6
ByLayer
370
18
48
1
60
0
100
AcDbEllipse
10
18.743654
20
4.916586
30
0
11
-0.0211446300056532
21
-7.17685699218108
31
0
210
0
220
0
230
1
40
0.079183
41
1.92077191640593
42
-1.5336055652186
0
ELLIPSE
5
12D
100
AcDbEntity
8
1
62
256
6
ByLayer
370
18
48
1
60
0
100
AcDbEllipse
10
44.319852
20
29.860033
30
0
11
1.65314319602558
21
-1.69677243339754
31
0
210
0
220
0
230
1
40
0.987534
41
-1.68413813115886
42
-1.3246667515184
0
ELLIPSE
5
12E
100
AcDbEntity
8
1
62
256
6
ByLayer
370
18
48
1
60
0
100
AcDbEllipse
10
26.347154
20
0
30
0
11
-14.7536831606553
21
-31.0932549155799
31
0
210
0
220
0
230
1
40
0.341999
41
-1.09123958575286
42
-0.157806186645435
0
ELLIPSE
5
12F
100
AcDbEntity
8
1
62
256
6
ByLayer
370
18
48
1
60
0
100
AcDbEllipse
10
20.755893
20
0
30
0
11
1.92875500727024E-15
21
31.5
31
0
210
0
220
0
230
1
40
0.087489
41
0.311401384074102
42
2.6762114018791
0
ELLIPSE
5
130
100
AcDbEntity
8
1
62
256
6
ByLayer
370
18
48
1
60
0
100
AcDbEllipse
10
32.570291
20
24.419692
30
0
11
-5.49637707604214
21
-1.10563046684237
31
0
210
0
220
0
230
1
40
0.710897
41
2.46808781437281
42
-3.12541268684198
0
ELLIPSE
5
131
100
AcDbEntity
8
1
62
256
6
ByLayer
370
18
48
1
60
0
100
AcDbEllipse
10
44.574596
20
29.702005
30
0
11
1.65314319602558
21
-1.69677243339754
31
0
210
0
220
0
230
1
40
0.987534
41
-1.32466675151838
42
0.246129575276499
0
ELLIPSE
5
132
100
AcDbEntity
8
1
62
256
6
ByLayer
370
18
48
1
60
0
100
AcDbEllipse
10
26.347154
20
0
30
0
11
-14.7536831606555
21
31.0932549155802
31
0
210
0
220
0
230
1
40
0.341999
41
0.157806186645435
42
1.09123958575285
0
ELLIPSE
5
133
100
AcDbEntity
8
1
62
256
6
ByLayer
370
18
48
1
60
0
100
AcDbEllipse
10
-2.347154
20
0
30
0
11
-14.7536831606537
21
-31.0932549155779
31
0
210
0
220
0
230
1
40
0.341999
41
2.05035306783689
42
2.98378646694435
0
ELLIPSE
5
134
100
AcDbEntity
8
1
62
256
6
ByLayer
370
18
48
1
60
0
100
AcDbEllipse
10
24.525473
20
70.381756
30
0
11
-6.64644222755119E-15
21
-36.1827412637842
31
0
210
-6.1908546950511E-18
220
0
230
1
40
0.11055
41
-0.156747552555783
42
-0.112984309937162
0
ELLIPSE
5
135
100
AcDbEntity
8
1
62
256
6
ByLayer
370
18
48
1
60
0
100
AcDbEllipse
10
-2.347154
20
0
30
0
11
-14.7536831606548
21
31.0932549155792
31
0
210
0
220
0
230
1
40
0.341999
41
-2.98378646694435
42
-2.05035306783692
0
ELLIPSE
5
136
100
AcDbEntity
8
1
62
256
6
ByLayer
370
18
48
1
60
0
100
AcDbEllipse
10
57.715326
20
34.359729
30
0
11
-0.831125359747117
21
0.853060159886292
31
0
210
0
220
0
230
1
40
0.987534
41
2.90775668456789
42
-2.89546307831326
0
ELLIPSE
5
137
100
AcDbEntity
8
1
62
256
6
ByLayer
370
18
48
1
60
0
100
AcDbEllipse
10
50.256554
20
41.922952
30
0
11
-0.831125359747117
21
0.853060159886292
31
0
210
0
220
0
230
1
40
0.987534
41
-0.233835969021915
42
0.246129575276529
0
ELLIPSE
5
138
100
AcDbEntity
8
1
62
256
6
ByLayer
370
18
48
1
60
0
100
AcDbEllipse
10
64.210851
20
44.21078
30
0
11
-0.554083573164745
21
0.568706773257528
31
0
210
0
220
0
230
1
40
0.987534
41
-2.89546307831327
42
-0.713801513320351
0
ELLIPSE
5
139
100
AcDbEntity
8
1
62
256
6
ByLayer
370
18
48
1
60
0
100
AcDbEllipse
10
55.569821
20
33.086171
30
0
11
-0.831125359747117
21
0.853060159886292
31
0
210
0
220
0
230
1
40
0.987534
41
2.42779114026944
42
2.90775668456788
0
ELLIPSE
5
13A
100
AcDbEntity
8
1
62
256
6
ByLayer
370
18
48
1
60
0
100
AcDbEllipse
10
52.40206
20
43.19651
30
0
11
-0.831125359747117
21
0.853060159886292
31
0
210
0
220
0
230
1
40
0.987534
41
-0.713801513320349
42
-0.233835969021915
0
ELLIPSE
5
13B
100
AcDbEntity
8
1
62
256
6
ByLayer
370
18
48
1
60
0
100
AcDbEllipse
10
50.512418
20
42.030133
30
0
11
-1.11654120536976
21
1.14600861109829
31
0
210
0
220
0
230
1
40
0.987534
41
-0.713801513320349
42
0.24612957527652
0
ELLIPSE
5
13C
100
AcDbEntity
8
1
62
256
6
ByLayer
370
18
48
1
60
0
100
AcDbEllipse
10
56.027612
20
32.857516
30
0
11
-1.11654120536976
21
1.14600861109829
31
0
210
0
220
0
230
1
40
0.987534
41
2.42779114026945
42
-2.89546307831326
0
ELLIPSE
5
13D
100
AcDbEntity
8
1
62
256
6
ByLayer
370
18
48
1
60
0
100
AcDbEllipse
10
36.029536
20
41.304194
30
0
11
-3.45654390322624
21
-0.579964293025959
31
0
210
0
220
0
230
1
40
0.288972
41
-0.110851984962318
42
0.612366121436767
0
ELLIPSE
5
13E
100
AcDbEntity
8
1
62
256
6
ByLayer
370
18
48
1
60
0
100
AcDbEllipse
10
36.359068
20
39.407498
30
0
11
-5.4055533355229
21
-1.03051164919308
31
0
210
0
220
0
230
1
40
0.153994
41
0.548524116848803
42
0.601516421779687
0
ELLIPSE
5
13F
100
AcDbEntity
8
1
62
256
6
ByLayer
370
18
48
1
60
0
100
AcDbEllipse
10
38.945579
20
28.341011
30
0
11
-3.36435260981966
21
-0.985138713420771
31
0
210
0
220
0
230
1
40
0.454664
41
-0.62539280778796
42
0.0978252986103774
0
ELLIPSE
5
140
100
AcDbEntity
8
1
62
256
6
ByLayer
370
18
48
1
60
0
100
AcDbEllipse
10
37.781105
20
31.166459
30
0
11
-2.40333798680859
21
-3.82847615113997
31
0
210
0
220
0
230
1
40
0.535969
41
0.120157045496237
42
0.479772778854909
0
ELLIPSE
5
141
100
AcDbEntity
8
1
62
256
6
ByLayer
370
18
48
1
60
0
100
AcDbEllipse
10
35.46691
20
30.17927
30
0
11
1.49832280026797
21
-1.3247749945546
31
0
210
0
220
0
230
1
40
0.754402
41
-2.12034306913166
42
-0.70766757487205
0
ELLIPSE
5
142
100
AcDbEntity
8
1
62
256
6
ByLayer
370
18
48
1
60
0
100
AcDbEllipse
10
35.943995
20
39.333275
30
0
11
-3.82773442452757
21
0.907594688766442
31
0
210
0
220
0
230
1
40
0.449589
41
-0.758730297738637
42
-0.399114564367735
0
ELLIPSE
5
143
100
AcDbEntity
8
1
62
256
6
ByLayer
370
18
48
1
60
0
100
AcDbEllipse
10
54.427066
20
38.489973
30
0
11
-0.244919138443367
21
2.36066737615398
31
0
210
0
220
0
230
1
40
0.796311
41
-2.42084415876817
42
-1.56563282529139
0
ELLIPSE
5
144
100
AcDbEntity
8
1
62
256
6
ByLayer
370
18
48
1
60
0
100
AcDbEllipse
10
38.456715
20
30.082473
30
0
11
-5.32236489845759
21
-1.39900146260835
31
0
210
0
220
0
230
1
40
0.320139
41
-0.607907361464766
42
-0.554915058144196
0
ELLIPSE
5
145
100
AcDbEntity
8
1
62
256
6
ByLayer
370
18
48
1
60
0
100
AcDbEllipse
10
33.246831
20
37.759666
30
0
11
-2.6634470780404
21
1.40123612184174
31
0
210
0
220
0
230
1
40
0.988643
41
-0.351749139436457
42
0.699939923627028
0
ELLIPSE
5
146
100
AcDbEntity
8
1
62
256
6
ByLayer
370
18
48
1
60
0
100
AcDbEllipse
10
31.300698
20
26.236168
30
0
11
6.82934418825403
21
1.53624801329765
31
0
210
0
220
0
230
1
40
0.083175
41
-0.812513867698241
42
-0.797732830958255
0
ELLIPSE
5
147
100
AcDbEntity
8
1
62
256
6
ByLayer
370
18
48
1
60
0
100
AcDbEllipse
10
35.083941
20
29.592849
30
0
11
-2.66344707801546
21
1.40123612187879
31
0
210
0
220
0
230
1
40
0.988643
41
0.699939923642069
42
1.75162898670653
0
ELLIPSE
5
148
100
AcDbEntity
8
1
62
256
6
ByLayer
370
18
48
1
60
0
100
AcDbEllipse
10
33.626946
20
38.358778
30
0
11
-0.444337541742471
21
-1.95001644839172
31
0
210
0
220
0
230
1
40
0.807679
41
-2.66386309697107
42
-1.25118760271146
0
ELLIPSE
5
149
100
AcDbEntity
8
1
62
256
6
ByLayer
370
18
48
1
60
0
100
AcDbEllipse
10
36.839262
20
37.272809
30
0
11
5.36591329077102
21
1.20705201044815
31
0
210
0
220
0
230
1
40
0.083175
41
1.9830114060476
42
2.42477914533363
0
ELLIPSE
5
14A
100
AcDbEntity
8
1
62
256
6
ByLayer
370
18
48
1
60
0
100
AcDbEllipse
10
54.427066
20
38.489973
30
0
11
-1.67589864628959
21
1.43101267968544
31
0
210
0
220
0
230
1
40
0.772193
41
-2.19839322604996
42
-1.34318189257445
0
ELLIPSE
5
14B
100
AcDbEntity
8
1
62
256
6
ByLayer
370
18
48
1
60
0
100
AcDbEllipse
10
37.976521
20
32.217161
30
0
11
5.36591329077102
21
1.20705201044815
31
0
210
0
220
0
230
1
40
0.083175
41
1.98301140604761
42
2.42477914533363
0
ELLIPSE
5
14C
100
AcDbEntity
8
1
62
256
6
ByLayer
370
18
48
1
60
0
100
AcDbEllipse
10
40.546887
20
35.818763
30
0
11
-2.79135301342441
21
2.86502152774573
31
0
210
0
220
0
230
1
40
0.987534
41
0
42
6.28318530717959
0
ELLIPSE
5
14D
100
AcDbEntity
8
1
62
256
6
ByLayer
370
18
48
1
60
0
100
AcDbEllipse
10
39.468056
20
34.84124
30
0
11
0.296581257676342
21
-0.304408537322985
31
0
210
0
220
0
230
1
40
0.987534
41
0.64380105275813
42
2.43154539074653
0
ELLIPSE
5
14E
100
AcDbEntity
8
1
62
256
6
ByLayer
370
18
48
1
60
0
100
AcDbEllipse
10
39.120074
20
36.388183
30
0
11
0.296581257676342
21
-0.304408537322985
31
0
210
0
220
0
230
1
40
0.987534
41
-0.403396498438454
42
1.38434783954992
0
ELLIPSE
5
14F
100
AcDbEntity
8
1
62
256
6
ByLayer
370
18
48
1
60
0
100
AcDbEllipse
10
39.413229
20
35.640111
30
0
11
-0.265178536275319
21
0.272177045135845
31
0
210
0
220
0
230
1
40
0.987534
41
-0.403396498438467
42
2.43154539074652
0
ELLIPSE
5
150
100
AcDbEntity
8
1
62
256
6
ByLayer
370
18
48
1
60
0
100
AcDbEllipse
10
41.610845
20
36.781796
30
0
11
0.296581257676342
21
-0.304408537322985
31
0
210
0
220
0
230
1
40
0.987534
41
-2.49779160083163
42
-0.710047262843285
0
ELLIPSE
5
151
100
AcDbEntity
8
1
62
256
6
ByLayer
370
18
48
1
60
0
100
AcDbEllipse
10
39.783737
20
36.826443
30
0
11
-0.265178536275319
21
0.272177045135845
31
0
210
0
220
0
230
1
40
0.987534
41
-1.45059404963502
42
1.38434783954994
0
ELLIPSE
5
152
100
AcDbEntity
8
1
62
256
6
ByLayer
370
18
48
1
60
0
100
AcDbEllipse
10
41.846062
20
36.158677
30
0
11
-0.265178536275319
21
0.272177045135845
31
0
210
0
220
0
230
1
40
0.987534
41
2.73819615515137
42
-0.71004726284325
0
ELLIPSE
5
153
100
AcDbEntity
8
1
62
256
6
ByLayer
370
18
48
1
60
0
100
AcDbEllipse
10
41.000154
20
37.085726
30
0
11
-0.265178536275319
21
0.272177045135845
31
0
210
0
220
0
230
1
40
0.987534
41
-2.49779160083163
42
0.337150288353299
0
ELLIPSE
5
154
100
AcDbEntity
8
1
62
256
6
ByLayer
370
18
48
1
60
0
100
AcDbEllipse
10
40.259138
20
34.713062
30
0
11
-0.265178536275319
21
0.272177045135845
31
0
210
0
220
0
230
1
40
0.987534
41
0.643801052758164
42
-2.80444236523647
0
ELLIPSE
5
155
100
AcDbEntity
8
1
62
256
6
ByLayer
370
18
48
1
60
0
100
AcDbEllipse
10
42.139218
20
35.410605
30
0
11
0.296581257676342
21
-0.304408537322985
31
0
210
0
220
0
230
1
40
0.987534
41
2.73819615515135
42
-1.75724481403988
0
ELLIPSE
5
156
100
AcDbEntity
8
1
62
256
6
ByLayer
370
18
48
1
60
0
100
AcDbEllipse
10
40.977628
20
34.352451
30
0
11
0.296581257676342
21
-0.304408537322985
31
0
210
0
220
0
230
1
40
0.987534
41
1.69099860395475
42
-2.80444236523646
0
ELLIPSE
5
157
100
AcDbEntity
8
1
62
256
6
ByLayer
370
18
48
1
60
0
100
AcDbEllipse
10
41.475555
20
34.972345
30
0
11
-0.265178536275319
21
0.272177045135845
31
0
210
0
220
0
230
1
40
0.987534
41
1.69099860395473
42
-1.75724481403986
0
ELLIPSE
5
158
100
AcDbEntity
8
1
62
256
6
ByLayer
370
18
48
1
60
0
100
AcDbEllipse
10
41.791236
20
36.957548
30
0
11
0.296581257676342
21
-0.304408537322985
31
0
210
0
220
0
230
1
40
0.987534
41
-2.49779160083165
42
-0.710047262843262
0
ELLIPSE
5
159
100
AcDbEntity
8
1
62
256
6
ByLayer
370
18
48
1
60
0
100
AcDbEllipse
10
40.281664
20
37.446337
30
0
11
0.296581257676342
21
-0.304408537322985
31
0
210
0
220
0
230
1
40
0.987534
41
-1.45059404963506
42
0.337150288353295
0
ELLIPSE
5
15A
100
AcDbEntity
8
1
62
256
6
ByLayer
370
18
48
1
60
0
100
AcDbEllipse
10
40.629646
20
35.899394
30
0
11
-1.60502798271903
21
1.6473873784538
31
0
210
0
220
0
230
1
40
0.987534
41
0
42
6.28318530717959
0
POINT
5
6C
100
AcDbEntity
8
2
62
256
6
ByLayer
370
18
48
1
60
0
100
AcDbPoint
10
65
20
45
30
0
39
0
210
0
220
0
230
1
50
360
0
POINT
5
6E
100
AcDbEntity
8
80
62
256
6
ByLayer
370
18
48
1
60
0
100
AcDbPoint
10
0
20
0
30
0
39
0
210
0
220
0
230
1
50
360
0
POINT
5
70
100
AcDbEntity
8
81
62
256
6
ByLayer
370
18
48
1
60
0
100
AcDbPoint
10
65
20
45
30
0
39
0
210
0
220
0
230
1
50
360
0
SPLINE
5
15B
100
AcDbEntity
8
SK1
62
256
6
ByLayer
370
18
48
1
60
0
100
AcDbSpline
70
4
71
2
72
6
73
3
40
0
40
0
40
0
40
1
40
1
40
1
41
1
10
-36.5
20
-21.1521177089669
30
0
41
1
10
-19.3499999999701
20
-21.5828554470541
30
0
41
1
10
-2.19999999999999
20
-22.0135928951589
30
0
0
SPLINE
5
15C
100
AcDbEntity
8
SK1
62
256
6
ByLayer
370
18
48
1
60
0
100
AcDbSpline
70
4
71
2
72
6
73
3
40
0
40
0
40
0
40
1
40
1
40
1
41
1
10
-2.19999999999999
20
22.0135927638551
30
0
41
1
10
-19.3499999999869
20
21.5828539542124
30
0
41
1
10
-36.5
20
21.1521149580209
30
0
0
SPLINE
5
15D
100
AcDbEntity
8
SK1
62
256
6
ByLayer
370
18
48
1
60
0
100
AcDbSpline
70
4
71
3
72
13
73
9
40
0
40
0
40
0
40
0
40
0.239456135763718
40
0.368359721933656
40
0.499998984021097
40
0.63163841528373
40
0.760542467778167
40
1
40
1
40
1
40
1
41
1
10
-2.19999999999999
20
-22.0200986606755
30
0
41
1
10
-2.19909198642273
20
-21.9940411845603
30
0
41
1
10
-2.19103284106941
20
-21.9566686002238
30
0
41
1
10
-2.16563592203337
20
-21.9104494263858
30
0
41
1
10
-2.1388637867926
20
-21.8791678725253
30
0
41
1
10
-2.10627712749869
20
-21.8540005023229
30
0
41
1
10
-2.05884064234078
20
-21.8309566998545
30
0
41
1
10
-2.02111030873027
20
-21.8247844448324
30
0
41
1
10
-1.99503997793928
20
-21.825186084775
30
0
0
SPLINE
5
15E
100
AcDbEntity
8
SK1
62
256
6
ByLayer
370
18
48
1
60
0
100
AcDbSpline
70
4
71
3
72
13
73
9
40
0
40
0
40
0
40
0
40
0.239457532152995
40
0.368361584623188
40
0.500001015876169
40
0.631640277971204
40
0.760543864164266
40
1
40
1
40
1
40
1
41
1
10
-1.99503997793928
20
21.8251861015554
30
0
41
1
10
-2.02111030873166
20
21.8247844616134
30
0
41
1
10
-2.05884064234343
20
21.8309567166392
30
0
41
1
10
-2.10627712750076
20
21.854000519123
30
0
41
1
10
-2.13886378679456
20
21.8791678893421
30
0
41
1
10
-2.16563592203485
20
21.9104494432231
30
0
41
1
10
-2.19103284107055
20
21.9566686170919
30
0
41
1
10
-2.19909198642387
20
21.9940412014509
30
0
41
1
10
-2.19999999999999
20
22.0200986775813
30
0
0
SPLINE
5
15F
100
AcDbEntity
8
SK1
62
256
6
ByLayer
370
18
48
1
60
0
100
AcDbSpline
70
4
71
2
72
6
73
3
40
0
40
0
40
0
40
1
40
1
40
1
41
1
10
-1.99503997793928
20
-21.8251812553753
30
0
41
1
10
-1.19500843340728
20
-21.8452807024746
30
0
41
1
10
-0.394976888875277
20
-21.8653801495793
30
0
0
SPLINE
5
160
100
AcDbEntity
8
SK1
62
256
6
ByLayer
370
18
48
1
60
0
100
AcDbSpline
70
4
71
2
72
6
73
3
40
0
40
0
40
0
40
1
40
1
40
1
41
1
10
-0.394976888875277
20
21.8653802062992
30
0
41
1
10
-1.19500843340728
20
21.8452807593862
30
0
41
1
10
-1.99503997793928
20
21.8251813124779
30
0
0
SPLINE
5
161
100
AcDbEntity
8
SK1
62
256
6
ByLayer
370
18
48
1
60
0
100
AcDbSpline
70
4
71
2
72
6
73
3
40
0
40
0
40
0
40
1
40
1
40
1
41
1
10
-38
20
-20.289405225553
30
0
41
1
10
-37.2500000000012
20
-20.7223540793632
30
0
41
1
10
-36.5
20
-21.1553029418638
30
0
0
SPLINE
5
162
100
AcDbEntity
8
SK1
62
256
6
ByLayer
370
18
48
1
60
0
100
AcDbSpline
70
4
71
2
72
6
73
3
40
0
40
0
40
0
40
1
40
1
40
1
41
1
10
-36.5
20
21.155302724897
30
0
41
1
10
-37.2500000000012
20
20.7223538609616
30
0
41
1
10
-38
20
20.2894050057151
30
0
0
SPLINE
5
163
100
AcDbEntity
8
SK1
62
256
6
ByLayer
370
18
48
1
60
0
100
AcDbSpline
70
4
71
2
72
6
73
3
40
0
40
0
40
0
40
1
40
1
40
1
41
1
10
-0.394976888875277
20
-21.8653849865467
30
0
41
1
10
-0.265172990617003
20
-21.8689012906761
30
0
41
1
10
-0.240502439654279
20
-21.9465691723769
30
0
0
SPLINE
5
164
100
AcDbEntity
8
SK1
62
256
6
ByLayer
370
18
48
1
60
0
100
AcDbSpline
70
4
71
2
72
6
73
3
40
0
40
0
40
0
40
1
40
1
40
1
41
1
10
-0.239684768755779
20
21.9481214799355
30
0
41
1
10
-0.264174311740362
20
21.8692639605625
30
0
41
1
10
-0.394976888875277
20
21.865385003355
30
0
0
SPLINE
5
165
100
AcDbEntity
8
1
62
256
6
ByLayer
370
18
48
1
60
0
100
AcDbSpline
70
4
71
3
72
8
73
4
40
0
40
0
40
0
40
0
40
1
40
1
40
1
40
1
41
1
10
31.8125950668109
20
40.3961450062649
30
0
41
1
10
31.6126568459723
20
40.2796891660812
30
0
41
1
10
31.4125495482
20
40.1422055054747
30
0
41
1
10
31.2237623315725
20
39.9823493692087
30
0
0
SPLINE
5
166
100
AcDbEntity
8
1
62
256
6
ByLayer
370
18
48
1
60
0
100
AcDbSpline
70
4
71
3
72
10
73
6
40
0
40
0
40
0
40
0
40
0.745456498067693
40
0.745456498067693
40
1
40
1
40
1
40
1
41
1
10
18.8896420563945
20
-0.20847616944252
30
0
41
1
10
18.8390946242606
20
-0.232046824146607
30
0
41
1
10
18.7884935468636
20
-0.256778954442751
30
0
41
1
10
18.7244309598445
20
-0.28944101948133
30
0
41
1
10
18.7083428741471
20
-0.297768189623497
30
0
41
1
10
18.6925683371624
20
-0.306043123278556
30
0
0
SPLINE
5
167
100
AcDbEntity
8
SK1
62
256
6
ByLayer
370
18
48
1
60
0
100
AcDbSpline
70
4
71
3
72
299
73
295
40
0
40
0
40
0
40
0
40
0.0032949380651732
40
0.0068176650782896
40
0.010340392091406
40
0.0138631191045224
40
0.0173858461176388
40
0.0209085731307552
40
0.0244313001438716
40
0.0279540271569881
40
0.0349994811832209
40
0.0420449352094537
40
0.0490903892356865
40
0.0526131162488029
40
0.0561358432619194
40
0.0596585702750358
40
0.0631812972881522
40
0.070226751314385
40
0.0737494783275014
40
0.0772722053406178
40
0.0807949323537343
40
0.0843176593668507
40
0.0878403863799671
40
0.0913631133930835
40
0.0984085674193163
40
0.101931294432433
40
0.105454021445549
40
0.108976748458666
40
0.112499475471782
40
0.116022202484898
40
0.119544929498015
40
0.123067656511131
40
0.126590383524248
40
0.130113110537364
40
0.13363583755048
40
0.137158564563597
40
0.140681291576713
40
0.14420401858983
40
0.147726745602946
40
0.154772199629179
40
0.158294926642295
40
0.161817653655412
40
0.16357901716197
40
0.165340380668528
40
0.168863107681645
40
0.175908561707877
40
0.179431288720994
40
0.18295401573411
40
0.186476742747227
40
0.189999469760343
40
0.197044923786576
40
0.200567650799692
40
0.204090377812809
40
0.205851741319367
40
0.207613104825925
40
0.211135831839041
40
0.218181285865274
40
0.221704012878391
40
0.225226739891507
40
0.228749466904624
40
0.23227219391774
40
0.239317647943973
40
0.242840374957089
40
0.246363101970206
40
0.248124465476764
40
0.249885828983322
40
0.253408555996439
40
0.256931283009555
40
0.260454010022671
40
0.26221537352923
40
0.263976737035788
40
0.267499464048904
40
0.271022191062021
40
0.274544918075137
40
0.278067645088253
40
0.28159037210137
40
0.285113099114486
40
0.288635826127603
40
0.292158553140719
40
0.295681280153835
40
0.299204007166952
40
0.302726734180068
40
0.306249461193185
40
0.309772188206301
40
0.313294915219417
40
0.316817642232534
40
0.323863096258767
40
0.327385823271883
40
0.330908550284999
40
0.334431277298116
40
0.337954004311232
40
0.341476731324349
40
0.344999458337465
40
0.348522185350582
40
0.352044912363698
40
0.359090366389931
40
0.366135820416164
40
0.373181274442397
40
0.376704001455513
40
0.380226728468629
40
0.383749455481746
40
0.387272182494862
40
0.390794909507979
40
0.394317636521095
40
0.397840363534211
40
0.401363090547328
40
0.404885817560444
40
0.408408544573561
40
0.411931271586677
40
0.415453998599793
40
0.41897672561291
40
0.422499452626026
40
0.426022179639143
40
0.429544906652259
40
0.433067633665375
40
0.434828997171934
40
0.436590360678492
40
0.43835172418505
40
0.440113087691608
40
0.443635814704725
40
0.447158541717841
40
0.448919905224399
40
0.450681268730958
40
0.452442632237516
40
0.454203995744074
40
0.457726722757191
40
0.459488086263749
40
0.461249449770307
40
0.463010813276865
40
0.464772176783423
40
0.466533540289981
40
0.46829490379654
40
0.470056267303098
40
0.471817630809656
40
0.473578994316214
40
0.475340357822773
40
0.477101721329331
40
0.478863084835889
40
0.480624448342447
40
0.482385811849005
40
0.484147175355564
40
0.485908538862122
40
0.48766990236868
40
0.489431265875238
40
0.491192629381796
40
0.492953992888355
40
0.494715356394913
40
0.496476719901471
40
0.498238083408029
40
0.499999446914587
40
0.501760810421146
40
0.503522173927704
40
0.505283537434262
40
0.50704490094082
40
0.508806264447378
40
0.510567627953937
40
0.512328991460495
40
0.514090354967053
40
0.515851718473611
40
0.517613081980169
40
0.519374445486728
40
0.521135808993286
40
0.522897172499844
40
0.524658536006402
40
0.526419899512961
40
0.528181263019519
40
0.529942626526077
40
0.531703990032635
40
0.533465353539193
40
0.535226717045752
40
0.53698808055231
40
0.538749444058868
40
0.540510807565426
40
0.542272171071984
40
0.545794898085101
40
0.547556261591659
40
0.549317625098217
40
0.551078988604775
40
0.552840352111334
40
0.55636307912445
40
0.559885806137566
40
0.561647169644125
40
0.563408533150683
40
0.565169896657241
40
0.566931260163799
40
0.570453987176916
40
0.573976714190032
40
0.577499441203148
40
0.581022168216265
40
0.584544895229381
40
0.588067622242498
40
0.591590349255614
40
0.595113076268731
40
0.598635803281847
40
0.602158530294963
40
0.60568125730808
40
0.609203984321196
40
0.612726711334313
40
0.616249438347429
40
0.619772165360545
40
0.623294892373662
40
0.626817619386778
40
0.633863073413011
40
0.640908527439244
40
0.647953981465477
40
0.651476708478593
40
0.654999435491709
40
0.658522162504826
40
0.662044889517942
40
0.665567616531059
40
0.669090343544175
40
0.672613070557292
40
0.676135797570408
40
0.683181251596641
40
0.686703978609757
40
0.690226705622874
40
0.69374943263599
40
0.697272159649106
40
0.700794886662223
40
0.704317613675339
40
0.707840340688456
40
0.711363067701572
40
0.714885794714688
40
0.718408521727805
40
0.721931248740921
40
0.725453975754038
40
0.732499429780271
40
0.736022156793387
40
0.739544883806503
40
0.746590337832736
40
0.750113064845853
40
0.753635791858969
40
0.757158518872086
40
0.760681245885202
40
0.767726699911435
40
0.771249426924551
40
0.774772153937668
40
0.778294880950784
40
0.7818176079639
40
0.788863061990133
40
0.79238578900325
40
0.795908516016366
40
0.799431243029482
40
0.802953970042599
40
0.809999424068832
40
0.813522151081948
40
0.817044878095065
40
0.820567605108181
40
0.824090332121297
40
0.83113578614753
40
0.834658513160647
40
0.838181240173763
40
0.841703967186879
40
0.845226694199996
40
0.852272148226229
40
0.855794875239345
40
0.859317602252462
40
0.862840329265578
40
0.866363056278694
40
0.869885783291811
40
0.873408510304927
40
0.876931237318044
40
0.88045396433116
40
0.883976691344276
40
0.887499418357393
40
0.891022145370509
40
0.894544872383626
40
0.898067599396742
40
0.901590326409858
40
0.908635780436091
40
0.912158507449208
40
0.915681234462324
40
0.919203961475441
40
0.922726688488557
40
0.926249415501673
40
0.92977214251479
40
0.936817596541022
40
0.940340323554139
40
0.943863050567255
40
0.947385777580372
40
0.950908504593488
40
0.957953958619721
40
0.961476685632837
40
0.964999412645954
40
0.96852213965907
40
0.972044866672187
40
0.975567593685303
40
0.97909032069842
40
0.982613047711536
40
0.986135774724652
40
0.989658501737769
40
0.993181228750885
40
0.996703955764002
40
1
40
1
40
1
40
1
41
1
10
-1.99503997793928
20
21.8251672716172
30
0
41
1
10
-1.99503997793928
20
21.8252770368205
30
0
41
1
10
-1.99503997793928
20
21.8245105470277
30
0
41
1
10
-1.99503997793928
20
21.8202836860757
30
0
41
1
10
-1.99503997793928
20
21.812783044142
30
0
41
1
10
-1.99503997793928
20
21.8021565364934
30
0
41
1
10
-1.99503997793928
20
21.7884557330328
30
0
41
1
10
-1.99503997793928
20
21.7717308612526
30
0
41
1
10
-1.99503997793928
20
21.7520291985819
30
0
41
1
10
-1.99503997793928
20
21.7218385059106
30
0
41
1
10
-1.99503997793928
20
21.6769140218914
30
0
41
1
10
-1.99503997793928
20
21.6117670092986
30
0
41
1
10
-1.99503997793928
20
21.5484022523455
30
0
41
1
10
-1.99503997793928
20
21.4923512863894
30
0
41
1
10
-1.99503997793928
20
21.4477036012609
30
0
41
1
10
-1.99503997793928
20
21.4004602751572
30
0
41
1
10
-1.99503997793928
20
21.3340243579833
30
0
41
1
10
-1.99503997793928
20
21.2626002065085
30
0
41
1
10
-1.99503997793928
20
21.1861355372814
30
0
41
1
10
-1.99503997793928
20
21.126355615456
30
0
41
1
10
-1.99503997793928
20
21.0641493981766
30
0
41
1
10
-1.99503997793928
20
20.9995415089612
30
0
41
1
10
-1.99503997793928
20
20.9325549476398
30
0
41
1
10
-1.99503997793928
20
20.8400664063016
30
0
41
1
10
-1.99503997793928
20
20.7430171949632
30
0
41
1
10
-1.99503997793928
20
20.6412830606924
30
0
41
1
10
-1.99503997793928
20
20.5627395849404
30
0
41
1
10
-1.99503997793928
20
20.4819464711493
30
0
41
1
10
-1.99503997793928
20
20.3989234016943
30
0
41
1
10
-1.99503997793928
20
20.3136873945745
30
0
41
1
10
-1.99503997793928
20
20.2262576082901
30
0
41
1
10
-1.99503997793928
20
20.136651569995
30
0
41
1
10
-1.99503997793928
20
20.0448848271876
30
0
41
1
10
-1.99503997793928
20
19.9509751576252
30
0
41
1
10
-1.99503997793928
20
19.8549383078336
30
0
41
1
10
-1.99503997793928
20
19.7567886026657
30
0
41
1
10
-1.99503997793928
20
19.6565424313982
30
0
41
1
10
-1.99503997793928
20
19.5542139601407
30
0
41
1
10
-1.99503997793928
20
19.4149698127943
30
0
41
1
10
-1.99503997793928
20
19.2717622924356
30
0
41
1
10
-1.99503997793928
20
19.1243520606764
30
0
41
1
10
-1.99503997793928
20
19.0305969699326
30
0
41
1
10
-1.99503997793928
20
18.9545457436666
30
0
41
1
10
-1.99503997793928
20
18.877828345234
30
0
41
1
10
-1.99503997793928
20
18.7418485706132
30
0
41
1
10
-1.99503997793928
20
18.5826225030747
30
0
41
1
10
-1.99503997793928
20
18.4193199892891
30
0
41
1
10
-1.99503997793928
20
18.2949375082747
30
0
41
1
10
-1.99503997793928
20
18.1686188381619
30
0
41
1
10
-1.99503997793928
20
17.9975681157064
30
0
41
1
10
-1.99503997793928
20
17.8228588844704
30
0
41
1
10
-1.99503997793928
20
17.6441795672679
30
0
41
1
10
-1.99503997793928
20
17.5309981410348
30
0
41
1
10
-1.99503997793928
20
17.4394590341184
30
0
41
1
10
-1.99503997793928
20
17.3472945498449
30
0
41
1
10
-1.99503997793928
20
17.1843913435575
30
0
41
1
10
-1.99503997793928
20
16.9946548235122
30
0
41
1
10
-1.99503997793928
20
16.8010333841432
30
0
41
1
10
-1.99503997793928
20
16.654027023888
30
0
41
1
10
-1.99503997793928
20
16.5051894370887
30
0
41
1
10
-1.99503997793928
20
16.3042392155796
30
0
41
1
10
-1.99503997793928
20
16.0998599858609
30
0
41
1
10
-1.99503997793928
20
15.8916662065006
30
0
41
1
10
-1.99503997793928
20
15.7601264684356
30
0
41
1
10
-1.99503997793928
20
15.6539352235828
30
0
41
1
10
-1.99503997793928
20
15.5471478788444
30
0
41
1
10
-1.99503997793928
20
15.4126292313156
30
0
41
1
10
-1.99503997793928
20
15.2493853238091
30
0
41
1
10
-1.99503997793928
20
15.1119089381336
30
0
41
1
10
-1.99503997793928
20
15.0009760777421
30
0
41
1
10
-1.99503997793928
20
14.8894548819647
30
0
41
1
10
-1.99503997793928
20
14.7490386600655
30
0
41
1
10
-1.99503997793928
20
14.578735707937
30
0
41
1
10
-1.99503997793928
20
14.4066808882548
30
0
41
1
10
-1.99503997793928
20
14.2328806917249
30
0
41
1
10
-1.99503997793928
20
14.0573388809364
30
0
41
1
10
-1.99503997793928
20
13.8800596938692
30
0
41
1
10
-1.99503997793928
20
13.7010488098078
30
0
41
1
10
-1.99503997793928
20
13.5203096364964
30
0
41
1
10
-1.99503997793928
20
13.3378467409434
30
0
41
1
10
-1.99503997793928
20
13.1536651576331
30
0
41
1
10
-1.99503997793928
20
12.967767664355
30
0
41
1
10
-1.99503997793928
20
12.7801589185361
30
0
41
1
10
-1.99503997793928
20
12.5908431445087
30
0
41
1
10
-1.99503997793928
20
12.3998230002593
30
0
41
1
10
-1.99503997793928
20
12.1427688173785
30
0
41
1
10
-1.99503997793928
20
11.8826118718573
30
0
41
1
10
-1.99503997793928
20
11.6187779306707
30
0
41
1
10
-1.99503997793928
20
11.4192921752591
30
0
41
1
10
-1.99503997793928
20
11.2181233733031
30
0
41
1
10
-1.99503997793928
20
11.0152750188843
30
0
41
1
10
-1.99503997793928
20
10.8107494713072
30
0
41
1
10
-1.99503997793928
20
10.6045508021232
30
0
41
1
10
-1.99503997793928
20
10.3966814407573
30
0
41
1
10
-1.99503997793928
20
10.1171870033238
30
0
41
1
10
-1.99503997793928
20
9.76392166117952
30
0
41
1
10
-1.99503997793928
20
9.33322608836653
30
0
41
1
10
-1.99503997793928
20
8.96893242084855
30
0
41
1
10
-1.99503997793928
20
8.67397578579323
30
0
41
1
10
-1.99503997793928
20
8.45121977200662
30
0
41
1
10
-1.99503997793928
20
8.22682776167494
30
0
41
1
10
-1.99503997793928
20
8.00080467620245
30
0
41
1
10
-1.99503997793928
20
7.77315513008728
30
0
41
1
10
-1.99503997793928
20
7.54388372935193
30
0
41
1
10
-1.99503997793928
20
7.31299637479285
30
0
41
1
10
-1.99503997793928
20
7.08049945458953
30
0
41
1
10
-1.99503997793928
20
6.8463997482805
30
0
41
1
10
-1.99503997793928
20
6.61070495432838
30
0
41
1
10
-1.99503997793928
20
6.37342319970753
30
0
41
1
10
-1.99503997793928
20
6.13456384015993
30
0
41
1
10
-1.99503997793928
20
5.89413749968628
30
0
41
1
10
-1.99503997793928
20
5.65215638001948
30
0
41
1
10
-1.99503997793928
20
5.4086336510897
30
0
41
1
10
-1.99503997793928
20
5.16358499073451
30
0
41
1
10
-1.99503997793928
20
4.95821799704331
30
0
41
1
10
-1.99503997793928
20
4.79299516838267
30
0
41
1
10
-1.99503997793928
20
4.66878842905288
30
0
41
1
10
-1.99503997793928
20
4.5442150281373
30
0
41
1
10
-1.99503997793928
20
4.37752561794156
30
0
41
1
10
-1.99503997793928
20
4.16851547631595
30
0
41
1
10
-1.99503997793928
20
3.95832363498766
30
0
41
1
10
-1.99503997793928
20
3.78926935835412
30
0
41
1
10
-1.99503997793928
20
3.66223142121836
30
0
41
1
10
-1.99503997793928
20
3.53485872774326
30
0
41
1
10
-1.99503997793928
20
3.36446603264318
30
0
41
1
10
-1.99503997793928
20
3.19381064862623
30
0
41
1
10
-1.99503997793928
20
3.02213557666008
30
0
41
1
10
-1.99503997793928
20
2.8931784837302
30
0
41
1
10
-1.99503997793928
20
2.76392442628162
30
0
41
1
10
-1.99503997793928
20
2.63438251344519
30
0
41
1
10
-1.99503997793928
20
2.50455988721876
30
0
41
1
10
-1.99503997793928
20
2.37446636334928
30
0
41
1
10
-1.99503997793928
20
2.24411116870439
30
0
41
1
10
-1.99503997793928
20
2.11350398186613
30
0
41
1
10
-1.99503997793928
20
1.98265625862297
30
0
41
1
10
-1.99503997793928
20
1.85157817347522
30
0
41
1
10
-1.99503997793928
20
1.72028262405345
30
0
41
1
10
-1.99503997793928
20
1.58878098022359
30
0
41
1
10
-1.99503997793928
20
1.45708718468359
30
0
41
1
10
-1.99503997793928
20
1.32521409071333
30
0
41
1
10
-1.99503997793928
20
1.19317647053177
30
0
41
1
10
-1.99503997793928
20
1.06098852682439
30
0
41
1
10
-1.99503997793928
20
0.928665923975672
30
0
41
1
10
-1.99503997793928
20
0.796224037396229
30
0
41
1
10
-1.99503997793928
20
0.663679321648374
30
0
41
1
10
-1.99503997793928
20
0.531048033506266
30
0
41
1
10
-1.99503997793928
20
0.398347293868937
30
0
41
1
10
-1.99503997793928
20
0.265594055935196
30
0
41
1
10
-1.99503997793928
20
0.132805828560237
30
0
41
1
10
-1.99503997793928
20
-2.0604887E-09
30
0
41
1
10
-1.99503997793928
20
-0.132805835966792
30
0
41
1
10
-1.99503997793928
20
-0.265594069601519
30
0
41
1
10
-1.99503997793928
20
-0.398347307093388
30
0
41
1
10
-1.99503997793928
20
-0.531048037421954
30
0
41
1
10
-1.99503997793928
20
-0.663679323049081
30
0
41
1
10
-1.99503997793928
20
-0.796224050825089
30
0
41
1
10
-1.99503997793928
20
-0.92866594303203
30
0
41
1
10
-1.99503997793928
20
-1.06098853158755
30
0
41
1
10
-1.99503997793928
20
-1.1931764657121
30
0
41
1
10
-1.99503997793928
20
-1.32521410103647
30
0
41
1
10
-1.99503997793928
20
-1.45708720896539
30
0
41
1
10
-1.99503997793928
20
-1.58878099035152
30
0
41
1
10
-1.99503997793928
20
-1.72028261530932
30
0
41
1
10
-1.99503997793928
20
-1.85157817419835
30
0
41
1
10
-1.99503997793928
20
-1.98265628188182
30
0
41
1
10
-1.99503997793928
20
-2.11350400419804
30
0
41
1
10
-1.99503997793928
20
-2.24411116714702
30
0
41
1
10
-1.99503997793928
20
-2.37446635053539
30
0
41
1
10
-1.99503997793928
20
-2.50455989433328
30
0
41
1
10
-1.99503997793928
20
-2.63438254221708
30
0
41
1
10
-1.99503997793928
20
-2.76392444618182
30
0
41
1
10
-1.99503997793928
20
-2.89317847799558
30
0
41
1
10
-1.99503997793928
20
-3.02213556164864
30
0
41
1
10
-1.99503997793928
20
-3.19381066067948
30
0
41
1
10
-1.99503997793928
20
-3.36446606295527
30
0
41
1
10
-1.99503997793928
20
-3.53485872835634
30
0
41
1
10
-1.99503997793928
20
-3.66223140396673
30
0
41
1
10
-1.99503997793928
20
-3.78926935085312
30
0
41
1
10
-1.99503997793928
20
-3.95832365779984
30
0
41
1
10
-1.99503997793928
20
-4.16851549788919
30
0
41
1
10
-1.99503997793928
20
-4.37752560184694
30
0
41
1
10
-1.99503997793928
20
-4.54421502107886
30
0
41
1
10
-1.99503997793928
20
-4.66878844332788
30
0
41
1
10
-1.99503997793928
20
-4.79299519854527
30
0
41
1
10
-1.99503997793928
20
-4.95821801342223
30
0
41
1
10
-1.99503997793928
20
-5.16358497720142
30
0
41
1
10
-1.99503997793928
20
-5.40863364784667
30
0
41
1
10
-1.99503997793928
20
-5.65215640891225
30
0
41
1
10
-1.99503997793928
20
-5.89413750153935
30
0
41
1
10
-1.99503997793928
20
-6.13456381441384
30
0
41
1
10
-1.99503997793928
20
-6.37342317953835
30
0
41
1
10
-1.99503997793928
20
-6.61070492919379
30
0
41
1
10
-1.99503997793928
20
-6.84639976314463
30
0
41
1
10
-1.99503997793928
20
-7.08049963775395
30
0
41
1
10
-1.99503997793928
20
-7.31299670603016
30
0
41
1
10
-1.99503997793928
20
-7.54388383469134
30
0
41
1
10
-1.99503997793928
20
-7.77315487290267
30
0
41
1
10
-1.99503997793928
20
-8.00080468509063
30
0
41
1
10
-1.99503997793928
20
-8.22682785520686
30
0
41
1
10
-1.99503997793928
20
-8.4512197921853
30
0
41
1
10
-1.99503997793928
20
-8.67397577159846
30
0
41
1
10
-1.99503997793928
20
-8.96893239301764
30
0
41
1
10
-1.99503997793928
20
-9.33322609823665
30
0
41
1
10
-1.99503997793928
20
-9.76392165975841
30
0
41
1
10
-1.99503997793928
20
-10.1171869828061
30
0
41
1
10
-1.99503997793928
20
-10.3966814549587
30
0
41
1
10
-1.99503997793928
20
-10.6045508126063
30
0
41
1
10
-1.99503997793928
20
-10.8107494592904
30
0
41
1
10
-1.99503997793928
20
-11.0152749978462
30
0
41
1
10
-1.99503997793928
20
-11.2181233670389
30
0
41
1
10
-1.99503997793928
20
-11.4192921870092
30
0
41
1
10
-1.99503997793928
20
-11.6187779427602
30
0
41
1
10
-1.99503997793928
20
-11.8826118620781
30
0
41
1
10
-1.99503997793928
20
-12.1427687977971
30
0
41
1
10
-1.99503997793928
20
-12.3998230071702
30
0
41
1
10
-1.99503997793928
20
-12.5908431584255
30
0
41
1
10
-1.99503997793928
20
-12.7801589212449
30
0
41
1
10
-1.99503997793928
20
-12.9677676529033
30
0
41
1
10
-1.99503997793928
20
-13.1536651432542
30
0
41
1
10
-1.99503997793928
20
-13.3378467396349
30
0
41
1
10
-1.99503997793928
20
-13.520309646993
30
0
41
1
10
-1.99503997793928
20
-13.7010488212408
30
0
41
1
10
-1.99503997793928
20
-13.8800597145162
30
0
41
1
10
-1.99503997793928
20
-14.0573389921213
30
0
41
1
10
-1.99503997793928
20
-14.2328810143213
30
0
41
1
10
-1.99503997793928
20
-14.4646959102749
30
0
41
1
10
-1.99503997793928
20
-14.6927797943809
30
0
41
1
10
-1.99503997793928
20
-14.9175842595472
30
0
41
1
10
-1.99503997793928
20
-15.1400402265273
30
0
41
1
10
-1.99503997793928
20
-15.3587351142266
30
0
41
1
10
-1.99503997793928
20
-15.574095422854
30
0
41
1
10
-1.99503997793928
20
-15.733775855726
30
0
41
1
10
-1.99503997793928
20
-15.8916657661057
30
0
41
1
10
-1.99503997793928
20
-16.0998603532658
30
0
41
1
10
-1.99503997793928
20
-16.3042398246232
30
0
41
1
10
-1.99503997793928
20
-16.5051894037979
30
0
41
1
10
-1.99503997793928
20
-16.6540265683948
30
0
41
1
10
-1.99503997793928
20
-16.8010329188422
30
0
41
1
10
-1.99503997793928
20
-16.9946550481209
30
0
41
1
10
-1.99503997793928
20
-17.1843924611907
30
0
41
1
10
-1.99503997793928
20
-17.3705928023913
30
0
41
1
10
-1.99503997793928
20
-17.5083251903719
30
0
41
1
10
-1.99503997793928
20
-17.6441786252734
30
0
41
1
10
-1.99503997793928
20
-17.8228590748674
30
0
41
1
10
-1.99503997793928
20
-17.9975683374733
30
0
41
1
10
-1.99503997793928
20
-18.1686188521771
30
0
41
1
10
-1.99503997793928
20
-18.2949373683468
30
0
41
1
10
-1.99503997793928
20
-18.4193198181252
30
0
41
1
10
-1.99503997793928
20
-18.5826226298873
30
0
41
1
10
-1.99503997793928
20
-18.7418497326446
30
0
41
1
10
-1.99503997793928
20
-18.8972761707097
30
0
41
1
10
-1.99503997793928
20
-19.0118150097952
30
0
41
1
10
-1.99503997793928
20
-19.1243510467918
30
0
41
1
10
-1.99503997793928
20
-19.2717625055688
30
0
41
1
10
-1.99503997793928
20
-19.414970513124
30
0
41
1
10
-1.99503997793928
20
-19.5542140249085
30
0
41
1
10
-1.99503997793928
20
-19.6565420567613
30
0
41
1
10
-1.99503997793928
20
-19.7567881415466
30
0
41
1
10
-1.99503997793928
20
-19.8549381550126
30
0
41
1
10
-1.99503997793928
20
-19.9509751416388
30
0
41
1
10
-1.99503997793928
20
-20.0448848362119
30
0
41
1
10
-1.99503997793928
20
-20.1366515718167
30
0
41
1
10
-1.99503997793928
20
-20.2262576202058
30
0
41
1
10
-1.99503997793928
20
-20.3136874196731
30
0
41
1
10
-1.99503997793928
20
-20.398923430088
30
0
41
1
10
-1.99503997793928
20
-20.4819464863244
30
0
41
1
10
-1.99503997793928
20
-20.5627395868944
30
0
41
1
10
-1.99503997793928
20
-20.6412830627252
30
0
41
1
10
-1.99503997793928
20
-20.7430172190698
30
0
41
1
10
-1.99503997793928
20
-20.8400664428987
30
0
41
1
10
-1.99503997793928
20
-20.9325549572362
30
0
41
1
10
-1.99503997793928
20
-20.9995415068112
30
0
41
1
10
-1.99503997793928
20
-21.064149408511
30
0
41
1
10
-1.99503997793928
20
-21.1263556466612
30
0
41
1
10
-1.99503997793928
20
-21.1861355753666
30
0
41
1
10
-1.99503997793928
20
-21.262600218376
30
0
41
1
10
-1.99503997793928
20
-21.3340243512753
30
0
41
1
10
-1.99503997793928
20
-21.4004603045828
30
0
41
1
10
-1.99503997793928
20
-21.4477036445725
30
0
41
1
10
-1.99503997793928
20
-21.4923513092323
30
0
41
1
10
-1.99503997793928
20
-21.5484022410126
30
0
41
1
10
-1.99503997793928
20
-21.5990695510926
30
0
41
1
10
-1.99503997793928
20
-21.6443396610233
30
0
41
1
10
-1.99503997793928
20
-21.6755105092645
30
0
41
1
10
-1.99503997793928
20
-21.7038764495607
30
0
41
1
10
-1.99503997793928
20
-21.7293964429163
30
0
41
1
10
-1.99503997793928
20
-21.7520292420694
30
0
41
1
10
-1.99503997793928
20
-21.7717309018817
30
0
41
1
10
-1.99503997793928
20
-21.7884557380592
30
0
41
1
10
-1.99503997793928
20
-21.8021565310045
30
0
41
1
10
-1.99503997793928
20
-21.8127830851058
30
0
41
1
10
-1.99503997793928
20
-21.8202838734724
30
0
41
1
10
-1.99503997793928
20
-21.8245113461877
30
0
41
1
10
-1.99503997793928
20
-21.8252773504997
30
0
41
1
10
-1.99503997793928
20
-21.8251671007396
30
0
0
SPLINE
5
168
100
AcDbEntity
8
SK1
62
256
6
ByLayer
370
18
48
1
60
0
100
AcDbSpline
70
4
71
3
72
295
73
291
40
0
40
0
40
0
40
0
40
0.0029463014488455
40
0.0065222263404649
40
0.0100981512320843
40
0.0136740761237037
40
0.0172500010153231
40
0.0208259259069425
40
0.0279777756901813
40
0.03512962547342
40
0.0422814752566588
40
0.0458574001482782
40
0.0494333250398976
40
0.053009249931517
40
0.0565851748231364
40
0.0637370246063752
40
0.0673129494979946
40
0.070888874389614
40
0.0744647992812334
40
0.0780407241728527
40
0.0816166490644721
40
0.0851925739560915
40
0.0923444237393303
40
0.0959203486309497
40
0.0994962735225691
40
0.103072198414189
40
0.106648123305808
40
0.110224048197427
40
0.113799973089047
40
0.117375897980666
40
0.120951822872285
40
0.124527747763905
40
0.128103672655524
40
0.131679597547144
40
0.135255522438763
40
0.138831447330382
40
0.142407372222002
40
0.14955922200524
40
0.15313514689686
40
0.156711071788479
40
0.158499034234289
40
0.160286996680099
40
0.163862921571718
40
0.171014771354957
40
0.174590696246576
40
0.178166621138196
40
0.181742546029815
40
0.185318470921434
40
0.192470320704673
40
0.196046245596293
40
0.199622170487912
40
0.201410132933722
40
0.203198095379531
40
0.206774020271151
40
0.21392587005439
40
0.217501794946009
40
0.221077719837628
40
0.224653644729248
40
0.228229569620867
40
0.235381419404106
40
0.238957344295725
40
0.242533269187345
40
0.244321231633154
40
0.246109194078964
40
0.249685118970583
40
0.253261043862203
40
0.256836968753822
40
0.258624931199632
40
0.260412893645442
40
0.263988818537061
40
0.26756474342868
40
0.2711406683203
40
0.274716593211919
40
0.278292518103539
40
0.281868442995158
40
0.285444367886777
40
0.289020292778397
40
0.292596217670016
40
0.296172142561635
40
0.299748067453255
40
0.303323992344874
40
0.306899917236494
40
0.310475842128113
40
0.314051767019732
40
0.321203616802971
40
0.324779541694591
40
0.32835546658621
40
0.33193139147783
40
0.335507316369449
40
0.339083241261068
40
0.342659166152688
40
0.346235091044307
40
0.349811015935927
40
0.356962865719165
40
0.364114715502404
40
0.371266565285643
40
0.374842490177262
40
0.378418415068882
40
0.381994339960501
40
0.38557026485212
40
0.38914618974374
40
0.392722114635359
40
0.396298039526979
40
0.399873964418598
40
0.403449889310217
40
0.407025814201837
40
0.410601739093456
40
0.414177663985075
40
0.417753588876695
40
0.421329513768314
40
0.424905438659934
40
0.428481363551553
40
0.432057288443172
40
0.433845250888982
40
0.435633213334792
40
0.437421175780602
40
0.439209138226411
40
0.442785063118031
40
0.44636098800965
40
0.44814895045546
40
0.449936912901269
40
0.451724875347079
40
0.453512837792889
40
0.457088762684508
40
0.458876725130318
40
0.460664687576128
40
0.462452650021937
40
0.464240612467747
40
0.466028574913557
40
0.467816537359366
40
0.469604499805176
40
0.471392462250986
40
0.473180424696795
40
0.474968387142605
40
0.476756349588415
40
0.478544312034224
40
0.480332274480034
40
0.482120236925844
40
0.483908199371654
40
0.485696161817463
40
0.487484124263273
40
0.489272086709083
40
0.491060049154892
40
0.492848011600702
40
0.494635974046512
40
0.496423936492322
40
0.498211898938131
40
0.499999861383941
40
0.501787823829751
40
0.50357578627556
40
0.50536374872137
40
0.50715171116718
40
0.508939673612989
40
0.510727636058799
40
0.512515598504609
40
0.514303560950419
40
0.516091523396228
40
0.517879485842038
40
0.519667448287848
40
0.521455410733657
40
0.523243373179467
40
0.525031335625277
40
0.526819298071086
40
0.528607260516896
40
0.530395222962706
40
0.532183185408515
40
0.533971147854325
40
0.535759110300135
40
0.537547072745944
40
0.539335035191754
40
0.541122997637564
40
0.542910960083374
40
0.546486884974993
40
0.548274847420803
40
0.550062809866612
40
0.551850772312422
40
0.553638734758232
40
0.557214659649851
40
0.560790584541471
40
0.56257854698728
40
0.56436650943309
40
0.5661544718789
40
0.567942434324709
40
0.571518359216329
40
0.575094284107948
40
0.578670208999568
40
0.582246133891187
40
0.585822058782806
40
0.589397983674426
40
0.592973908566045
40
0.596549833457664
40
0.600125758349284
40
0.603701683240903
40
0.607277608132523
40
0.610853533024142
40
0.614429457915761
40
0.618005382807381
40
0.621581307699
40
0.62515723259062
40
0.628733157482239
40
0.635885007265478
40
0.643036857048716
40
0.650188706831955
40
0.653764631723575
40
0.657340556615194
40
0.660916481506813
40
0.664492406398433
40
0.668068331290052
40
0.671644256181672
40
0.675220181073291
40
0.67879610596491
40
0.685947955748149
40
0.689523880639769
40
0.693099805531388
40
0.696675730423007
40
0.700251655314627
40
0.703827580206246
40
0.707403505097866
40
0.710979429989485
40
0.714555354881104
40
0.718131279772724
40
0.721707204664343
40
0.725283129555963
40
0.728859054447582
40
0.736010904230821
40
0.73958682912244
40
0.743162754014059
40
0.750314603797298
40
0.753890528688918
40
0.757466453580537
40
0.761042378472156
40
0.764618303363776
40
0.771770153147015
40
0.775346078038634
40
0.778922002930253
40
0.782497927821873
40
0.786073852713492
40
0.793225702496731
40
0.79680162738835
40
0.80037755227997
40
0.803953477171589
40
0.807529402063208
40
0.814681251846447
40
0.818257176738067
40
0.821833101629686
40
0.825409026521305
40
0.828984951412925
40
0.836136801196164
40
0.839712726087783
40
0.843288650979402
40
0.846864575871022
40
0.850440500762641
40
0.85759235054588
40
0.861168275437499
40
0.864744200329119
40
0.868320125220738
40
0.871896050112357
40
0.875471975003977
40
0.879047899895596
40
0.882623824787216
40
0.886199749678835
40
0.889775674570454
40
0.893351599462074
40
0.896927524353693
40
0.900503449245313
40
0.904079374136932
40
0.907655299028551
40
0.91480714881179
40
0.91838307370341
40
0.921958998595029
40
0.925534923486648
40
0.929110848378268
40
0.932686773269887
40
0.936262698161507
40
0.943414547944745
40
0.946990472836365
40
0.950566397727984
40
0.954142322619604
40
0.957718247511223
40
0.964870097294462
40
0.968446022186081
40
0.972021947077701
40
0.97559787196932
40
0.979173796860939
40
0.982749721752559
40
0.986325646644178
40
0.989901571535798
40
0.993477496427417
40
0.997053421319036
40
1
40
1
40
1
40
1
41
1
10
-2.19999999999996
20
22.013519664144
30
0
41
1
10
-2.19999999999996
20
22.0117275997277
30
0
41
1
10
-2.20000000000002
20
22.0069596837567
30
0
41
1
10
-2.19999999999999
20
21.9968726461305
30
0
41
1
10
-2.19999999999999
20
21.9830583750197
30
0
41
1
10
-2.19999999999999
20
21.9661971621578
30
0
41
1
10
-2.19999999999999
20
21.9463373083127
30
0
41
1
10
-2.19999999999999
20
21.9159230944434
30
0
41
1
10
-2.19999999999999
20
21.870633664349
30
0
41
1
10
-2.19999999999999
20
21.8049949078793
30
0
41
1
10
-2.19999999999999
20
21.7411390111089
30
0
41
1
10
-2.19999999999999
20
21.6847072709128
30
0
41
1
10
-2.19999999999999
20
21.6397397481888
30
0
41
1
10
-2.19999999999999
20
21.5921615264853
30
0
41
1
10
-2.19999999999999
20
21.5252891523049
30
0
41
1
10
-2.19999999999999
20
21.453308753177
30
0
41
1
10
-2.19999999999999
20
21.3763547276269
30
0
41
1
10
-2.19999999999999
20
21.3161703964091
30
0
41
1
10
-2.19999999999999
20
21.2535469243879
30
0
41
1
10
-2.19999999999999
20
21.1885090229233
30
0
41
1
10
-2.19999999999999
20
21.121080083473
30
0
41
1
10
-2.19999999999999
20
21.0280237507364
30
0
41
1
10
-2.19999999999999
20
20.9302657445266
30
0
41
1
10
-2.19999999999999
20
20.8279188369072
30
0
41
1
10
-2.19999999999999
20
20.7488739070252
30
0
41
1
10
-2.19999999999999
20
20.6675681841826
30
0
41
1
10
-2.19999999999999
20
20.5840212184218
30
0
41
1
10
-2.19999999999999
20
20.4982502525025
30
0
41
1
10
-2.19999999999999
20
20.4102747128949
30
0
41
1
10
-2.19999999999999
20
20.3201119071544
30
0
41
1
10
-2.19999999999999
20
20.2277776663919
30
0
41
1
10
-2.19999999999999
20
20.1332899477274
30
0
41
1
10
-2.19999999999999
20
20.0366642357894
30
0
41
1
10
-2.19999999999999
20
19.9379151599299
30
0
41
1
10
-2.19999999999999
20
19.8370591957147
30
0
41
1
10
-2.19999999999999
20
19.7341102362335
30
0
41
1
10
-2.19999999999999
20
19.5940778412012
30
0
41
1
10
-2.19999999999999
20
19.4499005336558
30
0
41
1
10
-2.19999999999999
20
19.3016622310533
30
0
41
1
10
-2.19999999999999
20
19.2073184270571
30
0
41
1
10
-2.19999999999999
20
19.1308417758755
30
0
41
1
10
-2.19999999999999
20
19.0536957086557
30
0
41
1
10
-2.19999999999999
20
18.9169360704622
30
0
41
1
10
-2.19999999999999
20
18.756645794641
30
0
41
1
10
-2.19999999999999
20
18.5924362845557
30
0
41
1
10
-2.19999999999999
20
18.4673177976698
30
0
41
1
10
-2.19999999999999
20
18.3402521463352
30
0
41
1
10
-2.19999999999999
20
18.1682545122203
30
0
41
1
10
-2.19999999999999
20
17.9923842356821
30
0
41
1
10
-2.19999999999999
20
17.8127164551587
30
0
41
1
10
-2.19999999999999
20
17.6988333809735
30
0
41
1
10
-2.19999999999999
20
17.606787767091
30
0
41
1
10
-2.19999999999999
20
17.5141131161323
30
0
41
1
10
-2.19999999999999
20
17.3502824417036
30
0
41
1
10
-2.19999999999999
20
17.1592829447589
30
0
41
1
10
-2.19999999999999
20
16.9645867974536
30
0
41
1
10
-2.19999999999999
20
16.8167088060477
30
0
41
1
10
-2.19999999999999
20
16.6669871400996
30
0
41
1
10
-2.19999999999999
20
16.4649164953067
30
0
41
1
10
-2.19999999999999
20
16.2591646002876
30
0
41
1
10
-2.19999999999999
20
16.049802831716
30
0
41
1
10
-2.19999999999999
20
15.9174340084588
30
0
41
1
10
-2.19999999999999
20
15.8106442286412
30
0
41
1
10
-2.19999999999999
20
15.7032538676567
30
0
41
1
10
-2.19999999999999
20
15.567882396309
30
0
41
1
10
-2.19999999999999
20
15.4036502143979
30
0
41
1
10
-2.19999999999999
20
15.2652965264295
30
0
41
1
10
-2.19999999999999
20
15.1537302031574
30
0
41
1
10
-2.19999999999999
20
15.0415708470876
30
0
41
1
10
-2.19999999999999
20
14.90025131083
30
0
41
1
10
-2.19999999999999
20
14.7289012367181
30
0
41
1
10
-2.19999999999999
20
14.5557843226631
30
0
41
1
10
-2.19999999999999
20
14.3809062427341
30
0
41
1
10
-2.19999999999999
20
14.2042700822291
30
0
41
1
10
-2.19999999999999
20
14.0258803741545
30
0
41
1
10
-2.19999999999999
20
13.8457420253844
30
0
41
1
10
-2.19999999999999
20
13.6638579861817
30
0
41
1
10
-2.19999999999999
20
13.4802328481714
30
0
41
1
10
-2.19999999999999
20
13.2948705974071
30
0
41
1
10
-2.19999999999999
20
13.1077737485311
30
0
41
1
10
-2.19999999999999
20
12.9189467805057
30
0
41
1
10
-2.19999999999999
20
12.728392778749
30
0
41
1
10
-2.19999999999999
20
12.5361142588231
30
0
41
1
10
-2.19999999999999
20
12.2774598592137
30
0
41
1
10
-2.19999999999999
20
12.0153352592314
30
0
41
1
10
-2.19999999999999
20
11.7498207258852
30
0
41
1
10
-2.19999999999999
20
11.5489655826483
30
0
41
1
10
-2.19999999999999
20
11.3464032807099
30
0
41
1
10
-2.19999999999999
20
11.1421359853758
30
0
41
1
10
-2.19999999999999
20
10.9361655879759
30
0
41
1
10
-2.19999999999999
20
10.7284950970913
30
0
41
1
10
-2.19999999999999
20
10.5191258614377
30
0
41
1
10
-2.19999999999999
20
10.2377184130835
30
0
41
1
10
-2.19999999999999
20
9.88169304970987
30
0
41
1
10
-2.19999999999999
20
9.44771865839311
30
0
41
1
10
-2.19999999999999
20
9.08043848955603
30
0
41
1
10
-2.19999999999999
20
8.78327689677775
30
0
41
1
10
-2.19999999999999
20
8.55871419535617
30
0
41
1
10
-2.19999999999999
20
8.33247380011301
30
0
41
1
10
-2.19999999999999
20
8.10455852701506
30
0
41
1
10
-2.19999999999999
20
7.87497060194644
30
0
41
1
10
-2.19999999999999
20
7.6437128367312
30
0
41
1
10
-2.19999999999999
20
7.41078884464241
30
0
41
1
10
-2.19999999999999
20
7.17620220160032
30
0
41
1
10
-2.19999999999999
20
6.93995692090419
30
0
41
1
10
-2.19999999999999
20
6.70205758660663
30
0
41
1
10
-2.19999999999999
20
6.46250918569618
30
0
41
1
10
-2.19999999999999
20
6.2213178400012
30
0
41
1
10
-2.19999999999999
20
5.97849049576266
30
0
41
1
10
-2.19999999999999
20
5.73403521575827
30
0
41
1
10
-2.19999999999999
20
5.48796107357256
30
0
41
1
10
-2.19999999999999
20
5.24027911118978
30
0
41
1
10
-2.19999999999999
20
5.03253661023487
30
0
41
1
10
-2.19999999999999
20
4.86557359122418
30
0
41
1
10
-2.19999999999999
20
4.73994908127321
30
0
41
1
10
-2.19999999999999
20
4.61393371339017
30
0
41
1
10
-2.19999999999999
20
4.44540774959788
30
0
41
1
10
-2.19999999999999
20
4.23375652596863
30
0
41
1
10
-2.19999999999999
20
4.02083961713782
30
0
41
1
10
-2.19999999999999
20
3.84978439152417
30
0
41
1
10
-2.19999999999999
20
3.72111342731068
30
0
41
1
10
-2.19999999999999
20
3.59207749308624
30
0
41
1
10
-2.19999999999999
20
3.41956369464535
30
0
41
1
10
-2.19999999999999
20
3.24629481959221
30
0
41
1
10
-2.19999999999999
20
3.0723836150739
30
0
41
1
10
-2.19999999999999
20
2.94160046512798
30
0
41
1
10
-2.19999999999999
20
2.81048647644627
30
0
41
1
10
-2.19999999999999
20
2.67904892732182
30
0
41
1
10
-2.19999999999999
20
2.54729562722176
30
0
41
1
10
-2.19999999999999
20
2.41523551097489
30
0
41
1
10
-2.19999999999999
20
2.28287740252156
30
0
41
1
10
-2.19999999999999
20
2.15023166945255
30
0
41
1
10
-2.19999999999999
20
2.01730873413072
30
0
41
1
10
-2.19999999999999
20
1.88412021099791
30
0
41
1
10
-2.19999999999999
20
1.75067841854351
30
0
41
1
10
-2.19999999999999
20
1.61699634722072
30
0
41
1
10
-2.19999999999999
20
1.48308821885627
30
0
41
1
10
-2.19999999999999
20
1.34896859254377
30
0
41
1
10
-2.19999999999999
20
1.21465350310541
30
0
41
1
10
-2.19999999999999
20
1.0801592162689
30
0
41
1
10
-2.19999999999999
20
0.945503442662783
30
0
41
1
10
-2.19999999999999
20
0.810704113119073
30
0
41
1
10
-2.19999999999999
20
0.675780421912322
30
0
41
1
10
-2.19999999999999
20
0.540751787789588
30
0
41
1
10
-2.19999999999999
20
0.405638599098921
30
0
41
1
10
-2.19999999999999
20
0.270461428271432
30
0
41
1
10
-2.19999999999999
20
0.135241462279822
30
0
41
1
10
-2.19999999999999
20
-5.3654787E-09
30
0
41
1
10
-2.19999999999999
20
-0.135241472589996
30
0
41
1
10
-2.19999999999999
20
-0.270461437853925
30
0
41
1
10
-2.19999999999999
20
-0.405638608907907
30
0
41
1
10
-2.19999999999999
20
-0.540751798686529
30
0
41
1
10
-2.19999999999999
20
-0.675780432522174
30
0
41
1
10
-2.19999999999999
20
-0.810704122044939
30
0
41
1
10
-2.19999999999999
20
-0.945503451789534
30
0
41
1
10
-2.19999999999999
20
-1.08015922751395
30
0
41
1
10
-2.19999999999999
20
-1.21465351395383
30
0
41
1
10
-2.19999999999999
20
-1.34896860046499
30
0
41
1
10
-2.19999999999999
20
-1.48308822685564
30
0
41
1
10
-2.19999999999999
20
-1.61699635855226
30
0
41
1
10
-2.19999999999999
20
-1.75067843002711
30
0
41
1
10
-2.19999999999999
20
-1.88412021847037
30
0
41
1
10
-2.19999999999999
20
-2.01730874020455
30
0
41
1
10
-2.19999999999999
20
-2.15023167925048
30
0
41
1
10
-2.19999999999999
20
-2.28287741514001
30
0
41
1
10
-2.19999999999999
20
-2.41523552035437
30
0
41
1
10
-2.19999999999999
20
-2.54729563151926
30
0
41
1
10
-2.19999999999999
20
-2.67904893291683
30
0
41
1
10
-2.19999999999999
20
-2.81048648769612
30
0
41
1
10
-2.19999999999999
20
-2.94160047796311
30
0
41
1
10
-2.19999999999999
20
-3.072383622975
30
0
41
1
10
-2.19999999999999
20
-3.24629481975686
30
0
41
1
10
-2.19999999999999
20
-3.41956370437865
30
0
41
1
10
-2.19999999999999
20
-3.59207750684843
30
0
41
1
10
-2.19999999999999
20
-3.72111343644576
30
0
41
1
10
-2.19999999999999
20
-3.84978439330678
30
0
41
1
10
-2.19999999999999
20
-4.020839617489
30
0
41
1
10
-2.19999999999999
20
-4.23375654375474
30
0
41
1
10
-2.19999999999999
20
-4.44540775759583
30
0
41
1
10
-2.19999999999999
20
-4.61393371339872
30
0
41
1
10
-2.19999999999999
20
-4.73994907984499
30
0
41
1
10
-2.19999999999999
20
-4.86557359653659
30
0
41
1
10
-2.19999999999999
20
-5.03253662624778
30
0
41
1
10
-2.19999999999999
20
-5.24027911954084
30
0
41
1
10
-2.19999999999999
20
-5.48796106514416
30
0
41
1
10
-2.19999999999999
20
-5.73403522651989
30
0
41
1
10
-2.19999999999999
20
-5.97849051253721
30
0
41
1
10
-2.19999999999999
20
-6.22131783489101
30
0
41
1
10
-2.19999999999999
20
-6.46250917346816
30
0
41
1
10
-2.19999999999999
20
-6.70205756880287
30
0
41
1
10
-2.19999999999999
20
-6.93995689241024
30
0
41
1
10
-2.19999999999999
20
-7.17620223308296
30
0
41
1
10
-2.19999999999999
20
-7.41078904293681
30
0
41
1
10
-2.19999999999999
20
-7.64371312168015
30
0
41
1
10
-2.19999999999999
20
-7.87497052861914
30
0
41
1
10
-2.19999999999999
20
-8.10455846042146
30
0
41
1
10
-2.19999999999999
20
-8.33247384441506
30
0
41
1
10
-2.19999999999999
20
-8.55871423477029
30
0
41
1
10
-2.19999999999999
20
-8.78327691067398
30
0
41
1
10
-2.19999999999999
20
-9.08043846702645
30
0
41
1
10
-2.19999999999999
20
-9.44771866001565
30
0
41
1
10
-2.19999999999999
20
-9.88169305528194
30
0
41
1
10
-2.19999999999999
20
-10.2377183913447
30
0
41
1
10
-2.19999999999999
20
-10.5191258633122
30
0
41
1
10
-2.19999999999999
20
-10.7284951094206
30
0
41
1
10
-2.19999999999999
20
-10.9361655882296
30
0
41
1
10
-2.19999999999999
20
-11.1421359694817
30
0
41
1
10
-2.19999999999999
20
-11.3464032666245
30
0
41
1
10
-2.19999999999999
20
-11.5489655840494
30
0
41
1
10
-2.19999999999999
20
-11.7498207382014
30
0
41
1
10
-2.19999999999999
20
-12.015335258712
30
0
41
1
10
-2.19999999999999
20
-12.277459839655
30
0
41
1
10
-2.19999999999999
20
-12.5361142561418
30
0
41
1
10
-2.19999999999999
20
-12.7283927892775
30
0
41
1
10
-2.19999999999999
20
-12.9189467887917
30
0
41
1
10
-2.19999999999999
20
-13.1077737445537
30
0
41
1
10
-2.19999999999999
20
-13.2948705838035
30
0
41
1
10
-2.19999999999999
20
-13.4802328404438
30
0
41
1
10
-2.19999999999999
20
-13.6638579908945
30
0
41
1
10
-2.19999999999999
20
-13.845742035678
30
0
41
1
10
-2.19999999999999
20
-14.0258803815961
30
0
41
1
10
-2.19999999999999
20
-14.2042701267483
30
0
41
1
10
-2.19999999999999
20
-14.3809064511142
30
0
41
1
10
-2.19999999999999
20
-14.61406817927
30
0
41
1
10
-2.19999999999999
20
-14.8437340716545
30
0
41
1
10
-2.19999999999999
20
-15.069828938707
30
0
41
1
10
-2.19999999999999
20
-15.2935559429894
30
0
41
1
10
-2.19999999999999
20
-15.513744330902
30
0
41
1
10
-2.19999999999999
20
-15.7303232767805
30
0
41
1
10
-2.19999999999999
20
-15.8909649274654
30
0
41
1
10
-2.19999999999999
20
-16.0498023362736
30
0
41
1
10
-2.19999999999999
20
-16.2591647559547
30
0
41
1
10
-2.19999999999999
20
-16.4649171124643
30
0
41
1
10
-2.19999999999999
20
-16.666987304737
30
0
41
1
10
-2.19999999999999
20
-16.8167085043733
30
0
41
1
10
-2.19999999999999
20
-16.9645862898264
30
0
41
1
10
-2.19999999999999
20
-17.1592828976246
30
0
41
1
10
-2.19999999999999
20
-17.3502835148979
30
0
41
1
10
-2.19999999999999
20
-17.5375147595292
30
0
41
1
10
-2.19999999999999
20
-17.676060438985
30
0
41
1
10
-2.19999999999999
20
-17.8127154575359
30
0
41
1
10
-2.19999999999999
20
-17.9923842415009
30
0
41
1
10
-2.19999999999999
20
-18.1682547291306
30
0
41
1
10
-2.19999999999999
20
-18.3402522143585
30
0
41
1
10
-2.19999999999999
20
-18.4673177032107
30
0
41
1
10
-2.19999999999999
20
-18.5924361073221
30
0
41
1
10
-2.19999999999999
20
-18.7566457425986
30
0
41
1
10
-2.19999999999999
20
-18.9169371900015
30
0
41
1
10
-2.19999999999999
20
-19.0732305996174
30
0
41
1
10
-2.19999999999999
20
-19.1884526890887
30
0
41
1
10
-2.19999999999999
20
-19.3016611759423
30
0
41
1
10
-2.19999999999999
20
-19.4499005391959
30
0
41
1
10
-2.19999999999999
20
-19.5940785255289
30
0
41
1
10
-2.19999999999999
20
-19.7341104289282
30
0
41
1
10
-2.19999999999999
20
-19.8370589164793
30
0
41
1
10
-2.19999999999999
20
-19.9379146863563
30
0
41
1
10
-2.19999999999999
20
-20.0366640227898
30
0
41
1
10
-2.19999999999999
20
-20.133289903145
30
0
41
1
10
-2.19999999999999
20
-20.2277776697998
30
0
41
1
10
-2.19999999999999
20
-20.3201119082527
30
0
41
1
10
-2.19999999999999
20
-20.4102747220553
30
0
41
1
10
-2.19999999999999
20
-20.4982502752196
30
0
41
1
10
-2.19999999999999
20
-20.5840212474559
30
0
41
1
10
-2.19999999999999
20
-20.6675682022903
30
0
41
1
10
-2.19999999999999
20
-20.7488739108727
30
0
41
1
10
-2.19999999999999
20
-20.82791883753
30
0
41
1
10
-2.19999999999999
20
-20.9302657657864
30
0
41
1
10
-2.19999999999999
20
-21.0280237880878
30
0
41
1
10
-2.19999999999999
20
-21.1210800961781
30
0
41
1
10
-2.19999999999999
20
-21.1885090211437
30
0
41
1
10
-2.19999999999999
20
-21.2535469320083
30
0
41
1
10
-2.19999999999999
20
-21.3161704250344
30
0
41
1
10
-2.19999999999999
20
-21.3763547664481
30
0
41
1
10
-2.19999999999999
20
-21.4533087676779
30
0
41
1
10
-2.19999999999999
20
-21.5252891448141
30
0
41
1
10
-2.19999999999999
20
-21.5921615531195
30
0
41
1
10
-2.19999999999999
20
-21.6397397916631
30
0
41
1
10
-2.19999999999999
20
-21.6847072964973
30
0
41
1
10
-2.19999999999999
20
-21.7411389990572
30
0
41
1
10
-2.19999999999999
20
-21.7922265879071
30
0
41
1
10
-2.19999999999999
20
-21.8378144981283
30
0
41
1
10
-2.19999999999999
20
-21.8692221254414
30
0
41
1
10
-2.19999999999999
20
-21.8978063777089
30
0
41
1
10
-2.19999999999999
20
-21.9235254752891
30
0
41
1
10
-2.19999999999999
20
-21.9463373508774
30
0
41
1
10
-2.19999999999999
20
-21.9661972037607
30
0
41
1
10
-2.19999999999999
20
-21.9830583809744
30
0
41
1
10
-2.19999999999999
20
-21.9968726399857
30
0
41
1
10
-2.19999999999999
20
-22.0069599964837
30
0
41
1
10
-2.20000000000002
20
-22.0117281244349
30
0
41
1
10
-2.20000000000002
20
-22.013520331195
30
0
0
SPLINE
5
169
100
AcDbEntity
8
SK1
62
256
6
ByLayer
370
18
48
1
60
0
100
AcDbSpline
70
4
71
3
72
303
73
299
40
0
40
0
40
0
40
0
40
0.0005133416335904
40
0.0040062580191204
40
0.0074991744046504
40
0.0109920907901804
40
0.0144850071757105
40
0.0179779235612405
40
0.0214708399467705
40
0.0249637563323006
40
0.0284566727178306
40
0.0319495891033606
40
0.0389354218744207
40
0.0459212546454808
40
0.0529070874165408
40
0.0564000038020709
40
0.0598929201876009
40
0.0633858365731309
40
0.0668787529586609
40
0.073864585729721
40
0.077357502115251
40
0.0808504185007811
40
0.0843433348863111
40
0.0878362512718411
40
0.0913291676573711
40
0.0948220840429011
40
0.101807916813961
40
0.105300833199491
40
0.108793749585021
40
0.112286665970551
40
0.115779582356081
40
0.119272498741611
40
0.122765415127141
40
0.126258331512671
40
0.129751247898201
40
0.133244164283731
40
0.136737080669261
40
0.140229997054791
40
0.143722913440322
40
0.147215829825851
40
0.150708746211381
40
0.157694578982442
40
0.161187495367972
40
0.164680411753502
40
0.166426869946267
40
0.168173328139032
40
0.171666244524562
40
0.178652077295622
40
0.182144993681152
40
0.185637910066682
40
0.189130826452212
40
0.192623742837742
40
0.199609575608802
40
0.203102491994332
40
0.206595408379862
40
0.208341866572627
40
0.210088324765392
40
0.213581241150922
40
0.220567073921982
40
0.224059990307512
40
0.227552906693042
40
0.231045823078572
40
0.234538739464102
40
0.241524572235162
40
0.245017488620692
40
0.248510405006222
40
0.250256863198987
40
0.252003321391752
40
0.255496237777282
40
0.258989154162812
40
0.262482070548342
40
0.264228528741108
40
0.265974986933872
40
0.269467903319403
40
0.272960819704932
40
0.276453736090462
40
0.279946652475992
40
0.283439568861523
40
0.286932485247053
40
0.290425401632583
40
0.293918318018113
40
0.297411234403643
40
0.300904150789173
40
0.304397067174703
40
0.307889983560233
40
0.311382899945763
40
0.314875816331293
40
0.318368732716823
40
0.325354565487883
40
0.328847481873413
40
0.332340398258943
40
0.335833314644473
40
0.339326231030003
40
0.342819147415533
40
0.346312063801063
40
0.349804980186593
40
0.353297896572123
40
0.360283729343183
40
0.367269562114243
40
0.374255394885303
40
0.377748311270833
40
0.381241227656363
40
0.384734144041893
40
0.388227060427423
40
0.391719976812953
40
0.395212893198483
40
0.398705809584014
40
0.402198725969543
40
0.405691642355073
40
0.409184558740604
40
0.412677475126134
40
0.416170391511664
40
0.419663307897194
40
0.423156224282724
40
0.426649140668254
40
0.430142057053784
40
0.433634973439314
40
0.435381431632079
40
0.437127889824844
40
0.438874348017609
40
0.440620806210374
40
0.444113722595904
40
0.447606638981434
40
0.449353097174199
40
0.451099555366964
40
0.452846013559729
40
0.454592471752494
40
0.458085388138024
40
0.459831846330789
40
0.461578304523554
40
0.463324762716319
40
0.465071220909084
40
0.466817679101849
40
0.468564137294614
40
0.470310595487379
40
0.472057053680144
40
0.473803511872909
40
0.475549970065674
40
0.477296428258439
40
0.479042886451204
40
0.480789344643969
40
0.482535802836734
40
0.484282261029499
40
0.486028719222264
40
0.487775177415029
40
0.489521635607794
40
0.491268093800559
40
0.493014551993324
40
0.494761010186089
40
0.496507468378854
40
0.498253926571619
40
0.500000384764384
40
0.501746842957149
40
0.503493301149914
40
0.505239759342679
40
0.506986217535444
40
0.508732675728209
40
0.510479133920974
40
0.512225592113739
40
0.513972050306504
40
0.515718508499269
40
0.517464966692034
40
0.519211424884799
40
0.520957883077564
40
0.522704341270329
40
0.524450799463094
40
0.526197257655859
40
0.527943715848624
40
0.52969017404139
40
0.531436632234154
40
0.533183090426919
40
0.534929548619685
40
0.53667600681245
40
0.538422465005215
40
0.54016892319798
40
0.541915381390744
40
0.545408297776275
40
0.54715475596904
40
0.548901214161805
40
0.55064767235457
40
0.552394130547335
40
0.555887046932865
40
0.559379963318395
40
0.56112642151116
40
0.562872879703925
40
0.56461933789669
40
0.566365796089455
40
0.569858712474985
40
0.573351628860515
40
0.576844545246045
40
0.580337461631575
40
0.583830378017105
40
0.587323294402635
40
0.590816210788165
40
0.594309127173695
40
0.597802043559225
40
0.601294959944755
40
0.604787876330285
40
0.608280792715815
40
0.611773709101345
40
0.615266625486875
40
0.618759541872405
40
0.622252458257935
40
0.625745374643465
40
0.632731207414525
40
0.639717040185586
40
0.646702872956646
40
0.650195789342176
40
0.653688705727706
40
0.657181622113236
40
0.660674538498766
40
0.664167454884296
40
0.667660371269826
40
0.671153287655356
40
0.674646204040886
40
0.681632036811946
40
0.685124953197476
40
0.688617869583006
40
0.692110785968536
40
0.695603702354066
40
0.699096618739596
40
0.702589535125126
40
0.706082451510656
40
0.709575367896186
40
0.713068284281716
40
0.716561200667246
40
0.720054117052776
40
0.723547033438306
40
0.730532866209366
40
0.734025782594896
40
0.737518698980426
40
0.744504531751486
40
0.747997448137016
40
0.751490364522546
40
0.754983280908076
40
0.758476197293606
40
0.765462030064667
40
0.768954946450196
40
0.772447862835727
40
0.775940779221256
40
0.779433695606787
40
0.786419528377847
40
0.789912444763377
40
0.793405361148907
40
0.796898277534437
40
0.800391193919967
40
0.807377026691027
40
0.810869943076557
40
0.814362859462087
40
0.817855775847617
40
0.821348692233147
40
0.828334525004207
40
0.831827441389737
40
0.835320357775267
40
0.838813274160797
40
0.842306190546327
40
0.849292023317387
40
0.852784939702917
40
0.856277856088447
40
0.859770772473977
40
0.863263688859507
40
0.866756605245037
40
0.870249521630567
40
0.873742438016097
40
0.877235354401627
40
0.880728270787157
40
0.884221187172688
40
0.887714103558217
40
0.891207019943748
40
0.894699936329277
40
0.898192852714807
40
0.905178685485867
40
0.908671601871398
40
0.912164518256928
40
0.915657434642458
40
0.919150351027988
40
0.922643267413518
40
0.926136183799048
40
0.933122016570108
40
0.936614932955638
40
0.940107849341168
40
0.943600765726698
40
0.947093682112228
40
0.954079514883288
40
0.957572431268818
40
0.961065347654348
40
0.964558264039878
40
0.968051180425408
40
0.971544096810938
40
0.975037013196468
40
0.978529929581998
40
0.982022845967528
40
0.985515762353058
40
0.989008678738588
40
0.992501595124118
40
0.995994511509648
40
0.999487427895178
40
1
40
1
40
1
40
1
41
1
10
-36.5
20
21.155577609117
30
0
41
1
10
-36.5
20
21.1557858221586
30
0
41
1
10
-36.5
20
21.1573191514119
30
0
41
1
10
-36.5
20
21.1588544331657
30
0
41
1
10
-36.5
20
21.1578038223016
30
0
41
1
10
-36.5
20
21.1536126358382
30
0
41
1
10
-36.5
20
21.1463317213717
30
0
41
1
10
-36.5
20
21.1360112678938
30
0
41
1
10
-36.5
20
21.1226986497682
30
0
41
1
10
-36.5
20
21.1064402158535
30
0
41
1
10
-36.5
20
21.0872797426226
30
0
41
1
10
-36.5
20
21.0578537406018
30
0
41
1
10
-36.5
20
21.0141777773224
30
0
41
1
10
-36.5
20
20.950713074722
30
0
41
1
10
-36.5
20
20.8890285612071
30
0
41
1
10
-36.5
20
20.8342802658871
30
0
41
1
10
-36.5
20
20.7907267804185
30
0
41
1
10
-36.5
20
20.7446291690672
30
0
41
1
10
-36.5
20
20.6796864194097
30
0
41
1
10
-36.5
20
20.6101652524536
30
0
41
1
10
-36.5
20
20.5353747251341
30
0
41
1
10
-36.5
20
20.4769783324059
30
0
41
1
10
-36.5
20
20.4161995895793
30
0
41
1
10
-36.5
20
20.3530628196555
30
0
41
1
10
-36.5
20
20.2875896826626
30
0
41
1
10
-36.5
20
20.1970436182683
30
0
41
1
10
-36.5
20
20.1024192722933
30
0
41
1
10
-36.5
20
20.0027815031752
30
0
41
1
10
-36.5
20
19.9259535572617
30
0
41
1
10
-36.5
20
19.8469141355251
30
0
41
1
10
-36.5
20
19.7656833730651
30
0
41
1
10
-36.5
20
19.6822775189499
30
0
41
1
10
-36.5
20
19.5967148149262
30
0
41
1
10
-36.5
20
19.5090135394173
30
0
41
1
10
-36.5
20
19.4191882696517
30
0
41
1
10
-36.5
20
19.3272561697677
30
0
41
1
10
-36.5
20
19.2332338822713
30
0
41
1
10
-36.5
20
19.1371346902893
30
0
41
1
10
-36.5
20
19.0389746878943
30
0
41
1
10
-36.5
20
18.9387689752275
30
0
41
1
10
-36.5
20
18.8022215100789
30
0
41
1
10
-36.5
20
18.6623317385554
30
0
41
1
10
-36.5
20
18.5177544284038
30
0
41
1
10
-36.5
20
18.4260133905722
30
0
41
1
10
-36.5
20
18.3514175898237
30
0
41
1
10
-36.5
20
18.2761667145511
30
0
41
1
10
-36.5
20
18.1428549391526
30
0
41
1
10
-36.5
20
17.987269645424
30
0
41
1
10
-36.5
20
17.8270700659299
30
0
41
1
10
-36.5
20
17.705205542109
30
0
41
1
10
-36.5
20
17.5814423770725
30
0
41
1
10
-36.5
20
17.4136311437529
30
0
41
1
10
-36.5
20
17.2428939764416
30
0
41
1
10
-36.5
20
17.0675963011876
30
0
41
1
10
-36.5
20
16.9568152899196
30
0
41
1
10
-36.5
20
16.867008999151
30
0
41
1
10
-36.5
20
16.7765898513273
30
0
41
1
10
-36.5
20
16.6168596157572
30
0
41
1
10
-36.5
20
16.4314438788638
30
0
41
1
10
-36.5
20
16.2414991337765
30
0
41
1
10
-36.5
20
16.097474719741
30
0
41
1
10
-36.5
20
15.9516616651348
30
0
41
1
10
-36.5
20
15.7545445351489
30
0
41
1
10
-36.5
20
15.5548613446891
30
0
41
1
10
-36.5
20
15.350663385132
30
0
41
1
10
-36.5
20
15.2219600388738
30
0
41
1
10
-36.5
20
15.1178164480938
30
0
41
1
10
-36.5
20
15.0130920883853
30
0
41
1
10
-36.5
20
14.8814910451208
30
0
41
1
10
-36.5
20
14.7216281332594
30
0
41
1
10
-36.5
20
14.5871530954062
30
0
41
1
10
-36.5
20
14.4783873813363
30
0
41
1
10
-36.5
20
14.3690494022437
30
0
41
1
10
-36.5
20
14.2317235183089
30
0
41
1
10
-36.5
20
14.0650028858775
30
0
41
1
10
-36.5
20
13.8965816080865
30
0
41
1
10
-36.5
20
13.7264689694465
30
0
41
1
10
-36.5
20
13.5546710496343
30
0
41
1
10
-36.5
20
13.3811910773122
30
0
41
1
10
-36.5
20
13.2060373742644
30
0
41
1
10
-36.5
20
13.0292149133303
30
0
41
1
10
-36.5
20
12.850728177302
30
0
41
1
10
-36.5
20
12.6705857874604
30
0
41
1
10
-36.5
20
12.4887914218501
30
0
41
1
10
-36.5
20
12.3053503484466
30
0
41
1
10
-36.5
20
12.1202706879328
30
0
41
1
10
-36.5
20
11.9335555855444
30
0
41
1
10
-36.5
20
11.6819759204348
30
0
41
1
10
-36.5
20
11.4285505376587
30
0
41
1
10
-36.5
20
11.1704660874499
30
0
41
1
10
-36.5
20
10.9756651586938
30
0
41
1
10
-36.5
20
10.7792636737398
30
0
41
1
10
-36.5
20
10.5812696725585
30
0
41
1
10
-36.5
20
10.3816871154457
30
0
41
1
10
-36.5
20
10.180523710493
30
0
41
1
10
-36.5
20
9.9777855843503
30
0
41
1
10
-36.5
20
9.70483576808863
30
0
41
1
10
-36.5
20
9.36101276272154
30
0
41
1
10
-36.5
20
8.94153438933262
30
0
41
1
10
-36.5
20
8.58745787193689
30
0
41
1
10
-36.5
20
8.30004464023602
30
0
41
1
10
-36.5
20
8.08346950394392
30
0
41
1
10
-36.5
20
7.86540102208474
30
0
41
1
10
-36.5
20
7.64585131899614
30
0
41
1
10
-36.5
20
7.42483318088833
30
0
41
1
10
-36.5
20
7.20235735193418
30
0
41
1
10
-36.5
20
6.97843755879967
30
0
41
1
10
-36.5
20
6.75308981071325
30
0
41
1
10
-36.5
20
6.52633035082275
30
0
41
1
10
-36.5
20
6.29817753233076
30
0
41
1
10
-36.5
20
6.06865022444896
30
0
41
1
10
-36.5
20
5.83776884649418
30
0
41
1
10
-36.5
20
5.60555660448861
30
0
41
1
10
-36.5
20
5.37203985998678
30
0
41
1
10
-36.5
20
5.13724579696884
30
0
41
1
10
-36.5
20
4.90120595303733
30
0
41
1
10
-36.5
20
4.70396583147405
30
0
41
1
10
-36.5
20
4.54469638576828
30
0
41
1
10
-36.5
20
4.42533999597057
30
0
41
1
10
-36.5
20
4.30569972295402
30
0
41
1
10
-36.5
20
4.14529336499854
30
0
41
1
10
-36.5
20
3.94531865595207
30
0
41
1
10
-36.5
20
3.74444957084984
30
0
41
1
10
-36.5
20
3.58224076117995
30
0
41
1
10
-36.5
20
3.46078958963511
30
0
41
1
10
-36.5
20
3.33910702605107
30
0
41
1
10
-36.5
20
3.17597085922344
30
0
41
1
10
-36.5
20
3.01425651604552
30
0
41
1
10
-36.5
20
2.85023149996007
30
0
41
1
10
-36.5
20
2.72752154931175
30
0
41
1
10
-36.5
20
2.60463052157442
30
0
41
1
10
-36.5
20
2.48157378937663
30
0
41
1
10
-36.5
20
2.35835621123036
30
0
41
1
10
-36.5
20
2.23499061660055
30
0
41
1
10
-36.5
20
2.11148761081347
30
0
41
1
10
-36.5
20
1.9878545152765
30
0
41
1
10
-36.5
20
1.86410632124097
30
0
41
1
10
-36.5
20
1.74024827700825
30
0
41
1
10
-36.5
20
1.61629526151512
30
0
41
1
10
-36.5
20
1.49225310041959
30
0
41
1
10
-36.5
20
1.3681347814894
30
0
41
1
10
-36.5
20
1.2439473222278
30
0
41
1
10
-36.5
20
1.11970117534864
30
0
41
1
10
-36.5
20
0.995403485642782
30
0
41
1
10
-36.5
20
0.8710629170684
30
0
41
1
10
-36.5
20
0.746686102657719
30
0
41
1
10
-36.5
20
0.622280124115576
30
0
41
1
10
-36.5
20
0.497850420758397
30
0
41
1
10
-36.5
20
0.373402935182185
30
0
41
1
10
-36.5
20
0.248942238793177
30
0
41
1
10
-36.5
20
0.124473257200918
30
0
41
1
10
-36.5
20
9.2462358E-09
30
0
41
1
10
-36.5
20
-0.124473254673973
30
0
41
1
10
-36.5
20
-0.248942266430618
30
0
41
1
10
-36.5
20
-0.373402960091397
30
0
41
1
10
-36.5
20
-0.497850400790554
30
0
41
1
10
-36.5
20
-0.622280094010847
30
0
41
1
10
-36.5
20
-0.746686131491799
30
0
41
1
10
-36.5
20
-0.871062970095124
30
0
41
1
10
-36.5
20
-0.995403468230791
30
0
41
1
10
-36.5
20
-1.11970111692671
30
0
41
1
10
-36.5
20
-1.2439473407681
30
0
41
1
10
-36.5
20
-1.36813486147517
30
0
41
1
10
-36.5
20
-1.49225310642996
30
0
41
1
10
-36.5
20
-1.61629518356963
30
0
41
1
10
-36.5
20
-1.74024825464127
30
0
41
1
10
-36.5
20
-1.86410640329151
30
0
41
1
10
-36.5
20
-1.98785458048855
30
0
41
1
10
-36.5
20
-2.11148756075909
30
0
41
1
10
-36.5
20
-2.2349905278607
30
0
41
1
10
-36.5
20
-2.3583562279822
30
0
41
1
10
-36.5
20
-2.48157389743915
30
0
41
1
10
-36.5
20
-2.60463057106841
30
0
41
1
10
-36.5
20
-2.72752148004804
30
0
41
1
10
-36.5
20
-2.8502314065623
30
0
41
1
10
-36.5
20
-3.01425656877106
30
0
41
1
10
-36.5
20
-3.17597095993784
30
0
41
1
10
-36.5
20
-3.33910698167958
30
0
41
1
10
-36.5
20
-3.46078948211164
30
0
41
1
10
-36.5
20
-3.58224072191865
30
0
41
1
10
-36.5
20
-3.74444967050349
30
0
41
1
10
-36.5
20
-3.94531869048151
30
0
41
1
10
-36.5
20
-4.14529326648051
30
0
41
1
10
-36.5
20
-4.30569969171859
30
0
41
1
10
-36.5
20
-4.42534006396792
30
0
41
1
10
-36.5
20
-4.54469650094606
30
0
41
1
10
-36.5
20
-4.70396584910503
30
0
41
1
10
-36.5
20
-4.90120586463618
30
0
41
1
10
-36.5
20
-5.1372458114655
30
0
41
1
10
-36.5
20
-5.37203995090806
30
0
41
1
10
-36.5
20
-5.6055565552935
30
0
41
1
10
-36.5
20
-5.83776875015036
30
0
41
1
10
-36.5
20
-6.06865017711209
30
0
41
1
10
-36.5
20
-6.29817748211653
30
0
41
1
10
-36.5
20
-6.52633051401983
30
0
41
1
10
-36.5
20
-6.75309051279777
30
0
41
1
10
-36.5
20
-6.97843834484934
30
0
41
1
10
-36.5
20
-7.20235684280951
30
0
41
1
10
-36.5
20
-7.42483229470756
30
0
41
1
10
-36.5
20
-7.64585158611578
30
0
41
1
10
-36.5
20
-7.86540128403743
30
0
41
1
10
-36.5
20
-8.08346945831602
30
0
41
1
10
-36.5
20
-8.3000445299389
30
0
41
1
10
-36.5
20
-8.58745782596952
30
0
41
1
10
-36.5
20
-8.94153442741853
30
0
41
1
10
-36.5
20
-9.36101273737586
30
0
41
1
10
-36.5
20
-9.70483575174822
30
0
41
1
10
-36.5
20
-9.97778564072317
30
0
41
1
10
-36.5
20
-10.18052371466
30
0
41
1
10
-36.5
20
-10.3816870614505
30
0
41
1
10
-36.5
20
-10.5812696339219
30
0
41
1
10
-36.5
20
-10.7792636942327
30
0
41
1
10
-36.5
20
-10.9756652058486
30
0
41
1
10
-36.5
20
-11.1704660987636
30
0
41
1
10
-36.5
20
-11.4285504962004
30
0
41
1
10
-36.5
20
-11.6819759007756
30
0
41
1
10
-36.5
20
-11.9335556252714
30
0
41
1
10
-36.5
20
-12.1202707134412
30
0
41
1
10
-36.5
20
-12.3053503320752
30
0
41
1
10
-36.5
20
-12.4887913848281
30
0
41
1
10
-36.5
20
-12.6705857704289
30
0
41
1
10
-36.5
20
-12.8507281979538
30
0
41
1
10
-36.5
20
-13.0292149436136
30
0
41
1
10
-36.5
20
-13.2060373895955
30
0
41
1
10
-36.5
20
-13.3811911431361
30
0
41
1
10
-36.5
20
-13.5546713888901
30
0
41
1
10
-36.5
20
-13.7264696827893
30
0
41
1
10
-36.5
20
-13.9536769173599
30
0
41
1
10
-36.5
20
-14.176348576809
30
0
41
1
10
-36.5
20
-14.3967384349213
30
0
41
1
10
-36.5
20
-14.6148460432235
30
0
41
1
10
-36.5
20
-14.8284315021107
30
0
41
1
10
-36.5
20
-15.0396227184095
30
0
41
1
10
-36.5
20
-15.1960147192182
30
0
41
1
10
-36.5
20
-15.3506631330603
30
0
41
1
10
-36.5
20
-15.5548624364723
30
0
41
1
10
-36.5
20
-15.7545451164335
30
0
41
1
10
-36.5
20
-15.9516609547094
30
0
41
1
10
-36.5
20
-16.0974737380165
30
0
41
1
10
-36.5
20
-16.241498813278
30
0
41
1
10
-36.5
20
-16.4314450331352
30
0
41
1
10
-36.5
20
-16.6168608854212
30
0
41
1
10
-36.5
20
-16.7995343923805
30
0
41
1
10
-36.5
20
-16.9344844206004
30
0
41
1
10
-36.5
20
-17.0675955495037
30
0
41
1
10
-36.5
20
-17.2428947983014
30
0
41
1
10
-36.5
20
-17.4136313821348
30
0
41
1
10
-36.5
20
-17.5814422063202
30
0
41
1
10
-36.5
20
-17.7052052466277
30
0
41
1
10
-36.5
20
-17.827069915531
30
0
41
1
10
-36.5
20
-17.9872703841193
30
0
41
1
10
-36.5
20
-18.1428562465544
30
0
41
1
10
-36.5
20
-18.2953166794047
30
0
41
1
10
-36.5
20
-18.4075180436267
30
0
41
1
10
-36.5
20
-18.5177535555592
30
0
41
1
10
-36.5
20
-18.6623326618876
30
0
41
1
10
-36.5
20
-18.8022222651529
30
0
41
1
10
-36.5
20
-18.9387686023437
30
0
41
1
10
-36.5
20
-19.0389739868785
30
0
41
1
10
-36.5
20
-19.1371342717784
30
0
41
1
10
-36.5
20
-19.2332339353276
30
0
41
1
10
-36.5
20
-19.3272562516113
30
0
41
1
10
-36.5
20
-19.4191882978898
30
0
41
1
10
-36.5
20
-19.5090135437133
30
0
41
1
10
-36.5
20
-19.5967148362678
30
0
41
1
10
-36.5
20
-19.6822775521962
30
0
41
1
10
-36.5
20
-19.7656833992675
30
0
41
1
10
-36.5
20
-19.8469141406672
30
0
41
1
10
-36.5
20
-19.9259535527381
30
0
41
1
10
-36.5
20
-20.0027815100322
30
0
41
1
10
-36.5
20
-20.1024193061391
30
0
41
1
10
-36.5
20
-20.1970436522849
30
0
41
1
10
-36.5
20
-20.287589681624
30
0
41
1
10
-36.5
20
-20.353062816238
30
0
41
1
10
-36.5
20
-20.4161996091986
30
0
41
1
10
-36.5
20
-20.4769783724375
30
0
41
1
10
-36.5
20
-20.5353747607017
30
0
41
1
10
-36.5
20
-20.6101652553123
30
0
41
1
10
-36.5
20
-20.6796864153796
30
0
41
1
10
-36.5
20
-20.7446292080422
30
0
41
1
10
-36.5
20
-20.7907268231738
30
0
41
1
10
-36.5
20
-20.8342802793506
30
0
41
1
10
-36.5
20
-20.8890285523336
30
0
41
1
10
-36.5
20
-20.9382580424269
30
0
41
1
10
-36.5
20
-20.9824409225429
30
0
41
1
10
-36.5
20
-21.0128017234864
30
0
41
1
10
-36.5
20
-21.0404207944711
30
0
41
1
10
-36.5
20
-21.0652596303332
30
0
41
1
10
-36.5
20
-21.0872797892674
30
0
41
1
10
-36.5
20
-21.1064402531507
30
0
41
1
10
-36.5
20
-21.1226986516191
30
0
41
1
10
-36.5
20
-21.1360112646484
30
0
41
1
10
-36.5
20
-21.1463317710584
30
0
41
1
10
-36.5
20
-21.1536128319466
30
0
41
1
10
-36.5
20
-21.1578041644649
30
0
41
1
10
-36.5
20
-21.1588543296933
30
0
41
1
10
-36.5
20
-21.1573189708369
30
0
41
1
10
-36.5
20
-21.1557860274099
30
0
41
1
10
-36.5
20
-21.1555781571767
30
0
0
SPLINE
5
16A
100
AcDbEntity
8
SK1
62
256
6
ByLayer
370
18
48
1
60
0
100
AcDbSpline
70
4
71
3
72
111
73
107
40
0
40
0
40
0
40
0
40
0.0023113641462741
40
0.0108556431734735
40
0.019399922200673
40
0.0279442012278724
40
0.0364884802550719
40
0.0450327592822714
40
0.0535770383094708
40
0.0621213173366703
40
0.0706655963638697
40
0.0792098753910692
40
0.0877541544182686
40
0.0962984334454681
40
0.113386991499867
40
0.130475549554266
40
0.147564107608665
40
0.156108386635864
40
0.164652665663064
40
0.173196944690263
40
0.181741223717463
40
0.190285502744662
40
0.198829781771862
40
0.207374060799061
40
0.21591833982626
40
0.233006897880659
40
0.241551176907859
40
0.250095455935058
40
0.258639734962258
40
0.267184013989457
40
0.275728293016657
40
0.284272572043856
40
0.292816851071056
40
0.301361130098255
40
0.309905409125455
40
0.318449688152654
40
0.326993967179853
40
0.335538246207053
40
0.352626804261452
40
0.361171083288651
40
0.369715362315851
40
0.38680392037025
40
0.395348199397449
40
0.403892478424648
40
0.412436757451848
40
0.420981036479047
40
0.438069594533446
40
0.446613873560646
40
0.455158152587845
40
0.463702431615045
40
0.472246710642244
40
0.489335268696643
40
0.497879547723843
40
0.506423826751042
40
0.514968105778241
40
0.523512384805441
40
0.54060094285984
40
0.549145221887039
40
0.557689500914239
40
0.566233779941438
40
0.574778058968638
40
0.591866617023037
40
0.600410896050236
40
0.608955175077436
40
0.617499454104635
40
0.626043733131834
40
0.643132291186233
40
0.651676570213433
40
0.660220849240632
40
0.668765128267832
40
0.677309407295031
40
0.685853686322231
40
0.69439796534943
40
0.702942244376629
40
0.711486523403829
40
0.720030802431028
40
0.728575081458228
40
0.737119360485427
40
0.745663639512627
40
0.754207918539826
40
0.762752197567026
40
0.779840755621425
40
0.788385034648624
40
0.796929313675824
40
0.805473592703023
40
0.814017871730222
40
0.822562150757422
40
0.831106429784621
40
0.84819498783902
40
0.85673926686622
40
0.865283545893419
40
0.873827824920619
40
0.882372103947818
40
0.899460662002217
40
0.908004941029416
40
0.916549220056616
40
0.925093499083815
40
0.933637778111015
40
0.942182057138214
40
0.950726336165414
40
0.959270615192613
40
0.967814894219813
40
0.976359173247012
40
0.984903452274212
40
0.993447731301411
40
1
40
1
40
1
40
1
41
1
10
-0.394976888875277
20
-6.32694279392976
30
0
41
1
10
-0.394976888875277
20
-6.3484916311391
30
0
41
1
10
-0.394976888875277
20
-6.44960775400912
30
0
41
1
10
-0.394976888875277
20
-6.62954555948869
30
0
41
1
10
-0.394976888875277
20
-6.8656950488801
30
0
41
1
10
-0.394976888875277
20
-7.10023740586411
30
0
41
1
10
-0.394976888875277
20
-7.33316546385933
30
0
41
1
10
-0.394976888875277
20
-7.56447269448574
30
0
41
1
10
-0.394976888875277
20
-7.79415340272945
30
0
41
1
10
-0.394976888875277
20
-8.02220293401996
30
0
41
1
10
-0.394976888875277
20
-8.24861635560848
30
0
41
1
10
-0.394976888875277
20
-8.47338951886385
30
0
41
1
10
-0.394976888875277
20
-8.69651811258549
30
0
41
1
10
-0.394976888875277
20
-8.99192948127941
30
0
41
1
10
-0.394976888875277
20
-9.35683912175983
30
0
41
1
10
-0.394976888875277
20
-9.78821091217483
30
0
41
1
10
-0.394976888875277
20
-10.142045462177
30
0
41
1
10
-0.394976888875277
20
-10.4219344727077
30
0
41
1
10
-0.394976888875277
20
-10.6301131683678
30
0
41
1
10
-0.394976888875277
20
-10.8366153667066
30
0
41
1
10
-0.394976888875277
20
-11.0414388905992
30
0
41
1
10
-0.394976888875277
20
-11.2445799004538
30
0
41
1
10
-0.394976888875277
20
-11.4460361162834
30
0
41
1
10
-0.394976888875277
20
-11.6458042976885
30
0
41
1
10
-0.394976888875277
20
-11.9099848253352
30
0
41
1
10
-0.394976888875277
20
-12.1705475695385
30
0
41
1
10
-0.394976888875277
20
-12.4279318067111
30
0
41
1
10
-0.394976888875277
20
-12.6192114874981
30
0
41
1
10
-0.394976888875277
20
-12.8087826250924
30
0
41
1
10
-0.394976888875277
20
-12.9966426041155
30
0
41
1
10
-0.394976888875277
20
-13.182787448996
30
0
41
1
10
-0.394976888875277
20
-13.3672125455487
30
0
41
1
10
-0.394976888875277
20
-13.5499151547097
30
0
41
1
10
-0.394976888875277
20
-13.7308904478326
30
0
41
1
10
-0.394976888875277
20
-13.910133867705
30
0
41
1
10
-0.394976888875277
20
-14.0876421688895
30
0
41
1
10
-0.394976888875277
20
-14.2634098807097
30
0
41
1
10
-0.394976888875277
20
-14.4955025482493
30
0
41
1
10
-0.394976888875277
20
-14.7239127068147
30
0
41
1
10
-0.394976888875277
20
-14.9489833053404
30
0
41
1
10
-0.394976888875277
20
-15.171701411915
30
0
41
1
10
-0.394976888875277
20
-15.3907043201103
30
0
41
1
10
-0.394976888875277
20
-15.6063159613101
30
0
41
1
10
-0.394976888875277
20
-15.7661946363952
30
0
41
1
10
-0.394976888875277
20
-15.9242799594928
30
0
41
1
10
-0.394976888875277
20
-16.1327154012234
30
0
41
1
10
-0.394976888875277
20
-16.3373780173449
30
0
41
1
10
-0.394976888875277
20
-16.5385587125243
30
0
41
1
10
-0.394976888875277
20
-16.6875782011067
30
0
41
1
10
-0.394976888875277
20
-16.8347642769002
30
0
41
1
10
-0.394976888875277
20
-17.0286080073569
30
0
41
1
10
-0.394976888875277
20
-17.2186059445175
30
0
41
1
10
-0.394976888875277
20
-17.4050188999402
30
0
41
1
10
-0.394976888875277
20
-17.5429190217058
30
0
41
1
10
-0.394976888875277
20
-17.6789377757623
30
0
41
1
10
-0.394976888875277
20
-17.8578220601067
30
0
41
1
10
-0.394976888875277
20
-18.0327708145484
30
0
41
1
10
-0.394976888875277
20
-18.2040166330947
30
0
41
1
10
-0.394976888875277
20
-18.3304892054167
30
0
41
1
10
-0.394976888875277
20
-18.4550234389153
30
0
41
1
10
-0.394976888875277
20
-18.6185132745736
30
0
41
1
10
-0.394976888875277
20
-18.7779598884918
30
0
41
1
10
-0.394976888875277
20
-18.933565131357
30
0
41
1
10
-0.394976888875277
20
-19.048244884465
30
0
41
1
10
-0.394976888875277
20
-19.1609196079758
30
0
41
1
10
-0.394976888875277
20
-19.3085018143331
30
0
41
1
10
-0.394976888875277
20
-19.4519098709686
30
0
41
1
10
-0.394976888875277
20
-19.5913159811741
30
0
41
1
10
-0.394976888875277
20
-19.6937719762305
30
0
41
1
10
-0.394976888875277
20
-19.7941438028822
30
0
41
1
10
-0.394976888875277
20
-19.8924174211231
30
0
41
1
10
-0.394976888875277
20
-19.988575861591
30
0
41
1
10
-0.394976888875277
20
-20.082604778142
30
0
41
1
10
-0.394976888875277
20
-20.1744885559187
30
0
41
1
10
-0.394976888875277
20
-20.264209431984
30
0
41
1
10
-0.394976888875277
20
-20.3517517880635
30
0
41
1
10
-0.394976888875277
20
-20.437098129367
30
0
41
1
10
-0.394976888875277
20
-20.5202292348052
30
0
41
1
10
-0.394976888875277
20
-20.6011280559991
30
0
41
1
10
-0.394976888875277
20
-20.6797749513881
30
0
41
1
10
-0.394976888875277
20
-20.781635486227
30
0
41
1
10
-0.394976888875277
20
-20.8788308931333
30
0
41
1
10
-0.394976888875277
20
-20.9714365096391
30
0
41
1
10
-0.394976888875277
20
-21.0385142950144
30
0
41
1
10
-0.394976888875277
20
-21.1032108820957
30
0
41
1
10
-0.394976888875277
20
-21.1655031751743
30
0
41
1
10
-0.394976888875277
20
-21.2253665102307
30
0
41
1
10
-0.394976888875277
20
-21.301932078811
30
0
41
1
10
-0.394976888875277
20
-21.3734709318986
30
0
41
1
10
-0.394976888875277
20
-21.4399968999807
30
0
41
1
10
-0.394976888875277
20
-21.4873093096751
30
0
41
1
10
-0.394976888875277
20
-21.5320229383892
30
0
41
1
10
-0.394976888875277
20
-21.5881524005931
30
0
41
1
10
-0.394976888875277
20
-21.6389063892513
30
0
41
1
10
-0.394976888875277
20
-21.6842420425293
30
0
41
1
10
-0.394976888875277
20
-21.7154617242468
30
0
41
1
10
-0.394976888875277
20
-21.7438726893518
30
0
41
1
10
-0.394976888875277
20
-21.7694337460976
30
0
41
1
10
-0.394976888875277
20
-21.7921034780961
30
0
41
1
10
-0.394976888875277
20
-21.8118377637545
30
0
41
1
10
-0.394976888875277
20
-21.8285907189997
30
0
41
1
10
-0.394976888875277
20
-21.8423149132633
30
0
41
1
10
-0.394976888875277
20
-21.8529599173647
30
0
41
1
10
-0.394976888875277
20
-21.8604739519412
30
0
41
1
10
-0.394976888875249
20
-21.8644655194139
30
0
41
1
10
-0.394976888875249
20
-21.8653271913022
30
0
41
1
10
-0.394976888875249
20
-21.8653787939979
30
0
0
SPLINE
5
16B
100
AcDbEntity
8
SK1
62
256
6
ByLayer
370
18
48
1
60
0
100
AcDbSpline
70
4
71
3
72
115
73
111
40
0
40
0
40
0
40
0
40
0.0065652117875795
40
0.0151093795811985
40
0.0236535473748174
40
0.0321977151684364
40
0.0407418829620553
40
0.0492860507556743
40
0.0578302185492932
40
0.0663743863429122
40
0.0834627219301501
40
0.100551057517388
40
0.117639393104626
40
0.126183560898245
40
0.134727728691864
40
0.143271896485483
40
0.151816064279102
40
0.16890439986634
40
0.177448567659959
40
0.185992735453577
40
0.194536903247196
40
0.203081071040815
40
0.211625238834434
40
0.220169406628053
40
0.237257742215291
40
0.24580191000891
40
0.254346077802529
40
0.262890245596148
40
0.271434413389767
40
0.279978581183386
40
0.288522748977005
40
0.297066916770624
40
0.305611084564243
40
0.314155252357862
40
0.322699420151481
40
0.3312435879451
40
0.339787755738719
40
0.348331923532338
40
0.356876091325956
40
0.373964426913194
40
0.382508594706813
40
0.391052762500432
40
0.395324846397242
40
0.399596930294051
40
0.40814109808767
40
0.425229433674908
40
0.433773601468527
40
0.442317769262146
40
0.450861937055765
40
0.459406104849384
40
0.476494440436622
40
0.485038608230241
40
0.49358277602386
40
0.497854859920669
40
0.502126943817479
40
0.510671111611098
40
0.527759447198335
40
0.536303614991954
40
0.544847782785573
40
0.553391950579192
40
0.561936118372811
40
0.579024453960049
40
0.587568621753668
40
0.596112789547287
40
0.600384873444097
40
0.604656957340906
40
0.613201125134525
40
0.621745292928144
40
0.630289460721763
40
0.634561544618572
40
0.638833628515382
40
0.647377796309001
40
0.65592196410262
40
0.664466131896239
40
0.673010299689858
40
0.681554467483476
40
0.690098635277096
40
0.698642803070714
40
0.707186970864333
40
0.715731138657952
40
0.724275306451571
40
0.73281947424519
40
0.741363642038809
40
0.749907809832428
40
0.758451977626047
40
0.766996145419666
40
0.784084481006904
40
0.792628648800523
40
0.801172816594142
40
0.809716984387761
40
0.81826115218138
40
0.826805319974999
40
0.835349487768618
40
0.843893655562237
40
0.852437823355856
40
0.869526158943093
40
0.886614494530331
40
0.903702830117569
40
0.912246997911188
40
0.920791165704807
40
0.929335333498426
40
0.937879501292045
40
0.946423669085664
40
0.954967836879283
40
0.963512004672902
40
0.972056172466521
40
0.98060034026014
40
0.989144508053759
40
0.997688675847378
40
1
40
1
40
1
40
1
41
1
10
-0.394976888875277
20
21.8653790905408
30
0
41
1
10
-0.394976888875249
20
21.8653285663343
30
0
41
1
10
-0.394976888875249
20
21.8644673808657
30
0
41
1
10
-0.394976888875277
20
21.8604737650697
30
0
41
1
10
-0.394976888875277
20
21.8529598769268
30
0
41
1
10
-0.394976888875277
20
21.8423149188875
30
0
41
1
10
-0.394976888875277
20
21.8285907137819
30
0
41
1
10
-0.394976888875277
20
21.8118377229246
30
0
41
1
10
-0.394976888875277
20
21.7921034347989
30
0
41
1
10
-0.394976888875277
20
21.7618666429643
30
0
41
1
10
-0.394976888875277
20
21.7168668922192
30
0
41
1
10
-0.394976888875277
20
21.651618462036
30
0
41
1
10
-0.394976888875277
20
21.5881524120742
30
0
41
1
10
-0.394976888875277
20
21.5320229149808
30
0
41
1
10
-0.394976888875277
20
21.4873092663299
30
0
41
1
10
-0.394976888875277
20
21.4399968711307
30
0
41
1
10
-0.394976888875277
20
21.3734709387681
30
0
41
1
10
-0.394976888875277
20
21.3019320664004
30
0
41
1
10
-0.394976888875277
20
21.2253664719936
30
0
41
1
10
-0.394976888875277
20
21.1655031445011
30
0
41
1
10
-0.394976888875277
20
21.1032108723211
30
0
41
1
10
-0.394976888875277
20
21.038514297088
30
0
41
1
10
-0.394976888875277
20
20.9714364994015
30
0
41
1
10
-0.394976888875277
20
20.8788308563806
30
0
41
1
10
-0.394976888875277
20
20.7816354627076
30
0
41
1
10
-0.394976888875277
20
20.6797749496461
30
0
41
1
10
-0.394976888875277
20
20.6011280536546
30
0
41
1
10
-0.394976888875277
20
20.5202292190253
30
0
41
1
10
-0.394976888875277
20
20.4370981008412
30
0
41
1
10
-0.394976888875277
20
20.3517517634561
30
0
41
1
10
-0.394976888875277
20
20.2642094206366
30
0
41
1
10
-0.394976888875277
20
20.1744885542463
30
0
41
1
10
-0.394976888875277
20
20.082604770276
30
0
41
1
10
-0.394976888875277
20
19.9885758834751
30
0
41
1
10
-0.394976888875277
20
19.8924175863555
30
0
41
1
10
-0.394976888875277
20
19.79414426657
30
0
41
1
10
-0.394976888875277
20
19.6937723311917
30
0
41
1
10
-0.394976888875277
20
19.5913158900225
30
0
41
1
10
-0.394976888875277
20
19.4519091739392
30
0
41
1
10
-0.394976888875277
20
19.308501644014
30
0
41
1
10
-0.394976888875277
20
19.160920630363
30
0
41
1
10
-0.394976888875277
20
19.0670441229991
30
0
41
1
10
-0.394976888875277
20
18.9909051568102
30
0
41
1
10
-0.394976888875277
20
18.9140993494365
30
0
41
1
10
-0.394976888875277
20
18.777958735224
30
0
41
1
10
-0.394976888875277
20
18.6185131846482
30
0
41
1
10
-0.394976888875277
20
18.4550236113311
30
0
41
1
10
-0.394976888875277
20
18.330489335967
30
0
41
1
10
-0.394976888875277
20
18.2040166079408
30
0
41
1
10
-0.394976888875277
20
18.0327705937831
30
0
41
1
10
-0.394976888875277
20
17.8578219077773
30
0
41
1
10
-0.394976888875277
20
17.6789387292296
30
0
41
1
10
-0.394976888875277
20
17.5656125946474
30
0
41
1
10
-0.394976888875277
20
17.4739690253912
30
0
41
1
10
-0.394976888875277
20
17.3816993239948
30
0
41
1
10
-0.394976888875277
20
17.2186048360495
30
0
41
1
10
-0.394976888875277
20
17.0286078387926
30
0
41
1
10
-0.394976888875277
20
16.8347647509306
30
0
41
1
10
-0.394976888875277
20
16.6875786248762
30
0
41
1
10
-0.394976888875277
20
16.5385587049943
30
0
41
1
10
-0.394976888875277
20
16.3373774066279
30
0
41
1
10
-0.394976888875277
20
16.1327150774874
30
0
41
1
10
-0.394976888875277
20
15.9242804112408
30
0
41
1
10
-0.394976888875277
20
15.7925696820839
30
0
41
1
10
-0.394976888875277
20
15.6862549949744
30
0
41
1
10
-0.394976888875277
20
15.5793432837569
30
0
41
1
10
-0.394976888875277
20
15.4446487492657
30
0
41
1
10
-0.394976888875277
20
15.2812010193763
30
0
41
1
10
-0.394976888875277
20
15.1435436982815
30
0
41
1
10
-0.394976888875277
20
15.0324801920763
30
0
41
1
10
-0.394976888875277
20
14.9208273816877
30
0
41
1
10
-0.394976888875277
20
14.7802248596231
30
0
41
1
10
-0.394976888875277
20
14.6097059483473
30
0
41
1
10
-0.394976888875277
20
14.4374320816019
30
0
41
1
10
-0.394976888875277
20
14.2634095816694
30
0
41
1
10
-0.394976888875277
20
14.0876420714538
30
0
41
1
10
-0.394976888875277
20
13.9101338497815
30
0
41
1
10
-0.394976888875277
20
13.7308904366346
30
0
41
1
10
-0.394976888875277
20
13.549915145406
30
0
41
1
10
-0.394976888875277
20
13.3672125481811
30
0
41
1
10
-0.394976888875277
20
13.182787463215
30
0
41
1
10
-0.394976888875277
20
12.9966426140257
30
0
41
1
10
-0.394976888875277
20
12.8087826212334
30
0
41
1
10
-0.394976888875277
20
12.6192114742801
30
0
41
1
10
-0.394976888875277
20
12.4279318017785
30
0
41
1
10
-0.394976888875277
20
12.1705475891153
30
0
41
1
10
-0.394976888875277
20
11.9099848332047
30
0
41
1
10
-0.394976888875277
20
11.6458042855523
30
0
41
1
10
-0.394976888875277
20
11.4460361066677
30
0
41
1
10
-0.394976888875277
20
11.2445799083311
30
0
41
1
10
-0.394976888875277
20
11.0414389105764
30
0
41
1
10
-0.394976888875277
20
10.8366153761928
30
0
41
1
10
-0.394976888875277
20
10.630113157504
30
0
41
1
10
-0.394976888875277
20
10.4219344610486
30
0
41
1
10
-0.394976888875277
20
10.1420454829465
30
0
41
1
10
-0.394976888875277
20
9.78821091215369
30
0
41
1
10
-0.394976888875277
20
9.3568391135907
30
0
41
1
10
-0.394976888875277
20
8.99192950801697
30
0
41
1
10
-0.394976888875277
20
8.69651812098675
30
0
41
1
10
-0.394976888875277
20
8.47338949471808
30
0
41
1
10
-0.394976888875277
20
8.24861627222975
30
0
41
1
10
-0.394976888875277
20
8.0222029406992
30
0
41
1
10
-0.394976888875277
20
7.79415362199521
30
0
41
1
10
-0.394976888875277
20
7.56447255210355
30
0
41
1
10
-0.394976888875277
20
7.33316516004027
30
0
41
1
10
-0.394976888875277
20
7.10023725398264
30
0
41
1
10
-0.394976888875277
20
6.86569504295815
30
0
41
1
10
-0.394976888875277
20
6.62954558311137
30
0
41
1
10
-0.394976888875277
20
6.44960786563362
30
0
41
1
10
-0.394976888875277
20
6.34849183540922
30
0
41
1
10
-0.394976888875277
20
6.32694309067119
30
0
0
SPLINE
5
16C
100
AcDbEntity
8
SK1
62
256
6
ByLayer
370
18
48
1
60
0
100
AcDbSpline
70
4
71
3
72
299
73
295
40
0
40
0
40
0
40
0
40
0.0029484216110837
40
0.0064734917350979
40
0.0099985618591122
40
0.0135236319831265
40
0.0170487021071407
40
0.020573772231155
40
0.0240988423551692
40
0.0276239124791835
40
0.034674052727212
40
0.0417241929752405
40
0.048774333223269
40
0.0522994033472833
40
0.0558244734712975
40
0.0593495435953118
40
0.062874613719326
40
0.0699247539673545
40
0.0734498240913688
40
0.076974894215383
40
0.0804999643393973
40
0.0840250344634115
40
0.0875501045874258
40
0.0910751747114401
40
0.0981253149594685
40
0.101650385083483
40
0.105175455207497
40
0.108700525331511
40
0.112225595455526
40
0.11575066557954
40
0.119275735703554
40
0.122800805827568
40
0.126325875951583
40
0.129850946075597
40
0.133376016199611
40
0.136901086323625
40
0.14042615644764
40
0.143951226571654
40
0.147476296695668
40
0.154526436943697
40
0.158051507067711
40
0.161576577191725
40
0.163339112253732
40
0.165101647315739
40
0.168626717439754
40
0.175676857687782
40
0.179201927811797
40
0.182726997935811
40
0.186252068059825
40
0.189777138183839
40
0.196827278431868
40
0.200352348555882
40
0.203877418679896
40
0.205639953741903
40
0.207402488803911
40
0.210927558927925
40
0.217977699175953
40
0.221502769299968
40
0.225027839423982
40
0.228552909547996
40
0.23207797967201
40
0.239128119920039
40
0.242653190044053
40
0.246178260168067
40
0.247940795230075
40
0.249703330292081
40
0.253228400416096
40
0.25675347054011
40
0.260278540664124
40
0.262041075726131
40
0.263803610788139
40
0.267328680912153
40
0.270853751036167
40
0.274378821160181
40
0.277903891284196
40
0.28142896140821
40
0.284954031532224
40
0.288479101656238
40
0.292004171780253
40
0.295529241904267
40
0.299054312028281
40
0.302579382152295
40
0.30610445227631
40
0.309629522400324
40
0.313154592524338
40
0.316679662648352
40
0.323729802896381
40
0.327254873020395
40
0.330779943144409
40
0.334305013268424
40
0.337830083392438
40
0.341355153516452
40
0.344880223640466
40
0.348405293764481
40
0.351930363888495
40
0.358980504136523
40
0.366030644384552
40
0.37308078463258
40
0.376605854756595
40
0.380130924880609
40
0.383655995004623
40
0.387181065128637
40
0.390706135252652
40
0.394231205376666
40
0.39775627550068
40
0.401281345624694
40
0.404806415748709
40
0.408331485872723
40
0.411856555996737
40
0.415381626120752
40
0.418906696244766
40
0.42243176636878
40
0.425956836492794
40
0.429481906616809
40
0.433006976740823
40
0.43476951180283
40
0.436532046864837
40
0.438294581926844
40
0.440057116988851
40
0.443582187112866
40
0.44710725723688
40
0.448869792298887
40
0.450632327360894
40
0.452394862422901
40
0.454157397484908
40
0.457682467608923
40
0.45944500267093
40
0.461207537732937
40
0.462970072794944
40
0.464732607856951
40
0.466495142918958
40
0.468257677980965
40
0.470020213042972
40
0.47178274810498
40
0.473545283166987
40
0.475307818228994
40
0.477070353291001
40
0.478832888353008
40
0.480595423415015
40
0.482357958477022
40
0.48412049353903
40
0.485883028601037
40
0.487645563663044
40
0.489408098725051
40
0.491170633787058
40
0.492933168849065
40
0.494695703911072
40
0.496458238973079
40
0.498220774035087
40
0.499983309097094
40
0.501745844159101
40
0.503508379221108
40
0.505270914283115
40
0.507033449345122
40
0.508795984407129
40
0.510558519469136
40
0.512321054531144
40
0.514083589593151
40
0.515846124655158
40
0.517608659717165
40
0.519371194779172
40
0.521133729841179
40
0.522896264903186
40
0.524658799965193
40
0.526421335027201
40
0.528183870089208
40
0.529946405151215
40
0.531708940213222
40
0.533471475275229
40
0.535234010337236
40
0.536996545399243
40
0.53875908046125
40
0.540521615523258
40
0.542284150585265
40
0.545809220709279
40
0.547571755771286
40
0.549334290833293
40
0.551096825895301
40
0.552859360957307
40
0.556384431081322
40
0.559909501205336
40
0.561672036267343
40
0.56343457132935
40
0.565197106391357
40
0.566959641453365
40
0.570484711577379
40
0.574009781701393
40
0.577534851825407
40
0.581059921949421
40
0.584584992073436
40
0.58811006219745
40
0.591635132321464
40
0.595160202445479
40
0.598685272569493
40
0.602210342693507
40
0.605735412817521
40
0.609260482941535
40
0.61278555306555
40
0.616310623189564
40
0.619835693313578
40
0.623360763437593
40
0.626885833561607
40
0.633935973809635
40
0.640986114057664
40
0.648036254305692
40
0.651561324429707
40
0.655086394553721
40
0.658611464677735
40
0.662136534801749
40
0.665661604925764
40
0.669186675049778
40
0.672711745173792
40
0.676236815297806
40
0.683286955545835
40
0.686812025669849
40
0.690337095793863
40
0.693862165917878
40
0.697387236041892
40
0.700912306165906
40
0.70443737628992
40
0.707962446413935
40
0.711487516537949
40
0.715012586661963
40
0.718537656785977
40
0.722062726909992
40
0.725587797034006
40
0.732637937282034
40
0.736163007406049
40
0.739688077530063
40
0.746738217778092
40
0.750263287902106
40
0.75378835802612
40
0.757313428150134
40
0.760838498274149
40
0.767888638522177
40
0.771413708646191
40
0.774938778770206
40
0.77846384889422
40
0.781988919018234
40
0.789039059266263
40
0.792564129390277
40
0.796089199514291
40
0.799614269638306
40
0.80313933976232
40
0.810189480010348
40
0.813714550134362
40
0.817239620258377
40
0.820764690382391
40
0.824289760506405
40
0.831339900754434
40
0.834864970878448
40
0.838390041002462
40
0.841915111126476
40
0.845440181250491
40
0.852490321498519
40
0.856015391622533
40
0.859540461746548
40
0.863065531870562
40
0.866590601994576
40
0.87011567211859
40
0.873640742242605
40
0.877165812366619
40
0.880690882490633
40
0.884215952614648
40
0.887741022738662
40
0.891266092862676
40
0.89479116298669
40
0.898316233110705
40
0.901841303234719
40
0.908891443482747
40
0.912416513606761
40
0.915941583730776
40
0.91946665385479
40
0.922991723978804
40
0.926516794102819
40
0.930041864226833
40
0.937092004474861
40
0.940617074598875
40
0.94414214472289
40
0.947667214846904
40
0.951192284970918
40
0.958242425218947
40
0.961767495342961
40
0.965292565466975
40
0.96881763559099
40
0.972342705715004
40
0.975867775839018
40
0.979392845963032
40
0.982917916087047
40
0.986442986211061
40
0.989968056335075
40
0.993493126459089
40
0.997018196583104
40
1
40
1
40
1
40
1
41
1
10
-38
20
20.2923486425708
30
0
41
1
10
-38
20
20.2923552205563
30
0
41
1
10
-38
20
20.2915872482167
30
0
41
1
10
-38
20
20.2877827415225
30
0
41
1
10
-38
20
20.2807871950942
30
0
41
1
10
-38
20
20.270864225278
30
0
41
1
10
-38
20
20.2580557575388
30
0
41
1
10
-38
20
20.2424031034125
30
0
41
1
10
-38
20
20.2239454925533
30
0
41
1
10
-38
20
20.19551262204
30
0
41
1
10
-38
20
20.153458157969
30
0
41
1
10
-38
20
20.0921783324266
30
0
41
1
10
-38
20
20.0326760120608
30
0
41
1
10
-38
20
19.9796195423852
30
0
41
1
10
-38
20
19.9374871337363
30
0
41
1
10
-38
20
19.8928775037255
30
0
41
1
10
-38
20
19.8298739849263
30
0
41
1
10
-38
20
19.7628242930463
30
0
41
1
10
-38
20
19.6902080345968
30
0
41
1
10
-38
20
19.6336084813315
30
0
41
1
10
-38
20
19.5746836513967
30
0
41
1
10
-38
20
19.5134574775013
30
0
41
1
10
-38
20
19.4499498796239
30
0
41
1
10
-38
20
19.361926580552
30
0
41
1
10
-38
20
19.2704514952516
30
0
41
1
10
-38
20
19.1735363516591
30
0
41
1
10
-38
20
19.0989364266239
30
0
41
1
10
-38
20
19.0221745884206
30
0
41
1
10
-38
20
18.9432715601189
30
0
41
1
10
-38
20
18.8622425921487
30
0
41
1
10
-38
20
18.7791047356355
30
0
41
1
10
-38
20
18.6938772447032
30
0
41
1
10
-38
20
18.6065734364562
30
0
41
1
10
-38
20
18.5172096781029
30
0
41
1
10
-38
20
18.4258037757915
30
0
41
1
10
-38
20
18.3323676597213
30
0
41
1
10
-38
20
18.236917040573
30
0
41
1
10
-38
20
18.1394682315479
30
0
41
1
10
-38
20
18.006423045464
30
0
41
1
10
-38
20
17.870842154793
30
0
41
1
10
-38
20
17.7299440627733
30
0
41
1
10
-38
20
17.6408187485726
30
0
41
1
10
-38
20
17.5681131617785
30
0
41
1
10
-38
20
17.4947669133713
30
0
41
1
10
-38
20
17.3649201654158
30
0
41
1
10
-38
20
17.2140632768009
30
0
41
1
10
-38
20
17.0578935907134
30
0
41
1
10
-38
20
16.9392992293059
30
0
41
1
10
-38
20
16.8188549914818
30
0
41
1
10
-38
20
16.6552510003021
30
0
41
1
10
-38
20
16.489672496603
30
0
41
1
10
-38
20
16.3187666825072
30
0
41
1
10
-38
20
16.2111031772939
30
0
41
1
10
-38
20
16.1235473577608
30
0
41
1
10
-38
20
16.0353949417433
30
0
41
1
10
-38
20
15.8797855584285
30
0
41
1
10
-38
20
15.6999813794666
30
0
41
1
10
-38
20
15.5148116907138
30
0
41
1
10
-38
20
15.3746600384839
30
0
41
1
10
-38
20
15.2327750536327
30
0
41
1
10
-38
20
15.0406360987563
30
0
41
1
10
-38
20
14.8470518249568
30
0
41
1
10
-38
20
14.6480433816337
30
0
41
1
10
-38
20
14.5230237603812
30
0
41
1
10
-38
20
14.4215395322791
30
0
41
1
10
-38
20
14.319494446119
30
0
41
1
10
-38
20
14.1916826014269
30
0
41
1
10
-38
20
14.0362107113462
30
0
41
1
10
-38
20
13.905633632864
30
0
41
1
10
-38
20
13.7996824703933
30
0
41
1
10
-38
20
13.6931799140641
30
0
41
1
10
-38
20
13.5598675642285
30
0
41
1
10
-38
20
13.3977994204325
30
0
41
1
10
-38
20
13.2340971553998
30
0
41
1
10
-38
20
13.0687736820565
30
0
41
1
10
-38
20
12.9018380893652
30
0
41
1
10
-38
20
12.7332922951509
30
0
41
1
10
-38
20
12.5631480531082
30
0
41
1
10
-38
20
12.3914123687224
30
0
41
1
10
-38
20
12.2180896154105
30
0
41
1
10
-38
20
12.0431930727568
30
0
41
1
10
-38
20
11.8667275879997
30
0
41
1
10
-38
20
11.6886992220563
30
0
41
1
10
-38
20
11.5091211559413
30
0
41
1
10
-38
20
11.3279971676986
30
0
41
1
10
-38
20
11.0835274575533
30
0
41
1
10
-38
20
10.8388445996823
30
0
41
1
10
-38
20
10.5882272221232
30
0
41
1
10
-38
20
10.3995106478125
30
0
41
1
10
-38
20
10.2093006505112
30
0
41
1
10
-38
20
10.0176111741013
30
0
41
1
10
-38
20
9.82444825814403
30
0
41
1
10
-38
20
9.62982433363783
30
0
41
1
10
-38
20
9.43375032895256
30
0
41
1
10
-38
20
9.16930024978848
30
0
41
1
10
-38
20
8.83774034996793
30
0
41
1
10
-38
20
8.43283016067576
30
0
41
1
10
-38
20
8.09202302704495
30
0
41
1
10
-38
20
7.81440668711983
30
0
41
1
10
-38
20
7.60585888080689
30
0
41
1
10
-38
20
7.39600299493051
30
0
41
1
10
-38
20
7.18486050853949
30
0
41
1
10
-38
20
6.972454820743
30
0
41
1
10
-38
20
6.75880464755275
30
0
41
1
10
-38
20
6.54393387937549
30
0
41
1
10
-38
20
6.32787102064523
30
0
41
1
10
-38
20
6.11064460524281
30
0
41
1
10
-38
20
5.89228682406826
30
0
41
1
10
-38
20
5.67283049766701
30
0
41
1
10
-38
20
5.45231041402207
30
0
41
1
10
-38
20
5.2307661198837
30
0
41
1
10
-38
20
5.00824236668089
30
0
41
1
10
-38
20
4.78478453894905
30
0
41
1
10
-38
20
4.56044477194348
30
0
41
1
10
-38
20
4.3737593142329
30
0
41
1
10
-38
20
4.22222174308931
30
0
41
1
10
-38
20
4.10916467830541
30
0
41
1
10
-38
20
3.99593123757288
30
0
41
1
10
-38
20
3.84368490764803
30
0
41
1
10
-38
20
3.65544484289478
30
0
41
1
10
-38
20
3.46668355973628
30
0
41
1
10
-38
20
3.31336520651504
30
0
41
1
10
-38
20
3.19916977025284
30
0
41
1
10
-38
20
3.0848771849204
30
0
41
1
10
-38
20
2.93116533478539
30
0
41
1
10
-38
20
2.7810630459212
30
0
41
1
10
-38
20
2.62697343511894
30
0
41
1
10
-38
20
2.51237687493429
30
0
41
1
10
-38
20
2.39774974487253
30
0
41
1
10
-38
20
2.28311555219403
30
0
41
1
10
-38
20
2.16847618976473
30
0
41
1
10
-38
20
2.05384840107453
30
0
41
1
10
-38
20
1.93924458170406
30
0
41
1
10
-38
20
1.82466899171223
30
0
41
1
10
-38
20
1.71014121398446
30
0
41
1
10
-38
20
1.59566009898879
30
0
41
1
10
-38
20
1.48124309885608
30
0
41
1
10
-38
20
1.36688883878045
30
0
41
1
10
-38
20
1.25260906632701
30
0
41
1
10
-38
20
1.13840321986405
30
0
41
1
10
-38
20
1.02427614220741
30
0
41
1
10
-38
20
0.910225811803912
30
0
41
1
10
-38
20
0.796251800903974
30
0
41
1
10
-38
20
0.682349388495624
30
0
41
1
10
-38
20
0.568513483413511
30
0
41
1
10
-38
20
0.454735475948979
30
0
41
1
10
-38
20
0.341006791030111
30
0
41
1
10
-38
20
0.227315919379521
30
0
41
1
10
-38
20
0.113651444289076
30
0
41
1
10
-38
20
2.39307099E-08
30
0
41
1
10
-38
20
-0.113651428861147
30
0
41
1
10
-38
20
-0.227315965161807
30
0
41
1
10
-38
20
-0.341006831114754
30
0
41
1
10
-38
20
-0.454735424962735
30
0
41
1
10
-38
20
-0.568513412391525
30
0
41
1
10
-38
20
-0.682349437337052
30
0
41
1
10
-38
20
-0.796251898049235
30
0
41
1
10
-38
20
-0.910225765592202
30
0
41
1
10
-38
20
-1.02427601417025
30
0
41
1
10
-38
20
-1.13840324907633
30
0
41
1
10
-38
20
-1.25260921865757
30
0
41
1
10
-38
20
-1.36688883944314
30
0
41
1
10
-38
20
-1.48124293103632
30
0
41
1
10
-38
20
-1.59566004663384
30
0
41
1
10
-38
20
-1.71014137238996
30
0
41
1
10
-38
20
-1.82466911261432
30
0
41
1
10
-38
20
-1.93924446866484
30
0
41
1
10
-38
20
-2.05384821372689
30
0
41
1
10
-38
20
-2.16847621903287
30
0
41
1
10
-38
20
-2.28311576323418
30
0
41
1
10
-38
20
-2.39774983280105
30
0
41
1
10
-38
20
-2.51237672316307
30
0
41
1
10
-38
20
-2.62697323991799
30
0
41
1
10
-38
20
-2.78106315146928
30
0
41
1
10
-38
20
-2.93116552693385
30
0
41
1
10
-38
20
-3.08487708212581
30
0
41
1
10
-38
20
-3.19916954549007
30
0
41
1
10
-38
20
-3.31336512600546
30
0
41
1
10
-38
20
-3.46668375918677
30
0
41
1
10
-38
20
-3.65544489425085
30
0
41
1
10
-38
20
-3.84368470208372
30
0
41
1
10
-38
20
-3.99593117493791
30
0
41
1
10
-38
20
-4.10916481607396
30
0
41
1
10
-38
20
-4.22222196867938
30
0
41
1
10
-38
20
-4.37375933349006
30
0
41
1
10
-38
20
-4.56044458630845
30
0
41
1
10
-38
20
-4.78478457648492
30
0
41
1
10
-38
20
-5.00824253816086
30
0
41
1
10
-38
20
-5.23076600439052
30
0
41
1
10
-38
20
-5.45231022599046
30
0
41
1
10
-38
20
-5.67283041504652
30
0
41
1
10
-38
20
-5.89228674128222
30
0
41
1
10
-38
20
-6.11064496108523
30
0
41
1
10
-38
20
-6.32787239667013
30
0
41
1
10
-38
20
-6.54393525610644
30
0
41
1
10
-38
20
-6.75880334040127
30
0
41
1
10
-38
20
-6.97245311766207
30
0
41
1
10
-38
20
-7.18486111103374
30
0
41
1
10
-38
20
-7.39600347561742
30
0
41
1
10
-38
20
-7.60585874971361
30
0
41
1
10
-38
20
-7.8144064520111
30
0
41
1
10
-38
20
-8.09202295752311
30
0
41
1
10
-38
20
-8.43283023540656
30
0
41
1
10
-38
20
-8.83774029355055
30
0
41
1
10
-38
20
-9.16930023887323
30
0
41
1
10
-38
20
-9.43375044009511
30
0
41
1
10
-38
20
-9.62982432960192
30
0
41
1
10
-38
20
-9.82444814962994
30
0
41
1
10
-38
20
-10.0176111126089
30
0
41
1
10
-38
20
-10.2093007057547
30
0
41
1
10
-38
20
-10.3995107409486
30
0
41
1
10
-38
20
-10.5882272324294
30
0
41
1
10
-38
20
-10.8388445170812
30
0
41
1
10
-38
20
-11.0835274377931
30
0
41
1
10
-38
20
-11.327997250045
30
0
41
1
10
-38
20
-11.5091211965041
30
0
41
1
10
-38
20
-11.6886991809046
30
0
41
1
10
-38
20
-11.8667275177687
30
0
41
1
10
-38
20
-12.0431930522803
30
0
41
1
10
-38
20
-12.2180896645831
30
0
41
1
10
-38
20
-12.3914124247035
30
0
41
1
10
-38
20
-12.5631480735019
30
0
41
1
10
-38
20
-12.7332924196477
30
0
41
1
10
-38
20
-12.9018387248249
30
0
41
1
10
-38
20
-13.068774902876
30
0
41
1
10
-38
20
-13.2899980003418
30
0
41
1
10
-38
20
-13.5056406071554
30
0
41
1
10
-38
20
-13.7202970548285
30
0
41
1
10
-38
20
-13.9327572918622
30
0
41
1
10
-38
20
-14.1397069500695
30
0
41
1
10
-38
20
-14.3454836148157
30
0
41
1
10
-38
20
-14.4976048095277
30
0
41
1
10
-38
20
-14.6480433741443
30
0
41
1
10
-38
20
-14.8470538575164
30
0
41
1
10
-38
20
-15.0406366439893
30
0
41
1
10
-38
20
-15.2327734637881
30
0
41
1
10
-38
20
-15.3746583733236
30
0
41
1
10
-38
20
-15.5148115582755
30
0
41
1
10
-38
20
-15.6999837411247
30
0
41
1
10
-38
20
-15.8797870255403
30
0
41
1
10
-38
20
-16.0578801048401
30
0
41
1
10
-38
20
-16.189216581434
30
0
41
1
10
-38
20
-16.3187661779867
30
0
41
1
10
-38
20
-16.4896741385663
30
0
41
1
10
-38
20
-16.6552512602625
30
0
41
1
10
-38
20
-16.8188545807649
30
0
41
1
10
-38
20
-16.9392987318018
30
0
41
1
10
-38
20
-17.0578934672827
30
0
41
1
10
-38
20
-17.2140648101705
30
0
41
1
10
-38
20
-17.3649216616153
30
0
41
1
10
-38
20
-17.513530035822
30
0
41
1
10
-38
20
-17.6226956365842
30
0
41
1
10
-38
20
-17.7299433731025
30
0
41
1
10
-38
20
-17.8708440004863
30
0
41
1
10
-38
20
-18.0064238716364
30
0
41
1
10
-38
20
-18.1394672902698
30
0
41
1
10
-38
20
-18.236915915677
30
0
41
1
10
-38
20
-18.3323672965474
30
0
41
1
10
-38
20
-18.4258040962282
30
0
41
1
10
-38
20
-18.517209887002
30
0
41
1
10
-38
20
-18.6065734896479
30
0
41
1
10
-38
20
-18.6938772522127
30
0
41
1
10
-38
20
-18.7791047692188
30
0
41
1
10
-38
20
-18.8622426359768
30
0
41
1
10
-38
20
-18.9432715834756
30
0
41
1
10
-38
20
-19.0221745805325
30
0
41
1
10
-38
20
-19.0989364136873
30
0
41
1
10
-38
20
-19.1735363647814
30
0
41
1
10
-38
20
-19.2704515417461
30
0
41
1
10
-38
20
-19.3619266112172
30
0
41
1
10
-38
20
-19.4499498647732
30
0
41
1
10
-38
20
-19.5134574724377
30
0
41
1
10
-38
20
-19.5746836830748
30
0
41
1
10
-38
20
-19.6336085328263
30
0
41
1
10
-38
20
-19.6902080668946
30
0
41
1
10
-38
20
-19.7628242842049
30
0
41
1
10
-38
20
-19.829873984374
30
0
41
1
10
-38
20
-19.8928775551026
30
0
41
1
10
-38
20
-19.9374871757691
30
0
41
1
10
-38
20
-19.9796195436673
30
0
41
1
10
-38
20
-20.0326760063813
30
0
41
1
10
-38
20
-20.0800381474625
30
0
41
1
10
-38
20
-20.1228090027496
30
0
41
1
10
-38
20
-20.1521177658612
30
0
41
1
10
-38
20
-20.1787668505585
30
0
41
1
10
-38
20
-20.2027210424566
30
0
41
1
10
-38
20
-20.2239455432986
30
0
41
1
10
-38
20
-20.2424031363825
30
0
41
1
10
-38
20
-20.2580557552655
30
0
41
1
10
-38
20
-20.2708642249464
30
0
41
1
10
-38
20
-20.2807872561095
30
0
41
1
10
-38
20
-20.2877829489451
30
0
41
1
10
-38
20
-20.2916002751604
30
0
41
1
10
-38
20
-20.2923631820379
30
0
41
1
10
-38
20
-20.292348259652
30
0
0
SPLINE
5
16D
100
AcDbEntity
8
1
62
256
6
ByLayer
370
18
48
1
60
0
100
AcDbSpline
70
4
71
3
72
8
73
4
40
0
40
0
40
0
40
0
40
1
40
1
40
1
40
1
41
1
10
25.5013570413555
20
41.1207286512218
30
0
41
1
10
25.5012591888622
20
41.12072352299
30
0
41
1
10
25.5247795241109
20
41.121956171529
30
0
41
1
10
25.5731608926985
20
41.1244917316167
30
0
0
SPLINE
5
16E
100
AcDbEntity
8
1
62
256
6
ByLayer
370
18
48
1
60
0
100
AcDbSpline
70
4
71
2
72
8
73
5
40
0
40
0
40
0
40
0.287326732258935
40
0.524884488172623
40
1
40
1
40
1
41
1
10
26.5778697872786
20
41.17714629305
30
0
41
1
10
26.5581986266938
20
40.801609048492
30
0
41
1
10
26.5870765770703
20
40.3876624132564
30
0
41
1
10
26.6538066659793
20
39.7434560098869
30
0
41
1
10
26.7505523439645
20
39.3131854162599
30
0
0
SPLINE
5
16F
100
AcDbEntity
8
1
62
256
6
ByLayer
370
18
48
1
60
0
100
AcDbSpline
70
4
71
3
72
44
73
40
40
0
40
0
40
0
40
0
40
0.0051940143727924
40
0.0051940143727924
40
0.0199008691076407
40
0.0199008691076407
40
0.129752172033969
40
0.129752172033969
40
0.239839547948305
40
0.239839547948305
40
0.428838209141398
40
0.428838209141398
40
0.549630938013427
40
0.549630938013427
40
0.669782972388647
40
0.669782972388647
40
0.866798491913108
40
0.866798491913108
40
0.966549504559328
40
0.966549504559328
40
0.991441204701785
40
0.991441204701785
40
0.99766355765668
40
0.99766355765668
40
0.999220062207558
40
0.999220062207558
40
0.999613367540136
40
0.999613367540136
40
0.99970334543
40
0.99970334543
40
0.999741176114463
40
0.999741176114463
40
0.999773455136758
40
0.999773455136758
40
0.999805393916882
40
0.999805393916882
40
0.999853555598975
40
0.999853555598975
40
1
40
1
40
1
40
1
41
1
10
30.1758272900033
20
39.1684701455902
30
0
41
1
10
30.1732876570254
20
39.1691186283493
30
0
41
1
10
30.1707420569477
20
39.1697816241545
30
0
41
1
10
30.1608286180143
20
39.1722290778204
30
0
41
1
10
30.1533911107718
20
39.1739099042531
30
0
41
1
10
30.0904037978203
20
39.1868027388843
30
0
41
1
10
30.0297085322356
20
39.1902163729581
30
0
41
1
10
29.905427253291
20
39.177159034709
30
0
41
1
10
29.840402829345
20
39.1603485989314
30
0
41
1
10
29.6707075816922
20
39.0937630966795
30
0
41
1
10
29.5637408514682
20
39.0366100534687
30
0
41
1
10
29.3929144205337
20
38.9520661356954
30
0
41
1
10
29.3250327915485
20
38.9196469457277
30
0
41
1
10
29.2197926123251
20
38.8261767447921
30
0
41
1
10
29.1926985632798
20
38.7574499949987
30
0
41
1
10
29.103749308579
20
38.6024020656807
30
0
41
1
10
29.0508403971129
20
38.5101578438914
30
0
41
1
10
28.9958962418284
20
38.3629593458026
30
0
41
1
10
28.9802399465126
20
38.3127591459287
30
0
41
1
10
28.9638116137284
20
38.249712994355
30
0
41
1
10
28.9606857263008
20
38.2370920806283
30
0
41
1
10
28.9569606662769
20
38.2213017127988
30
0
41
1
10
28.9562293476205
20
38.2181390474006
30
0
41
1
10
28.9553064087942
20
38.2142015775855
30
0
41
1
10
28.9551289987773
20
38.2134071787903
30
0
41
1
10
28.9548665807085
20
38.2124496407218
30
0
41
1
10
28.9548160199897
20
38.2122509667333
30
0
41
1
10
28.9547162326792
20
38.2120522827196
30
0
41
1
10
28.9546952717521
20
38.2120167488916
30
0
41
1
10
28.9546568225939
20
38.2119835161072
30
0
41
1
10
28.9546439704252
20
38.2119759444257
30
0
41
1
10
28.9546180600991
20
38.2119705790743
30
0
41
1
10
28.9546049947057
20
38.2119716486245
30
0
41
1
10
28.9545791933724
20
38.211981159489
30
0
41
1
10
28.9545661673901
20
38.211989516568
30
0
41
1
10
28.9545352274271
20
38.2120155186534
30
0
41
1
10
28.954517619669
20
38.2120358215842
30
0
41
1
10
28.9544513505334
20
38.2121230603439
30
0
41
1
10
28.9544088343118
20
38.2122016759485
30
0
41
1
10
28.9543682778734
20
38.212280025805
30
0
0
SPLINE
5
170
100
AcDbEntity
8
1
62
256
6
ByLayer
370
18
48
1
60
0
100
AcDbSpline
70
4
71
3
72
16
73
12
40
0
40
0
40
0
40
0
40
0.113316224833592
40
0.113316224833592
40
0.252990411571568
40
0.252990411571568
40
0.473309013928318
40
0.473309013928318
40
0.896716357718825
40
0.896716357718825
40
1
40
1
40
1
40
1
41
1
10
13.4613248654052
20
9.3492213145251
30
0
41
1
10
13.4894125595718
20
9.3492213145251
30
0
41
1
10
13.517849357763
20
9.35431657338981
30
0
41
1
10
13.5767970345725
20
9.37467777536565
30
0
41
1
10
13.6072473721288
20
9.39213979793414
30
0
41
1
10
13.6769143636602
20
9.44503542604383
30
0
41
1
10
13.7128266507651
20
9.4856938043188
30
0
41
1
10
13.8014637450836
20
9.61105923366807
30
0
41
1
10
13.842370839753
20
9.70465429390066
30
0
41
1
10
13.8809034737598
20
9.82244573862474
30
0
41
1
10
13.8878971837969
20
9.84586944318031
30
0
41
1
10
13.8943375672975
20
9.86941261896621
30
0
0
SPLINE
5
171
100
AcDbEntity
8
1
62
256
6
ByLayer
370
18
48
1
60
0
100
AcDbSpline
70
4
71
2
72
8
73
5
40
0
40
0
40
0
40
0.183555182314982
40
0.877097692434602
40
1
40
1
40
1
41
1.02613459695995
10
31.2918750718851
20
41.4241968422647
30
0
41
1.02613459695995
10
31.1562276003352
20
41.2560555773161
30
0
41
1.02613459695995
10
30.555482816503
20
40.3702841798412
30
0
41
1.02613459695995
10
30.2181200324349
20
39.3378266371347
30
0
41
1.02613459695995
10
30.1758272900033
20
39.1684701455902
30
0
0
SPLINE
5
172
100
AcDbEntity
8
1
62
256
6
ByLayer
370
18
48
1
60
0
100
AcDbSpline
70
4
71
3
72
8
73
4
40
0
40
0
40
0
40
0
40
1
40
1
40
1
40
1
41
1
10
24.0744962361218
20
35.3160035225273
30
0
41
1
10
24.0165202123714
20
35.091352279261
30
0
41
1
10
23.9587009420308
20
34.8668873555365
30
0
41
1
10
23.9010466996893
20
34.6426067484622
30
0
0
SPLINE
5
173
100
AcDbEntity
8
1
62
256
6
ByLayer
370
18
48
1
60
0
100
AcDbSpline
70
2053
71
3
72
44
73
40
40
0
40
0
40
0
40
0
40
0.0535886196886103
40
0.0535886196886103
40
0.107169995267639
40
0.107169995267639
40
0.160859964384605
40
0.160859964384605
40
0.214624439862941
40
0.214624439862941
40
0.268272114760092
40
0.268272114760092
40
0.321794544850831
40
0.321794544850831
40
0.375377493563055
40
0.375377493563055
40
0.429112807400743
40
0.429112807400743
40
0.482855479965357
40
0.482855479965357
40
0.536447662407792
40
0.536447662407792
40
0.589966775097614
40
0.589966775097614
40
0.643603826383992
40
0.643603826383992
40
0.697366000053615
40
0.697366000053615
40
0.7510655044382
40
0.7510655044382
40
0.804612881631084
40
0.804612881631084
40
0.858155421319626
40
0.858155421319626
40
0.911847408750255
40
0.911847408750255
40
0.965611501047897
40
0.965611501047897
40
1
40
1
40
1
40
1
41
1
10
8.19907949640554
20
2.50749999999999
30
0
41
1
10
8.48015348979561
20
2.50749999999999
30
0
41
1
10
8.76416835830037
20
2.45920875061665
30
0
41
1
10
9.29282277432483
20
2.27414158364607
30
0
41
1
10
9.54475045044055
20
2.13484377383739
30
0
41
1
10
9.98285524127471
20
1.78539957940259
30
0
41
1
10
10.1749492332882
20
1.5702922276264
30
0
41
1
10
10.4733133373831
20
1.09475754011973
30
0
41
1
10
10.5835843237313
20
0.827678480524582
30
0
41
1
10
10.7075339060474
20
0.280106619951141
30
0
41
1
10
10.7231210856893
20
-0.0079172182419995
30
0
41
1
10
10.6591039618528
20
-0.56449781630522
30
0
41
1
10
10.5788480756254
20
-0.840750844835895
30
0
41
1
10
10.3349949194633
20
-1.3445286612382
30
0
41
1
10
10.1679612241491
20
-1.57893673814593
30
0
41
1
10
9.77078035036035
20
-1.97458738124968
30
0
41
1
10
9.53496475742534
20
-2.1410895568421
30
0
41
1
10
9.02831268368283
20
-2.38333921519907
30
0
41
1
10
8.75045350438876
20
-2.46241322799449
30
0
41
1
10
8.19265503663223
20
-2.52309163181738
30
0
41
1
10
7.90503581657083
20
-2.50579785898543
30
0
41
1
10
7.35968671818608
20
-2.37901229143427
30
0
41
1
10
7.09441968061674
20
-2.26791547752106
30
0
41
1
10
6.62145509160362
20
-1.9683207216091
30
0
41
1
10
6.40736127313716
20
-1.77553399123468
30
0
41
1
10
6.05925717978181
20
-1.33553254609652
30
0
41
1
10
5.92062288198505
20
-1.08209894907375
30
0
41
1
10
5.73776603348506
20
-0.551103253432075
30
0
41
1
10
5.69091992723364
20
-0.266224346686755
30
0
41
1
10
5.69415931833146
20
0.294427598515284
30
0
41
1
10
5.74401513266713
20
0.577939305462706
30
0
41
1
10
5.93186143049624
20
1.10517767015696
30
0
41
1
10
6.07241250637151
20
1.3561610043117
30
0
41
1
10
6.42404795983899
20
1.79226792038077
30
0
41
1
10
6.64017683549343
20
1.98322981196426
30
0
41
1
10
7.11729423104953
20
2.27907777440876
30
0
41
1
10
7.3849539723557
20
2.38793334860355
30
0
41
1
10
7.83635972986966
20
2.48760497569523
30
0
41
1
10
8.01871073932011
20
2.50749999999999
30
0
41
1
10
8.19907949640554
20
2.50749999999999
30
0
0
SPLINE
5
174
100
AcDbEntity
8
1
62
256
6
ByLayer
370
18
48
1
60
0
100
AcDbSpline
70
4
71
3
72
16
73
12
40
0
40
0
40
0
40
0
40
0.463423600832241
40
0.463423600832241
40
0.646243952932834
40
0.646243952932834
40
0.831657283224497
40
0.831657283224497
40
0.947504344290847
40
0.947504344290847
40
1
40
1
40
1
40
1
41
1
10
13.8943375672974
20
29.9139548464691
30
0
41
1
10
13.8656609252734
20
29.9485407466772
30
0
41
1
10
13.8263500123909
20
29.982269090612
30
0
41
1
10
13.7453819366532
20
30.0239686896252
30
0
41
1
10
13.7190869808859
20
30.0352936109065
30
0
41
1
10
13.6579862203325
20
30.0555697561518
30
0
41
1
10
13.6222599905467
20
30.0647246060481
30
0
41
1
10
13.556648346355
20
30.0751823136668
30
0
41
1
10
13.5289597975987
20
30.0781795790239
30
0
41
1
10
13.4876776374751
20
30.0802576981002
30
0
41
1
10
13.47447899686
20
30.0805927603169
30
0
41
1
10
13.4613248654052
20
30.0805927603169
30
0
0
SPLINE
5
175
100
AcDbEntity
8
1
62
256
6
ByLayer
370
18
48
1
60
0
100
AcDbSpline
70
4
71
2
72
9
73
6
40
0
40
0
40
0
40
0.464691154464438
40
0.464691154464438
40
0.929382308928876
40
1
40
1
40
1
41
1
10
29.903248828137
20
25.7120875195043
30
0
41
1
10
30.3653407741741
20
25.7642870069124
30
0
41
1
10
30.7335662692251
20
26.0858719736447
30
0
41
1
10
31.13338051774
20
26.4350445690673
30
0
41
1
10
31.3944915108256
20
27.1372859848831
30
0
41
1
10
31.4240772818751
20
27.233623607715
30
0
0
SPLINE
5
176
100
AcDbEntity
8
1
62
256
6
ByLayer
370
18
48
1
60
0
100
AcDbSpline
70
4
71
3
72
12
73
8
40
0
40
0
40
0
40
0
40
0.500000000000001
40
0.500000000000001
40
0.75
40
0.75
40
1
40
1
40
1
40
1
41
1
10
26.6684291569026
20
41.1818923090939
30
0
41
1
10
27.2367487636147
20
41.2116766776209
30
0
41
1
10
27.8588521174641
20
41.2442797328983
30
0
41
1
10
29.0909779897098
20
41.3088527136949
30
0
41
1
10
29.5845999075606
20
41.3347223422289
30
0
41
1
10
30.5081514009848
20
41.383123625079
30
0
41
1
10
30.9152205715493
20
41.4044572163345
30
0
41
1
10
31.2918750718851
20
41.4241968422647
30
0
0
SPLINE
5
177
100
AcDbEntity
8
1
62
256
6
ByLayer
370
18
48
1
60
0
100
AcDbSpline
70
4
71
2
72
10
73
7
40
0
40
0
40
0
40
0.260353221278025
40
0.471680872341446
40
0.683008523404868
40
0.788672348936578
40
1
40
1
40
1
41
1
10
32.6969807129048
20
21.6354483921986
30
0
41
1
10
32.1254654790463
20
21.9634640987189
30
0
41
1
10
31.2007997648657
20
22.8733459603348
30
0
41
1
10
30.4164030258371
20
24.1663660553916
30
0
41
1
10
30.2135187534091
20
24.6805423368129
30
0
41
1
10
30.0000749637287
20
25.2818404567253
30
0
41
1
10
29.903248828137
20
25.7120875195043
30
0
0
SPLINE
5
178
100
AcDbEntity
8
1
62
256
6
ByLayer
370
18
48
1
60
0
100
AcDbSpline
70
4
71
3
72
8
73
4
40
0
40
0
40
0
40
0
40
1
40
1
40
1
40
1
41
1
10
32.6969807129036
20
21.6354483921993
30
0
41
1
10
33.88254284137
20
21.2425383665292
30
0
41
1
10
35.2098982541385
20
21.3054325143884
30
0
41
1
10
36.3027947157194
20
21.8786899311825
30
0
0
SPLINE
5
179
100
AcDbEntity
8
1
62
256
6
ByLayer
370
18
48
1
60
0
100
AcDbSpline
70
4
71
3
72
12
73
8
40
0
40
0
40
0
40
0
40
0.270028157303644
40
0.270028157303644
40
0.54005627170317
40
0.54005627170317
40
1
40
1
40
1
40
1
41
1
10
32.1801313482732
20
21.8258649151688
30
0
41
1
10
32.2032886025476
20
21.8164439409538
30
0
41
1
10
32.2264894282263
20
21.8071293721974
30
0
41
1
10
32.2729749068474
20
21.7887132715965
30
0
41
1
10
32.2962600468812
20
21.7796115466491
30
0
41
1
10
32.3593165635249
20
21.7552946064741
30
0
41
1
10
32.3991673047508
20
21.7402809595986
30
0
41
1
10
32.4391300249068
20
21.7255753312239
30
0
0
SPLINE
5
17A
100
AcDbEntity
8
1
62
256
6
ByLayer
370
18
48
1
60
0
100
AcDbSpline
70
4
71
3
72
8
73
4
40
0
40
0
40
0
40
0
40
1
40
1
40
1
40
1
41
1
10
25.5731608926985
20
41.1244917316167
30
0
41
1
10
25.8307783175666
20
41.137992888766
30
0
41
1
10
26.1426602915809
20
41.1543379304314
30
0
41
1
10
26.4873134120982
20
41.1724004351104
30
0
0
SPLINE
5
17B
100
AcDbEntity
8
1
62
256
6
ByLayer
370
18
48
1
60
0
100
AcDbSpline
70
4
71
3
72
10
73
6
40
0
40
0
40
0
40
0
40
0.5
40
0.5
40
1
40
1
40
1
40
1
41
1
10
28.3895115170062
20
26.0781473815953
30
0
41
1
10
28.6650530001117
20
25.1364916545417
30
0
41
1
10
29.1958735336824
20
24.3012113061128
30
0
41
1
10
30.4611459103584
20
22.8132230195723
30
0
41
1
10
31.2608872785496
20
22.1998373462301
30
0
41
1
10
32.1801313483211
20
21.8258649151359
30
0
0
SPLINE
5
17C
100
AcDbEntity
8
1
62
256
6
ByLayer
370
18
48
1
60
0
100
AcDbSpline
70
4
71
3
72
8
73
4
40
0
40
0
40
0
40
0
40
1
40
1
40
1
40
1
41
1
10
25.1682445093256
20
39.532918052639
30
0
41
1
10
24.8021278684882
20
38.1276967598325
30
0
41
1
10
24.4373703204076
20
36.7221039914879
30
0
41
1
10
24.0744962361218
20
35.3160035225273
30
0
0
SPLINE
5
17D
100
AcDbEntity
8
1
62
256
6
ByLayer
370
18
48
1
60
0
100
AcDbSpline
70
4
71
2
72
7
73
4
40
0
40
0
40
0
40
0.55097834112502
40
1
40
1
40
1
41
1
10
26.6597055175588
20
39.3029230478899
30
0
41
1
10
26.1778239893113
20
39.2484880615595
30
0
41
1
10
25.4906659146059
20
38.619931904475
30
0
41
1
10
25.2889866890052
20
38.1788576140027
30
0
0
SPLINE
5
17E
100
AcDbEntity
8
1
62
256
6
ByLayer
370
18
48
1
60
0
100
AcDbSpline
70
4
71
3
72
16
73
12
40
0
40
0
40
0
40
0
40
0.113316224833594
40
0.113316224833594
40
0.252990411571577
40
0.252990411571577
40
0.473309013928351
40
0.473309013928351
40
0.896716357718897
40
0.896716357718897
40
1
40
1
40
1
40
1
41
1
10
10.5386751345948
20
30.0805927603169
30
0
41
1
10
10.5105874404281
20
30.0805927603169
30
0
41
1
10
10.482150642237
20
30.0790101689566
30
0
41
1
10
10.4232029654275
20
30.0726712338969
30
0
41
1
10
10.3927526278712
20
30.0672275748685
30
0
41
1
10
10.3230856363398
20
30.0506647867052
30
0
41
1
10
10.2871733492349
20
30.0378702684275
30
0
41
1
10
10.1985362549164
20
29.9980833386355
30
0
41
1
10
10.1576291602469
20
29.967975934908
30
0
41
1
10
10.1190965262402
20
29.9294196064672
30
0
41
1
10
10.112102816203
20
29.9217223689309
30
0
41
1
10
10.1056624327025
20
29.9139548464691
30
0
0
SPLINE
5
17F
100
AcDbEntity
8
1
62
256
6
ByLayer
370
18
48
1
60
0
100
AcDbSpline
70
4
71
3
72
8
73
4
40
0
40
0
40
0
40
0
40
1
40
1
40
1
40
1
41
1
10
25.2891032735395
20
38.178587212152
30
0
41
1
10
25.1883106467239
20
38.6270076832568
30
0
41
1
10
25.1645366101745
20
39.0792763137724
30
0
41
1
10
25.1682445093256
20
39.5329180526392
30
0
0
SPLINE
5
180
100
AcDbEntity
8
1
62
256
6
ByLayer
370
18
48
1
60
0
100
AcDbSpline
70
4
71
1
72
4
73
2
40
0
40
0
40
1
40
1
41
1
10
26.8413991703701
20
39.3234477846298
30
0
41
1
10
26.7505523439643
20
39.3131854162599
30
0
0
SPLINE
5
181
100
AcDbEntity
8
1
62
256
6
ByLayer
370
18
48
1
60
0
100
AcDbSpline
70
4
71
3
72
12
73
8
40
0
40
0
40
0
40
0
40
0.499999999965757
40
0.499999999965757
40
0.750000000047509
40
0.750000000047509
40
1
40
1
40
1
40
1
41
1
10
26.4873134120111
20
41.172400434556
30
0
41
1
10
26.5024058920009
20
41.1731913979165
30
0
41
1
10
26.5174984963513
20
41.1739823683444
30
0
41
1
10
26.5401375898849
20
41.1751688329622
30
0
41
1
10
26.5476839855928
20
41.175564322803
30
0
41
1
10
26.5627768395353
20
41.1763553057616
30
0
41
1
10
26.5703232977699
20
41.1767507988793
30
0
41
1
10
26.5778697873353
20
41.177146293639
30
0
0
SPLINE
5
182
100
AcDbEntity
8
1
62
256
6
ByLayer
370
18
48
1
60
0
100
AcDbSpline
70
4
71
3
72
8
73
4
40
0
40
0
40
0
40
0
40
1
40
1
40
1
40
1
41
1
10
22.92079238
20
30.8996141556632
30
0
41
1
10
23.2426423178719
20
32.1401451848889
30
0
41
1
10
23.5684820644022
20
33.3829616943839
30
0
41
1
10
23.8962856159808
20
34.6245734699538
30
0
0
SPLINE
5
183
100
AcDbEntity
8
1
62
256
6
ByLayer
370
18
48
1
60
0
100
AcDbSpline
70
4
71
3
72
16
73
12
40
0
40
0
40
0
40
0
40
0.113316224833596
40
0.113316224833596
40
0.252990411571581
40
0.252990411571581
40
0.473309013928343
40
0.473309013928343
40
0.896716357718895
40
0.896716357718895
40
1
40
1
40
1
40
1
41
1
10
13.4613248654052
20
-30.0805927603169
30
0
41
1
10
13.4894125595718
20
-30.0805927603169
30
0
41
1
10
13.517849357763
20
-30.0790101689567
30
0
41
1
10
13.5767970345725
20
-30.0726712338969
30
0
41
1
10
13.6072473721288
20
-30.0672275748685
30
0
41
1
10
13.6769143636602
20
-30.0506647867052
30
0
41
1
10
13.7128266507651
20
-30.0378702684275
30
0
41
1
10
13.8014637450836
20
-29.9980833386355
30
0
41
1
10
13.842370839753
20
-29.967975934908
30
0
41
1
10
13.8809034737598
20
-29.9294196064672
30
0
41
1
10
13.8878971837969
20
-29.9217223689309
30
0
41
1
10
13.8943375672975
20
-29.9139548464691
30
0
0
SPLINE
5
184
100
AcDbEntity
8
1
62
256
6
ByLayer
370
18
48
1
60
0
100
AcDbSpline
70
4
71
2
72
6
73
3
40
0
40
0
40
0
40
1
40
1
40
1
41
1
10
29.903248828137
20
25.7120875195043
30
0
41
1
10
29.8578254149342
20
25.7069563353193
30
0
41
1
10
29.8124020017313
20
25.7018251511343
30
0
0
SPLINE
5
185
100
AcDbEntity
8
1
62
256
6
ByLayer
370
18
48
1
60
0
100
AcDbSpline
70
4
71
3
72
12
73
8
40
0
40
0
40
0
40
0
40
0.500000000041269
40
0.500000000041269
40
0.750000000163822
40
0.750000000163822
40
1
40
1
40
1
40
1
41
1
10
26.5778697872196
20
41.177146293062
30
0
41
1
10
26.592962764114
20
41.1779372824642
30
0
41
1
10
26.608055866447
20
41.1787282790115
30
0
41
1
10
26.6306957085722
20
41.1799147828612
30
0
41
1
10
26.6382423540811
20
41.1803102857936
30
0
41
1
10
26.6533357081688
20
41.1811012949636
30
0
41
1
10
26.6608824167475
20
41.1814968012014
30
0
41
1
10
26.6684291569294
20
41.1818923090954
30
0
0
SPLINE
5
186
100
AcDbEntity
8
1
62
256
6
ByLayer
370
18
48
1
60
0
100
AcDbSpline
70
4
71
3
72
16
73
12
40
0
40
0
40
0
40
0
40
0.463423600832262
40
0.463423600832262
40
0.646243952932856
40
0.646243952932856
40
0.831657283224518
40
0.831657283224518
40
0.94750434429086
40
0.94750434429086
40
1
40
1
40
1
40
1
41
1
10
10.1056624327026
20
-29.9139548464691
30
0
41
1
10
10.1343390747265
20
-29.9485407466772
30
0
41
1
10
10.1736499876091
20
-29.982269090612
30
0
41
1
10
10.2546180633468
20
-30.0239686896252
30
0
41
1
10
10.2809130191141
20
-30.0352936109065
30
0
41
1
10
10.3420137796675
20
-30.0555697561518
30
0
41
1
10
10.3777400094532
20
-30.0647246060481
30
0
41
1
10
10.4433516536449
20
-30.0751823136668
30
0
41
1
10
10.4710402024013
20
-30.0781795790239
30
0
41
1
10
10.5123223625249
20
-30.0802576981002
30
0
41
1
10
10.5255210031399
20
-30.0805927603169
30
0
41
1
10
10.5386751345948
20
-30.0805927603169
30
0
0
SPLINE
5
187
100
AcDbEntity
8
1
62
256
6
ByLayer
370
18
48
1
60
0
100
AcDbSpline
70
4
71
2
72
6
73
3
40
0
40
0
40
0
40
1
40
1
40
1
41
1
10
29.8124020017313
20
25.7018251511343
30
0
41
1
10
29.7669785885285
20
25.6966939669493
30
0
41
1
10
29.7215551753257
20
25.6915627827644
30
0
0
SPLINE
5
188
100
AcDbEntity
8
1
62
256
6
ByLayer
370
18
48
1
60
0
100
AcDbSpline
70
4
71
1
72
4
73
2
40
0
40
0
40
1
40
1
41
1
10
26.7505523439645
20
39.3131854162599
30
0
41
1
10
26.6597055175587
20
39.3029230478899
30
0
0
SPLINE
5
189
100
AcDbEntity
8
1
62
256
6
ByLayer
370
18
48
1
60
0
100
AcDbSpline
70
4
71
3
72
14
73
10
40
0
40
0
40
0
40
0
40
0.264682281129105
40
0.264682281129105
40
0.529206797196864
40
0.529206797196864
40
0.796215005013496
40
0.796215005013496
40
1
40
1
40
1
40
1
41
1
10
22.92079238
20
30.8996141556632
30
0
41
1
10
22.4918347090298
20
30.8782470120691
30
0
41
1
10
22.0760939855286
20
30.8416690423415
30
0
41
1
10
21.3399746287024
20
30.7377355602684
30
0
41
1
10
21.0095242838747
20
30.6687823920308
30
0
41
1
10
20.4724242383792
20
30.4990243000185
30
0
41
1
10
20.2597267854547
20
30.3955004707743
30
0
41
1
10
20.0093210835962
20
30.1888506958789
30
0
41
1
10
19.9399854717531
20
30.0897854016817
30
0
41
1
10
19.9115068236138
20
29.9850116132027
30
0
0
SPLINE
5
18A
100
AcDbEntity
8
1
62
256
6
ByLayer
370
18
48
1
60
0
100
AcDbSpline
70
4
71
3
72
10
73
6
40
0
40
0
40
0
40
0
40
0.917501878246691
40
0.917501878246691
40
1
40
1
40
1
40
1
41
1
10
37.3567259947607
20
22.846762982856
30
0
41
1
10
37.0934449473492
20
22.4968178728525
30
0
41
1
10
36.7670931766076
20
22.1872415599411
30
0
41
1
10
36.3700156083424
20
21.9214743934871
30
0
41
1
10
36.3365668651543
20
21.899822385534
30
0
41
1
10
36.302794715719
20
21.8786899311824
30
0
0
SPLINE
5
18B
100
AcDbEntity
8
1
62
256
6
ByLayer
370
18
48
1
60
0
100
AcDbSpline
70
4
71
3
72
16
73
12
40
0
40
0
40
0
40
0
40
0.463423600832209
40
0.463423600832209
40
0.646243952932815
40
0.646243952932815
40
0.831657283224495
40
0.831657283224495
40
0.947504344290837
40
0.947504344290837
40
1
40
1
40
1
40
1
41
1
10
13.8943375672974
20
-9.86941261896621
30
0
41
1
10
13.8656609252734
20
-9.76458357826289
30
0
41
1
10
13.8263500123909
20
-9.66039292789941
30
0
41
1
10
13.7453819366532
20
-9.52957658281042
30
0
41
1
10
13.7190869808859
20
-9.49380155568073
30
0
41
1
10
13.6579862203325
20
-9.42941539787637
30
0
41
1
10
13.6222599905468
20
-9.40014891155712
30
0
41
1
10
13.556648346355
20
-9.36662118733784
30
0
41
1
10
13.5289597975987
20
-9.35698328824239
30
0
41
1
10
13.4876776374751
20
-9.35029954873104
30
0
41
1
10
13.4744789968601
20
-9.34922131452501
30
0
41
1
10
13.4613248654052
20
-9.34922131452501
30
0
0
SPLINE
5
18C
100
AcDbEntity
8
1
62
256
6
ByLayer
370
18
48
1
60
0
100
AcDbSpline
70
4
71
2
72
8
73
5
40
0
40
0
40
0
40
0.288825390126987
40
0.525883593417991
40
1
40
1
40
1
41
1.02613459695995
10
26.4873134120682
20
41.1724004345443
30
0
41
1.02613459695995
10
26.4672358614665
20
40.7930085877201
30
0
41
1.02613459695995
10
26.4962297506646
20
40.3774000448865
30
0
41
1.02613459695995
10
26.5629598395736
20
39.7331936415169
30
0
41
1.02613459695995
10
26.6597055175588
20
39.3029230478899
30
0
0
SPLINE
5
18D
100
AcDbEntity
8
1
62
256
6
ByLayer
370
18
48
1
60
0
100
AcDbSpline
70
4
71
3
72
42
73
38
40
0
40
0
40
0
40
0
40
0.0001456804069678
40
0.0001456804069678
40
0.0001937817538648
40
0.0001937817538648
40
0.0002315129808764
40
0.0002315129808764
40
0.0002608512396156
40
0.0002608512396156
40
0.0002901055930735
40
0.0002901055930735
40
0.0003386250904245
40
0.0003386250904245
40
0.0004943095863847
40
0.0004943095863847
40
0.0012382913882506
40
0.0012382913882506
40
0.0042003751193987
40
0.0042003751193987
40
0.0160477772001913
40
0.0160477772001913
40
0.063455020039343
40
0.063455020039343
40
0.254714016256074
40
0.254714016256074
40
0.445727388429682
40
0.445727388429682
40
0.588326282882816
40
0.588326282882816
40
0.775840880172222
40
0.775840880172222
40
0.886032581675941
40
0.886032581675941
40
0.994826729270364
40
0.994826729270364
40
1
40
1
40
1
40
1
41
1
10
31.4239710614936
20
27.2337014716817
30
0
41
1
10
31.42397455682
20
27.2337851108978
30
0
41
1
10
31.4239797520382
20
27.2338689455694
30
0
41
1
10
31.4240003127024
20
27.2339699337558
30
0
41
1
10
31.4240067380295
20
27.2339942870993
30
0
41
1
10
31.4240225632672
20
27.2340325282932
30
0
41
1
10
31.4240312245594
20
27.234047763822
30
0
41
1
10
31.4240503596212
20
27.2340675661172
30
0
41
1
10
31.4240602280602
20
27.2340738008267
30
0
41
1
10
31.4240815398127
20
27.2340797897802
30
0
41
1
10
31.4240931779116
20
27.2340796781715
30
0
41
1
10
31.4241241734674
20
27.2340731870712
30
0
41
1
10
31.4241440845275
20
27.2340630388672
30
0
41
1
10
31.4242246413106
20
27.234010758735
30
0
41
1
10
31.4242828520868
20
27.2339494976863
30
0
41
1
10
31.4246081149223
20
27.2335934936143
30
0
41
1
10
31.4248566350234
20
27.2332487509329
30
0
41
1
10
31.4261088984173
20
27.231581549004
30
0
41
1
10
31.427096398965
20
27.2302216478743
30
0
41
1
10
31.4320608560014
20
27.2234633324063
30
0
41
1
10
31.4360556509142
20
27.2180651265663
30
0
41
1
10
31.4561872422044
20
27.1911811688109
30
0
41
1
10
31.472765139989
20
27.1699749414963
30
0
41
1
10
31.5584101769263
20
27.0653480245208
30
0
41
1
10
31.635380333293
20
26.9865962518763
30
0
41
1
10
31.8080476338474
20
26.8484869280363
30
0
41
1
10
31.8923332943379
20
26.760510983516
30
0
41
1
10
32.0798158708162
20
26.6915777160786
30
0
41
1
10
32.1702390729724
20
26.69049434726
30
0
41
1
10
32.3743358586881
20
26.6850511376312
30
0
41
1
10
32.4942291853108
20
26.6789772340943
30
0
41
1
10
32.6715775880487
20
26.7044476082915
30
0
41
1
10
32.7354042208366
20
26.7235520168347
30
0
41
1
10
32.847180426218
20
26.778691213755
30
0
41
1
10
32.89668779406
20
26.8149454835413
30
0
41
1
10
32.9402598040473
20
26.8579740470834
30
0
41
1
10
32.942211858401
20
26.8599496408636
30
0
41
1
10
32.9441642180691
20
26.8619118638754
30
0
0
SPLINE
5
18E
100
AcDbEntity
8
1
62
256
6
ByLayer
370
18
48
1
60
0
100
AcDbSpline
70
4
71
3
72
8
73
4
40
0
40
0
40
0
40
0
40
1
40
1
40
1
40
1
41
1
10
25.5731608926985
20
41.1244917316167
30
0
41
1
10
25.4304996962684
20
40.5760127793274
30
0
41
1
10
25.2917219871731
20
40.0342426771591
30
0
41
1
10
25.1682445093256
20
39.532918052639
30
0
0
SPLINE
5
18F
100
AcDbEntity
8
1
62
256
6
ByLayer
370
18
48
1
60
0
100
AcDbSpline
70
4
71
3
72
16
73
12
40
0
40
0
40
0
40
0
40
0.113316224833593
40
0.113316224833593
40
0.252990411571579
40
0.252990411571579
40
0.473309013928354
40
0.473309013928354
40
0.896716357718913
40
0.896716357718913
40
1
40
1
40
1
40
1
41
1
10
10.5386751345948
20
-9.34922131452512
30
0
41
1
10
10.5105874404281
20
-9.34922131452512
30
0
41
1
10
10.482150642237
20
-9.35431657338984
30
0
41
1
10
10.4232029654275
20
-9.37467777536568
30
0
41
1
10
10.3927526278712
20
-9.39213979793414
30
0
41
1
10
10.3230856363398
20
-9.44503542604386
30
0
41
1
10
10.2871733492349
20
-9.48569380431883
30
0
41
1
10
10.1985362549164
20
-9.6110592336681
30
0
41
1
10
10.1576291602469
20
-9.70465429390072
30
0
41
1
10
10.1190965262402
20
-9.82244573862477
30
0
41
1
10
10.112102816203
20
-9.84586944318031
30
0
41
1
10
10.1056624327025
20
-9.86941261896618
30
0
0
SPLINE
5
190
100
AcDbEntity
8
1
62
256
6
ByLayer
370
18
48
1
60
0
100
AcDbSpline
70
4
71
2
72
8
73
5
40
0
40
0
40
0
40
0.0733047478982093
40
0.536652373949105
40
1
40
1
40
1
41
1
10
28.9544299978634
20
38.2123714477518
30
0
41
1
10
28.8840246510791
20
38.2974586998314
30
0
41
1
10
28.3468641906061
20
38.8864065923848
30
0
41
1
10
27.3232806986175
20
39.3778827709603
30
0
41
1
10
26.84139917037
20
39.3234477846298
30
0
0
SPLINE
5
191
100
AcDbEntity
8
1
62
256
6
ByLayer
370
18
48
1
60
0
100
AcDbSpline
70
4
71
2
72
9
73
6
40
0
40
0
40
0
40
0.419655468653538
40
0.629483202980307
40
0.944224804470461
40
1
40
1
40
1
41
1.02613459695995
10
37.3537762633776
20
25.3838318149616
30
0
41
1.02613459695995
10
36.4222438606091
20
25.1128166909984
30
0
41
1.02613459695995
10
34.9709914102051
20
25.4281136369939
30
0
41
1.02613459695995
10
33.7842648668125
20
26.0168310006975
30
0
41
1.02613459695995
10
33.052725292464
20
26.7366744852629
30
0
41
1.02613459695995
10
32.9441642180692
20
26.8619118638755
30
0
0
SPLINE
5
192
100
AcDbEntity
8
1
62
256
6
ByLayer
370
18
48
1
60
0
100
AcDbSpline
70
4
71
3
72
8
73
4
40
0
40
0
40
0
40
0
40
1
40
1
40
1
40
1
41
1
10
23.8962856159808
20
34.6245734699538
30
0
41
1
10
23.8978726326042
20
34.6305845656792
30
0
41
1
10
23.8994596605127
20
34.6365956585138
30
0
41
1
10
23.9010466996893
20
34.6426067484622
30
0
0
SPLINE
5
193
100
AcDbEntity
8
1
62
256
6
ByLayer
370
18
48
1
60
0
100
AcDbSpline
70
4
71
2
72
8
73
5
40
0
40
0
40
0
40
0.285817388359016
40
0.523878258906011
40
1
40
1
40
1
41
1
10
26.6684291569026
20
41.181892309094
30
0
41
1
10
26.6491617268173
20
40.810204708746
30
0
41
1
10
26.6779234034759
20
40.3979247816264
30
0
41
1
10
26.744653492385
20
39.7537183782568
30
0
41
1
10
26.8413991703701
20
39.3234477846298
30
0
0
SPLINE
5
194
100
AcDbEntity
8
1
62
256
6
ByLayer
370
18
48
1
60
0
100
AcDbSpline
70
4
71
2
72
8
73
5
40
0
40
0
40
0
40
0.265445927027677
40
0.265445927027677
40
1
40
1
40
1
41
1
10
28.389599554836
20
26.077371775984
30
0
41
1
10
28.5757118612329
20
25.9519728531273
30
0
41
1
10
28.7683933534585
20
25.8638793166615
30
0
41
1
10
29.2594632292885
20
25.6393632953563
30
0
41
1
10
29.7215551753257
20
25.6915627827644
30
0
0
SPLINE
5
195
100
AcDbEntity
8
1
62
256
6
ByLayer
370
18
48
1
60
0
100
AcDbSpline
70
4
71
3
72
12
73
8
40
0
40
0
40
0
40
0
40
0.274566594150471
40
0.274566594150471
40
0.549133149228148
40
0.549133149228148
40
1
40
1
40
1
40
1
41
1
10
32.4391300256901
20
21.725575333255
30
0
41
1
10
32.462592169349
20
21.716941647548
30
0
41
1
10
32.4860935590261
20
21.7084138822625
30
0
41
1
10
32.5331715578857
20
21.6915701117185
30
0
41
1
10
32.5567486416376
20
21.683253934232
30
0
41
1
10
32.6191374267256
20
21.6615610173477
30
0
41
1
10
32.6580126489892
20
21.6483628929938
30
0
41
1
10
32.6969807039483
20
21.6354483951672
30
0
0
SPLINE
5
196
100
AcDbEntity
8
1
62
256
6
ByLayer
370
18
48
1
60
0
100
AcDbSpline
70
4
71
3
72
8
73
4
40
0
40
0
40
0
40
0
40
1
40
1
40
1
40
1
41
1
10
37.3537762633776
20
25.3838318149616
30
0
41
1
10
37.5548916145309
20
24.4897795898792
30
0
41
1
10
37.5559534325009
20
23.5765082009104
30
0
41
1
10
37.3567259947606
20
22.846762982856
30
0
0
SPLINE
5
197
100
AcDbEntity
8
1
62
256
6
ByLayer
370
18
48
1
60
0
100
AcDbSpline
70
4
71
3
72
16
73
12
40
0
40
0
40
0
40
0
40
0.463423600832241
40
0.463423600832241
40
0.646243952932837
40
0.646243952932837
40
0.831657283224505
40
0.831657283224505
40
0.947504344290848
40
0.947504344290848
40
1
40
1
40
1
40
1
41
1
10
10.1056624327026
20
9.86941261896621
30
0
41
1
10
10.1343390747265
20
9.76458357826289
30
0
41
1
10
10.1736499876091
20
9.66039292789938
30
0
41
1
10
10.2546180633468
20
9.52957658281042
30
0
41
1
10
10.2809130191141
20
9.49380155568073
30
0
41
1
10
10.3420137796675
20
9.42941539787637
30
0
41
1
10
10.3777400094532
20
9.40014891155712
30
0
41
1
10
10.4433516536449
20
9.36662118733787
30
0
41
1
10
10.4710402024013
20
9.35698328824239
30
0
41
1
10
10.5123223625249
20
9.35029954873107
30
0
41
1
10
10.5255210031399
20
9.34922131452504
30
0
41
1
10
10.5386751345948
20
9.34922131452504
30
0
0
SPLINE
5
198
100
AcDbEntity
8
1
62
256
6
ByLayer
370
18
48
1
60
0
100
AcDbSpline
70
4
71
2
72
10
73
7
40
0
40
0
40
0
40
0.23086361928653
40
0.45061687091895
40
0.67037012255137
40
0.78024674836758
40
1
40
1
40
1
41
1
10
32.4391300283093
20
21.7255753316082
30
0
41
1
10
31.9594560090669
20
22.027162649425
30
0
41
1
10
31.10995293846
20
22.8630835919649
30
0
41
1
10
30.3255561994315
20
24.1561036870216
30
0
41
1
10
30.1226719270034
20
24.670279968443
30
0
41
1
10
29.9092281373231
20
25.2715780883553
30
0
41
1
10
29.8124020017313
20
25.7018251511343
30
0
0
SPLINE
5
199
100
AcDbEntity
8
1
62
256
6
ByLayer
370
18
48
1
60
0
100
AcDbSpline
70
4
71
2
72
10
73
7
40
0
40
0
40
0
40
0.198148723876579
40
0.427249088483271
40
0.656349453089963
40
0.770899635393308
40
1
40
1
40
1
41
1.02613459695995
10
32.1801313483211
20
21.8258649151359
30
0
41
1.02613459695995
10
31.7916945062988
20
22.0925852208564
30
0
41
1.02613459695995
10
31.0191061120544
20
22.8528212235949
30
0
41
1.02613459695995
10
30.2347093730258
20
24.1458413186516
30
0
41
1.02613459695995
10
30.0318251005978
20
24.660017600073
30
0
41
1.02613459695995
10
29.8183813109174
20
25.2613157199854
30
0
41
1.02613459695995
10
29.7215551753256
20
25.6915627827643
30
0
0
SPLINE
5
19A
100
AcDbEntity
8
SK1
62
256
6
ByLayer
370
18
48
1
60
0
100
AcDbSpline
70
4
71
3
72
26
73
22
40
0
40
0
40
0
40
0
40
0.462420532187944
40
0.462420532187944
40
0.662465761698283
40
0.662465761698283
40
0.830433309169693
40
0.830433309169693
40
0.87601894963741
40
0.87601894963741
40
0.905535493032455
40
0.905535493032455
40
0.92577818311669
40
0.92577818311669
40
0.946307111163799
40
0.946307111163799
40
0.963675313617857
40
0.963675313617857
40
0.991859972782862
40
0.991859972782862
40
1
40
1
40
1
40
1
41
1
10
-0.199999999999989
20
-7.05951749342083
30
0
41
1
10
-0.199999999999989
20
-6.93273416480454
30
0
41
1
10
-0.203968014086513
20
-6.80463429773329
30
0
41
1
10
-0.223222206303944
20
-6.62063667774228
30
0
41
1
10
-0.230822389897867
20
-6.56482953243432
30
0
41
1
10
-0.252035566714568
20
-6.46316921019911
30
0
41
1
10
-0.263798801619998
20
-6.41617607028249
30
0
41
1
10
-0.290531391619595
20
-6.36108887379029
30
0
41
1
10
-0.29710300077241
20
-6.34947181616241
30
0
41
1
10
-0.310313928765424
20
-6.33213067856883
30
0
41
1
10
-0.316208846631128
20
-6.32567949173321
30
0
41
1
10
-0.327595492701022
20
-6.31681373578161
30
0
41
1
10
-0.332739264568545
20
-6.31372817209197
30
0
41
1
10
-0.343644708736434
20
-6.30958040401461
30
0
41
1
10
-0.349575964479982
20
-6.30853210514005
30
0
41
1
10
-0.360183897281416
20
-6.30881607347521
30
0
41
1
10
-0.365032052617437
20
-6.30978620719449
30
0
41
1
10
-0.376922909163994
20
-6.31387292952667
30
0
41
1
10
-0.383695246431131
20
-6.3179475897727
30
0
41
1
10
-0.39156461480826
20
-6.32402624429125
30
0
41
1
10
-0.393293161608796
20
-6.32546009510432
30
0
41
1
10
-0.394976888875277
20
-6.32694279392757
30
0
0
SPLINE
5
19B
100
AcDbEntity
8
SK1
62
256
6
ByLayer
370
18
48
1
60
0
100
AcDbSpline
70
4
71
3
72
22
73
18
40
0
40
0
40
0
40
0
40
0.366862607601256
40
0.366862607601256
40
0.737339621375052
40
0.737339621375052
40
0.838459586400285
40
0.838459586400285
40
0.872990642836393
40
0.872990642836393
40
0.908114554314301
40
0.908114554314301
40
0.93841147631739
40
0.93841147631739
40
0.978567405872927
40
0.978567405872927
40
1
40
1
40
1
40
1
41
1
10
-1.30710678118655
20
4.81101329740289
30
0
41
1
10
-1.26411319574365
20
5.05427021725674
30
0
41
1
10
-1.21291926611929
20
5.29463858107241
30
0
41
1
10
-1.07751639291712
20
5.76447191425098
30
0
41
1
10
-0.99999394263088
20
6.0024064332149
30
0
41
1
10
-0.818580317119483
20
6.26150782359156
30
0
41
1
10
-0.772786229091963
20
6.31609141287933
30
0
41
1
10
-0.693958175551444
20
6.37002132562083
30
0
41
1
10
-0.67174289599555
20
6.38213989760789
30
0
41
1
10
-0.624176343099663
20
6.39933264200099
30
0
41
1
10
-0.598041368844491
20
6.40433410743103
30
0
41
1
10
-0.550095873812666
20
6.4042038836908
30
0
41
1
10
-0.52764508925199
20
6.40038614973912
30
0
41
1
10
-0.479150674129698
20
6.38487542657816
30
0
41
1
10
-0.453444961156862
20
6.37100758594852
30
0
41
1
10
-0.417985764291785
20
6.34622757774423
30
0
41
1
10
-0.406197231050186
20
6.33682378409867
30
0
41
1
10
-0.394976888874737
20
6.32694309068151
30
0
0
SPLINE
5
19C
100
AcDbEntity
8
SK1
62
256
6
ByLayer
370
18
48
1
60
0
100
AcDbSpline
70
4
71
3
72
22
73
18
40
0
40
0
40
0
40
0
40
0.038427246458711
40
0.038427246458711
40
0.0775026456766427
40
0.0775026456766427
40
0.106475059033524
40
0.106475059033524
40
0.135305917881828
40
0.135305917881828
40
0.182167074412018
40
0.182167074412018
40
0.275660663800869
40
0.275660663800869
40
0.616530102228659
40
0.616530102228659
40
1
40
1
40
1
40
1
41
1
10
-0.394976888875306
20
-6.32694279392757
30
0
41
1
10
-0.414867561016194
20
-6.34445862132063
30
0
41
1
10
-0.436644357284194
20
-6.36058691921457
30
0
41
1
10
-0.484524151203374
20
-6.3868168818706
30
0
41
1
10
-0.511419954277358
20
-6.39702622866628
30
0
41
1
10
-0.560078773491597
20
-6.40490957850619
30
0
41
1
10
-0.58185248496946
20
-6.40512642059926
30
0
41
1
10
-0.623683911276856
20
-6.39912423041605
30
0
41
1
10
-0.644207278837683
20
-6.39293597600829
30
0
41
1
10
-0.694134540330907
20
-6.37121870092642
30
0
41
1
10
-0.722113964046542
20
-6.35215911803172
30
0
41
1
10
-0.796598131612939
20
-6.28903777408343
30
0
41
1
10
-0.836555557792792
20
-6.23798237717094
30
0
41
1
10
-0.997773060879837
20
-5.995390913813
30
0
41
1
10
-1.07178904300878
20
-5.77805690787602
30
0
41
1
10
-1.20827315239353
20
-5.31693201445015
30
0
41
1
10
-1.26212533694985
20
-5.06551762472202
30
0
41
1
10
-1.30710678118655
20
-4.81101321788441
30
0
0
SPLINE
5
19D
100
AcDbEntity
8
SK1
62
256
6
ByLayer
370
18
48
1
60
0
100
AcDbSpline
70
4
71
3
72
10
73
6
40
0
40
0
40
0
40
0
40
0.5
40
0.5
40
1
40
1
40
1
40
1
41
1
10
-1.30710678118655
20
4.81101329740289
30
0
41
1
10
-1.57713284158248
20
3.28321078789992
30
0
41
1
10
-1.79449339715788
20
1.64680798700616
30
0
41
1
10
-1.79438545511854
20
-1.6481258022005
30
0
41
1
10
-1.57704898370505
20
-3.28368386467716
30
0
41
1
10
-1.30710678118663
20
-4.81101321788435
30
0
0
SPLINE
5
19E
100
AcDbEntity
8
SK1
62
256
6
ByLayer
370
18
48
1
60
0
100
AcDbSpline
70
4
71
3
72
22
73
18
40
0
40
0
40
0
40
0
40
0.025518692999354
40
0.025518692999354
40
0.0515625307794633
40
0.0515625307794633
40
0.0689220502117165
40
0.0689220502117165
40
0.0862030429090035
40
0.0862030429090035
40
0.113761926258803
40
0.113761926258803
40
0.167639902693809
40
0.167639902693809
40
0.357269752158031
40
0.357269752158031
40
1
40
1
40
1
40
1
41
1
10
-0.394976888875277
20
6.326943090669
30
0
41
1
10
-0.389699799773268
20
6.32229605774103
30
0
41
1
10
-0.38394554029108
20
6.31808234313019
30
0
41
1
10
-0.371336208800898
20
6.31155719556298
30
0
41
1
10
-0.364237316839024
20
6.30923328231674
30
0
41
1
10
-0.35209572007625
20
6.30844589498398
30
0
41
1
10
-0.347038791108759
20
6.3089739150856
30
0
41
1
10
-0.337436838154161
20
6.31166640764118
30
0
41
1
10
-0.332782752688161
20
6.31383711710231
30
0
41
1
10
-0.321723955926899
20
6.32078578121266
30
0
41
1
10
-0.315689795621665
20
6.32640446307903
30
0
41
1
10
-0.300083216036057
20
6.3442802085479
30
0
41
1
10
-0.292057158925616
20
6.35806878925098
30
0
41
1
10
-0.261294067338724
20
6.42092251611513
30
0
41
1
10
-0.248999237994838
20
6.47445017323312
30
0
41
1
10
-0.204624309665832
20
6.70435570668306
30
0
41
1
10
-0.200000000000955
20
6.88379158154922
30
0
41
1
10
-0.200000000000955
20
7.05951756777665
30
0
0
SPLINE
5
19F
100
AcDbEntity
8
1
62
256
6
ByLayer
370
18
48
1
60
0
100
AcDbSpline
70
4
71
3
72
8
73
4
40
0
40
0
40
0
40
0
40
1
40
1
40
1
40
1
41
1
10
54.9256898617164
20
40.19057735662
30
0
41
1
10
54.8485763343715
20
40.2304392276386
30
0
41
1
10
54.7713673519518
20
40.266368140111
30
0
41
1
10
54.6954706525707
20
40.2978687434874
30
0
0
SPLINE
5
1A0
100
AcDbEntity
8
1
62
256
6
ByLayer
370
18
48
1
60
0
100
AcDbSpline
70
4
71
3
72
20
73
16
40
0
40
0
40
0
40
0
40
0.110576036200127
40
0.110576036200127
40
0.197179369122807
40
0.197179369122807
40
0.284291117387371
40
0.284291117387371
40
0.365904217918081
40
0.365904217918081
40
0.497270233392082
40
0.497270233392082
40
0.733496364826732
40
0.733496364826732
40
1
40
1
40
1
40
1
41
1
10
51.0858079203971
20
39.9676022794971
30
0
41
1
10
51.0698639317325
20
39.9335655780457
30
0
41
1
10
51.0616778502448
20
39.8935310385163
30
0
41
1
10
51.0694981251128
20
39.8116100302729
30
0
41
1
10
51.0809967620604
20
39.771131606261
30
0
41
1
10
51.1219605487876
20
39.6859587710847
30
0
41
1
10
51.1521502997436
20
39.6401563103836
30
0
41
1
10
51.2233194832215
20
39.5534909916949
30
0
41
1
10
51.2641511859127
20
39.5115276163384
30
0
41
1
10
51.3775945028556
20
39.4083593378754
30
0
41
1
10
51.4561452082503
20
39.3490203788507
30
0
41
1
10
51.6775157612207
20
39.1999872593516
30
0
41
1
10
51.8263076926268
20
39.1194569488234
30
0
41
1
10
52.13615419878
20
38.9685790699118
30
0
41
1
10
52.2997532181505
20
38.8996234203165
30
0
41
1
10
52.4606065503224
20
38.8375861493778
30
0
0
SPLINE
5
1A1
100
AcDbEntity
8
1
62
256
6
ByLayer
370
18
48
1
60
0
100
AcDbSpline
70
4
71
3
72
8
73
4
40
0
40
0
40
0
40
0
40
1
40
1
40
1
40
1
41
1
10
54.0734992432912
20
34.439403787962
30
0
41
1
10
54.3197273294192
20
34.7683825908901
30
0
41
1
10
54.5662472684211
20
35.0984632008502
30
0
41
1
10
54.8117619397671
20
35.4279185137635
30
0
0
SPLINE
5
1A2
100
AcDbEntity
8
1
62
256
6
ByLayer
370
18
48
1
60
0
100
AcDbSpline
70
4
71
3
72
8
73
4
40
0
40
0
40
0
40
0
40
1
40
1
40
1
40
1
41
1
10
35.2952644967939
20
37.4499837958484
30
0
41
1
10
33.9923906906106
20
37.8058956425922
30
0
41
1
10
32.7898971832429
20
38.0610005430501
30
0
41
1
10
31.9921092563679
20
38.0868002623629
30
0
0
SPLINE
5
1A3
100
AcDbEntity
8
1
62
256
6
ByLayer
370
18
48
1
60
0
100
AcDbSpline
70
4
71
3
72
12
73
8
40
0
40
0
40
0
40
0
40
0.108854002841678
40
0.502629245107336
40
0.699516866240165
40
0.896404487372995
40
1
40
1
40
1
40
1
41
1.0244126255267
10
45.2031825437582
20
38.0893400360396
30
0
41
1.02394775696077
10
45.5414283391564
20
38.1293593979418
30
0
41
1.02173322391444
10
47.144119588066
20
38.3096071187939
30
0
41
1.01876555595691
10
49.4094449021166
20
38.4997032635466
30
0
41
1.01610930227499
10
50.9345230403335
20
38.5864563762471
30
0
41
1.01814069306376
10
51.6200778607934
20
38.714694713796
30
0
41
1.0200519600697
10
52.2351840193871
20
38.8066634519342
30
0
41
1.02076673234771
10
52.4606065503044
20
38.8375861493754
30
0
0
SPLINE
5
1A4
100
AcDbEntity
8
1
62
256
6
ByLayer
370
18
48
1
60
0
100
AcDbSpline
70
4
71
3
72
12
73
8
40
0
40
0
40
0
40
0
40
0.466938972358615
40
0.466938972358615
40
0.928803236876552
40
0.928803236876552
40
1
40
1
40
1
40
1
41
1
10
36.2327482521549
20
38.1142903544842
30
0
41
1
10
36.1177884247392
20
37.9895354525841
30
0
41
1
10
35.9787464520879
20
37.8681361174761
30
0
41
1
10
35.6850547783421
20
37.6572546054484
30
0
41
1
10
35.5268905795612
20
37.5642039398781
30
0
41
1
10
35.3445234681129
20
37.4734897314579
30
0
41
1
10
35.3199020131661
20
37.4615807203169
30
0
41
1
10
35.2952644967939
20
37.4499837958484
30
0
0
SPLINE
5
1A5
100
AcDbEntity
8
1
62
256
6
ByLayer
370
18
48
1
60
0
100
AcDbSpline
70
4
71
1
72
4
73
2
40
0
40
0
40
1
40
1
41
1
10
40.6958995961384
20
41.8324817888045
30
0
41
1
10
40.1164230506277
20
42.5958526782615
30
0
0
SPLINE
5
1A6
100
AcDbEntity
8
1
62
256
6
ByLayer
370
18
48
1
60
0
100
AcDbSpline
70
4
71
3
72
8
73
4
40
0
40
0
40
0
40
0
40
1
40
1
40
1
40
1
41
1
10
33.2974128475928
20
40.255473980747
30
0
41
1
10
33.997446144841
20
39.9730607687371
30
0
41
1
10
35.0906255805479
20
39.1346913599604
30
0
41
1
10
36.2327482521483
20
38.1142903544786
30
0
0
SPLINE
5
1A7
100
AcDbEntity
8
1
62
256
6
ByLayer
370
18
48
1
60
0
100
AcDbSpline
70
4
71
3
72
8
73
4
40
0
40
0
40
0
40
0
40
1
40
1
40
1
40
1
41
1
10
35.2952644967939
20
37.4499837958484
30
0
41
1
10
35.0637112199809
20
37.3409912407121
30
0
41
1
10
34.8302933376555
20
37.2594829325501
30
0
41
1
10
34.5974766397643
20
37.1981419194766
30
0
0
SPLINE
5
1A8
100
AcDbEntity
8
1
62
256
6
ByLayer
370
18
48
1
60
0
100
AcDbSpline
70
4
71
3
72
11
73
7
40
0
40
0
40
0
40
0
40
0.423407924946042
40
0.740963868655573
40
0.899741840510339
40
1
40
1
40
1
40
1
41
1.02805999725224
10
40.6958995961384
20
41.8324817888045
30
0
41
1.02767136955277
10
41.5557710034512
20
41.9134855805526
30
0
41
1.02349884684923
10
44.7709208128354
20
41.4004171389511
30
0
41
1.01876555595691
10
48.8521222610653
20
40.3212809962704
30
0
41
1.01635405201144
10
50.394100826367
20
39.9018789921052
30
0
41
1.01722454828215
10
50.8840865705074
20
39.9428930208114
30
0
41
1.0177432798788
10
51.0858079203132
20
39.9676022794868
30
0
0
SPLINE
5
1A9
100
AcDbEntity
8
1
62
256
6
ByLayer
370
18
48
1
60
0
100
AcDbSpline
70
4
71
3
72
8
73
4
40
0
40
0
40
0
40
0
40
1
40
1
40
1
40
1
41
1
10
36.4636111232005
20
32.256134121935
30
0
41
1
10
36.2102146018756
20
32.2442450511769
30
0
41
1
10
35.9675517819689
20
32.2038348340749
30
0
41
1
10
35.7347350840777
20
32.1424938210014
30
0
0
SPLINE
5
1AA
100
AcDbEntity
8
1
62
256
6
ByLayer
370
18
48
1
60
0
100
AcDbSpline
70
4
71
3
72
11
73
7
40
0
40
0
40
0
40
0
40
0.423407924939466
40
0.740963868644065
40
0.899741840496364
40
1
40
1
40
1
40
1
41
1.02805999725225
10
43.3542610504303
20
30.0148161573442
30
0
41
1.02767136955277
10
44.1668753237597
20
30.3059001124118
30
0
41
1.02349884684923
10
46.8411360895067
20
32.1973375936568
30
0
41
1.01876555595691
10
50.0807292362795
20
34.8595457601277
30
0
41
1.01635405201137
10
51.3085520157343
20
35.8367138226647
30
0
41
1.01722454828226
10
51.7784878573609
20
35.9668590880909
30
0
41
1.01774327987904
10
51.9757531888277
20
36.0113774419982
30
0
0
SPLINE
5
1AB
100
AcDbEntity
8
1
62
256
6
ByLayer
370
18
48
1
60
0
100
AcDbSpline
70
4
71
3
72
8
73
4
40
0
40
0
40
0
40
0
40
1
40
1
40
1
40
1
41
1
10
50.2639038895306
20
42.2647533791916
30
0
41
1
10
50.3703797317365
20
42.266254082473
30
0
41
1
10
50.4771974934962
20
42.2652470125125
30
0
41
1
10
50.5842232885852
20
42.2619486947775
30
0
0
SPLINE
5
1AC
100
AcDbEntity
8
1
62
256
6
ByLayer
370
18
48
1
60
0
100
AcDbSpline
70
4
71
3
72
12
73
8
40
0
40
0
40
0
40
0
40
0.286978363858297
40
0.286978363858297
40
0.569998995185619
40
0.569998995185619
40
1
40
1
40
1
40
1
41
1
10
45.2031826926009
20
38.0893400536501
30
0
41
1
10
45.316283870659
20
37.8843009422158
30
0
41
1
10
45.4129785892828
20
37.6692914814515
30
0
41
1
10
45.5685874558596
20
37.2315645288131
30
0
41
1
10
45.6285392296729
20
37.0074917979691
30
0
41
1
10
45.732611993134
20
36.4392385352519
30
0
41
1
10
45.7533293584298
20
36.0878626854529
30
0
41
1
10
45.7308720774669
20
35.743512815771
30
0
0
SPLINE
5
1AD
100
AcDbEntity
8
1
62
256
6
ByLayer
370
18
48
1
60
0
100
AcDbSpline
70
4
71
3
72
10
73
6
40
0
40
0
40
0
40
0
40
0.5
40
0.5
40
1
40
1
40
1
40
1
41
1
10
40.1164230506277
20
42.5958526782615
30
0
41
1
10
41.4236827589228
20
42.8616310716751
30
0
41
1
10
42.7389989406765
20
42.9166539053983
30
0
41
1
10
45.3753612187104
20
42.8768062790683
30
0
41
1
10
46.7052787614314
20
42.732560234436
30
0
41
1
10
48.011912585594
20
42.484656282991
30
0
0
SPLINE
5
1AE
100
AcDbEntity
8
1
62
256
6
ByLayer
370
18
48
1
60
0
100
AcDbSpline
70
4
71
3
72
8
73
4
40
0
40
0
40
0
40
0
40
1
40
1
40
1
40
1
41
1
10
36.37027634741
20
38.2769686765659
30
0
41
1
10
36.8948471788613
20
38.954918559585
30
0
41
1
10
37.666290465015
20
39.4295696507413
30
0
41
1
10
38.5706901413324
20
39.6223449302858
30
0
0
SPLINE
5
1AF
100
AcDbEntity
8
1
62
256
6
ByLayer
370
18
48
1
60
0
100
AcDbSpline
70
4
71
2
72
6
73
3
40
0
40
0
40
0
40
1
40
1
40
1
41
1.02805999725224
10
43.3542610504303
20
30.0148161573442
30
0
41
1.02805999725224
10
43.3095425031008
20
29.3072738059352
30
0
41
1.02805999725224
10
43.2648239557713
20
28.5997314545263
30
0
0
SPLINE
5
1B0
100
AcDbEntity
8
1
62
256
6
ByLayer
370
18
48
1
60
0
100
AcDbSpline
70
4
71
3
72
12
73
8
40
0
40
0
40
0
40
0
40
0.108853988607132
40
0.502629237162306
40
0.699516861439892
40
0.896404485717479
40
1
40
1
40
1
40
1
41
1.02441262532206
10
45.7308720774669
20
35.7435128157711
30
0
41
1.02394775682001
10
46.0570465691095
20
35.8371945783191
30
0
41
1.02173322384668
10
47.5998546413519
20
36.2836509244516
30
0
41
1.01876555595691
10
49.7639587666272
20
36.9237225760055
30
0
41
1.01610930227499
10
51.210149756533
20
37.3611661261615
30
0
41
1.01814069306376
10
51.8998015108546
20
37.4711916678545
30
0
41
1.02005196006971
10
52.5100866031525
20
37.5845923107565
30
0
41
1.02076673234773
10
52.7327338492562
20
37.6278524531067
30
0
0
SPLINE
5
1B1
100
AcDbEntity
8
1
62
256
6
ByLayer
370
18
48
1
60
0
100
AcDbSpline
70
4
71
3
72
8
73
4
40
0
40
0
40
0
40
0
40
1
40
1
40
1
40
1
41
1.02417048357497
10
52.4724344669351
20
41.5565499566403
30
0
41
1.02233815524058
10
51.8043422721986
20
41.8438452122935
30
0
41
1.02059845272928
10
51.1305456289354
20
42.0851652847446
30
0
41
1.01923193651505
10
50.5842736975179
20
42.2619323831127
30
0
0
SPLINE
5
1B2
100
AcDbEntity
8
1
62
256
6
ByLayer
370
18
48
1
60
0
100
AcDbSpline
70
4
71
3
72
8
73
4
40
0
40
0
40
0
40
0
40
1
40
1
40
1
40
1
41
1
10
33.8320741015643
20
29.9072920622767
30
0
41
1
10
34.4942041076033
20
30.4518347407881
30
0
41
1
10
35.4516331311834
20
31.3238276633594
30
0
41
1
10
36.4636111232005
20
32.256134121935
30
0
0
SPLINE
5
1B3
100
AcDbEntity
8
1
62
256
6
ByLayer
370
18
48
1
60
0
100
AcDbSpline
70
4
71
3
72
8
73
4
40
0
40
0
40
0
40
0
40
1
40
1
40
1
40
1
41
1
10
52.6608508668697
20
33.0303634558521
30
0
41
1
10
52.5626206217103
20
32.9945614217648
30
0
41
1
10
52.4635887318809
20
32.9609566329824
30
0
41
1
10
52.3637858098333
20
32.9297916644778
30
0
0
SPLINE
5
1B4
100
AcDbEntity
8
1
62
256
6
ByLayer
370
18
48
1
60
0
100
AcDbSpline
70
4
71
3
72
8
73
4
40
0
40
0
40
0
40
0
40
1
40
1
40
1
40
1
41
1
10
31.8431855073798
20
38.0255043477138
30
0
41
1
10
31.8380414112525
20
38.0483722718295
30
0
41
1
10
31.833415360489
20
38.0712435014275
30
0
41
1
10
31.8292833877379
20
38.0941180908154
30
0
0
SPLINE
5
1B5
100
AcDbEntity
8
1
62
256
6
ByLayer
370
18
48
1
60
0
100
AcDbSpline
70
4
71
3
72
8
73
4
40
0
40
0
40
0
40
0
40
1
40
1
40
1
40
1
41
1
10
36.3702763474101
20
38.276968676566
30
0
41
1
10
36.3273891261398
20
38.2215416781514
30
0
41
1
10
36.281568310124
20
38.1672700925337
30
0
41
1
10
36.2327482521549
20
38.1142903544842
30
0
0
SPLINE
5
1B6
100
AcDbEntity
8
1
62
256
6
ByLayer
370
18
48
1
60
0
100
AcDbSpline
70
4
71
3
72
10
73
6
40
0
40
0
40
0
40
0
40
0.5
40
0.5
40
1
40
1
40
1
40
1
41
1
10
50.3900679149596
20
31.9126385249307
30
0
41
1
10
49.3145352090477
20
31.1594557899947
30
0
41
1
10
48.1848787768377
20
30.4952977505298
30
0
41
1
10
45.796568221255
20
29.3791618180444
30
0
41
1
10
44.5626911134078
20
28.8892047824176
30
0
41
1
10
43.2648239557714
20
28.5997314545263
30
0
0
SPLINE
5
1B7
100
AcDbEntity
8
1
62
256
6
ByLayer
370
18
48
1
60
0
100
AcDbSpline
70
4
71
3
72
10
73
6
40
0
40
0
40
0
40
0
40
0.655488757716273
40
0.655488757716273
40
1
40
1
40
1
40
1
41
1
10
36.0898397606562
20
26.8802066836266
30
0
41
1
10
35.7382472291329
20
26.7714906204589
30
0
41
1
10
35.3342721985326
20
26.6904716589945
30
0
41
1
10
34.6751199591147
20
26.6837967274825
30
0
41
1
10
34.4376579321134
20
26.7030262788238
30
0
41
1
10
34.2002245477304
20
26.7505763992688
30
0
0
SPLINE
5
1B8
100
AcDbEntity
8
1
62
256
6
ByLayer
370
18
48
1
60
0
100
AcDbSpline
70
4
71
3
72
8
73
4
40
0
40
0
40
0
40
0
40
1
40
1
40
1
40
1
41
1
10
50.3900679149598
20
31.9126385249309
30
0
41
1
10
51.0548839869052
20
32.3782012963324
30
0
41
1
10
51.7438133384991
20
32.7361959044899
30
0
41
1
10
52.3637858098334
20
32.9297916644779
30
0
0
SPLINE
5
1B9
100
AcDbEntity
8
1
62
256
6
ByLayer
370
18
48
1
60
0
100
AcDbSpline
70
4
71
3
72
8
73
4
40
0
40
0
40
0
40
0
40
1
40
1
40
1
40
1
41
1
10
55.5526804342366
20
36.4871685246037
30
0
41
1
10
55.6093568360123
20
36.5411111742773
30
0
41
1
10
55.6651411109914
20
36.6004251522605
30
0
41
1
10
55.7189391550111
20
36.6642115588407
30
0
0
SPLINE
5
1BA
100
AcDbEntity
8
1
62
256
6
ByLayer
370
18
48
1
60
0
100
AcDbSpline
70
4
71
3
72
20
73
16
40
0
40
0
40
0
40
0
40
0.332873226652389
40
0.332873226652389
40
0.501657261698204
40
0.501657261698204
40
0.631212321676502
40
0.631212321676502
40
0.722542323637658
40
0.722542323637658
40
0.814765347404181
40
0.814765347404181
40
0.896421359038791
40
0.896421359038791
40
1
40
1
40
1
40
1
41
1
10
52.7327338492665
20
37.6278524531087
30
0
41
1
10
52.580110900342
20
37.4920266592683
30
0
41
1
10
52.4279083822629
20
37.3429640708419
30
0
41
1
10
52.2126093897484
20
37.0837661574259
30
0
41
1
10
52.1418339177047
20
36.9893731111026
30
0
41
1
10
52.0296430478258
20
36.8083274369042
30
0
41
1
10
51.98444078916
20
36.7233836977371
30
0
41
1
10
51.9240611171335
20
36.5737583178911
30
0
41
1
10
51.9036262266109
20
36.5091667589717
30
0
41
1
10
51.8780714356509
20
36.3839267100061
30
0
41
1
10
51.8729509615553
20
36.3216794767378
30
0
41
1
10
51.8791446135504
20
36.2173802222074
30
0
41
1
10
51.8885874482028
20
36.1725640012626
30
0
41
1
10
51.9206076386383
20
36.0848522213007
30
0
41
1
10
51.9462056011132
20
36.0443282752656
30
0
41
1
10
51.9757531888273
20
36.011377441998
30
0
0
SPLINE
5
1BB
100
AcDbEntity
8
1
62
256
6
ByLayer
370
18
48
1
60
0
100
AcDbSpline
70
4
71
3
72
10
73
6
40
0
40
0
40
0
40
0
40
0.5
40
0.5
40
1
40
1
40
1
40
1
41
1
10
31.8292833877379
20
38.0941180908154
30
0
41
1
10
31.6999647825432
20
38.8100255210464
30
0
41
1
10
31.7620487307368
20
39.4644489369731
30
0
41
1
10
32.0498508917063
20
40.3433196461303
30
0
41
1
10
32.2309289128541
20
40.6101878273664
30
0
41
1
10
32.5756671463447
20
40.8382861421513
30
0
0
SPLINE
5
1BC
100
AcDbEntity
8
1
62
256
6
ByLayer
370
18
48
1
60
0
100
AcDbSpline
70
4
71
3
72
8
73
4
40
0
40
0
40
0
40
0
40
1
40
1
40
1
40
1
41
1
10
37.5953179647267
20
32.0570278113968
30
0
41
1
10
37.0124648926162
20
30.5875026189615
30
0
41
1
10
36.4179553333178
20
29.2166732318516
30
0
41
1
10
35.9557743018847
20
28.4378083492867
30
0
0
SPLINE
5
1BD
100
AcDbEntity
8
1
62
256
6
ByLayer
370
18
48
1
60
0
100
AcDbSpline
70
4
71
2
72
6
73
3
40
0
40
0
40
0
40
1
40
1
40
1
41
1.02805999725224
10
40.6958995961384
20
41.8324817888045
30
0
41
0.93055444607248
10
41.0027651442139
20
41.4282338029405
30
0
41
0.937301687719828
10
41.4144301598867
20
40.1446890037037
30
0
0
SPLINE
5
1BE
100
AcDbEntity
8
1
62
256
6
ByLayer
370
18
48
1
60
0
100
AcDbSpline
70
4
71
3
72
15
73
11
40
0
40
0
40
0
40
0
40
0.227604479949749
40
0.227604479949749
40
0.479423709218442
40
0.479423709218442
40
0.78557427038284
40
0.78557427038284
40
0.78557427038284
40
1
40
1
40
1
40
1
41
1
10
45.7308720774669
20
35.743512815771
30
0
41
1
10
45.7087896912939
20
35.4051447657076
30
0
41
1
10
45.6354071958767
20
35.062774852261
30
0
41
1
10
45.3925896687006
20
34.3818581257915
30
0
41
1
10
45.2117820005646
20
34.0393432996329
30
0
41
1
10
44.7270073494186
20
33.3528437473873
30
0
41
1
10
44.3982494584119
20
33.0143317311487
30
0
41
1
10
44.0300496270693
20
32.7378572831833
30
0
41
1
10
43.7705765773852
20
32.5430237659823
30
0
41
1
10
43.4878159840733
20
32.3763323184864
30
0
41
1
10
43.1916274482483
20
32.2442120835753
30
0
0
SPLINE
5
1BF
100
AcDbEntity
8
1
62
256
6
ByLayer
370
18
48
1
60
0
100
AcDbSpline
70
4
71
3
72
8
73
4
40
0
40
0
40
0
40
0
40
1
40
1
40
1
40
1
41
1
10
37.5953179647267
20
32.0570278113968
30
0
41
1
10
37.6625586963107
20
32.0263768841861
30
0
41
1
10
37.7282699544081
20
31.9928650020506
30
0
41
1
10
37.7920023423451
20
31.9567286653468
30
0
0
SPLINE
5
1C0
100
AcDbEntity
8
1
62
256
6
ByLayer
370
18
48
1
60
0
100
AcDbSpline
70
4
71
3
72
15
73
11
40
0
40
0
40
0
40
0
40
0.322163720426457
40
0.322163720426457
40
0.644833452600231
40
0.644833452600231
40
0.912233455904558
40
0.912233455904558
40
0.912233455904558
40
1
40
1
40
1
40
1
41
1
10
41.4144301598877
20
40.1446890037006
30
0
41
1
10
41.8988198650017
20
40.1541443417324
30
0
41
1
10
42.3914780923577
20
40.0799154844211
30
0
41
1
10
43.3134808507887
20
39.7901451183118
30
0
41
1
10
43.7560410916594
20
39.5701811385715
30
0
41
1
10
44.4647805798525
20
39.0471359626424
30
0
41
1
10
44.7560883109276
20
38.7574391416601
30
0
41
1
10
44.989335485757
20
38.4293948220323
30
0
41
1
10
45.0668490792647
20
38.3203778786856
30
0
41
1
10
45.1384731182289
20
38.2066360931359
30
0
41
1
10
45.2031826926018
20
38.08934005365
30
0
0
SPLINE
5
1C1
100
AcDbEntity
8
1
62
256
6
ByLayer
370
18
48
1
60
0
100
AcDbSpline
70
4
71
3
72
10
73
6
40
0
40
0
40
0
40
0
40
0.967465556419482
40
0.967465556419482
40
1
40
1
40
1
40
1
41
1
10
52.4606065503224
20
38.8375861493778
30
0
41
1
10
52.8524011913447
20
38.686403530519
30
0
41
1
10
53.2416969873488
20
38.5448940468234
30
0
41
1
10
53.6378245702187
20
38.4142138697026
30
0
41
1
10
53.6507167404721
20
38.409976207272
30
0
41
1
10
53.6636017735436
20
38.4057565842081
30
0
0
SPLINE
5
1C2
100
AcDbEntity
8
1
62
256
6
ByLayer
370
18
48
1
60
0
100
AcDbSpline
70
4
71
3
72
8
73
4
40
0
40
0
40
0
40
0
40
1
40
1
40
1
40
1
41
1
10
41.4144301446418
20
40.1446890033734
30
0
41
1
10
41.1247502277132
20
40.1384718571009
30
0
41
1
10
40.8403416704637
20
40.1061273988715
30
0
41
1
10
40.5616205334368
20
40.0467172215878
30
0
0
SPLINE
5
1C3
100
AcDbEntity
8
1
62
256
6
ByLayer
370
18
48
1
60
0
100
AcDbSpline
70
4
71
3
72
12
73
8
40
0
40
0
40
0
40
0
40
0.471343086678518
40
0.471343086678518
40
0.892619726108225
40
0.892619726108225
40
1
40
1
40
1
40
1
41
1
10
36.4636111232005
20
32.256134121935
30
0
41
1
10
36.6400355086173
20
32.2644117493891
30
0
41
1
10
36.8245061180915
20
32.2571345040424
30
0
41
1
10
37.1678296046854
20
32.2047017883041
30
0
41
1
10
37.3308649450237
20
32.162730916113
30
0
41
1
10
37.5199441215359
20
32.0900033225279
30
0
41
1
10
37.5580917082021
20
32.0739969795211
30
0
41
1
10
37.5953179647267
20
32.0570278113968
30
0
0
SPLINE
5
1C4
100
AcDbEntity
8
1
62
256
6
ByLayer
370
18
48
1
60
0
100
AcDbSpline
70
4
71
2
72
6
73
3
40
0
40
0
40
0
40
1
40
1
40
1
41
0.937301687603847
10
43.1916274518325
20
32.2442120583139
30
0
41
0.930554446910518
10
43.4016230412181
20
30.7641833960087
30
0
41
1.02805999725225
10
43.3542610504303
20
30.0148161573442
30
0
0
SPLINE
5
1C5
100
AcDbEntity
8
1
62
256
6
ByLayer
370
18
48
1
60
0
100
AcDbSpline
70
4
71
3
72
8
73
4
40
0
40
0
40
0
40
0
40
1
40
1
40
1
40
1
41
1.01923193622652
10
52.6608895712397
20
33.030398700251
30
0
41
1.02059843499303
10
53.0812792547866
20
33.4132086414247
30
0
41
1.02233811057541
10
53.5898084430624
20
33.9065386524504
30
0
41
1.02417041321379
10
54.0734195960064
20
34.439316042746
30
0
0
SPLINE
5
1C6
100
AcDbEntity
8
1
62
256
6
ByLayer
370
18
48
1
60
0
100
AcDbSpline
70
4
71
3
72
10
73
6
40
0
40
0
40
0
40
0
40
0.264715639145584
40
0.264715639145584
40
1
40
1
40
1
40
1
41
1
10
53.6636017735279
20
38.4057565842133
30
0
41
1
10
53.5809421822656
20
38.341777904284
30
0
41
1
10
53.498405156991
20
38.2763258783718
30
0
41
1
10
53.1871804466717
20
38.0243831005999
30
0
41
1
10
52.9593180531929
20
37.8295913767415
30
0
41
1
10
52.7327338492665
20
37.6278524531087
30
0
0
SPLINE
5
1C7
100
AcDbEntity
8
1
62
256
6
ByLayer
370
18
48
1
60
0
100
AcDbSpline
70
4
71
3
72
10
73
6
40
0
40
0
40
0
40
0
40
0.5
40
0.5
40
1
40
1
40
1
40
1
41
1
10
35.6410582117915
20
27.2111826560431
30
0
41
1
10
35.2089943521568
20
27.3635352899854
30
0
41
1
10
34.907344034257
20
27.6326486286824
30
0
41
1
10
34.2387419403314
20
28.4643776629631
30
0
41
1
10
33.8844143965896
20
29.0987835105647
30
0
41
1
10
33.6970242304325
20
29.7911325319663
30
0
0
SPLINE
5
1C8
100
AcDbEntity
8
1
62
256
6
ByLayer
370
18
48
1
60
0
100
AcDbSpline
70
4
71
3
72
8
73
4
40
0
40
0
40
0
40
0
40
1
40
1
40
1
40
1
41
1
10
40.3859295812942
20
31.5527527731042
30
0
41
1
10
39.4842901653917
20
31.3605658506622
30
0
41
1
10
38.5651703404136
20
31.5183415279563
30
0
41
1
10
37.7920023423451
20
31.9567286653468
30
0
0
SPLINE
5
1C9
100
AcDbEntity
8
1
62
256
6
ByLayer
370
18
48
1
60
0
100
AcDbSpline
70
4
71
3
72
11
73
7
40
0
40
0
40
0
40
0
40
0.564783939443778
40
0.564783939443778
40
0.564783939443778
40
1
40
1
40
1
40
1
41
1
10
50.2639038895306
20
42.2647533791916
30
0
41
1
10
49.8962277512583
20
42.2595712385693
30
0
41
1
10
49.4771145508952
20
42.2688587126287
30
0
41
1
10
49.0448013239241
20
42.3204117082217
30
0
41
1
10
48.7089174273061
20
42.3604655857388
30
0
41
1
10
48.3599761861978
20
42.4186191574029
30
0
41
1
10
48.0119125855944
20
42.4846562829909
30
0
0
SPLINE
5
1CA
100
AcDbEntity
8
1
62
256
6
ByLayer
370
18
48
1
60
0
100
AcDbSpline
70
4
71
3
72
8
73
4
40
0
40
0
40
0
40
0
40
1
40
1
40
1
40
1
41
1
10
43.1916274404924
20
32.2442120801116
30
0
41
1
10
42.9323305428469
20
32.1284136903398
30
0
41
1
10
42.6572409751545
20
32.036889046424
30
0
41
1
10
42.3768599733986
20
31.9771250644061
30
0
0
SPLINE
5
1CB
100
AcDbEntity
8
1
62
256
6
ByLayer
370
18
48
1
60
0
100
AcDbSpline
70
4
71
3
72
8
73
4
40
0
40
0
40
0
40
0
40
1
40
1
40
1
40
1
41
1
10
52.4725188863595
20
41.5565136540573
30
0
41
1
10
52.8344891928013
20
41.3709639092583
30
0
41
1
10
53.1978134575331
20
41.1817944139176
30
0
41
1
10
53.5605925574059
20
40.9899542484269
30
0
0
SPLINE
5
1CC
100
AcDbEntity
8
1
62
256
6
ByLayer
370
18
48
1
60
0
100
AcDbSpline
70
4
71
3
72
10
73
6
40
0
40
0
40
0
40
0
40
0.5
40
0.5
40
1
40
1
40
1
40
1
41
1
10
51.9757531888273
20
36.011377441998
30
0
41
1
10
52.3292329052658
20
35.6171245571854
30
0
41
1
10
52.7118916653824
20
35.2804834361965
30
0
41
1
10
53.65324644041
20
34.954773131778
30
0
41
1
10
54.2241826682056
20
34.9943013936668
30
0
41
1
10
54.8117619397671
20
35.4279185137635
30
0
0
SPLINE
5
1CD
100
AcDbEntity
8
1
62
256
6
ByLayer
370
18
48
1
60
0
100
AcDbSpline
70
4
71
3
72
8
73
4
40
0
40
0
40
0
40
0
40
1
40
1
40
1
40
1
41
1
10
33.68029530204
20
29.8586881886384
30
0
41
1
10
33.6854393981673
20
29.8358202645226
30
0
41
1
10
33.691022412846
20
29.8133074017467
30
0
41
1
10
33.6970242304325
20
29.7911325319663
30
0
0
SPLINE
5
1CE
100
AcDbEntity
8
1
62
256
6
ByLayer
370
18
48
1
60
0
100
AcDbSpline
70
4
71
3
72
10
73
6
40
0
40
0
40
0
40
0
40
0.5
40
0.5
40
1
40
1
40
1
40
1
41
1
10
53.5605925573826
20
40.9899542484341
30
0
41
1
10
52.8369442966313
20
41.2132101813173
30
0
41
1
10
52.2671673743887
20
41.1358753518617
30
0
41
1
10
51.5017977309877
20
40.6979006712631
30
0
41
1
10
51.2648930147261
20
40.3500063386197
30
0
41
1
10
51.0858079203958
20
39.967602279497
30
0
0
INSERT
5
1E0
100
AcDbEntity
8
2
62
256
6
ByLayer
370
25
48
1
60
0
100
AcDbBlockReference
2
DimnDraft3D11
10
0
20
0
30
0
41
1
42
1
43
1
50
0
210
0
220
0
230
1
0
LINE
5
72
100
AcDbEntity
8
80
62
256
6
ByLayer
370
18
48
1
60
0
100
AcDbLine
10
0
20
0
30
0
11
-5
21
0
31
0
39
0
210
0
220
0
230
1
0
LINE
5
73
100
AcDbEntity
8
1
62
256
6
ByLayer
370
18
48
1
60
0
100
AcDbLine
10
19.084378
20
3.16277
30
0
11
19.615363
21
3.116315
31
0
39
0
210
0
220
0
230
1
0
LINE
5
75
100
AcDbEntity
8
1
62
256
6
ByLayer
370
18
48
1
60
0
100
AcDbLine
10
20.554321
20
7.96767
30
0
11
18.202582
21
6.871037
31
0
39
0
210
0
220
0
230
1
0
LINE
5
76
100
AcDbEntity
8
1
62
256
6
ByLayer
370
18
48
1
60
0
100
AcDbLine
10
19.615363
20
3.116315
30
0
11
22.244794
21
4.342439
31
0
39
0
210
0
220
0
230
1
0
LINE
5
77
100
AcDbEntity
8
1
62
256
6
ByLayer
370
18
48
1
60
0
100
AcDbLine
10
40.681047
20
34.656859
30
0
11
40.500656
21
34.481107
31
0
39
0
210
0
220
0
230
1
0
LINE
5
78
100
AcDbEntity
8
1
62
256
6
ByLayer
370
18
48
1
60
0
100
AcDbLine
10
56.64667
20
31.226816
30
0
11
57.144154
21
31.711507
31
0
39
0
210
0
220
0
230
1
0
LINE
5
79
100
AcDbEntity
8
1
62
256
6
ByLayer
370
18
48
1
60
0
100
AcDbLine
10
49.395877
20
43.176141
30
0
11
48.898394
21
42.69145
31
0
39
0
210
0
220
0
230
1
0
LINE
5
7A
100
AcDbEntity
8
1
62
256
6
ByLayer
370
18
48
1
60
0
100
AcDbLine
10
0.3
20
31.5
30
0
11
0
21
31.2
31
0
39
0
210
0
220
0
230
1
0
LINE
5
7B
100
AcDbEntity
8
1
62
256
6
ByLayer
370
18
48
1
60
0
100
AcDbLine
10
0
20
-31.2
30
0
11
0.3
21
-31.5
31
0
39
0
210
0
220
0
230
1
0
LINE
5
7C
100
AcDbEntity
8
1
62
256
6
ByLayer
370
18
48
1
60
0
100
AcDbLine
10
0.3
20
-31.5
30
0
11
17.468416
21
-31.5
31
0
39
0
210
0
220
0
230
1
0
LINE
5
7D
100
AcDbEntity
8
1
62
256
6
ByLayer
370
18
48
1
60
0
100
AcDbLine
10
22.920792
20
31.5
30
0
11
0.3
21
31.5
31
0
39
0
210
0
220
0
230
1
0
LINE
5
7E
100
AcDbEntity
8
1
62
256
6
ByLayer
370
18
48
1
60
0
100
AcDbLine
10
25.499674
20
41.124519
30
0
11
22.920792
21
31.5
31
0
39
0
210
0
220
0
230
1
0
LINE
5
7F
100
AcDbEntity
8
1
62
256
6
ByLayer
370
18
48
1
60
0
100
AcDbLine
10
32.656842
20
40.888706
30
0
11
31.80984
21
40.394539
31
0
39
0
210
0
220
0
230
1
0
LINE
5
80
100
AcDbEntity
8
1
62
256
6
ByLayer
370
18
48
1
60
0
100
AcDbLine
10
22.244794
20
4.342439
30
0
11
22.341532
21
4.608224
31
0
39
0
210
0
220
0
230
1
0
LINE
5
81
100
AcDbEntity
8
1
62
256
6
ByLayer
370
18
48
1
60
0
100
AcDbLine
10
20.820106
20
7.870932
30
0
11
20.554321
21
7.96767
31
0
39
0
210
0
220
0
230
1
0
LINE
5
82
100
AcDbEntity
8
1
62
256
6
ByLayer
370
18
48
1
60
0
100
AcDbLine
10
49.425429
20
42.776012
30
0
11
48.989934
21
42.351715
31
0
39
0
210
0
220
0
230
1
0
LINE
5
83
100
AcDbEntity
8
1
62
256
6
ByLayer
370
18
48
1
60
0
100
AcDbLine
10
57.830527
20
32.809153
30
0
11
58.546452
21
33.506669
31
0
39
0
210
0
220
0
230
1
0
LINE
5
84
100
AcDbEntity
8
1
62
256
6
ByLayer
370
18
48
1
60
0
100
AcDbLine
10
35.072525
20
37.303408
30
0
11
35.573661
21
37.595786
31
0
39
0
210
0
220
0
230
1
0
LINE
5
85
100
AcDbEntity
8
1
62
256
6
ByLayer
370
18
48
1
60
0
100
AcDbLine
10
39.236265
20
35.908022
30
0
11
39.416656
21
36.083774
31
0
39
0
210
0
220
0
230
1
0
LINE
5
86
100
AcDbEntity
8
1
62
256
6
ByLayer
370
18
48
1
60
0
100
AcDbLine
10
41.842636
20
35.715014
30
0
11
41.662246
21
35.539261
31
0
39
0
210
0
220
0
230
1
0
LINE
5
87
100
AcDbEntity
8
1
62
256
6
ByLayer
370
18
48
1
60
0
100
AcDbLine
10
40.397855
20
36.966177
30
0
11
40.578245
21
37.141929
31
0
39
0
210
0
220
0
230
1
0
LINE
5
88
100
AcDbEntity
8
1
62
256
6
ByLayer
370
18
48
1
60
0
100
AcDbLine
10
43.150413
20
32.770744
30
0
11
43.33824
21
32.953742
31
0
39
0
210
0
220
0
230
1
0
LINE
5
89
100
AcDbEntity
8
1
62
256
6
ByLayer
370
18
48
1
60
0
100
AcDbLine
10
37.755534
20
38.683785
30
0
11
37.567707
21
38.500787
31
0
39
0
210
0
220
0
230
1
0
LINE
5
8A
100
AcDbEntity
8
4
62
256
6
ByLayer
370
18
48
0.05
60
0
100
AcDbLine
10
0
20
0
30
0
11
65
21
0
31
0
39
0
210
0
220
0
230
1
0
LINE
5
8C
100
AcDbEntity
8
81
62
256
6
ByLayer
370
18
48
1
60
0
100
AcDbLine
10
65
20
45
30
0
11
75
21
45
31
0
39
0
210
0
220
0
230
1
0
LINE
5
8D
100
AcDbEntity
8
SK4
62
256
6
ByLayer
370
18
48
0.05
60
0
100
AcDbLine
10
-43
20
0
30
0
11
65
21
0
31
0
39
0
210
0
220
0
230
1
0
LINE
5
8F
100
AcDbEntity
8
1
62
256
6
ByLayer
370
18
48
1
60
0
100
AcDbLine
10
18.401349
20
1.785152
30
0
11
19.252165
21
-0.039429
31
0
39
0
210
0
220
0
230
1
0
LINE
5
90
100
AcDbEntity
8
1
62
256
6
ByLayer
370
18
48
1
60
0
100
AcDbLine
10
18.812793
20
2.923804
30
0
11
18.175016
21
4.291521
31
0
39
0
210
0
220
0
230
1
0
LINE
5
91
100
AcDbEntity
8
1
62
256
6
ByLayer
370
18
48
1
60
0
100
AcDbLine
10
19.084378
20
3.16277
30
0
11
18.176207
21
5.110351
31
0
39
0
210
0
220
0
230
1
0
LINE
5
92
100
AcDbEntity
8
1
62
256
6
ByLayer
370
18
48
1
60
0
100
AcDbLine
10
18.770126
20
4.928931
30
0
11
19.615363
21
3.116315
31
0
39
0
210
0
220
0
230
1
0
LINE
5
93
100
AcDbEntity
8
1
62
256
6
ByLayer
370
18
48
1
60
0
100
AcDbLine
10
18.187843
20
6.177642
30
0
11
18.770126
21
4.928931
31
0
39
0
210
0
220
0
230
1
0
LINE
5
94
100
AcDbEntity
8
1
62
256
6
ByLayer
370
18
48
1
60
0
100
AcDbLine
10
20.554321
20
7.96767
30
0
11
22.244794
21
4.342439
31
0
39
0
210
0
220
0
230
1
0
LINE
5
95
100
AcDbEntity
8
1
62
256
6
ByLayer
370
18
48
1
60
0
100
AcDbLine
10
21.580819
20
6.239578
30
0
11
22.341532
21
4.608224
31
0
39
0
210
0
220
0
230
1
0
LINE
5
96
100
AcDbEntity
8
1
62
256
6
ByLayer
370
18
48
1
60
0
100
AcDbLine
10
20.820106
20
7.870932
30
0
11
21.580819
21
6.239578
31
0
39
0
210
0
220
0
230
1
0
LINE
5
97
100
AcDbEntity
8
1
62
256
6
ByLayer
370
18
48
1
60
0
100
AcDbLine
10
38.163892
20
39.385006
30
0
11
39.515897
21
39.671096
31
0
39
0
210
0
220
0
230
1
0
LINE
5
98
100
AcDbEntity
8
1
62
256
6
ByLayer
370
18
48
1
60
0
100
AcDbLine
10
40.420475
20
34.369582
30
0
11
40.598301
21
34.542836
31
0
39
0
210
0
220
0
230
1
0
LINE
5
99
100
AcDbEntity
8
1
62
256
6
ByLayer
370
18
48
1
60
0
100
AcDbLine
10
43.150413
20
32.770744
30
0
11
43.15049
21
32.770819
31
0
39
0
210
0
220
0
230
1
0
LINE
5
9A
100
AcDbEntity
8
1
62
256
6
ByLayer
370
18
48
1
60
0
100
AcDbLine
10
49.897413
20
31.6027
30
0
11
55.646505
21
31.903997
31
0
39
0
210
0
220
0
230
1
0
LINE
5
9B
100
AcDbEntity
8
1
62
256
6
ByLayer
370
18
48
1
60
0
100
AcDbLine
10
49.245218
20
42.550322
30
0
11
49.10165
21
42.315795
31
0
39
0
210
0
220
0
230
1
0
LINE
5
9C
100
AcDbEntity
8
1
62
256
6
ByLayer
370
18
48
1
60
0
100
AcDbLine
10
55.597911
20
31.856653
30
0
11
55.646505
21
31.903997
31
0
39
0
210
0
220
0
230
1
0
LINE
5
9D
100
AcDbEntity
8
1
62
256
6
ByLayer
370
18
48
1
60
0
100
AcDbLine
10
49.245218
20
42.550322
30
0
11
49.044289
21
42.35456
31
0
39
0
210
0
220
0
230
1
0
LINE
5
9E
100
AcDbEntity
8
1
62
256
6
ByLayer
370
18
48
1
60
0
100
AcDbLine
10
56.183128
20
32.066147
30
0
11
55.994784
21
31.882646
31
0
39
0
210
0
220
0
230
1
0
LINE
5
9F
100
AcDbEntity
8
1
62
256
6
ByLayer
370
18
48
1
60
0
100
AcDbLine
10
57.612708
20
32.642189
30
0
11
56.231741
21
31.822456
31
0
39
0
210
0
220
0
230
1
0
LINE
5
A0
100
AcDbEntity
8
1
62
256
6
ByLayer
370
18
48
1
60
0
100
AcDbLine
10
45.474727
20
27.515243
30
0
11
46.952241
21
29.92886
31
0
39
0
210
0
220
0
230
1
0
LINE
5
A1
100
AcDbEntity
8
1
62
256
6
ByLayer
370
18
48
1
60
0
100
AcDbLine
10
56.13063
20
31.269373
30
0
11
55.885194
21
31.25651
31
0
39
0
210
0
220
0
230
1
0
LINE
5
A2
100
AcDbEntity
8
1
62
256
6
ByLayer
370
18
48
1
60
0
100
AcDbLine
10
48.833823
20
42.350276
30
0
11
49.15378
21
42.872948
31
0
39
0
210
0
220
0
230
1
0
LINE
5
A3
100
AcDbEntity
8
1
62
256
6
ByLayer
370
18
48
1
60
0
100
AcDbLine
10
50.409401
20
43.618276
30
0
11
50.816904
21
43.639632
31
0
39
0
210
0
220
0
230
1
0
LINE
5
A4
100
AcDbEntity
8
1
62
256
6
ByLayer
370
18
48
1
60
0
100
AcDbLine
10
57.934815
20
32.910818
30
0
11
57.38625
21
32.014701
31
0
39
0
210
0
220
0
230
1
0
LINE
5
A5
100
AcDbEntity
8
1
62
256
6
ByLayer
370
18
48
1
60
0
100
AcDbLine
10
55.633147
20
30.784682
30
0
11
55.595235
21
30.782695
31
0
39
0
210
0
220
0
230
1
0
LINE
5
A6
100
AcDbEntity
8
1
62
256
6
ByLayer
370
18
48
1
60
0
100
AcDbLine
10
48.622076
20
42.332354
30
0
11
48.656297
21
42.388256
31
0
39
0
210
0
220
0
230
1
0
LINE
5
A7
100
AcDbEntity
8
1
62
256
6
ByLayer
370
18
48
1
60
0
100
AcDbLine
10
0.3
20
-31.5
30
0
11
0.3
21
31.5
31
0
39
0
210
0
220
0
230
1
0
LINE
5
A8
100
AcDbEntity
8
1
62
256
6
ByLayer
370
18
48
1
60
0
100
AcDbLine
10
0
20
-31.2
30
0
11
0
21
31.2
31
0
39
0
210
0
220
0
230
1
0
LINE
5
A9
100
AcDbEntity
8
1
62
256
6
ByLayer
370
18
48
1
60
0
100
AcDbLine
10
19.519149
20
-28.149992
30
0
11
17.468416
21
-31.5
31
0
39
0
210
0
220
0
230
1
0
LINE
5
AA
100
AcDbEntity
8
1
62
256
6
ByLayer
370
18
48
1
60
0
100
AcDbLine
10
22.920792
20
31.5
30
0
11
22.920792
21
30.899614
31
0
39
0
210
0
220
0
230
1
0
LINE
5
AB
100
AcDbEntity
8
1
62
256
6
ByLayer
370
18
48
1
60
0
100
AcDbLine
10
19.31233
20
-0.168453
30
0
11
19.252165
21
-0.039428
31
0
39
0
210
0
220
0
230
1
0
LINE
5
AC
100
AcDbEntity
8
1
62
256
6
ByLayer
370
18
48
1
60
0
100
AcDbLine
10
19.31233
20
-0.168453
30
0
11
19.31233
21
3.142747
31
0
39
0
210
0
220
0
230
1
0
LINE
5
AD
100
AcDbEntity
8
1
62
256
6
ByLayer
370
18
48
1
60
0
100
AcDbLine
10
19.911507
20
29.985012
30
0
11
19.911507
21
7.667434
31
0
39
0
210
0
220
0
230
1
0
LINE
5
AE
100
AcDbEntity
8
1
62
256
6
ByLayer
370
18
48
1
60
0
100
AcDbLine
10
19.911507
20
3.253867
30
0
11
19.911507
21
-27.509049
31
0
39
0
210
0
220
0
230
1
0
LINE
5
AF
100
AcDbEntity
8
SK1
62
256
6
ByLayer
370
18
48
1
60
0
100
AcDbLine
10
-0.2
20
7.059518
30
0
11
-0.2
21
22.533485
31
0
39
0
210
0
220
0
230
1
0
LINE
5
B1
100
AcDbEntity
8
SK1
62
256
6
ByLayer
370
18
48
1
60
0
100
AcDbLine
10
-0.2
20
-22.533485
30
0
11
-0.2
21
-7.059517
31
0
39
0
210
0
220
0
230
1
0
LINE
5
B2
100
AcDbEntity
8
1
62
256
6
ByLayer
370
18
48
1
60
0
100
AcDbLine
10
46.586186
20
28.454139
30
0
11
47.718134
21
30.30325
31
0
39
0
210
0
220
0
230
1
0
LINE
5
B3
100
AcDbEntity
8
1
62
256
6
ByLayer
370
18
48
1
60
0
100
AcDbLine
10
49.590652
20
31.409615
30
0
11
56.20911
21
31.785489
31
0
39
0
210
0
220
0
230
1
0
LINE
5
B4
100
AcDbEntity
8
1
62
256
6
ByLayer
370
18
48
1
60
0
100
AcDbLine
10
37.653025
20
27.367505
30
0
11
38.053232
21
25.588396
31
0
39
0
210
0
220
0
230
1
0
LINE
5
B5
100
AcDbEntity
8
1
62
256
6
ByLayer
370
18
48
1
60
0
100
AcDbLine
10
34.453723
20
41.589902
30
0
11
34.496535
21
41.399585
31
0
39
0
210
0
220
0
230
1
0
LINE
5
B6
100
AcDbEntity
8
1
62
256
6
ByLayer
370
18
48
1
60
0
100
AcDbLine
10
48.926867
20
42.348408
30
0
11
48.868523
21
42.34535
31
0
39
0
210
0
220
0
230
1
0
LINE
5
B7
100
AcDbEntity
8
1
62
256
6
ByLayer
370
18
48
1
60
0
100
AcDbLine
10
35.704746
20
41.655466
30
0
11
34.453723
21
41.589902
31
0
39
0
210
0
220
0
230
1
0
LINE
5
B8
100
AcDbEntity
8
1
62
256
6
ByLayer
370
18
48
1
60
0
100
AcDbLine
10
32.944164
20
26.861912
30
0
11
32.745752
21
27.743946
31
0
39
0
210
0
220
0
230
1
0
LINE
5
B9
100
AcDbEntity
8
1
62
256
6
ByLayer
370
18
48
1
60
0
100
AcDbLine
10
30.328864
20
38.488148
30
0
11
30.175827
21
39.16847
31
0
39
0
210
0
220
0
230
1
0
LINE
5
BA
100
AcDbEntity
8
1
62
256
6
ByLayer
370
18
48
1
60
0
100
AcDbLine
10
46.04814
20
27.847513
30
0
11
46.586186
21
28.454139
31
0
39
0
210
0
220
0
230
1
0
LINE
5
BB
100
AcDbEntity
8
1
62
256
6
ByLayer
370
18
48
1
60
0
100
AcDbLine
10
49.106915
20
42.357844
30
0
11
49.082193
21
42.317459
31
0
39
0
210
0
220
0
230
1
0
LINE
5
BC
100
AcDbEntity
8
1
62
256
6
ByLayer
370
18
48
1
60
0
100
AcDbLine
10
45.732073
20
27.637401
30
0
11
47.207378
21
30.047408
31
0
39
0
210
0
220
0
230
1
0
LINE
5
BD
100
AcDbEntity
8
1
62
256
6
ByLayer
370
18
48
1
60
0
100
AcDbLine
10
49.781639
20
31.529799
30
0
11
54.357678
21
31.789681
31
0
39
0
210
0
220
0
230
1
0
LINE
5
BE
100
AcDbEntity
8
1
62
256
6
ByLayer
370
18
48
1
60
0
100
AcDbLine
10
55.713432
20
31.866677
30
0
11
56.278452
21
31.898765
31
0
39
0
210
0
220
0
230
1
0
LINE
5
BF
100
AcDbEntity
8
1
62
256
6
ByLayer
370
18
48
1
60
0
100
AcDbLine
10
44.803487
20
13.15365
30
0
11
23.896286
21
-20.999649
31
0
39
0
210
0
220
0
230
1
0
LINE
5
C0
100
AcDbEntity
8
1
62
256
6
ByLayer
370
18
48
1
60
0
100
AcDbLine
10
10.538675
20
9.349221
30
0
11
13.461325
21
9.349221
31
0
39
0
210
0
220
0
230
1
0
LINE
5
C1
100
AcDbEntity
8
1
62
256
6
ByLayer
370
18
48
1
60
0
100
AcDbLine
10
13.894338
20
-29.913955
30
0
11
13.894338
21
-9.869413
31
0
39
0
210
0
220
0
230
1
0
LINE
5
C2
100
AcDbEntity
8
1
62
256
6
ByLayer
370
18
48
1
60
0
100
AcDbLine
10
10.538675
20
-30.080593
30
0
11
10.538675
21
-9.349221
31
0
39
0
210
0
220
0
230
1
0
LINE
5
C3
100
AcDbEntity
8
1
62
256
6
ByLayer
370
18
48
1
60
0
100
AcDbLine
10
10.105662
20
-29.913955
30
0
11
10.105662
21
-9.869413
31
0
39
0
210
0
220
0
230
1
0
LINE
5
C4
100
AcDbEntity
8
1
62
256
6
ByLayer
370
18
48
1
60
0
100
AcDbLine
10
13.461325
20
9.349221
30
0
11
13.461325
21
30.080593
31
0
39
0
210
0
220
0
230
1
0
LINE
5
C5
100
AcDbEntity
8
1
62
256
6
ByLayer
370
18
48
1
60
0
100
AcDbLine
10
18.174977
20
4.651408
30
0
11
18.174977
21
2.270608
31
0
39
0
210
0
220
0
230
1
0
LINE
5
C6
100
AcDbEntity
8
1
62
256
6
ByLayer
370
18
48
1
60
0
100
AcDbLine
10
23.896286
20
34.624573
30
0
11
23.896286
21
-20.999649
31
0
39
0
210
0
220
0
230
1
0
LINE
5
C7
100
AcDbEntity
8
1
62
256
6
ByLayer
370
18
48
1
60
0
100
AcDbLine
10
10.538675
20
9.349221
30
0
11
10.538675
21
30.080593
31
0
39
0
210
0
220
0
230
1
0
LINE
5
C8
100
AcDbEntity
8
1
62
256
6
ByLayer
370
18
48
1
60
0
100
AcDbLine
10
43.352266
20
27.705248
30
0
11
43.097522
21
27.863276
31
0
39
0
210
0
220
0
230
1
0
LINE
5
C9
100
AcDbEntity
8
1
62
256
6
ByLayer
370
18
48
1
60
0
100
AcDbLine
10
18.401348
20
1.785155
30
0
11
18.174977
21
2.270608
31
0
39
0
210
0
220
0
230
1
0
LINE
5
CA
100
AcDbEntity
8
1
62
256
6
ByLayer
370
18
48
1
60
0
100
AcDbLine
10
23.896286
20
-20.999649
30
0
11
19.911507
21
-27.509049
31
0
39
0
210
0
220
0
230
1
0
LINE
5
CB
100
AcDbEntity
8
1
62
256
6
ByLayer
370
18
48
1
60
0
100
AcDbLine
10
10.538675
20
-30.080593
30
0
11
13.461325
21
-30.080593
31
0
39
0
210
0
220
0
230
1
0
LINE
5
CC
100
AcDbEntity
8
1
62
256
6
ByLayer
370
18
48
1
60
0
100
AcDbLine
10
10.105662
20
9.869413
30
0
11
10.105662
21
29.913955
31
0
39
0
210
0
220
0
230
1
0
LINE
5
CD
100
AcDbEntity
8
1
62
256
6
ByLayer
370
18
48
1
60
0
100
AcDbLine
10
26.75018
20
31.683414
30
0
11
28.389772
21
26.077255
31
0
39
0
210
0
220
0
230
1
0
LINE
5
CE
100
AcDbEntity
8
1
62
256
6
ByLayer
370
18
48
1
60
0
100
AcDbLine
10
38.053232
20
25.588396
30
0
11
37.353776
21
25.383832
31
0
39
0
210
0
220
0
230
1
0
LINE
5
CF
100
AcDbEntity
8
1
62
256
6
ByLayer
370
18
48
1
60
0
100
AcDbLine
10
44.803487
20
13.15365
30
0
11
56.20911
21
31.785489
31
0
39
0
210
0
220
0
230
1
0
LINE
5
D0
100
AcDbEntity
8
1
62
256
6
ByLayer
370
18
48
1
60
0
100
AcDbLine
10
13.461325
20
-9.349221
30
0
11
10.538675
21
-9.349221
31
0
39
0
210
0
220
0
230
1
0
LINE
5
D1
100
AcDbEntity
8
1
62
256
6
ByLayer
370
18
48
1
60
0
100
AcDbLine
10
56.20911
20
31.785489
30
0
11
56.278452
21
31.898765
31
0
39
0
210
0
220
0
230
1
0
LINE
5
D2
100
AcDbEntity
8
1
62
256
6
ByLayer
370
18
48
1
60
0
100
AcDbLine
10
13.461325
20
-30.080593
30
0
11
13.461325
21
-9.349221
31
0
39
0
210
0
220
0
230
1
0
LINE
5
D3
100
AcDbEntity
8
1
62
256
6
ByLayer
370
18
48
1
60
0
100
AcDbLine
10
19.911507
20
-27.509049
30
0
11
19.519149
21
-28.149992
31
0
39
0
210
0
220
0
230
1
0
LINE
5
D4
100
AcDbEntity
8
1
62
256
6
ByLayer
370
18
48
1
60
0
100
AcDbLine
10
28.954444
20
38.212354
30
0
11
31.424084
21
27.233645
31
0
39
0
210
0
220
0
230
1
0
LINE
5
D5
100
AcDbEntity
8
1
62
256
6
ByLayer
370
18
48
1
60
0
100
AcDbLine
10
13.461325
20
30.080593
30
0
11
10.538675
21
30.080593
31
0
39
0
210
0
220
0
230
1
0
LINE
5
D6
100
AcDbEntity
8
1
62
256
6
ByLayer
370
18
48
1
60
0
100
AcDbLine
10
48.926867
20
42.348408
30
0
11
49.106915
21
42.357844
31
0
39
0
210
0
220
0
230
1
0
LINE
5
D7
100
AcDbEntity
8
1
62
256
6
ByLayer
370
18
48
1
60
0
100
AcDbLine
10
36.302795
20
21.87869
30
0
11
44.803487
21
13.15365
31
0
39
0
210
0
220
0
230
1
0
LINE
5
D8
100
AcDbEntity
8
1
62
256
6
ByLayer
370
18
48
1
60
0
100
AcDbLine
10
26.75018
20
31.683414
30
0
11
25.289024
21
38.178939
31
0
39
0
210
0
220
0
230
1
0
LINE
5
D9
100
AcDbEntity
8
1
62
256
6
ByLayer
370
18
48
1
60
0
100
AcDbLine
10
34.453723
20
41.589902
30
0
11
31.291875
21
41.424197
31
0
39
0
210
0
220
0
230
1
0
LINE
5
DA
100
AcDbEntity
8
1
62
256
6
ByLayer
370
18
48
1
60
0
100
AcDbLine
10
24.074496
20
34.429714
30
0
11
26.75018
21
31.683414
31
0
39
0
210
0
220
0
230
1
0
LINE
5
DB
100
AcDbEntity
8
1
62
256
6
ByLayer
370
18
48
1
60
0
100
AcDbLine
10
24.074496
20
34.429714
30
0
11
24.074496
21
35.316004
31
0
39
0
210
0
220
0
230
1
0
LINE
5
DC
100
AcDbEntity
8
1
62
256
6
ByLayer
370
18
48
1
60
0
100
AcDbLine
10
13.894338
20
9.869413
30
0
11
13.894338
21
29.913955
31
0
39
0
210
0
220
0
230
1
0
LINE
5
DD
100
AcDbEntity
8
SK1
62
256
6
ByLayer
370
18
48
1
60
0
100
AcDbLine
10
-1.307107
20
-4.811013
30
0
11
-1.307107
21
4.811013
31
0
39
0
210
0
220
0
230
1
0
LINE
5
DE
100
AcDbEntity
8
1
62
256
6
ByLayer
370
18
48
1
60
0
100
AcDbLine
10
64.159728
20
44.998896
30
0
11
52.325376
21
44.378684
31
0
39
0
210
0
220
0
230
1
0
LINE
5
DF
100
AcDbEntity
8
1
62
256
6
ByLayer
370
18
48
1
60
0
100
AcDbLine
10
58.328633
20
33.339705
30
0
11
56.183128
21
32.066147
31
0
39
0
210
0
220
0
230
1
0
LINE
5
E0
100
AcDbEntity
8
1
62
256
6
ByLayer
370
18
48
1
60
0
100
AcDbLine
10
57.612708
20
32.642189
30
0
11
58.328633
21
33.339705
31
0
39
0
210
0
220
0
230
1
0
LINE
5
E1
100
AcDbEntity
8
1
62
256
6
ByLayer
370
18
48
1
60
0
100
AcDbLine
10
49.643247
20
42.942976
30
0
11
51.788753
21
44.216534
31
0
39
0
210
0
220
0
230
1
0
LINE
5
E2
100
AcDbEntity
8
1
62
256
6
ByLayer
370
18
48
1
60
0
100
AcDbLine
10
58.726663
20
33.732359
30
0
11
64.885075
21
43.792533
31
0
39
0
210
0
220
0
230
1
0
LINE
5
E3
100
AcDbEntity
8
1
62
256
6
ByLayer
370
18
48
1
60
0
100
AcDbLine
10
49.15378
20
42.872948
30
0
11
48.656297
21
42.388256
31
0
39
0
210
0
220
0
230
1
0
LINE
5
E4
100
AcDbEntity
8
1
62
256
6
ByLayer
370
18
48
1
60
0
100
AcDbLine
10
56.13063
20
31.269373
30
0
11
55.633147
21
30.784682
31
0
39
0
210
0
220
0
230
1
0
LINE
5
E5
100
AcDbEntity
8
1
62
256
6
ByLayer
370
18
48
1
60
0
100
AcDbLine
10
33.680295
20
29.858688
30
0
11
32.154335
21
28.968396
31
0
39
0
210
0
220
0
230
1
0
LINE
5
E6
100
AcDbEntity
8
1
62
256
6
ByLayer
370
18
48
1
60
0
100
AcDbLine
10
36.596235
20
27.175654
30
0
11
36.08984
21
26.880207
31
0
39
0
210
0
220
0
230
1
0
LINE
5
E7
100
AcDbEntity
8
1
62
256
6
ByLayer
370
18
48
1
60
0
100
AcDbLine
10
37.991803
20
27.473123
30
0
11
37.996237
21
27.476718
31
0
39
0
210
0
220
0
230
1
0
LINE
5
E8
100
AcDbEntity
8
1
62
256
6
ByLayer
370
18
48
1
60
0
100
AcDbLine
10
43.264824
20
28.599731
30
0
11
37.996237
21
27.476718
31
0
39
0
210
0
220
0
230
1
0
LINE
5
E9
100
AcDbEntity
8
1
62
256
6
ByLayer
370
18
48
1
60
0
100
AcDbLine
10
54.695471
20
40.297869
30
0
11
54.500874
21
40.439342
31
0
39
0
210
0
220
0
230
1
0
LINE
5
EA
100
AcDbEntity
8
1
62
256
6
ByLayer
370
18
48
1
60
0
100
AcDbLine
10
33.297413
20
40.255474
30
0
11
40.6959
21
41.832482
31
0
39
0
210
0
220
0
230
1
0
LINE
5
EB
100
AcDbEntity
8
1
62
256
6
ByLayer
370
18
48
1
60
0
100
AcDbLine
10
53.663602
20
38.405757
30
0
11
56.305603
21
38.697192
31
0
39
0
210
0
220
0
230
1
0
LINE
5
EC
100
AcDbEntity
8
1
62
256
6
ByLayer
370
18
48
1
60
0
100
AcDbLine
10
35.955774
20
28.437808
30
0
11
43.354261
21
30.014816
31
0
39
0
210
0
220
0
230
1
0
LINE
5
ED
100
AcDbEntity
8
1
62
256
6
ByLayer
370
18
48
1
60
0
100
AcDbLine
10
37.991803
20
27.473123
30
0
11
36.161303
21
26.902395
31
0
39
0
210
0
220
0
230
1
0
LINE
5
EE
100
AcDbEntity
8
1
62
256
6
ByLayer
370
18
48
1
60
0
100
AcDbLine
10
34.203454
20
36.968257
30
0
11
32.727925
21
36.656029
31
0
39
0
210
0
220
0
230
1
0
LINE
5
EF
100
AcDbEntity
8
1
62
256
6
ByLayer
370
18
48
1
60
0
100
AcDbLine
10
55.851663
20
36.845086
30
0
11
55.718939
21
36.664212
31
0
39
0
210
0
220
0
230
1
0
LINE
5
F0
100
AcDbEntity
8
1
62
256
6
ByLayer
370
18
48
1
60
0
100
AcDbLine
10
42.37686
20
31.977125
30
0
11
40.38593
21
31.552753
31
0
39
0
210
0
220
0
230
1
0
LINE
5
F1
100
AcDbEntity
8
1
62
256
6
ByLayer
370
18
48
1
60
0
100
AcDbLine
10
40.116423
20
42.595853
30
0
11
34.847836
21
41.472839
31
0
39
0
210
0
220
0
230
1
0
LINE
5
F2
100
AcDbEntity
8
1
62
256
6
ByLayer
370
18
48
1
60
0
100
AcDbLine
10
38.57069
20
39.622345
30
0
11
40.561621
21
40.046717
31
0
39
0
210
0
220
0
230
1
0
LINE
5
F3
100
AcDbEntity
8
1
62
256
6
ByLayer
370
18
48
1
60
0
100
AcDbLine
10
34.842472
20
41.473379
30
0
11
34.847836
21
41.472839
31
0
39
0
210
0
220
0
230
1
0
LINE
5
F4
100
AcDbEntity
8
1
62
256
6
ByLayer
370
18
48
1
60
0
100
AcDbLine
10
40.561621
20
40.046717
30
0
11
40.146531
21
39.804541
31
0
39
0
210
0
220
0
230
1
0
LINE
5
F5
100
AcDbEntity
8
1
62
256
6
ByLayer
370
18
48
1
60
0
100
AcDbLine
10
36.596235
20
27.175654
30
0
11
37.991803
21
27.473123
31
0
39
0
210
0
220
0
230
1
0
LINE
5
F6
100
AcDbEntity
8
1
62
256
6
ByLayer
370
18
48
1
60
0
100
AcDbLine
10
32.727925
20
36.656029
30
0
11
33.865183
21
31.600381
31
0
39
0
210
0
220
0
230
1
0
LINE
5
F7
100
AcDbEntity
8
1
62
256
6
ByLayer
370
18
48
1
60
0
100
AcDbLine
10
55.125409
20
40.073625
30
0
11
54.92569
21
40.190577
31
0
39
0
210
0
220
0
230
1
0
LINE
5
F8
100
AcDbEntity
8
1
62
256
6
ByLayer
370
18
48
1
60
0
100
AcDbLine
10
31.843186
20
38.025504
30
0
11
30.317226
21
37.135212
31
0
39
0
210
0
220
0
230
1
0
LINE
5
F9
100
AcDbEntity
8
1
62
256
6
ByLayer
370
18
48
1
60
0
100
AcDbLine
10
32.154335
20
28.968396
30
0
11
30.317226
21
37.135212
31
0
39
0
210
0
220
0
230
1
0
LINE
5
FA
100
AcDbEntity
8
1
62
256
6
ByLayer
370
18
48
1
60
0
100
AcDbLine
10
38.57069
20
39.622345
30
0
11
38.163892
21
39.385006
31
0
39
0
210
0
220
0
230
1
0
LINE
5
FB
100
AcDbEntity
8
1
62
256
6
ByLayer
370
18
48
1
60
0
100
AcDbLine
10
31.843186
20
38.025504
30
0
11
33.680295
21
29.858688
31
0
39
0
210
0
220
0
230
1
0
LINE
5
FC
100
AcDbEntity
8
1
62
256
6
ByLayer
370
18
48
1
60
0
100
AcDbLine
10
55.436627
20
36.279479
30
0
11
54.811762
21
35.427919
31
0
39
0
210
0
220
0
230
1
0
LINE
5
FD
100
AcDbEntity
8
1
62
256
6
ByLayer
370
18
48
1
60
0
100
AcDbLine
10
55.436627
20
36.279479
30
0
11
55.55268
21
36.487169
31
0
39
0
210
0
220
0
230
1
0
LINE
5
FE
100
AcDbEntity
8
1
62
256
6
ByLayer
370
18
48
1
60
0
100
AcDbLine
10
54.500874
20
40.439342
30
0
11
53.560593
21
40.989954
31
0
39
0
210
0
220
0
230
1
0
LINE
5
FF
100
AcDbEntity
8
1
62
256
6
ByLayer
370
18
48
1
60
0
100
AcDbLine
10
34.597477
20
37.198142
30
0
11
34.203454
21
36.968257
31
0
39
0
210
0
220
0
230
1
0
LINE
5
100
100
AcDbEntity
8
1
62
256
6
ByLayer
370
18
48
1
60
0
100
AcDbLine
10
34.842472
20
41.473379
30
0
11
33.446904
21
41.17591
31
0
39
0
210
0
220
0
230
1
0
LINE
5
101
100
AcDbEntity
8
1
62
256
6
ByLayer
370
18
48
1
60
0
100
AcDbLine
10
41.193193
20
36.849468
30
0
11
41.373584
21
37.02522
31
0
39
0
210
0
220
0
230
1
0
LINE
5
102
100
AcDbEntity
8
1
62
256
6
ByLayer
370
18
48
1
60
0
100
AcDbLine
10
39.094455
20
35.817486
30
0
11
39.274846
21
35.993238
31
0
39
0
210
0
220
0
230
1
0
LINE
5
103
100
AcDbEntity
8
1
62
256
6
ByLayer
370
18
48
1
60
0
100
AcDbLine
10
41.608446
20
35.003473
30
0
11
41.788837
21
35.179225
31
0
39
0
210
0
220
0
230
1
0
LINE
5
104
100
AcDbEntity
8
1
62
256
6
ByLayer
370
18
48
1
60
0
100
AcDbLine
10
39.838393
20
36.943312
30
0
11
40.018783
21
37.119064
31
0
39
0
210
0
220
0
230
1
0
LINE
5
105
100
AcDbEntity
8
1
62
256
6
ByLayer
370
18
48
1
60
0
100
AcDbLine
10
41.639791
20
36.360032
30
0
11
41.820181
21
36.535784
31
0
39
0
210
0
220
0
230
1
0
LINE
5
106
100
AcDbEntity
8
1
62
256
6
ByLayer
370
18
48
1
60
0
100
AcDbLine
10
19.252165
20
-0.039429
30
0
11
18.889642
21
-0.208476
31
0
39
0
210
0
220
0
230
1
0
MTEXT
5
1CF
100
AcDbEntity
8
SK6
62
256
6
ByLayer
370
18
48
1
60
0
100
AcDbMText
10
-8.125
20
-42.283852
30
0
210
0
220
0
230
1
1
\W0.7390;C6-DDJNR-45065-15
40
3.5
41
0
44
1.084337
50
0
71
7
72
5
7
iso_b_vert
0
DIMENSION
5
1EE
100
AcDbEntity
8
2
62
256
6
ByLayer
370
13
48
1
60
0
100
AcDbDimension
2
DimnDraft3D2
10
63.166079
20
44.946576
30
0
11
52.711865
21
56.703693
31
0
70
34
71
5
72
1
41
1
210
0
220
0
230
1
3
Standard
100
AcDb2LineAngularDimension
13
65
23
45
33
0
14
65
24
43.4125
34
0
15
64.164708
25
44.998912
35
0
16
55.976049
26
53.606097
36
0
40
0
0
DIMENSION
5
204
100
AcDbEntity
8
SK2
62
256
6
ByLayer
370
13
48
1
60
0
100
AcDbDimension
2
DimnDraft3D3
10
-45.75
20
31.5
30
0
11
-45.75
21
-2.688158
31
0
70
32
71
5
72
1
41
1
210
0
220
0
230
1
3
Standard
100
AcDbAlignedDimension
13
-2
23
-31.5
33
0
14
-2
24
31.5
34
0
50
90
100
AcDbRotatedDimension
1001
ACAD
1000
DSTYLE
1002
{
1070
    74
1070
     0
1070
   279
1070
     0
1070
   172
1070
     1
1070
   173
1070
     1
1070
   340
1005
1D0
1070
    77
1070
     1
1070
    73
1070
     0
1070
   171
1070
     3
1070
   274
1070
     4
1070
   177
1070
     2
1070
   176
1070
     2
1070
   178
1070
     7
1070
    78
1070
     8
1070
    41
1041
3.175
1070
   147
1041
2.25
1070
    42
1041
2.0
1070
    44
1041
2.0
1070
   140
1041
4.5
1070
   343
1005
1EF
1070
   344
1005
1EF
1002
}
0
DIMENSION
5
212
100
AcDbEntity
8
2
62
256
6
ByLayer
370
13
48
1
60
0
100
AcDbDimension
2
DimnDraft3D4
10
87.25
20
45
30
0
11
87.25
21
16.981579
31
0
70
32
71
5
72
1
41
1
210
0
220
0
230
1
3
Standard
100
AcDbAlignedDimension
13
67
23
0
33
0
14
67
24
45
34
0
50
90
100
AcDbRotatedDimension
1001
ACAD
1000
DSTYLE
1002
{
1070
    74
1070
     0
1070
   279
1070
     0
1070
   172
1070
     1
1070
   173
1070
     1
1070
   340
1005
1D0
1070
    77
1070
     1
1070
    73
1070
     0
1070
   171
1070
     3
1070
   274
1070
     4
1070
   177
1070
     2
1070
   176
1070
     2
1070
   178
1070
     7
1070
    78
1070
     8
1070
    41
1041
3.175
1070
   147
1041
2.25
1070
    42
1041
2.0
1070
    44
1041
2.0
1070
   140
1041
4.5
1070
   343
1005
1EF
1070
   344
1005
1EF
1002
}
0
ENDSEC
0
SECTION
2
OBJECTS
0
DICTIONARY
5
27d
330
0
100
AcDbDictionary
280
0
281
1
3
ACAD_GROUP
350
27e
3
ACAD_MLINESTYLE
350
27f
0
DICTIONARY
5
27e
330
0
100
AcDbDictionary
280
0
281
1
0
DICTIONARY
5
27f
330
0
100
AcDbDictionary
280
0
281
1
3
Standard
350
18
0
MLINESTYLE
5
18
330
27f
100
AcDbMlineStyle
2
Standard
70
0
3

62
256
51
90
52
90
71
2
49
-0.5
62
256
6
ByLayer
49
0.5
62
256
6
ByLayer
0
RASTERVARIABLES
5
26b
330

100
AcDbRasterVariables
90
0
70
1
71
1
72
1
0
ENDSEC
0
EOF
