0
SECTION
2
HEADER
9
$ACADVER
1
AC1015
9
$DWGCODEPAGE
3
ANSI_1252
9
$HANDSEED
5
2cc
9
$ANGBASE
50
0
9
$ANGDIR
70
0
9
$ATTMODE
70
1
9
$AUNITS
70
0
9
$AUPREC
70
0
9
$CECOLOR
62
256
9
$CELTSCALE
40
1
9
$CELTYPE
6
ByLayer
9
$CELWEIGHT
370
18
9
$CLAYER
8
0
9
$CMLJUST
70
0
9
$CMLSCALE
40
1
9
$CMLSTYLE
2
Standard
9
$DIMSTYLE
2
Standard
9
$TEXTSIZE
40
0.2
9
$TEXTSTYLE
7
Standard
9
$LUNITS
70
2
9
$LUPREC
70
4
9
$EXTNAMES
290
1
9
$INSUNITS
70
4
9
$LTSCALE
40
1
9
$LWDISPLAY
290
1
9
$PDMODE
70
0
9
$PDSIZE
40
0
9
$PLINEGEN
70
0
0
ENDSEC
0
SECTION
2
CLASSES
0
CLASS
1
RASTERVARIABLES
2
AcDbRasterVariables
3
ISM
90
0
280
0
281
0
0
ENDSEC
0
SECTION
2
TABLES
0
TABLE
2
VPORT
5
2c2
100
AcDbSymbolTable
0
VPORT
5
1
100
AcDbSymbolTableRecord
100
AcDbViewportTableRecord
2
*Active
70
0
10
0
20
0
11
1
21
1
12
-1
22
1
13
0
23
0
14
0.5
24
0.5
15
10
25
10
16
0
26
0
36
1
17
0
27
0
37
0
0
ENDTAB
0
TABLE
2
LTYPE
5
2c3
100
AcDbSymbolTable
0
LTYPE
5
14
100
AcDbSymbolTableRecord
100
AcDbLinetypeTableRecord
70
0
2
ByBlock
3

72
65
73
0
40
0
0
LTYPE
5
15
100
AcDbSymbolTableRecord
100
AcDbLinetypeTableRecord
70
0
2
ByLayer
3

72
65
73
0
40
0
0
LTYPE
5
16
100
AcDbSymbolTableRecord
100
AcDbLinetypeTableRecord
70
0
2
CONTINUOUS
3
Solid line
72
65
73
0
40
0
0
LTYPE
5
6A
100
AcDbSymbolTableRecord
100
AcDbLinetypeTableRecord
70
0
2
CENTER
3
____ _ ____ _ ____ _ ____
72
65
73
4
40
47.5
49
22
74
0
49
-8.5
74
0
49
8.5
74
0
49
-8.5
74
0
0
LTYPE
5
6B
100
AcDbSymbolTableRecord
100
AcDbLinetypeTableRecord
70
0
2
DASHED
3
__ __ __ __ __ __ __ __ __
72
65
73
2
40
25.72
49
12.86
74
0
49
-12.86
74
0
0
ENDTAB
0
TABLE
2
LAYER
5
2c4
100
AcDbSymbolTable
0
LAYER
5
10
100
AcDbSymbolTableRecord
100
AcDbLayerTableRecord
2
0
70
0
62
7
6
CONTINUOUS
290
1
370
-3
390
0
0
LAYER
5
6D
100
AcDbSymbolTableRecord
100
AcDbLayerTableRecord
2
2
70
0
62
7
6
CONTINUOUS
290
1
370
-3
390
0
0
LAYER
5
6F
100
AcDbSymbolTableRecord
100
AcDbLayerTableRecord
2
80
70
0
62
-6
6
CONTINUOUS
290
1
370
-3
390
0
0
LAYER
5
71
100
AcDbSymbolTableRecord
100
AcDbLayerTableRecord
2
81
70
0
62
-3
6
CONTINUOUS
290
1
370
-3
390
0
0
LAYER
5
74
100
AcDbSymbolTableRecord
100
AcDbLayerTableRecord
2
1
70
0
62
4
6
CONTINUOUS
290
1
370
-3
390
0
0
LAYER
5
89
100
AcDbSymbolTableRecord
100
AcDbLayerTableRecord
2
4
70
0
62
-2
6
CENTER
290
1
370
-3
390
0
0
LAYER
5
2ae
100
AcDbSymbolTableRecord
100
AcDbLayerTableRecord
2
SK4
70
0
62
2
6
CENTER
290
1
370
-3
390
0
0
LAYER
5
2af
100
AcDbSymbolTableRecord
100
AcDbLayerTableRecord
2
SK1
70
0
62
4
6
CONTINUOUS
290
1
370
-3
390
0
0
LAYER
5
2b0
100
AcDbSymbolTableRecord
100
AcDbLayerTableRecord
2
SK6
70
0
62
5
6
CONTINUOUS
290
1
370
-3
390
0
0
LAYER
5
2b1
100
AcDbSymbolTableRecord
100
AcDbLayerTableRecord
2
SK2
70
0
62
7
6
CONTINUOUS
290
1
370
-3
390
0
0
ENDTAB
0
TABLE
2
STYLE
5
2c5
100
AcDbSymbolTable
0
STYLE
5
11
100
AcDbSymbolTableRecord
100
AcDbTextStyleTableRecord
2
Standard
3
txt
70
0
71
0
40
0
41
1
42
0
50
0
0
STYLE
5
212
100
AcDbSymbolTableRecord
100
AcDbTextStyleTableRecord
2
iso_b_vert
3
simplex.shx
70
0
71
0
40
0
41
1
42
0
50
0
0
STYLE
5
213
100
AcDbSymbolTableRecord
100
AcDbTextStyleTableRecord
2
DWGDirectTextStyle
3
simplex
70
0
71
0
40
0
41
1
42
0
50
0
0
ENDTAB
0
TABLE
2
DIMSTYLE
5
2c6
100
AcDbSymbolTable
100
AcDbDimStyleTable
0
DIMSTYLE
105
27
100
AcDbSymbolTableRecord
100
AcDbDimStyleTableRecord
2
Standard
70
0
3
<>
41
0.18
42
0.0625
44
0.18
140
0.18
147
0.09
73
0
74
0
77
1
271
2
275
0
278
52
280
0
340
11
0
ENDTAB
0
TABLE
2
VIEW
5
2c7
100
AcDbSymbolTable
0
ENDTAB
0
TABLE
2
UCS
5
2c8
100
AcDbSymbolTable
0
ENDTAB
0
TABLE
2
APPID
5
2c9
100
AcDbSymbolTable
0
APPID
5
12
100
AcDbSymbolTableRecord
100
AcDbRegAppTableRecord
2
ACAD
70
0
0
ENDTAB
0
TABLE
2
BLOCK_RECORD
5
2ca
100
AcDbSymbolTable
0
BLOCK_RECORD
5
1F
100
AcDbSymbolTableRecord
100
AcDbBlockTableRecord
2
*Model_Space
340
0
70
0
0
BLOCK_RECORD
5
1B
100
AcDbSymbolTableRecord
100
AcDbBlockTableRecord
2
*Paper_Space
340
0
70
0
0
BLOCK_RECORD
5
23
100
AcDbSymbolTableRecord
100
AcDbBlockTableRecord
2
*Paper_Space0
340
0
70
0
0
BLOCK_RECORD
5
215
100
AcDbSymbolTableRecord
100
AcDbBlockTableRecord
2
DimnDraft3D1
340
0
70
0
0
BLOCK_RECORD
5
223
100
AcDbSymbolTableRecord
100
AcDbBlockTableRecord
2
_CLOSED
340
0
70
0
0
BLOCK_RECORD
5
22A
100
AcDbSymbolTableRecord
100
AcDbBlockTableRecord
2
DimnDraft3D2
340
0
70
0
0
BLOCK_RECORD
5
238
100
AcDbSymbolTableRecord
100
AcDbBlockTableRecord
2
DimnDraft3D3
340
0
70
0
0
BLOCK_RECORD
5
247
100
AcDbSymbolTableRecord
100
AcDbBlockTableRecord
2
DimnDraft3D4
340
0
70
0
0
ENDTAB
0
ENDSEC
0
SECTION
2
BLOCKS
0
BLOCK
5
20
100
AcDbEntity
8
0
100
AcDbBlockBegin
2
*Model_Space
70
0
10
0
20
0
30
0
3
*Model_Space
0
ENDBLK
5
21
100
AcDbEntity
8
0
100
AcDbBlockEnd
0
BLOCK
5
1C
100
AcDbEntity
8
0
100
AcDbBlockBegin
2
*Paper_Space
70
0
10
0
20
0
30
0
3
*Paper_Space
0
ENDBLK
5
1D
100
AcDbEntity
8
0
100
AcDbBlockEnd
0
BLOCK
5
24
100
AcDbEntity
8
0
100
AcDbBlockBegin
2
*Paper_Space0
70
0
10
0
20
0
30
0
3
*Paper_Space0
0
ENDBLK
5
25
100
AcDbEntity
8
0
100
AcDbBlockEnd
0
BLOCK
5
220
100
AcDbEntity
8
0
100
AcDbBlockBegin
2
DimnDraft3D1
70
0
10
0
20
0
30
0
3
DimnDraft3D1
0
MTEXT
5
216
100
AcDbEntity
8
2
62
256
6
ByLayer
370
18
48
1
60
0
100
AcDbMText
10
48.254365
20
-56.909465
30
0
210
0
220
0
230
1
1
\W0.7399;93%%d
40
4.5
41
0
44
1.084337
50
313.5
71
7
72
5
7
iso_b_vert
0
LINE
5
217
100
AcDbEntity
8
2
62
256
6
ByLayer
370
13
48
1
60
0
100
AcDbLine
10
47.188006
20
-44.109201
30
0
11
41.59172
21
-43.815912
31
0
39
0
210
0
220
0
230
1
0
LINE
5
218
100
AcDbEntity
8
2
62
256
6
ByLayer
370
13
48
1
60
0
100
AcDbLine
10
65
20
-47
30
0
11
65
21
-68.483093
31
0
39
0
210
0
220
0
230
1
0
ARC
5
219
100
AcDbEntity
8
2
62
256
6
ByLayer
370
13
48
1
60
0
100
AcDbCircle
39
0
10
65
20
-45.042688
30
0
40
21.4404046845569
210
0
220
0
230
1
100
AcDbArc
50
177
51
270
0
LINE
5
21A
100
AcDbEntity
8
2
62
256
6
ByLayer
370
13
48
1
60
0
100
AcDbLine
10
43.588979
20
-43.920584
30
0
11
43.958013
21
-47.101645
31
0
39
0
210
0
220
0
230
1
0
LINE
5
21B
100
AcDbEntity
8
2
62
256
6
ByLayer
370
13
48
1
60
0
100
AcDbLine
10
43.588979
20
-43.920584
30
0
11
43.122119
21
-47.088769
31
0
39
0
210
0
220
0
230
1
0
LINE
5
21C
100
AcDbEntity
8
2
62
256
6
ByLayer
370
13
48
1
60
0
100
AcDbLine
10
43.958013
20
-47.101645
30
0
11
43.122119
21
-47.088769
31
0
39
0
210
0
220
0
230
1
0
LINE
5
21D
100
AcDbEntity
8
2
62
256
6
ByLayer
370
13
48
1
60
0
100
AcDbLine
10
65
20
-66.483093
30
0
11
61.811726
21
-66.783502
31
0
39
0
210
0
220
0
230
1
0
LINE
5
21E
100
AcDbEntity
8
2
62
256
6
ByLayer
370
13
48
1
60
0
100
AcDbLine
10
65
20
-66.483093
30
0
11
61.842609
21
-65.94808
31
0
39
0
210
0
220
0
230
1
0
LINE
5
21F
100
AcDbEntity
8
2
62
256
6
ByLayer
370
13
48
1
60
0
100
AcDbLine
10
61.811726
20
-66.783502
30
0
11
61.842609
21
-65.94808
31
0
39
0
210
0
220
0
230
1
0
ENDBLK
5
221
100
AcDbEntity
8
0
100
AcDbBlockEnd
0
BLOCK
5
224
100
AcDbEntity
8
0
100
AcDbBlockBegin
2
_CLOSED
70
0
10
0
20
0
30
0
3
_CLOSED
0
LINE
5
226
100
AcDbEntity
8
0
62
256
6
ByLayer
370
-2
48
1
60
0
100
AcDbLine
10
-1
20
0.166667
30
0
11
0
21
0
31
0
39
0
210
0
220
0
230
1
0
LINE
5
227
100
AcDbEntity
8
0
62
256
6
ByLayer
370
-2
48
1
60
0
100
AcDbLine
10
0
20
0
30
0
11
-1
21
-0.166667
31
0
39
0
210
0
220
0
230
1
0
LINE
5
228
100
AcDbEntity
8
0
62
256
6
ByLayer
370
-2
48
1
60
0
100
AcDbLine
10
-1
20
0.166667
30
0
11
-1
21
-0.166667
31
0
39
0
210
0
220
0
230
1
0
LINE
5
229
100
AcDbEntity
8
0
62
256
6
ByLayer
370
-2
48
1
60
0
100
AcDbLine
10
0
20
0
30
0
11
-1
21
0
31
0
39
0
210
0
220
0
230
1
0
ENDBLK
5
225
100
AcDbEntity
8
0
100
AcDbBlockEnd
0
BLOCK
5
235
100
AcDbEntity
8
0
100
AcDbBlockBegin
2
DimnDraft3D2
70
0
10
0
20
0
30
0
3
DimnDraft3D2
0
MTEXT
5
22B
100
AcDbEntity
8
2
62
256
6
ByLayer
370
18
48
1
60
0
100
AcDbMText
10
28.343421
20
-71.125
30
0
210
0
220
0
230
1
1
\W0.7346;65.0
40
4.5
41
0
44
1.084337
50
0
71
7
72
5
7
iso_b_vert
0
LINE
5
22C
100
AcDbEntity
8
2
62
256
6
ByLayer
370
13
48
1
60
0
100
AcDbLine
10
0
20
-33.5
30
0
11
0
21
-74.25
31
0
39
0
210
0
220
0
230
1
0
LINE
5
22D
100
AcDbEntity
8
2
62
256
6
ByLayer
370
13
48
1
60
0
100
AcDbLine
10
65
20
-47
30
0
11
65
21
-74.25
31
0
39
0
210
0
220
0
230
1
0
LINE
5
22E
100
AcDbEntity
8
2
62
256
6
ByLayer
370
13
48
1
60
0
100
AcDbLine
10
0
20
-72.25
30
0
11
65
21
-72.25
31
0
39
0
210
0
220
0
230
1
0
LINE
5
22F
100
AcDbEntity
8
2
62
256
6
ByLayer
370
13
48
1
60
0
100
AcDbLine
10
0
20
-72.25
30
0
11
3.174998
21
-71.832003
31
0
39
0
210
0
220
0
230
1
0
LINE
5
230
100
AcDbEntity
8
2
62
256
6
ByLayer
370
13
48
1
60
0
100
AcDbLine
10
0
20
-72.25
30
0
11
3.175002
21
-72.667997
31
0
39
0
210
0
220
0
230
1
0
LINE
5
231
100
AcDbEntity
8
2
62
256
6
ByLayer
370
13
48
1
60
0
100
AcDbLine
10
3.174998
20
-71.832003
30
0
11
3.175002
21
-72.667997
31
0
39
0
210
0
220
0
230
1
0
LINE
5
232
100
AcDbEntity
8
2
62
256
6
ByLayer
370
13
48
1
60
0
100
AcDbLine
10
65
20
-72.25
30
0
11
61.825002
21
-72.667997
31
0
39
0
210
0
220
0
230
1
0
LINE
5
233
100
AcDbEntity
8
2
62
256
6
ByLayer
370
13
48
1
60
0
100
AcDbLine
10
65
20
-72.25
30
0
11
61.824998
21
-71.832003
31
0
39
0
210
0
220
0
230
1
0
LINE
5
234
100
AcDbEntity
8
2
62
256
6
ByLayer
370
13
48
1
60
0
100
AcDbLine
10
61.825002
20
-72.667997
30
0
11
61.824998
21
-71.832003
31
0
39
0
210
0
220
0
230
1
0
ENDBLK
5
236
100
AcDbEntity
8
0
100
AcDbBlockEnd
0
BLOCK
5
244
100
AcDbEntity
8
0
100
AcDbBlockBegin
2
DimnDraft3D3
70
0
10
0
20
0
30
0
3
DimnDraft3D3
0
MTEXT
5
239
100
AcDbEntity
8
SK2
62
256
6
ByLayer
370
18
48
1
60
0
100
AcDbMText
10
-46.875
20
-1.563158
30
0
210
0
220
0
230
1
1
\W0.6740;63
40
4.5
41
0
44
1.084337
50
90
71
7
72
5
7
iso_b_vert
0
LINE
5
23B
100
AcDbEntity
8
SK2
62
256
6
ByLayer
370
13
48
1
60
0
100
AcDbLine
10
-2
20
-31.5
30
0
11
-47.75
21
-31.5
31
0
39
0
210
0
220
0
230
1
0
LINE
5
23C
100
AcDbEntity
8
SK2
62
256
6
ByLayer
370
13
48
1
60
0
100
AcDbLine
10
-2
20
31.5
30
0
11
-47.75
21
31.5
31
0
39
0
210
0
220
0
230
1
0
LINE
5
23D
100
AcDbEntity
8
SK2
62
256
6
ByLayer
370
13
48
1
60
0
100
AcDbLine
10
-45.75
20
-31.5
30
0
11
-45.75
21
31.5
31
0
39
0
210
0
220
0
230
1
0
LINE
5
23E
100
AcDbEntity
8
SK2
62
256
6
ByLayer
370
13
48
1
60
0
100
AcDbLine
10
-45.75
20
-31.5
30
0
11
-46.167997
21
-28.325002
31
0
39
0
210
0
220
0
230
1
0
LINE
5
23F
100
AcDbEntity
8
SK2
62
256
6
ByLayer
370
13
48
1
60
0
100
AcDbLine
10
-45.75
20
-31.5
30
0
11
-45.332003
21
-28.324998
31
0
39
0
210
0
220
0
230
1
0
LINE
5
240
100
AcDbEntity
8
SK2
62
256
6
ByLayer
370
13
48
1
60
0
100
AcDbLine
10
-46.167997
20
-28.325002
30
0
11
-45.332003
21
-28.324998
31
0
39
0
210
0
220
0
230
1
0
LINE
5
241
100
AcDbEntity
8
SK2
62
256
6
ByLayer
370
13
48
1
60
0
100
AcDbLine
10
-45.75
20
31.5
30
0
11
-45.332003
21
28.325002
31
0
39
0
210
0
220
0
230
1
0
LINE
5
242
100
AcDbEntity
8
SK2
62
256
6
ByLayer
370
13
48
1
60
0
100
AcDbLine
10
-45.75
20
31.5
30
0
11
-46.167997
21
28.324998
31
0
39
0
210
0
220
0
230
1
0
LINE
5
243
100
AcDbEntity
8
SK2
62
256
6
ByLayer
370
13
48
1
60
0
100
AcDbLine
10
-45.332003
20
28.325002
30
0
11
-46.167997
21
28.324998
31
0
39
0
210
0
220
0
230
1
0
ENDBLK
5
245
100
AcDbEntity
8
0
100
AcDbBlockEnd
0
BLOCK
5
252
100
AcDbEntity
8
0
100
AcDbBlockBegin
2
DimnDraft3D4
70
0
10
0
20
0
30
0
3
DimnDraft3D4
0
MTEXT
5
248
100
AcDbEntity
8
2
62
256
6
ByLayer
370
18
48
1
60
0
100
AcDbMText
10
86.125
20
-26.893421
30
0
210
0
220
0
230
1
1
\W0.7640;45.0
40
4.5
41
0
44
1.084337
50
90
71
7
72
5
7
iso_b_vert
0
LINE
5
249
100
AcDbEntity
8
2
62
256
6
ByLayer
370
13
48
1
60
0
100
AcDbLine
10
67
20
0
30
0
11
89.25
21
0
31
0
39
0
210
0
220
0
230
1
0
LINE
5
24A
100
AcDbEntity
8
2
62
256
6
ByLayer
370
13
48
1
60
0
100
AcDbLine
10
67
20
-45
30
0
11
89.25
21
-45
31
0
39
0
210
0
220
0
230
1
0
LINE
5
24B
100
AcDbEntity
8
2
62
256
6
ByLayer
370
13
48
1
60
0
100
AcDbLine
10
87.25
20
0
30
0
11
87.25
21
-45
31
0
39
0
210
0
220
0
230
1
0
LINE
5
24C
100
AcDbEntity
8
2
62
256
6
ByLayer
370
13
48
1
60
0
100
AcDbLine
10
87.25
20
0
30
0
11
87.667997
21
-3.174998
31
0
39
0
210
0
220
0
230
1
0
LINE
5
24D
100
AcDbEntity
8
2
62
256
6
ByLayer
370
13
48
1
60
0
100
AcDbLine
10
87.25
20
0
30
0
11
86.832003
21
-3.175002
31
0
39
0
210
0
220
0
230
1
0
LINE
5
24E
100
AcDbEntity
8
2
62
256
6
ByLayer
370
13
48
1
60
0
100
AcDbLine
10
87.667997
20
-3.174998
30
0
11
86.832003
21
-3.175002
31
0
39
0
210
0
220
0
230
1
0
LINE
5
24F
100
AcDbEntity
8
2
62
256
6
ByLayer
370
13
48
1
60
0
100
AcDbLine
10
87.25
20
-45
30
0
11
86.832003
21
-41.825002
31
0
39
0
210
0
220
0
230
1
0
LINE
5
250
100
AcDbEntity
8
2
62
256
6
ByLayer
370
13
48
1
60
0
100
AcDbLine
10
87.25
20
-45
30
0
11
87.667997
21
-41.824998
31
0
39
0
210
0
220
0
230
1
0
LINE
5
251
100
AcDbEntity
8
2
62
256
6
ByLayer
370
13
48
1
60
0
100
AcDbLine
10
86.832003
20
-41.825002
30
0
11
87.667997
21
-41.824998
31
0
39
0
210
0
220
0
230
1
0
ENDBLK
5
253
100
AcDbEntity
8
0
100
AcDbBlockEnd
0
ENDSEC
0
SECTION
2
ENTITIES
0
ARC
5
126
100
AcDbEntity
8
SK1
62
256
6
ByLayer
370
18
48
1
60
0
100
AcDbCircle
39
0
10
0.6
20
-23.45
30
0
40
0.999999999999999
210
0
220
0
230
-1
100
AcDbArc
50
113.578178
51
126.869898
0
ARC
5
127
100
AcDbEntity
8
SK1
62
256
6
ByLayer
370
18
48
1
60
0
100
AcDbCircle
39
0
10
0.6
20
23.45
30
0
40
0.999999999999999
210
0
220
0
230
-1
100
AcDbArc
50
233.130102
51
246.421822
0
ELLIPSE
5
128
100
AcDbEntity
8
1
62
256
6
ByLayer
370
18
48
1
60
0
100
AcDbEllipse
10
56.313033
20
-31.901102
30
0
11
-0.553909113601406
21
-0.568527709412044
31
0
210
0
220
0
230
1
40
0.987534
41
-3.14159020286455
42
-2.42779114026947
0
ELLIPSE
5
129
100
AcDbEntity
8
1
62
256
6
ByLayer
370
18
48
1
60
0
100
AcDbEllipse
10
49.861707
20
-42.630649
30
0
11
-0.553909113601406
21
-0.568527709412044
31
0
210
0
220
0
230
1
40
0.987534
41
-0.24612957527653
42
2.86680061301345E-06
0
ELLIPSE
5
12A
100
AcDbEntity
8
1
62
256
6
ByLayer
370
18
48
1
60
0
100
AcDbEllipse
10
39.436886
20
-35.581764
30
0
11
2.73274769807008
21
3.12323390393558
31
0
210
0
220
0
230
1
40
0.985051
41
-2.90094142426122
42
-2.63769971642131
0
ELLIPSE
5
12B
100
AcDbEntity
8
1
62
256
6
ByLayer
370
18
48
1
60
0
100
AcDbEllipse
10
33.912718
20
-40.116531
30
0
11
1.97548026366511
21
2.25775944862813
31
0
210
0
220
0
230
1
40
0.985051
41
0.187717665000396
42
0.503892937168486
0
ELLIPSE
5
12C
100
AcDbEntity
8
1
62
256
6
ByLayer
370
18
48
1
60
0
100
AcDbEllipse
10
41.419525
20
-36.001299
30
0
11
2.73274769807008
21
3.12323390393558
31
0
210
0
220
0
230
1
40
0.985051
41
-2.63769971642131
42
0.0694205677493203
0
ELLIPSE
5
12D
100
AcDbEntity
8
1
62
256
6
ByLayer
370
18
48
1
60
0
100
AcDbEllipse
10
31.318104
20
-26.260255
30
0
11
-6.82934418825402
21
1.53624801329766
31
0
210
0
220
0
230
1
40
0.083175
41
-2.34385982263155
42
-2.33918532072528
0
ELLIPSE
5
12E
100
AcDbEntity
8
1
62
256
6
ByLayer
370
18
48
1
60
0
100
AcDbEllipse
10
40.610294
20
-35.80211
30
0
11
0.802513991359513
21
0.823693689226902
31
0
210
0
220
0
230
1
40
0.987534
41
-3.08269266772685
42
-0.0589100572534762
0
ELLIPSE
5
12F
100
AcDbEntity
8
1
62
256
6
ByLayer
370
18
48
1
60
0
100
AcDbEllipse
10
40.706126
20
-35.895478
30
0
11
0.802513991359513
21
0.823693689226902
31
0
210
0
220
0
230
1
40
0.987534
41
0.778645720303549
42
1.21422098064054
0
ELLIPSE
5
130
100
AcDbEntity
8
1
62
256
6
ByLayer
370
18
48
1
60
0
100
AcDbEllipse
10
40.706126
20
-35.895478
30
0
11
0.802513991359513
21
0.823693689226902
31
0
210
0
220
0
230
1
40
0.987534
41
2.00639326481105
42
2.5884713329415
0
ELLIPSE
5
131
100
AcDbEntity
8
1
62
256
6
ByLayer
370
18
48
1
60
0
100
AcDbEllipse
10
40.706126
20
-35.895478
30
0
11
0.802513991359513
21
0.823693689226902
31
0
210
0
220
0
230
1
40
0.987534
41
3.08258535510241
42
0
0
ELLIPSE
5
132
100
AcDbEntity
8
1
62
256
6
ByLayer
370
18
48
1
60
0
100
AcDbEllipse
10
40.706126
20
-35.895478
30
0
11
0.802513991359513
21
0.823693689226902
31
0
210
0
220
0
230
1
40
0.987534
41
0
42
0.0962069311569865
0
ELLIPSE
5
133
100
AcDbEntity
8
1
62
256
6
ByLayer
370
18
48
1
60
0
100
AcDbEllipse
10
40.706126
20
-35.895478
30
0
11
0.802513991359513
21
0.823693689226902
31
0
210
0
220
0
230
1
40
0.987534
41
0.634989872114785
42
0.778645720303549
0
ELLIPSE
5
134
100
AcDbEntity
8
1
62
256
6
ByLayer
370
18
48
1
60
0
100
AcDbEllipse
10
40.587745
20
-35.780141
30
0
11
2.79135301342439
21
2.86502152774575
31
0
210
0
220
0
230
1
40
0.987534
41
0.78107410741534
42
3.1415882062199
0
ELLIPSE
5
135
100
AcDbEntity
8
1
62
256
6
ByLayer
370
18
48
1
60
0
100
AcDbEllipse
10
40.587745
20
-35.780141
30
0
11
2.79135301342439
21
2.86502152774575
31
0
210
0
220
0
230
1
40
0.987534
41
9.36334057278076E-05
42
0.368347099655312
0
ELLIPSE
5
136
100
AcDbEntity
8
1
62
256
6
ByLayer
370
18
48
1
60
0
100
AcDbEllipse
10
12
20
19.981782
30
0
11
-1.99999999999999
21
2.44921270764474E-16
31
0
210
0
220
0
230
1
40
0.681998
41
-1.57079637267777
42
-0.241510339410152
0
ELLIPSE
5
137
100
AcDbEntity
8
1
62
256
6
ByLayer
370
18
48
1
60
0
100
AcDbEllipse
10
12
20
19.981782
30
0
11
-1.99999999999999
21
2.44921270764474E-16
31
0
210
0
220
0
230
1
40
0.681998
41
-2.89998444442312
42
-1.57079637267779
0
ELLIPSE
5
138
100
AcDbEntity
8
1
62
256
6
ByLayer
370
18
48
1
60
0
100
AcDbEllipse
10
12
20
19.981782
30
0
11
-1.64999999999999
21
2.02060048380691E-16
31
0
210
0
220
0
230
1
40
0.681998
41
-1.57079606964747
42
0
0
ELLIPSE
5
139
100
AcDbEntity
8
1
62
256
6
ByLayer
370
18
48
1
60
0
100
AcDbEllipse
10
12
20
19.981782
30
0
11
-1.64999999999999
21
2.02060048380691E-16
31
0
210
0
220
0
230
1
40
0.681998
41
0
42
0.53927364821774
0
ELLIPSE
5
13A
100
AcDbEntity
8
1
62
256
6
ByLayer
370
18
48
1
60
0
100
AcDbEllipse
10
12
20
19.981782
30
0
11
-1.64999999999999
21
2.02060048380691E-16
31
0
210
0
220
0
230
1
40
0.681998
41
2.60222080710129
42
-1.57079606964749
0
ELLIPSE
5
13B
100
AcDbEntity
8
1
62
256
6
ByLayer
370
18
48
1
60
0
100
AcDbEllipse
10
44.319852
20
-29.860033
30
0
11
1.65314319602558
21
1.69677243339755
31
0
210
0
220
0
230
1
40
0.987534
41
1.32466675151839
42
1.6924786934658
0
ELLIPSE
5
13C
100
AcDbEntity
8
1
62
256
6
ByLayer
370
18
48
1
60
0
100
AcDbEllipse
10
53.98594
20
-38.141341
30
0
11
-3.83811039345856
21
-3.93940460065038
31
0
210
0
220
0
230
1
40
0.987534
41
-2.14853845995035
42
-1.91297773110387
0
ELLIPSE
5
13D
100
AcDbEntity
8
1
62
256
6
ByLayer
370
18
48
1
60
0
100
AcDbEllipse
10
54.290349
20
-38.437922
30
0
11
3.3332503630859
21
3.42122046250676
31
0
210
0
220
0
230
1
40
0.987534
41
1.08658207670532
42
1.1189487015444
0
ELLIPSE
5
13E
100
AcDbEntity
8
1
62
256
6
ByLayer
370
18
48
1
60
0
100
AcDbEllipse
10
54.290349
20
-38.437922
30
0
11
3.3332503630859
21
3.42122046250676
31
0
210
0
220
0
230
1
40
0.987534
41
-3.14078690175957
42
-3.1147309690134
0
ELLIPSE
5
13F
100
AcDbEntity
8
1
62
256
6
ByLayer
370
18
48
1
60
0
100
AcDbEllipse
10
53.98594
20
-38.141341
30
0
11
-3.83811039345856
21
-3.93940460065038
31
0
210
0
220
0
230
1
40
0.987534
41
-0.0239491959855041
42
0.120389567642281
0
ELLIPSE
5
140
100
AcDbEntity
8
1
62
256
6
ByLayer
370
18
48
1
60
0
100
AcDbEllipse
10
55.537386
20
-32.360755
30
0
11
1.1078182272028
21
1.13705541882409
31
0
210
0
220
0
230
1
40
0.987534
41
0.069852586270497
42
0.71380151332035
0
ELLIPSE
5
141
100
AcDbEntity
8
1
62
256
6
ByLayer
370
18
48
1
60
0
100
AcDbEllipse
10
50.007678
20
-41.55751
30
0
11
1.10781822720279
21
1.13705541882407
31
0
210
0
220
0
230
1
40
0.987534
41
2.94465960979801
42
-3.14158956499136
0
ELLIPSE
5
142
100
AcDbEntity
8
1
62
256
6
ByLayer
370
18
48
1
60
0
100
AcDbEllipse
10
9.658656
20
19.168867
30
0
11
-1.64324839203878
21
-1.46278321089011
31
0
210
0
220
0
230
1
40
0.147927
41
1.97123251968304
42
2.62131217512957
0
ELLIPSE
5
143
100
AcDbEntity
8
1
62
256
6
ByLayer
370
18
48
1
60
0
100
AcDbEllipse
10
12
20
16.538669
30
0
11
-0.976998250139495
21
3.7611141513101
31
0
210
0
220
0
230
1
40
0.377339
41
-0.174466243749807
42
-0.114825115478177
0
ELLIPSE
5
144
100
AcDbEntity
8
1
62
256
6
ByLayer
370
18
48
1
60
0
100
AcDbEllipse
10
22.613109
20
4.616209
30
0
11
1.64324839203875
21
1.46278321089014
31
0
210
0
220
0
230
1
40
0.147927
41
-3.14159124873432
42
-6.78962710833595E-06
0
ELLIPSE
5
145
100
AcDbEntity
8
1
62
256
6
ByLayer
370
18
48
1
60
0
100
AcDbEllipse
10
22.777505
20
4.431531
30
0
11
-1.45651562021619
21
-1.29655784601623
31
0
210
0
220
0
230
1
40
0.147927
41
0.150206706884312
42
2.99141867462236
0
ELLIPSE
5
146
100
AcDbEntity
8
1
62
256
6
ByLayer
370
18
48
1
60
0
100
AcDbEllipse
10
41.054108
20
-34.348535
30
0
11
0.296581257676342
21
0.304408537322986
31
0
210
0
220
0
230
1
40
0.987534
41
2.96486387275289
42
-3.14158583862833
0
ELLIPSE
5
147
100
AcDbEntity
8
1
62
256
6
ByLayer
370
18
48
1
60
0
100
AcDbEllipse
10
39.196555
20
-36.384267
30
0
11
0.296581257676342
21
0.304408537322986
31
0
210
0
220
0
230
1
40
0.987534
41
-1.8810542918947E-05
42
0.318982664743809
0
ELLIPSE
5
148
100
AcDbEntity
8
1
62
256
6
ByLayer
370
18
48
1
60
0
100
AcDbEllipse
10
41.552035
20
-34.968429
30
0
11
-0.265178536275319
21
-0.272177045135845
31
0
210
0
220
0
230
1
40
0.987534
41
1.75724481403983
42
2.65016371867172
0
ELLIPSE
5
149
100
AcDbEntity
8
1
62
256
6
ByLayer
370
18
48
1
60
0
100
AcDbEllipse
10
39.860217
20
-36.822527
30
0
11
-0.265178536275319
21
-0.272177045135845
31
0
210
0
220
0
230
1
40
0.987534
41
0.491408143513454
42
1.450594049635
0
ELLIPSE
5
14A
100
AcDbEntity
8
1
62
256
6
ByLayer
370
18
48
1
60
0
100
AcDbEllipse
10
42.215698
20
-35.406689
30
0
11
0.296581257676342
21
0.304408537322986
31
0
210
0
220
0
230
1
40
0.987534
41
1.75724481403989
42
3.14157244993314
0
ELLIPSE
5
14B
100
AcDbEntity
8
1
62
256
6
ByLayer
370
18
48
1
60
0
100
AcDbEllipse
10
40.358144
20
-37.442421
30
0
11
0.296581257676342
21
0.304408537322986
31
0
210
0
220
0
230
1
40
0.987534
41
6.81496146094601E-06
42
1.45059404963506
0
ELLIPSE
5
14C
100
AcDbEntity
8
1
62
256
6
ByLayer
370
18
48
1
60
0
100
AcDbEllipse
10
41.922543
20
-36.154761
30
0
11
-0.265178536275319
21
-0.272177045135845
31
0
210
0
220
0
230
1
40
0.987534
41
0.710047262843277
42
2.66026584144791
0
ELLIPSE
5
14D
100
AcDbEntity
8
1
62
256
6
ByLayer
370
18
48
1
60
0
100
AcDbEllipse
10
41.076634
20
-37.08181
30
0
11
-0.265178536275319
21
-0.272177045135845
31
0
210
0
220
0
230
1
40
0.987534
41
0.455261491284173
42
2.49779160083166
0
ELLIPSE
5
14E
100
AcDbEntity
8
1
62
256
6
ByLayer
370
18
48
1
60
0
100
AcDbEllipse
10
57.1247
20
-38.306382
30
0
11
-1.11139394241299
21
-2.32089560889169
31
0
210
0
220
0
230
1
40
0.561537
41
2.67306477768136
42
-2.58916296905142
0
ELLIPSE
5
14F
100
AcDbEntity
8
1
62
256
6
ByLayer
370
18
48
1
60
0
100
AcDbEllipse
10
56.645982
20
-40.434511
30
0
11
-1.18002972418102
21
-1.30251822454913
31
0
210
0
220
0
230
1
40
0.817891
41
0.440255099981863
42
1.46121266042788
0
ELLIPSE
5
150
100
AcDbEntity
8
1
62
256
6
ByLayer
370
18
48
1
60
0
100
AcDbEllipse
10
54.36927
20
-38.514814
30
0
11
2.34065081979866
21
2.40242454301115
31
0
210
0
220
0
230
1
40
0.987534
41
-2.20962498377015
42
0.181476091462077
0
ELLIPSE
5
151
100
AcDbEntity
8
1
62
256
6
ByLayer
370
18
48
1
60
0
100
AcDbEllipse
10
54.950824
20
-38.638774
30
0
11
2.27669814141906
21
2.33678404557733
31
0
210
0
220
0
230
1
40
0.987534
41
-1.62493968435205
42
-0.403209207956018
0
ELLIPSE
5
152
100
AcDbEntity
8
1
62
256
6
ByLayer
370
18
48
1
60
0
100
AcDbEllipse
10
52.452773
20
-33.621443
30
0
11
-3.87493674155284
21
8.82516442983192
31
0
210
0
220
0
230
1
40
0.705728
41
2.39247927404878
42
2.45604993322208
0
ELLIPSE
5
153
100
AcDbEntity
8
1
62
256
6
ByLayer
370
18
48
1
60
0
100
AcDbEllipse
10
54.567494
20
-38.2653
30
0
11
-3.14027214010246
21
-3.22314921871395
31
0
210
0
220
0
230
1
40
0.987534
41
0.993054193639439
42
1.51665296923774
0
ELLIPSE
5
154
100
AcDbEntity
8
1
62
256
6
ByLayer
370
18
48
1
60
0
100
AcDbEllipse
10
54.567494
20
-38.2653
30
0
11
-3.14027214010246
21
-3.22314921871395
31
0
210
0
220
0
230
1
40
0.987534
41
1.51665296923774
42
2.73838344563378
0
ELLIPSE
5
155
100
AcDbEntity
8
1
62
256
6
ByLayer
370
18
48
1
60
0
100
AcDbEllipse
10
54.567494
20
-38.2653
30
0
11
-3.14027214010246
21
-3.22314921871395
31
0
210
0
220
0
230
1
40
0.987534
41
2.73838344563378
42
-3.02120308594751
0
ELLIPSE
5
156
100
AcDbEntity
8
1
62
256
6
ByLayer
370
18
48
1
60
0
100
AcDbEllipse
10
54.950824
20
-38.638774
30
0
11
-2.5045224722258
21
-2.57062104475529
31
0
210
0
220
0
230
1
40
0.987534
41
0.993054193639443
42
1.0868186931974
0
ELLIPSE
5
157
100
AcDbEntity
8
1
62
256
6
ByLayer
370
18
48
1
60
0
100
AcDbEllipse
10
50.973358
20
-40.198138
30
0
11
-8.06038494854176
21
-2.11288387069368
31
0
210
0
220
0
230
1
40
0.734404
41
-2.05544724242404
42
-1.99187658296695
0
ELLIPSE
5
158
100
AcDbEntity
8
1
62
256
6
ByLayer
370
18
48
1
60
0
100
AcDbEllipse
10
54.950824
20
-38.638774
30
0
11
-2.5045224722258
21
-2.57062104475529
31
0
210
0
220
0
230
1
40
0.987534
41
-3.11496758550547
42
-3.02120308594751
0
ELLIPSE
5
159
100
AcDbEntity
8
1
62
256
6
ByLayer
370
18
48
1
60
0
100
AcDbEllipse
10
12
20
20.403367
30
0
11
-1.99999999999995
21
2.02127811016468E-15
31
0
210
0
220
0
230
1
40
0.707538
41
0.751504621492281
42
2.3900880320975
0
ELLIPSE
5
15A
100
AcDbEntity
8
1
62
256
6
ByLayer
370
18
48
1
60
0
100
AcDbEllipse
10
-2.347154
20
0
30
0
11
-14.7536831606537
21
31.0932549155779
31
0
210
0
220
0
230
1
40
0.341999
41
-2.98378646694435
42
-2.05035306783689
0
ELLIPSE
5
15B
100
AcDbEntity
8
1
62
256
6
ByLayer
370
18
48
1
60
0
100
AcDbEllipse
10
26.347154
20
0
30
0
11
-14.7536831606553
21
31.09325491558
31
0
210
0
220
0
230
1
40
0.341999
41
0.157806186645436
42
1.09123958575285
0
ELLIPSE
5
15C
100
AcDbEntity
8
1
62
256
6
ByLayer
370
18
48
1
60
0
100
AcDbEllipse
10
20.755893
20
0
30
0
11
1.92875500727024E-15
21
31.5
31
0
210
0
220
0
230
1
40
0.087489
41
0.46538125171069
42
2.83019126951569
0
ELLIPSE
5
15D
100
AcDbEntity
8
1
62
256
6
ByLayer
370
18
48
1
60
0
100
AcDbEllipse
10
19.640695
20
12.96521
30
0
11
-0.0107660334582212
21
-2.82966792465471
31
0
210
0
220
0
230
1
40
0.065127
41
1.77762149897546
42
-2.9347674814094
0
ELLIPSE
5
15E
100
AcDbEntity
8
1
62
256
6
ByLayer
370
18
48
1
60
0
100
AcDbEllipse
10
32.570291
20
-24.419692
30
0
11
-5.4963770760447
21
1.10563046684104
31
0
210
0
220
0
230
1
40
0.710897
41
3.12541268684177
42
-2.46808781437318
0
ELLIPSE
5
15F
100
AcDbEntity
8
1
62
256
6
ByLayer
370
18
48
1
60
0
100
AcDbEllipse
10
12
20
18.185217
30
0
11
-1.87686272355921
21
-2.86780973811241
31
0
210
0
220
0
230
1
40
0.240927
41
2.46235164835305
42
3.11536358140552
0
ELLIPSE
5
160
100
AcDbEntity
8
1
62
256
6
ByLayer
370
18
48
1
60
0
100
AcDbEllipse
10
12
20
18.185217
30
0
11
-1.87686272356697
21
2.86780973812225
31
0
210
0
220
0
230
1
40
0.240927
41
0.0262290721842245
42
0.679241005235341
0
ELLIPSE
5
161
100
AcDbEntity
8
1
62
256
6
ByLayer
370
18
48
1
60
0
100
AcDbEllipse
10
26.347154
20
0
30
0
11
-14.7536831606555
21
-31.0932549155802
31
0
210
0
220
0
230
1
40
0.341999
41
-1.09123958575285
42
-0.157806186645435
0
ELLIPSE
5
162
100
AcDbEntity
8
1
62
256
6
ByLayer
370
18
48
1
60
0
100
AcDbEllipse
10
12
20
20.403367
30
0
11
-2.00000000000004
21
2.02127811016477E-15
31
0
210
0
220
0
230
1
40
0.707538
41
-2.39008803209745
42
-0.751504621492326
0
ELLIPSE
5
163
100
AcDbEntity
8
1
62
256
6
ByLayer
370
18
48
1
60
0
100
AcDbEllipse
10
19.381116
20
12.140001
30
0
11
-0.0107660334581902
21
-2.8296679246545
31
0
210
0
220
0
230
1
40
0.065127
41
-2.93476748140941
42
-1.36397115461461
0
ELLIPSE
5
164
100
AcDbEntity
8
1
62
256
6
ByLayer
370
18
48
1
60
0
100
AcDbEllipse
10
-2.347154
20
0
30
0
11
-14.7536831606548
21
-31.0932549155792
31
0
210
0
220
0
230
1
40
0.341999
41
2.05035306783692
42
2.98378646694436
0
ELLIPSE
5
165
100
AcDbEntity
8
1
62
256
6
ByLayer
370
18
48
1
60
0
100
AcDbEllipse
10
24.525473
20
-70.381756
30
0
11
-2.21548074251706E-15
21
36.1827412637842
31
0
210
0
220
0
230
-1
40
0.11055
41
-0.156747552555783
42
-0.112984309937162
0
ELLIPSE
5
166
100
AcDbEntity
8
1
62
256
6
ByLayer
370
18
48
1
60
0
100
AcDbEllipse
10
44.574596
20
-29.702005
30
0
11
1.65314319602558
21
1.69677243339755
31
0
210
0
220
0
230
1
40
0.987534
41
-0.246129575276511
42
1.32466675151838
0
ELLIPSE
5
167
100
AcDbEntity
8
1
62
256
6
ByLayer
370
18
48
1
60
0
100
AcDbEllipse
10
64.211311
20
-44.211053
30
0
11
-0.553909113601406
21
-0.568527709412044
31
0
210
0
220
0
230
1
40
0.987534
41
0.713801513320379
42
2.89546307831326
0
ELLIPSE
5
168
100
AcDbEntity
8
1
62
256
6
ByLayer
370
18
48
1
60
0
100
AcDbEllipse
10
57.211603
20
-32.776567
30
0
11
-0.553909113601406
21
-0.568527709412044
31
0
210
0
220
0
230
1
40
0.987534
41
2.89546307831328
42
-2.42779114026945
0
ELLIPSE
5
169
100
AcDbEntity
8
1
62
256
6
ByLayer
370
18
48
1
60
0
100
AcDbEllipse
10
50.760277
20
-43.506114
30
0
11
-0.553909113601406
21
-0.568527709412044
31
0
210
0
220
0
230
1
40
0.987534
41
-0.24612957527653
42
0.713801513320353
0
ELLIPSE
5
16A
100
AcDbEntity
8
1
62
256
6
ByLayer
370
18
48
1
60
0
100
AcDbEllipse
10
51.667169
20
-41.64066
30
0
11
-1.06317309325178
21
-0.176011767009195
31
0
210
0
220
0
230
1
40
0.129407
41
0.860249538204891
42
1.38384831383333
0
ELLIPSE
5
16B
100
AcDbEntity
8
1
62
256
6
ByLayer
370
18
48
1
60
0
100
AcDbEllipse
10
39.28523
20
-28.457022
30
0
11
-2.88477964921915
21
0.840145193423527
31
0
210
0
220
0
230
1
40
0.448671
41
-0.0191915564837325
42
0.518122400838858
0
ELLIPSE
5
16C
100
AcDbEntity
8
1
62
256
6
ByLayer
370
18
48
1
60
0
100
AcDbEllipse
10
35.099205
20
-29.61648
30
0
11
-2.66344707801703
21
-1.40123612187623
31
0
210
0
220
0
230
1
40
0.988643
41
-1.75247082810283
42
-0.699939923641138
0
ELLIPSE
5
16D
100
AcDbEntity
8
1
62
256
6
ByLayer
370
18
48
1
60
0
100
AcDbEllipse
10
55.763613
20
-36.356609
30
0
11
-1.23084558861577
21
7.65207244835494
31
0
210
0
220
0
230
1
40
0.541677
41
0.975502593619757
42
1.05480503272151
0
ELLIPSE
5
16E
100
AcDbEntity
8
1
62
256
6
ByLayer
370
18
48
1
60
0
100
AcDbEllipse
10
53.245345
20
-34.624928
30
0
11
-0.874174793435098
21
0.63936065404637
31
0
210
0
220
0
230
1
40
0.269943
41
-1.3194281451153
42
-0.795829369503577
0
ELLIPSE
5
16F
100
AcDbEntity
8
1
62
256
6
ByLayer
370
18
48
1
60
0
100
AcDbEllipse
10
36.631362
20
-39.829111
30
0
11
-4.91137283667448
21
0.949223357854187
31
0
210
0
220
0
230
1
40
0.13683
41
-0.494371612388409
42
-0.388977937530313
0
ELLIPSE
5
170
100
AcDbEntity
8
1
62
256
6
ByLayer
370
18
48
1
60
0
100
AcDbEllipse
10
37.331289
20
-36.71761
30
0
11
-5.52673361218252
21
-1.84611428617805
31
0
210
0
220
0
230
1
40
0.120283
41
0.417647112775348
42
1.28939799336977
0
ELLIPSE
5
171
100
AcDbEntity
8
1
62
256
6
ByLayer
370
18
48
1
60
0
100
AcDbEllipse
10
38.282649
20
-32.488365
30
0
11
4.87810299161002
21
-1.09732000949831
31
0
210
0
220
0
230
1
40
0.083175
41
-2.50322075590716
42
-2.01002282198714
0
ELLIPSE
5
172
100
AcDbEntity
8
1
62
256
6
ByLayer
370
18
48
1
60
0
100
AcDbEllipse
10
34.108302
20
-38.985505
30
0
11
-0.601090469014155
21
1.90753512367672
31
0
210
0
220
0
230
1
40
0.85762
41
1.14889481180965
42
2.59810953553624
0
ELLIPSE
5
173
100
AcDbEntity
8
1
62
256
6
ByLayer
370
18
48
1
60
0
100
AcDbEllipse
10
38.096751
20
-33.314769
30
0
11
-1.86898624750448
21
5.50723322799823
31
0
210
0
220
0
230
1
40
0.061891
41
-1.40089888594773
42
-0.476582806388486
0
ELLIPSE
5
174
100
AcDbEntity
8
1
62
256
6
ByLayer
370
18
48
1
60
0
100
AcDbEllipse
10
37.331289
20
-36.71761
30
0
11
-4.00002881857554
21
-4.24260640310258
31
0
210
0
220
0
230
1
40
0.134958
41
0.353496837347282
42
1.27781291690418
0
ELLIPSE
5
175
100
AcDbEntity
8
1
62
256
6
ByLayer
370
18
48
1
60
0
100
AcDbEllipse
10
36.299865
20
-41.728374
30
0
11
-2.96205729250668
21
0.500337236212094
31
0
210
0
220
0
230
1
40
0.282948
41
-0.505490555227016
42
0.0318234020988494
0
ELLIPSE
5
176
100
AcDbEntity
8
1
62
256
6
ByLayer
370
18
48
1
60
0
100
AcDbEllipse
10
38.486618
20
-31.592802
30
0
11
-2.42615365605532
21
3.84689580761128
31
0
210
0
220
0
230
1
40
0.531047
41
-0.477715293968567
42
-0.156372040989081
0
ELLIPSE
5
177
100
AcDbEntity
8
1
62
256
6
ByLayer
370
18
48
1
60
0
100
AcDbEllipse
10
38.796677
20
-30.203268
30
0
11
-4.8418677007959
21
1.25727766552237
31
0
210
0
220
0
230
1
40
0.303008
41
0.394763552319561
42
0.500157226798924
0
ELLIPSE
5
178
100
AcDbEntity
8
1
62
256
6
ByLayer
370
18
48
1
60
0
100
AcDbEllipse
10
36.658256
20
-39.720728
30
0
11
-3.84862770088811
21
-0.899939989752512
31
0
210
0
220
0
230
1
40
0.443257
41
0.434318692335601
42
0.755661945316259
0
ELLIPSE
5
179
100
AcDbEntity
8
1
62
256
6
ByLayer
370
18
48
1
60
0
100
AcDbEllipse
10
37.145391
20
-37.544014
30
0
11
4.87810299161002
21
-1.09732000949831
31
0
210
0
220
0
230
1
40
0.083175
41
-2.50322075590718
42
-2.01002282198715
0
ELLIPSE
5
17A
100
AcDbEntity
8
1
62
256
6
ByLayer
370
18
48
1
60
0
100
AcDbEllipse
10
54.683428
20
-41.158538
30
0
11
-5.19742935477695
21
-2.28344739222053
31
0
210
0
220
0
230
1
40
0.479203
41
-0.45997165913716
42
-0.380669218278675
0
ELLIPSE
5
17B
100
AcDbEntity
8
1
62
256
6
ByLayer
370
18
48
1
60
0
100
AcDbEllipse
10
36.10384
20
-30.114401
30
0
11
1.62704693936932
21
1.16306416722765
31
0
210
0
220
0
230
1
40
0.802911
41
0.786293165216875
42
2.23550788894345
0
ELLIPSE
5
17C
100
AcDbEntity
8
1
62
256
6
ByLayer
370
18
48
1
60
0
100
AcDbEllipse
10
33.270843
20
-37.744407
30
0
11
-2.66344707801908
21
-1.40123612187327
31
0
210
0
220
0
230
1
40
0.988643
41
-0.699939923639974
42
0.352590980821592
0
ELLIPSE
5
17D
100
AcDbEntity
8
1
62
256
6
ByLayer
370
18
48
1
60
0
100
AcDbEllipse
10
38.096751
20
-33.314769
30
0
11
-4.22791074164588
21
3.98771042255083
31
0
210
0
220
0
230
1
40
0.002215
41
0.491530130471378
42
1.36328101095306
0
ELLIPSE
5
17E
100
AcDbEntity
8
1
62
256
6
ByLayer
370
18
48
1
60
0
100
AcDbEllipse
10
40.9598
20
-36.14263
30
0
11
0.819959947693415
21
0.841600073775313
31
0
210
0
220
0
230
1
40
0.987534
41
-2.64811462464763
42
-2.52162692125023
0
ELLIPSE
5
17F
100
AcDbEntity
8
1
62
256
6
ByLayer
370
18
48
1
60
0
100
AcDbEllipse
10
39.743384
20
-35.883347
30
0
11
-0.265178536275319
21
-0.272177045135845
31
0
210
0
220
0
230
1
40
0.987534
41
-2.43154539074649
42
0.403396498438467
0
ELLIPSE
5
180
100
AcDbEntity
8
1
62
256
6
ByLayer
370
18
48
1
60
0
100
AcDbEllipse
10
40.862075
20
-36.047417
30
0
11
-2.79135301342441
21
-2.86502152774573
31
0
210
0
220
0
230
1
40
0.987534
41
0
42
6.28318530717959
0
ELLIPSE
5
181
100
AcDbEntity
8
1
62
256
6
ByLayer
370
18
48
1
60
0
100
AcDbEllipse
10
41.330308
20
-37.328961
30
0
11
-0.265178536275319
21
-0.272177045135845
31
0
210
0
220
0
230
1
40
0.987534
41
-0.337150288353281
42
2.49779160083163
0
ELLIPSE
5
182
100
AcDbEntity
8
1
62
256
6
ByLayer
370
18
48
1
60
0
100
AcDbEllipse
10
42.176217
20
-36.401912
30
0
11
-0.265178536275319
21
-0.272177045135845
31
0
210
0
220
0
230
1
40
0.987534
41
0.710047262843265
42
-2.73819615515134
0
ELLIPSE
5
183
100
AcDbEntity
8
1
62
256
6
ByLayer
370
18
48
1
60
0
100
AcDbEllipse
10
40.9598
20
-36.14263
30
0
11
0.819959947693415
21
0.841600073775313
31
0
210
0
220
0
230
1
40
0.987534
41
-0.553719522254416
42
-0.427231818857037
0
ELLIPSE
5
184
100
AcDbEntity
8
1
62
256
6
ByLayer
370
18
48
1
60
0
100
AcDbEllipse
10
41.307782
20
-34.595686
30
0
11
0.296581257676342
21
0.304408537322986
31
0
210
0
220
0
230
1
40
0.987534
41
2.8044423652365
42
-2.76050649149737
0
ELLIPSE
5
185
100
AcDbEntity
8
1
62
256
6
ByLayer
370
18
48
1
60
0
100
AcDbEllipse
10
40.9598
20
-36.14263
30
0
11
0.819959947693415
21
0.841600073775313
31
0
210
0
220
0
230
1
40
0.987534
41
0.493478028942166
42
0.619965732339558
0
ELLIPSE
5
186
100
AcDbEntity
8
1
62
256
6
ByLayer
370
18
48
1
60
0
100
AcDbEllipse
10
40.611818
20
-37.689573
30
0
11
0.296581257676342
21
0.304408537322986
31
0
210
0
220
0
230
1
40
0.987534
41
0.732357599189311
42
1.4505940496351
0
ELLIPSE
5
187
100
AcDbEntity
8
1
62
256
6
ByLayer
370
18
48
1
60
0
100
AcDbEllipse
10
41.805709
20
-35.21558
30
0
11
-0.265178536275319
21
-0.272177045135845
31
0
210
0
220
0
230
1
40
0.987534
41
1.75724481403986
42
-1.69099860395473
0
ELLIPSE
5
188
100
AcDbEntity
8
1
62
256
6
ByLayer
370
18
48
1
60
0
100
AcDbEllipse
10
40.9598
20
-36.14263
30
0
11
0.819959947693415
21
0.841600073775313
31
0
210
0
220
0
230
1
40
0.987534
41
-1.60091707345103
42
-1.47442937005363
0
ELLIPSE
5
189
100
AcDbEntity
8
1
62
256
6
ByLayer
370
18
48
1
60
0
100
AcDbEllipse
10
39.798211
20
-35.084475
30
0
11
0.296581257676342
21
0.304408537322986
31
0
210
0
220
0
230
1
40
0.987534
41
-2.43154539074656
42
-1.7133089403008
0
ELLIPSE
5
18A
100
AcDbEntity
8
1
62
256
6
ByLayer
370
18
48
1
60
0
100
AcDbEllipse
10
39.450229
20
-36.631419
30
0
11
0.296581257676342
21
0.304408537322986
31
0
210
0
220
0
230
1
40
0.987534
41
-1.38434783954995
42
-0.666111389104225
0
ELLIPSE
5
18B
100
AcDbEntity
8
1
62
256
6
ByLayer
370
18
48
1
60
0
100
AcDbEllipse
10
41.867716
20
-36.953632
30
0
11
0.296581257676342
21
0.304408537322986
31
0
210
0
220
0
230
1
40
0.987534
41
0.710047262843262
42
2.49779160083167
0
ELLIPSE
5
18C
100
AcDbEntity
8
1
62
256
6
ByLayer
370
18
48
1
60
0
100
AcDbEllipse
10
39.450229
20
-36.631419
30
0
11
0.296581257676342
21
0.304408537322986
31
0
210
0
220
0
230
1
40
0.987534
41
-0.314839952007311
42
0.403396498438432
0
ELLIPSE
5
18D
100
AcDbEntity
8
1
62
256
6
ByLayer
370
18
48
1
60
0
100
AcDbEllipse
10
40.589293
20
-34.956298
30
0
11
-0.265178536275319
21
-0.272177045135845
31
0
210
0
220
0
230
1
40
0.987534
41
2.80444236523647
42
-0.643801052758138
0
ELLIPSE
5
18E
100
AcDbEntity
8
1
62
256
6
ByLayer
370
18
48
1
60
0
100
AcDbEllipse
10
41.307782
20
-34.595686
30
0
11
0.296581257676342
21
0.304408537322986
31
0
210
0
220
0
230
1
40
0.987534
41
-2.40923505440051
42
-1.69099860395473
0
ELLIPSE
5
18F
100
AcDbEntity
8
1
62
256
6
ByLayer
370
18
48
1
60
0
100
AcDbEllipse
10
40.9598
20
-36.14263
30
0
11
-1.60502798271903
21
-1.64738737845379
31
0
210
0
220
0
230
1
40
0.987534
41
0
42
6.28318530717959
0
ELLIPSE
5
190
100
AcDbEntity
8
1
62
256
6
ByLayer
370
18
48
1
60
0
100
AcDbEllipse
10
40.9598
20
-36.14263
30
0
11
0.819959947693415
21
0.841600073775313
31
0
210
0
220
0
230
1
40
0.987534
41
2.58787313133536
42
2.71436083473276
0
ELLIPSE
5
191
100
AcDbEntity
8
1
62
256
6
ByLayer
370
18
48
1
60
0
100
AcDbEllipse
10
42.469372
20
-35.653841
30
0
11
0.296581257676342
21
0.304408537322986
31
0
210
0
220
0
230
1
40
0.987534
41
1.75724481403988
42
2.47548126448568
0
ELLIPSE
5
192
100
AcDbEntity
8
1
62
256
6
ByLayer
370
18
48
1
60
0
100
AcDbEllipse
10
40.611818
20
-37.689573
30
0
11
0.296581257676342
21
0.304408537322986
31
0
210
0
220
0
230
1
40
0.987534
41
-0.337150288353332
42
0.381086162092453
0
ELLIPSE
5
193
100
AcDbEntity
8
1
62
256
6
ByLayer
370
18
48
1
60
0
100
AcDbEllipse
10
39.798211
20
-35.084475
30
0
11
0.296581257676342
21
0.304408537322986
31
0
210
0
220
0
230
1
40
0.987534
41
-1.36203750320389
42
-0.643801052758167
0
ELLIPSE
5
194
100
AcDbEntity
8
1
62
256
6
ByLayer
370
18
48
1
60
0
100
AcDbEllipse
10
40.113892
20
-37.069679
30
0
11
-0.265178536275319
21
-0.272177045135845
31
0
210
0
220
0
230
1
40
0.987534
41
-1.38434783954996
42
1.45059404963504
0
ELLIPSE
5
195
100
AcDbEntity
8
1
62
256
6
ByLayer
370
18
48
1
60
0
100
AcDbEllipse
10
42.12139
20
-37.200784
30
0
11
0.296581257676342
21
0.304408537322986
31
0
210
0
220
0
230
1
40
0.987534
41
0.710047262843262
42
1.42828371328901
0
ELLIPSE
5
196
100
AcDbEntity
8
1
62
256
6
ByLayer
370
18
48
1
60
0
100
AcDbEllipse
10
42.469372
20
-35.653841
30
0
11
0.296581257676342
21
0.304408537322986
31
0
210
0
220
0
230
1
40
0.987534
41
2.8267527015825
42
-2.73819615515135
0
ELLIPSE
5
197
100
AcDbEntity
8
1
62
256
6
ByLayer
370
18
48
1
60
0
100
AcDbEllipse
10
40.9598
20
-36.14263
30
0
11
0.819959947693415
21
0.841600073775313
31
0
210
0
220
0
230
1
40
0.987534
41
1.54067558013877
42
1.66716328353617
0
ELLIPSE
5
198
100
AcDbEntity
8
1
62
256
6
ByLayer
370
18
48
1
60
0
100
AcDbEllipse
10
42.12139
20
-37.200784
30
0
11
0.296581257676342
21
0.304408537322986
31
0
210
0
220
0
230
1
40
0.987534
41
1.7795551503859
42
2.49779160083164
0
POINT
5
6C
100
AcDbEntity
8
2
62
256
6
ByLayer
370
18
48
1
60
0
100
AcDbPoint
10
65
20
45
30
0
39
0
210
0
220
0
230
1
50
360
0
POINT
5
6E
100
AcDbEntity
8
80
62
256
6
ByLayer
370
18
48
1
60
0
100
AcDbPoint
10
0
20
0
30
0
39
0
210
0
220
0
230
1
50
360
0
POINT
5
70
100
AcDbEntity
8
81
62
256
6
ByLayer
370
18
48
1
60
0
100
AcDbPoint
10
65
20
-45
30
0
39
0
210
0
220
0
230
1
50
360
0
SPLINE
5
199
100
AcDbEntity
8
SK1
62
256
6
ByLayer
370
18
48
1
60
0
100
AcDbSpline
70
4
71
3
72
13
73
9
40
0
40
0
40
0
40
0
40
0.239456135835734
40
0.368359722028796
40
0.499998984123831
40
0.631638415376812
40
0.760542467847005
40
1
40
1
40
1
40
1
41
1
10
-2.19999999999999
20
-22.0200986775813
30
0
41
1
10
-2.19909198642387
20
-21.9940412014509
30
0
41
1
10
-2.19103284107055
20
-21.9566686170919
30
0
41
1
10
-2.16563592203485
20
-21.9104494432231
30
0
41
1
10
-2.13886378679456
20
-21.8791678893422
30
0
41
1
10
-2.10627712750076
20
-21.854000519123
30
0
41
1
10
-2.05884064234343
20
-21.8309567166392
30
0
41
1
10
-2.02111030873166
20
-21.8247844616134
30
0
41
1
10
-1.99503997793928
20
-21.8251861015554
30
0
0
SPLINE
5
19A
100
AcDbEntity
8
SK1
62
256
6
ByLayer
370
18
48
1
60
0
100
AcDbSpline
70
4
71
3
72
13
73
9
40
0
40
0
40
0
40
0
40
0.239457532221833
40
0.36836158471627
40
0.500001015978903
40
0.631640278066344
40
0.760543864236282
40
1
40
1
40
1
40
1
41
1
10
-1.99503997793928
20
21.825186084775
30
0
41
1
10
-2.02111030873024
20
21.8247844448324
30
0
41
1
10
-2.05884064234078
20
21.8309566998545
30
0
41
1
10
-2.10627712749869
20
21.8540005023229
30
0
41
1
10
-2.1388637867926
20
21.8791678725253
30
0
41
1
10
-2.16563592203337
20
21.9104494263858
30
0
41
1
10
-2.19103284106941
20
21.9566686002238
30
0
41
1
10
-2.19909198642273
20
21.9940411845603
30
0
41
1
10
-2.19999999999999
20
22.0200986606755
30
0
0
SPLINE
5
19B
100
AcDbEntity
8
SK1
62
256
6
ByLayer
370
18
48
1
60
0
100
AcDbSpline
70
4
71
2
72
6
73
3
40
0
40
0
40
0
40
1
40
1
40
1
41
1
10
-36.5
20
-21.1521149580209
30
0
41
1
10
-19.3499999999869
20
-21.5828539542124
30
0
41
1
10
-2.19999999999999
20
-22.0135927638551
30
0
0
SPLINE
5
19C
100
AcDbEntity
8
SK1
62
256
6
ByLayer
370
18
48
1
60
0
100
AcDbSpline
70
4
71
2
72
6
73
3
40
0
40
0
40
0
40
1
40
1
40
1
41
1
10
-2.19999999999999
20
22.0135928951589
30
0
41
1
10
-19.34999999997
20
21.5828554470541
30
0
41
1
10
-36.5
20
21.1521177089669
30
0
0
SPLINE
5
19D
100
AcDbEntity
8
SK1
62
256
6
ByLayer
370
18
48
1
60
0
100
AcDbSpline
70
4
71
2
72
6
73
3
40
0
40
0
40
0
40
1
40
1
40
1
41
1
10
-1.99503997793928
20
-21.8251813124779
30
0
41
1
10
-1.19500843340728
20
-21.8452807593862
30
0
41
1
10
-0.394976888875277
20
-21.8653802062992
30
0
0
SPLINE
5
19E
100
AcDbEntity
8
SK1
62
256
6
ByLayer
370
18
48
1
60
0
100
AcDbSpline
70
4
71
2
72
6
73
3
40
0
40
0
40
0
40
1
40
1
40
1
41
1
10
-0.394976888875277
20
21.8653801495793
30
0
41
1
10
-1.19500843340728
20
21.8452807024746
30
0
41
1
10
-1.99503997793928
20
21.8251812553753
30
0
0
SPLINE
5
19F
100
AcDbEntity
8
SK1
62
256
6
ByLayer
370
18
48
1
60
0
100
AcDbSpline
70
4
71
2
72
6
73
3
40
0
40
0
40
0
40
1
40
1
40
1
41
1
10
-36.5
20
21.1553029418638
30
0
41
1
10
-37.2500000000012
20
20.7223540793632
30
0
41
1
10
-38
20
20.289405225553
30
0
0
SPLINE
5
1A0
100
AcDbEntity
8
SK1
62
256
6
ByLayer
370
18
48
1
60
0
100
AcDbSpline
70
4
71
2
72
6
73
3
40
0
40
0
40
0
40
1
40
1
40
1
41
1
10
-38
20
-20.2894050057151
30
0
41
1
10
-37.2500000000012
20
-20.7223538609616
30
0
41
1
10
-36.5
20
-21.155302724897
30
0
0
SPLINE
5
1A1
100
AcDbEntity
8
SK1
62
256
6
ByLayer
370
18
48
1
60
0
100
AcDbSpline
70
4
71
2
72
6
73
3
40
0
40
0
40
0
40
1
40
1
40
1
41
1
10
-0.240502439654279
20
21.9465691723769
30
0
41
1
10
-0.265172990617003
20
21.8689012906761
30
0
41
1
10
-0.394976888875277
20
21.8653849865467
30
0
0
SPLINE
5
1A2
100
AcDbEntity
8
SK1
62
256
6
ByLayer
370
18
48
1
60
0
100
AcDbSpline
70
4
71
2
72
6
73
3
40
0
40
0
40
0
40
1
40
1
40
1
41
1
10
-0.394976888875277
20
-21.865385003355
30
0
41
1
10
-0.264174311740362
20
-21.8692639605625
30
0
41
1
10
-0.239684768755779
20
-21.9481214799355
30
0
0
SPLINE
5
1A3
100
AcDbEntity
8
1
62
256
6
ByLayer
370
18
48
1
60
0
100
AcDbSpline
70
4
71
3
72
8
73
4
40
0
40
0
40
0
40
0
40
1
40
1
40
1
40
1
41
1
10
34.2179041469515
20
-26.7734463882102
30
0
41
1
10
34.4381904234127
20
-26.7295110108209
30
0
41
1
10
34.6557605831728
20
-26.7100443752528
30
0
41
1
10
34.8673289709895
20
-26.7093005182817
30
0
0
SPLINE
5
1A4
100
AcDbEntity
8
1
62
256
6
ByLayer
370
18
48
1
60
0
100
AcDbSpline
70
4
71
3
72
8
73
4
40
0
40
0
40
0
40
0
40
1
40
1
40
1
40
1
41
1
10
31.2496424378759
20
-39.9687642513583
30
0
41
1
10
31.4396290645645
20
-40.1293938441939
30
0
41
1
10
31.638262458202
20
-40.265899663529
30
0
41
1
10
31.8388869255586
20
-40.3826071117003
30
0
0
SPLINE
5
1A5
100
AcDbEntity
8
SK1
62
256
6
ByLayer
370
18
48
1
60
0
100
AcDbSpline
70
4
71
3
72
299
73
295
40
0
40
0
40
0
40
0
40
0.00329498096104
40
0.0068177079915384
40
0.0103404350220368
40
0.0138631620525351
40
0.0173858890830335
40
0.0209086161135318
40
0.0244313431440302
40
0.0279540701745286
40
0.0349995242355253
40
0.042044978296522
40
0.0490904323575187
40
0.0526131593880171
40
0.0561358864185155
40
0.0596586134490138
40
0.0631813404795122
40
0.0702267945405089
40
0.0737495215710073
40
0.0772722486015056
40
0.080794975632004
40
0.0843177026625023
40
0.0878404296930007
40
0.0913631567234991
40
0.0984086107844958
40
0.101931337814994
40
0.105454064845492
40
0.108976791875991
40
0.112499518906489
40
0.116022245936988
40
0.119544972967486
40
0.123067699997984
40
0.126590427028483
40
0.130113154058981
40
0.133635881089479
40
0.137158608119978
40
0.140681335150476
40
0.144204062180975
40
0.147726789211473
40
0.15477224327247
40
0.158294970302968
40
0.161817697333466
40
0.163579060848716
40
0.165340424363965
40
0.168863151394463
40
0.17590860545546
40
0.179431332485958
40
0.182954059516456
40
0.186476786546955
40
0.189999513577453
40
0.19704496763845
40
0.200567694668948
40
0.204090421699447
40
0.205851785214696
40
0.207613148729945
40
0.211135875760443
40
0.21818132982144
40
0.221704056851938
40
0.225226783882437
40
0.228749510912935
40
0.232272237943433
40
0.23931769200443
40
0.242840419034929
40
0.246363146065427
40
0.248124509580676
40
0.249885873095925
40
0.253408600126424
40
0.256931327156922
40
0.26045405418742
40
0.262215417702669
40
0.263976781217919
40
0.267499508248417
40
0.271022235278915
40
0.274544962309414
40
0.278067689339912
40
0.28159041637041
40
0.285113143400909
40
0.288635870431407
40
0.292158597461906
40
0.295681324492404
40
0.299204051522902
40
0.302726778553401
40
0.306249505583899
40
0.309772232614397
40
0.313294959644896
40
0.316817686675394
40
0.323863140736391
40
0.327385867766889
40
0.330908594797387
40
0.334431321827886
40
0.337954048858384
40
0.341476775888883
40
0.344999502919381
40
0.348522229949879
40
0.352044956980378
40
0.359090411041375
40
0.366135865102371
40
0.373181319163368
40
0.376704046193866
40
0.380226773224365
40
0.383749500254863
40
0.387272227285361
40
0.39079495431586
40
0.394317681346358
40
0.397840408376856
40
0.401363135407355
40
0.404885862437853
40
0.408408589468352
40
0.41193131649885
40
0.415454043529348
40
0.418976770559847
40
0.422499497590345
40
0.426022224620843
40
0.429544951651342
40
0.43306767868184
40
0.434829042197089
40
0.436590405712338
40
0.438351769227588
40
0.440113132742837
40
0.443635859773335
40
0.447158586803834
40
0.448919950319083
40
0.450681313834332
40
0.452442677349581
40
0.45420404086483
40
0.457726767895329
40
0.459488131410578
40
0.461249494925827
40
0.463010858441076
40
0.464772221956325
40
0.466533585471574
40
0.468294948986824
40
0.470056312502073
40
0.471817676017322
40
0.473579039532571
40
0.47534040304782
40
0.47710176656307
40
0.478863130078319
40
0.480624493593568
40
0.482385857108817
40
0.484147220624066
40
0.485908584139315
40
0.487669947654565
40
0.489431311169814
40
0.491192674685063
40
0.492954038200312
40
0.494715401715561
40
0.496476765230811
40
0.49823812874606
40
0.499999492261309
40
0.501760855776558
40
0.503522219291807
40
0.505283582807056
40
0.507044946322306
40
0.508806309837555
40
0.510567673352804
40
0.512329036868053
40
0.514090400383302
40
0.515851763898551
40
0.517613127413801
40
0.51937449092905
40
0.521135854444299
40
0.522897217959548
40
0.524658581474797
40
0.526419944990047
40
0.528181308505296
40
0.529942672020545
40
0.531704035535794
40
0.533465399051043
40
0.535226762566292
40
0.536988126081542
40
0.538749489596791
40
0.54051085311204
40
0.542272216627289
40
0.545794943657788
40
0.547556307173037
40
0.549317670688286
40
0.551079034203535
40
0.552840397718784
40
0.556363124749283
40
0.559885851779781
40
0.56164721529503
40
0.563408578810279
40
0.565169942325529
40
0.566931305840778
40
0.570454032871276
40
0.573976759901774
40
0.577499486932273
40
0.581022213962771
40
0.58454494099327
40
0.588067668023768
40
0.591590395054266
40
0.595113122084765
40
0.598635849115263
40
0.602158576145761
40
0.60568130317626
40
0.609204030206758
40
0.612726757237256
40
0.616249484267755
40
0.619772211298253
40
0.623294938328751
40
0.62681766535925
40
0.633863119420247
40
0.640908573481243
40
0.64795402754224
40
0.651476754572738
40
0.654999481603237
40
0.658522208633735
40
0.662044935664234
40
0.665567662694732
40
0.66909038972523
40
0.672613116755729
40
0.676135843786227
40
0.683181297847224
40
0.686704024877722
40
0.69022675190822
40
0.693749478938719
40
0.697272205969217
40
0.700794932999715
40
0.704317660030214
40
0.707840387060712
40
0.71136311409121
40
0.714885841121709
40
0.718408568152207
40
0.721931295182706
40
0.725454022213204
40
0.732499476274201
40
0.736022203304699
40
0.739544930335197
40
0.746590384396194
40
0.750113111426692
40
0.753635838457191
40
0.757158565487689
40
0.760681292518188
40
0.767726746579184
40
0.771249473609683
40
0.774772200640181
40
0.778294927670679
40
0.781817654701178
40
0.788863108762174
40
0.792385835792673
40
0.795908562823171
40
0.79943128985367
40
0.802954016884168
40
0.809999470945165
40
0.813522197975663
40
0.817044925006161
40
0.82056765203666
40
0.824090379067158
40
0.831135833128155
40
0.834658560158653
40
0.838181287189152
40
0.84170401421965
40
0.845226741250148
40
0.852272195311145
40
0.855794922341643
40
0.859317649372142
40
0.86284037640264
40
0.866363103433138
40
0.869885830463637
40
0.873408557494135
40
0.876931284524634
40
0.880454011555132
40
0.88397673858563
40
0.887499465616129
40
0.891022192646627
40
0.894544919677125
40
0.898067646707624
40
0.901590373738122
40
0.908635827799119
40
0.912158554829617
40
0.915681281860116
40
0.919204008890614
40
0.922726735921112
40
0.92624946295161
40
0.929772189982109
40
0.936817644043106
40
0.940340371073604
40
0.943863098104102
40
0.947385825134601
40
0.950908552165099
40
0.957954006226096
40
0.961476733256594
40
0.964999460287092
40
0.968522187317591
40
0.972044914348089
40
0.975567641378588
40
0.979090368409086
40
0.982613095439584
40
0.986135822470083
40
0.989658549500581
40
0.993181276531079
40
0.996704003561578
40
1
40
1
40
1
40
1
41
1
10
-1.99503997793928
20
-21.8251672673315
30
0
41
1
10
-1.99503997793928
20
-21.825277046462
30
0
41
1
10
-1.99503997793928
20
-21.8245105645556
30
0
41
1
10
-1.99503997793928
20
-21.8202836860757
30
0
41
1
10
-1.99503997793928
20
-21.812783044142
30
0
41
1
10
-1.99503997793928
20
-21.8021565364934
30
0
41
1
10
-1.99503997793928
20
-21.7884557330328
30
0
41
1
10
-1.99503997793928
20
-21.7717308612526
30
0
41
1
10
-1.99503997793928
20
-21.7520291985819
30
0
41
1
10
-1.99503997793928
20
-21.7218385059106
30
0
41
1
10
-1.99503997793928
20
-21.6769140218914
30
0
41
1
10
-1.99503997793928
20
-21.6117670092986
30
0
41
1
10
-1.99503997793928
20
-21.5484022523455
30
0
41
1
10
-1.99503997793928
20
-21.4923512863894
30
0
41
1
10
-1.99503997793928
20
-21.4477036012609
30
0
41
1
10
-1.99503997793928
20
-21.4004602751572
30
0
41
1
10
-1.99503997793928
20
-21.3340243579833
30
0
41
1
10
-1.99503997793928
20
-21.2626002065085
30
0
41
1
10
-1.99503997793928
20
-21.1861355372814
30
0
41
1
10
-1.99503997793928
20
-21.126355615456
30
0
41
1
10
-1.99503997793928
20
-21.0641493981766
30
0
41
1
10
-1.99503997793928
20
-20.9995415089612
30
0
41
1
10
-1.99503997793928
20
-20.9325549476398
30
0
41
1
10
-1.99503997793928
20
-20.8400664063016
30
0
41
1
10
-1.99503997793928
20
-20.7430171949632
30
0
41
1
10
-1.99503997793928
20
-20.6412830606924
30
0
41
1
10
-1.99503997793928
20
-20.5627395849404
30
0
41
1
10
-1.99503997793928
20
-20.4819464711493
30
0
41
1
10
-1.99503997793928
20
-20.3989234016943
30
0
41
1
10
-1.99503997793928
20
-20.3136873945745
30
0
41
1
10
-1.99503997793928
20
-20.2262576082901
30
0
41
1
10
-1.99503997793928
20
-20.136651569995
30
0
41
1
10
-1.99503997793928
20
-20.0448848271876
30
0
41
1
10
-1.99503997793928
20
-19.9509751576252
30
0
41
1
10
-1.99503997793928
20
-19.8549383078336
30
0
41
1
10
-1.99503997793928
20
-19.7567886026657
30
0
41
1
10
-1.99503997793928
20
-19.6565424313982
30
0
41
1
10
-1.99503997793928
20
-19.5542139601407
30
0
41
1
10
-1.99503997793928
20
-19.4149698127943
30
0
41
1
10
-1.99503997793928
20
-19.2717622924356
30
0
41
1
10
-1.99503997793928
20
-19.1243520606764
30
0
41
1
10
-1.99503997793928
20
-19.0305969699326
30
0
41
1
10
-1.99503997793928
20
-18.9545457436666
30
0
41
1
10
-1.99503997793928
20
-18.877828345234
30
0
41
1
10
-1.99503997793928
20
-18.7418485706132
30
0
41
1
10
-1.99503997793928
20
-18.5826225030747
30
0
41
1
10
-1.99503997793928
20
-18.4193199892891
30
0
41
1
10
-1.99503997793928
20
-18.2949375082747
30
0
41
1
10
-1.99503997793928
20
-18.1686188381619
30
0
41
1
10
-1.99503997793928
20
-17.9975681157064
30
0
41
1
10
-1.99503997793928
20
-17.8228588844704
30
0
41
1
10
-1.99503997793928
20
-17.6441795672679
30
0
41
1
10
-1.99503997793928
20
-17.5309981410348
30
0
41
1
10
-1.99503997793928
20
-17.4394590341184
30
0
41
1
10
-1.99503997793928
20
-17.3472945498449
30
0
41
1
10
-1.99503997793928
20
-17.1843913435575
30
0
41
1
10
-1.99503997793928
20
-16.9946548235122
30
0
41
1
10
-1.99503997793928
20
-16.8010333841432
30
0
41
1
10
-1.99503997793928
20
-16.654027023888
30
0
41
1
10
-1.99503997793928
20
-16.5051894370887
30
0
41
1
10
-1.99503997793928
20
-16.3042392155796
30
0
41
1
10
-1.99503997793928
20
-16.0998599858609
30
0
41
1
10
-1.99503997793928
20
-15.8916662065006
30
0
41
1
10
-1.99503997793928
20
-15.7601264684356
30
0
41
1
10
-1.99503997793928
20
-15.6539352235828
30
0
41
1
10
-1.99503997793928
20
-15.5471478788444
30
0
41
1
10
-1.99503997793928
20
-15.4126292313156
30
0
41
1
10
-1.99503997793928
20
-15.2493853238091
30
0
41
1
10
-1.99503997793928
20
-15.1119089381336
30
0
41
1
10
-1.99503997793928
20
-15.0009760777421
30
0
41
1
10
-1.99503997793928
20
-14.8894548819647
30
0
41
1
10
-1.99503997793928
20
-14.7490386600655
30
0
41
1
10
-1.99503997793928
20
-14.578735707937
30
0
41
1
10
-1.99503997793928
20
-14.4066808882548
30
0
41
1
10
-1.99503997793928
20
-14.2328806917249
30
0
41
1
10
-1.99503997793928
20
-14.0573388809364
30
0
41
1
10
-1.99503997793928
20
-13.8800596938692
30
0
41
1
10
-1.99503997793928
20
-13.7010488098078
30
0
41
1
10
-1.99503997793928
20
-13.5203096364964
30
0
41
1
10
-1.99503997793928
20
-13.3378467409434
30
0
41
1
10
-1.99503997793928
20
-13.1536651576331
30
0
41
1
10
-1.99503997793928
20
-12.967767664355
30
0
41
1
10
-1.99503997793928
20
-12.7801589185361
30
0
41
1
10
-1.99503997793928
20
-12.5908431445087
30
0
41
1
10
-1.99503997793928
20
-12.3998230002593
30
0
41
1
10
-1.99503997793928
20
-12.1427688173785
30
0
41
1
10
-1.99503997793928
20
-11.8826118718573
30
0
41
1
10
-1.99503997793928
20
-11.6187779306707
30
0
41
1
10
-1.99503997793928
20
-11.4192921752591
30
0
41
1
10
-1.99503997793928
20
-11.2181233733031
30
0
41
1
10
-1.99503997793928
20
-11.0152750188843
30
0
41
1
10
-1.99503997793928
20
-10.8107494713072
30
0
41
1
10
-1.99503997793928
20
-10.6045508021232
30
0
41
1
10
-1.99503997793928
20
-10.3966814407573
30
0
41
1
10
-1.99503997793928
20
-10.1171870033238
30
0
41
1
10
-1.99503997793928
20
-9.76392166117952
30
0
41
1
10
-1.99503997793928
20
-9.33322608836653
30
0
41
1
10
-1.99503997793928
20
-8.96893242084855
30
0
41
1
10
-1.99503997793928
20
-8.67397578579323
30
0
41
1
10
-1.99503997793928
20
-8.45121977200662
30
0
41
1
10
-1.99503997793928
20
-8.22682776167494
30
0
41
1
10
-1.99503997793928
20
-8.00080467620245
30
0
41
1
10
-1.99503997793928
20
-7.77315513008728
30
0
41
1
10
-1.99503997793928
20
-7.54388372935193
30
0
41
1
10
-1.99503997793928
20
-7.31299637479285
30
0
41
1
10
-1.99503997793928
20
-7.08049945458953
30
0
41
1
10
-1.99503997793928
20
-6.8463997482805
30
0
41
1
10
-1.99503997793928
20
-6.61070495432838
30
0
41
1
10
-1.99503997793928
20
-6.37342319970753
30
0
41
1
10
-1.99503997793928
20
-6.13456384015993
30
0
41
1
10
-1.99503997793928
20
-5.89413749968628
30
0
41
1
10
-1.99503997793928
20
-5.65215638001948
30
0
41
1
10
-1.99503997793928
20
-5.4086336510897
30
0
41
1
10
-1.99503997793928
20
-5.16358499073451
30
0
41
1
10
-1.99503997793928
20
-4.95821799704331
30
0
41
1
10
-1.99503997793928
20
-4.79299516838267
30
0
41
1
10
-1.99503997793928
20
-4.66878842905288
30
0
41
1
10
-1.99503997793928
20
-4.5442150281373
30
0
41
1
10
-1.99503997793928
20
-4.37752561794156
30
0
41
1
10
-1.99503997793928
20
-4.16851547631595
30
0
41
1
10
-1.99503997793928
20
-3.95832363498766
30
0
41
1
10
-1.99503997793928
20
-3.78926935835412
30
0
41
1
10
-1.99503997793928
20
-3.66223142121836
30
0
41
1
10
-1.99503997793928
20
-3.53485872774326
30
0
41
1
10
-1.99503997793928
20
-3.36446603264318
30
0
41
1
10
-1.99503997793928
20
-3.19381064862623
30
0
41
1
10
-1.99503997793928
20
-3.02213557666008
30
0
41
1
10
-1.99503997793928
20
-2.8931784837302
30
0
41
1
10
-1.99503997793928
20
-2.76392442628162
30
0
41
1
10
-1.99503997793928
20
-2.63438251344519
30
0
41
1
10
-1.99503997793928
20
-2.50455988721876
30
0
41
1
10
-1.99503997793928
20
-2.37446636334928
30
0
41
1
10
-1.99503997793928
20
-2.24411116870439
30
0
41
1
10
-1.99503997793928
20
-2.11350398186613
30
0
41
1
10
-1.99503997793928
20
-1.98265625862297
30
0
41
1
10
-1.99503997793928
20
-1.85157817347522
30
0
41
1
10
-1.99503997793928
20
-1.72028262405345
30
0
41
1
10
-1.99503997793928
20
-1.58878098022359
30
0
41
1
10
-1.99503997793928
20
-1.45708718468359
30
0
41
1
10
-1.99503997793928
20
-1.32521409071333
30
0
41
1
10
-1.99503997793928
20
-1.19317647053177
30
0
41
1
10
-1.99503997793928
20
-1.06098852682439
30
0
41
1
10
-1.99503997793928
20
-0.928665923975672
30
0
41
1
10
-1.99503997793928
20
-0.796224037396229
30
0
41
1
10
-1.99503997793928
20
-0.663679321648374
30
0
41
1
10
-1.99503997793928
20
-0.531048033506266
30
0
41
1
10
-1.99503997793928
20
-0.398347293868937
30
0
41
1
10
-1.99503997793928
20
-0.265594055935196
30
0
41
1
10
-1.99503997793928
20
-0.132805828560237
30
0
41
1
10
-1.99503997793928
20
2.0604887E-09
30
0
41
1
10
-1.99503997793928
20
0.132805835966792
30
0
41
1
10
-1.99503997793928
20
0.265594069601519
30
0
41
1
10
-1.99503997793928
20
0.398347307093388
30
0
41
1
10
-1.99503997793928
20
0.531048037421954
30
0
41
1
10
-1.99503997793928
20
0.663679323049081
30
0
41
1
10
-1.99503997793928
20
0.796224050825089
30
0
41
1
10
-1.99503997793928
20
0.92866594303203
30
0
41
1
10
-1.99503997793928
20
1.06098853158755
30
0
41
1
10
-1.99503997793928
20
1.1931764657121
30
0
41
1
10
-1.99503997793928
20
1.32521410103647
30
0
41
1
10
-1.99503997793928
20
1.45708720896539
30
0
41
1
10
-1.99503997793928
20
1.58878099035152
30
0
41
1
10
-1.99503997793928
20
1.72028261530932
30
0
41
1
10
-1.99503997793928
20
1.85157817419838
30
0
41
1
10
-1.99503997793928
20
1.98265628188182
30
0
41
1
10
-1.99503997793928
20
2.11350400419804
30
0
41
1
10
-1.99503997793928
20
2.24411116714702
30
0
41
1
10
-1.99503997793928
20
2.37446635053539
30
0
41
1
10
-1.99503997793928
20
2.50455989433328
30
0
41
1
10
-1.99503997793928
20
2.63438254221708
30
0
41
1
10
-1.99503997793928
20
2.76392444618182
30
0
41
1
10
-1.99503997793928
20
2.89317847799558
30
0
41
1
10
-1.99503997793928
20
3.02213556164864
30
0
41
1
10
-1.99503997793928
20
3.19381066067948
30
0
41
1
10
-1.99503997793928
20
3.36446606295527
30
0
41
1
10
-1.99503997793928
20
3.53485872835634
30
0
41
1
10
-1.99503997793928
20
3.66223140396673
30
0
41
1
10
-1.99503997793928
20
3.78926935085312
30
0
41
1
10
-1.99503997793928
20
3.95832365779984
30
0
41
1
10
-1.99503997793928
20
4.16851549788919
30
0
41
1
10
-1.99503997793928
20
4.37752560184694
30
0
41
1
10
-1.99503997793928
20
4.54421502107886
30
0
41
1
10
-1.99503997793928
20
4.66878844332788
30
0
41
1
10
-1.99503997793928
20
4.79299519854527
30
0
41
1
10
-1.99503997793928
20
4.95821801342223
30
0
41
1
10
-1.99503997793928
20
5.16358497720142
30
0
41
1
10
-1.99503997793928
20
5.40863364784667
30
0
41
1
10
-1.99503997793928
20
5.65215640891225
30
0
41
1
10
-1.99503997793928
20
5.89413750153935
30
0
41
1
10
-1.99503997793928
20
6.13456381441384
30
0
41
1
10
-1.99503997793928
20
6.37342317953835
30
0
41
1
10
-1.99503997793928
20
6.61070492919379
30
0
41
1
10
-1.99503997793928
20
6.84639976314463
30
0
41
1
10
-1.99503997793928
20
7.08049963775395
30
0
41
1
10
-1.99503997793928
20
7.31299670603016
30
0
41
1
10
-1.99503997793928
20
7.54388383469134
30
0
41
1
10
-1.99503997793928
20
7.77315487290267
30
0
41
1
10
-1.99503997793928
20
8.00080468509063
30
0
41
1
10
-1.99503997793928
20
8.22682785520686
30
0
41
1
10
-1.99503997793928
20
8.4512197921853
30
0
41
1
10
-1.99503997793928
20
8.67397577159846
30
0
41
1
10
-1.99503997793928
20
8.96893239301764
30
0
41
1
10
-1.99503997793928
20
9.33322609823665
30
0
41
1
10
-1.99503997793928
20
9.76392165975841
30
0
41
1
10
-1.99503997793928
20
10.1171869828061
30
0
41
1
10
-1.99503997793928
20
10.3966814549587
30
0
41
1
10
-1.99503997793928
20
10.6045508126063
30
0
41
1
10
-1.99503997793928
20
10.8107494592904
30
0
41
1
10
-1.99503997793928
20
11.0152749978462
30
0
41
1
10
-1.99503997793928
20
11.2181233670389
30
0
41
1
10
-1.99503997793928
20
11.4192921870092
30
0
41
1
10
-1.99503997793928
20
11.6187779427602
30
0
41
1
10
-1.99503997793928
20
11.8826118620781
30
0
41
1
10
-1.99503997793928
20
12.1427687977971
30
0
41
1
10
-1.99503997793928
20
12.3998230071702
30
0
41
1
10
-1.99503997793928
20
12.5908431584255
30
0
41
1
10
-1.99503997793928
20
12.7801589212449
30
0
41
1
10
-1.99503997793928
20
12.9677676529033
30
0
41
1
10
-1.99503997793928
20
13.1536651432542
30
0
41
1
10
-1.99503997793928
20
13.3378467396349
30
0
41
1
10
-1.99503997793928
20
13.520309646993
30
0
41
1
10
-1.99503997793928
20
13.7010488212408
30
0
41
1
10
-1.99503997793928
20
13.8800597145162
30
0
41
1
10
-1.99503997793928
20
14.0573389921213
30
0
41
1
10
-1.99503997793928
20
14.2328810143213
30
0
41
1
10
-1.99503997793928
20
14.4646959102749
30
0
41
1
10
-1.99503997793928
20
14.6927797943809
30
0
41
1
10
-1.99503997793928
20
14.9175842595472
30
0
41
1
10
-1.99503997793928
20
15.1400402265273
30
0
41
1
10
-1.99503997793928
20
15.3587351142266
30
0
41
1
10
-1.99503997793928
20
15.574095422854
30
0
41
1
10
-1.99503997793928
20
15.733775855726
30
0
41
1
10
-1.99503997793928
20
15.8916657661057
30
0
41
1
10
-1.99503997793928
20
16.0998603532658
30
0
41
1
10
-1.99503997793928
20
16.3042398246232
30
0
41
1
10
-1.99503997793928
20
16.5051894037979
30
0
41
1
10
-1.99503997793928
20
16.6540265683948
30
0
41
1
10
-1.99503997793928
20
16.8010329188422
30
0
41
1
10
-1.99503997793928
20
16.9946550481209
30
0
41
1
10
-1.99503997793928
20
17.1843924611907
30
0
41
1
10
-1.99503997793928
20
17.3705928023913
30
0
41
1
10
-1.99503997793928
20
17.5083251903719
30
0
41
1
10
-1.99503997793928
20
17.6441786252734
30
0
41
1
10
-1.99503997793928
20
17.8228590748674
30
0
41
1
10
-1.99503997793928
20
17.9975683374733
30
0
41
1
10
-1.99503997793928
20
18.1686188521771
30
0
41
1
10
-1.99503997793928
20
18.2949373683468
30
0
41
1
10
-1.99503997793928
20
18.4193198181252
30
0
41
1
10
-1.99503997793928
20
18.5826226298873
30
0
41
1
10
-1.99503997793928
20
18.7418497326446
30
0
41
1
10
-1.99503997793928
20
18.8972761707097
30
0
41
1
10
-1.99503997793928
20
19.0118150097952
30
0
41
1
10
-1.99503997793928
20
19.1243510467918
30
0
41
1
10
-1.99503997793928
20
19.2717625055688
30
0
41
1
10
-1.99503997793928
20
19.414970513124
30
0
41
1
10
-1.99503997793928
20
19.5542140249085
30
0
41
1
10
-1.99503997793928
20
19.6565420567613
30
0
41
1
10
-1.99503997793928
20
19.7567881415466
30
0
41
1
10
-1.99503997793928
20
19.8549381550126
30
0
41
1
10
-1.99503997793928
20
19.9509751416388
30
0
41
1
10
-1.99503997793928
20
20.0448848362119
30
0
41
1
10
-1.99503997793928
20
20.1366515718167
30
0
41
1
10
-1.99503997793928
20
20.2262576202058
30
0
41
1
10
-1.99503997793928
20
20.3136874196731
30
0
41
1
10
-1.99503997793928
20
20.398923430088
30
0
41
1
10
-1.99503997793928
20
20.4819464863244
30
0
41
1
10
-1.99503997793928
20
20.5627395868944
30
0
41
1
10
-1.99503997793928
20
20.6412830627252
30
0
41
1
10
-1.99503997793928
20
20.7430172190698
30
0
41
1
10
-1.99503997793928
20
20.8400664428987
30
0
41
1
10
-1.99503997793928
20
20.9325549572362
30
0
41
1
10
-1.99503997793928
20
20.9995415068112
30
0
41
1
10
-1.99503997793928
20
21.064149408511
30
0
41
1
10
-1.99503997793928
20
21.1263556466612
30
0
41
1
10
-1.99503997793928
20
21.1861355753666
30
0
41
1
10
-1.99503997793928
20
21.262600218376
30
0
41
1
10
-1.99503997793928
20
21.3340243512753
30
0
41
1
10
-1.99503997793928
20
21.4004603045828
30
0
41
1
10
-1.99503997793928
20
21.4477036445725
30
0
41
1
10
-1.99503997793928
20
21.4923513092323
30
0
41
1
10
-1.99503997793928
20
21.5484022410126
30
0
41
1
10
-1.99503997793928
20
21.5990695510926
30
0
41
1
10
-1.99503997793928
20
21.6443396610233
30
0
41
1
10
-1.99503997793928
20
21.6755105092645
30
0
41
1
10
-1.99503997793928
20
21.7038764495607
30
0
41
1
10
-1.99503997793928
20
21.7293964429163
30
0
41
1
10
-1.99503997793928
20
21.7520292420694
30
0
41
1
10
-1.99503997793928
20
21.7717309018817
30
0
41
1
10
-1.99503997793928
20
21.7884557380592
30
0
41
1
10
-1.99503997793928
20
21.8021565310045
30
0
41
1
10
-1.99503997793928
20
21.8127830851058
30
0
41
1
10
-1.99503997793928
20
21.8202838734724
30
0
41
1
10
-1.99503997793928
20
21.824511326642
30
0
41
1
10
-1.99503997793926
20
21.825277339757
30
0
41
1
10
-1.99503997793928
20
21.8251671055373
30
0
0
SPLINE
5
1A6
100
AcDbEntity
8
SK1
62
256
6
ByLayer
370
18
48
1
60
0
100
AcDbSpline
70
4
71
3
72
295
73
291
40
0
40
0
40
0
40
0
40
0.0029462988585297
40
0.0065222237384716
40
0.0100981486184136
40
0.0136740734983555
40
0.0172499983782974
40
0.0208259232582393
40
0.0279777730181232
40
0.035129622778007
40
0.0422814725378909
40
0.0458573974178328
40
0.0494333222977747
40
0.0530092471777167
40
0.0565851720576586
40
0.0637370218175424
40
0.0673129466974844
40
0.0708888715774263
40
0.0744647964573682
40
0.0780407213373101
40
0.0816166462172521
40
0.085192571097194
40
0.0923444208570778
40
0.0959203457370198
40
0.0994962706169617
40
0.103072195496904
40
0.106648120376845
40
0.110224045256787
40
0.113799970136729
40
0.117375895016671
40
0.120951819896613
40
0.124527744776555
40
0.128103669656497
40
0.131679594536439
40
0.135255519416381
40
0.138831444296323
40
0.142407369176265
40
0.149559218936149
40
0.153135143816091
40
0.156711068696032
40
0.158499031136003
40
0.160286993575974
40
0.163862918455916
40
0.1710147682158
40
0.174590693095742
40
0.178166617975684
40
0.181742542855626
40
0.185318467735568
40
0.192470317495452
40
0.196046242375394
40
0.199622167255336
40
0.201410129695307
40
0.203198092135278
40
0.206774017015219
40
0.213925866775103
40
0.217501791655045
40
0.221077716534987
40
0.224653641414929
40
0.228229566294871
40
0.235381416054755
40
0.238957340934697
40
0.242533265814639
40
0.24432122825461
40
0.246109190694581
40
0.249685115574523
40
0.253261040454465
40
0.256836965334406
40
0.258624927774377
40
0.260412890214348
40
0.26398881509429
40
0.267564739974232
40
0.271140664854174
40
0.274716589734116
40
0.278292514614058
40
0.281868439494
40
0.285444364373942
40
0.289020289253884
40
0.292596214133826
40
0.296172139013767
40
0.29974806389371
40
0.303323988773651
40
0.306899913653593
40
0.310475838533535
40
0.314051763413477
40
0.321203613173361
40
0.324779538053303
40
0.328355462933245
40
0.331931387813187
40
0.335507312693129
40
0.339083237573071
40
0.342659162453013
40
0.346235087332954
40
0.349811012212897
40
0.35696286197278
40
0.364114711732664
40
0.371266561492548
40
0.37484248637249
40
0.378418411252432
40
0.381994336132374
40
0.385570261012316
40
0.389146185892258
40
0.3927221107722
40
0.396298035652142
40
0.399873960532083
40
0.403449885412025
40
0.407025810291967
40
0.410601735171909
40
0.414177660051851
40
0.417753584931793
40
0.421329509811735
40
0.424905434691677
40
0.428481359571619
40
0.432057284451561
40
0.433845246891532
40
0.435633209331503
40
0.437421171771474
40
0.439209134211445
40
0.442785059091386
40
0.446360983971329
40
0.448148946411299
40
0.44993690885127
40
0.451724871291241
40
0.453512833731212
40
0.457088758611154
40
0.458876721051125
40
0.460664683491096
40
0.462452645931067
40
0.464240608371038
40
0.466028570811009
40
0.46781653325098
40
0.469604495690951
40
0.471392458130922
40
0.473180420570893
40
0.474968383010864
40
0.476756345450835
40
0.478544307890806
40
0.480332270330777
40
0.482120232770748
40
0.483908195210719
40
0.48569615765069
40
0.487484120090661
40
0.489272082530631
40
0.491060044970603
40
0.492848007410573
40
0.494635969850544
40
0.496423932290515
40
0.498211894730486
40
0.499999857170457
40
0.501787819610428
40
0.503575782050399
40
0.50536374449037
40
0.507151706930341
40
0.508939669370312
40
0.510727631810283
40
0.512515594250254
40
0.514303556690225
40
0.516091519130196
40
0.517879481570167
40
0.519667444010138
40
0.521455406450109
40
0.52324336889008
40
0.525031331330051
40
0.526819293770022
40
0.528607256209993
40
0.530395218649964
40
0.532183181089935
40
0.533971143529906
40
0.535759105969877
40
0.537547068409848
40
0.539335030849818
40
0.541122993289789
40
0.54291095572976
40
0.546486880609702
40
0.548274843049673
40
0.550062805489644
40
0.551850767929615
40
0.553638730369586
40
0.557214655249528
40
0.56079058012947
40
0.562578542569441
40
0.564366505009412
40
0.566154467449383
40
0.567942429889354
40
0.571518354769296
40
0.575094279649238
40
0.57867020452918
40
0.582246129409122
40
0.585822054289064
40
0.589397979169005
40
0.592973904048947
40
0.596549828928889
40
0.600125753808831
40
0.603701678688773
40
0.607277603568715
40
0.610853528448657
40
0.614429453328599
40
0.618005378208541
40
0.621581303088483
40
0.625157227968425
40
0.628733152848367
40
0.635885002608251
40
0.643036852368134
40
0.650188702128018
40
0.65376462700796
40
0.657340551887902
40
0.660916476767844
40
0.664492401647786
40
0.668068326527728
40
0.67164425140767
40
0.675220176287612
40
0.678796101167554
40
0.685947950927437
40
0.689523875807379
40
0.693099800687321
40
0.696675725567263
40
0.700251650447205
40
0.703827575327147
40
0.707403500207089
40
0.710979425087031
40
0.714555349966973
40
0.718131274846915
40
0.721707199726857
40
0.725283124606799
40
0.728859049486741
40
0.736010899246624
40
0.739586824126566
40
0.743162749006508
40
0.750314598766392
40
0.753890523646334
40
0.757466448526276
40
0.761042373406218
40
0.76461829828616
40
0.771770148046044
40
0.775346072925986
40
0.778921997805927
40
0.782497922685869
40
0.786073847565811
40
0.793225697325695
40
0.796801622205637
40
0.800377547085579
40
0.803953471965521
40
0.807529396845463
40
0.814681246605347
40
0.818257171485289
40
0.821833096365231
40
0.825409021245172
40
0.828984946125114
40
0.836136795884998
40
0.83971272076494
40
0.843288645644882
40
0.846864570524824
40
0.850440495404766
40
0.85759234516465
40
0.861168270044592
40
0.864744194924534
40
0.868320119804476
40
0.871896044684418
40
0.875471969564359
40
0.879047894444301
40
0.882623819324243
40
0.886199744204185
40
0.889775669084127
40
0.893351593964069
40
0.896927518844011
40
0.900503443723953
40
0.904079368603895
40
0.907655293483837
40
0.914807143243721
40
0.918383068123663
40
0.921958993003604
40
0.925534917883546
40
0.929110842763488
40
0.93268676764343
40
0.936262692523372
40
0.943414542283256
40
0.946990467163198
40
0.95056639204314
40
0.954142316923082
40
0.957718241803024
40
0.964870091562907
40
0.968446016442849
40
0.972021941322792
40
0.975597866202733
40
0.979173791082675
40
0.982749715962617
40
0.986325640842559
40
0.989901565722501
40
0.993477490602443
40
0.997053415482385
40
1
40
1
40
1
40
1
41
1
10
-2.19999999999999
20
-22.0135196594349
30
0
41
1
10
-2.19999999999999
20
-22.0117275959546
30
0
41
1
10
-2.20000000000002
20
-22.0069596811788
30
0
41
1
10
-2.19999999999999
20
-21.9968726461305
30
0
41
1
10
-2.19999999999999
20
-21.9830583750197
30
0
41
1
10
-2.19999999999999
20
-21.9661971621578
30
0
41
1
10
-2.19999999999999
20
-21.9463373083127
30
0
41
1
10
-2.19999999999999
20
-21.9159230944434
30
0
41
1
10
-2.19999999999999
20
-21.870633664349
30
0
41
1
10
-2.19999999999999
20
-21.8049949078793
30
0
41
1
10
-2.19999999999999
20
-21.7411390111089
30
0
41
1
10
-2.19999999999999
20
-21.6847072709128
30
0
41
1
10
-2.19999999999999
20
-21.6397397481888
30
0
41
1
10
-2.19999999999999
20
-21.5921615264853
30
0
41
1
10
-2.19999999999999
20
-21.5252891523049
30
0
41
1
10
-2.19999999999999
20
-21.453308753177
30
0
41
1
10
-2.19999999999999
20
-21.3763547276269
30
0
41
1
10
-2.19999999999999
20
-21.3161703964091
30
0
41
1
10
-2.19999999999999
20
-21.2535469243879
30
0
41
1
10
-2.19999999999999
20
-21.1885090229233
30
0
41
1
10
-2.19999999999999
20
-21.121080083473
30
0
41
1
10
-2.19999999999999
20
-21.0280237507364
30
0
41
1
10
-2.19999999999999
20
-20.9302657445266
30
0
41
1
10
-2.19999999999999
20
-20.8279188369072
30
0
41
1
10
-2.19999999999999
20
-20.7488739070252
30
0
41
1
10
-2.19999999999999
20
-20.6675681841826
30
0
41
1
10
-2.19999999999999
20
-20.5840212184218
30
0
41
1
10
-2.19999999999999
20
-20.4982502525025
30
0
41
1
10
-2.19999999999999
20
-20.4102747128949
30
0
41
1
10
-2.19999999999999
20
-20.3201119071544
30
0
41
1
10
-2.19999999999999
20
-20.2277776663919
30
0
41
1
10
-2.19999999999999
20
-20.1332899477274
30
0
41
1
10
-2.19999999999999
20
-20.0366642357894
30
0
41
1
10
-2.19999999999999
20
-19.9379151599299
30
0
41
1
10
-2.19999999999999
20
-19.8370591957147
30
0
41
1
10
-2.19999999999999
20
-19.7341102362335
30
0
41
1
10
-2.19999999999999
20
-19.5940778412012
30
0
41
1
10
-2.19999999999999
20
-19.4499005336558
30
0
41
1
10
-2.19999999999999
20
-19.3016622310533
30
0
41
1
10
-2.19999999999999
20
-19.2073184270571
30
0
41
1
10
-2.19999999999999
20
-19.1308417758755
30
0
41
1
10
-2.19999999999999
20
-19.0536957086557
30
0
41
1
10
-2.19999999999999
20
-18.9169360704622
30
0
41
1
10
-2.19999999999999
20
-18.756645794641
30
0
41
1
10
-2.19999999999999
20
-18.5924362845557
30
0
41
1
10
-2.19999999999999
20
-18.4673177976698
30
0
41
1
10
-2.19999999999999
20
-18.3402521463352
30
0
41
1
10
-2.19999999999999
20
-18.1682545122203
30
0
41
1
10
-2.19999999999999
20
-17.9923842356821
30
0
41
1
10
-2.19999999999999
20
-17.8127164551587
30
0
41
1
10
-2.19999999999999
20
-17.6988333809735
30
0
41
1
10
-2.19999999999999
20
-17.606787767091
30
0
41
1
10
-2.19999999999999
20
-17.5141131161323
30
0
41
1
10
-2.19999999999999
20
-17.3502824417036
30
0
41
1
10
-2.19999999999999
20
-17.1592829447589
30
0
41
1
10
-2.19999999999999
20
-16.9645867974536
30
0
41
1
10
-2.19999999999999
20
-16.8167088060477
30
0
41
1
10
-2.19999999999999
20
-16.6669871400996
30
0
41
1
10
-2.19999999999999
20
-16.4649164953067
30
0
41
1
10
-2.19999999999999
20
-16.2591646002876
30
0
41
1
10
-2.19999999999999
20
-16.049802831716
30
0
41
1
10
-2.19999999999999
20
-15.9174340084588
30
0
41
1
10
-2.19999999999999
20
-15.8106442286412
30
0
41
1
10
-2.19999999999999
20
-15.7032538676567
30
0
41
1
10
-2.19999999999999
20
-15.567882396309
30
0
41
1
10
-2.19999999999999
20
-15.4036502143979
30
0
41
1
10
-2.19999999999999
20
-15.2652965264295
30
0
41
1
10
-2.19999999999999
20
-15.1537302031574
30
0
41
1
10
-2.19999999999999
20
-15.0415708470876
30
0
41
1
10
-2.19999999999999
20
-14.90025131083
30
0
41
1
10
-2.19999999999999
20
-14.7289012367181
30
0
41
1
10
-2.19999999999999
20
-14.5557843226631
30
0
41
1
10
-2.19999999999999
20
-14.3809062427341
30
0
41
1
10
-2.19999999999999
20
-14.2042700822291
30
0
41
1
10
-2.19999999999999
20
-14.0258803741545
30
0
41
1
10
-2.19999999999999
20
-13.8457420253844
30
0
41
1
10
-2.19999999999999
20
-13.6638579861817
30
0
41
1
10
-2.19999999999999
20
-13.4802328481714
30
0
41
1
10
-2.19999999999999
20
-13.2948705974071
30
0
41
1
10
-2.19999999999999
20
-13.1077737485311
30
0
41
1
10
-2.19999999999999
20
-12.9189467805057
30
0
41
1
10
-2.19999999999999
20
-12.728392778749
30
0
41
1
10
-2.19999999999999
20
-12.5361142588231
30
0
41
1
10
-2.19999999999999
20
-12.2774598592137
30
0
41
1
10
-2.19999999999999
20
-12.0153352592314
30
0
41
1
10
-2.19999999999999
20
-11.7498207258852
30
0
41
1
10
-2.19999999999999
20
-11.5489655826483
30
0
41
1
10
-2.19999999999999
20
-11.3464032807099
30
0
41
1
10
-2.19999999999999
20
-11.1421359853758
30
0
41
1
10
-2.19999999999999
20
-10.9361655879759
30
0
41
1
10
-2.19999999999999
20
-10.7284950970913
30
0
41
1
10
-2.19999999999999
20
-10.5191258614377
30
0
41
1
10
-2.19999999999999
20
-10.2377184130835
30
0
41
1
10
-2.19999999999999
20
-9.88169304970987
30
0
41
1
10
-2.19999999999999
20
-9.44771865839311
30
0
41
1
10
-2.19999999999999
20
-9.08043848955603
30
0
41
1
10
-2.19999999999999
20
-8.78327689677775
30
0
41
1
10
-2.19999999999999
20
-8.55871419535617
30
0
41
1
10
-2.19999999999999
20
-8.33247380011301
30
0
41
1
10
-2.19999999999999
20
-8.10455852701506
30
0
41
1
10
-2.19999999999999
20
-7.87497060194644
30
0
41
1
10
-2.19999999999999
20
-7.6437128367312
30
0
41
1
10
-2.19999999999999
20
-7.41078884464241
30
0
41
1
10
-2.19999999999999
20
-7.17620220160032
30
0
41
1
10
-2.19999999999999
20
-6.93995692090419
30
0
41
1
10
-2.19999999999999
20
-6.70205758660663
30
0
41
1
10
-2.19999999999999
20
-6.46250918569618
30
0
41
1
10
-2.19999999999999
20
-6.2213178400012
30
0
41
1
10
-2.19999999999999
20
-5.97849049576266
30
0
41
1
10
-2.19999999999999
20
-5.73403521575827
30
0
41
1
10
-2.19999999999999
20
-5.48796107357256
30
0
41
1
10
-2.19999999999999
20
-5.24027911118978
30
0
41
1
10
-2.19999999999999
20
-5.03253661023487
30
0
41
1
10
-2.19999999999999
20
-4.86557359122418
30
0
41
1
10
-2.19999999999999
20
-4.73994908127321
30
0
41
1
10
-2.19999999999999
20
-4.61393371339017
30
0
41
1
10
-2.19999999999999
20
-4.44540774959788
30
0
41
1
10
-2.19999999999999
20
-4.23375652596863
30
0
41
1
10
-2.19999999999999
20
-4.02083961713782
30
0
41
1
10
-2.19999999999999
20
-3.84978439152417
30
0
41
1
10
-2.19999999999999
20
-3.72111342731068
30
0
41
1
10
-2.19999999999999
20
-3.59207749308624
30
0
41
1
10
-2.19999999999999
20
-3.41956369464535
30
0
41
1
10
-2.19999999999999
20
-3.24629481959221
30
0
41
1
10
-2.19999999999999
20
-3.0723836150739
30
0
41
1
10
-2.19999999999999
20
-2.94160046512798
30
0
41
1
10
-2.19999999999999
20
-2.81048647644627
30
0
41
1
10
-2.19999999999999
20
-2.67904892732182
30
0
41
1
10
-2.19999999999999
20
-2.54729562722176
30
0
41
1
10
-2.19999999999999
20
-2.41523551097489
30
0
41
1
10
-2.19999999999999
20
-2.28287740252156
30
0
41
1
10
-2.19999999999999
20
-2.15023166945255
30
0
41
1
10
-2.19999999999999
20
-2.01730873413072
30
0
41
1
10
-2.19999999999999
20
-1.88412021099791
30
0
41
1
10
-2.19999999999999
20
-1.75067841854351
30
0
41
1
10
-2.19999999999999
20
-1.61699634722072
30
0
41
1
10
-2.19999999999999
20
-1.48308821885627
30
0
41
1
10
-2.19999999999999
20
-1.34896859254377
30
0
41
1
10
-2.19999999999999
20
-1.21465350310541
30
0
41
1
10
-2.19999999999999
20
-1.0801592162689
30
0
41
1
10
-2.19999999999999
20
-0.945503442662783
30
0
41
1
10
-2.19999999999999
20
-0.810704113119073
30
0
41
1
10
-2.19999999999999
20
-0.675780421912322
30
0
41
1
10
-2.19999999999999
20
-0.540751787789588
30
0
41
1
10
-2.19999999999999
20
-0.405638599098921
30
0
41
1
10
-2.19999999999999
20
-0.270461428271432
30
0
41
1
10
-2.19999999999999
20
-0.135241462279822
30
0
41
1
10
-2.19999999999999
20
5.3654787E-09
30
0
41
1
10
-2.19999999999999
20
0.135241472589996
30
0
41
1
10
-2.19999999999999
20
0.270461437853925
30
0
41
1
10
-2.19999999999999
20
0.405638608907907
30
0
41
1
10
-2.19999999999999
20
0.540751798686529
30
0
41
1
10
-2.19999999999999
20
0.675780432522174
30
0
41
1
10
-2.19999999999999
20
0.810704122044939
30
0
41
1
10
-2.19999999999999
20
0.945503451789534
30
0
41
1
10
-2.19999999999999
20
1.08015922751395
30
0
41
1
10
-2.19999999999999
20
1.21465351395383
30
0
41
1
10
-2.19999999999999
20
1.34896860046499
30
0
41
1
10
-2.19999999999999
20
1.48308822685564
30
0
41
1
10
-2.19999999999999
20
1.61699635855226
30
0
41
1
10
-2.19999999999999
20
1.75067843002711
30
0
41
1
10
-2.19999999999999
20
1.88412021847037
30
0
41
1
10
-2.19999999999999
20
2.01730874020455
30
0
41
1
10
-2.19999999999999
20
2.15023167925048
30
0
41
1
10
-2.19999999999999
20
2.28287741514001
30
0
41
1
10
-2.19999999999999
20
2.41523552035437
30
0
41
1
10
-2.19999999999999
20
2.54729563151926
30
0
41
1
10
-2.19999999999999
20
2.67904893291683
30
0
41
1
10
-2.19999999999999
20
2.81048648769612
30
0
41
1
10
-2.19999999999999
20
2.94160047796311
30
0
41
1
10
-2.19999999999999
20
3.072383622975
30
0
41
1
10
-2.19999999999999
20
3.24629481975686
30
0
41
1
10
-2.19999999999999
20
3.41956370437865
30
0
41
1
10
-2.19999999999999
20
3.59207750684843
30
0
41
1
10
-2.19999999999999
20
3.72111343644576
30
0
41
1
10
-2.19999999999999
20
3.84978439330678
30
0
41
1
10
-2.19999999999999
20
4.020839617489
30
0
41
1
10
-2.19999999999999
20
4.23375654375474
30
0
41
1
10
-2.19999999999999
20
4.44540775759583
30
0
41
1
10
-2.19999999999999
20
4.61393371339872
30
0
41
1
10
-2.19999999999999
20
4.73994907984499
30
0
41
1
10
-2.19999999999999
20
4.86557359653659
30
0
41
1
10
-2.19999999999999
20
5.03253662624778
30
0
41
1
10
-2.19999999999999
20
5.24027911954084
30
0
41
1
10
-2.19999999999999
20
5.48796106514416
30
0
41
1
10
-2.19999999999999
20
5.73403522651989
30
0
41
1
10
-2.19999999999999
20
5.97849051253721
30
0
41
1
10
-2.19999999999999
20
6.22131783489101
30
0
41
1
10
-2.19999999999999
20
6.46250917346816
30
0
41
1
10
-2.19999999999999
20
6.70205756880287
30
0
41
1
10
-2.19999999999999
20
6.93995689241024
30
0
41
1
10
-2.19999999999999
20
7.17620223308296
30
0
41
1
10
-2.19999999999999
20
7.41078904293681
30
0
41
1
10
-2.19999999999999
20
7.64371312168015
30
0
41
1
10
-2.19999999999999
20
7.87497052861914
30
0
41
1
10
-2.19999999999999
20
8.10455846042146
30
0
41
1
10
-2.19999999999999
20
8.33247384441506
30
0
41
1
10
-2.19999999999999
20
8.55871423477029
30
0
41
1
10
-2.19999999999999
20
8.78327691067398
30
0
41
1
10
-2.19999999999999
20
9.08043846702645
30
0
41
1
10
-2.19999999999999
20
9.44771866001565
30
0
41
1
10
-2.19999999999999
20
9.88169305528194
30
0
41
1
10
-2.19999999999999
20
10.2377183913447
30
0
41
1
10
-2.19999999999999
20
10.5191258633122
30
0
41
1
10
-2.19999999999999
20
10.7284951094206
30
0
41
1
10
-2.19999999999999
20
10.9361655882296
30
0
41
1
10
-2.19999999999999
20
11.1421359694817
30
0
41
1
10
-2.19999999999999
20
11.3464032666245
30
0
41
1
10
-2.19999999999999
20
11.5489655840494
30
0
41
1
10
-2.19999999999999
20
11.7498207382014
30
0
41
1
10
-2.19999999999999
20
12.015335258712
30
0
41
1
10
-2.19999999999999
20
12.277459839655
30
0
41
1
10
-2.19999999999999
20
12.5361142561418
30
0
41
1
10
-2.19999999999999
20
12.7283927892775
30
0
41
1
10
-2.19999999999999
20
12.9189467887917
30
0
41
1
10
-2.19999999999999
20
13.1077737445537
30
0
41
1
10
-2.19999999999999
20
13.2948705838035
30
0
41
1
10
-2.19999999999999
20
13.4802328404438
30
0
41
1
10
-2.19999999999999
20
13.6638579908945
30
0
41
1
10
-2.19999999999999
20
13.845742035678
30
0
41
1
10
-2.19999999999999
20
14.0258803815961
30
0
41
1
10
-2.19999999999999
20
14.2042701267483
30
0
41
1
10
-2.19999999999999
20
14.3809064511142
30
0
41
1
10
-2.19999999999999
20
14.61406817927
30
0
41
1
10
-2.19999999999999
20
14.8437340716545
30
0
41
1
10
-2.19999999999999
20
15.069828938707
30
0
41
1
10
-2.19999999999999
20
15.2935559429894
30
0
41
1
10
-2.19999999999999
20
15.513744330902
30
0
41
1
10
-2.19999999999999
20
15.7303232767805
30
0
41
1
10
-2.19999999999999
20
15.8909649274654
30
0
41
1
10
-2.19999999999999
20
16.0498023362736
30
0
41
1
10
-2.19999999999999
20
16.2591647559547
30
0
41
1
10
-2.19999999999999
20
16.4649171124643
30
0
41
1
10
-2.19999999999999
20
16.666987304737
30
0
41
1
10
-2.19999999999999
20
16.8167085043733
30
0
41
1
10
-2.19999999999999
20
16.9645862898264
30
0
41
1
10
-2.19999999999999
20
17.1592828976246
30
0
41
1
10
-2.19999999999999
20
17.3502835148979
30
0
41
1
10
-2.19999999999999
20
17.5375147595292
30
0
41
1
10
-2.19999999999999
20
17.676060438985
30
0
41
1
10
-2.19999999999999
20
17.8127154575359
30
0
41
1
10
-2.19999999999999
20
17.9923842415009
30
0
41
1
10
-2.19999999999999
20
18.1682547291306
30
0
41
1
10
-2.19999999999999
20
18.3402522143585
30
0
41
1
10
-2.19999999999999
20
18.4673177032107
30
0
41
1
10
-2.19999999999999
20
18.5924361073221
30
0
41
1
10
-2.19999999999999
20
18.7566457425986
30
0
41
1
10
-2.19999999999999
20
18.9169371900015
30
0
41
1
10
-2.19999999999999
20
19.0732305996174
30
0
41
1
10
-2.19999999999999
20
19.1884526890887
30
0
41
1
10
-2.19999999999999
20
19.3016611759423
30
0
41
1
10
-2.19999999999999
20
19.4499005391959
30
0
41
1
10
-2.19999999999999
20
19.5940785255289
30
0
41
1
10
-2.19999999999999
20
19.7341104289282
30
0
41
1
10
-2.19999999999999
20
19.8370589164793
30
0
41
1
10
-2.19999999999999
20
19.9379146863563
30
0
41
1
10
-2.19999999999999
20
20.0366640227898
30
0
41
1
10
-2.19999999999999
20
20.133289903145
30
0
41
1
10
-2.19999999999999
20
20.2277776697998
30
0
41
1
10
-2.19999999999999
20
20.3201119082527
30
0
41
1
10
-2.19999999999999
20
20.4102747220553
30
0
41
1
10
-2.19999999999999
20
20.4982502752196
30
0
41
1
10
-2.19999999999999
20
20.5840212474559
30
0
41
1
10
-2.19999999999999
20
20.6675682022903
30
0
41
1
10
-2.19999999999999
20
20.7488739108727
30
0
41
1
10
-2.19999999999999
20
20.82791883753
30
0
41
1
10
-2.19999999999999
20
20.9302657657864
30
0
41
1
10
-2.19999999999999
20
21.0280237880878
30
0
41
1
10
-2.19999999999999
20
21.1210800961781
30
0
41
1
10
-2.19999999999999
20
21.1885090211437
30
0
41
1
10
-2.19999999999999
20
21.2535469320083
30
0
41
1
10
-2.19999999999999
20
21.3161704250344
30
0
41
1
10
-2.19999999999999
20
21.3763547664481
30
0
41
1
10
-2.19999999999999
20
21.4533087676779
30
0
41
1
10
-2.19999999999999
20
21.5252891448141
30
0
41
1
10
-2.19999999999999
20
21.5921615531195
30
0
41
1
10
-2.19999999999999
20
21.6397397916631
30
0
41
1
10
-2.19999999999999
20
21.6847072964973
30
0
41
1
10
-2.19999999999999
20
21.7411389990572
30
0
41
1
10
-2.19999999999999
20
21.7922265879071
30
0
41
1
10
-2.19999999999999
20
21.8378144981283
30
0
41
1
10
-2.19999999999999
20
21.8692221254414
30
0
41
1
10
-2.19999999999999
20
21.8978063777089
30
0
41
1
10
-2.19999999999999
20
21.9235254752891
30
0
41
1
10
-2.19999999999999
20
21.9463373508774
30
0
41
1
10
-2.19999999999999
20
21.9661972037607
30
0
41
1
10
-2.19999999999999
20
21.9830583809744
30
0
41
1
10
-2.19999999999999
20
21.9968726399857
30
0
41
1
10
-2.20000000000002
20
22.0069600023235
30
0
41
1
10
-2.20000000000005
20
22.0117281329825
30
0
41
1
10
-2.20000000000005
20
22.0135203418627
30
0
0
SPLINE
5
1A7
100
AcDbEntity
8
SK1
62
256
6
ByLayer
370
18
48
1
60
0
100
AcDbSpline
70
4
71
3
72
303
73
299
40
0
40
0
40
0
40
0
40
0.0005133774783349
40
0.0040062938648765
40
0.007499210251418
40
0.0109921266379595
40
0.0144850430245011
40
0.0179779594110426
40
0.0214708757975842
40
0.0249637921841257
40
0.0284567085706673
40
0.0319496249572088
40
0.0389354577302919
40
0.045921290503375
40
0.052907123276458
40
0.0564000396629997
40
0.0598929560495412
40
0.0633858724360827
40
0.0668787888226242
40
0.0738646215957073
40
0.0773575379822489
40
0.0808504543687905
40
0.084343370755332
40
0.0878362871418735
40
0.091329203528415
40
0.0948221199149566
40
0.10180795268804
40
0.105300869074581
40
0.108793785461123
40
0.112286701847664
40
0.115779618234206
40
0.119272534620747
40
0.122765451007289
40
0.126258367393831
40
0.129751283780372
40
0.133244200166913
40
0.136737116553455
40
0.140230032939997
40
0.143722949326538
40
0.14721586571308
40
0.150708782099621
40
0.157694614872704
40
0.161187531259246
40
0.164680447645787
40
0.166426905839058
40
0.168173364032329
40
0.17166628041887
40
0.178652113191954
40
0.182145029578495
40
0.185637945965037
40
0.189130862351578
40
0.19262377873812
40
0.199609611511203
40
0.203102527897744
40
0.206595444284286
40
0.208341902477557
40
0.210088360670828
40
0.213581277057369
40
0.220567109830452
40
0.224060026216994
40
0.227552942603535
40
0.231045858990077
40
0.234538775376618
40
0.241524608149702
40
0.245017524536243
40
0.248510440922784
40
0.250256899116055
40
0.252003357309326
40
0.255496273695868
40
0.258989190082409
40
0.262482106468951
40
0.264228564662222
40
0.265975022855492
40
0.269467939242034
40
0.272960855628575
40
0.276453772015117
40
0.279946688401658
40
0.2834396047882
40
0.286932521174742
40
0.290425437561283
40
0.293918353947825
40
0.297411270334366
40
0.300904186720908
40
0.304397103107449
40
0.307890019493991
40
0.311382935880532
40
0.314875852267074
40
0.318368768653615
40
0.325354601426698
40
0.32884751781324
40
0.332340434199782
40
0.335833350586323
40
0.339326266972865
40
0.342819183359406
40
0.346312099745948
40
0.349805016132489
40
0.353297932519031
40
0.360283765292114
40
0.367269598065197
40
0.37425543083828
40
0.377748347224822
40
0.381241263611363
40
0.384734179997905
40
0.388227096384446
40
0.391720012770988
40
0.395212929157529
40
0.398705845544071
40
0.402198761930612
40
0.405691678317154
40
0.409184594703696
40
0.412677511090237
40
0.416170427476779
40
0.41966334386332
40
0.423156260249862
40
0.426649176636403
40
0.430142093022945
40
0.433635009409487
40
0.435381467602757
40
0.437127925796028
40
0.438874383989299
40
0.44062084218257
40
0.444113758569111
40
0.447606674955652
40
0.449353133148923
40
0.451099591342194
40
0.452846049535465
40
0.454592507728736
40
0.458085424115277
40
0.459831882308548
40
0.461578340501819
40
0.46332479869509
40
0.46507125688836
40
0.466817715081631
40
0.468564173274902
40
0.470310631468173
40
0.472057089661443
40
0.473803547854714
40
0.475550006047985
40
0.477296464241256
40
0.479042922434527
40
0.480789380627797
40
0.482535838821068
40
0.484282297014339
40
0.48602875520761
40
0.48777521340088
40
0.489521671594151
40
0.491268129787422
40
0.493014587980693
40
0.494761046173963
40
0.496507504367234
40
0.498253962560505
40
0.500000420753776
40
0.501746878947047
40
0.503493337140317
40
0.505239795333588
40
0.506986253526859
40
0.50873271172013
40
0.5104791699134
40
0.512225628106671
40
0.513972086299942
40
0.515718544493213
40
0.517465002686483
40
0.519211460879754
40
0.520957919073025
40
0.522704377266296
40
0.524450835459567
40
0.526197293652837
40
0.527943751846108
40
0.529690210039379
40
0.53143666823265
40
0.53318312642592
40
0.534929584619191
40
0.536676042812462
40
0.538422501005733
40
0.540168959199004
40
0.541915417392274
40
0.545408333778816
40
0.547154791972086
40
0.548901250165357
40
0.550647708358628
40
0.552394166551899
40
0.555887082938441
40
0.559379999324982
40
0.561126457518253
40
0.562872915711524
40
0.564619373904795
40
0.566365832098065
40
0.569858748484607
40
0.573351664871148
40
0.57684458125769
40
0.580337497644231
40
0.583830414030773
40
0.587323330417314
40
0.590816246803856
40
0.594309163190398
40
0.597802079576939
40
0.601294995963481
40
0.604787912350022
40
0.608280828736564
40
0.611773745123105
40
0.615266661509647
40
0.618759577896188
40
0.62225249428273
40
0.625745410669271
40
0.632731243442355
40
0.639717076215438
40
0.646702908988521
40
0.650195825375062
40
0.653688741761604
40
0.657181658148145
40
0.660674574534687
40
0.664167490921228
40
0.66766040730777
40
0.671153323694311
40
0.674646240080853
40
0.681632072853936
40
0.685124989240478
40
0.688617905627019
40
0.692110822013561
40
0.695603738400102
40
0.699096654786644
40
0.702589571173185
40
0.706082487559727
40
0.709575403946269
40
0.71306832033281
40
0.716561236719351
40
0.720054153105893
40
0.723547069492435
40
0.730532902265518
40
0.734025818652059
40
0.737518735038601
40
0.744504567811684
40
0.747997484198225
40
0.751490400584767
40
0.754983316971309
40
0.75847623335785
40
0.765462066130933
40
0.768954982517475
40
0.772447898904016
40
0.775940815290558
40
0.779433731677099
40
0.786419564450182
40
0.789912480836724
40
0.793405397223266
40
0.796898313609807
40
0.800391229996348
40
0.807377062769432
40
0.810869979155973
40
0.814362895542515
40
0.817855811929056
40
0.821348728315598
40
0.828334561088681
40
0.831827477475222
40
0.835320393861764
40
0.838813310248306
40
0.842306226634847
40
0.84929205940793
40
0.852784975794472
40
0.856277892181013
40
0.859770808567555
40
0.863263724954096
40
0.866756641340638
40
0.870249557727179
40
0.873742474113721
40
0.877235390500263
40
0.880728306886804
40
0.884221223273346
40
0.887714139659887
40
0.891207056046429
40
0.89469997243297
40
0.898192888819512
40
0.905178721592595
40
0.908671637979137
40
0.912164554365678
40
0.91565747075222
40
0.919150387138761
40
0.922643303525303
40
0.926136219911844
40
0.933122052684928
40
0.936614969071469
40
0.94010788545801
40
0.943600801844552
40
0.947093718231094
40
0.954079551004177
40
0.957572467390718
40
0.96106538377726
40
0.964558300163801
40
0.968051216550343
40
0.971544132936884
40
0.975037049323426
40
0.978529965709968
40
0.982022882096509
40
0.985515798483051
40
0.989008714869592
40
0.992501631256134
40
0.995994547642675
40
0.999487464029217
40
1
40
1
40
1
40
1
41
1
10
-36.5
20
-21.1555775655007
30
0
41
1
10
-36.5
20
-21.1557857947206
30
0
41
1
10
-36.5
20
-21.1573191440735
30
0
41
1
10
-36.5
20
-21.1588544331657
30
0
41
1
10
-36.5
20
-21.1578038223016
30
0
41
1
10
-36.5
20
-21.1536126358382
30
0
41
1
10
-36.5
20
-21.1463317213717
30
0
41
1
10
-36.5
20
-21.1360112678938
30
0
41
1
10
-36.5
20
-21.1226986497682
30
0
41
1
10
-36.5
20
-21.1064402158535
30
0
41
1
10
-36.5
20
-21.0872797426226
30
0
41
1
10
-36.5
20
-21.0578537406018
30
0
41
1
10
-36.5
20
-21.0141777773224
30
0
41
1
10
-36.5
20
-20.950713074722
30
0
41
1
10
-36.5
20
-20.8890285612071
30
0
41
1
10
-36.5
20
-20.8342802658871
30
0
41
1
10
-36.5
20
-20.7907267804185
30
0
41
1
10
-36.5
20
-20.7446291690672
30
0
41
1
10
-36.5
20
-20.6796864194097
30
0
41
1
10
-36.5
20
-20.6101652524536
30
0
41
1
10
-36.5
20
-20.5353747251341
30
0
41
1
10
-36.5
20
-20.4769783324059
30
0
41
1
10
-36.5
20
-20.4161995895792
30
0
41
1
10
-36.5
20
-20.3530628196555
30
0
41
1
10
-36.5
20
-20.2875896826626
30
0
41
1
10
-36.5
20
-20.1970436182683
30
0
41
1
10
-36.5
20
-20.1024192722933
30
0
41
1
10
-36.5
20
-20.0027815031752
30
0
41
1
10
-36.5
20
-19.9259535572617
30
0
41
1
10
-36.5
20
-19.8469141355251
30
0
41
1
10
-36.5
20
-19.7656833730651
30
0
41
1
10
-36.5
20
-19.6822775189499
30
0
41
1
10
-36.5
20
-19.5967148149262
30
0
41
1
10
-36.5
20
-19.5090135394173
30
0
41
1
10
-36.5
20
-19.4191882696517
30
0
41
1
10
-36.5
20
-19.3272561697677
30
0
41
1
10
-36.5
20
-19.2332338822713
30
0
41
1
10
-36.5
20
-19.1371346902892
30
0
41
1
10
-36.5
20
-19.0389746878943
30
0
41
1
10
-36.5
20
-18.9387689752275
30
0
41
1
10
-36.5
20
-18.8022215100789
30
0
41
1
10
-36.5
20
-18.6623317385554
30
0
41
1
10
-36.5
20
-18.5177544284038
30
0
41
1
10
-36.5
20
-18.4260133905722
30
0
41
1
10
-36.5
20
-18.3514175898237
30
0
41
1
10
-36.5
20
-18.2761667145511
30
0
41
1
10
-36.5
20
-18.1428549391526
30
0
41
1
10
-36.5
20
-17.987269645424
30
0
41
1
10
-36.5
20
-17.8270700659299
30
0
41
1
10
-36.5
20
-17.705205542109
30
0
41
1
10
-36.5
20
-17.5814423770725
30
0
41
1
10
-36.5
20
-17.4136311437529
30
0
41
1
10
-36.5
20
-17.2428939764416
30
0
41
1
10
-36.5
20
-17.0675963011875
30
0
41
1
10
-36.5
20
-16.9568152899196
30
0
41
1
10
-36.5
20
-16.867008999151
30
0
41
1
10
-36.5
20
-16.7765898513273
30
0
41
1
10
-36.5
20
-16.6168596157572
30
0
41
1
10
-36.5
20
-16.4314438788638
30
0
41
1
10
-36.5
20
-16.2414991337765
30
0
41
1
10
-36.5
20
-16.097474719741
30
0
41
1
10
-36.5
20
-15.9516616651348
30
0
41
1
10
-36.5
20
-15.7545445351489
30
0
41
1
10
-36.5
20
-15.5548613446891
30
0
41
1
10
-36.5
20
-15.350663385132
30
0
41
1
10
-36.5
20
-15.2219600388738
30
0
41
1
10
-36.5
20
-15.1178164480938
30
0
41
1
10
-36.5
20
-15.0130920883853
30
0
41
1
10
-36.5
20
-14.8814910451208
30
0
41
1
10
-36.5
20
-14.7216281332594
30
0
41
1
10
-36.5
20
-14.5871530954062
30
0
41
1
10
-36.5
20
-14.4783873813363
30
0
41
1
10
-36.5
20
-14.3690494022437
30
0
41
1
10
-36.5
20
-14.2317235183089
30
0
41
1
10
-36.5
20
-14.0650028858775
30
0
41
1
10
-36.5
20
-13.8965816080865
30
0
41
1
10
-36.5
20
-13.7264689694465
30
0
41
1
10
-36.5
20
-13.5546710496343
30
0
41
1
10
-36.5
20
-13.3811910773122
30
0
41
1
10
-36.5
20
-13.2060373742643
30
0
41
1
10
-36.5
20
-13.0292149133303
30
0
41
1
10
-36.5
20
-12.850728177302
30
0
41
1
10
-36.5
20
-12.6705857874604
30
0
41
1
10
-36.5
20
-12.4887914218501
30
0
41
1
10
-36.5
20
-12.3053503484466
30
0
41
1
10
-36.5
20
-12.1202706879328
30
0
41
1
10
-36.5
20
-11.9335555855444
30
0
41
1
10
-36.5
20
-11.6819759204348
30
0
41
1
10
-36.5
20
-11.4285505376587
30
0
41
1
10
-36.5
20
-11.1704660874499
30
0
41
1
10
-36.5
20
-10.9756651586938
30
0
41
1
10
-36.5
20
-10.7792636737398
30
0
41
1
10
-36.5
20
-10.5812696725585
30
0
41
1
10
-36.5
20
-10.3816871154457
30
0
41
1
10
-36.5
20
-10.180523710493
30
0
41
1
10
-36.5
20
-9.97778558435027
30
0
41
1
10
-36.5
20
-9.70483576808863
30
0
41
1
10
-36.5
20
-9.36101276272154
30
0
41
1
10
-36.5
20
-8.94153438933262
30
0
41
1
10
-36.5
20
-8.58745787193689
30
0
41
1
10
-36.5
20
-8.30004464023602
30
0
41
1
10
-36.5
20
-8.08346950394389
30
0
41
1
10
-36.5
20
-7.86540102208471
30
0
41
1
10
-36.5
20
-7.64585131899614
30
0
41
1
10
-36.5
20
-7.42483318088833
30
0
41
1
10
-36.5
20
-7.20235735193418
30
0
41
1
10
-36.5
20
-6.97843755879967
30
0
41
1
10
-36.5
20
-6.75308981071325
30
0
41
1
10
-36.5
20
-6.52633035082275
30
0
41
1
10
-36.5
20
-6.29817753233076
30
0
41
1
10
-36.5
20
-6.06865022444896
30
0
41
1
10
-36.5
20
-5.83776884649416
30
0
41
1
10
-36.5
20
-5.60555660448858
30
0
41
1
10
-36.5
20
-5.37203985998678
30
0
41
1
10
-36.5
20
-5.13724579696881
30
0
41
1
10
-36.5
20
-4.90120595303733
30
0
41
1
10
-36.5
20
-4.70396583147402
30
0
41
1
10
-36.5
20
-4.54469638576828
30
0
41
1
10
-36.5
20
-4.42533999597055
30
0
41
1
10
-36.5
20
-4.30569972295402
30
0
41
1
10
-36.5
20
-4.14529336499854
30
0
41
1
10
-36.5
20
-3.94531865595207
30
0
41
1
10
-36.5
20
-3.74444957084984
30
0
41
1
10
-36.5
20
-3.58224076117995
30
0
41
1
10
-36.5
20
-3.46078958963508
30
0
41
1
10
-36.5
20
-3.33910702605104
30
0
41
1
10
-36.5
20
-3.17597085922341
30
0
41
1
10
-36.5
20
-3.01425651604552
30
0
41
1
10
-36.5
20
-2.85023149996007
30
0
41
1
10
-36.5
20
-2.72752154931175
30
0
41
1
10
-36.5
20
-2.60463052157442
30
0
41
1
10
-36.5
20
-2.48157378937663
30
0
41
1
10
-36.5
20
-2.35835621123036
30
0
41
1
10
-36.5
20
-2.23499061660053
30
0
41
1
10
-36.5
20
-2.11148761081347
30
0
41
1
10
-36.5
20
-1.9878545152765
30
0
41
1
10
-36.5
20
-1.86410632124094
30
0
41
1
10
-36.5
20
-1.74024827700825
30
0
41
1
10
-36.5
20
-1.61629526151512
30
0
41
1
10
-36.5
20
-1.49225310041959
30
0
41
1
10
-36.5
20
-1.3681347814894
30
0
41
1
10
-36.5
20
-1.2439473222278
30
0
41
1
10
-36.5
20
-1.11970117534864
30
0
41
1
10
-36.5
20
-0.995403485642782
30
0
41
1
10
-36.5
20
-0.8710629170684
30
0
41
1
10
-36.5
20
-0.746686102657719
30
0
41
1
10
-36.5
20
-0.622280124115576
30
0
41
1
10
-36.5
20
-0.497850420758397
30
0
41
1
10
-36.5
20
-0.373402935182185
30
0
41
1
10
-36.5
20
-0.248942238793148
30
0
41
1
10
-36.5
20
-0.124473257200918
30
0
41
1
10
-36.5
20
-9.2462358E-09
30
0
41
1
10
-36.5
20
0.124473254673973
30
0
41
1
10
-36.5
20
0.248942266430618
30
0
41
1
10
-36.5
20
0.373402960091425
30
0
41
1
10
-36.5
20
0.497850400790554
30
0
41
1
10
-36.5
20
0.622280094010847
30
0
41
1
10
-36.5
20
0.746686131491799
30
0
41
1
10
-36.5
20
0.871062970095124
30
0
41
1
10
-36.5
20
0.995403468230791
30
0
41
1
10
-36.5
20
1.11970111692671
30
0
41
1
10
-36.5
20
1.24394734076813
30
0
41
1
10
-36.5
20
1.36813486147517
30
0
41
1
10
-36.5
20
1.49225310642996
30
0
41
1
10
-36.5
20
1.61629518356963
30
0
41
1
10
-36.5
20
1.7402482546413
30
0
41
1
10
-36.5
20
1.86410640329151
30
0
41
1
10
-36.5
20
1.98785458048855
30
0
41
1
10
-36.5
20
2.11148756075909
30
0
41
1
10
-36.5
20
2.2349905278607
30
0
41
1
10
-36.5
20
2.3583562279822
30
0
41
1
10
-36.5
20
2.48157389743918
30
0
41
1
10
-36.5
20
2.60463057106841
30
0
41
1
10
-36.5
20
2.72752148004804
30
0
41
1
10
-36.5
20
2.8502314065623
30
0
41
1
10
-36.5
20
3.01425656877106
30
0
41
1
10
-36.5
20
3.17597095993784
30
0
41
1
10
-36.5
20
3.33910698167958
30
0
41
1
10
-36.5
20
3.46078948211164
30
0
41
1
10
-36.5
20
3.58224072191865
30
0
41
1
10
-36.5
20
3.74444967050349
30
0
41
1
10
-36.5
20
3.94531869048151
30
0
41
1
10
-36.5
20
4.14529326648051
30
0
41
1
10
-36.5
20
4.30569969171862
30
0
41
1
10
-36.5
20
4.42534006396792
30
0
41
1
10
-36.5
20
4.54469650094606
30
0
41
1
10
-36.5
20
4.70396584910503
30
0
41
1
10
-36.5
20
4.90120586463618
30
0
41
1
10
-36.5
20
5.1372458114655
30
0
41
1
10
-36.5
20
5.37203995090806
30
0
41
1
10
-36.5
20
5.6055565552935
30
0
41
1
10
-36.5
20
5.83776875015039
30
0
41
1
10
-36.5
20
6.06865017711209
30
0
41
1
10
-36.5
20
6.29817748211653
30
0
41
1
10
-36.5
20
6.52633051401983
30
0
41
1
10
-36.5
20
6.75309051279777
30
0
41
1
10
-36.5
20
6.97843834484934
30
0
41
1
10
-36.5
20
7.20235684280954
30
0
41
1
10
-36.5
20
7.42483229470756
30
0
41
1
10
-36.5
20
7.64585158611581
30
0
41
1
10
-36.5
20
7.86540128403743
30
0
41
1
10
-36.5
20
8.08346945831602
30
0
41
1
10
-36.5
20
8.30004452993893
30
0
41
1
10
-36.5
20
8.58745782596952
30
0
41
1
10
-36.5
20
8.94153442741853
30
0
41
1
10
-36.5
20
9.36101273737586
30
0
41
1
10
-36.5
20
9.70483575174822
30
0
41
1
10
-36.5
20
9.97778564072317
30
0
41
1
10
-36.5
20
10.18052371466
30
0
41
1
10
-36.5
20
10.3816870614505
30
0
41
1
10
-36.5
20
10.5812696339219
30
0
41
1
10
-36.5
20
10.7792636942327
30
0
41
1
10
-36.5
20
10.9756652058486
30
0
41
1
10
-36.5
20
11.1704660987636
30
0
41
1
10
-36.5
20
11.4285504962004
30
0
41
1
10
-36.5
20
11.6819759007756
30
0
41
1
10
-36.5
20
11.9335556252714
30
0
41
1
10
-36.5
20
12.1202707134412
30
0
41
1
10
-36.5
20
12.3053503320752
30
0
41
1
10
-36.5
20
12.4887913848281
30
0
41
1
10
-36.5
20
12.6705857704289
30
0
41
1
10
-36.5
20
12.8507281979538
30
0
41
1
10
-36.5
20
13.0292149436137
30
0
41
1
10
-36.5
20
13.2060373895955
30
0
41
1
10
-36.5
20
13.3811911431361
30
0
41
1
10
-36.5
20
13.5546713888901
30
0
41
1
10
-36.5
20
13.7264696827894
30
0
41
1
10
-36.5
20
13.9536769173599
30
0
41
1
10
-36.5
20
14.176348576809
30
0
41
1
10
-36.5
20
14.3967384349214
30
0
41
1
10
-36.5
20
14.6148460432235
30
0
41
1
10
-36.5
20
14.8284315021107
30
0
41
1
10
-36.5
20
15.0396227184095
30
0
41
1
10
-36.5
20
15.1960147192182
30
0
41
1
10
-36.5
20
15.3506631330604
30
0
41
1
10
-36.5
20
15.5548624364723
30
0
41
1
10
-36.5
20
15.7545451164335
30
0
41
1
10
-36.5
20
15.9516609547094
30
0
41
1
10
-36.5
20
16.0974737380165
30
0
41
1
10
-36.5
20
16.241498813278
30
0
41
1
10
-36.5
20
16.4314450331352
30
0
41
1
10
-36.5
20
16.6168608854212
30
0
41
1
10
-36.5
20
16.7995343923806
30
0
41
1
10
-36.5
20
16.9344844206004
30
0
41
1
10
-36.5
20
17.0675955495038
30
0
41
1
10
-36.5
20
17.2428947983014
30
0
41
1
10
-36.5
20
17.4136313821348
30
0
41
1
10
-36.5
20
17.5814422063202
30
0
41
1
10
-36.5
20
17.7052052466277
30
0
41
1
10
-36.5
20
17.827069915531
30
0
41
1
10
-36.5
20
17.9872703841193
30
0
41
1
10
-36.5
20
18.1428562465544
30
0
41
1
10
-36.5
20
18.2953166794047
30
0
41
1
10
-36.5
20
18.4075180436267
30
0
41
1
10
-36.5
20
18.5177535555592
30
0
41
1
10
-36.5
20
18.6623326618876
30
0
41
1
10
-36.5
20
18.8022222651529
30
0
41
1
10
-36.5
20
18.9387686023437
30
0
41
1
10
-36.5
20
19.0389739868785
30
0
41
1
10
-36.5
20
19.1371342717784
30
0
41
1
10
-36.5
20
19.2332339353276
30
0
41
1
10
-36.5
20
19.3272562516113
30
0
41
1
10
-36.5
20
19.4191882978898
30
0
41
1
10
-36.5
20
19.5090135437133
30
0
41
1
10
-36.5
20
19.5967148362678
30
0
41
1
10
-36.5
20
19.6822775521962
30
0
41
1
10
-36.5
20
19.7656833992675
30
0
41
1
10
-36.5
20
19.8469141406672
30
0
41
1
10
-36.5
20
19.9259535527381
30
0
41
1
10
-36.5
20
20.0027815100322
30
0
41
1
10
-36.5
20
20.1024193061391
30
0
41
1
10
-36.5
20
20.1970436522849
30
0
41
1
10
-36.5
20
20.287589681624
30
0
41
1
10
-36.5
20
20.353062816238
30
0
41
1
10
-36.5
20
20.4161996091987
30
0
41
1
10
-36.5
20
20.4769783724375
30
0
41
1
10
-36.5
20
20.5353747607017
30
0
41
1
10
-36.5
20
20.6101652553123
30
0
41
1
10
-36.5
20
20.6796864153796
30
0
41
1
10
-36.5
20
20.7446292080422
30
0
41
1
10
-36.5
20
20.7907268231739
30
0
41
1
10
-36.5
20
20.8342802793506
30
0
41
1
10
-36.5
20
20.8890285523336
30
0
41
1
10
-36.5
20
20.9382580424269
30
0
41
1
10
-36.5
20
20.9824409225429
30
0
41
1
10
-36.5
20
21.0128017234864
30
0
41
1
10
-36.5
20
21.0404207944711
30
0
41
1
10
-36.5
20
21.0652596303332
30
0
41
1
10
-36.5
20
21.0872797892674
30
0
41
1
10
-36.5
20
21.1064402531507
30
0
41
1
10
-36.5
20
21.1226986516191
30
0
41
1
10
-36.5
20
21.1360112646484
30
0
41
1
10
-36.5
20
21.1463317710584
30
0
41
1
10
-36.5
20
21.1536128319466
30
0
41
1
10
-36.5
20
21.1578041644649
30
0
41
1
10
-36.5
20
21.1588543296933
30
0
41
1
10
-36.5
20
21.1573189782356
30
0
41
1
10
-36.5
20
21.1557860550677
30
0
41
1
10
-36.5
20
21.1555782011385
30
0
0
SPLINE
5
1A8
100
AcDbEntity
8
SK1
62
256
6
ByLayer
370
18
48
1
60
0
100
AcDbSpline
70
4
71
3
72
115
73
111
40
0
40
0
40
0
40
0
40
0.0065652084641776
40
0.0151093762863799
40
0.0236535441085822
40
0.0321977119307845
40
0.0407418797529868
40
0.0492860475751891
40
0.0578302153973914
40
0.0663743832195937
40
0.0834627188639984
40
0.100551054508403
40
0.117639390152808
40
0.12618355797501
40
0.134727725797212
40
0.143271893619415
40
0.151816061441617
40
0.168904397086022
40
0.177448564908224
40
0.185992732730426
40
0.194536900552628
40
0.203081068374831
40
0.211625236197033
40
0.220169404019235
40
0.23725773966364
40
0.245801907485842
40
0.254346075308045
40
0.262890243130247
40
0.271434410952449
40
0.279978578774651
40
0.288522746596854
40
0.297066914419056
40
0.305611082241258
40
0.314155250063461
40
0.322699417885663
40
0.331243585707865
40
0.339787753530068
40
0.34833192135227
40
0.356876089174472
40
0.373964424818877
40
0.382508592641079
40
0.391052760463282
40
0.395324844374383
40
0.399596928285484
40
0.408141096107686
40
0.425229431752091
40
0.433773599574293
40
0.442317767396495
40
0.450861935218698
40
0.4594061030409
40
0.476494438685305
40
0.485038606507507
40
0.493582774329709
40
0.49785485824081
40
0.502126942151912
40
0.510671109974114
40
0.527759445618518
40
0.536303613440721
40
0.544847781262923
40
0.553391949085125
40
0.561936116907328
40
0.579024452551732
40
0.587568620373935
40
0.596112788196137
40
0.600384872107238
40
0.604656956018339
40
0.613201123840542
40
0.621745291662744
40
0.630289459484946
40
0.634561543396047
40
0.638833627307148
40
0.647377795129351
40
0.655921962951553
40
0.664466130773755
40
0.673010298595958
40
0.68155446641816
40
0.690098634240362
40
0.698642802062565
40
0.707186969884767
40
0.715731137706969
40
0.724275305529172
40
0.732819473351374
40
0.741363641173576
40
0.749907808995779
40
0.758451976817981
40
0.766996144640183
40
0.784084480284588
40
0.79262864810679
40
0.801172815928992
40
0.809716983751195
40
0.818261151573397
40
0.826805319395599
40
0.835349487217802
40
0.843893655040004
40
0.852437822862206
40
0.869526158506611
40
0.886614494151015
40
0.90370282979542
40
0.912246997617623
40
0.920791165439825
40
0.929335333262027
40
0.937879501084229
40
0.946423668906432
40
0.954967836728634
40
0.963512004550836
40
0.972056172373039
40
0.980600340195241
40
0.989144508017443
40
0.997688675839645
40
1
40
1
40
1
40
1
41
1
10
-0.394976888875277
20
-21.8653790904636
30
0
41
1
10
-0.394976888875277
20
-21.865328565953
30
0
41
1
10
-0.394976888875277
20
-21.8644673803009
30
0
41
1
10
-0.394976888875277
20
-21.8604737650697
30
0
41
1
10
-0.394976888875277
20
-21.8529598769268
30
0
41
1
10
-0.394976888875277
20
-21.8423149188875
30
0
41
1
10
-0.394976888875277
20
-21.8285907137819
30
0
41
1
10
-0.394976888875277
20
-21.8118377229246
30
0
41
1
10
-0.394976888875277
20
-21.7921034347989
30
0
41
1
10
-0.394976888875277
20
-21.7618666429643
30
0
41
1
10
-0.394976888875277
20
-21.7168668922192
30
0
41
1
10
-0.394976888875277
20
-21.651618462036
30
0
41
1
10
-0.394976888875277
20
-21.5881524120742
30
0
41
1
10
-0.394976888875277
20
-21.5320229149808
30
0
41
1
10
-0.394976888875277
20
-21.4873092663299
30
0
41
1
10
-0.394976888875277
20
-21.4399968711307
30
0
41
1
10
-0.394976888875277
20
-21.3734709387681
30
0
41
1
10
-0.394976888875277
20
-21.3019320664004
30
0
41
1
10
-0.394976888875277
20
-21.2253664719936
30
0
41
1
10
-0.394976888875277
20
-21.1655031445011
30
0
41
1
10
-0.394976888875277
20
-21.1032108723211
30
0
41
1
10
-0.394976888875277
20
-21.038514297088
30
0
41
1
10
-0.394976888875277
20
-20.9714364994015
30
0
41
1
10
-0.394976888875277
20
-20.8788308563806
30
0
41
1
10
-0.394976888875277
20
-20.7816354627076
30
0
41
1
10
-0.394976888875277
20
-20.6797749496461
30
0
41
1
10
-0.394976888875277
20
-20.6011280536546
30
0
41
1
10
-0.394976888875277
20
-20.5202292190253
30
0
41
1
10
-0.394976888875277
20
-20.4370981008412
30
0
41
1
10
-0.394976888875277
20
-20.3517517634561
30
0
41
1
10
-0.394976888875277
20
-20.2642094206366
30
0
41
1
10
-0.394976888875277
20
-20.1744885542463
30
0
41
1
10
-0.394976888875277
20
-20.082604770276
30
0
41
1
10
-0.394976888875277
20
-19.9885758834751
30
0
41
1
10
-0.394976888875277
20
-19.8924175863555
30
0
41
1
10
-0.394976888875277
20
-19.79414426657
30
0
41
1
10
-0.394976888875277
20
-19.6937723311917
30
0
41
1
10
-0.394976888875277
20
-19.5913158900225
30
0
41
1
10
-0.394976888875277
20
-19.4519091739392
30
0
41
1
10
-0.394976888875277
20
-19.308501644014
30
0
41
1
10
-0.394976888875277
20
-19.160920630363
30
0
41
1
10
-0.394976888875277
20
-19.0670441229991
30
0
41
1
10
-0.394976888875277
20
-18.9909051568102
30
0
41
1
10
-0.394976888875277
20
-18.9140993494365
30
0
41
1
10
-0.394976888875277
20
-18.777958735224
30
0
41
1
10
-0.394976888875277
20
-18.6185131846482
30
0
41
1
10
-0.394976888875277
20
-18.4550236113311
30
0
41
1
10
-0.394976888875277
20
-18.330489335967
30
0
41
1
10
-0.394976888875277
20
-18.2040166079408
30
0
41
1
10
-0.394976888875277
20
-18.0327705937831
30
0
41
1
10
-0.394976888875277
20
-17.8578219077773
30
0
41
1
10
-0.394976888875277
20
-17.6789387292296
30
0
41
1
10
-0.394976888875277
20
-17.5656125946474
30
0
41
1
10
-0.394976888875277
20
-17.4739690253912
30
0
41
1
10
-0.394976888875277
20
-17.3816993239948
30
0
41
1
10
-0.394976888875277
20
-17.2186048360495
30
0
41
1
10
-0.394976888875277
20
-17.0286078387926
30
0
41
1
10
-0.394976888875277
20
-16.8347647509306
30
0
41
1
10
-0.394976888875277
20
-16.6875786248762
30
0
41
1
10
-0.394976888875277
20
-16.5385587049943
30
0
41
1
10
-0.394976888875277
20
-16.3373774066279
30
0
41
1
10
-0.394976888875277
20
-16.1327150774874
30
0
41
1
10
-0.394976888875277
20
-15.9242804112408
30
0
41
1
10
-0.394976888875277
20
-15.7925696820839
30
0
41
1
10
-0.394976888875277
20
-15.6862549949744
30
0
41
1
10
-0.394976888875277
20
-15.5793432837569
30
0
41
1
10
-0.394976888875277
20
-15.4446487492657
30
0
41
1
10
-0.394976888875277
20
-15.2812010193763
30
0
41
1
10
-0.394976888875277
20
-15.1435436982815
30
0
41
1
10
-0.394976888875277
20
-15.0324801920763
30
0
41
1
10
-0.394976888875277
20
-14.9208273816877
30
0
41
1
10
-0.394976888875277
20
-14.7802248596231
30
0
41
1
10
-0.394976888875277
20
-14.6097059483473
30
0
41
1
10
-0.394976888875277
20
-14.4374320816019
30
0
41
1
10
-0.394976888875277
20
-14.2634095816694
30
0
41
1
10
-0.394976888875277
20
-14.0876420714538
30
0
41
1
10
-0.394976888875277
20
-13.9101338497815
30
0
41
1
10
-0.394976888875277
20
-13.7308904366346
30
0
41
1
10
-0.394976888875277
20
-13.549915145406
30
0
41
1
10
-0.394976888875277
20
-13.3672125481811
30
0
41
1
10
-0.394976888875277
20
-13.182787463215
30
0
41
1
10
-0.394976888875277
20
-12.9966426140257
30
0
41
1
10
-0.394976888875277
20
-12.8087826212334
30
0
41
1
10
-0.394976888875277
20
-12.6192114742801
30
0
41
1
10
-0.394976888875277
20
-12.4279318017785
30
0
41
1
10
-0.394976888875277
20
-12.1705475891153
30
0
41
1
10
-0.394976888875277
20
-11.9099848332047
30
0
41
1
10
-0.394976888875277
20
-11.6458042855523
30
0
41
1
10
-0.394976888875277
20
-11.4460361066677
30
0
41
1
10
-0.394976888875277
20
-11.2445799083311
30
0
41
1
10
-0.394976888875277
20
-11.0414389105764
30
0
41
1
10
-0.394976888875277
20
-10.8366153761928
30
0
41
1
10
-0.394976888875277
20
-10.630113157504
30
0
41
1
10
-0.394976888875277
20
-10.4219344610486
30
0
41
1
10
-0.394976888875277
20
-10.1420454829465
30
0
41
1
10
-0.394976888875277
20
-9.78821091215369
30
0
41
1
10
-0.394976888875277
20
-9.3568391135907
30
0
41
1
10
-0.394976888875277
20
-8.99192950801697
30
0
41
1
10
-0.394976888875277
20
-8.69651812098675
30
0
41
1
10
-0.394976888875277
20
-8.47338949471808
30
0
41
1
10
-0.394976888875277
20
-8.24861627222975
30
0
41
1
10
-0.394976888875277
20
-8.0222029406992
30
0
41
1
10
-0.394976888875277
20
-7.79415362199521
30
0
41
1
10
-0.394976888875277
20
-7.56447255210355
30
0
41
1
10
-0.394976888875277
20
-7.33316516004027
30
0
41
1
10
-0.394976888875277
20
-7.10023725398264
30
0
41
1
10
-0.394976888875277
20
-6.86569504295815
30
0
41
1
10
-0.394976888875277
20
-6.62954558311137
30
0
41
1
10
-0.394976888875277
20
-6.44960786563362
30
0
41
1
10
-0.394976888875277
20
-6.34849183540922
30
0
41
1
10
-0.394976888875277
20
-6.32694309067119
30
0
0
SPLINE
5
1A9
100
AcDbEntity
8
SK1
62
256
6
ByLayer
370
18
48
1
60
0
100
AcDbSpline
70
4
71
3
72
111
73
107
40
0
40
0
40
0
40
0
40
0.002311364161674
40
0.0108556432458015
40
0.0193999223299289
40
0.0279442014140564
40
0.0364884804981838
40
0.0450327595823113
40
0.0535770386664387
40
0.0621213177505662
40
0.0706655968346936
40
0.0792098759188211
40
0.0877541550029486
40
0.096298434087076
40
0.113386992255331
40
0.130475550423586
40
0.147564108591841
40
0.156108387675968
40
0.164652666760096
40
0.173196945844223
40
0.18174122492835
40
0.190285504012478
40
0.198829783096606
40
0.207374062180733
40
0.21591834126486
40
0.233006899433115
40
0.241551178517243
40
0.25009545760137
40
0.258639736685498
40
0.267184015769625
40
0.275728294853753
40
0.28427257393788
40
0.292816853022007
40
0.301361132106135
40
0.309905411190262
40
0.31844969027439
40
0.326993969358517
40
0.335538248442645
40
0.3526268066109
40
0.361171085695027
40
0.369715364779155
40
0.38680392294741
40
0.395348202031537
40
0.403892481115664
40
0.412436760199792
40
0.420981039283919
40
0.438069597452174
40
0.446613876536302
40
0.455158155620429
40
0.463702434704557
40
0.472246713788684
40
0.489335271956939
40
0.497879551041066
40
0.506423830125194
40
0.514968109209321
40
0.523512388293449
40
0.540600946461704
40
0.549145225545831
40
0.557689504629959
40
0.566233783714086
40
0.574778062798213
40
0.591866620966468
40
0.600410900050596
40
0.608955179134723
40
0.617499458218851
40
0.626043737302978
40
0.643132295471233
40
0.651676574555361
40
0.660220853639488
40
0.668765132723615
40
0.677309411807743
40
0.68585369089187
40
0.694397969975998
40
0.702942249060125
40
0.711486528144253
40
0.72003080722838
40
0.728575086312508
40
0.737119365396635
40
0.745663644480763
40
0.75420792356489
40
0.762752202649018
40
0.779840760817272
40
0.7883850399014
40
0.796929318985527
40
0.805473598069655
40
0.814017877153782
40
0.82256215623791
40
0.831106435322037
40
0.848194993490292
40
0.85673927257442
40
0.865283551658547
40
0.873827830742675
40
0.882372109826802
40
0.899460667995057
40
0.908004947079184
40
0.916549226163312
40
0.925093505247439
40
0.933637784331567
40
0.942182063415694
40
0.950726342499822
40
0.959270621583949
40
0.967814900668076
40
0.976359179752204
40
0.984903458836331
40
0.993447737920459
40
1
40
1
40
1
40
1
41
1
10
-0.394976888875277
20
6.32694279392976
30
0
41
1
10
-0.394976888875277
20
6.3484916311391
30
0
41
1
10
-0.394976888875277
20
6.44960775400912
30
0
41
1
10
-0.394976888875277
20
6.62954555948869
30
0
41
1
10
-0.394976888875277
20
6.8656950488801
30
0
41
1
10
-0.394976888875277
20
7.10023740586411
30
0
41
1
10
-0.394976888875277
20
7.33316546385933
30
0
41
1
10
-0.394976888875277
20
7.56447269448574
30
0
41
1
10
-0.394976888875277
20
7.79415340272945
30
0
41
1
10
-0.394976888875277
20
8.02220293401996
30
0
41
1
10
-0.394976888875277
20
8.24861635560848
30
0
41
1
10
-0.394976888875277
20
8.47338951886385
30
0
41
1
10
-0.394976888875277
20
8.69651811258549
30
0
41
1
10
-0.394976888875277
20
8.99192948127941
30
0
41
1
10
-0.394976888875277
20
9.35683912175983
30
0
41
1
10
-0.394976888875277
20
9.78821091217483
30
0
41
1
10
-0.394976888875277
20
10.142045462177
30
0
41
1
10
-0.394976888875277
20
10.4219344727077
30
0
41
1
10
-0.394976888875277
20
10.6301131683678
30
0
41
1
10
-0.394976888875277
20
10.8366153667066
30
0
41
1
10
-0.394976888875277
20
11.0414388905992
30
0
41
1
10
-0.394976888875277
20
11.2445799004538
30
0
41
1
10
-0.394976888875277
20
11.4460361162834
30
0
41
1
10
-0.394976888875277
20
11.6458042976885
30
0
41
1
10
-0.394976888875277
20
11.9099848253352
30
0
41
1
10
-0.394976888875277
20
12.1705475695385
30
0
41
1
10
-0.394976888875277
20
12.4279318067111
30
0
41
1
10
-0.394976888875277
20
12.6192114874981
30
0
41
1
10
-0.394976888875277
20
12.8087826250924
30
0
41
1
10
-0.394976888875277
20
12.9966426041155
30
0
41
1
10
-0.394976888875277
20
13.182787448996
30
0
41
1
10
-0.394976888875277
20
13.3672125455487
30
0
41
1
10
-0.394976888875277
20
13.5499151547097
30
0
41
1
10
-0.394976888875277
20
13.7308904478326
30
0
41
1
10
-0.394976888875277
20
13.910133867705
30
0
41
1
10
-0.394976888875277
20
14.0876421688895
30
0
41
1
10
-0.394976888875277
20
14.2634098807097
30
0
41
1
10
-0.394976888875277
20
14.4955025482493
30
0
41
1
10
-0.394976888875277
20
14.7239127068147
30
0
41
1
10
-0.394976888875277
20
14.9489833053404
30
0
41
1
10
-0.394976888875277
20
15.171701411915
30
0
41
1
10
-0.394976888875277
20
15.3907043201103
30
0
41
1
10
-0.394976888875277
20
15.6063159613101
30
0
41
1
10
-0.394976888875277
20
15.7661946363952
30
0
41
1
10
-0.394976888875277
20
15.9242799594928
30
0
41
1
10
-0.394976888875277
20
16.1327154012234
30
0
41
1
10
-0.394976888875277
20
16.3373780173449
30
0
41
1
10
-0.394976888875277
20
16.5385587125243
30
0
41
1
10
-0.394976888875277
20
16.6875782011067
30
0
41
1
10
-0.394976888875277
20
16.8347642769002
30
0
41
1
10
-0.394976888875277
20
17.0286080073569
30
0
41
1
10
-0.394976888875277
20
17.2186059445175
30
0
41
1
10
-0.394976888875277
20
17.4050188999402
30
0
41
1
10
-0.394976888875277
20
17.5429190217058
30
0
41
1
10
-0.394976888875277
20
17.6789377757623
30
0
41
1
10
-0.394976888875277
20
17.8578220601067
30
0
41
1
10
-0.394976888875277
20
18.0327708145484
30
0
41
1
10
-0.394976888875277
20
18.2040166330947
30
0
41
1
10
-0.394976888875277
20
18.3304892054167
30
0
41
1
10
-0.394976888875277
20
18.4550234389153
30
0
41
1
10
-0.394976888875277
20
18.6185132745736
30
0
41
1
10
-0.394976888875277
20
18.7779598884918
30
0
41
1
10
-0.394976888875277
20
18.933565131357
30
0
41
1
10
-0.394976888875277
20
19.048244884465
30
0
41
1
10
-0.394976888875277
20
19.1609196079758
30
0
41
1
10
-0.394976888875277
20
19.3085018143331
30
0
41
1
10
-0.394976888875277
20
19.4519098709686
30
0
41
1
10
-0.394976888875277
20
19.5913159811741
30
0
41
1
10
-0.394976888875277
20
19.6937719762305
30
0
41
1
10
-0.394976888875277
20
19.7941438028822
30
0
41
1
10
-0.394976888875277
20
19.8924174211231
30
0
41
1
10
-0.394976888875277
20
19.988575861591
30
0
41
1
10
-0.394976888875277
20
20.082604778142
30
0
41
1
10
-0.394976888875277
20
20.1744885559187
30
0
41
1
10
-0.394976888875277
20
20.264209431984
30
0
41
1
10
-0.394976888875277
20
20.3517517880635
30
0
41
1
10
-0.394976888875277
20
20.437098129367
30
0
41
1
10
-0.394976888875277
20
20.5202292348052
30
0
41
1
10
-0.394976888875277
20
20.6011280559991
30
0
41
1
10
-0.394976888875277
20
20.6797749513881
30
0
41
1
10
-0.394976888875277
20
20.781635486227
30
0
41
1
10
-0.394976888875277
20
20.8788308931333
30
0
41
1
10
-0.394976888875277
20
20.9714365096391
30
0
41
1
10
-0.394976888875277
20
21.0385142950144
30
0
41
1
10
-0.394976888875277
20
21.1032108820957
30
0
41
1
10
-0.394976888875277
20
21.1655031751743
30
0
41
1
10
-0.394976888875277
20
21.2253665102307
30
0
41
1
10
-0.394976888875277
20
21.301932078811
30
0
41
1
10
-0.394976888875277
20
21.3734709318986
30
0
41
1
10
-0.394976888875277
20
21.4399968999807
30
0
41
1
10
-0.394976888875277
20
21.4873093096751
30
0
41
1
10
-0.394976888875277
20
21.5320229383892
30
0
41
1
10
-0.394976888875277
20
21.5881524005931
30
0
41
1
10
-0.394976888875277
20
21.6389063892513
30
0
41
1
10
-0.394976888875277
20
21.6842420425293
30
0
41
1
10
-0.394976888875277
20
21.7154617242468
30
0
41
1
10
-0.394976888875277
20
21.7438726893518
30
0
41
1
10
-0.394976888875277
20
21.7694337460976
30
0
41
1
10
-0.394976888875277
20
21.7921034780961
30
0
41
1
10
-0.394976888875277
20
21.8118377637545
30
0
41
1
10
-0.394976888875277
20
21.8285907189997
30
0
41
1
10
-0.394976888875277
20
21.8423149132633
30
0
41
1
10
-0.394976888875277
20
21.8529599173647
30
0
41
1
10
-0.394976888875277
20
21.8604739519412
30
0
41
1
10
-0.394976888875277
20
21.8644655182889
30
0
41
1
10
-0.394976888875306
20
21.8653271905416
30
0
41
1
10
-0.394976888875277
20
21.8653787938404
30
0
0
SPLINE
5
1AA
100
AcDbEntity
8
SK1
62
256
6
ByLayer
370
18
48
1
60
0
100
AcDbSpline
70
4
71
3
72
299
73
295
40
0
40
0
40
0
40
0
40
0.0029480180996027
40
0.0064730895257981
40
0.0099981609519934
40
0.0135232323781887
40
0.017048303804384
40
0.0205733752305793
40
0.0240984466567746
40
0.0276235180829699
40
0.0346736609353605
40
0.0417238037877511
40
0.0487739466401417
40
0.052299018066337
40
0.0558240894925323
40
0.0593491609187276
40
0.0628742323449229
40
0.0699243751973135
40
0.0734494466235088
40
0.0769745180497041
40
0.0804995894758994
40
0.0840246609020947
40
0.08754973232829
40
0.0910748037544853
40
0.0981249466068759
40
0.101650018033071
40
0.105175089459266
40
0.108700160885462
40
0.112225232311657
40
0.115750303737852
40
0.119275375164048
40
0.122800446590243
40
0.126325518016438
40
0.129850589442634
40
0.133375660868829
40
0.136900732295024
40
0.140425803721219
40
0.143950875147415
40
0.14747594657361
40
0.154526089426001
40
0.158051160852196
40
0.161576232278391
40
0.163338767991489
40
0.165101303704587
40
0.168626375130782
40
0.175676517983173
40
0.179201589409368
40
0.182726660835563
40
0.186251732261759
40
0.189776803687954
40
0.196826946540344
40
0.20035201796654
40
0.203877089392735
40
0.205639625105833
40
0.20740216081893
40
0.210927232245126
40
0.217977375097516
40
0.221502446523712
40
0.225027517949907
40
0.228552589376102
40
0.232077660802297
40
0.239127803654688
40
0.242652875080883
40
0.246177946507079
40
0.247940482220176
40
0.249703017933274
40
0.253228089359469
40
0.256753160785665
40
0.26027823221186
40
0.262040767924958
40
0.263803303638055
40
0.26732837506425
40
0.270853446490446
40
0.274378517916641
40
0.277903589342836
40
0.281428660769032
40
0.284953732195227
40
0.288478803621422
40
0.292003875047617
40
0.295528946473813
40
0.299054017900008
40
0.302579089326203
40
0.306104160752399
40
0.309629232178594
40
0.313154303604789
40
0.316679375030985
40
0.323729517883375
40
0.327254589309571
40
0.330779660735766
40
0.334304732161961
40
0.337829803588157
40
0.341354875014352
40
0.344879946440547
40
0.348405017866742
40
0.351930089292938
40
0.358980232145328
40
0.366030374997719
40
0.373080517850109
40
0.376605589276305
40
0.3801306607025
40
0.383655732128695
40
0.387180803554891
40
0.390705874981086
40
0.394230946407281
40
0.397756017833477
40
0.401281089259672
40
0.404806160685867
40
0.408331232112063
40
0.411856303538258
40
0.415381374964453
40
0.418906446390648
40
0.422431517816844
40
0.425956589243039
40
0.429481660669234
40
0.43300673209543
40
0.434769267808527
40
0.436531803521625
40
0.438294339234723
40
0.44005687494782
40
0.443581946374016
40
0.447107017800211
40
0.448869553513309
40
0.450632089226406
40
0.452394624939504
40
0.454157160652601
40
0.457682232078797
40
0.459444767791894
40
0.461207303504992
40
0.46296983921809
40
0.464732374931187
40
0.466494910644285
40
0.468257446357383
40
0.47001998207048
40
0.471782517783578
40
0.473545053496676
40
0.475307589209773
40
0.477070124922871
40
0.478832660635969
40
0.480595196349066
40
0.482357732062164
40
0.484120267775262
40
0.485882803488359
40
0.487645339201457
40
0.489407874914555
40
0.491170410627652
40
0.49293294634075
40
0.494695482053847
40
0.496458017766945
40
0.498220553480043
40
0.49998308919314
40
0.501745624906238
40
0.503508160619336
40
0.505270696332433
40
0.507033232045531
40
0.508795767758629
40
0.510558303471726
40
0.512320839184824
40
0.514083374897922
40
0.515845910611019
40
0.517608446324117
40
0.519370982037215
40
0.521133517750312
40
0.52289605346341
40
0.524658589176508
40
0.526421124889605
40
0.528183660602703
40
0.529946196315801
40
0.531708732028898
40
0.533471267741996
40
0.535233803455093
40
0.536996339168191
40
0.538758874881289
40
0.540521410594387
40
0.542283946307484
40
0.545809017733679
40
0.547571553446777
40
0.549334089159875
40
0.551096624872972
40
0.55285916058607
40
0.556384232012265
40
0.559909303438461
40
0.561671839151558
40
0.563434374864656
40
0.565196910577753
40
0.566959446290851
40
0.570484517717046
40
0.574009589143242
40
0.577534660569437
40
0.581059731995632
40
0.584584803421828
40
0.588109874848023
40
0.591634946274218
40
0.595160017700413
40
0.598685089126609
40
0.602210160552804
40
0.605735231978999
40
0.609260303405195
40
0.61278537483139
40
0.616310446257585
40
0.619835517683781
40
0.623360589109976
40
0.626885660536171
40
0.633935803388562
40
0.640985946240953
40
0.648036089093343
40
0.651561160519538
40
0.655086231945733
40
0.658611303371929
40
0.662136374798124
40
0.66566144622432
40
0.669186517650515
40
0.67271158907671
40
0.676236660502905
40
0.683286803355296
40
0.686811874781491
40
0.690336946207687
40
0.693862017633882
40
0.697387089060077
40
0.700912160486273
40
0.704437231912468
40
0.707962303338663
40
0.711487374764859
40
0.715012446191054
40
0.718537517617249
40
0.722062589043444
40
0.72558766046964
40
0.73263780332203
40
0.736162874748225
40
0.739687946174421
40
0.746738089026812
40
0.750263160453007
40
0.753788231879202
40
0.757313303305397
40
0.760838374731593
40
0.767888517583983
40
0.771413589010179
40
0.774938660436374
40
0.778463731862569
40
0.781988803288765
40
0.789038946141155
40
0.792564017567351
40
0.796089088993546
40
0.799614160419741
40
0.803139231845936
40
0.810189374698327
40
0.813714446124522
40
0.817239517550718
40
0.820764588976913
40
0.824289660403108
40
0.831339803255499
40
0.834864874681694
40
0.838389946107889
40
0.841915017534085
40
0.84544008896028
40
0.852490231812671
40
0.856015303238866
40
0.859540374665061
40
0.863065446091257
40
0.866590517517452
40
0.870115588943647
40
0.873640660369843
40
0.877165731796038
40
0.880690803222233
40
0.884215874648428
40
0.887740946074624
40
0.891266017500819
40
0.894791088927014
40
0.89831616035321
40
0.901841231779405
40
0.908891374631795
40
0.912416446057991
40
0.915941517484186
40
0.919466588910381
40
0.922991660336577
40
0.926516731762772
40
0.930041803188967
40
0.937091946041358
40
0.940617017467553
40
0.944142088893749
40
0.947667160319944
40
0.951192231746139
40
0.95824237459853
40
0.961767446024725
40
0.96529251745092
40
0.968817588877116
40
0.972342660303311
40
0.975867731729506
40
0.979392803155701
40
0.982917874581897
40
0.986442946008092
40
0.989968017434287
40
0.993493088860483
40
0.997018160286678
40
1
40
1
40
1
40
1
41
1
10
-38
20
-20.2923486452587
30
0
41
1
10
-38
20
-20.2923551245514
30
0
41
1
10
-38
20
-20.291587094264
30
0
41
1
10
-38
20
-20.2877827415225
30
0
41
1
10
-38
20
-20.2807871950941
30
0
41
1
10
-38
20
-20.270864225278
30
0
41
1
10
-38
20
-20.2580557575388
30
0
41
1
10
-38
20
-20.2424031034125
30
0
41
1
10
-38
20
-20.2239454925533
30
0
41
1
10
-38
20
-20.19551262204
30
0
41
1
10
-38
20
-20.153458157969
30
0
41
1
10
-38
20
-20.0921783324266
30
0
41
1
10
-38
20
-20.0326760120608
30
0
41
1
10
-38
20
-19.9796195423852
30
0
41
1
10
-38
20
-19.9374871337362
30
0
41
1
10
-38
20
-19.8928775037255
30
0
41
1
10
-38
20
-19.8298739849262
30
0
41
1
10
-38
20
-19.7628242930463
30
0
41
1
10
-38
20
-19.6902080345968
30
0
41
1
10
-38
20
-19.6336084813315
30
0
41
1
10
-38
20
-19.5746836513967
30
0
41
1
10
-38
20
-19.5134574775013
30
0
41
1
10
-38
20
-19.4499498796239
30
0
41
1
10
-38
20
-19.361926580552
30
0
41
1
10
-38
20
-19.2704514952516
30
0
41
1
10
-38
20
-19.1735363516591
30
0
41
1
10
-38
20
-19.0989364266239
30
0
41
1
10
-38
20
-19.0221745884206
30
0
41
1
10
-38
20
-18.9432715601189
30
0
41
1
10
-38
20
-18.8622425921487
30
0
41
1
10
-38
20
-18.7791047356355
30
0
41
1
10
-38
20
-18.6938772447032
30
0
41
1
10
-38
20
-18.6065734364562
30
0
41
1
10
-38
20
-18.5172096781029
30
0
41
1
10
-38
20
-18.4258037757915
30
0
41
1
10
-38
20
-18.3323676597213
30
0
41
1
10
-38
20
-18.236917040573
30
0
41
1
10
-38
20
-18.1394682315479
30
0
41
1
10
-38
20
-18.006423045464
30
0
41
1
10
-38
20
-17.870842154793
30
0
41
1
10
-38
20
-17.7299440627733
30
0
41
1
10
-38
20
-17.6408187485726
30
0
41
1
10
-38
20
-17.5681131617785
30
0
41
1
10
-38
20
-17.4947669133713
30
0
41
1
10
-38
20
-17.3649201654158
30
0
41
1
10
-38
20
-17.2140632768009
30
0
41
1
10
-38
20
-17.0578935907134
30
0
41
1
10
-38
20
-16.9392992293059
30
0
41
1
10
-38
20
-16.8188549914818
30
0
41
1
10
-38
20
-16.6552510003021
30
0
41
1
10
-38
20
-16.489672496603
30
0
41
1
10
-38
20
-16.3187666825072
30
0
41
1
10
-38
20
-16.2111031772939
30
0
41
1
10
-38
20
-16.1235473577608
30
0
41
1
10
-38
20
-16.0353949417433
30
0
41
1
10
-38
20
-15.8797855584285
30
0
41
1
10
-38
20
-15.6999813794666
30
0
41
1
10
-38
20
-15.5148116907138
30
0
41
1
10
-38
20
-15.3746600384839
30
0
41
1
10
-38
20
-15.2327750536327
30
0
41
1
10
-38
20
-15.0406360987563
30
0
41
1
10
-38
20
-14.8470518249568
30
0
41
1
10
-38
20
-14.6480433816337
30
0
41
1
10
-38
20
-14.5230237603812
30
0
41
1
10
-38
20
-14.4215395322791
30
0
41
1
10
-38
20
-14.319494446119
30
0
41
1
10
-38
20
-14.1916826014269
30
0
41
1
10
-38
20
-14.0362107113462
30
0
41
1
10
-38
20
-13.905633632864
30
0
41
1
10
-38
20
-13.7996824703933
30
0
41
1
10
-38
20
-13.6931799140641
30
0
41
1
10
-38
20
-13.5598675642285
30
0
41
1
10
-38
20
-13.3977994204325
30
0
41
1
10
-38
20
-13.2340971553998
30
0
41
1
10
-38
20
-13.0687736820565
30
0
41
1
10
-38
20
-12.9018380893652
30
0
41
1
10
-38
20
-12.7332922951509
30
0
41
1
10
-38
20
-12.5631480531082
30
0
41
1
10
-38
20
-12.3914123687224
30
0
41
1
10
-38
20
-12.2180896154105
30
0
41
1
10
-38
20
-12.0431930727568
30
0
41
1
10
-38
20
-11.8667275879997
30
0
41
1
10
-38
20
-11.6886992220563
30
0
41
1
10
-38
20
-11.5091211559413
30
0
41
1
10
-38
20
-11.3279971676986
30
0
41
1
10
-38
20
-11.0835274575533
30
0
41
1
10
-38
20
-10.8388445996823
30
0
41
1
10
-38
20
-10.5882272221232
30
0
41
1
10
-38
20
-10.3995106478125
30
0
41
1
10
-38
20
-10.2093006505112
30
0
41
1
10
-38
20
-10.0176111741013
30
0
41
1
10
-38
20
-9.82444825814403
30
0
41
1
10
-38
20
-9.62982433363783
30
0
41
1
10
-38
20
-9.43375032895256
30
0
41
1
10
-38
20
-9.16930024978845
30
0
41
1
10
-38
20
-8.83774034996793
30
0
41
1
10
-38
20
-8.43283016067576
30
0
41
1
10
-38
20
-8.09202302704495
30
0
41
1
10
-38
20
-7.81440668711983
30
0
41
1
10
-38
20
-7.60585888080686
30
0
41
1
10
-38
20
-7.39600299493051
30
0
41
1
10
-38
20
-7.18486050853949
30
0
41
1
10
-38
20
-6.972454820743
30
0
41
1
10
-38
20
-6.75880464755275
30
0
41
1
10
-38
20
-6.54393387937549
30
0
41
1
10
-38
20
-6.3278710206452
30
0
41
1
10
-38
20
-6.11064460524278
30
0
41
1
10
-38
20
-5.89228682406826
30
0
41
1
10
-38
20
-5.67283049766698
30
0
41
1
10
-38
20
-5.45231041402207
30
0
41
1
10
-38
20
-5.2307661198837
30
0
41
1
10
-38
20
-5.00824236668089
30
0
41
1
10
-38
20
-4.78478453894905
30
0
41
1
10
-38
20
-4.56044477194348
30
0
41
1
10
-38
20
-4.3737593142329
30
0
41
1
10
-38
20
-4.22222174308928
30
0
41
1
10
-38
20
-4.10916467830538
30
0
41
1
10
-38
20
-3.99593123757285
30
0
41
1
10
-38
20
-3.84368490764803
30
0
41
1
10
-38
20
-3.65544484289478
30
0
41
1
10
-38
20
-3.46668355973628
30
0
41
1
10
-38
20
-3.31336520651502
30
0
41
1
10
-38
20
-3.19916977025284
30
0
41
1
10
-38
20
-3.0848771849204
30
0
41
1
10
-38
20
-2.93116533478539
30
0
41
1
10
-38
20
-2.7810630459212
30
0
41
1
10
-38
20
-2.62697343511894
30
0
41
1
10
-38
20
-2.51237687493429
30
0
41
1
10
-38
20
-2.39774974487253
30
0
41
1
10
-38
20
-2.28311555219403
30
0
41
1
10
-38
20
-2.16847618976473
30
0
41
1
10
-38
20
-2.05384840107453
30
0
41
1
10
-38
20
-1.93924458170406
30
0
41
1
10
-38
20
-1.82466899171223
30
0
41
1
10
-38
20
-1.71014121398446
30
0
41
1
10
-38
20
-1.59566009898879
30
0
41
1
10
-38
20
-1.48124309885608
30
0
41
1
10
-38
20
-1.36688883878045
30
0
41
1
10
-38
20
-1.25260906632701
30
0
41
1
10
-38
20
-1.13840321986402
30
0
41
1
10
-38
20
-1.02427614220741
30
0
41
1
10
-38
20
-0.910225811803912
30
0
41
1
10
-38
20
-0.796251800903974
30
0
41
1
10
-38
20
-0.682349388495624
30
0
41
1
10
-38
20
-0.568513483413511
30
0
41
1
10
-38
20
-0.454735475948979
30
0
41
1
10
-38
20
-0.341006791030083
30
0
41
1
10
-38
20
-0.227315919379521
30
0
41
1
10
-38
20
-0.113651444289076
30
0
41
1
10
-38
20
-2.39306814E-08
30
0
41
1
10
-38
20
0.113651428861147
30
0
41
1
10
-38
20
0.227315965161836
30
0
41
1
10
-38
20
0.341006831114754
30
0
41
1
10
-38
20
0.454735424962735
30
0
41
1
10
-38
20
0.568513412391525
30
0
41
1
10
-38
20
0.682349437337052
30
0
41
1
10
-38
20
0.796251898049235
30
0
41
1
10
-38
20
0.910225765592202
30
0
41
1
10
-38
20
1.02427601417025
30
0
41
1
10
-38
20
1.13840324907633
30
0
41
1
10
-38
20
1.25260921865757
30
0
41
1
10
-38
20
1.36688883944316
30
0
41
1
10
-38
20
1.48124293103632
30
0
41
1
10
-38
20
1.59566004663384
30
0
41
1
10
-38
20
1.71014137238998
30
0
41
1
10
-38
20
1.82466911261432
30
0
41
1
10
-38
20
1.93924446866484
30
0
41
1
10
-38
20
2.05384821372689
30
0
41
1
10
-38
20
2.1684762190329
30
0
41
1
10
-38
20
2.28311576323421
30
0
41
1
10
-38
20
2.39774983280105
30
0
41
1
10
-38
20
2.51237672316307
30
0
41
1
10
-38
20
2.62697323991799
30
0
41
1
10
-38
20
2.78106315146928
30
0
41
1
10
-38
20
2.93116552693385
30
0
41
1
10
-38
20
3.08487708212581
30
0
41
1
10
-38
20
3.19916954549007
30
0
41
1
10
-38
20
3.31336512600546
30
0
41
1
10
-38
20
3.46668375918677
30
0
41
1
10
-38
20
3.65544489425088
30
0
41
1
10
-38
20
3.84368470208372
30
0
41
1
10
-38
20
3.99593117493794
30
0
41
1
10
-38
20
4.10916481607396
30
0
41
1
10
-38
20
4.22222196867938
30
0
41
1
10
-38
20
4.37375933349006
30
0
41
1
10
-38
20
4.56044458630845
30
0
41
1
10
-38
20
4.78478457648492
30
0
41
1
10
-38
20
5.00824253816086
30
0
41
1
10
-38
20
5.23076600439055
30
0
41
1
10
-38
20
5.45231022599046
30
0
41
1
10
-38
20
5.67283041504652
30
0
41
1
10
-38
20
5.89228674128222
30
0
41
1
10
-38
20
6.11064496108523
30
0
41
1
10
-38
20
6.32787239667013
30
0
41
1
10
-38
20
6.54393525610644
30
0
41
1
10
-38
20
6.75880334040127
30
0
41
1
10
-38
20
6.97245311766207
30
0
41
1
10
-38
20
7.18486111103374
30
0
41
1
10
-38
20
7.39600347561742
30
0
41
1
10
-38
20
7.60585874971361
30
0
41
1
10
-38
20
7.8144064520111
30
0
41
1
10
-38
20
8.09202295752311
30
0
41
1
10
-38
20
8.43283023540656
30
0
41
1
10
-38
20
8.83774029355055
30
0
41
1
10
-38
20
9.16930023887323
30
0
41
1
10
-38
20
9.43375044009511
30
0
41
1
10
-38
20
9.62982432960192
30
0
41
1
10
-38
20
9.82444814962994
30
0
41
1
10
-38
20
10.0176111126089
30
0
41
1
10
-38
20
10.2093007057547
30
0
41
1
10
-38
20
10.3995107409486
30
0
41
1
10
-38
20
10.5882272324294
30
0
41
1
10
-38
20
10.8388445170812
30
0
41
1
10
-38
20
11.0835274377931
30
0
41
1
10
-38
20
11.327997250045
30
0
41
1
10
-38
20
11.5091211965041
30
0
41
1
10
-38
20
11.6886991809046
30
0
41
1
10
-38
20
11.8667275177687
30
0
41
1
10
-38
20
12.0431930522803
30
0
41
1
10
-38
20
12.2180896645831
30
0
41
1
10
-38
20
12.3914124247035
30
0
41
1
10
-38
20
12.5631480735019
30
0
41
1
10
-38
20
12.7332924196477
30
0
41
1
10
-38
20
12.9018387248249
30
0
41
1
10
-38
20
13.068774902876
30
0
41
1
10
-38
20
13.2899980003418
30
0
41
1
10
-38
20
13.5056406071554
30
0
41
1
10
-38
20
13.7202970548285
30
0
41
1
10
-38
20
13.9327572918622
30
0
41
1
10
-38
20
14.1397069500695
30
0
41
1
10
-38
20
14.3454836148157
30
0
41
1
10
-38
20
14.4976048095277
30
0
41
1
10
-38
20
14.6480433741443
30
0
41
1
10
-38
20
14.8470538575164
30
0
41
1
10
-38
20
15.0406366439893
30
0
41
1
10
-38
20
15.2327734637881
30
0
41
1
10
-38
20
15.3746583733236
30
0
41
1
10
-38
20
15.5148115582755
30
0
41
1
10
-38
20
15.6999837411247
30
0
41
1
10
-38
20
15.8797870255403
30
0
41
1
10
-38
20
16.0578801048401
30
0
41
1
10
-38
20
16.189216581434
30
0
41
1
10
-38
20
16.3187661779867
30
0
41
1
10
-38
20
16.4896741385663
30
0
41
1
10
-38
20
16.6552512602625
30
0
41
1
10
-38
20
16.8188545807649
30
0
41
1
10
-38
20
16.9392987318018
30
0
41
1
10
-38
20
17.0578934672827
30
0
41
1
10
-38
20
17.2140648101705
30
0
41
1
10
-38
20
17.3649216616153
30
0
41
1
10
-38
20
17.513530035822
30
0
41
1
10
-38
20
17.6226956365842
30
0
41
1
10
-38
20
17.7299433731025
30
0
41
1
10
-38
20
17.8708440004863
30
0
41
1
10
-38
20
18.0064238716364
30
0
41
1
10
-38
20
18.1394672902699
30
0
41
1
10
-38
20
18.236915915677
30
0
41
1
10
-38
20
18.3323672965474
30
0
41
1
10
-38
20
18.4258040962282
30
0
41
1
10
-38
20
18.517209887002
30
0
41
1
10
-38
20
18.6065734896479
30
0
41
1
10
-38
20
18.6938772522127
30
0
41
1
10
-38
20
18.7791047692188
30
0
41
1
10
-38
20
18.8622426359768
30
0
41
1
10
-38
20
18.9432715834756
30
0
41
1
10
-38
20
19.0221745805325
30
0
41
1
10
-38
20
19.0989364136873
30
0
41
1
10
-38
20
19.1735363647814
30
0
41
1
10
-38
20
19.2704515417461
30
0
41
1
10
-38
20
19.3619266112172
30
0
41
1
10
-38
20
19.4499498647732
30
0
41
1
10
-38
20
19.5134574724377
30
0
41
1
10
-38
20
19.5746836830748
30
0
41
1
10
-38
20
19.6336085328263
30
0
41
1
10
-38
20
19.6902080668946
30
0
41
1
10
-38
20
19.7628242842049
30
0
41
1
10
-38
20
19.829873984374
30
0
41
1
10
-38
20
19.8928775551026
30
0
41
1
10
-38
20
19.9374871757691
30
0
41
1
10
-38
20
19.9796195436674
30
0
41
1
10
-38
20
20.0326760063813
30
0
41
1
10
-38
20
20.0800381474625
30
0
41
1
10
-38
20
20.1228090027496
30
0
41
1
10
-38
20
20.1521177658612
30
0
41
1
10
-38
20
20.1787668505585
30
0
41
1
10
-38
20
20.2027210424566
30
0
41
1
10
-38
20
20.2239455432986
30
0
41
1
10
-38
20
20.2424031363825
30
0
41
1
10
-38
20
20.2580557552655
30
0
41
1
10
-38
20
20.2708642249464
30
0
41
1
10
-38
20
20.2807872561095
30
0
41
1
10
-38
20
20.2877829489452
30
0
41
1
10
-38
20
20.2916002885527
30
0
41
1
10
-38
20
20.2923631902908
30
0
41
1
10
-38
20
20.2923482591234
30
0
0
SPLINE
5
1AB
100
AcDbEntity
8
1
62
256
6
ByLayer
370
18
48
1
60
0
100
AcDbSpline
70
4
71
3
72
16
73
12
40
0
40
0
40
0
40
0
40
0.263910141213668
40
0.263910141213668
40
0.4808747922615
40
0.4808747922615
40
0.700367114785114
40
0.700367114785114
40
0.897422503094256
40
0.897422503094256
40
1
40
1
40
1
40
1
41
1
10
11.1340245752351
20
20.2591909196423
30
0
41
1
10
11.0557001694516
20
20.2822176317841
30
0
41
1
10
10.9766260567424
20
20.2935907787297
30
0
41
1
10
10.8344694163384
20
20.2823498626206
30
0
41
1
10
10.7699257846946
20
20.2644780528766
30
0
41
1
10
10.6501226227169
20
20.1963489522003
30
0
41
1
10
10.5935700788063
20
20.1443105704906
30
0
41
1
10
10.50455659477
20
20.0190921135045
30
0
41
1
10
10.4691178191166
20
19.947378640612
30
0
41
1
10
10.4273625295671
20
19.8302155453493
30
0
41
1
10
10.4150394225423
20
19.7883941647403
30
0
41
1
10
10.4044795775837
20
19.7453767722569
30
0
0
SPLINE
5
1AC
100
AcDbEntity
8
1
62
256
6
ByLayer
370
18
48
1
60
0
100
AcDbSpline
70
4
71
3
72
8
73
4
40
0
40
0
40
0
40
0
40
1
40
1
40
1
40
1
41
1
10
25.5013570413555
20
-41.1207286512218
30
0
41
1
10
25.5012591888592
20
-41.1207235229898
30
0
41
1
10
25.5247795241079
20
-41.1219561715288
30
0
41
1
10
25.5731608926984
20
-41.1244917316167
30
0
0
SPLINE
5
1AD
100
AcDbEntity
8
1
62
256
6
ByLayer
370
18
48
1
60
0
100
AcDbSpline
70
4
71
3
72
10
73
6
40
0
40
0
40
0
40
0
40
0.467403496721563
40
0.467403496721563
40
1
40
1
40
1
40
1
41
1
10
10.4836806762405
20
19.5725222687281
30
0
41
1
10
10.5789033213207
20
19.7258839412495
30
0
41
1
10
10.6826517052665
20
19.8652502692866
30
0
41
1
10
10.9183749881541
20
20.12017753968
30
0
41
1
10
11.0537379712966
20
20.2314787043774
30
0
41
1
10
11.1920390385362
20
20.3172535622925
30
0
0
SPLINE
5
1AE
100
AcDbEntity
8
1
62
256
6
ByLayer
370
18
48
1
60
0
100
AcDbSpline
70
4
71
3
72
20
73
16
40
0
40
0
40
0
40
0
40
0.156071719784794
40
0.156071719784794
40
0.318979129246528
40
0.318979129246528
40
0.481831855502526
40
0.481831855502526
40
0.644750649209872
40
0.644750649209872
40
0.807602319252599
40
0.807602319252599
40
0.970476046459063
40
0.970476046459063
40
1
40
1
40
1
40
1
41
1
10
45.7645608531155
20
-39.7350494766471
30
0
41
1
10
45.6678741303554
20
-39.6785783691646
30
0
41
1
10
45.5799452934091
20
-39.6046364607222
30
0
41
1
10
45.4316060979824
20
-39.4290161535342
30
0
41
1
10
45.3705540246588
20
-39.3238236271036
30
0
41
1
10
45.2886816586121
20
-39.1004012338519
30
0
41
1
10
45.2667165808307
20
-38.979108047505
30
0
41
1
10
45.2642231027802
20
-38.7372655388046
30
0
41
1
10
45.2835707097662
20
-38.6132770828035
30
0
41
1
10
45.3608286687941
20
-38.3803145707167
30
0
41
1
10
45.4198249945894
20
-38.2681624060975
30
0
41
1
10
45.5689167037361
20
-38.0711443315357
30
0
41
1
10
45.6609981860217
20
-37.9834883914981
30
0
41
1
10
45.7815250638474
20
-37.9013982454182
30
0
41
1
10
45.8004426560665
20
-37.889338125574
30
0
41
1
10
45.8197268071841
20
-37.8778417515804
30
0
0
SPLINE
5
1AF
100
AcDbEntity
8
1
62
256
6
ByLayer
370
18
48
1
60
0
100
AcDbSpline
70
4
71
3
72
8
73
4
40
0
40
0
40
0
40
0
40
1
40
1
40
1
40
1
41
1
10
22.92079238
20
-30.8996141556632
30
0
41
1
10
23.2426423178719
20
-32.1401451848889
30
0
41
1
10
23.5684820644022
20
-33.3829616943839
30
0
41
1
10
23.8962856159808
20
-34.6245734699538
30
0
0
SPLINE
5
1B0
100
AcDbEntity
8
1
62
256
6
ByLayer
370
18
48
1
60
0
100
AcDbSpline
70
4
71
3
72
8
73
4
40
0
40
0
40
0
40
0
40
1
40
1
40
1
40
1
41
1
10
24.0744962361218
20
-35.3160035225273
30
0
41
1
10
24.0165202123714
20
-35.091352279261
30
0
41
1
10
23.9587009420308
20
-34.8668873555364
30
0
41
1
10
23.9010466996892
20
-34.6426067484621
30
0
0
SPLINE
5
1B1
100
AcDbEntity
8
1
62
256
6
ByLayer
370
18
48
1
60
0
100
AcDbSpline
70
4
71
2
72
6
73
3
40
0
40
0
40
0
40
1
40
1
40
1
41
1.02613459695995
10
37.3537762633776
20
-25.3838318149616
30
0
41
0.893236016722496
10
37.6680047967612
20
-23.9869383513598
30
0
41
0.877869681319409
10
37.3567259947606
20
-22.846762982856
30
0
0
SPLINE
5
1B2
100
AcDbEntity
8
1
62
256
6
ByLayer
370
18
48
1
60
0
100
AcDbSpline
70
4
71
2
72
10
73
7
40
0
40
0
40
0
40
0.260353221278024
40
0.471680872341446
40
0.683008523404867
40
0.788672348936578
40
1
40
1
40
1
41
1
10
32.6969807129048
20
-21.6354483921987
30
0
41
1
10
32.1254654790463
20
-21.9634640987189
30
0
41
1
10
31.2007997648657
20
-22.8733459603348
30
0
41
1
10
30.4164030258371
20
-24.1663660553916
30
0
41
1
10
30.2135187534091
20
-24.680542336813
30
0
41
1
10
30.0000749637287
20
-25.2818404567253
30
0
41
1
10
29.903248828137
20
-25.7120875195043
30
0
0
SPLINE
5
1B3
100
AcDbEntity
8
1
62
256
6
ByLayer
370
18
48
1
60
0
100
AcDbSpline
70
4
71
3
72
12
73
8
40
0
40
0
40
0
40
0
40
0.499999999965771
40
0.499999999965771
40
0.750000000047476
40
0.750000000047476
40
1
40
1
40
1
40
1
41
1
10
26.4873134120111
20
-41.172400434556
30
0
41
1
10
26.5024058920009
20
-41.1731913979165
30
0
41
1
10
26.5174984963513
20
-41.1739823683444
30
0
41
1
10
26.5401375898849
20
-41.1751688329622
30
0
41
1
10
26.5476839855928
20
-41.175564322803
30
0
41
1
10
26.5627768395353
20
-41.1763553057616
30
0
41
1
10
26.5703232977699
20
-41.1767507988793
30
0
41
1
10
26.5778697873353
20
-41.177146293639
30
0
0
SPLINE
5
1B4
100
AcDbEntity
8
1
62
256
6
ByLayer
370
18
48
1
60
0
100
AcDbSpline
70
4
71
3
72
8
73
4
40
0
40
0
40
0
40
0
40
1
40
1
40
1
40
1
41
1
10
25.5731608926984
20
-41.1244917316167
30
0
41
1
10
25.4304996962684
20
-40.5760127793274
30
0
41
1
10
25.2917219871731
20
-40.0342426771591
30
0
41
1
10
25.1682445093256
20
-39.532918052639
30
0
0
SPLINE
5
1B5
100
AcDbEntity
8
1
62
256
6
ByLayer
370
18
48
1
60
0
100
AcDbSpline
70
4
71
3
72
16
73
12
40
0
40
0
40
0
40
0
40
0.113316224833594
40
0.113316224833594
40
0.252990411571577
40
0.252990411571577
40
0.473309013928351
40
0.473309013928351
40
0.896716357718897
40
0.896716357718897
40
1
40
1
40
1
40
1
41
1
10
10.5386751345948
20
-30.0805927603169
30
0
41
1
10
10.5105874404281
20
-30.0805927603169
30
0
41
1
10
10.482150642237
20
-30.0790101689566
30
0
41
1
10
10.4232029654275
20
-30.0726712338969
30
0
41
1
10
10.3927526278712
20
-30.0672275748685
30
0
41
1
10
10.3230856363398
20
-30.0506647867052
30
0
41
1
10
10.2871733492349
20
-30.0378702684275
30
0
41
1
10
10.1985362549164
20
-29.9980833386355
30
0
41
1
10
10.1576291602469
20
-29.967975934908
30
0
41
1
10
10.1190965262402
20
-29.9294196064672
30
0
41
1
10
10.112102816203
20
-29.9217223689309
30
0
41
1
10
10.1056624327025
20
-29.9139548464691
30
0
0
SPLINE
5
1B6
100
AcDbEntity
8
1
62
256
6
ByLayer
370
18
48
1
60
0
100
AcDbSpline
70
4
71
3
72
10
73
6
40
0
40
0
40
0
40
0
40
0.563253738015378
40
0.563253738015378
40
1
40
1
40
1
40
1
41
1
10
10.1056624327026
20
20.1324515831236
30
0
41
1
10
10.1522667730003
20
19.9760029585275
30
0
41
1
10
10.2181997150426
20
19.8269086326718
30
0
41
1
10
10.3695745193898
20
19.5962808154733
30
0
41
1
10
10.4493853955874
20
19.5048499791108
30
0
41
1
10
10.5386751345948
20
19.4372396071259
30
0
0
SPLINE
5
1B7
100
AcDbEntity
8
1
62
256
6
ByLayer
370
18
48
1
60
0
100
AcDbSpline
70
4
71
2
72
8
73
5
40
0
40
0
40
0
40
0.183555182314982
40
0.877097692434597
40
1
40
1
40
1
41
1.02613459695995
10
31.2918750718851
20
-41.4241968422647
30
0
41
1.02613459695995
10
31.1562276003352
20
-41.2560555773161
30
0
41
1.02613459695995
10
30.555482816503
20
-40.3702841798412
30
0
41
1.02613459695995
10
30.2181200324349
20
-39.3378266371346
30
0
41
1.02613459695995
10
30.1758272900033
20
-39.1684701455902
30
0
0
SPLINE
5
1B8
100
AcDbEntity
8
1
62
256
6
ByLayer
370
18
48
1
60
0
100
AcDbSpline
70
4
71
2
72
10
73
7
40
0
40
0
40
0
40
0.230863619286531
40
0.45061687091895
40
0.67037012255137
40
0.78024674836758
40
1
40
1
40
1
41
1
10
32.4391300283094
20
-21.7255753316082
30
0
41
1
10
31.9594560090669
20
-22.027162649425
30
0
41
1
10
31.10995293846
20
-22.8630835919649
30
0
41
1
10
30.3255561994315
20
-24.1561036870216
30
0
41
1
10
30.1226719270034
20
-24.670279968443
30
0
41
1
10
29.9092281373231
20
-25.2715780883553
30
0
41
1
10
29.8124020017313
20
-25.7018251511343
30
0
0
SPLINE
5
1B9
100
AcDbEntity
8
1
62
256
6
ByLayer
370
18
48
1
60
0
100
AcDbSpline
70
4
71
2
72
6
73
3
40
0
40
0
40
0
40
1
40
1
40
1
41
0.876719220473399
10
28.9543640283295
20
-38.2122228676682
30
0
41
0.864502029337675
10
27.9348947531448
20
-39.4469727873774
30
0
41
1.02613459695995
10
26.8413991703701
20
-39.3234477846298
30
0
0
SPLINE
5
1BA
100
AcDbEntity
8
1
62
256
6
ByLayer
370
18
48
1
60
0
100
AcDbSpline
70
4
71
3
72
16
73
12
40
0
40
0
40
0
40
0
40
0.113316224833593
40
0.113316224833593
40
0.252990411571579
40
0.252990411571579
40
0.473309013928354
40
0.473309013928354
40
0.896716357718913
40
0.896716357718913
40
1
40
1
40
1
40
1
41
1
10
10.5386751345948
20
9.34922131452512
30
0
41
1
10
10.5105874404281
20
9.34922131452512
30
0
41
1
10
10.482150642237
20
9.35431657338984
30
0
41
1
10
10.4232029654275
20
9.37467777536568
30
0
41
1
10
10.3927526278712
20
9.39213979793414
30
0
41
1
10
10.3230856363398
20
9.44503542604386
30
0
41
1
10
10.2871733492349
20
9.48569380431883
30
0
41
1
10
10.1985362549164
20
9.6110592336681
30
0
41
1
10
10.1576291602469
20
9.70465429390072
30
0
41
1
10
10.1190965262402
20
9.82244573862477
30
0
41
1
10
10.112102816203
20
9.84586944318031
30
0
41
1
10
10.1056624327025
20
9.86941261896618
30
0
0
SPLINE
5
1BB
100
AcDbEntity
8
1
62
256
6
ByLayer
370
18
48
1
60
0
100
AcDbSpline
70
4
71
2
72
6
73
3
40
0
40
0
40
0
40
1
40
1
40
1
41
1.02613459695995
10
26.6597055175588
20
-39.3029230478899
30
0
41
0.8891372023546
10
25.758554237222
20
-39.2011259157085
30
0
41
0.877033632073645
10
25.2891406046275
20
-38.1786685285359
30
0
0
SPLINE
5
1BC
100
AcDbEntity
8
1
62
256
6
ByLayer
370
18
48
1
60
0
100
AcDbSpline
70
4
71
3
72
12
73
8
40
0
40
0
40
0
40
0
40
0.500000000041236
40
0.500000000041236
40
0.750000000163815
40
0.750000000163815
40
1
40
1
40
1
40
1
41
1
10
26.5778697872196
20
-41.177146293062
30
0
41
1
10
26.592962764114
20
-41.1779372824642
30
0
41
1
10
26.608055866447
20
-41.1787282790114
30
0
41
1
10
26.6306957085722
20
-41.1799147828612
30
0
41
1
10
26.6382423540811
20
-41.1803102857936
30
0
41
1
10
26.6533357081688
20
-41.1811012949636
30
0
41
1
10
26.6608824167475
20
-41.1814968012014
30
0
41
1
10
26.6684291569294
20
-41.1818923090953
30
0
0
SPLINE
5
1BD
100
AcDbEntity
8
1
62
256
6
ByLayer
370
18
48
1
60
0
100
AcDbSpline
70
4
71
2
72
8
73
5
40
0
40
0
40
0
40
0.287326732258935
40
0.524884488172623
40
1
40
1
40
1
41
1
10
26.5778697872786
20
-41.17714629305
30
0
41
1
10
26.5581986266938
20
-40.801609048492
30
0
41
1
10
26.5870765770703
20
-40.3876624132564
30
0
41
1
10
26.6538066659793
20
-39.7434560098869
30
0
41
1
10
26.7505523439645
20
-39.3131854162599
30
0
0
SPLINE
5
1BE
100
AcDbEntity
8
1
62
256
6
ByLayer
370
18
48
1
60
0
100
AcDbSpline
70
4
71
2
72
8
73
5
40
0
40
0
40
0
40
0.285817388359016
40
0.523878258906011
40
1
40
1
40
1
41
1
10
26.6684291569026
20
-41.181892309094
30
0
41
1
10
26.6491617268173
20
-40.810204708746
30
0
41
1
10
26.6779234034759
20
-40.3979247816264
30
0
41
1
10
26.744653492385
20
-39.7537183782568
30
0
41
1
10
26.8413991703701
20
-39.3234477846298
30
0
0
SPLINE
5
1BF
100
AcDbEntity
8
1
62
256
6
ByLayer
370
18
48
1
60
0
100
AcDbSpline
70
4
71
3
72
10
73
6
40
0
40
0
40
0
40
0
40
0.917501878246725
40
0.917501878246725
40
1
40
1
40
1
40
1
41
1
10
37.3567259947607
20
-22.846762982856
30
0
41
1
10
37.0934449473492
20
-22.4968178728525
30
0
41
1
10
36.7670931766076
20
-22.1872415599411
30
0
41
1
10
36.3700156083424
20
-21.9214743934871
30
0
41
1
10
36.3365668651543
20
-21.899822385534
30
0
41
1
10
36.3027947157191
20
-21.8786899311824
30
0
0
SPLINE
5
1C0
100
AcDbEntity
8
1
62
256
6
ByLayer
370
18
48
1
60
0
100
AcDbSpline
70
4
71
2
72
6
73
3
40
0
40
0
40
0
40
1
40
1
40
1
41
1.02613459695995
10
29.903248828137
20
-25.7120875195043
30
0
41
0.864503226079986
10
30.9967348008423
20
-25.8356114366655
30
0
41
0.876719039568529
10
31.4239369972876
20
-27.2337626048841
30
0
0
SPLINE
5
1C1
100
AcDbEntity
8
1
62
256
6
ByLayer
370
18
48
1
60
0
100
AcDbSpline
70
4
71
3
72
42
73
38
40
0
40
0
40
0
40
0
40
0.0001456803155133
40
0.0001456803155133
40
0.0001937816360984
40
0.0001937816360984
40
0.0002315128213267
40
0.0002315128213267
40
0.0002608510638113
40
0.0002608510638113
40
0.000290105403271
40
0.000290105403271
40
0.0003386248735851
40
0.0003386248735851
40
0.0004943092434384
40
0.0004943092434384
40
0.0012382902523501
40
0.0012382902523501
40
0.0042003708194913
40
0.0042003708194913
40
0.0160477602424132
40
0.0160477602424132
40
0.0634549524044125
40
0.0634549524044125
40
0.254713741155302
40
0.254713741155302
40
0.445726903577239
40
0.445726903577239
40
0.588325667595278
40
0.588325667595278
40
0.775840526153196
40
0.775840526153196
40
0.886032256053387
40
0.886032256053387
40
0.994826732488387
40
0.994826732488387
40
1
40
1
40
1
40
1
41
1
10
31.4239710614999
20
-27.2337014716856
30
0
41
1
10
31.4239745568273
20
-27.2337851109008
30
0
41
1
10
31.4239797520351
20
-27.2338689455779
30
0
41
1
10
31.4240003126988
20
-27.2339699337662
30
0
41
1
10
31.4240067380339
20
-27.2339942871044
30
0
41
1
10
31.4240225632712
20
-27.2340325282918
30
0
41
1
10
31.4240312245276
20
-27.2340477638609
30
0
41
1
10
31.4240503595814
20
-27.2340675661613
30
0
41
1
10
31.424060228049
20
-27.2340738008023
30
0
41
1
10
31.4240815397987
20
-27.2340797897621
30
0
41
1
10
31.4240931778977
20
-27.2340796781437
30
0
41
1
10
31.4241241734462
20
-27.2340731870544
30
0
41
1
10
31.424144084502
20
-27.2340630388688
30
0
41
1
10
31.4242246412532
20
-27.234010758773
30
0
41
1
10
31.424282852009
20
-27.2339494977749
30
0
41
1
10
31.4246081146331
20
-27.2335934939674
30
0
41
1
10
31.4248566345596
20
-27.2332487515387
30
0
41
1
10
31.4261088970661
20
-27.2315815508431
30
0
41
1
10
31.4270963968982
20
-27.2302216506909
30
0
41
1
10
31.4320608503415
20
-27.2234633401028
30
0
41
1
10
31.4360556423344
20
-27.2180651381341
30
0
41
1
10
31.4561872188098
20
-27.1911811996099
30
0
41
1
10
31.4727651040474
20
-27.1699749872356
30
0
41
1
10
31.5584100738201
20
-27.0653481431199
30
0
41
1
10
31.6353801630338
20
-26.9865964217678
30
0
41
1
10
31.8080472989669
20
-26.8484871621857
30
0
41
1
10
31.8923328894261
20
-26.7605113938523
30
0
41
1
10
32.0798151459931
20
-26.6915777862774
30
0
41
1
10
32.1702382529559
20
-26.690494394003
30
0
41
1
10
32.3743350476758
20
-26.6850511266701
30
0
41
1
10
32.4942285138559
20
-26.6789772209872
30
0
41
1
10
32.6715770801187
20
-26.7044474860906
30
0
41
1
10
32.7354037382953
20
-26.7235518411233
30
0
41
1
10
32.8471801590474
20
-26.7786910202758
30
0
41
1
10
32.8966876833839
20
-26.8149453742621
30
0
41
1
10
32.9402598040485
20
-26.8579740470809
30
0
41
1
10
32.9422118584013
20
-26.8599496408629
30
0
41
1
10
32.9441642180692
20
-26.8619118638754
30
0
0
SPLINE
5
1C2
100
AcDbEntity
8
1
62
256
6
ByLayer
370
18
48
1
60
0
100
AcDbSpline
70
4
71
2
72
6
73
3
40
0
40
0
40
0
40
1
40
1
40
1
41
1
10
26.8413991703701
20
-39.3234477846298
30
0
41
1
10
26.7959757571673
20
-39.3183166004449
30
0
41
1
10
26.7505523439645
20
-39.3131854162599
30
0
0
SPLINE
5
1C3
100
AcDbEntity
8
1
62
256
6
ByLayer
370
18
48
1
60
0
100
AcDbSpline
70
4
71
3
72
10
73
6
40
0
40
0
40
0
40
0
40
0.415665307772108
40
0.415665307772108
40
1
40
1
40
1
40
1
41
1
10
10.5386751345948
20
21.3694939161262
30
0
41
1
10
10.4549244770343
20
21.3060777478789
30
0
41
1
10
10.3787459731138
20
21.2515288076611
30
0
41
1
10
10.2245337544041
20
21.1373152812055
30
0
41
1
10
10.1545345289016
20
21.0803509409494
30
0
41
1
10
10.1056624327025
20
21.0401816871769
30
0
0
SPLINE
5
1C4
100
AcDbEntity
8
1
62
256
6
ByLayer
370
18
48
1
60
0
100
AcDbSpline
70
4
71
3
72
16
73
12
40
0
40
0
40
0
40
0
40
0.463423600832241
40
0.463423600832241
40
0.646243952932834
40
0.646243952932834
40
0.831657283224497
40
0.831657283224497
40
0.947504344290847
40
0.947504344290847
40
1
40
1
40
1
40
1
41
1
10
13.8943375672974
20
-29.9139548464691
30
0
41
1
10
13.8656609252734
20
-29.9485407466772
30
0
41
1
10
13.8263500123909
20
-29.982269090612
30
0
41
1
10
13.7453819366532
20
-30.0239686896252
30
0
41
1
10
13.7190869808859
20
-30.0352936109065
30
0
41
1
10
13.6579862203325
20
-30.0555697561518
30
0
41
1
10
13.6222599905467
20
-30.0647246060481
30
0
41
1
10
13.556648346355
20
-30.0751823136668
30
0
41
1
10
13.5289597975987
20
-30.0781795790239
30
0
41
1
10
13.4876776374751
20
-30.0802576981002
30
0
41
1
10
13.47447899686
20
-30.0805927603169
30
0
41
1
10
13.4613248654052
20
-30.0805927603169
30
0
0
SPLINE
5
1C5
100
AcDbEntity
8
1
62
256
6
ByLayer
370
18
48
1
60
0
100
AcDbSpline
70
4
71
2
72
9
73
6
40
0
40
0
40
0
40
0.419655468653539
40
0.629483202980309
40
0.944224804470463
40
1
40
1
40
1
41
1.02613459695995
10
37.3537762633776
20
-25.3838318149616
30
0
41
1.02613459695995
10
36.4222438606092
20
-25.1128166909984
30
0
41
1.02613459695995
10
34.9709914102051
20
-25.428113636994
30
0
41
1.02613459695995
10
33.7842648668125
20
-26.0168310006975
30
0
41
1.02613459695995
10
33.052725292464
20
-26.7366744852629
30
0
41
1.02613459695995
10
32.9441642180692
20
-26.8619118638755
30
0
0
SPLINE
5
1C6
100
AcDbEntity
8
1
62
256
6
ByLayer
370
18
48
1
60
0
100
AcDbSpline
70
4
71
3
72
8
73
4
40
0
40
0
40
0
40
0
40
1
40
1
40
1
40
1
41
1
10
23.8962856159808
20
-34.6245734699538
30
0
41
1
10
23.8978726326042
20
-34.6305845656791
30
0
41
1
10
23.8994596605127
20
-34.6365956585138
30
0
41
1
10
23.9010466996892
20
-34.6426067484621
30
0
0
SPLINE
5
1C7
100
AcDbEntity
8
1
62
256
6
ByLayer
370
18
48
1
60
0
100
AcDbSpline
70
4
71
2
72
6
73
3
40
0
40
0
40
0
40
1
40
1
40
1
41
0.890885594943819
10
28.3896849068856
20
-26.0780302562038
30
0
41
0.923377560304858
10
29.0706968966038
20
-25.6180396044966
30
0
41
1.02613459695995
10
29.7215551753256
20
-25.6915627827643
30
0
0
SPLINE
5
1C8
100
AcDbEntity
8
1
62
256
6
ByLayer
370
18
48
1
60
0
100
AcDbSpline
70
4
71
3
72
10
73
6
40
0
40
0
40
0
40
0
40
0.573565230694857
40
0.573565230694857
40
1
40
1
40
1
40
1
41
1
10
13.8943375672974
20
21.0401816871777
30
0
41
1
10
13.8463445787262
20
21.0796283794037
30
0
41
1
10
13.7780102352029
20
21.1353313584606
30
0
41
1
10
13.6250883068771
20
21.2487586970678
30
0
41
1
10
13.5471921982104
20
21.3044749970785
30
0
41
1
10
13.4613248654052
20
21.3694939161262
30
0
0
SPLINE
5
1C9
100
AcDbEntity
8
1
62
256
6
ByLayer
370
18
48
1
60
0
100
AcDbSpline
70
4
71
3
72
16
73
12
40
0
40
0
40
0
40
0
40
0.463423600832241
40
0.463423600832241
40
0.646243952932837
40
0.646243952932837
40
0.831657283224505
40
0.831657283224505
40
0.947504344290848
40
0.947504344290848
40
1
40
1
40
1
40
1
41
1
10
10.1056624327026
20
-9.86941261896621
30
0
41
1
10
10.1343390747265
20
-9.76458357826289
30
0
41
1
10
10.1736499876091
20
-9.66039292789938
30
0
41
1
10
10.2546180633468
20
-9.52957658281042
30
0
41
1
10
10.2809130191141
20
-9.49380155568073
30
0
41
1
10
10.3420137796675
20
-9.42941539787637
30
0
41
1
10
10.3777400094532
20
-9.40014891155712
30
0
41
1
10
10.4433516536449
20
-9.36662118733787
30
0
41
1
10
10.4710402024013
20
-9.35698328824239
30
0
41
1
10
10.5123223625249
20
-9.35029954873107
30
0
41
1
10
10.5255210031399
20
-9.34922131452504
30
0
41
1
10
10.5386751345948
20
-9.34922131452504
30
0
0
SPLINE
5
1CA
100
AcDbEntity
8
1
62
256
6
ByLayer
370
18
48
1
60
0
100
AcDbSpline
70
4
71
3
72
8
73
4
40
0
40
0
40
0
40
0
40
1
40
1
40
1
40
1
41
1
10
32.6969807129036
20
-21.6354483921993
30
0
41
1
10
33.88254284137
20
-21.2425383665292
30
0
41
1
10
35.2098982541385
20
-21.3054325143884
30
0
41
1
10
36.3027947157195
20
-21.8786899311825
30
0
0
SPLINE
5
1CB
100
AcDbEntity
8
1
62
256
6
ByLayer
370
18
48
1
60
0
100
AcDbSpline
70
4
71
3
72
8
73
4
40
0
40
0
40
0
40
0
40
1
40
1
40
1
40
1
41
1
10
25.1682445093256
20
-39.532918052639
30
0
41
1
10
24.8021278684882
20
-38.1276967598325
30
0
41
1
10
24.4373703204076
20
-36.7221039914879
30
0
41
1
10
24.0744962361218
20
-35.3160035225273
30
0
0
SPLINE
5
1CC
100
AcDbEntity
8
1
62
256
6
ByLayer
370
18
48
1
60
0
100
AcDbSpline
70
4
71
2
72
8
73
5
40
0
40
0
40
0
40
0.288825390126987
40
0.525883593417991
40
1
40
1
40
1
41
1.02613459695995
10
26.4873134120682
20
-41.1724004345443
30
0
41
1.02613459695995
10
26.4672358614664
20
-40.7930085877201
30
0
41
1.02613459695995
10
26.4962297506646
20
-40.3774000448865
30
0
41
1.02613459695995
10
26.5629598395736
20
-39.7331936415169
30
0
41
1.02613459695995
10
26.6597055175588
20
-39.3029230478899
30
0
0
SPLINE
5
1CD
100
AcDbEntity
8
1
62
256
6
ByLayer
370
18
48
1
60
0
100
AcDbSpline
70
4
71
3
72
12
73
8
40
0
40
0
40
0
40
0
40
0.5
40
0.5
40
0.75
40
0.75
40
1
40
1
40
1
40
1
41
1
10
26.6684291569026
20
-41.1818923090939
30
0
41
1
10
27.2367487636147
20
-41.2116766776209
30
0
41
1
10
27.8588521174641
20
-41.2442797328983
30
0
41
1
10
29.0909779897098
20
-41.3088527136949
30
0
41
1
10
29.5845999075605
20
-41.3347223422289
30
0
41
1
10
30.5081514009848
20
-41.383123625079
30
0
41
1
10
30.9152205715494
20
-41.4044572163345
30
0
41
1
10
31.2918750718851
20
-41.4241968422647
30
0
0
SPLINE
5
1CE
100
AcDbEntity
8
1
62
256
6
ByLayer
370
18
48
1
60
0
100
AcDbSpline
70
4
71
3
72
8
73
4
40
0
40
0
40
0
40
0
40
1
40
1
40
1
40
1
41
1
10
25.2891032735395
20
-38.1785872121519
30
0
41
1
10
25.1883106467239
20
-38.6270076832566
30
0
41
1
10
25.1645366101744
20
-39.0792763137723
30
0
41
1
10
25.1682445093256
20
-39.5329180526392
30
0
0
SPLINE
5
1CF
100
AcDbEntity
8
1
62
256
6
ByLayer
370
18
48
1
60
0
100
AcDbSpline
70
4
71
3
72
16
73
12
40
0
40
0
40
0
40
0
40
0.463423600832209
40
0.463423600832209
40
0.646243952932815
40
0.646243952932815
40
0.831657283224495
40
0.831657283224495
40
0.947504344290837
40
0.947504344290837
40
1
40
1
40
1
40
1
41
1
10
13.8943375672974
20
9.86941261896621
30
0
41
1
10
13.8656609252734
20
9.76458357826289
30
0
41
1
10
13.8263500123909
20
9.66039292789941
30
0
41
1
10
13.7453819366532
20
9.52957658281042
30
0
41
1
10
13.7190869808859
20
9.49380155568073
30
0
41
1
10
13.6579862203325
20
9.42941539787637
30
0
41
1
10
13.6222599905468
20
9.40014891155712
30
0
41
1
10
13.556648346355
20
9.36662118733784
30
0
41
1
10
13.5289597975987
20
9.35698328824239
30
0
41
1
10
13.4876776374751
20
9.35029954873104
30
0
41
1
10
13.4744789968601
20
9.34922131452501
30
0
41
1
10
13.4613248654052
20
9.34922131452501
30
0
0
SPLINE
5
1D0
100
AcDbEntity
8
1
62
256
6
ByLayer
370
18
48
1
60
0
100
AcDbSpline
70
4
71
3
72
12
73
8
40
0
40
0
40
0
40
0
40
0.270028157303655
40
0.270028157303655
40
0.540056271703127
40
0.540056271703127
40
1
40
1
40
1
40
1
41
1
10
32.1801313482732
20
-21.8258649151688
30
0
41
1
10
32.2032886025476
20
-21.8164439409538
30
0
41
1
10
32.2264894282263
20
-21.8071293721974
30
0
41
1
10
32.2729749068474
20
-21.7887132715965
30
0
41
1
10
32.2962600468812
20
-21.7796115466491
30
0
41
1
10
32.3593165635249
20
-21.7552946064741
30
0
41
1
10
32.3991673047508
20
-21.7402809595986
30
0
41
1
10
32.4391300249068
20
-21.7255753312239
30
0
0
SPLINE
5
1D1
100
AcDbEntity
8
1
62
256
6
ByLayer
370
18
48
1
60
0
100
AcDbSpline
70
4
71
1
72
4
73
2
40
0
40
0
40
1
40
1
41
1
10
29.8124020017313
20
-25.7018251511343
30
0
41
1
10
29.7215551753257
20
-25.6915627827644
30
0
0
SPLINE
5
1D2
100
AcDbEntity
8
1
62
256
6
ByLayer
370
18
48
1
60
0
100
AcDbSpline
70
4
71
3
72
14
73
10
40
0
40
0
40
0
40
0
40
0.264682281129105
40
0.264682281129105
40
0.529206797196864
40
0.529206797196864
40
0.796215005013495
40
0.796215005013495
40
1
40
1
40
1
40
1
41
1
10
22.92079238
20
-30.8996141556632
30
0
41
1
10
22.4918347090297
20
-30.8782470120691
30
0
41
1
10
22.0760939855286
20
-30.8416690423415
30
0
41
1
10
21.3399746287024
20
-30.7377355602684
30
0
41
1
10
21.0095242838746
20
-30.6687823920308
30
0
41
1
10
20.4724242383792
20
-30.4990243000185
30
0
41
1
10
20.2597267854547
20
-30.3955004707743
30
0
41
1
10
20.0093210835962
20
-30.1888506958789
30
0
41
1
10
19.9399854717531
20
-30.0897854016817
30
0
41
1
10
19.9115068236138
20
-29.9850116132027
30
0
0
SPLINE
5
1D3
100
AcDbEntity
8
1
62
256
6
ByLayer
370
18
48
1
60
0
100
AcDbSpline
70
4
71
3
72
12
73
8
40
0
40
0
40
0
40
0
40
0.274566594150407
40
0.274566594150407
40
0.549133149228107
40
0.549133149228107
40
1
40
1
40
1
40
1
41
1
10
32.4391300256901
20
-21.725575333255
30
0
41
1
10
32.462592169349
20
-21.716941647548
30
0
41
1
10
32.4860935590261
20
-21.7084138822625
30
0
41
1
10
32.5331715578857
20
-21.6915701117185
30
0
41
1
10
32.5567486416376
20
-21.683253934232
30
0
41
1
10
32.6191374267256
20
-21.6615610173477
30
0
41
1
10
32.6580126489892
20
-21.6483628929938
30
0
41
1
10
32.6969807039483
20
-21.6354483951672
30
0
0
SPLINE
5
1D4
100
AcDbEntity
8
1
62
256
6
ByLayer
370
18
48
1
60
0
100
AcDbSpline
70
4
71
1
72
4
73
2
40
0
40
0
40
1
40
1
41
1
10
29.903248828137
20
-25.7120875195043
30
0
41
1
10
29.8124020017313
20
-25.7018251511343
30
0
0
SPLINE
5
1D5
100
AcDbEntity
8
1
62
256
6
ByLayer
370
18
48
1
60
0
100
AcDbSpline
70
4
71
2
72
6
73
3
40
0
40
0
40
0
40
1
40
1
40
1
41
1
10
26.7505523439645
20
-39.3131854162599
30
0
41
1
10
26.7051289307616
20
-39.3080542320749
30
0
41
1
10
26.6597055175588
20
-39.3029230478899
30
0
0
SPLINE
5
1D6
100
AcDbEntity
8
1
62
256
6
ByLayer
370
18
48
1
60
0
100
AcDbSpline
70
4
71
3
72
16
73
12
40
0
40
0
40
0
40
0
40
0.113316224833596
40
0.113316224833596
40
0.252990411571581
40
0.252990411571581
40
0.473309013928343
40
0.473309013928343
40
0.896716357718895
40
0.896716357718895
40
1
40
1
40
1
40
1
41
1
10
13.4613248654052
20
30.0805927603169
30
0
41
1
10
13.4894125595718
20
30.0805927603169
30
0
41
1
10
13.517849357763
20
30.0790101689567
30
0
41
1
10
13.5767970345725
20
30.0726712338969
30
0
41
1
10
13.6072473721288
20
30.0672275748685
30
0
41
1
10
13.6769143636602
20
30.0506647867052
30
0
41
1
10
13.7128266507651
20
30.0378702684275
30
0
41
1
10
13.8014637450836
20
29.9980833386355
30
0
41
1
10
13.8423708397531
20
29.967975934908
30
0
41
1
10
13.8809034737598
20
29.9294196064672
30
0
41
1
10
13.8878971837969
20
29.9217223689309
30
0
41
1
10
13.8943375672975
20
29.9139548464691
30
0
0
SPLINE
5
1D7
100
AcDbEntity
8
1
62
256
6
ByLayer
370
18
48
1
60
0
100
AcDbSpline
70
4
71
3
72
8
73
4
40
0
40
0
40
0
40
0
40
1
40
1
40
1
40
1
41
1
10
25.5731608926984
20
-41.1244917316167
30
0
41
1
10
25.8307783175666
20
-41.137992888766
30
0
41
1
10
26.1426602915809
20
-41.1543379304313
30
0
41
1
10
26.4873134120982
20
-41.1724004351104
30
0
0
SPLINE
5
1D8
100
AcDbEntity
8
1
62
256
6
ByLayer
370
18
48
1
60
0
100
AcDbSpline
70
4
71
3
72
10
73
6
40
0
40
0
40
0
40
0
40
0.406434782913203
40
0.406434782913203
40
1
40
1
40
1
40
1
41
1
10
13.4613248654052
20
19.4372396071259
30
0
41
1
10
13.5445600082496
20
19.5002654265816
30
0
41
1
10
13.6195895752656
20
19.5840144784503
30
0
41
1
10
13.7747384129069
20
19.8110073784322
30
0
41
1
10
13.8452864320335
20
19.9677891804822
30
0
41
1
10
13.8943375672975
20
20.1324515831234
30
0
0
SPLINE
5
1D9
100
AcDbEntity
8
1
62
256
6
ByLayer
370
18
48
1
60
0
100
AcDbSpline
70
4
71
2
72
10
73
7
40
0
40
0
40
0
40
0.198148723876579
40
0.427249088483271
40
0.656349453089962
40
0.770899635393308
40
1
40
1
40
1
41
1.02613459695995
10
32.1801313483211
20
-21.8258649151359
30
0
41
1.02613459695995
10
31.7916945062988
20
-22.0925852208564
30
0
41
1.02613459695995
10
31.0191061120544
20
-22.8528212235949
30
0
41
1.02613459695995
10
30.2347093730258
20
-24.1458413186517
30
0
41
1.02613459695995
10
30.0318251005978
20
-24.660017600073
30
0
41
1.02613459695995
10
29.8183813109174
20
-25.2613157199854
30
0
41
1.02613459695995
10
29.7215551753256
20
-25.6915627827643
30
0
0
SPLINE
5
1DA
100
AcDbEntity
8
1
62
256
6
ByLayer
370
18
48
1
60
0
100
AcDbSpline
70
4
71
3
72
10
73
6
40
0
40
0
40
0
40
0
40
0.5
40
0.5
40
1
40
1
40
1
40
1
41
1
10
28.3895115170062
20
-26.0781473815953
30
0
41
1
10
28.6650530001118
20
-25.1364916545414
30
0
41
1
10
29.1958735336823
20
-24.3012113061129
30
0
41
1
10
30.4611459103583
20
-22.8132230195724
30
0
41
1
10
31.2608872785494
20
-22.1998373462302
30
0
41
1
10
32.1801313483211
20
-21.8258649151359
30
0
0
SPLINE
5
1DB
100
AcDbEntity
8
1
62
256
6
ByLayer
370
18
48
1
60
0
100
AcDbSpline
70
4
71
3
72
16
73
12
40
0
40
0
40
0
40
0
40
0.463423600832262
40
0.463423600832262
40
0.646243952932856
40
0.646243952932856
40
0.831657283224518
40
0.831657283224518
40
0.94750434429086
40
0.94750434429086
40
1
40
1
40
1
40
1
41
1
10
10.1056624327026
20
29.9139548464691
30
0
41
1
10
10.1343390747265
20
29.9485407466772
30
0
41
1
10
10.1736499876091
20
29.982269090612
30
0
41
1
10
10.2546180633468
20
30.0239686896252
30
0
41
1
10
10.2809130191141
20
30.0352936109065
30
0
41
1
10
10.3420137796675
20
30.0555697561518
30
0
41
1
10
10.3777400094532
20
30.0647246060481
30
0
41
1
10
10.443351653645
20
30.0751823136668
30
0
41
1
10
10.4710402024013
20
30.0781795790239
30
0
41
1
10
10.5123223625249
20
30.0802576981002
30
0
41
1
10
10.5255210031399
20
30.0805927603169
30
0
41
1
10
10.5386751345948
20
30.0805927603169
30
0
0
SPLINE
5
1DC
100
AcDbEntity
8
1
62
256
6
ByLayer
370
18
48
1
60
0
100
AcDbSpline
70
4
71
3
72
16
73
12
40
0
40
0
40
0
40
0
40
0.113316224833592
40
0.113316224833592
40
0.252990411571568
40
0.252990411571568
40
0.473309013928318
40
0.473309013928318
40
0.896716357718825
40
0.896716357718825
40
1
40
1
40
1
40
1
41
1
10
13.4613248654052
20
-9.3492213145251
30
0
41
1
10
13.4894125595718
20
-9.3492213145251
30
0
41
1
10
13.517849357763
20
-9.35431657338981
30
0
41
1
10
13.5767970345725
20
-9.37467777536565
30
0
41
1
10
13.6072473721288
20
-9.39213979793414
30
0
41
1
10
13.6769143636602
20
-9.44503542604383
30
0
41
1
10
13.7128266507651
20
-9.4856938043188
30
0
41
1
10
13.8014637450836
20
-9.61105923366807
30
0
41
1
10
13.842370839753
20
-9.70465429390066
30
0
41
1
10
13.8809034737598
20
-9.82244573862474
30
0
41
1
10
13.8878971837969
20
-9.84586944318031
30
0
41
1
10
13.8943375672975
20
-9.86941261896621
30
0
0
SPLINE
5
1DD
100
AcDbEntity
8
1
62
256
6
ByLayer
370
18
48
1
60
0
100
AcDbSpline
70
4
71
3
72
44
73
40
40
0
40
0
40
0
40
0
40
0.0051940140275976
40
0.0051940140275976
40
0.0199008583327754
40
0.0199008583327754
40
0.129752160446907
40
0.129752160446907
40
0.239839535697096
40
0.239839535697096
40
0.428838196581597
40
0.428838196581597
40
0.549630926007083
40
0.549630926007083
40
0.669782963234548
40
0.669782963234548
40
0.866798502150794
40
0.866798502150794
40
0.966549507094918
40
0.966549507094918
40
0.991441205323987
40
0.991441205323987
40
0.997663557800698
40
0.997663557800698
40
0.999220062231873
40
0.999220062231873
40
0.999613367535181
40
0.999613367535181
40
0.999703345424451
40
0.999703345424451
40
0.999741176113217
40
0.999741176113217
40
0.999773455123402
40
0.999773455123402
40
0.999805393903534
40
0.999805393903534
40
0.999853555604491
40
0.999853555604491
40
1
40
1
40
1
40
1
41
1
10
30.1758272900033
20
-39.1684701455902
30
0
41
1
10
30.1732876570254
20
-39.1691186283491
30
0
41
1
10
30.1707420569477
20
-39.1697816241538
30
0
41
1
10
30.1608286231888
20
-39.1722290765429
30
0
41
1
10
30.153391121236
20
-39.1739099018882
30
0
41
1
10
30.0904038145581
20
-39.1868027371037
30
0
41
1
10
30.02970854981
20
-39.1902163729836
30
0
41
1
10
29.9054272717378
20
-39.1771590384693
30
0
41
1
10
29.8404028478204
20
-39.1603486045961
30
0
41
1
10
29.670707599219
20
-39.0937631062665
30
0
41
1
10
29.5637408690931
20
-39.0366100616035
30
0
41
1
10
29.3929144363789
20
-38.9520661439154
30
0
41
1
10
29.3250328067336
20
-38.9196469539925
30
0
41
1
10
29.2197926206974
20
-38.8261767573592
30
0
41
1
10
29.1926985695894
20
-38.7574500064398
30
0
41
1
10
29.1037493095035
20
-38.6024020665673
30
0
41
1
10
29.050840393005
20
-38.5101578364973
30
0
41
1
10
28.9958962378433
20
-38.3629593332892
30
0
41
1
10
28.9802399441904
20
-38.3127591375633
30
0
41
1
10
28.963811612947
20
-38.2497129912201
30
0
41
1
10
28.9606857258005
20
-38.2370920785405
30
0
41
1
10
28.9569606660954
20
-38.2213017120241
30
0
41
1
10
28.9562293475021
20
-38.2181390468879
30
0
41
1
10
28.9553064087527
20
-38.2142015774005
30
0
41
1
10
28.95512899875
20
-38.2134071786721
30
0
41
1
10
28.954866580704
20
-38.2124496406823
30
0
41
1
10
28.9548160199772
20
-38.2122509667216
30
0
41
1
10
28.954716232667
20
-38.2120522827302
30
0
41
1
10
28.9546952717446
20
-38.2120167488951
30
0
41
1
10
28.9546568225811
20
-38.211983516112
30
0
41
1
10
28.9546439704377
20
-38.2119759443513
30
0
41
1
10
28.9546180601096
20
-38.2119705789981
30
0
41
1
10
28.9546049947104
20
-38.2119716486044
30
0
41
1
10
28.9545791933795
20
-38.2119811594665
30
0
41
1
10
28.9545661673986
20
-38.2119895165578
30
0
41
1
10
28.9545352274285
20
-38.2120155186465
30
0
41
1
10
28.954517619656
20
-38.2120358215651
30
0
41
1
10
28.9544513505187
20
-38.2121230603413
30
0
41
1
10
28.954408834295
20
-38.2122016759419
30
0
41
1
10
28.9543682778583
20
-38.2122800258001
30
0
0
SPLINE
5
1DE
100
AcDbEntity
8
SK1
62
256
6
ByLayer
370
18
48
1
60
0
100
AcDbSpline
70
4
71
3
72
10
73
6
40
0
40
0
40
0
40
0
40
0.5
40
0.5
40
1
40
1
40
1
40
1
41
1
10
-1.30710678118655
20
-4.81101329740289
30
0
41
1
10
-1.57713284158248
20
-3.28321078789992
30
0
41
1
10
-1.79449339715788
20
-1.64680798700616
30
0
41
1
10
-1.79438545511854
20
1.6481258022005
30
0
41
1
10
-1.57704898370505
20
3.28368386467716
30
0
41
1
10
-1.30710678118663
20
4.81101321788435
30
0
0
SPLINE
5
1DF
100
AcDbEntity
8
SK1
62
256
6
ByLayer
370
18
48
1
60
0
100
AcDbSpline
70
4
71
3
72
22
73
18
40
0
40
0
40
0
40
0
40
0.025518692999354
40
0.025518692999354
40
0.0515625307794633
40
0.0515625307794633
40
0.0689220502117165
40
0.0689220502117165
40
0.0862030429090035
40
0.0862030429090035
40
0.113761926258803
40
0.113761926258803
40
0.167639902693809
40
0.167639902693809
40
0.357269752158031
40
0.357269752158031
40
1
40
1
40
1
40
1
41
1
10
-0.394976888875277
20
-6.326943090669
30
0
41
1
10
-0.389699799773268
20
-6.32229605774103
30
0
41
1
10
-0.38394554029108
20
-6.31808234313019
30
0
41
1
10
-0.371336208800898
20
-6.31155719556298
30
0
41
1
10
-0.364237316839024
20
-6.30923328231674
30
0
41
1
10
-0.35209572007625
20
-6.30844589498398
30
0
41
1
10
-0.347038791108759
20
-6.3089739150856
30
0
41
1
10
-0.337436838154161
20
-6.31166640764118
30
0
41
1
10
-0.332782752688161
20
-6.31383711710231
30
0
41
1
10
-0.321723955926899
20
-6.32078578121266
30
0
41
1
10
-0.315689795621665
20
-6.32640446307903
30
0
41
1
10
-0.300083216036057
20
-6.3442802085479
30
0
41
1
10
-0.292057158925616
20
-6.35806878925098
30
0
41
1
10
-0.261294067338724
20
-6.42092251611513
30
0
41
1
10
-0.248999237994838
20
-6.47445017323312
30
0
41
1
10
-0.204624309665832
20
-6.70435570668306
30
0
41
1
10
-0.200000000000955
20
-6.88379158154922
30
0
41
1
10
-0.200000000000955
20
-7.05951756777665
30
0
0
SPLINE
5
1E0
100
AcDbEntity
8
SK1
62
256
6
ByLayer
370
18
48
1
60
0
100
AcDbSpline
70
4
71
3
72
22
73
18
40
0
40
0
40
0
40
0
40
0.366862607601256
40
0.366862607601256
40
0.737339621375052
40
0.737339621375052
40
0.838459586400285
40
0.838459586400285
40
0.872990642836393
40
0.872990642836393
40
0.908114554314301
40
0.908114554314301
40
0.93841147631739
40
0.93841147631739
40
0.978567405872927
40
0.978567405872927
40
1
40
1
40
1
40
1
41
1
10
-1.30710678118655
20
-4.81101329740289
30
0
41
1
10
-1.26411319574365
20
-5.05427021725674
30
0
41
1
10
-1.21291926611929
20
-5.29463858107241
30
0
41
1
10
-1.07751639291712
20
-5.76447191425098
30
0
41
1
10
-0.99999394263088
20
-6.0024064332149
30
0
41
1
10
-0.818580317119483
20
-6.26150782359156
30
0
41
1
10
-0.772786229091963
20
-6.31609141287933
30
0
41
1
10
-0.693958175551444
20
-6.37002132562083
30
0
41
1
10
-0.67174289599555
20
-6.38213989760789
30
0
41
1
10
-0.624176343099663
20
-6.39933264200099
30
0
41
1
10
-0.598041368844491
20
-6.40433410743103
30
0
41
1
10
-0.550095873812666
20
-6.4042038836908
30
0
41
1
10
-0.52764508925199
20
-6.40038614973912
30
0
41
1
10
-0.479150674129698
20
-6.38487542657816
30
0
41
1
10
-0.453444961156862
20
-6.37100758594852
30
0
41
1
10
-0.417985764291785
20
-6.34622757774423
30
0
41
1
10
-0.406197231050186
20
-6.33682378409867
30
0
41
1
10
-0.394976888874737
20
-6.32694309068151
30
0
0
SPLINE
5
1E1
100
AcDbEntity
8
SK1
62
256
6
ByLayer
370
18
48
1
60
0
100
AcDbSpline
70
4
71
3
72
22
73
18
40
0
40
0
40
0
40
0
40
0.038427246458711
40
0.038427246458711
40
0.0775026456766427
40
0.0775026456766427
40
0.106475059033524
40
0.106475059033524
40
0.135305917881828
40
0.135305917881828
40
0.182167074412018
40
0.182167074412018
40
0.275660663800869
40
0.275660663800869
40
0.616530102228659
40
0.616530102228659
40
1
40
1
40
1
40
1
41
1
10
-0.394976888875306
20
6.32694279392757
30
0
41
1
10
-0.414867561016194
20
6.34445862132063
30
0
41
1
10
-0.436644357284194
20
6.36058691921457
30
0
41
1
10
-0.484524151203374
20
6.3868168818706
30
0
41
1
10
-0.511419954277358
20
6.39702622866628
30
0
41
1
10
-0.560078773491597
20
6.40490957850619
30
0
41
1
10
-0.58185248496946
20
6.40512642059926
30
0
41
1
10
-0.623683911276828
20
6.39912423041605
30
0
41
1
10
-0.644207278837683
20
6.39293597600829
30
0
41
1
10
-0.694134540330907
20
6.37121870092642
30
0
41
1
10
-0.722113964046542
20
6.35215911803172
30
0
41
1
10
-0.796598131612939
20
6.28903777408343
30
0
41
1
10
-0.836555557792792
20
6.23798237717094
30
0
41
1
10
-0.997773060879837
20
5.995390913813
30
0
41
1
10
-1.07178904300878
20
5.77805690787602
30
0
41
1
10
-1.20827315239353
20
5.31693201445015
30
0
41
1
10
-1.26212533694985
20
5.06551762472202
30
0
41
1
10
-1.30710678118655
20
4.81101321788441
30
0
0
SPLINE
5
1E2
100
AcDbEntity
8
SK1
62
256
6
ByLayer
370
18
48
1
60
0
100
AcDbSpline
70
4
71
3
72
26
73
22
40
0
40
0
40
0
40
0
40
0.462420532187944
40
0.462420532187944
40
0.662465761698283
40
0.662465761698283
40
0.830433309169693
40
0.830433309169693
40
0.87601894963741
40
0.87601894963741
40
0.905535493032455
40
0.905535493032455
40
0.92577818311669
40
0.92577818311669
40
0.946307111163799
40
0.946307111163799
40
0.963675313617857
40
0.963675313617857
40
0.991859972782862
40
0.991859972782862
40
1
40
1
40
1
40
1
41
1
10
-0.199999999999989
20
7.05951749342083
30
0
41
1
10
-0.199999999999989
20
6.93273416480454
30
0
41
1
10
-0.203968014086513
20
6.80463429773329
30
0
41
1
10
-0.223222206303944
20
6.62063667774228
30
0
41
1
10
-0.230822389897867
20
6.56482953243432
30
0
41
1
10
-0.252035566714568
20
6.46316921019911
30
0
41
1
10
-0.263798801619998
20
6.41617607028249
30
0
41
1
10
-0.290531391619595
20
6.36108887379029
30
0
41
1
10
-0.29710300077241
20
6.34947181616241
30
0
41
1
10
-0.310313928765424
20
6.33213067856883
30
0
41
1
10
-0.316208846631128
20
6.32567949173321
30
0
41
1
10
-0.327595492701022
20
6.31681373578161
30
0
41
1
10
-0.332739264568545
20
6.31372817209197
30
0
41
1
10
-0.343644708736434
20
6.30958040401461
30
0
41
1
10
-0.349575964479982
20
6.30853210514005
30
0
41
1
10
-0.360183897281416
20
6.30881607347521
30
0
41
1
10
-0.365032052617437
20
6.30978620719449
30
0
41
1
10
-0.376922909163994
20
6.31387292952667
30
0
41
1
10
-0.383695246431131
20
6.3179475897727
30
0
41
1
10
-0.39156461480826
20
6.32402624429125
30
0
41
1
10
-0.393293161608796
20
6.32546009510432
30
0
41
1
10
-0.394976888875277
20
6.32694279392757
30
0
0
SPLINE
5
1E3
100
AcDbEntity
8
1
62
256
6
ByLayer
370
18
48
1
60
0
100
AcDbSpline
70
4
71
3
72
8
73
4
40
0
40
0
40
0
40
0
40
1
40
1
40
1
40
1
41
1
10
41.3202390218428
20
-42.492671667168
30
0
41
1
10
41.5477069386529
20
-42.1979473355613
30
0
41
1
10
41.8552535929711
20
-41.4392330834216
30
0
41
1
10
42.1630092999709
20
-40.4135665547643
30
0
0
SPLINE
5
1E4
100
AcDbEntity
8
1
62
256
6
ByLayer
370
18
48
1
60
0
100
AcDbSpline
70
4
71
3
72
11
73
7
40
0
40
0
40
0
40
0
40
0.379837525225133
40
0.5697562878377
40
0.759675050450267
40
1
40
1
40
1
40
1
41
1.02830968163241
10
41.3202390218428
20
-42.492671667168
30
0
41
1.02565532568264
10
43.8806575381539
20
-42.3606332751895
30
0
41
1.02058995167321
10
47.1744784367273
20
-41.8856129139861
30
0
41
1.0133636309892
10
52.5691241371778
20
-40.3419363552536
30
0
41
1.01212905948733
10
54.5122902551492
20
-40.5734006791251
30
0
41
1.0095816818588
10
56.3230736478619
20
-40.2441801066884
30
0
41
1.00899450091457
10
57.0994830167628
20
-40.1659320835872
30
0
0
SPLINE
5
1E5
100
AcDbEntity
8
1
62
256
6
ByLayer
370
18
48
1
60
0
100
AcDbSpline
70
4
71
3
72
8
73
4
40
0
40
0
40
0
40
0
40
1
40
1
40
1
40
1
41
1
10
57.5286707666983
20
-38.2579909323473
30
0
41
1
10
57.4822636158094
20
-38.0898964661152
30
0
41
1
10
57.4166372585281
20
-37.9213741928513
30
0
41
1
10
57.3334069369093
20
-37.763941650389
30
0
0
SPLINE
5
1E6
100
AcDbEntity
8
1
62
256
6
ByLayer
370
18
48
1
60
0
100
AcDbSpline
70
4
71
3
72
8
73
4
40
0
40
0
40
0
40
0
40
1
40
1
40
1
40
1
41
1
10
56.7148552440496
20
-40.5136945367727
30
0
41
1
10
56.8570532528605
20
-40.4089880051181
30
0
41
1
10
56.9873440451291
20
-40.2900464838347
30
0
41
1
10
57.0994830261434
20
-40.1659320826418
30
0
0
SPLINE
5
1E7
100
AcDbEntity
8
1
62
256
6
ByLayer
370
18
48
1
60
0
100
AcDbSpline
70
4
71
3
72
10
73
6
40
0
40
0
40
0
40
0
40
0.560712447053339
40
0.560712447053339
40
1
40
1
40
1
40
1
41
1
10
36.009840334664
20
-37.8688972897272
30
0
41
1
10
36.1581202429079
20
-37.9576092867589
30
0
41
1
10
36.3050112759128
20
-38.0609059005244
30
0
41
1
10
36.5422522184715
20
-38.2634992446336
30
0
41
1
10
36.639836905349
20
-38.3605673118576
30
0
41
1
10
36.7242164692359
20
-38.4597483327271
30
0
0
SPLINE
5
1E8
100
AcDbEntity
8
1
62
256
6
ByLayer
370
18
48
1
60
0
100
AcDbSpline
70
4
71
3
72
8
73
4
40
0
40
0
40
0
40
0
40
1
40
1
40
1
40
1
41
1
10
42.816334530036
20
-32.251911043118
30
0
41
1
10
43.1995052523672
20
-32.3335849369117
30
0
41
1
10
43.562975083865
20
-32.4697388228583
30
0
41
1
10
43.9083630956899
20
-32.6546489117621
30
0
0
SPLINE
5
1E9
100
AcDbEntity
8
1
62
256
6
ByLayer
370
18
48
1
60
0
100
AcDbSpline
70
4
71
3
72
8
73
4
40
0
40
0
40
0
40
0
40
1
40
1
40
1
40
1
41
1
10
43.9083631003509
20
-32.6546488990265
30
0
41
1
10
44.0897470172908
20
-31.5058599886986
30
0
41
1
10
44.1727540296942
20
-30.5283797002953
30
0
41
1
10
44.1358272653957
20
-29.9760590882206
30
0
0
SPLINE
5
1EA
100
AcDbEntity
8
1
62
256
6
ByLayer
370
18
48
1
60
0
100
AcDbSpline
70
4
71
3
72
18
73
14
40
0
40
0
40
0
40
0
40
0.150186459400634
40
0.150186459400634
40
0.339592137529991
40
0.339592137529991
40
0.523539642595957
40
0.523539642595957
40
0.716564624108244
40
0.716564624108244
40
0.935518218901384
40
0.935518218901384
40
1
40
1
40
1
40
1
41
1
10
51.5510226251554
20
-33.1610130801577
30
0
41
1
10
51.5500154926688
20
-33.1682316408324
30
0
41
1
10
51.5514798657302
20
-33.1770964202812
30
0
41
1
10
51.5605716461007
20
-33.2000245982754
30
0
41
1
10
51.569895410549
20
-33.215192278665
30
0
41
1
10
51.5950621263627
20
-33.2472098394203
30
0
41
1
10
51.6110066173011
20
-33.2643931510912
30
0
41
1
10
51.6479679173355
20
-33.2997133976363
30
0
41
1
10
51.6696119146833
20
-33.3182737855297
30
0
41
1
10
51.7180279129942
20
-33.3563758213984
30
0
41
1
10
51.7456511719565
20
-33.3761695509399
30
0
41
1
10
51.7815653104482
20
-33.3999191127803
30
0
41
1
10
51.789806655062
20
-33.4052374571186
30
0
41
1
10
51.7980529574475
20
-33.4104336080936
30
0
0
SPLINE
5
1EB
100
AcDbEntity
8
1
62
256
6
ByLayer
370
18
48
1
60
0
100
AcDbSpline
70
4
71
3
72
8
73
4
40
0
40
0
40
0
40
0
40
1
40
1
40
1
40
1
41
1
10
40.8254041379317
20
-31.827538751816
30
0
41
1
10
39.9356662468364
20
-31.6378886721348
30
0
41
1
10
38.9970670708935
20
-31.787323319369
30
0
41
1
10
38.211557051069
20
-32.2198927880477
30
0
0
SPLINE
5
1EC
100
AcDbEntity
8
1
62
256
6
ByLayer
370
18
48
1
60
0
100
AcDbSpline
70
4
71
3
72
16
73
12
40
0
40
0
40
0
40
0
40
0.125
40
0.125
40
0.25
40
0.25
40
0.5
40
0.5
40
0.75
40
0.75
40
1
40
1
40
1
40
1
41
1
10
44.5643380845863
20
-29.1289724677194
30
0
41
1
10
44.8170759593411
20
-29.4961500279361
30
0
41
1
10
45.1463529224328
20
-29.8933590169378
30
0
41
1
10
46.0077402618792
20
-30.7368429815144
30
0
41
1
10
46.5202304190658
20
-31.1645862219086
30
0
41
1
10
48.1516154051459
20
-32.3904208495827
30
0
41
1
10
49.322307529592
20
-33.1097114885425
30
0
41
1
10
51.5607845695372
20
-34.3676926240367
30
0
41
1
10
52.6688745330625
20
-34.9578211640878
30
0
41
1
10
54.8837687945456
20
-36.1335966262209
30
0
41
1
10
55.9355594611541
20
-36.6134497976523
30
0
41
1
10
56.942944315398
20
-37.0296006439511
30
0
0
SPLINE
5
1ED
100
AcDbEntity
8
1
62
256
6
ByLayer
370
18
48
1
60
0
100
AcDbSpline
70
4
71
3
72
10
73
6
40
0
40
0
40
0
40
0
40
0.560712447053346
40
0.560712447053346
40
1
40
1
40
1
40
1
41
1
10
37.2170353807272
20
-32.5023481384455
30
0
41
1
10
37.3877506917898
20
-32.4913242292143
30
0
41
1
10
37.5641672414181
20
-32.4633660497352
30
0
41
1
10
37.865941286584
20
-32.3790794334308
30
0
41
1
10
37.9965415197594
20
-32.3293778858009
30
0
41
1
10
38.1166804461224
20
-32.2695917397889
30
0
0
SPLINE
5
1EE
100
AcDbEntity
8
1
62
256
6
ByLayer
370
18
48
1
60
0
100
AcDbSpline
70
4
71
3
72
8
73
4
40
0
40
0
40
0
40
0
40
1
40
1
40
1
40
1
41
1
10
36.009840334664
20
-37.8688972897272
30
0
41
1
10
35.6796925961277
20
-37.6713785189919
30
0
41
1
10
35.3284310884968
20
-37.5351820986361
30
0
41
1
10
34.9884219479238
20
-37.4446144321133
30
0
0
SPLINE
5
1EF
100
AcDbEntity
8
1
62
256
6
ByLayer
370
18
48
1
60
0
100
AcDbSpline
70
4
71
1
72
4
73
2
40
0
40
0
40
1
40
1
41
1
10
44.1358272653957
20
-29.9760590882206
30
0
41
1
10
44.0728434836378
20
-29.0339987276098
30
0
0
SPLINE
5
1F0
100
AcDbEntity
8
1
62
256
6
ByLayer
370
18
48
1
60
0
100
AcDbSpline
70
4
71
3
72
13
73
9
40
0
40
0
40
0
40
0
40
0.250649945521667
40
0.250649945521667
40
0.250649945521667
40
0.65305793586251
40
0.65305793586251
40
1
40
1
40
1
40
1
41
1
10
46.0649696248296
20
-35.4792583942951
30
0
41
1
10
46.1207632411271
20
-35.7630223596339
30
0
41
1
10
46.1465631503914
20
-36.0551110086137
30
0
41
1
10
46.1417509227531
20
-36.3459139135116
30
0
41
1
10
46.1340919060633
20
-36.8087482741083
30
0
41
1
10
46.0474742163322
20
-37.2788409400905
30
0
41
1
10
45.7522593041693
20
-38.0967550669017
30
0
41
1
10
45.5589484495174
20
-38.4611235228651
30
0
41
1
10
45.3208211508972
20
-38.787347981171
30
0
0
SPLINE
5
1F1
100
AcDbEntity
8
1
62
256
6
ByLayer
370
18
48
1
60
0
100
AcDbSpline
70
4
71
2
72
6
73
3
40
0
40
0
40
0
40
1
40
1
40
1
41
1.02830968163241
10
41.3202390218428
20
-42.492671667168
30
0
41
1.02830968163241
10
41.1262497853999
20
-42.7440185333605
30
0
41
1.02830968163241
10
40.9322605489569
20
-42.9953653995529
30
0
0
SPLINE
5
1F2
100
AcDbEntity
8
1
62
256
6
ByLayer
370
18
48
1
60
0
100
AcDbSpline
70
4
71
3
72
8
73
4
40
0
40
0
40
0
40
0
40
1
40
1
40
1
40
1
41
1
10
56.9429443153981
20
-37.0296006439511
30
0
41
1
10
57.0732052520731
20
-37.2733652751233
30
0
41
1
10
57.2036622325979
20
-37.5185258178719
30
0
41
1
10
57.3334069369093
20
-37.763941650389
30
0
0
SPLINE
5
1F3
100
AcDbEntity
8
1
62
256
6
ByLayer
370
18
48
1
60
0
100
AcDbSpline
70
4
71
3
72
11
73
7
40
0
40
0
40
0
40
0
40
0.267973217480477
40
0.487581252236334
40
0.707189286992191
40
1
40
1
40
1
40
1
41
1.02490899992583
10
46.0649695708048
20
-35.4792583818658
30
0
41
1.02299818101095
10
47.3610699721372
20
-35.7774462751049
30
0
41
1.01918124210004
10
49.61448861781
20
-36.317041284467
30
0
41
1.0133636309892
10
53.2686171034344
20
-37.3820508271603
30
0
41
1.01210337903089
10
55.2230546060218
20
-37.8169783898901
30
0
41
1.00942740489664
10
56.8750562993979
20
-38.3098638708159
30
0
41
1.00890738029382
10
57.5937753577355
20
-38.558151107377
30
0
0
SPLINE
5
1F4
100
AcDbEntity
8
1
62
256
6
ByLayer
370
18
48
1
60
0
100
AcDbSpline
70
4
71
3
72
8
73
4
40
0
40
0
40
0
40
0
40
1
40
1
40
1
40
1
41
1
10
36.7898310561338
20
-38.5401327992669
30
0
41
1
10
36.7685805042302
20
-38.5129827600801
30
0
41
1
10
36.7466979725362
20
-38.4861734331341
30
0
41
1
10
36.724216469236
20
-38.4597483327272
30
0
0
SPLINE
5
1F5
100
AcDbEntity
8
1
62
256
6
ByLayer
370
18
48
1
60
0
100
AcDbSpline
70
4
71
3
72
11
73
7
40
0
40
0
40
0
40
0
40
0.267973217054011
40
0.487581251937808
40
0.707189286821605
40
1
40
1
40
1
40
1
41
1.02490899991337
10
45.3208211048171
20
-38.7873479728684
30
0
41
1.02299818100183
10
46.6309001855943
20
-39.0233940541127
30
0
41
1.01918124209525
10
48.9241516417523
20
-39.3859134954284
30
0
41
1.0133636309892
10
52.7521901428866
20
-39.6778112975694
30
0
41
1.01210337903089
10
54.7534256058112
20
-39.9046999397103
30
0
41
1.00942740489664
10
56.5056023568011
20
-39.9522602246926
30
0
41
1.00890738029382
10
57.2875903919588
20
-39.9192871338895
30
0
0
SPLINE
5
1F6
100
AcDbEntity
8
1
62
256
6
ByLayer
370
18
48
1
60
0
100
AcDbSpline
70
4
71
3
72
16
73
12
40
0
40
0
40
0
40
0
40
0.25
40
0.25
40
0.500000000000001
40
0.500000000000001
40
0.750000000000001
40
0.750000000000001
40
0.875
40
0.875
40
1
40
1
40
1
40
1
41
1
10
56.0510220199918
20
-40.9946142952574
30
0
41
1
10
54.9331134606918
20
-41.0635653660513
30
0
41
1
10
53.7615188983642
20
-41.1549384789743
30
0
41
1
10
51.2106559848422
20
-41.4244199836728
30
0
41
1
10
49.9338126626081
20
-41.5600321814337
30
0
41
1
10
47.3295664876555
20
-41.864586967211
30
0
41
1
10
45.9426355959084
20
-42.0533443254158
30
0
41
1
10
43.9837997629365
20
-42.4078995727705
30
0
41
1
10
43.34357569158
20
-42.540461966394
30
0
41
1
10
42.2471003246412
20
-42.813779678496
30
0
41
1
10
41.7893347107825
20
-42.9553032645315
30
0
41
1
10
41.4237551499085
20
-43.0903391396627
30
0
0
SPLINE
5
1F7
100
AcDbEntity
8
1
62
256
6
ByLayer
370
18
48
1
60
0
100
AcDbSpline
70
4
71
3
72
8
73
4
40
0
40
0
40
0
40
0
40
1
40
1
40
1
40
1
41
1
10
37.2170353807273
20
-32.5023481384455
30
0
41
1
10
36.8369348360997
20
-32.5268930599092
30
0
41
1
10
36.4656895328102
20
-32.4795340001609
30
0
41
1
10
36.1256803922373
20
-32.3889663336381
30
0
0
SPLINE
5
1F8
100
AcDbEntity
8
1
62
256
6
ByLayer
370
18
48
1
60
0
100
AcDbSpline
70
4
71
3
72
18
73
14
40
0
40
0
40
0
40
0
40
0.036793139662014
40
0.036793139662014
40
0.291979817817006
40
0.291979817817006
40
0.505668143229409
40
0.505668143229409
40
0.721016338466075
40
0.721016338466075
40
0.911566759950598
40
0.911566759950598
40
1
40
1
40
1
40
1
41
1
10
49.862235724131
20
-42.0160507073105
30
0
41
1
10
49.856681522434
20
-42.0168311037563
30
0
41
1
10
49.851116965121
20
-42.0176294089145
30
0
41
1
10
49.8072767569856
20
-42.0240512965356
30
0
41
1
10
49.7682017407136
20
-42.0305876039573
30
0
41
1
10
49.7008179276844
20
-42.0436315857688
30
0
41
1
10
49.6710597606041
20
-42.0501237390947
30
0
41
1
10
49.618897525967
20
-42.0632808477989
30
0
41
1
10
49.5958110401873
20
-42.0701482374902
30
0
41
1
10
49.5632711838794
20
-42.0822574126633
30
0
41
1
10
49.5521258099502
20
-42.0877571389624
30
0
41
1
10
49.5430977976735
20
-42.0948622355979
30
0
41
1
10
49.5412537920625
20
-42.0970126966965
30
0
41
1
10
49.5404370567681
20
-42.0990105568542
30
0
0
SPLINE
5
1F9
100
AcDbEntity
8
1
62
256
6
ByLayer
370
18
48
1
60
0
100
AcDbSpline
70
4
71
3
72
8
73
4
40
0
40
0
40
0
40
0
40
1
40
1
40
1
40
1
41
1
10
32.0583817685
20
-38.1217882263226
30
0
41
1
10
32.0712782161813
20
-38.3105562201532
30
0
41
1
10
32.0972304302178
20
-38.5032280923058
30
0
41
1
10
32.1361397911863
20
-38.6959375136605
30
0
0
SPLINE
5
1FA
100
AcDbEntity
8
1
62
256
6
ByLayer
370
18
48
1
60
0
100
AcDbSpline
70
4
71
3
72
8
73
4
40
0
40
0
40
0
40
0
40
1
40
1
40
1
40
1
41
1
10
38.1166804461224
20
-32.2695917397889
30
0
41
1
10
38.1486894248976
20
-32.2536627354546
30
0
41
1
10
38.1803309969961
20
-32.2370885427527
30
0
41
1
10
38.2115570510689
20
-32.2198927880477
30
0
0
SPLINE
5
1FB
100
AcDbEntity
8
1
62
256
6
ByLayer
370
18
48
1
60
0
100
AcDbSpline
70
4
71
3
72
8
73
4
40
0
40
0
40
0
40
0
40
1
40
1
40
1
40
1
41
1
10
44.5643380845863
20
-29.1289724677194
30
0
41
1
10
44.3999548556667
20
-29.0970491082026
30
0
41
1
10
44.235979637729
20
-29.065328357242
30
0
41
1
10
44.0728434836378
20
-29.0339987276098
30
0
0
SPLINE
5
1FC
100
AcDbEntity
8
1
62
256
6
ByLayer
370
18
48
1
60
0
100
AcDbSpline
70
4
71
3
72
12
73
8
40
0
40
0
40
0
40
0
40
0.499999999999998
40
0.499999999999998
40
0.749999999999999
40
0.749999999999999
40
1
40
1
40
1
40
1
41
1
10
36.4082155837749
20
-27.5921926793444
30
0
41
1
10
36.0133588898056
20
-27.7032075627746
30
0
41
1
10
35.6642023654995
20
-27.9169373110646
30
0
41
1
10
35.0627251144723
20
-28.4647978867275
30
0
41
1
10
34.8589370193873
20
-28.6866536037103
30
0
41
1
10
34.4794982330458
20
-29.1803991473402
30
0
41
1
10
34.3094504833319
20
-29.4608356523502
30
0
41
1
10
34.1806943950881
20
-29.6069317145596
30
0
0
SPLINE
5
1FD
100
AcDbEntity
8
1
62
256
6
ByLayer
370
18
48
1
60
0
100
AcDbSpline
70
4
71
3
72
8
73
4
40
0
40
0
40
0
40
0
40
1
40
1
40
1
40
1
41
1
10
33.8867434212808
20
-29.9938616680047
30
0
41
1
10
33.9717207528957
20
-29.8621962672771
30
0
41
1
10
34.0702436983967
20
-29.7322571424645
30
0
41
1
10
34.1806943950877
20
-29.6069317145577
30
0
0
SPLINE
5
1FE
100
AcDbEntity
8
1
62
256
6
ByLayer
370
18
48
1
60
0
100
AcDbSpline
70
4
71
1
72
4
73
2
40
0
40
0
40
1
40
1
41
1
10
57.5937753577355
20
-38.558151107377
30
0
41
1
10
57.2875903919588
20
-39.9192871338895
30
0
0
SPLINE
5
1FF
100
AcDbEntity
8
1
62
256
6
ByLayer
370
18
48
1
60
0
100
AcDbSpline
70
4
71
3
72
12
73
8
40
0
40
0
40
0
40
0
40
0.412488217320866
40
0.412488217320866
40
0.702829232095142
40
0.702829232095142
40
1
40
1
40
1
40
1
41
1
10
57.0994830261434
20
-40.1659320826418
30
0
41
1
10
57.1259635410685
20
-40.1362649689329
30
0
41
1
10
57.1521872948376
20
-40.1038411711336
30
0
41
1
10
57.1943276350972
20
-40.0465485669718
30
0
41
1
10
57.2111768720658
20
-40.0220464160466
30
0
41
1
10
57.2435009400188
20
-39.9717799255561
30
0
41
1
10
57.2590305004286
20
-39.9458494722289
30
0
41
1
10
57.2735159656513
20
-39.9198731165559
30
0
0
SPLINE
5
200
100
AcDbEntity
8
1
62
256
6
ByLayer
370
18
48
1
60
0
100
AcDbSpline
70
4
71
3
72
8
73
4
40
0
40
0
40
0
40
0
40
1
40
1
40
1
40
1
41
1
10
55.4480905134046
20
-41.2401261326513
30
0
41
1
10
55.2507295296141
20
-41.2737941133902
30
0
41
1
10
55.0497223269016
20
-41.3053054716276
30
0
41
1
10
54.8508336195216
20
-41.3337507343525
30
0
0
SPLINE
5
201
100
AcDbEntity
8
1
62
256
6
ByLayer
370
18
48
1
60
0
100
AcDbSpline
70
4
71
3
72
18
73
14
40
0
40
0
40
0
40
0
40
0.0739908643221361
40
0.0739908643221361
40
0.163840977644153
40
0.163840977644153
40
0.285126848313323
40
0.285126848313323
40
0.44367096244091
40
0.44367096244091
40
0.655194408808953
40
0.655194408808953
40
1
40
1
40
1
40
1
41
1
10
32.1361397911874
20
-38.695937513659
30
0
41
1
10
32.1493189330762
20
-38.7612108757536
30
0
41
1
10
32.1609444654829
20
-38.8397347982606
30
0
41
1
10
32.1867648065969
20
-39.023441454537
30
0
41
1
10
32.2016387445587
20
-39.1334771882733
30
0
41
1
10
32.2428661637332
20
-39.3890681189447
30
0
41
1
10
32.2722245049243
20
-39.5383556966199
30
0
41
1
10
32.3536689957101
20
-39.8619142810114
30
0
41
1
10
32.411159270952
20
-40.0357906249998
30
0
41
1
10
32.5605687812896
20
-40.3951017622621
30
0
41
1
10
32.659185143318
20
-40.5714294242324
30
0
41
1
10
32.9297917685423
20
-40.9543589647509
30
0
41
1
10
33.1113641901624
20
-41.1231437847913
30
0
41
1
10
33.3348026066493
20
-41.2549573317667
30
0
0
SPLINE
5
202
100
AcDbEntity
8
1
62
256
6
ByLayer
370
18
48
1
60
0
100
AcDbSpline
70
4
71
3
72
10
73
6
40
0
40
0
40
0
40
0
40
0.354797248100693
40
0.354797248100693
40
1
40
1
40
1
40
1
41
1
10
56.0420196827663
20
-36.0383690331392
30
0
41
1
10
56.1017644262029
20
-36.0764563601245
30
0
41
1
10
56.1614344322832
20
-36.1153424040871
30
0
41
1
10
56.3289280586763
20
-36.226940007441
30
0
41
1
10
56.4363905397324
20
-36.3014500294186
30
0
41
1
10
56.541932305173
20
-36.3774854530388
30
0
0
SPLINE
5
203
100
AcDbEntity
8
1
62
256
6
ByLayer
370
18
48
1
60
0
100
AcDbSpline
70
4
71
3
72
8
73
4
40
0
40
0
40
0
40
0
40
1
40
1
40
1
40
1
41
1
10
41.0010950900742
20
-40.3215032002996
30
0
41
1
10
41.384265812531
20
-40.4031770941201
30
0
41
1
10
41.7717784068086
20
-40.4324496041624
30
0
41
1
10
42.1630093008269
20
-40.4135665440847
30
0
0
SPLINE
5
204
100
AcDbEntity
8
1
62
256
6
ByLayer
370
18
48
1
60
0
100
AcDbSpline
70
4
71
3
72
12
73
8
40
0
40
0
40
0
40
0
40
0.323114842069759
40
0.323114842069759
40
0.710369726849214
40
0.710369726849214
40
1
40
1
40
1
40
1
41
1
10
43.9083630981335
20
-32.6546489130703
30
0
41
1
10
44.255518275057
20
-32.8402185127146
30
0
41
1
10
44.5808149875959
20
-33.077495612086
30
0
41
1
10
45.2065169501687
20
-33.6768136861842
30
0
41
1
10
45.499205950083
20
-34.0633053488261
30
0
41
1
10
45.8763831615202
20
-34.7967404494319
30
0
41
1
10
45.997587671018
20
-35.136767484752
30
0
41
1
10
46.0649696248296
20
-35.4792583942951
30
0
0
SPLINE
5
205
100
AcDbEntity
8
1
62
256
6
ByLayer
370
18
48
1
60
0
100
AcDbSpline
70
4
71
3
72
8
73
4
40
0
40
0
40
0
40
0
40
1
40
1
40
1
40
1
41
1
10
56.0510220199918
20
-40.9946142952574
30
0
41
1
10
56.2715416299036
20
-40.8371367180254
30
0
41
1
10
56.4931879688555
20
-40.6769177194389
30
0
41
1
10
56.7148552440496
20
-40.5136945367727
30
0
0
SPLINE
5
206
100
AcDbEntity
8
1
62
256
6
ByLayer
370
18
48
1
60
0
100
AcDbSpline
70
4
71
3
72
8
73
4
40
0
40
0
40
0
40
0
40
1
40
1
40
1
40
1
41
1
10
41.4237551499085
20
-43.0903391396627
30
0
41
1
10
41.2593719209878
20
-43.0584157801458
30
0
41
1
10
41.0953967030491
20
-43.0266950291852
30
0
41
1
10
40.9322605489569
20
-42.9953653995529
30
0
0
SPLINE
5
207
100
AcDbEntity
8
1
62
256
6
ByLayer
370
18
48
1
60
0
100
AcDbSpline
70
4
71
3
72
8
73
4
40
0
40
0
40
0
40
0
40
1
40
1
40
1
40
1
41
1
10
36.7898310561338
20
-38.5401327992669
30
0
41
1
10
37.3300706864397
20
-39.2303514439213
30
0
41
1
10
38.1025137401574
20
-39.7036626098562
30
0
41
1
10
39.0101646979699
20
-39.8971309089976
30
0
0
SPLINE
5
208
100
AcDbEntity
8
1
62
256
6
ByLayer
370
18
48
1
60
0
100
AcDbSpline
70
4
71
3
72
12
73
8
40
0
40
0
40
0
40
0
40
0.402184145094044
40
0.402184145094044
40
0.696777465474679
40
0.696777465474679
40
1
40
1
40
1
40
1
41
1
10
57.5808371025198
20
-38.5536862757379
30
0
41
1
10
57.5777908579282
20
-38.5153686354283
30
0
41
1
10
57.5731071317263
20
-38.4756645255912
30
0
41
1
10
57.5622316623513
20
-38.4065200600795
30
0
41
1
10
57.5567445890599
20
-38.376951307397
30
0
41
1
10
57.5440160037462
20
-38.3174624227922
30
0
41
1
10
57.5366750016127
20
-38.2873200874664
30
0
41
1
10
57.5286707666983
20
-38.2579909323473
30
0
0
SPLINE
5
209
100
AcDbEntity
8
1
62
256
6
ByLayer
370
18
48
1
60
0
100
AcDbSpline
70
4
71
3
72
11
73
7
40
0
40
0
40
0
40
0
40
0.379837525225136
40
0.569756287837704
40
0.759675050450272
40
1
40
1
40
1
40
1
41
1.02830968163241
10
44.1358272653956
20
-29.9760590882207
30
0
41
1.02565532568264
10
46.3887075948799
20
-31.2111724261488
30
0
41
1.02058995167321
10
49.1541034955307
20
-33.0852494484898
30
0
41
1.0133636309892
10
53.3962037493852
20
-36.6651788955433
30
0
41
1.01212905948733
10
55.3037590164705
20
-37.0549501824936
30
0
41
1.0095816818588
10
56.8361585754156
20
-37.9632765431132
30
0
41
1.00899450091458
10
57.5286707583314
20
-38.2579909287866
30
0
0
SPLINE
5
20A
100
AcDbEntity
8
1
62
256
6
ByLayer
370
18
48
1
60
0
100
AcDbSpline
70
4
71
3
72
13
73
9
40
0
40
0
40
0
40
0
40
0.287855605153641
40
0.287855605153641
40
0.605649284587146
40
0.605649284587146
40
0.605649284587146
40
1
40
1
40
1
40
1
41
1
10
45.3208211508972
20
-38.787347981171
30
0
41
1
10
45.1133886062161
20
-39.0714310002499
30
0
41
1
10
44.859953498059
20
-39.3262144792868
30
0
41
1
10
44.2738330948591
20
-39.7743796825694
30
0
41
1
10
43.9291758910285
20
-39.9647769187104
30
0
41
1
10
43.5688318813428
20
-40.1062723389081
30
0
41
1
10
43.1237857340015
20
-40.2810275448579
30
0
41
1
10
42.6418898716975
20
-40.3858752581828
30
0
41
1
10
42.1630093032098
20
-40.4135665439697
30
0
0
SPLINE
5
20B
100
AcDbEntity
8
1
62
256
6
ByLayer
370
18
48
1
60
0
100
AcDbSpline
70
4
71
3
72
14
73
10
40
0
40
0
40
0
40
0
40
0.164525200330942
40
0.164525200330942
40
0.540804984924856
40
0.540804984924856
40
0.917041398719685
40
0.917041398719685
40
1
40
1
40
1
40
1
41
1
10
41.7658378066298
20
-36.9773461274106
30
0
41
1
10
41.7696507746729
20
-36.9704303332945
30
0
41
1
10
41.7737913451681
20
-36.9635131894926
30
0
41
1
10
41.7883942069764
20
-36.9411379687448
30
0
41
1
10
41.8004613867802
20
-36.9257553681541
30
0
41
1
10
41.826810237785
20
-36.898011329947
30
0
41
1
10
41.8413797453905
20
-36.8853330681901
30
0
41
1
10
41.8593631338301
20
-36.8721730881824
30
0
41
1
10
41.8626510212737
20
-36.8698621623466
30
0
41
1
10
41.8659475705499
20
-36.8676337183701
30
0
0
SPLINE
5
20C
100
AcDbEntity
8
1
62
256
6
ByLayer
370
18
48
1
60
0
100
AcDbSpline
70
4
71
3
72
14
73
10
40
0
40
0
40
0
40
0
40
0.0829586012802922
40
0.0829586012802922
40
0.45919501507513
40
0.45919501507513
40
0.835474799669014
40
0.835474799669014
40
1
40
1
40
1
40
1
41
1
10
39.8253212231568
20
-36.4326685974554
30
0
41
1
10
39.826936200562
20
-36.4359439468586
30
0
41
1
10
39.8285356504005
20
-36.439296622084
30
0
41
1
10
39.8372184614878
20
-36.4581405758953
30
0
41
1
10
39.8439999565865
20
-36.4753698626279
30
0
41
1
10
39.8556787733494
20
-36.5112196028562
30
0
41
1
10
39.860702215829
20
-36.530245116613
30
0
41
1
10
39.8663165397718
20
-36.5569296861331
30
0
41
1
10
39.8678374610726
20
-36.5650535924894
30
0
41
1
10
39.8691692579924
20
-36.5730660074136
30
0
0
SPLINE
5
20D
100
AcDbEntity
8
1
62
256
6
ByLayer
370
18
48
1
60
0
100
AcDbSpline
70
4
71
3
72
14
73
10
40
0
40
0
40
0
40
0
40
0.164525200330992
40
0.164525200330992
40
0.540804984924863
40
0.540804984924863
40
0.917041398719709
40
0.917041398719709
40
1
40
1
40
1
40
1
41
1
10
40.1537630358345
20
-35.3079129553701
30
0
41
1
10
40.1492308034669
20
-35.3141279796594
30
0
41
1
10
40.1444637327676
20
-35.3204347325042
30
0
41
1
10
40.1281815490217
20
-35.3411738118458
30
0
41
1
10
40.1155432379378
20
-35.3559999666981
30
0
41
1
10
40.0894935546276
20
-35.3840354800782
30
0
41
1
10
40.0757937956714
20
-35.397561126572
30
0
41
1
10
40.0595340089715
20
-35.4124003892181
30
0
41
1
10
40.0565860440466
20
-35.4150424971192
30
0
41
1
10
40.0536532719146
20
-35.4176253644108
30
0
0
SPLINE
5
20E
100
AcDbEntity
8
1
62
256
6
ByLayer
370
18
48
1
60
0
100
AcDbSpline
70
4
71
3
72
12
73
8
40
0
40
0
40
0
40
0
40
0.392678099452529
40
0.392678099452529
40
0.79127933596873
40
0.79127933596873
40
1
40
1
40
1
40
1
41
1
10
40.631358608556
20
-37.2673851834768
30
0
41
1
10
40.6488469479089
20
-37.2671730395217
30
0
41
1
10
40.6678323616925
20
-37.2685113591707
30
0
41
1
10
40.7065324920863
20
-37.2748620929205
30
0
41
1
10
40.726731105064
20
-37.2800351983634
30
0
41
1
10
40.7558682819801
20
-37.2900464733553
30
0
41
1
10
40.765768110091
20
-37.2939195887676
30
0
41
1
10
40.7753164073087
20
-37.2980701843939
30
0
0
SPLINE
5
20F
100
AcDbEntity
8
1
62
256
6
ByLayer
370
18
48
1
60
0
100
AcDbSpline
70
4
71
3
72
14
73
10
40
0
40
0
40
0
40
0
40
0.0829586012802219
40
0.0829586012802219
40
0.459195015075147
40
0.459195015075147
40
0.835474799669109
40
0.835474799669109
40
1
40
1
40
1
40
1
41
1
10
42.0942796193077
20
-35.8525904853255
30
0
41
1
10
42.0923008647583
20
-35.8489607126072
30
0
41
1
10
42.0903614924011
20
-35.8452768553165
30
0
41
1
10
42.0799550795741
20
-35.8247536188668
30
0
41
1
10
42.072303835826
20
-35.8066769473974
30
0
41
1
10
42.0603258513686
20
-35.7705357319959
30
0
41
1
10
42.0558735401692
20
-35.7520666639776
30
0
41
1
10
42.0519385381639
20
-35.7270182358637
30
0
41
1
10
42.0510441170671
20
-35.7195047204645
30
0
41
1
10
42.0504315844719
20
-35.712193075367
30
0
0
SPLINE
5
210
100
AcDbEntity
8
1
62
256
6
ByLayer
370
18
48
1
60
0
100
AcDbSpline
70
4
71
3
72
12
73
8
40
0
40
0
40
0
40
0
40
0.392678099449946
40
0.392678099449946
40
0.79127933596615
40
0.79127933596615
40
1
40
1
40
1
40
1
41
1
10
41.2882422339089
20
-35.0178738993044
30
0
41
1
10
41.2690461614379
20
-35.0164222212116
30
0
41
1
10
41.24887931009
20
-35.0139328423914
30
0
41
1
10
41.209351381468
20
-35.0067755956513
30
0
41
1
10
41.1895322237039
20
-35.0019721884617
30
0
41
1
10
41.1620492236191
20
-34.9935725563277
30
0
41
1
10
41.1529158269652
20
-34.9904461650627
30
0
41
1
10
41.1442844351562
20
-34.9871888983874
30
0
0
LINE
5
72
100
AcDbEntity
8
80
62
256
6
ByLayer
370
18
48
1
60
0
100
AcDbLine
10
0
20
0
30
0
11
-5
21
0
31
0
39
0
210
0
220
0
230
1
0
LINE
5
73
100
AcDbEntity
8
1
62
256
6
ByLayer
370
18
48
1
60
0
100
AcDbLine
10
17.468416
20
31.5
30
0
11
0.3
21
31.5
31
0
39
0
210
0
220
0
230
1
0
LINE
5
75
100
AcDbEntity
8
1
62
256
6
ByLayer
370
18
48
1
60
0
100
AcDbLine
10
0.3
20
31.5
30
0
11
0
21
31.2
31
0
39
0
210
0
220
0
230
1
0
LINE
5
76
100
AcDbEntity
8
1
62
256
6
ByLayer
370
18
48
1
60
0
100
AcDbLine
10
0
20
-31.2
30
0
11
0.3
21
-31.5
31
0
39
0
210
0
220
0
230
1
0
LINE
5
77
100
AcDbEntity
8
1
62
256
6
ByLayer
370
18
48
1
60
0
100
AcDbLine
10
22.920792
20
-31.5
30
0
11
25.499674
21
-41.124519
31
0
39
0
210
0
220
0
230
1
0
LINE
5
78
100
AcDbEntity
8
1
62
256
6
ByLayer
370
18
48
1
60
0
100
AcDbLine
10
48.89986
20
-42.694566
30
0
11
49.075808
21
-42.865989
31
0
39
0
210
0
220
0
230
1
0
LINE
5
79
100
AcDbEntity
8
1
62
256
6
ByLayer
370
18
48
1
60
0
100
AcDbLine
10
19.26238
20
5.07156
30
0
11
20.96986
21
3.153426
31
0
39
0
210
0
220
0
230
1
0
LINE
5
7A
100
AcDbEntity
8
1
62
256
6
ByLayer
370
18
48
1
60
0
100
AcDbLine
10
21.02071
20
3.133523
30
0
11
21.366061
21
3.117332
31
0
39
0
210
0
220
0
230
1
0
LINE
5
7B
100
AcDbEntity
8
1
62
256
6
ByLayer
370
18
48
1
60
0
100
AcDbLine
10
24.246323
20
5.681277
30
0
11
24.270237
21
6.026179
31
0
39
0
210
0
220
0
230
1
0
LINE
5
7C
100
AcDbEntity
8
1
62
256
6
ByLayer
370
18
48
1
60
0
100
AcDbLine
10
40.757527
20
-34.652943
30
0
11
41.011201
21
-34.900095
31
0
39
0
210
0
220
0
230
1
0
LINE
5
7D
100
AcDbEntity
8
1
62
256
6
ByLayer
370
18
48
1
60
0
100
AcDbLine
10
40.9084
20
-37.385164
30
0
11
40.654726
21
-37.138013
31
0
39
0
210
0
220
0
230
1
0
LINE
5
7E
100
AcDbEntity
8
1
62
256
6
ByLayer
370
18
48
1
60
0
100
AcDbLine
10
37.796392
20
-38.645162
30
0
11
38.070722
21
-38.912438
31
0
39
0
210
0
220
0
230
1
0
LINE
5
7F
100
AcDbEntity
8
1
62
256
6
ByLayer
370
18
48
1
60
0
100
AcDbLine
10
31.835363
20
-40.380162
30
0
11
33.343379
21
-41.259985
31
0
39
0
210
0
220
0
230
1
0
LINE
5
80
100
AcDbEntity
8
1
62
256
6
ByLayer
370
18
48
1
60
0
100
AcDbLine
10
24.256357
20
6.078992
30
0
11
19.196994
21
11.762534
31
0
39
0
210
0
220
0
230
1
0
LINE
5
81
100
AcDbEntity
8
1
62
256
6
ByLayer
370
18
48
1
60
0
100
AcDbLine
10
0.3
20
-31.5
30
0
11
22.920792
21
-31.5
31
0
39
0
210
0
220
0
230
1
0
LINE
5
82
100
AcDbEntity
8
1
62
256
6
ByLayer
370
18
48
1
60
0
100
AcDbLine
10
57.765512
20
-32.208039
30
0
11
56.866942
21
-31.332574
31
0
39
0
210
0
220
0
230
1
0
LINE
5
83
100
AcDbEntity
8
1
62
256
6
ByLayer
370
18
48
1
60
0
100
AcDbLine
10
49.307798
20
-43.199177
30
0
11
50.206368
21
-44.074642
31
0
39
0
210
0
220
0
230
1
0
LINE
5
84
100
AcDbEntity
8
1
62
256
6
ByLayer
370
18
48
1
60
0
100
AcDbLine
10
39.74681
20
-36.32701
30
0
11
39.493136
21
-36.079859
31
0
39
0
210
0
220
0
230
1
0
LINE
5
85
100
AcDbEntity
8
1
62
256
6
ByLayer
370
18
48
1
60
0
100
AcDbLine
10
41.919117
20
-35.711098
30
0
11
42.172791
21
-35.958249
31
0
39
0
210
0
220
0
230
1
0
LINE
5
86
100
AcDbEntity
8
1
62
256
6
ByLayer
370
18
48
1
60
0
100
AcDbLine
10
43.653428
20
-33.182395
30
0
11
43.379098
21
-32.915119
31
0
39
0
210
0
220
0
230
1
0
LINE
5
87
100
AcDbEntity
8
1
62
256
6
ByLayer
370
18
48
1
60
0
100
AcDbLine
10
35.976292
20
-37.849077
30
0
11
35.4379
21
-37.534962
31
0
39
0
210
0
220
0
230
1
0
LINE
5
88
100
AcDbEntity
8
4
62
256
6
ByLayer
370
18
48
0.05
60
0
100
AcDbLine
10
0
20
0
30
0
11
65
21
0
31
0
39
0
210
0
220
0
230
1
0
LINE
5
8A
100
AcDbEntity
8
81
62
256
6
ByLayer
370
18
48
1
60
0
100
AcDbLine
10
65
20
-45
30
0
11
75
21
-45
31
0
39
0
210
0
220
0
230
1
0
LINE
5
8B
100
AcDbEntity
8
SK4
62
256
6
ByLayer
370
18
48
0.05
60
0
100
AcDbLine
10
-43
20
0
30
0
11
65
21
0
31
0
39
0
210
0
220
0
230
1
0
LINE
5
8D
100
AcDbEntity
8
1
62
256
6
ByLayer
370
18
48
1
60
0
100
AcDbLine
10
49.150383
20
-42.395403
30
0
11
50.086266
21
-43.92423
31
0
39
0
210
0
220
0
230
1
0
LINE
5
8E
100
AcDbEntity
8
1
62
256
6
ByLayer
370
18
48
1
60
0
100
AcDbLine
10
57.262709
20
-31.988699
30
0
11
50.042867
21
-31.610323
31
0
39
0
210
0
220
0
230
1
0
LINE
5
8F
100
AcDbEntity
8
1
62
256
6
ByLayer
370
18
48
1
60
0
100
AcDbLine
10
56.364139
20
-31.113234
30
0
11
55.778599
21
-31.082547
31
0
39
0
210
0
220
0
230
1
0
LINE
5
90
100
AcDbEntity
8
1
62
256
6
ByLayer
370
18
48
1
60
0
100
AcDbLine
10
48.816383
20
-42.442201
30
0
11
49.187695
21
-43.048764
31
0
39
0
210
0
220
0
230
1
0
LINE
5
91
100
AcDbEntity
8
1
62
256
6
ByLayer
370
18
48
1
60
0
100
AcDbLine
10
38.529266
20
-39.61656
30
0
11
39.706675
21
-39.865705
31
0
39
0
210
0
220
0
230
1
0
LINE
5
92
100
AcDbEntity
8
1
62
256
6
ByLayer
370
18
48
1
60
0
100
AcDbLine
10
36.10749
20
-26.90523
30
0
11
37.271296
21
-27.58423
31
0
39
0
210
0
220
0
230
1
0
LINE
5
93
100
AcDbEntity
8
1
62
256
6
ByLayer
370
18
48
1
60
0
100
AcDbLine
10
55.226731
20
-35.517521
30
0
11
53.195079
21
-34.237339
31
0
39
0
210
0
220
0
230
1
0
LINE
5
94
100
AcDbEntity
8
1
62
256
6
ByLayer
370
18
48
1
60
0
100
AcDbLine
10
56.942944
20
-37.029601
30
0
11
56.567346
21
-36.418813
31
0
39
0
210
0
220
0
230
1
0
LINE
5
95
100
AcDbEntity
8
1
62
256
6
ByLayer
370
18
48
1
60
0
100
AcDbLine
10
56.051022
20
-40.994614
30
0
11
55.486301
21
-41.224567
31
0
39
0
210
0
220
0
230
1
0
LINE
5
96
100
AcDbEntity
8
1
62
256
6
ByLayer
370
18
48
1
60
0
100
AcDbLine
10
51.491947
20
-41.808559
30
0
11
53.887282
21
-41.472001
31
0
39
0
210
0
220
0
230
1
0
LINE
5
97
100
AcDbEntity
8
1
62
256
6
ByLayer
370
18
48
1
60
0
100
AcDbLine
10
19.519149
20
28.149992
30
0
11
17.468416
21
31.5
31
0
39
0
210
0
220
0
230
1
0
LINE
5
98
100
AcDbEntity
8
1
62
256
6
ByLayer
370
18
48
1
60
0
100
AcDbLine
10
22.920792
20
-31.5
30
0
11
22.920792
21
-30.899614
31
0
39
0
210
0
220
0
230
1
0
LINE
5
99
100
AcDbEntity
8
1
62
256
6
ByLayer
370
18
48
1
60
0
100
AcDbLine
10
0.3
20
0
30
0
11
0.3
21
-31.5
31
0
39
0
210
0
220
0
230
1
0
LINE
5
9A
100
AcDbEntity
8
1
62
256
6
ByLayer
370
18
48
1
60
0
100
AcDbLine
10
0.3
20
31.5
30
0
11
0.3
21
0
31
0
39
0
210
0
220
0
230
1
0
LINE
5
9B
100
AcDbEntity
8
1
62
256
6
ByLayer
370
18
48
1
60
0
100
AcDbLine
10
0
20
0
30
0
11
0
21
-31.2
31
0
39
0
210
0
220
0
230
1
0
LINE
5
9C
100
AcDbEntity
8
1
62
256
6
ByLayer
370
18
48
1
60
0
100
AcDbLine
10
0
20
31.2
30
0
11
0
21
0
31
0
39
0
210
0
220
0
230
1
0
LINE
5
9D
100
AcDbEntity
8
1
62
256
6
ByLayer
370
18
48
1
60
0
100
AcDbLine
10
19.909682
20
4.344397
30
0
11
19.874726
21
4.23327
31
0
39
0
210
0
220
0
230
1
0
LINE
5
9E
100
AcDbEntity
8
1
62
256
6
ByLayer
370
18
48
1
60
0
100
AcDbLine
10
19.911507
20
-29.985012
30
0
11
19.911507
21
4.342151
31
0
39
0
210
0
220
0
230
1
0
LINE
5
9F
100
AcDbEntity
8
1
62
256
6
ByLayer
370
18
48
1
60
0
100
AcDbLine
10
19.911507
20
10.96022
30
0
11
19.911507
21
27.509049
31
0
39
0
210
0
220
0
230
1
0
LINE
5
A0
100
AcDbEntity
8
1
62
256
6
ByLayer
370
18
48
1
60
0
100
AcDbLine
10
19.823265
20
13.545607
30
0
11
19.848058
21
11.031094
31
0
39
0
210
0
220
0
230
1
0
LINE
5
A1
100
AcDbEntity
8
SK1
62
256
6
ByLayer
370
18
48
1
60
0
100
AcDbLine
10
-0.2
20
22.533485
30
0
11
-0.2
21
7.059517
31
0
39
0
210
0
220
0
230
1
0
LINE
5
A3
100
AcDbEntity
8
SK1
62
256
6
ByLayer
370
18
48
1
60
0
100
AcDbLine
10
-0.2
20
-7.059518
30
0
11
-0.2
21
-22.533485
31
0
39
0
210
0
220
0
230
1
0
LINE
5
A4
100
AcDbEntity
8
1
62
256
6
ByLayer
370
18
48
1
60
0
100
AcDbLine
10
19.823265
20
13.545607
30
0
11
19.208748
21
12.998578
31
0
39
0
210
0
220
0
230
1
0
LINE
5
A5
100
AcDbEntity
8
1
62
256
6
ByLayer
370
18
48
1
60
0
100
AcDbLine
10
19.904936
20
4.349731
30
0
11
19.830243
21
4.283241
31
0
39
0
210
0
220
0
230
1
0
LINE
5
A6
100
AcDbEntity
8
1
62
256
6
ByLayer
370
18
48
1
60
0
100
AcDbLine
10
23.896286
20
-34.624573
30
0
11
23.896286
21
5.140662
31
0
39
0
210
0
220
0
230
1
0
LINE
5
A7
100
AcDbEntity
8
1
62
256
6
ByLayer
370
18
48
1
60
0
100
AcDbLine
10
23.896286
20
6.483465
30
0
11
23.896286
21
20.999649
31
0
39
0
210
0
220
0
230
1
0
LINE
5
A8
100
AcDbEntity
8
1
62
256
6
ByLayer
370
18
48
1
60
0
100
AcDbLine
10
37.649088
20
-27.385005
30
0
11
38.053232
21
-25.588396
31
0
39
0
210
0
220
0
230
1
0
LINE
5
A9
100
AcDbEntity
8
1
62
256
6
ByLayer
370
18
48
1
60
0
100
AcDbLine
10
49.737475
20
-31.417953
30
0
11
56.20911
21
-31.785489
31
0
39
0
210
0
220
0
230
1
0
LINE
5
AA
100
AcDbEntity
8
1
62
256
6
ByLayer
370
18
48
1
60
0
100
AcDbLine
10
46.586186
20
-28.454139
30
0
11
47.560972
21
-30.046517
31
0
39
0
210
0
220
0
230
1
0
LINE
5
AB
100
AcDbEntity
8
1
62
256
6
ByLayer
370
18
48
1
60
0
100
AcDbLine
10
34.301016
20
-41.581899
30
0
11
31.291875
21
-41.424197
31
0
39
0
210
0
220
0
230
1
0
LINE
5
AC
100
AcDbEntity
8
1
62
256
6
ByLayer
370
18
48
1
60
0
100
AcDbLine
10
32.944164
20
-26.861912
30
0
11
32.732257
21
-27.80394
31
0
39
0
210
0
220
0
230
1
0
LINE
5
AD
100
AcDbEntity
8
1
62
256
6
ByLayer
370
18
48
1
60
0
100
AcDbLine
10
30.342317
20
-38.428346
30
0
11
30.175827
21
-39.16847
31
0
39
0
210
0
220
0
230
1
0
LINE
5
AE
100
AcDbEntity
8
1
62
256
6
ByLayer
370
18
48
1
60
0
100
AcDbLine
10
46.04814
20
-27.847513
30
0
11
46.586186
21
-28.454139
31
0
39
0
210
0
220
0
230
1
0
LINE
5
AF
100
AcDbEntity
8
1
62
256
6
ByLayer
370
18
48
1
60
0
100
AcDbLine
10
45.732073
20
-27.637401
30
0
11
46.984449
21
-29.68324
31
0
39
0
210
0
220
0
230
1
0
LINE
5
B0
100
AcDbEntity
8
1
62
256
6
ByLayer
370
18
48
1
60
0
100
AcDbLine
10
49.928217
20
-31.538124
30
0
11
54.357678
21
-31.789681
31
0
39
0
210
0
220
0
230
1
0
LINE
5
B1
100
AcDbEntity
8
1
62
256
6
ByLayer
370
18
48
1
60
0
100
AcDbLine
10
56.20911
20
-31.785489
30
0
11
56.275057
21
-31.893218
31
0
39
0
210
0
220
0
230
1
0
LINE
5
B2
100
AcDbEntity
8
1
62
256
6
ByLayer
370
18
48
1
60
0
100
AcDbLine
10
45.474727
20
-27.515243
30
0
11
46.687235
21
-29.495956
31
0
39
0
210
0
220
0
230
1
0
LINE
5
B3
100
AcDbEntity
8
1
62
256
6
ByLayer
370
18
48
1
60
0
100
AcDbLine
10
56.243295
20
-35.734663
30
0
11
55.950203
21
-35.982903
31
0
39
0
210
0
220
0
230
1
0
LINE
5
B4
100
AcDbEntity
8
1
62
256
6
ByLayer
370
18
48
1
60
0
100
AcDbLine
10
55.226744
20
-35.517529
30
0
11
52.851848
21
-33.932013
31
0
39
0
210
0
220
0
230
1
0
LINE
5
B5
100
AcDbEntity
8
1
62
256
6
ByLayer
370
18
48
1
60
0
100
AcDbLine
10
54.878255
20
-41.80291
30
0
11
54.743359
21
-41.34789
31
0
39
0
210
0
220
0
230
1
0
LINE
5
B6
100
AcDbEntity
8
1
62
256
6
ByLayer
370
18
48
1
60
0
100
AcDbLine
10
53.887297
20
-41.471999
30
0
11
51.049045
21
-41.946319
31
0
39
0
210
0
220
0
230
1
0
LINE
5
B7
100
AcDbEntity
8
1
62
256
6
ByLayer
370
18
48
1
60
0
100
AcDbLine
10
48.817851
20
-42.442183
30
0
11
48.978157
21
-42.704053
31
0
39
0
210
0
220
0
230
1
0
LINE
5
B8
100
AcDbEntity
8
1
62
256
6
ByLayer
370
18
48
1
60
0
100
AcDbLine
10
55.958101
20
-31.095332
30
0
11
55.780835
21
-31.086042
31
0
39
0
210
0
220
0
230
1
0
LINE
5
B9
100
AcDbEntity
8
1
62
256
6
ByLayer
370
18
48
1
60
0
100
AcDbLine
10
55.639599
20
-30.78502
30
0
11
55.595102
21
-30.782688
31
0
39
0
210
0
220
0
230
1
0
LINE
5
BA
100
AcDbEntity
8
1
62
256
6
ByLayer
370
18
48
1
60
0
100
AcDbLine
10
48.978157
20
-42.704053
30
0
11
48.723051
21
-42.455508
31
0
39
0
210
0
220
0
230
1
0
LINE
5
BB
100
AcDbEntity
8
1
62
256
6
ByLayer
370
18
48
1
60
0
100
AcDbLine
10
40.75063
20
-34.612818
30
0
11
40.928456
21
-34.786071
31
0
39
0
210
0
220
0
230
1
0
LINE
5
BC
100
AcDbEntity
8
1
62
256
6
ByLayer
370
18
48
1
60
0
100
AcDbLine
10
39.393983
20
-36.030883
30
0
11
39.605
21
-36.236474
31
0
39
0
210
0
220
0
230
1
0
LINE
5
BD
100
AcDbEntity
8
1
62
256
6
ByLayer
370
18
48
1
60
0
100
AcDbLine
10
53.214137
20
-42.689388
30
0
11
52.827323
21
-43.243379
31
0
39
0
210
0
220
0
230
1
0
LINE
5
BE
100
AcDbEntity
8
1
62
256
6
ByLayer
370
18
48
1
60
0
100
AcDbLine
10
56.032483
20
-42.024138
30
0
11
57.131887
21
-41.010255
31
0
39
0
210
0
220
0
230
1
0
LINE
5
BF
100
AcDbEntity
8
1
62
256
6
ByLayer
370
18
48
1
60
0
100
AcDbLine
10
53.812501
20
-33.975343
30
0
11
53.660508
21
-34.010355
31
0
39
0
210
0
220
0
230
1
0
LINE
5
C0
100
AcDbEntity
8
1
62
256
6
ByLayer
370
18
48
1
60
0
100
AcDbLine
10
55.112035
20
-34.252342
30
0
11
55.12371
21
-33.034859
31
0
39
0
210
0
220
0
230
1
0
LINE
5
C1
100
AcDbEntity
8
1
62
256
6
ByLayer
370
18
48
1
60
0
100
AcDbLine
10
57.950405
20
-37.371561
30
0
11
58.704845
21
-36.517422
31
0
39
0
210
0
220
0
230
1
0
LINE
5
C2
100
AcDbEntity
8
1
62
256
6
ByLayer
370
18
48
1
60
0
100
AcDbLine
10
51.914604
20
-42.412389
30
0
11
51.136268
21
-42.882926
31
0
39
0
210
0
220
0
230
1
0
LINE
5
C3
100
AcDbEntity
8
1
62
256
6
ByLayer
370
18
48
1
60
0
100
AcDbLine
10
55.518851
20
-42.623377
30
0
11
52.827323
21
-43.243379
31
0
39
0
210
0
220
0
230
1
0
LINE
5
C4
100
AcDbEntity
8
1
62
256
6
ByLayer
370
18
48
1
60
0
100
AcDbLine
10
55.112035
20
-34.252342
30
0
11
53.812501
21
-33.975343
31
0
39
0
210
0
220
0
230
1
0
LINE
5
C5
100
AcDbEntity
8
1
62
256
6
ByLayer
370
18
48
1
60
0
100
AcDbLine
10
57.132338
20
-35.789718
30
0
11
57.302765
21
-34.693039
31
0
39
0
210
0
220
0
230
1
0
LINE
5
C6
100
AcDbEntity
8
1
62
256
6
ByLayer
370
18
48
1
60
0
100
AcDbLine
10
53.355676
20
-33.97588
30
0
11
52.823171
21
-32.814803
31
0
39
0
210
0
220
0
230
1
0
LINE
5
C7
100
AcDbEntity
8
1
62
256
6
ByLayer
370
18
48
1
60
0
100
AcDbLine
10
51.79155
20
-42.31875
30
0
11
51.509257
21
-42.184077
31
0
39
0
210
0
220
0
230
1
0
LINE
5
C8
100
AcDbEntity
8
1
62
256
6
ByLayer
370
18
48
1
60
0
100
AcDbLine
10
57.386877
20
-36.00322
30
0
11
57.950405
21
-37.371561
31
0
39
0
210
0
220
0
230
1
0
LINE
5
C9
100
AcDbEntity
8
1
62
256
6
ByLayer
370
18
48
1
60
0
100
AcDbLine
10
57.131887
20
-41.010255
30
0
11
57.575856
21
-41.536308
31
0
39
0
210
0
220
0
230
1
0
LINE
5
CA
100
AcDbEntity
8
1
62
256
6
ByLayer
370
18
48
1
60
0
100
AcDbLine
10
57.132338
20
-35.789718
30
0
11
55.112035
21
-34.252342
31
0
39
0
210
0
220
0
230
1
0
LINE
5
CB
100
AcDbEntity
8
1
62
256
6
ByLayer
370
18
48
1
60
0
100
AcDbLine
10
52.823171
20
-32.814803
30
0
11
53.432656
21
-32.674406
31
0
39
0
210
0
220
0
230
1
0
LINE
5
CC
100
AcDbEntity
8
1
62
256
6
ByLayer
370
18
48
1
60
0
100
AcDbLine
10
53.214137
20
-42.689388
30
0
11
51.914604
21
-42.412389
31
0
39
0
210
0
220
0
230
1
0
LINE
5
CD
100
AcDbEntity
8
1
62
256
6
ByLayer
370
18
48
1
60
0
100
AcDbLine
10
52.827323
20
-43.243379
30
0
11
51.136268
21
-42.882926
31
0
39
0
210
0
220
0
230
1
0
LINE
5
CE
100
AcDbEntity
8
1
62
256
6
ByLayer
370
18
48
1
60
0
100
AcDbLine
10
51.79155
20
-42.31875
30
0
11
54.878255
21
-41.80291
31
0
39
0
210
0
220
0
230
1
0
LINE
5
CF
100
AcDbEntity
8
1
62
256
6
ByLayer
370
18
48
1
60
0
100
AcDbLine
10
55.12371
20
-33.034859
30
0
11
53.432656
21
-32.674406
31
0
39
0
210
0
220
0
230
1
0
LINE
5
D0
100
AcDbEntity
8
1
62
256
6
ByLayer
370
18
48
1
60
0
100
AcDbLine
10
51.914604
20
-42.412389
30
0
11
51.79155
21
-42.31875
31
0
39
0
210
0
220
0
230
1
0
LINE
5
D1
100
AcDbEntity
8
1
62
256
6
ByLayer
370
18
48
1
60
0
100
AcDbLine
10
55.709578
20
-42.114556
30
0
11
55.518851
21
-42.623377
31
0
39
0
210
0
220
0
230
1
0
LINE
5
D2
100
AcDbEntity
8
1
62
256
6
ByLayer
370
18
48
1
60
0
100
AcDbLine
10
51.509257
20
-42.184077
30
0
11
50.642831
21
-42.507438
31
0
39
0
210
0
220
0
230
1
0
LINE
5
D3
100
AcDbEntity
8
1
62
256
6
ByLayer
370
18
48
1
60
0
100
AcDbLine
10
55.709578
20
-42.114556
30
0
11
53.214137
21
-42.689388
31
0
39
0
210
0
220
0
230
1
0
LINE
5
D4
100
AcDbEntity
8
1
62
256
6
ByLayer
370
18
48
1
60
0
100
AcDbLine
10
50.642831
20
-42.507438
30
0
11
51.136268
21
-42.882926
31
0
39
0
210
0
220
0
230
1
0
LINE
5
D5
100
AcDbEntity
8
1
62
256
6
ByLayer
370
18
48
1
60
0
100
AcDbLine
10
53.355676
20
-33.97588
30
0
11
53.660508
21
-34.010355
31
0
39
0
210
0
220
0
230
1
0
LINE
5
D6
100
AcDbEntity
8
1
62
256
6
ByLayer
370
18
48
1
60
0
100
AcDbLine
10
53.432656
20
-32.674406
30
0
11
53.812501
21
-33.975343
31
0
39
0
210
0
220
0
230
1
0
LINE
5
D7
100
AcDbEntity
8
1
62
256
6
ByLayer
370
18
48
1
60
0
100
AcDbLine
10
57.302765
20
-34.693039
30
0
11
55.12371
21
-33.034859
31
0
39
0
210
0
220
0
230
1
0
LINE
5
D8
100
AcDbEntity
8
1
62
256
6
ByLayer
370
18
48
1
60
0
100
AcDbLine
10
53.660508
20
-34.010355
30
0
11
56.243295
21
-35.734663
31
0
39
0
210
0
220
0
230
1
0
LINE
5
D9
100
AcDbEntity
8
1
62
256
6
ByLayer
370
18
48
1
60
0
100
AcDbLine
10
23.896286
20
20.999649
30
0
11
19.911507
21
27.509049
31
0
39
0
210
0
220
0
230
1
0
LINE
5
DA
100
AcDbEntity
8
1
62
256
6
ByLayer
370
18
48
1
60
0
100
AcDbLine
10
10.105662
20
-9.869413
30
0
11
10.105662
21
-29.913955
31
0
39
0
210
0
220
0
230
1
0
LINE
5
DB
100
AcDbEntity
8
1
62
256
6
ByLayer
370
18
48
1
60
0
100
AcDbLine
10
13.894338
20
29.913955
30
0
11
13.894338
21
21.040182
31
0
39
0
210
0
220
0
230
1
0
LINE
5
DC
100
AcDbEntity
8
1
62
256
6
ByLayer
370
18
48
1
60
0
100
AcDbLine
10
10.538675
20
-9.349221
30
0
11
13.461325
21
-9.349221
31
0
39
0
210
0
220
0
230
1
0
LINE
5
DD
100
AcDbEntity
8
1
62
256
6
ByLayer
370
18
48
1
60
0
100
AcDbLine
10
13.461325
20
-30.080593
30
0
11
10.538675
21
-30.080593
31
0
39
0
210
0
220
0
230
1
0
LINE
5
DE
100
AcDbEntity
8
1
62
256
6
ByLayer
370
18
48
1
60
0
100
AcDbLine
10
10.538675
20
30.080593
30
0
11
13.461325
21
30.080593
31
0
39
0
210
0
220
0
230
1
0
LINE
5
DF
100
AcDbEntity
8
1
62
256
6
ByLayer
370
18
48
1
60
0
100
AcDbLine
10
43.352266
20
-27.705248
30
0
11
43.097522
21
-27.863276
31
0
39
0
210
0
220
0
230
1
0
LINE
5
E0
100
AcDbEntity
8
1
62
256
6
ByLayer
370
18
48
1
60
0
100
AcDbLine
10
13.894338
20
20.132452
30
0
11
13.894338
21
9.869413
31
0
39
0
210
0
220
0
230
1
0
LINE
5
E1
100
AcDbEntity
8
1
62
256
6
ByLayer
370
18
48
1
60
0
100
AcDbLine
10
13.461325
20
19.43724
30
0
11
13.461325
21
9.349221
31
0
39
0
210
0
220
0
230
1
0
LINE
5
E2
100
AcDbEntity
8
1
62
256
6
ByLayer
370
18
48
1
60
0
100
AcDbLine
10
10.105662
20
29.913955
30
0
11
10.105662
21
21.040182
31
0
39
0
210
0
220
0
230
1
0
LINE
5
E3
100
AcDbEntity
8
1
62
256
6
ByLayer
370
18
48
1
60
0
100
AcDbLine
10
19.26402
20
4.919319
30
0
11
19.198546
21
11.559604
31
0
39
0
210
0
220
0
230
1
0
LINE
5
E4
100
AcDbEntity
8
1
62
256
6
ByLayer
370
18
48
1
60
0
100
AcDbLine
10
38.053232
20
-25.588396
30
0
11
37.353776
21
-25.383832
31
0
39
0
210
0
220
0
230
1
0
LINE
5
E5
100
AcDbEntity
8
1
62
256
6
ByLayer
370
18
48
1
60
0
100
AcDbLine
10
24.074496
20
-34.429714
30
0
11
24.074496
21
-35.316004
31
0
39
0
210
0
220
0
230
1
0
LINE
5
E6
100
AcDbEntity
8
1
62
256
6
ByLayer
370
18
48
1
60
0
100
AcDbLine
10
19.353809
20
14.909507
30
0
11
19.613387
21
15.734715
31
0
39
0
210
0
220
0
230
1
0
LINE
5
E7
100
AcDbEntity
8
1
62
256
6
ByLayer
370
18
48
1
60
0
100
AcDbLine
10
44.803487
20
-13.15365
30
0
11
56.20911
21
-31.785489
31
0
39
0
210
0
220
0
230
1
0
LINE
5
E8
100
AcDbEntity
8
1
62
256
6
ByLayer
370
18
48
1
60
0
100
AcDbLine
10
13.894338
20
-9.869413
30
0
11
13.894338
21
-29.913955
31
0
39
0
210
0
220
0
230
1
0
LINE
5
E9
100
AcDbEntity
8
1
62
256
6
ByLayer
370
18
48
1
60
0
100
AcDbLine
10
24.074496
20
-34.429714
30
0
11
26.75018
21
-31.683414
31
0
39
0
210
0
220
0
230
1
0
LINE
5
EA
100
AcDbEntity
8
1
62
256
6
ByLayer
370
18
48
1
60
0
100
AcDbLine
10
36.302795
20
-21.87869
30
0
11
44.803487
21
-13.15365
31
0
39
0
210
0
220
0
230
1
0
LINE
5
EB
100
AcDbEntity
8
1
62
256
6
ByLayer
370
18
48
1
60
0
100
AcDbLine
10
19.911507
20
27.509049
30
0
11
19.519149
21
28.149992
31
0
39
0
210
0
220
0
230
1
0
LINE
5
EC
100
AcDbEntity
8
1
62
256
6
ByLayer
370
18
48
1
60
0
100
AcDbLine
10
26.75018
20
-31.683414
30
0
11
28.389772
21
-26.077255
31
0
39
0
210
0
220
0
230
1
0
LINE
5
ED
100
AcDbEntity
8
1
62
256
6
ByLayer
370
18
48
1
60
0
100
AcDbLine
10
19.874726
20
4.23327
30
0
11
19.26402
21
4.919319
31
0
39
0
210
0
220
0
230
1
0
LINE
5
EE
100
AcDbEntity
8
1
62
256
6
ByLayer
370
18
48
1
60
0
100
AcDbLine
10
13.461325
20
30.080593
30
0
11
13.461325
21
21.369494
31
0
39
0
210
0
220
0
230
1
0
LINE
5
EF
100
AcDbEntity
8
1
62
256
6
ByLayer
370
18
48
1
60
0
100
AcDbLine
10
44.803487
20
-13.15365
30
0
11
23.896286
21
20.999649
31
0
39
0
210
0
220
0
230
1
0
LINE
5
F0
100
AcDbEntity
8
1
62
256
6
ByLayer
370
18
48
1
60
0
100
AcDbLine
10
13.461325
20
-9.349221
30
0
11
13.461325
21
-30.080593
31
0
39
0
210
0
220
0
230
1
0
LINE
5
F1
100
AcDbEntity
8
1
62
256
6
ByLayer
370
18
48
1
60
0
100
AcDbLine
10
13.461325
20
9.349221
30
0
11
10.538675
21
9.349221
31
0
39
0
210
0
220
0
230
1
0
LINE
5
F2
100
AcDbEntity
8
1
62
256
6
ByLayer
370
18
48
1
60
0
100
AcDbLine
10
10.538675
20
19.43724
30
0
11
10.538675
21
9.349221
31
0
39
0
210
0
220
0
230
1
0
LINE
5
F3
100
AcDbEntity
8
1
62
256
6
ByLayer
370
18
48
1
60
0
100
AcDbLine
10
26.75018
20
-31.683414
30
0
11
25.289024
21
-38.178939
31
0
39
0
210
0
220
0
230
1
0
LINE
5
F4
100
AcDbEntity
8
1
62
256
6
ByLayer
370
18
48
1
60
0
100
AcDbLine
10
10.538675
20
-9.349221
30
0
11
10.538675
21
-30.080593
31
0
39
0
210
0
220
0
230
1
0
LINE
5
F5
100
AcDbEntity
8
1
62
256
6
ByLayer
370
18
48
1
60
0
100
AcDbLine
10
10.105662
20
20.132452
30
0
11
10.105662
21
9.869413
31
0
39
0
210
0
220
0
230
1
0
LINE
5
F6
100
AcDbEntity
8
1
62
256
6
ByLayer
370
18
48
1
60
0
100
AcDbLine
10
10.538675
20
30.080593
30
0
11
10.538675
21
21.369494
31
0
39
0
210
0
220
0
230
1
0
LINE
5
F7
100
AcDbEntity
8
1
62
256
6
ByLayer
370
18
48
1
60
0
100
AcDbLine
10
28.954444
20
-38.212354
30
0
11
31.424084
21
-27.233645
31
0
39
0
210
0
220
0
230
1
0
LINE
5
F8
100
AcDbEntity
8
SK1
62
256
6
ByLayer
370
18
48
1
60
0
100
AcDbLine
10
-1.307107
20
4.811013
30
0
11
-1.307107
21
-4.811013
31
0
39
0
210
0
220
0
230
1
0
LINE
5
F9
100
AcDbEntity
8
1
62
256
6
ByLayer
370
18
48
1
60
0
100
AcDbLine
10
56.364139
20
-31.113234
30
0
11
57.262709
21
-31.988699
31
0
39
0
210
0
220
0
230
1
0
LINE
5
FA
100
AcDbEntity
8
1
62
256
6
ByLayer
370
18
48
1
60
0
100
AcDbLine
10
50.709171
20
-44.293982
30
0
11
64.160205
21
-44.998921
31
0
39
0
210
0
220
0
230
1
0
LINE
5
FB
100
AcDbEntity
8
1
62
256
6
ByLayer
370
18
48
1
60
0
100
AcDbLine
10
49.187695
20
-43.048764
30
0
11
50.086266
21
-43.92423
31
0
39
0
210
0
220
0
230
1
0
LINE
5
FC
100
AcDbEntity
8
1
62
256
6
ByLayer
370
18
48
1
60
0
100
AcDbLine
10
64.885323
20
-43.792938
30
0
11
57.885615
21
-32.358452
31
0
39
0
210
0
220
0
230
1
0
LINE
5
FD
100
AcDbEntity
8
1
62
256
6
ByLayer
370
18
48
1
60
0
100
AcDbLine
10
55.958101
20
-31.095332
30
0
11
55.639599
21
-30.78502
31
0
39
0
210
0
220
0
230
1
0
LINE
5
FE
100
AcDbEntity
8
1
62
256
6
ByLayer
370
18
48
1
60
0
100
AcDbLine
10
32.169599
20
-28.992027
30
0
11
33.886743
21
-29.993862
31
0
39
0
210
0
220
0
230
1
0
LINE
5
FF
100
AcDbEntity
8
1
62
256
6
ByLayer
370
18
48
1
60
0
100
AcDbLine
10
39.010165
20
-39.897131
30
0
11
38.529266
21
-39.61656
31
0
39
0
210
0
220
0
230
1
0
LINE
5
100
100
AcDbEntity
8
1
62
256
6
ByLayer
370
18
48
1
60
0
100
AcDbLine
10
41.423755
20
-43.090339
30
0
11
43.190418
21
-43.232873
31
0
39
0
210
0
220
0
230
1
0
LINE
5
101
100
AcDbEntity
8
1
62
256
6
ByLayer
370
18
48
1
60
0
100
AcDbLine
10
44.072843
20
-29.033999
30
0
11
37.271296
21
-27.58423
31
0
39
0
210
0
220
0
230
1
0
LINE
5
102
100
AcDbEntity
8
1
62
256
6
ByLayer
370
18
48
1
60
0
100
AcDbLine
10
34.568829
20
-37.199811
30
0
11
33.17356
21
-36.904566
31
0
39
0
210
0
220
0
230
1
0
LINE
5
103
100
AcDbEntity
8
1
62
256
6
ByLayer
370
18
48
1
60
0
100
AcDbLine
10
34.130713
20
-41.545597
30
0
11
40.932261
21
-42.995365
31
0
39
0
210
0
220
0
230
1
0
LINE
5
104
100
AcDbEntity
8
1
62
256
6
ByLayer
370
18
48
1
60
0
100
AcDbLine
10
42.816335
20
-32.251911
30
0
11
40.825404
21
-31.827539
31
0
39
0
210
0
220
0
230
1
0
LINE
5
105
100
AcDbEntity
8
1
62
256
6
ByLayer
370
18
48
1
60
0
100
AcDbLine
10
33.776804
20
-40.884768
30
0
11
41.320239
21
-42.492672
31
0
39
0
210
0
220
0
230
1
0
LINE
5
106
100
AcDbEntity
8
1
62
256
6
ByLayer
370
18
48
1
60
0
100
AcDbLine
10
44.564338
20
-29.128972
30
0
11
46.331001
21
-29.271506
31
0
39
0
210
0
220
0
230
1
0
LINE
5
107
100
AcDbEntity
8
1
62
256
6
ByLayer
370
18
48
1
60
0
100
AcDbLine
10
31.73955
20
-36.142282
30
0
11
32.833068
21
-31.281082
31
0
39
0
210
0
220
0
230
1
0
LINE
5
108
100
AcDbEntity
8
1
62
256
6
ByLayer
370
18
48
1
60
0
100
AcDbLine
10
51.641462
20
-32.617728
30
0
11
46.331001
21
-29.271506
31
0
39
0
210
0
220
0
230
1
0
LINE
5
109
100
AcDbEntity
8
1
62
256
6
ByLayer
370
18
48
1
60
0
100
AcDbLine
10
33.042621
20
-31.184127
30
0
11
32.833068
21
-31.281082
31
0
39
0
210
0
220
0
230
1
0
LINE
5
10A
100
AcDbEntity
8
1
62
256
6
ByLayer
370
18
48
1
60
0
100
AcDbLine
10
52.756998
20
-34.008979
30
0
11
52.73311
21
-33.999631
31
0
39
0
210
0
220
0
230
1
0
LINE
5
10B
100
AcDbEntity
8
1
62
256
6
ByLayer
370
18
48
1
60
0
100
AcDbLine
10
43.190418
20
-43.232873
30
0
11
49.451496
21
-42.353156
31
0
39
0
210
0
220
0
230
1
0
LINE
5
10C
100
AcDbEntity
8
1
62
256
6
ByLayer
370
18
48
1
60
0
100
AcDbLine
10
31.308426
20
-36.001488
30
0
11
31.883492
21
-36.336999
31
0
39
0
210
0
220
0
230
1
0
LINE
5
10D
100
AcDbEntity
8
1
62
256
6
ByLayer
370
18
48
1
60
0
100
AcDbLine
10
31.233492
20
-35.847032
30
0
11
32.32701
21
-30.985832
31
0
39
0
210
0
220
0
230
1
0
LINE
5
10E
100
AcDbEntity
8
1
62
256
6
ByLayer
370
18
48
1
60
0
100
AcDbLine
10
52.73311
20
-33.999631
30
0
11
51.798053
21
-33.410434
31
0
39
0
210
0
220
0
230
1
0
LINE
5
10F
100
AcDbEntity
8
1
62
256
6
ByLayer
370
18
48
1
60
0
100
AcDbLine
10
34.988422
20
-37.444614
30
0
11
34.568829
21
-37.199811
31
0
39
0
210
0
220
0
230
1
0
LINE
5
110
100
AcDbEntity
8
1
62
256
6
ByLayer
370
18
48
1
60
0
100
AcDbLine
10
32.169599
20
-28.992027
30
0
11
30.341238
21
-37.119953
31
0
39
0
210
0
220
0
230
1
0
LINE
5
111
100
AcDbEntity
8
1
62
256
6
ByLayer
370
18
48
1
60
0
100
AcDbLine
10
41.001095
20
-40.321503
30
0
11
40.511905
21
-40.036095
31
0
39
0
210
0
220
0
230
1
0
LINE
5
112
100
AcDbEntity
8
1
62
256
6
ByLayer
370
18
48
1
60
0
100
AcDbLine
10
31.883492
20
-36.336999
30
0
11
33.042621
21
-31.184127
31
0
39
0
210
0
220
0
230
1
0
LINE
5
113
100
AcDbEntity
8
1
62
256
6
ByLayer
370
18
48
1
60
0
100
AcDbLine
10
32.058382
20
-38.121788
30
0
11
33.886743
21
-29.993862
31
0
39
0
210
0
220
0
230
1
0
LINE
5
114
100
AcDbEntity
8
1
62
256
6
ByLayer
370
18
48
1
60
0
100
AcDbLine
10
50.964676
20
-41.861152
30
0
11
50.990982
21
-41.859752
31
0
39
0
210
0
220
0
230
1
0
LINE
5
115
100
AcDbEntity
8
1
62
256
6
ByLayer
370
18
48
1
60
0
100
AcDbLine
10
32.467555
20
-30.848616
30
0
11
32.32701
21
-30.985832
31
0
39
0
210
0
220
0
230
1
0
LINE
5
116
100
AcDbEntity
8
1
62
256
6
ByLayer
370
18
48
1
60
0
100
AcDbLine
10
36.592392
20
-28.368155
30
0
11
44.135827
21
-29.976059
31
0
39
0
210
0
220
0
230
1
0
LINE
5
117
100
AcDbEntity
8
1
62
256
6
ByLayer
370
18
48
1
60
0
100
AcDbLine
10
31.308426
20
-36.001488
30
0
11
31.233492
21
-35.847032
31
0
39
0
210
0
220
0
230
1
0
LINE
5
118
100
AcDbEntity
8
1
62
256
6
ByLayer
370
18
48
1
60
0
100
AcDbLine
10
46.331001
20
-29.271506
30
0
11
38.014108
21
-27.498737
31
0
39
0
210
0
220
0
230
1
0
LINE
5
119
100
AcDbEntity
8
1
62
256
6
ByLayer
370
18
48
1
60
0
100
AcDbLine
10
31.233492
20
-35.847032
30
0
11
31.73955
21
-36.142282
31
0
39
0
210
0
220
0
230
1
0
LINE
5
11A
100
AcDbEntity
8
1
62
256
6
ByLayer
370
18
48
1
60
0
100
AcDbLine
10
49.862236
20
-42.016051
30
0
11
50.964676
21
-41.861152
31
0
39
0
210
0
220
0
230
1
0
LINE
5
11B
100
AcDbEntity
8
1
62
256
6
ByLayer
370
18
48
1
60
0
100
AcDbLine
10
34.310819
20
-31.848918
30
0
11
33.17356
21
-36.904566
31
0
39
0
210
0
220
0
230
1
0
LINE
5
11C
100
AcDbEntity
8
1
62
256
6
ByLayer
370
18
48
1
60
0
100
AcDbLine
10
32.467555
20
-30.848616
30
0
11
33.042621
21
-31.184127
31
0
39
0
210
0
220
0
230
1
0
LINE
5
11D
100
AcDbEntity
8
1
62
256
6
ByLayer
370
18
48
1
60
0
100
AcDbLine
10
31.883492
20
-36.336999
30
0
11
31.73955
21
-36.142282
31
0
39
0
210
0
220
0
230
1
0
LINE
5
11E
100
AcDbEntity
8
1
62
256
6
ByLayer
370
18
48
1
60
0
100
AcDbLine
10
30.341238
20
-37.119953
30
0
11
32.058382
21
-38.121788
31
0
39
0
210
0
220
0
230
1
0
LINE
5
11F
100
AcDbEntity
8
1
62
256
6
ByLayer
370
18
48
1
60
0
100
AcDbLine
10
36.178709
20
-26.926482
30
0
11
38.014108
21
-27.498737
31
0
39
0
210
0
220
0
230
1
0
LINE
5
120
100
AcDbEntity
8
1
62
256
6
ByLayer
370
18
48
1
60
0
100
AcDbLine
10
32.32701
20
-30.985832
30
0
11
32.833068
21
-31.281082
31
0
39
0
210
0
220
0
230
1
0
LINE
5
121
100
AcDbEntity
8
1
62
256
6
ByLayer
370
18
48
1
60
0
100
AcDbLine
10
39.010165
20
-39.897131
30
0
11
41.001095
21
-40.321503
31
0
39
0
210
0
220
0
230
1
0
LINE
5
122
100
AcDbEntity
8
1
62
256
6
ByLayer
370
18
48
1
60
0
100
AcDbLine
10
41.896662
20
-36.531868
30
0
11
42.150336
21
-36.779019
31
0
39
0
210
0
220
0
230
1
0
LINE
5
123
100
AcDbEntity
8
1
62
256
6
ByLayer
370
18
48
1
60
0
100
AcDbLine
10
40.095264
20
-37.115148
30
0
11
40.348938
21
-37.3623
31
0
39
0
210
0
220
0
230
1
0
LINE
5
124
100
AcDbEntity
8
1
62
256
6
ByLayer
370
18
48
1
60
0
100
AcDbLine
10
41.865317
20
-35.175309
30
0
11
42.118991
21
-35.422461
31
0
39
0
210
0
220
0
230
1
0
LINE
5
125
100
AcDbEntity
8
1
62
256
6
ByLayer
370
18
48
1
60
0
100
AcDbLine
10
41.450064
20
-37.021304
30
0
11
41.703738
21
-37.268455
31
0
39
0
210
0
220
0
230
1
0
MTEXT
5
211
100
AcDbEntity
8
SK6
62
256
6
ByLayer
370
18
48
1
60
0
100
AcDbMText
10
-3.125
20
40.533852
30
0
210
0
220
0
230
1
1
\W0.7336;C6-DDJNL-45065-15-2
40
3.5
41
0
44
1.084337
50
0
71
7
72
5
7
iso_b_vert
0
DIMENSION
5
222
100
AcDbEntity
8
2
62
256
6
ByLayer
370
13
48
1
60
0
100
AcDbDimension
2
DimnDraft3D1
10
65
20
-43.4125
30
0
11
52.711865
21
-56.703693
31
0
70
34
71
5
72
1
41
1
210
0
220
0
230
1
3
Standard
100
AcDb2LineAngularDimension
13
49.185265
23
-44.213873
33
0
14
64.164708
24
-44.998912
34
0
15
65
25
-45
35
0
16
49.44768
26
-59.801289
36
0
40
0
0
DIMENSION
5
237
100
AcDbEntity
8
2
62
256
6
ByLayer
370
13
48
1
60
0
100
AcDbDimension
2
DimnDraft3D2
10
65
20
-72.25
30
0
11
27.218421
21
-72.25
31
0
70
32
71
5
72
1
41
1
210
0
220
0
230
1
3
Standard
100
AcDbAlignedDimension
13
0
23
-33.5
33
0
14
65
24
-47
34
0
50
0
100
AcDbRotatedDimension
1001
ACAD
1000
DSTYLE
1002
{
1070
   279
1070
     0
1070
   172
1070
     1
1070
   173
1070
     1
1070
   340
1005
212
1070
    77
1070
     1
1070
    73
1070
     0
1070
   171
1070
     3
1070
   274
1070
     4
1070
   177
1070
     2
1070
   176
1070
     2
1070
   178
1070
     7
1070
    78
1070
     8
1070
    41
1041
3.175
1070
   147
1041
2.25
1070
    42
1041
2.0
1070
    44
1041
2.0
1070
   140
1041
4.5
1070
   343
1005
223
1070
   344
1005
223
1002
}
0
DIMENSION
5
246
100
AcDbEntity
8
SK2
62
256
6
ByLayer
370
13
48
1
60
0
100
AcDbDimension
2
DimnDraft3D3
10
-45.75
20
31.5
30
0
11
-45.75
21
-2.688158
31
0
70
32
71
5
72
1
41
1
210
0
220
0
230
1
3
Standard
100
AcDbAlignedDimension
13
-2
23
-31.5
33
0
14
-2
24
31.5
34
0
50
90
100
AcDbRotatedDimension
1001
ACAD
1000
DSTYLE
1002
{
1070
    74
1070
     0
1070
   279
1070
     0
1070
   172
1070
     1
1070
   173
1070
     1
1070
   340
1005
212
1070
    77
1070
     1
1070
    73
1070
     0
1070
   171
1070
     3
1070
   274
1070
     4
1070
   177
1070
     2
1070
   176
1070
     2
1070
   178
1070
     7
1070
    78
1070
     8
1070
    41
1041
3.175
1070
   147
1041
2.25
1070
    42
1041
2.0
1070
    44
1041
2.0
1070
   140
1041
4.5
1070
   343
1005
223
1070
   344
1005
223
1002
}
0
DIMENSION
5
254
100
AcDbEntity
8
2
62
256
6
ByLayer
370
13
48
1
60
0
100
AcDbDimension
2
DimnDraft3D4
10
87.25
20
-45
30
0
11
87.25
21
-28.018421
31
0
70
32
71
5
72
1
41
1
210
0
220
0
230
1
3
Standard
100
AcDbAlignedDimension
13
67
23
0
33
0
14
67
24
-45
34
0
50
90
100
AcDbRotatedDimension
1001
ACAD
1000
DSTYLE
1002
{
1070
    74
1070
     0
1070
   279
1070
     0
1070
   172
1070
     1
1070
   173
1070
     1
1070
   340
1005
212
1070
    77
1070
     1
1070
    73
1070
     0
1070
   171
1070
     3
1070
   274
1070
     4
1070
   177
1070
     2
1070
   176
1070
     2
1070
   178
1070
     7
1070
    78
1070
     8
1070
    41
1041
3.175
1070
   147
1041
2.25
1070
    42
1041
2.0
1070
    44
1041
2.0
1070
   140
1041
4.5
1070
   343
1005
223
1070
   344
1005
223
1002
}
0
ENDSEC
0
SECTION
2
OBJECTS
0
DICTIONARY
5
2bf
330
0
100
AcDbDictionary
280
0
281
1
3
ACAD_GROUP
350
2c0
3
ACAD_MLINESTYLE
350
2c1
0
DICTIONARY
5
2c0
330
0
100
AcDbDictionary
280
0
281
1
0
DICTIONARY
5
2c1
330
0
100
AcDbDictionary
280
0
281
1
3
Standard
350
18
0
MLINESTYLE
5
18
330
2c1
100
AcDbMlineStyle
2
Standard
70
0
3

62
256
51
90
52
90
71
2
49
-0.5
62
256
6
ByLayer
49
0.5
62
256
6
ByLayer
0
RASTERVARIABLES
5
2ad
330

100
AcDbRasterVariables
90
0
70
1
71
1
72
1
0
ENDSEC
0
EOF
