0
SECTION
2
HEADER
9
$ACADVER
1
AC1015
9
$DWGCODEPAGE
3
ANSI_1252
9
$HANDSEED
5
23e
9
$ANGBASE
50
0
9
$ANGDIR
70
0
9
$ATTMODE
70
1
9
$AUNITS
70
0
9
$AUPREC
70
0
9
$CECOLOR
62
256
9
$CELTSCALE
40
1
9
$CELTYPE
6
ByLayer
9
$CELWEIGHT
370
18
9
$CLAYER
8
0
9
$CMLJUST
70
0
9
$CMLSCALE
40
1
9
$CMLSTYLE
2
Standard
9
$DIMSTYLE
2
Standard
9
$TEXTSIZE
40
0.2
9
$TEXTSTYLE
7
Standard
9
$LUNITS
70
2
9
$LUPREC
70
4
9
$EXTNAMES
290
1
9
$INSUNITS
70
4
9
$LTSCALE
40
1
9
$LWDISPLAY
290
1
9
$PDMODE
70
0
9
$PDSIZE
40
0
9
$PLINEGEN
70
0
0
ENDSEC
0
SECTION
2
CLASSES
0
CLASS
1
RASTERVARIABLES
2
AcDbRasterVariables
3
ISM
90
0
280
0
281
0
0
ENDSEC
0
SECTION
2
TABLES
0
TABLE
2
VPORT
5
234
100
AcDbSymbolTable
0
VPORT
5
1
100
AcDbSymbolTableRecord
100
AcDbViewportTableRecord
2
*Active
70
0
10
0
20
0
11
1
21
1
12
-1
22
1
13
0
23
0
14
0.5
24
0.5
15
10
25
10
16
0
26
0
36
1
17
0
27
0
37
0
0
ENDTAB
0
TABLE
2
LTYPE
5
235
100
AcDbSymbolTable
0
LTYPE
5
14
100
AcDbSymbolTableRecord
100
AcDbLinetypeTableRecord
70
0
2
ByBlock
3

72
65
73
0
40
0
0
LTYPE
5
15
100
AcDbSymbolTableRecord
100
AcDbLinetypeTableRecord
70
0
2
ByLayer
3

72
65
73
0
40
0
0
LTYPE
5
16
100
AcDbSymbolTableRecord
100
AcDbLinetypeTableRecord
70
0
2
CONTINUOUS
3
Solid line
72
65
73
0
40
0
0
LTYPE
5
6A
100
AcDbSymbolTableRecord
100
AcDbLinetypeTableRecord
70
0
2
CENTER
3
____ _ ____ _ ____ _ ____
72
65
73
4
40
47.5
49
22
74
0
49
-8.5
74
0
49
8.5
74
0
49
-8.5
74
0
0
LTYPE
5
6B
100
AcDbSymbolTableRecord
100
AcDbLinetypeTableRecord
70
0
2
DASHED
3
__ __ __ __ __ __ __ __ __
72
65
73
2
40
25.72
49
12.86
74
0
49
-12.86
74
0
0
ENDTAB
0
TABLE
2
LAYER
5
236
100
AcDbSymbolTable
0
LAYER
5
10
100
AcDbSymbolTableRecord
100
AcDbLayerTableRecord
2
0
70
0
62
7
6
CONTINUOUS
290
1
370
-3
390
0
0
LAYER
5
6D
100
AcDbSymbolTableRecord
100
AcDbLayerTableRecord
2
80
70
0
62
-6
6
CONTINUOUS
290
1
370
-3
390
0
0
LAYER
5
6F
100
AcDbSymbolTableRecord
100
AcDbLayerTableRecord
2
81
70
0
62
-3
6
CONTINUOUS
290
1
370
-3
390
0
0
LAYER
5
71
100
AcDbSymbolTableRecord
100
AcDbLayerTableRecord
2
1
70
0
62
4
6
CONTINUOUS
290
1
370
-3
390
0
0
LAYER
5
DD
100
AcDbSymbolTableRecord
100
AcDbLayerTableRecord
2
4
70
0
62
-2
6
CENTER
290
1
370
-3
390
0
0
LAYER
5
195
100
AcDbSymbolTableRecord
100
AcDbLayerTableRecord
2
2
70
0
62
7
6
CONTINUOUS
290
1
370
-3
390
0
0
LAYER
5
220
100
AcDbSymbolTableRecord
100
AcDbLayerTableRecord
2
SK1
70
0
62
4
6
CONTINUOUS
290
1
370
-3
390
0
0
LAYER
5
221
100
AcDbSymbolTableRecord
100
AcDbLayerTableRecord
2
SK4
70
0
62
2
6
CENTER
290
1
370
-3
390
0
0
LAYER
5
222
100
AcDbSymbolTableRecord
100
AcDbLayerTableRecord
2
SK6
70
0
62
5
6
CONTINUOUS
290
1
370
-3
390
0
0
LAYER
5
223
100
AcDbSymbolTableRecord
100
AcDbLayerTableRecord
2
SK2
70
0
62
7
6
CONTINUOUS
290
1
370
-3
390
0
0
ENDTAB
0
TABLE
2
STYLE
5
237
100
AcDbSymbolTable
0
STYLE
5
11
100
AcDbSymbolTableRecord
100
AcDbTextStyleTableRecord
2
Standard
3
txt
70
0
71
0
40
0
41
1
42
0
50
0
0
STYLE
5
18F
100
AcDbSymbolTableRecord
100
AcDbTextStyleTableRecord
2
iso_b_vert
3
simplex.shx
70
0
71
0
40
0
41
1
42
0
50
0
0
STYLE
5
190
100
AcDbSymbolTableRecord
100
AcDbTextStyleTableRecord
2
DWGDirectTextStyle
3
simplex
70
0
71
0
40
0
41
1
42
0
50
0
0
STYLE
5
194
100
AcDbSymbolTableRecord
100
AcDbTextStyleTableRecord
2
blockfont
3
simplex.shx
70
0
71
0
40
0
41
1
42
0
50
0
0
ENDTAB
0
TABLE
2
DIMSTYLE
5
238
100
AcDbSymbolTable
100
AcDbDimStyleTable
0
DIMSTYLE
105
27
100
AcDbSymbolTableRecord
100
AcDbDimStyleTableRecord
2
Standard
70
0
3
<>
41
0.18
42
0.0625
44
0.18
140
0.18
147
0.09
73
0
74
0
77
1
271
2
275
0
278
52
280
0
340
11
0
ENDTAB
0
TABLE
2
VIEW
5
239
100
AcDbSymbolTable
0
ENDTAB
0
TABLE
2
UCS
5
23a
100
AcDbSymbolTable
0
ENDTAB
0
TABLE
2
APPID
5
23b
100
AcDbSymbolTable
0
APPID
5
12
100
AcDbSymbolTableRecord
100
AcDbRegAppTableRecord
2
ACAD
70
0
0
ENDTAB
0
TABLE
2
BLOCK_RECORD
5
23c
100
AcDbSymbolTable
0
BLOCK_RECORD
5
1F
100
AcDbSymbolTableRecord
100
AcDbBlockTableRecord
2
*Model_Space
340
0
70
0
0
BLOCK_RECORD
5
1B
100
AcDbSymbolTableRecord
100
AcDbBlockTableRecord
2
*Paper_Space
340
0
70
0
0
BLOCK_RECORD
5
23
100
AcDbSymbolTableRecord
100
AcDbBlockTableRecord
2
*Paper_Space0
340
0
70
0
0
BLOCK_RECORD
5
192
100
AcDbSymbolTableRecord
100
AcDbBlockTableRecord
2
DimnDraft3D1
340
0
70
0
0
BLOCK_RECORD
5
1A2
100
AcDbSymbolTableRecord
100
AcDbBlockTableRecord
2
_CLOSED
340
0
70
0
0
BLOCK_RECORD
5
1A9
100
AcDbSymbolTableRecord
100
AcDbBlockTableRecord
2
DimnDraft3D2
340
0
70
0
0
BLOCK_RECORD
5
1B9
100
AcDbSymbolTableRecord
100
AcDbBlockTableRecord
2
DimnDraft3D3
340
0
70
0
0
ENDTAB
0
ENDSEC
0
SECTION
2
BLOCKS
0
BLOCK
5
20
100
AcDbEntity
8
0
100
AcDbBlockBegin
2
*Model_Space
70
0
10
0
20
0
30
0
3
*Model_Space
0
ENDBLK
5
21
100
AcDbEntity
8
0
100
AcDbBlockEnd
0
BLOCK
5
1C
100
AcDbEntity
8
0
100
AcDbBlockBegin
2
*Paper_Space
70
0
10
0
20
0
30
0
3
*Paper_Space
0
ENDBLK
5
1D
100
AcDbEntity
8
0
100
AcDbBlockEnd
0
BLOCK
5
24
100
AcDbEntity
8
0
100
AcDbBlockBegin
2
*Paper_Space0
70
0
10
0
20
0
30
0
3
*Paper_Space0
0
ENDBLK
5
25
100
AcDbEntity
8
0
100
AcDbBlockEnd
0
BLOCK
5
19F
100
AcDbEntity
8
0
100
AcDbBlockBegin
2
DimnDraft3D1
70
0
10
0
20
0
30
0
3
DimnDraft3D1
0
MTEXT
5
193
100
AcDbEntity
8
2
62
256
6
ByLayer
370
18
48
1
60
0
100
AcDbMText
10
53.865031
20
-49.462215
30
0
210
0
220
0
230
1
1
\W1.1628;115
40
3
41
0
44
0.903614
50
0
71
7
72
5
7
blockfont
0
LINE
5
196
100
AcDbEntity
8
2
62
256
6
ByLayer
370
18
48
1
60
0
100
AcDbLine
10
115.436312
20
-2
30
0
11
115.436312
21
-51.993465
31
0
39
0
210
0
220
0
230
1
0
LINE
5
197
100
AcDbEntity
8
2
62
256
6
ByLayer
370
18
48
1
60
0
100
AcDbLine
10
0.3
20
-33.5
30
0
11
0.3
21
-51.993465
31
0
39
0
210
0
220
0
230
1
0
LINE
5
198
100
AcDbEntity
8
2
62
256
6
ByLayer
370
18
48
1
60
0
100
AcDbLine
10
115.436312
20
-49.993465
30
0
11
0.3
21
-49.993465
31
0
39
0
210
0
220
0
230
1
0
LINE
5
199
100
AcDbEntity
8
2
62
256
6
ByLayer
370
18
48
1
60
0
100
AcDbLine
10
115.436312
20
-49.993465
30
0
11
112.261314
21
-50.411461
31
0
39
0
210
0
220
0
230
1
0
LINE
5
19A
100
AcDbEntity
8
2
62
256
6
ByLayer
370
18
48
1
60
0
100
AcDbLine
10
115.436312
20
-49.993465
30
0
11
112.261311
21
-49.575468
31
0
39
0
210
0
220
0
230
1
0
LINE
5
19B
100
AcDbEntity
8
2
62
256
6
ByLayer
370
18
48
1
60
0
100
AcDbLine
10
112.261314
20
-50.411461
30
0
11
112.261311
21
-49.575468
31
0
39
0
210
0
220
0
230
1
0
LINE
5
19C
100
AcDbEntity
8
2
62
256
6
ByLayer
370
18
48
1
60
0
100
AcDbLine
10
0.3
20
-49.993465
30
0
11
3.474998
21
-49.575468
31
0
39
0
210
0
220
0
230
1
0
LINE
5
19D
100
AcDbEntity
8
2
62
256
6
ByLayer
370
18
48
1
60
0
100
AcDbLine
10
0.3
20
-49.993465
30
0
11
3.475002
21
-50.411461
31
0
39
0
210
0
220
0
230
1
0
LINE
5
19E
100
AcDbEntity
8
2
62
256
6
ByLayer
370
18
48
1
60
0
100
AcDbLine
10
3.474998
20
-49.575468
30
0
11
3.475002
21
-50.411461
31
0
39
0
210
0
220
0
230
1
0
ENDBLK
5
1A0
100
AcDbEntity
8
0
100
AcDbBlockEnd
0
BLOCK
5
1A3
100
AcDbEntity
8
0
100
AcDbBlockBegin
2
_CLOSED
70
0
10
0
20
0
30
0
3
_CLOSED
0
LINE
5
1A5
100
AcDbEntity
8
0
62
256
6
ByLayer
370
-2
48
1
60
0
100
AcDbLine
10
-1
20
0.166667
30
0
11
0
21
0
31
0
39
0
210
0
220
0
230
1
0
LINE
5
1A6
100
AcDbEntity
8
0
62
256
6
ByLayer
370
-2
48
1
60
0
100
AcDbLine
10
0
20
0
30
0
11
-1
21
-0.166667
31
0
39
0
210
0
220
0
230
1
0
LINE
5
1A7
100
AcDbEntity
8
0
62
256
6
ByLayer
370
-2
48
1
60
0
100
AcDbLine
10
-1
20
0.166667
30
0
11
-1
21
-0.166667
31
0
39
0
210
0
220
0
230
1
0
LINE
5
1A8
100
AcDbEntity
8
0
62
256
6
ByLayer
370
-2
48
1
60
0
100
AcDbLine
10
0
20
0
30
0
11
-1
21
0
31
0
39
0
210
0
220
0
230
1
0
ENDBLK
5
1A4
100
AcDbEntity
8
0
100
AcDbBlockEnd
0
BLOCK
5
1B6
100
AcDbEntity
8
0
100
AcDbBlockBegin
2
DimnDraft3D2
70
0
10
0
20
0
30
0
3
DimnDraft3D2
0
MTEXT
5
1AA
100
AcDbEntity
8
SK2
62
256
6
ByLayer
370
18
48
1
60
0
100
AcDbMText
10
-62.452748
20
-5.345313
30
0
210
0
220
0
230
1
1
%%c
40
3
41
0
44
1.084337
50
90
71
7
72
5
7
iso_b_vert
0
MTEXT
5
1AC
100
AcDbEntity
8
SK2
62
256
6
ByLayer
370
18
48
1
60
0
100
AcDbMText
10
-62.233998
20
2.13125
30
0
210
0
220
0
230
1
1
\W1.1795;63
40
3
41
0
44
0.903614
50
90
71
7
72
5
7
blockfont
0
LINE
5
1AD
100
AcDbEntity
8
SK2
62
256
6
ByLayer
370
18
48
1
60
0
100
AcDbLine
10
-1.7
20
-31.5
30
0
11
-62.952748
21
-31.5
31
0
39
0
210
0
220
0
230
1
0
LINE
5
1AE
100
AcDbEntity
8
SK2
62
256
6
ByLayer
370
18
48
1
60
0
100
AcDbLine
10
-1.7
20
31.5
30
0
11
-62.952748
21
31.5
31
0
39
0
210
0
220
0
230
1
0
LINE
5
1AF
100
AcDbEntity
8
SK2
62
256
6
ByLayer
370
18
48
1
60
0
100
AcDbLine
10
-60.952748
20
-31.5
30
0
11
-60.952748
21
31.5
31
0
39
0
210
0
220
0
230
1
0
LINE
5
1B0
100
AcDbEntity
8
SK2
62
256
6
ByLayer
370
18
48
1
60
0
100
AcDbLine
10
-60.952748
20
-31.5
30
0
11
-61.370745
21
-28.325002
31
0
39
0
210
0
220
0
230
1
0
LINE
5
1B1
100
AcDbEntity
8
SK2
62
256
6
ByLayer
370
18
48
1
60
0
100
AcDbLine
10
-60.952748
20
-31.5
30
0
11
-60.534752
21
-28.324998
31
0
39
0
210
0
220
0
230
1
0
LINE
5
1B2
100
AcDbEntity
8
SK2
62
256
6
ByLayer
370
18
48
1
60
0
100
AcDbLine
10
-61.370745
20
-28.325002
30
0
11
-60.534752
21
-28.324998
31
0
39
0
210
0
220
0
230
1
0
LINE
5
1B3
100
AcDbEntity
8
SK2
62
256
6
ByLayer
370
18
48
1
60
0
100
AcDbLine
10
-60.952748
20
31.5
30
0
11
-60.534752
21
28.325002
31
0
39
0
210
0
220
0
230
1
0
LINE
5
1B4
100
AcDbEntity
8
SK2
62
256
6
ByLayer
370
18
48
1
60
0
100
AcDbLine
10
-60.952748
20
31.5
30
0
11
-61.370745
21
28.324998
31
0
39
0
210
0
220
0
230
1
0
LINE
5
1B5
100
AcDbEntity
8
SK2
62
256
6
ByLayer
370
18
48
1
60
0
100
AcDbLine
10
-60.534752
20
28.325002
30
0
11
-61.370745
21
28.324998
31
0
39
0
210
0
220
0
230
1
0
ENDBLK
5
1B7
100
AcDbEntity
8
0
100
AcDbBlockEnd
0
BLOCK
5
1C4
100
AcDbEntity
8
0
100
AcDbBlockBegin
2
DimnDraft3D3
70
0
10
0
20
0
30
0
3
DimnDraft3D3
0
MTEXT
5
1BA
100
AcDbEntity
8
2
62
256
6
ByLayer
370
18
48
1
60
0
100
AcDbMText
10
95.758623
20
21.350604
30
0
210
0
220
0
230
1
1
\W1.4382;49%%d41'
40
3
41
0
44
0.903614
50
25.3235630627388
71
7
72
5
7
blockfont
0
LINE
5
1BB
100
AcDbEntity
8
2
62
256
6
ByLayer
370
18
48
1
60
0
100
AcDbLine
10
115.436312
20
2
30
0
11
115.436312
21
29.1856
31
0
39
0
210
0
220
0
230
1
0
LINE
5
1BC
100
AcDbEntity
8
2
62
256
6
ByLayer
370
18
48
1
60
0
100
AcDbLine
10
104.644504
20
9.154889
30
0
11
93.180198
21
18.880271
31
0
39
0
210
0
220
0
230
1
0
ARC
5
1BD
100
AcDbEntity
8
2
62
256
6
ByLayer
370
18
48
1
60
0
100
AcDbCircle
39
0
10
115.436312
20
0
30
0
40
27.1856003762497
210
0
220
0
230
1
100
AcDbArc
50
90
51
139.691446
0
LINE
5
1BE
100
AcDbEntity
8
2
62
256
6
ByLayer
370
18
48
1
60
0
100
AcDbLine
10
115.436312
20
27.1856
30
0
11
112.274853
21
26.675198
31
0
39
0
210
0
220
0
230
1
0
LINE
5
1BF
100
AcDbEntity
8
2
62
256
6
ByLayer
370
18
48
1
60
0
100
AcDbLine
10
115.436312
20
27.1856
30
0
11
112.250472
21
27.510836
31
0
39
0
210
0
220
0
230
1
0
LINE
5
1C0
100
AcDbEntity
8
2
62
256
6
ByLayer
370
18
48
1
60
0
100
AcDbLine
10
112.274853
20
26.675198
30
0
11
112.250472
21
27.510836
31
0
39
0
210
0
220
0
230
1
0
LINE
5
1C1
100
AcDbEntity
8
2
62
256
6
ByLayer
370
18
48
1
60
0
100
AcDbLine
10
94.705341
20
17.586464
30
0
11
96.518255
21
20.226289
31
0
39
0
210
0
220
0
230
1
0
LINE
5
1C2
100
AcDbEntity
8
2
62
256
6
ByLayer
370
18
48
1
60
0
100
AcDbLine
10
94.705341
20
17.586464
30
0
11
97.139721
21
19.667124
31
0
39
0
210
0
220
0
230
1
0
LINE
5
1C3
100
AcDbEntity
8
2
62
256
6
ByLayer
370
18
48
1
60
0
100
AcDbLine
10
96.518255
20
20.226289
30
0
11
97.139721
21
19.667124
31
0
39
0
210
0
220
0
230
1
0
ENDBLK
5
1C5
100
AcDbEntity
8
0
100
AcDbBlockEnd
0
ENDSEC
0
SECTION
2
ENTITIES
0
ARC
5
E2
100
AcDbEntity
8
1
62
256
6
ByLayer
370
18
48
1
60
0
100
AcDbCircle
39
0
10
-46.312177
20
-14.678898
30
0
40
4.99999999998676
210
0
220
0
230
-1
100
AcDbArc
50
205
51
225.208181
0
ELLIPSE
5
E3
100
AcDbEntity
8
1
62
256
6
ByLayer
370
18
48
1
60
0
100
AcDbEllipse
10
84.420666
20
-156.095327
30
0
11
139.356864432019
21
1.40839489788817E-13
31
0
210
0
220
0
230
-1
40
1
41
-1.81977941435199
42
-1.79273676223825
0
ELLIPSE
5
E4
100
AcDbEntity
8
1
62
256
6
ByLayer
370
18
48
1
60
0
100
AcDbEllipse
10
97.259808
20
-2.257384
30
0
11
-1.4667269823452E-16
21
2.3954260530612
31
0
210
0
220
0
230
-1
40
0.989133
41
-2.87326417716312
42
-2.49439094448811
0
ELLIPSE
5
E5
100
AcDbEntity
8
1
62
256
6
ByLayer
370
18
48
1
60
0
100
AcDbEllipse
10
97.313396
20
-2.300598
30
0
11
-1.45053277866003E-16
21
2.36897803793434
31
0
210
0
220
0
230
-1
40
0.989133
41
2.44346095279356
42
3.06322861112951
0
ELLIPSE
5
E6
100
AcDbEntity
8
1
62
256
6
ByLayer
370
18
48
1
60
0
100
AcDbEllipse
10
97.313396
20
-2.300598
30
0
11
-1.45053277865879E-16
21
2.36897803793231
31
0
210
0
220
0
230
-1
40
0.989133
41
3.06322861112938
42
-2.84637372806547
0
ELLIPSE
5
E7
100
AcDbEntity
8
1
62
256
6
ByLayer
370
18
48
1
60
0
100
AcDbEllipse
10
95.67996
20
-2.300598
30
0
11
-1.52968922330185E-16
21
2.49825459181591
31
0
210
0
220
0
230
-1
40
0.989133
41
2.44346095277737
42
2.72268201890177
0
ELLIPSE
5
E8
100
AcDbEntity
8
1
62
256
6
ByLayer
370
18
48
1
60
0
100
AcDbEllipse
10
95.657906
20
-2.300598
30
0
11
-1.43784374698276E-16
21
2.34825459217127
31
0
210
0
220
0
230
-1
40
0.989133
41
2.48508052112892
42
2.79388512643866
0
ELLIPSE
5
E9
100
AcDbEntity
8
1
62
256
6
ByLayer
370
18
48
1
60
0
100
AcDbEllipse
10
46.312177
20
-14.678898
30
0
11
2.96960315013599
21
-4.02261812898093
31
0
210
0
220
0
230
-1
40
1
41
-1.59678335964945
42
-1.54573819999564
0
ELLIPSE
5
EA
100
AcDbEntity
8
1
62
256
6
ByLayer
370
18
48
1
60
0
100
AcDbEllipse
10
105.66482
20
7.252843
30
0
11
-4.86168722461415E-17
21
0.793999999990088
31
0
210
0
220
0
230
-1
40
0.989133
41
0
42
0.698131700804575
0
ELLIPSE
5
EB
100
AcDbEntity
8
1
62
256
6
ByLayer
370
18
48
1
60
0
100
AcDbEllipse
10
114.214491
20
0
30
0
11
-4.86168722467472E-17
21
0.79399999999998
31
0
210
0
220
0
230
-1
40
0.989133
41
0.698131700799985
42
2.44346095279433
0
ELLIPSE
5
EC
100
AcDbEntity
8
1
62
256
6
ByLayer
370
18
48
1
60
0
100
AcDbEllipse
10
105.66482
20
-7.252843
30
0
11
-4.8616872246205E-17
21
0.793999999991125
31
0
210
0
220
0
230
-1
40
0.989133
41
3.14159265358979
42
-2.44346095278569
0
ELLIPSE
5
ED
100
AcDbEntity
8
1
62
256
6
ByLayer
370
18
48
1
60
0
100
AcDbEllipse
10
105.66482
20
-7.252843
30
0
11
-4.86168722463281E-17
21
0.793999999993136
31
0
210
0
220
0
230
-1
40
0.989133
41
2.44346095279115
42
3.14159265358979
0
ELLIPSE
5
EE
100
AcDbEntity
8
1
62
256
6
ByLayer
370
18
48
1
60
0
100
AcDbEllipse
10
105.66482
20
7.252843
30
0
11
-4.8616872246708E-17
21
0.79399999999934
31
0
210
0
220
0
230
-1
40
0.989133
41
-0.69813170079579
42
0
0
ELLIPSE
5
EF
100
AcDbEntity
8
1
62
256
6
ByLayer
370
18
48
1
60
0
100
AcDbEllipse
10
85.539625
20
1.222709
30
0
11
0.623260732910899
21
-1.90040681402977
31
0
210
0
220
0
230
-1
40
0.766673
41
0.643188476859625
42
2.05586397111934
0
ELLIPSE
5
F0
100
AcDbEntity
8
1
62
256
6
ByLayer
370
18
48
1
60
0
100
AcDbEllipse
10
90.046307
20
6.986388
30
0
11
5.31644254440019
21
-1.40905594954645
31
0
210
0
220
0
230
-1
40
0.038053
41
-2.41668688982806
42
-1.97491915052445
0
ELLIPSE
5
F1
100
AcDbEntity
8
1
62
256
6
ByLayer
370
18
48
1
60
0
100
AcDbEllipse
10
88.715074
20
1.963574
30
0
11
5.31644254427691
21
-1.40905594951018
31
0
210
0
220
0
230
-1
40
0.038053
41
-2.41668688982256
42
-1.97491915051145
0
ELLIPSE
5
F2
100
AcDbEntity
8
1
62
256
6
ByLayer
370
18
48
1
60
0
100
AcDbEllipse
10
87.693421
20
9.349096
30
0
11
1.36862492693314
21
1.45837780063321
31
0
210
0
220
0
230
-1
40
0.791047
41
-1.95141721193875
42
-0.538741717679618
0
ELLIPSE
5
F3
100
AcDbEntity
8
1
62
256
6
ByLayer
370
18
48
1
60
0
100
AcDbEllipse
10
88.323717
20
10.678262
30
0
11
0.0827603217818793
21
2.99885823676724
31
0
210
0
220
0
230
-1
40
0.986504
41
-3.05077074669576
42
-2.90704943756626
0
ELLIPSE
5
F4
100
AcDbEntity
8
1
62
256
6
ByLayer
370
18
48
1
60
0
100
AcDbEllipse
10
91.12539
20
4.118672
30
0
11
0.114485169308067
21
4.14842056798737
31
0
210
0
220
0
230
-1
40
0.986504
41
0.112956673496195
42
0.234543202158441
0
ELLIPSE
5
F5
100
AcDbEntity
8
1
62
256
6
ByLayer
370
18
48
1
60
0
100
AcDbEllipse
10
93.078461
20
3.588174
30
0
11
0.114485119744559
21
4.14842056177495
31
0
210
0
220
0
230
-1
40
0.986504
41
0.234543214109317
42
-3.08095102315417
0
ELLIPSE
5
F6
100
AcDbEntity
8
1
62
256
6
ByLayer
370
18
48
1
60
0
100
AcDbEllipse
10
92.644153
20
3.778758
30
0
11
-2.4492127077518E-16
21
4.00000000017482
31
0
210
0
220
0
230
-1
40
0.989133
41
0
42
0.261799387795642
0
ELLIPSE
5
F7
100
AcDbEntity
8
1
62
256
6
ByLayer
370
18
48
1
60
0
100
AcDbEllipse
10
92.399217
20
3.778758
30
0
11
-2.44921270764475E-16
21
4
31
0
210
0
220
0
230
-1
40
0.989133
41
3.14159265358979
42
-2.24484073350127E-16
0
ELLIPSE
5
F8
100
AcDbEntity
8
1
62
256
6
ByLayer
370
18
48
1
60
0
100
AcDbEllipse
10
92.644153
20
3.778758
30
0
11
-2.44921270764476E-16
21
4.00000000000001
31
0
210
0
220
0
230
-1
40
0.989133
41
0.26179938780142
42
3.14159265358979
0
ELLIPSE
5
F9
100
AcDbEntity
8
1
62
256
6
ByLayer
370
18
48
1
60
0
100
AcDbEllipse
10
92.644153
20
3.778758
30
0
11
-2.44921270764475E-16
21
4
31
0
210
0
220
0
230
-1
40
0.989133
41
3.14159265358979
42
-2.24484073350127E-16
0
ELLIPSE
5
FA
100
AcDbEntity
8
1
62
256
6
ByLayer
370
18
48
1
60
0
100
AcDbEllipse
10
-2.347154
20
0
30
0
11
14.7536831606562
21
31.093254915581
31
0
210
0
220
0
230
-1
40
0.341999
41
0.157806186645427
42
1.09123958575283
0
ELLIPSE
5
FB
100
AcDbEntity
8
1
62
256
6
ByLayer
370
18
48
1
60
0
100
AcDbEllipse
10
26.347154
20
0
30
0
11
14.753683160657
21
-31.0932549155819
31
0
210
0
220
0
230
-1
40
0.341999
41
2.05035306783699
42
2.98378646694437
0
ELLIPSE
5
FC
100
AcDbEntity
8
1
62
256
6
ByLayer
370
18
48
1
60
0
100
AcDbEllipse
10
-2.347154
20
0
30
0
11
14.7536831606571
21
-31.0932549155821
31
0
210
0
220
0
230
-1
40
0.341999
41
-1.0912395857528
42
-0.157806186645425
0
ELLIPSE
5
FD
100
AcDbEntity
8
1
62
256
6
ByLayer
370
18
48
1
60
0
100
AcDbEllipse
10
26.347154
20
0
30
0
11
14.7536831606552
21
31.0932549155797
31
0
210
0
220
0
230
-1
40
0.341999
41
-2.98378646694436
42
-2.05035306783693
0
ELLIPSE
5
FE
100
AcDbEntity
8
1
62
256
6
ByLayer
370
18
48
1
60
0
100
AcDbEllipse
10
80.315753
20
-2.444627
30
0
11
5.39641008348614
21
-1.49477524226907
31
0
210
0
220
0
230
-1
40
0.713797
41
-0.00795098044433607
42
0.681733825522605
0
ELLIPSE
5
FF
100
AcDbEntity
8
1
62
256
6
ByLayer
370
18
48
1
60
0
100
AcDbEllipse
10
84.420666
20
-156.095333
30
0
11
-8.53286529488907E-15
21
139.356867915234
31
0
210
0
220
0
230
-1
40
1
41
-0.209972243814068
42
-0.174532924876479
0
ELLIPSE
5
100
100
AcDbEntity
8
1
62
256
6
ByLayer
370
18
48
1
60
0
100
AcDbEllipse
10
84.420666
20
156.095339
30
0
11
-8.5328656801468E-15
21
139.356874207178
31
0
210
0
220
0
230
-1
40
1
41
-2.96705973242953
42
-2.9316204143378
0
ELLIPSE
5
101
100
AcDbEntity
8
1
62
256
6
ByLayer
370
18
48
1
60
0
100
AcDbEllipse
10
90.608405
20
9.107213
30
0
11
5.26622486210907
21
-1.59799038318261
31
0
210
0
220
0
230
-1
40
0.199422
41
2.52996162105164
42
2.5829539260877
0
ELLIPSE
5
102
100
AcDbEntity
8
1
62
256
6
ByLayer
370
18
48
1
60
0
100
AcDbEllipse
10
88.152976
20
-0.157251
30
0
11
5.36820883221608
21
-1.21262868651846
31
0
210
0
220
0
230
-1
40
0.275422
41
-2.57986988348251
42
-2.52687757933107
0
ELLIPSE
5
103
100
AcDbEntity
8
1
62
256
6
ByLayer
370
18
48
1
60
0
100
AcDbEllipse
10
87.777871
20
-1.964515
30
0
11
3.43984588142779
21
-0.678126055626684
31
0
210
0
220
0
230
-1
40
0.410187
41
3.04937931220095
42
-2.51058788857745
0
ELLIPSE
5
104
100
AcDbEntity
8
1
62
256
6
ByLayer
370
18
48
1
60
0
100
AcDbEllipse
10
84.951306
20
1.151468
30
0
11
1.0289967869796
21
-2.8217884463912
31
0
210
0
220
0
230
-1
40
0.994205
41
1.13059273137894
42
2.18228179444277
0
ELLIPSE
5
105
100
AcDbEntity
8
1
62
256
6
ByLayer
370
18
48
1
60
0
100
AcDbEllipse
10
88.027663
20
0.781623
30
0
11
3.95593898328763
21
1.84284168751005
31
0
210
0
220
0
230
-1
40
0.518899
41
2.58989641328749
42
2.94951214664781
0
ELLIPSE
5
106
100
AcDbEntity
8
1
62
256
6
ByLayer
370
18
48
1
60
0
100
AcDbEllipse
10
91.191285
20
10.914478
30
0
11
3.32834289452046
21
-1.10082860276778
31
0
210
0
220
0
230
-1
40
0.334418
41
2.51685029923069
42
-3.04311690155164
0
ELLIPSE
5
107
100
AcDbEntity
8
1
62
256
6
ByLayer
370
18
48
1
60
0
100
AcDbEllipse
10
90.178117
20
8.8954
30
0
11
2.84896020839135
21
-2.94378699651666
31
0
210
0
220
0
230
-1
40
0.47999
41
-2.60782063759266
42
-2.46331861630838
0
ELLIPSE
5
108
100
AcDbEntity
8
1
62
256
6
ByLayer
370
18
48
1
60
0
100
AcDbEllipse
10
87.10176
20
9.265245
30
0
11
1.02899678691673
21
-2.82178844641163
31
0
210
0
220
0
230
-1
40
0.994205
41
2.18228179442087
42
-3.04921444969423
0
ELLIPSE
5
109
100
AcDbEntity
8
1
62
256
6
ByLayer
370
18
48
1
60
0
100
AcDbEllipse
10
90.178117
20
8.8954
30
0
11
2.84896020852131
21
-2.943786996807
31
0
210
0
220
0
230
-1
40
0.47999
41
-2.82293434969077
42
-2.60782063762135
0
ELLIPSE
5
10A
100
AcDbEntity
8
1
62
256
6
ByLayer
370
18
48
1
60
0
100
AcDbEllipse
10
106.206132
20
-0.02847
30
0
11
1.14068242154725
21
2.001030450472
31
0
210
0
220
0
230
-1
40
0.801505
41
1.40402174494215
42
2.25923307841885
0
ELLIPSE
5
10B
100
AcDbEntity
8
1
62
256
6
ByLayer
370
18
48
1
60
0
100
AcDbEllipse
10
106.206132
20
-0.02847
30
0
11
0.543808314535204
21
-2.15754229472332
31
0
210
0
220
0
230
-1
40
0.790958
41
-1.9674274128487
42
-1.11221607937059
0
POINT
5
6C
100
AcDbEntity
8
80
62
256
6
ByLayer
370
18
48
1
60
0
100
AcDbPoint
10
0
20
0
30
0
39
0
210
0
220
0
230
1
50
360
0
POINT
5
6E
100
AcDbEntity
8
81
62
256
6
ByLayer
370
18
48
1
60
0
100
AcDbPoint
10
115.436312
20
0
30
0
39
0
210
0
220
0
230
1
50
360
0
SPLINE
5
10C
100
AcDbEntity
8
1
62
256
6
ByLayer
370
18
48
1
60
0
100
AcDbSpline
70
4
71
3
72
12
73
8
40
0
40
0
40
0
40
0
40
0.268812720709513
40
0.597605301872775
40
0.761234284787717
40
0.8961435036046
40
1
40
1
40
1
40
1
41
1
10
13.8943375672974
20
29.9139548464691
30
0
41
1
10
13.8789102783285
20
29.9344364341763
30
0
41
1
10
13.831605345163
20
29.9775637976282
30
0
41
1
10
13.7433941200963
20
30.0291632435093
30
0
41
1
10
13.634722007306
20
30.0627691562056
30
0
41
1
10
13.5458378558719
20
30.0777080286645
30
0
41
1
10
13.4878204468283
20
30.0803887582689
30
0
41
1
10
13.4613248654052
20
30.0805927603169
30
0
0
SPLINE
5
10D
100
AcDbEntity
8
1
62
256
6
ByLayer
370
18
48
1
60
0
100
AcDbSpline
70
4
71
3
72
13
73
9
40
0
40
0
40
0
40
0
40
0.0049544420437537
40
0.113866519425951
40
0.253452115449277
40
0.473535455387177
40
0.894568595884781
40
1
40
1
40
1
40
1
41
1
10
10.5386751345948
20
30.0805927603169
30
0
41
1
10
10.537450872409
20
30.0805926868535
30
0
41
1
10
10.5093477717048
20
30.0805290593979
30
0
41
1
10
10.4465510164428
20
30.0768838316285
30
0
41
1
10
10.3457330197466
20
30.058773313866
30
0
41
1
10
10.2197164028837
20
30.0138157030739
30
0
41
1
10
10.1481083506258
20
29.9607825352996
30
0
41
1
10
10.1120558984644
20
29.9218822348292
30
0
41
1
10
10.1056624327026
20
29.9139548464691
30
0
0
SPLINE
5
10E
100
AcDbEntity
8
1
62
256
6
ByLayer
370
18
48
1
60
0
100
AcDbSpline
70
4
71
3
72
12
73
8
40
0
40
0
40
0
40
0
40
0.268812720709383
40
0.597605301872752
40
0.761234284787682
40
0.896143503604589
40
1
40
1
40
1
40
1
41
1
10
10.1056624327026
20
9.86941261896613
30
0
41
1
10
10.1210897216714
20
9.80723406842817
30
0
41
1
10
10.168394654837
20
9.6752889522603
30
0
41
1
10
10.2566058799037
20
9.5134830974826
30
0
41
1
10
10.365277992694
20
9.40646168968887
30
0
41
1
10
10.454162144128
20
9.35849990178994
30
0
41
1
10
10.5121795531717
20
9.34989401091092
30
0
41
1
10
10.5386751345948
20
9.349221314525
30
0
0
SPLINE
5
10F
100
AcDbEntity
8
1
62
256
6
ByLayer
370
18
48
1
60
0
100
AcDbSpline
70
4
71
3
72
13
73
9
40
0
40
0
40
0
40
0
40
0.0049544420437757
40
0.113866519425986
40
0.253452115449317
40
0.473535455387234
40
0.894568595884855
40
1
40
1
40
1
40
1
41
1
10
13.4613248654052
20
9.34922131452502
30
0
41
1
10
13.462549127591
20
9.34922155870898
30
0
41
1
10
13.4906522282952
20
9.34942610523147
30
0
41
1
10
13.5534489835572
20
9.36116231186528
30
0
41
1
10
13.6542669802534
20
9.4192634065396
30
0
41
1
10
13.7802835971163
20
9.56214647013262
30
0
41
1
10
13.8518916493741
20
9.72702906428663
30
0
41
1
10
13.8879441015356
20
9.84537467551148
30
0
41
1
10
13.8943375672974
20
9.8694126189661
30
0
0
SPLINE
5
110
100
AcDbEntity
8
1
62
256
6
ByLayer
370
18
48
1
60
0
100
AcDbSpline
70
4
71
3
72
12
73
8
40
0
40
0
40
0
40
0
40
0.268812720709485
40
0.597605301872762
40
0.761234284787701
40
0.896143503604602
40
1
40
1
40
1
40
1
41
1
10
13.8943375672974
20
-9.8694126189661
30
0
41
1
10
13.8789102783285
20
-9.80723406842811
30
0
41
1
10
13.831605345163
20
-9.67528895226025
30
0
41
1
10
13.7433941200963
20
-9.51348309748256
30
0
41
1
10
13.634722007306
20
-9.40646168968886
30
0
41
1
10
13.5458378558719
20
-9.35849990178994
30
0
41
1
10
13.4878204468283
20
-9.34989401091093
30
0
41
1
10
13.4613248654052
20
-9.34922131452502
30
0
0
SPLINE
5
111
100
AcDbEntity
8
1
62
256
6
ByLayer
370
18
48
1
60
0
100
AcDbSpline
70
4
71
3
72
13
73
9
40
0
40
0
40
0
40
0
40
0.004954442043804
40
0.113866519425998
40
0.253452115449334
40
0.473535455387286
40
0.894568595884974
40
1
40
1
40
1
40
1
41
1
10
10.5386751345948
20
-9.34922131452503
30
0
41
1
10
10.537450872409
20
-9.34922155870898
30
0
41
1
10
10.5093477717048
20
-9.34942610523131
30
0
41
1
10
10.4465510164428
20
-9.36116231186536
30
0
41
1
10
10.3457330197465
20
-9.41926340653958
30
0
41
1
10
10.2197164028837
20
-9.5621464701327
30
0
41
1
10
10.1481083506258
20
-9.72702906428669
30
0
41
1
10
10.1120558984644
20
-9.84537467551155
30
0
41
1
10
10.1056624327026
20
-9.86941261896613
30
0
0
SPLINE
5
112
100
AcDbEntity
8
1
62
256
6
ByLayer
370
18
48
1
60
0
100
AcDbSpline
70
4
71
3
72
12
73
8
40
0
40
0
40
0
40
0
40
0.268812720709657
40
0.597605301872842
40
0.761234284787775
40
0.896143503604652
40
1
40
1
40
1
40
1
41
1
10
10.1056624327026
20
-29.9139548464691
30
0
41
1
10
10.1210897216715
20
-29.9344364341763
30
0
41
1
10
10.168394654837
20
-29.9775637976282
30
0
41
1
10
10.2566058799037
20
-30.0291632435092
30
0
41
1
10
10.365277992694
20
-30.0627691562057
30
0
41
1
10
10.4541621441281
20
-30.0777080286646
30
0
41
1
10
10.5121795531717
20
-30.0803887582689
30
0
41
1
10
10.5386751345948
20
-30.0805927603169
30
0
0
SPLINE
5
113
100
AcDbEntity
8
1
62
256
6
ByLayer
370
18
48
1
60
0
100
AcDbSpline
70
4
71
3
72
13
73
9
40
0
40
0
40
0
40
0
40
0.0049544420437973
40
0.113866519425997
40
0.253452115449332
40
0.473535455387268
40
0.89456859588492
40
1
40
1
40
1
40
1
41
1
10
13.4613248654052
20
-30.080592760317
30
0
41
1
10
13.462549127591
20
-30.0805926868535
30
0
41
1
10
13.4906522282952
20
-30.0805290593975
30
0
41
1
10
13.5534489835572
20
-30.0768838316288
30
0
41
1
10
13.6542669802534
20
-30.0587733138659
30
0
41
1
10
13.7802835971163
20
-30.013815703074
30
0
41
1
10
13.8518916493742
20
-29.9607825352996
30
0
41
1
10
13.8879441015356
20
-29.9218822348292
30
0
41
1
10
13.8943375672974
20
-29.9139548464691
30
0
0
SPLINE
5
114
100
AcDbEntity
8
1
62
256
6
ByLayer
370
18
48
1
60
0
100
AcDbSpline
70
4
71
3
72
27
73
23
40
0
40
0
40
0
40
0
40
0.018091853682672
40
0.0500202208258545
40
0.0820525780981261
40
0.114000130727899
40
0.154614927885274
40
0.19538360197649
40
0.236059836012035
40
0.280661568904623
40
0.325415892517323
40
0.37023311614159
40
0.414920892706633
40
0.476262394982911
40
0.537764196242904
40
0.599398972950928
40
0.661046357652525
40
0.72251030393924
40
0.791839502366769
40
0.861232334049506
40
0.93064446355156
40
1
40
1
40
1
40
1
41
1
10
22
20
-31.5
30
0
41
1
10
21.9999897414125
20
-31.5000016892006
30
0
41
1
10
22.0182802069158
20
-31.4908549139483
30
0
41
1
10
22.1336973696126
20
-31.4329782141221
30
0
41
1
10
22.3873207390532
20
-31.3064963926612
30
0
41
1
10
22.7847289511172
20
-31.1095881906057
30
0
41
1
10
23.3564560563648
20
-30.82888322053
30
0
41
1
10
24.112604202883
20
-30.4628352698975
30
0
41
1
10
25.0167072898033
20
-30.0321948937597
30
0
41
1
10
26.0626612742648
20
-29.5444687797659
30
0
41
1
10
27.2401183595951
20
-29.0081126876282
30
0
41
1
10
28.498935857955
20
-28.4486608939103
30
0
41
1
10
29.9876677988687
20
-27.8047668810996
30
0
41
1
10
31.7216990983988
20
-27.0820169916299
30
0
41
1
10
33.7117449217734
20
-26.2877482155866
30
0
41
1
10
35.7699883654362
20
-25.5021432408796
30
0
41
1
10
37.8795830184423
20
-24.7341191845341
30
0
41
1
10
40.1205644528485
20
-23.959480183166
30
0
41
1
10
42.4915070713219
20
-23.1876116205916
30
0
41
1
10
44.9922979362042
20
-22.4244522388598
30
0
41
1
10
47.5231662332686
20
-21.7034480965517
30
0
41
1
10
49.2255336077519
20
-21.2533001328173
30
0
41
1
10
50.0805521875507
20
-21.0357418681746
30
0
0
SPLINE
5
115
100
AcDbEntity
8
1
62
256
6
ByLayer
370
18
48
1
60
0
100
AcDbSpline
70
4
71
3
72
28
73
24
40
0
40
0
40
0
40
0
40
0.073970330641293
40
0.148074855373452
40
0.222179140734512
40
0.2961953244284
40
0.370091435178599
40
0.420379152533526
40
0.470889524857483
40
0.52143848367681
40
0.571894150398729
40
0.622188806988305
40
0.672332178396779
40
0.71379464466374
40
0.755313635798837
40
0.796732815349915
40
0.828129714346763
40
0.859655116291448
40
0.891143468404772
40
0.922489626931751
40
0.948311332917711
40
0.974183778677978
40
1
40
1
40
1
40
1
41
1
10
50.2562744352736
20
20.9911845718563
30
0
41
1
10
49.3394315435006
20
21.2233123878627
30
0
41
1
10
47.5137086968138
20
21.70508200538
30
0
41
1
10
44.800351358248
20
22.481083716445
30
0
41
1
10
42.1211056299772
20
23.305064079429
30
0
41
1
10
39.486912755026
20
24.1724846428461
30
0
41
1
10
37.1825719912428
20
24.9818429039553
30
0
41
1
10
35.1957500646373
20
25.7183594852322
30
0
41
1
10
33.5113478977517
20
26.3684534741329
30
0
41
1
10
31.8696734853074
20
27.0255159000315
30
0
41
1
10
30.2846315991888
20
27.6818979957526
30
0
41
1
10
28.770325346923
20
28.3296889078326
30
0
41
1
10
27.42230903127
20
28.9253253473277
30
0
41
1
10
26.2384303506951
20
29.4636638512855
30
0
41
1
10
25.2152894276923
20
29.9390130874555
30
0
41
1
10
24.36631118003
20
30.3413941262906
30
0
41
1
10
23.6828618527871
20
30.6705048187464
30
0
41
1
10
23.1443383705172
20
30.9328515571123
30
0
41
1
10
22.6948625247578
20
31.1540239652286
30
0
41
1
10
22.3670165017731
20
31.3167057540048
30
0
41
1
10
22.1514917693137
20
31.4241379090342
30
0
41
1
10
22.028058598182
20
31.4859113931134
30
0
41
1
10
22.000408976691
20
31.4997634337876
30
0
41
1
10
22
20
31.5
30
0
0
SPLINE
5
116
100
AcDbEntity
8
1
62
256
6
ByLayer
370
18
48
1
60
0
100
AcDbSpline
70
4
71
1
72
4
73
2
40
0
40
0
40
1
40
1
41
1
10
50.2562744352736
20
-16.8466166156425
30
0
41
1
10
49.7233705397285
20
-16.9531369519917
30
0
0
SPLINE
5
117
100
AcDbEntity
8
SK1
62
256
6
ByLayer
370
18
48
1
60
0
100
AcDbSpline
70
4
71
2
72
6
73
3
40
0
40
0
40
0
40
1
40
1
40
1
41
1
10
-0.200000000000089
20
-7.06635637915041
30
0
41
1
10
-0.0899644906540856
20
-6.84641559366603
30
0
41
1
10
-0.0214314355587748
20
-6.61014562576469
30
0
0
SPLINE
5
118
100
AcDbEntity
8
1
62
256
6
ByLayer
370
18
48
1
60
0
100
AcDbSpline
70
4
71
1
72
4
73
2
40
0
40
0
40
1
40
1
41
1
10
-0.0214314355587748
20
-6.61014562576469
30
0
41
1
10
-2.54E-14
20
-6.53762631735267
30
0
0
SPLINE
5
119
100
AcDbEntity
8
SK1
62
256
6
ByLayer
370
18
48
1
60
0
100
AcDbSpline
70
4
71
3
72
17
73
13
40
0
40
0
40
0
40
0
40
0.029854752779087
40
0.052578198006898
40
0.0702552594573811
40
0.0879570282206601
40
0.111562258438711
40
0.153224651801837
40
0.282447345849142
40
0.553767947019243
40
0.826225344353767
40
1
40
1
40
1
40
1
41
1
10
-0.400000000000049
20
-6.10423156158008
30
0
41
1
10
-0.394253616263357
20
-6.09797454756708
30
0
41
1
10
-0.382913537569244
20
-6.08923142505258
30
0
41
1
10
-0.364786670968263
20
-6.08123431234802
30
0
41
1
10
-0.348123200226277
20
-6.08048188623951
30
0
41
1
10
-0.331686692288053
20
-6.08578067628336
30
0
41
1
10
-0.312103115453588
20
-6.10063829425719
30
0
41
1
10
-0.278950759627466
20
-6.14757789301995
30
0
41
1
10
-0.24007511412596
20
-6.2708407343505
30
0
41
1
10
-0.210538570778153
20
-6.46014710085136
30
0
41
1
10
-0.202207076791492
20
-6.66173364401413
30
0
41
1
10
-0.199932550514477
20
-6.78606967214938
30
0
41
1
10
-0.200000000000062
20
-6.83438537300094
30
0
0
SPLINE
5
11A
100
AcDbEntity
8
SK1
62
256
6
ByLayer
370
18
48
1
60
0
100
AcDbSpline
70
4
71
3
72
17
73
13
40
0
40
0
40
0
40
0
40
0.360388834701788
40
0.519640600666493
40
0.678398917729666
40
0.77224150915227
40
0.82369902924244
40
0.861599276791067
40
0.89205449706247
40
0.92252697655475
40
0.965050194969279
40
1
40
1
40
1
40
1
41
1
10
-1.30710678118655
20
-4.69591747913022
30
0
41
1
10
-1.26951009656687
20
-4.92964404310758
30
0
41
1
10
-1.19176340545648
20
-5.2579422153627
30
0
41
1
10
-1.05845153787931
20
-5.67455265875979
30
0
41
1
10
-0.945912591166132
20
-5.91604105281959
30
0
41
1
10
-0.831518990177397
20
-6.07946520186086
30
0
41
1
10
-0.738555650587855
20
-6.16058876265616
30
0
41
1
10
-0.663094378710059
20
-6.19662231403713
30
0
41
1
10
-0.593007090783791
20
-6.20557486895365
30
0
41
1
10
-0.520694131435163
20
-6.19149467219484
30
0
41
1
10
-0.455543672786562
20
-6.1543043425645
30
0
41
1
10
-0.416205340513467
20
-6.12122792076277
30
0
41
1
10
-0.400000000000049
20
-6.10423156158008
30
0
0
SPLINE
5
11B
100
AcDbEntity
8
SK1
62
256
6
ByLayer
370
18
48
1
60
0
100
AcDbSpline
70
4
71
3
72
17
73
13
40
0
40
0
40
0
40
0
40
0.0428240807904625
40
0.0860264986202477
40
0.116365121966662
40
0.146702344469373
40
0.190290998791688
40
0.271171318917589
40
0.405589755792736
40
0.540658493132761
40
0.770235905399021
40
1
40
1
40
1
40
1
41
1
10
-0.400000000000049
20
6.10423197315534
30
0
41
1
10
-0.419811939807871
20
6.12545634712006
30
0
41
1
10
-0.464215810549312
20
6.16118054942612
30
0
41
1
10
-0.537404296379802
20
6.19762954520597
30
0
41
1
10
-0.611358310763095
20
6.20533675022223
30
0
41
1
10
-0.683800317523163
20
6.18970784507661
30
0
41
1
10
-0.776263428667178
20
6.13544055421007
30
0
41
1
10
-0.890570771917315
20
6.00617655880066
30
0
41
1
10
-1.00159332888066
20
5.80742857092608
30
0
41
1
10
-1.1159204496703
20
5.50690539843636
30
0
41
1
10
-1.22095392590831
20
5.13705997602487
30
0
41
1
10
-1.28227297420907
20
4.84440881641285
30
0
41
1
10
-1.30710678118655
20
4.69591515673877
30
0
0
SPLINE
5
11C
100
AcDbEntity
8
SK1
62
256
6
ByLayer
370
18
48
1
60
0
100
AcDbSpline
70
4
71
3
72
17
73
13
40
0
40
0
40
0
40
0
40
0.45763342484997
40
0.670274482964584
40
0.777135339777244
40
0.855324815689433
40
0.882088585193553
40
0.909057217927404
40
0.927027331559613
40
0.945054321714218
40
0.967246413769257
40
1
40
1
40
1
40
1
41
1
10
-0.200000000000049
20
6.83438539664966
30
0
41
1
10
-0.19628855547743
20
6.70659076258015
30
0
41
1
10
-0.206710872223508
20
6.51939672024761
30
0
41
1
10
-0.235891573374867
20
6.29989326841263
30
0
41
1
10
-0.264954443748575
20
6.18942720275304
30
0
41
1
10
-0.28928607679724
20
6.13229386341347
30
0
41
1
10
-0.312333470522279
20
6.10132427523637
30
0
41
1
10
-0.328516525282545
20
6.08745968733143
30
0
41
1
10
-0.345760184475283
20
6.08083833453206
30
0
41
1
10
-0.362547690295128
20
6.08071787621868
30
0
41
1
10
-0.381726963057776
20
6.08831704427054
30
0
41
1
10
-0.393691623598085
20
6.09726577368615
30
0
41
1
10
-0.400000000000049
20
6.10423197315534
30
0
0
SPLINE
5
11D
100
AcDbEntity
8
SK1
62
256
6
ByLayer
370
18
48
1
60
0
100
AcDbSpline
70
4
71
2
72
6
73
3
40
0
40
0
40
0
40
1
40
1
40
1
41
1
10
-2.51E-14
20
6.5376264469174
30
0
41
1
10
-0.0701685688190276
20
6.81436012170812
30
0
41
1
10
-0.200000000000397
20
7.0663565904932
30
0
0
SPLINE
5
11E
100
AcDbEntity
8
SK1
62
256
6
ByLayer
370
18
48
1
60
0
100
AcDbSpline
70
4
71
3
72
15
73
11
40
0
40
0
40
0
40
0
40
0.0836108230211186
40
0.147309200926625
40
0.196930826874219
40
0.246619311984024
40
0.313026806544703
40
0.43035444278017
40
0.794610576073829
40
1
40
1
40
1
40
1
41
1
10
-0.400000000000018
20
21.7861777489074
30
0
41
1
10
-0.394244317885623
20
21.7856203706681
30
0
41
1
10
-0.382886991987794
20
21.7855999177968
30
0
41
1
10
-0.364728794222036
20
21.7873615383898
30
0
41
1
10
-0.348034685444471
20
21.7909625150534
30
0
41
1
10
-0.331557272921129
20
21.7963186578609
30
0
41
1
10
-0.311911469661482
20
21.805229043221
30
0
41
1
10
-0.278607968463438
20
21.8266360793573
30
0
41
1
10
-0.257368649891121
20
21.8509530725891
30
0
41
1
10
-0.243618916637774
20
21.8694930798221
30
0
41
1
10
-0.239987680708264
20
21.8759237371008
30
0
0
SPLINE
5
11F
100
AcDbEntity
8
SK1
62
256
6
ByLayer
370
18
48
1
60
0
100
AcDbSpline
70
4
71
3
72
17
73
13
40
0
40
0
40
0
40
0
40
0.0580225012475266
40
0.118348644798807
40
0.239045605914979
40
0.359733859477783
40
0.420057331683398
40
0.540737207209985
40
0.661413446179411
40
0.7820870831716
40
0.891043037347454
40
1
40
1
40
1
40
1
41
1
10
-2.1999369715594
20
22.0201008059928
30
0
41
1
10
-2.19994111039233
20
22.0199534703522
30
0
41
1
10
-2.19994895187915
20
22.0110355151029
30
0
41
1
10
-2.1999620102708
20
21.956731982278
30
0
41
1
10
-2.19997487537995
20
21.8226368757698
30
0
41
1
10
-2.19998362821045
20
21.608226521278
30
0
41
1
10
-2.19999009566089
20
21.3379022336922
30
0
41
1
10
-2.19999459150205
20
21.0133950374225
30
0
41
1
10
-2.19999774058269
20
20.5423536268455
30
0
41
1
10
-2.19999929850849
20
20.0115636298903
30
0
41
1
10
-2.19999991154328
20
19.4324285463744
30
0
41
1
10
-2.20000003133561
20
19.0211973864701
30
0
41
1
10
-2.20000000000002
20
18.8057993596818
30
0
0
SPLINE
5
120
100
AcDbEntity
8
SK1
62
256
6
ByLayer
370
18
48
1
60
0
100
AcDbSpline
70
4
71
2
72
6
73
3
40
0
40
0
40
0
40
1
40
1
40
1
41
1
10
-2.19492488857411
20
22.0202267269672
30
0
41
1
10
-2.59746244428705
20
22.0101135822509
30
0
41
1
10
-3
20
22.0000004375346
30
0
0
SPLINE
5
121
100
AcDbEntity
8
SK1
62
256
6
ByLayer
370
18
48
1
60
0
100
AcDbSpline
70
4
71
2
72
6
73
3
40
0
40
0
40
0
40
1
40
1
40
1
41
1
10
-3
20
-22.0000004290441
30
0
41
1
10
-2.59746244428705
20
-22.0101135737565
30
0
41
1
10
-2.19492488857411
20
-22.0202267184689
30
0
0
SPLINE
5
122
100
AcDbEntity
8
SK1
62
256
6
ByLayer
370
18
48
1
60
0
100
AcDbSpline
70
4
71
3
72
17
73
13
40
0
40
0
40
0
40
0
40
0.110799964007611
40
0.221598844946521
40
0.401505990316325
40
0.491413094783591
40
0.581321314484382
40
0.67123094785544
40
0.761142399335357
40
0.851056197893279
40
0.940973209057597
40
1
40
1
40
1
40
1
41
1
10
-2.20000000000002
20
-18.8057994981526
30
0
41
1
10
-2.20000003309106
20
-19.0248486921952
30
0
41
1
10
-2.19999990898686
20
-19.4427097268097
30
0
41
1
10
-2.19999916148124
20
-20.1275845560134
30
0
41
1
10
-2.19999718027
20
-20.6829077492075
30
0
41
1
10
-2.19999322562031
20
-21.119223917934
30
0
41
1
10
-2.19998888046822
20
-21.4003821629167
30
0
41
1
10
-2.19998279000431
20
-21.6334064627361
30
0
41
1
10
-2.19997446616181
20
-21.8158350496213
30
0
41
1
10
-2.19996353755558
20
-21.9447098344506
30
0
41
1
10
-2.199951015391
20
-22.0085414009269
30
0
41
1
10
-2.19994116247006
20
-22.019913752436
30
0
41
1
10
-2.1999369706415
20
-22.020100797442
30
0
0
SPLINE
5
123
100
AcDbEntity
8
SK1
62
256
6
ByLayer
370
18
48
1
60
0
100
AcDbSpline
70
4
71
2
72
6
73
3
40
0
40
0
40
0
40
1
40
1
40
1
41
1
10
-3
20
22.0000004375346
30
0
41
1
10
-19.7502365839533
20
21.5791761834949
30
0
41
1
10
-36.5004731679067
20
21.1583519294552
30
0
0
SPLINE
5
124
100
AcDbEntity
8
SK1
62
256
6
ByLayer
370
18
48
1
60
0
100
AcDbSpline
70
4
71
2
72
6
73
3
40
0
40
0
40
0
40
1
40
1
40
1
41
1
10
-36.5004731679067
20
-21.1583519212896
30
0
41
1
10
-19.7502365839533
20
-21.5791761751668
30
0
41
1
10
-3
20
-22.0000004290441
30
0
0
SPLINE
5
125
100
AcDbEntity
8
SK1
62
256
6
ByLayer
370
18
48
1
60
0
100
AcDbSpline
70
4
71
3
72
13
73
9
40
0
40
0
40
0
40
0
40
0.239458034039711
40
0.368362242523283
40
0.500001719408281
40
0.631640907399732
40
0.760544321541723
40
1
40
1
40
1
40
1
41
1
10
-2
20
21.8251283317571
30
0
41
1
10
-2.02607218220657
20
21.8253815759776
30
0
41
1
10
-2.06363558166035
20
21.832499461233
30
0
41
1
10
-2.11047835037542
20
21.8567272581279
30
0
41
1
10
-2.14242263587786
20
21.8827049843058
30
0
41
1
10
-2.16840067179331
20
21.9146489043199
30
0
41
1
10
-2.1926287564505
20
21.9614911190379
30
0
41
1
10
-2.19974671976325
20
21.9990541435572
30
0
41
1
10
-2.2
20
22.0251260837646
30
0
0
SPLINE
5
126
100
AcDbEntity
8
SK1
62
256
6
ByLayer
370
18
48
1
60
0
100
AcDbSpline
70
4
71
3
72
13
73
9
40
0
40
0
40
0
40
0
40
0.23945567335882
40
0.368359087136603
40
0.499998275767161
40
0.631637753936879
40
0.760541963956581
40
1
40
1
40
1
40
1
41
1
10
-2.2
20
-22.0251260775077
30
0
41
1
10
-2.19974671959666
20
-21.9990541369823
30
0
41
1
10
-2.19262875626099
20
-21.9614911120955
30
0
41
1
10
-2.16840067169749
20
-21.9146488976998
30
0
41
1
10
-2.14242263580763
20
-21.8827049776713
30
0
41
1
10
-2.11047835033028
20
-21.8567272514908
30
0
41
1
10
-2.06363558177699
20
-21.8324994546095
30
0
41
1
10
-2.02607218225585
20
-21.8253815693237
30
0
41
1
10
-2
20
-21.8251283250689
30
0
0
SPLINE
5
127
100
AcDbEntity
8
SK1
62
256
6
ByLayer
370
18
48
1
60
0
100
AcDbSpline
70
4
71
3
72
17
73
13
40
0
40
0
40
0
40
0
40
0.16508119161326
40
0.248797061165656
40
0.332496679566274
40
0.415277825743901
40
0.498046968683714
40
0.583249585425344
40
0.668465384839874
40
0.750712143588915
40
0.8329741026578
40
1
40
1
40
1
40
1
41
1
10
-1.30710678118655
20
-4.69591747913022
30
0
41
1
10
-1.39798477932826
20
-4.20540076485722
30
0
41
1
10
-1.5186499290183
20
-3.45199087458013
30
0
41
1
10
-1.65120335434381
20
-2.41585133978331
30
0
41
1
10
-1.72812095010369
20
-1.62293542031028
30
0
41
1
10
-1.77718425553146
20
-0.822446580427079
30
0
41
1
10
-1.7952292395765
20
-0.0111379780860578
30
0
41
1
10
-1.77806664947628
20
0.808218120760724
30
0
41
1
10
-1.7284246349833
20
1.61975783719165
30
0
41
1
10
-1.65159875379369
20
2.41111733942193
30
0
41
1
10
-1.51984228358819
20
3.44452139763647
30
0
41
1
10
-1.39909887084114
20
4.1995995341867
30
0
41
1
10
-1.30710678118656
20
4.69591515673877
30
0
0
SPLINE
5
128
100
AcDbEntity
8
SK1
62
256
6
ByLayer
370
18
48
1
60
0
100
AcDbSpline
70
4
71
2
72
6
73
3
40
0
40
0
40
0
40
1
40
1
40
1
41
1
10
-2
20
-21.8251283250689
30
0
41
1
10
-1.20000000000001
20
-21.8251283250689
30
0
41
1
10
-0.400000000000019
20
-21.8251283250689
30
0
0
SPLINE
5
129
100
AcDbEntity
8
SK1
62
256
6
ByLayer
370
18
48
1
60
0
100
AcDbSpline
70
4
71
2
72
6
73
3
40
0
40
0
40
0
40
1
40
1
40
1
41
1
10
-0.400000000000019
20
21.8251283317571
30
0
41
1
10
-1.20000000000001
20
21.8251283317571
30
0
41
1
10
-2
20
21.8251283317571
30
0
0
SPLINE
5
12A
100
AcDbEntity
8
SK1
62
256
6
ByLayer
370
18
48
1
60
0
100
AcDbSpline
70
4
71
2
72
6
73
3
40
0
40
0
40
0
40
1
40
1
40
1
41
1
10
-36.5004321682704
20
21.1581061531923
30
0
41
1
10
-37.250216097561
20
20.6997323883077
30
0
41
1
10
-38
20
20.2413583528791
30
0
0
SPLINE
5
12B
100
AcDbEntity
8
SK1
62
256
6
ByLayer
370
18
48
1
60
0
100
AcDbSpline
70
4
71
2
72
6
73
3
40
0
40
0
40
0
40
1
40
1
40
1
41
1
10
-38
20
-20.2397162883162
30
0
41
1
10
-37.2502068935606
20
-20.6982812567361
30
0
41
1
10
-36.500413873027
20
-21.1568446673342
30
0
0
SPLINE
5
12C
100
AcDbEntity
8
1
62
256
6
ByLayer
370
18
48
1
60
0
100
AcDbSpline
70
4
71
3
72
16
73
12
40
0
40
0
40
0
40
0
40
0.0815272086796022
40
0.163068965782653
40
0.276576024138413
40
0.390157755673068
40
0.498398083326166
40
0.607038401423405
40
0.715415868733219
40
0.881185164020003
40
1
40
1
40
1
40
1
41
1
10
50.2562744352736
20
-7.89483327813613
30
0
41
1
10
50.2567268691543
20
-7.92617372464864
30
0
41
1
10
50.2741636481425
20
-8.00324745168945
30
0
41
1
10
50.3614656483358
20
-8.18376002445132
30
0
41
1
10
50.5293517727073
20
-8.44771683809975
30
0
41
1
10
50.7847057548765
20
-8.80137946823804
30
0
41
1
10
51.0943104430718
20
-9.20624055867177
30
0
41
1
10
51.4410420578952
20
-9.65017381013673
30
0
41
1
10
51.8831148911812
20
-10.2203893510719
30
0
41
1
10
52.3729813538094
20
-10.8595302510723
30
0
41
1
10
52.7154663400566
20
-11.3677965250753
30
0
41
1
10
52.8588411158796
20
-11.5875934697495
30
0
0
SPLINE
5
12D
100
AcDbEntity
8
SK1
62
256
6
ByLayer
370
18
48
1
60
0
100
AcDbSpline
70
4
71
3
72
13
73
9
40
0
40
0
40
0
40
0
40
0.238823327021375
40
0.596404845844071
40
0.776448283473056
40
0.909405333023227
40
0.95453013198393
40
1
40
1
40
1
40
1
41
1
10
-0.207673691453251
20
-21.9536729710648
30
0
41
1
10
-0.209805916094851
20
-21.9434918386956
30
0
41
1
10
-0.218399451747671
20
-21.9167862552717
30
0
41
1
10
-0.235998026070452
20
-21.8786349194953
30
0
41
1
10
-0.264946054689456
20
-21.8414316913747
30
0
41
1
10
-0.289349651964436
20
-21.8195750101022
30
0
41
1
10
-0.312441046537757
20
-21.8051377170115
30
0
41
1
10
-0.324681240882653
20
-21.799508771038
30
0
41
1
10
-0.331445012233808
20
-21.7967071663301
30
0
0
SPLINE
5
12E
100
AcDbEntity
8
SK1
62
256
6
ByLayer
370
18
48
1
60
0
100
AcDbSpline
70
4
71
3
72
18
73
14
40
0
40
0
40
0
40
0
40
0.0001424630312937
40
0.0003346696895118
40
0.0008347257087392
40
0.0024837683143566
40
0.0088292738823093
40
0.0350740081190221
40
0.150339913783464
40
0.282236490177828
40
0.466797655146125
40
0.713055791173867
40
1
40
1
40
1
40
1
41
1
10
-0.329401778560084
20
-21.79861218361
30
0
41
1
10
-0.329319450790602
20
-21.7986434897376
30
0
41
1
10
-0.329133934506929
20
-21.7987155363382
30
0
41
1
10
-0.328711411749976
20
-21.7988908980681
30
0
41
1
10
-0.32785512116768
20
-21.7992870844841
30
0
41
1
10
-0.32616235011349
20
-21.8002462506749
30
0
41
1
10
-0.322746528091915
20
-21.8028742705529
30
0
41
1
10
-0.315734741884779
20
-21.811242729873
30
0
41
1
10
-0.309826550062927
20
-21.8229925370108
30
0
41
1
10
-0.302814934847946
20
-21.8377782425671
30
0
41
1
10
-0.296382320240819
20
-21.8512984635393
30
0
41
1
10
-0.29000956112938
20
-21.8597835824925
30
0
41
1
10
-0.28609637424116
20
-21.8587446617362
30
0
41
1
10
-0.284307251774355
20
-21.8559940362763
30
0
0
SPLINE
5
12F
100
AcDbEntity
8
SK1
62
256
6
ByLayer
370
18
48
1
60
0
100
AcDbSpline
70
4
71
3
72
27
73
23
40
0
40
0
40
0
40
0
40
0.000107383551092
40
0.000219925376128
40
0.0004766251769625
40
0.0011865726591848
40
0.0035852564586355
40
0.0124904815601982
40
0.0457769427638703
40
0.163318593729011
40
0.327164006106743
40
0.511882470299933
40
0.693351038263895
40
0.849011788933488
40
0.95778039631645
40
0.988249204886994
40
0.996452983923661
40
0.998723915508775
40
0.999437028284241
40
0.999712540875208
40
0.999956947478688
40
1
40
1
40
1
40
1
41
1
10
-0.400000000000019
20
-21.8251283250689
30
0
41
1
10
-0.399952929897409
20
-21.8251283265248
30
0
41
1
10
-0.399858861975612
20
-21.8251283580732
30
0
41
1
10
-0.399662497119465
20
-21.8251285665604
30
0
41
1
10
-0.399278470866809
20
-21.8251294216709
30
0
41
1
10
-0.398474985723336
20
-21.8251332544329
30
0
41
1
10
-0.396921129062514
20
-21.8251483751893
30
0
41
1
10
-0.39385912367639
20
-21.8252014558234
30
0
41
1
10
-0.388019884834545
20
-21.8253193360769
30
0
41
1
10
-0.381306411579103
20
-21.8249988048688
30
0
41
1
10
-0.373331587390062
20
-21.8229561948257
30
0
41
1
10
-0.365230299618806
20
-21.818439183268
30
0
41
1
10
-0.357082354671717
20
-21.8117912430151
30
0
41
1
10
-0.348925201623548
20
-21.8046799941498
30
0
41
1
10
-0.341981357845585
20
-21.7995529811158
30
0
41
1
10
-0.335860908013664
20
-21.7977311574547
30
0
41
1
10
-0.332662001765476
20
-21.7977847287439
30
0
41
1
10
-0.331028370611044
20
-21.7980970784472
30
0
41
1
10
-0.330191886697772
20
-21.7983372249294
30
0
41
1
10
-0.329761976287635
20
-21.7984803346202
30
0
41
1
10
-0.329535043649912
20
-21.7985620151737
30
0
41
1
10
-0.329419214785883
20
-21.7986055876106
30
0
41
1
10
-0.329401778560084
20
-21.79861218361
30
0
0
SPLINE
5
130
100
AcDbEntity
8
SK1
62
256
6
ByLayer
370
18
48
1
60
0
100
AcDbSpline
70
4
71
1
72
4
73
2
40
0
40
0
40
1
40
1
41
1
10
-2.49E-14
20
-7.47795498707187
30
0
41
1
10
-0.2
20
-7.45410184860193
30
0
0
SPLINE
5
131
100
AcDbEntity
8
SK1
62
256
6
ByLayer
370
18
48
1
60
0
100
AcDbSpline
70
4
71
1
72
4
73
2
40
0
40
0
40
1
40
1
41
1
10
-0.20000000000006
20
-7.06635637915059
30
0
41
1
10
-0.20000000000006
20
-7.45410184860193
30
0
0
SPLINE
5
132
100
AcDbEntity
8
SK1
62
256
6
ByLayer
370
18
48
1
60
0
100
AcDbSpline
70
4
71
1
72
4
73
2
40
0
40
0
40
1
40
1
41
1
10
-0.20000000000006
20
7.45410255809306
30
0
41
1
10
-0.20000000000006
20
7.0663565904932
30
0
0
SPLINE
5
133
100
AcDbEntity
8
SK1
62
256
6
ByLayer
370
18
48
1
60
0
100
AcDbSpline
70
4
71
1
72
4
73
2
40
0
40
0
40
1
40
1
41
1
10
-0.2
20
7.45410255809306
30
0
41
1
10
-2.49E-14
20
7.47795571927755
30
0
0
SPLINE
5
134
100
AcDbEntity
8
SK1
62
256
6
ByLayer
370
18
48
1
60
0
100
AcDbSpline
70
4
71
2
72
6
73
3
40
0
40
0
40
0
40
1
40
1
40
1
41
1
10
-0.239987680708264
20
21.8759237371008
30
0
41
1
10
-0.201803252095452
20
21.9385996467756
30
0
41
1
10
-0.201982973539681
20
21.9851190293857
30
0
0
SPLINE
5
135
100
AcDbEntity
8
SK1
62
256
6
ByLayer
370
18
48
1
60
0
100
AcDbSpline
70
4
71
3
72
10
73
6
40
0
40
0
40
0
40
0
40
0.195192709801973
40
0.724559272775932
40
1
40
1
40
1
40
1
41
1
10
-0.230993204244115
20
21.9164923240483
30
0
41
1
10
-0.231497618773398
20
21.9168333061611
30
0
41
1
10
-0.233465149687689
20
21.9158515106127
30
0
41
1
10
-0.236538654052094
20
21.9034344468634
30
0
41
1
10
-0.239606216591702
20
21.8825943799658
30
0
41
1
10
-0.240712915381916
20
21.8742360134916
30
0
0
SPLINE
5
136
100
AcDbEntity
8
1
62
256
6
ByLayer
370
18
48
1
60
0
100
AcDbSpline
70
4
71
2
72
6
73
3
40
0
40
0
40
0
40
1
40
1
40
1
41
1
10
55.374130659847
20
-19.799201866229
30
0
41
1
10
54.5250759413877
20
-19.9803694586279
30
0
41
1
10
53.7450322669217
20
-20.1565891806723
30
0
0
SPLINE
5
137
100
AcDbEntity
8
1
62
256
6
ByLayer
370
18
48
1
60
0
100
AcDbSpline
70
4
71
3
72
16
73
12
40
0
40
0
40
0
40
0
40
0.110020588989528
40
0.223651853914167
40
0.33729387452741
40
0.452066940657866
40
0.566854443787273
40
0.68459565969994
40
0.802347319325576
40
0.901173124233057
40
1
40
1
40
1
40
1
41
1
10
50.2562744352736
20
20.9911845718562
30
0
41
1
10
50.2565826647418
20
20.9910643126625
30
0
41
1
10
50.3069982919789
20
20.9783698192666
30
0
41
1
10
50.5400367938028
20
20.9195912374022
30
0
41
1
10
50.9248011231922
20
20.8236234497397
30
0
41
1
10
51.4541789642346
20
20.6934529944215
30
0
41
1
10
52.1140432624511
20
20.5342574893517
30
0
41
1
10
52.8920819781426
20
20.3510361726915
30
0
41
1
10
53.7183948337798
20
20.1616790121114
30
0
41
1
10
54.5546783178832
20
19.9755995286156
30
0
41
1
10
55.0971337949877
20
19.8583128009304
30
0
41
1
10
55.374130659847
20
19.799201866229
30
0
0
SPLINE
5
138
100
AcDbEntity
8
1
62
256
6
ByLayer
370
18
48
1
60
0
100
AcDbSpline
70
4
71
3
72
11
73
7
40
0
40
0
40
0
40
0
40
0.243967275379621
40
0.490073762726304
40
0.743792154168325
40
1
40
1
40
1
40
1
41
1
10
81.2488478137673
20
15.147938092057
30
0
41
1
10
81.1330623839248
20
15.0036333805254
30
0
41
1
10
80.9161828784992
20
14.7036791240799
30
0
41
1
10
80.6405095399888
20
14.2119539876949
30
0
41
1
10
80.3983756814679
20
13.6921503722485
30
0
41
1
10
80.2769899582778
20
13.3255604974049
30
0
41
1
10
80.2252662300867
20
13.1375209725337
30
0
0
SPLINE
5
139
100
AcDbEntity
8
1
62
256
6
ByLayer
370
18
48
1
60
0
100
AcDbSpline
70
4
71
3
72
15
73
11
40
0
40
0
40
0
40
0
40
0.121432781348716
40
0.242857256103081
40
0.366312450963268
40
0.489949956517396
40
0.613040985309572
40
0.754325318927397
40
0.895551796214116
40
1
40
1
40
1
40
1
41
1
10
77.1390974945413
20
1.49324327723072
30
0
41
1
10
77.0632326193999
20
1.20453157305277
30
0
41
1
10
76.9585330166363
20
0.623739592407689
30
0
41
1
10
76.9595674517467
20
-0.273423941623642
30
0
41
1
10
77.0698061586567
20
-1.16422497124366
30
0
41
1
10
77.249540671032
20
-2.04837100179073
30
0
41
1
10
77.5482655490292
20
-2.94649705881699
30
0
41
1
10
77.9955743858935
20
-3.82823626390944
30
0
41
1
10
78.5463029346956
20
-4.59545698000103
30
0
41
1
10
78.9644744200928
20
-5.01721925575486
30
0
41
1
10
79.1546400107694
20
-5.18633686257289
30
0
0
SPLINE
5
13A
100
AcDbEntity
8
1
62
256
6
ByLayer
370
18
48
1
60
0
100
AcDbSpline
70
4
71
3
72
10
73
6
40
0
40
0
40
0
40
0
40
0.319932238903525
40
0.659954236309765
40
1
40
1
40
1
40
1
41
1
10
79.1546400110191
20
-5.18633686229026
30
0
41
1
10
79.1733336698546
20
-5.2027034692464
30
0
41
1
10
79.2120248013282
20
-5.23630967234468
30
0
41
1
10
79.2710608068838
20
-5.28674972516586
30
0
41
1
10
79.3114902008902
20
-5.32071117138707
30
0
41
1
10
79.3317763137998
20
-5.33760746736625
30
0
0
SPLINE
5
13B
100
AcDbEntity
8
1
62
256
6
ByLayer
370
18
48
1
60
0
100
AcDbSpline
70
4
71
3
72
10
73
6
40
0
40
0
40
0
40
0
40
0.323508598477437
40
0.661742977246451
40
1
40
1
40
1
40
1
41
1
10
79.3317763142988
20
-5.3376074665309
30
0
41
1
10
79.3508624690113
20
-5.35350429846209
30
0
41
1
10
79.3900280873256
20
-5.38586573908135
30
0
41
1
10
79.4496013788642
20
-5.43428873750774
30
0
41
1
10
79.4901645825601
20
-5.46671153164183
30
0
41
1
10
79.5105129445496
20
-5.48283995877341
30
0
0
SPLINE
5
13C
100
AcDbEntity
8
1
62
256
6
ByLayer
370
18
48
1
60
0
100
AcDbSpline
70
4
71
3
72
14
73
10
40
0
40
0
40
0
40
0
40
0.160358881527986
40
0.320619868274855
40
0.48525160924743
40
0.649816457427768
40
0.79751418233051
40
0.945225906728391
40
1
40
1
40
1
40
1
41
1
10
79.5105129449835
20
-5.48283995798291
30
0
41
1
10
79.7052989526564
20
-5.63772170211817
30
0
41
1
10
80.1134189406137
20
-5.91078271949314
30
0
41
1
10
80.7941222307737
20
-6.22267967052537
30
0
41
1
10
81.5250972895878
20
-6.40482920699281
30
0
41
1
10
82.2582336234071
20
-6.44774774788288
30
0
41
1
10
82.959324342702
20
-6.35510039121026
30
0
41
1
10
83.4746250953906
20
-6.19546302325949
30
0
41
1
10
83.7578584744972
20
-6.06922748388485
30
0
41
1
10
83.8336266544136
20
-6.03255419117673
30
0
0
SPLINE
5
13D
100
AcDbEntity
8
1
62
256
6
ByLayer
370
18
48
1
60
0
100
AcDbSpline
70
4
71
3
72
12
73
8
40
0
40
0
40
0
40
0
40
0.176944409549367
40
0.35247531917652
40
0.52941972872589
40
0.815933602366183
40
1
40
1
40
1
40
1
41
1
10
78.3844963164164
20
0.0754670534844149
30
0
41
1
10
78.2879072811261
20
0.106215109047424
30
0
41
1
10
78.1026442472488
20
0.187187855113755
30
0
41
1
10
77.8436146205486
20
0.368985019091141
30
0
41
1
10
77.5619515991018
20
0.656802004458036
30
0
41
1
10
77.3195787512812
20
1.0324200315122
30
0
41
1
10
77.1855444658337
20
1.35734023696577
30
0
41
1
10
77.1389609084887
20
1.49295879761219
30
0
0
SPLINE
5
13E
100
AcDbEntity
8
1
62
256
6
ByLayer
370
18
48
1
60
0
100
AcDbSpline
70
4
71
3
72
19
73
15
40
0
40
0
40
0
40
0
40
0.101680376226134
40
0.203501214492338
40
0.306378583706826
40
0.41309233261241
40
0.530277269578886
40
0.651747916286378
40
0.727449293781092
40
0.783632059232471
40
0.834256114998245
40
0.888907073138273
40
0.944171114471956
40
1
40
1
40
1
40
1
41
1
10
79.154640011089
20
-5.18633686248883
30
0
41
1
10
79.0560692430827
20
-5.0481605019268
30
0
41
1
10
78.871999514856
20
-4.76012353837714
30
0
41
1
10
78.6343519821881
20
-4.28929463345156
30
0
41
1
10
78.4341464366056
20
-3.78052869222428
30
0
41
1
10
78.2740821077585
20
-3.21517416438067
30
0
41
1
10
78.1837950526991
20
-2.58242466387144
30
0
41
1
10
78.1518580368324
20
-1.99350188042695
30
0
41
1
10
78.1404186934773
20
-1.51574805850909
30
0
41
1
10
78.1593935192006
20
-1.16758374735758
30
0
41
1
10
78.1996708330879
20
-0.859430767434996
30
0
41
1
10
78.2438828794945
20
-0.553305604764756
30
0
41
1
10
78.3061675569728
20
-0.238564569071125
30
0
41
1
10
78.3566846331085
20
-0.0293219693383947
30
0
41
1
10
78.3844963164164
20
0.0754670534844148
30
0
0
SPLINE
5
13F
100
AcDbEntity
8
1
62
256
6
ByLayer
370
18
48
1
60
0
100
AcDbSpline
70
4
71
3
72
19
73
15
40
0
40
0
40
0
40
0
40
0.100887001405213
40
0.202080416002886
40
0.303906078440355
40
0.407768028891333
40
0.520454629041072
40
0.643364751012594
40
0.724872140611912
40
0.785683642708374
40
0.835372205206648
40
0.889450173459108
40
0.944432922025572
40
1
40
1
40
1
40
1
41
1
10
79.5105129452089
20
-5.48283995849093
30
0
41
1
10
79.398969877619
20
-5.34590688645308
30
0
41
1
10
79.1898924299315
20
-5.05793313585698
30
0
41
1
10
78.9169235273783
20
-4.58153112421764
30
0
41
1
10
78.6886924120755
20
-4.06283399725243
30
0
41
1
10
78.4965621955134
20
-3.4937715294885
30
0
41
1
10
78.3752868992158
20
-2.84356339478777
30
0
41
1
10
78.3305793644418
20
-2.21506001758712
30
0
41
1
10
78.3125920981719
20
-1.68571562778731
30
0
41
1
10
78.3219712229276
20
-1.29797634195712
30
0
41
1
10
78.3646982027298
20
-0.964418437106569
30
0
41
1
10
78.4091491942457
20
-0.643129388087493
30
0
41
1
10
78.4735219277803
20
-0.311148185846101
30
0
41
1
10
78.5265997119171
20
-0.0901351136024678
30
0
41
1
10
78.5559849307782
20
0.020563242916358
30
0
0
SPLINE
5
140
100
AcDbEntity
8
1
62
256
6
ByLayer
370
18
48
1
60
0
100
AcDbSpline
70
4
71
3
72
17
73
13
40
0
40
0
40
0
40
0
40
0.0802529714544851
40
0.159864851341296
40
0.240117822795779
40
0.370065922208055
40
0.500014021620328
40
0.629962121032604
40
0.694677150262626
40
0.760080621221775
40
0.880040310610887
40
1
40
1
40
1
40
1
41
1
10
81.8665255512717
20
3.15221574049619
30
0
41
1
10
81.8233829253893
20
2.98904357457658
30
0
41
1
10
81.7262200861605
20
2.67082352487686
30
0
41
1
10
81.54549515139
20
2.20960905184226
30
0
41
1
10
81.289770686507
20
1.68642912423822
30
0
41
1
10
80.9388572080736
20
1.13083128686212
30
0
41
1
10
80.478819368457
20
0.612641356667044
30
0
41
1
10
80.0653140821987
20
0.290754729380806
30
0
41
1
10
79.725941929944
20
0.111262706688909
30
0
41
1
10
79.3979361839069
20
-0.0108780863642923
30
0
41
1
10
78.9980625830071
20
-0.0725642508811688
30
0
41
1
10
78.7013642662835
20
-0.0259814185283132
30
0
41
1
10
78.5559849307782
20
0.0205632429163601
30
0
0
SPLINE
5
141
100
AcDbEntity
8
1
62
256
6
ByLayer
370
18
48
1
60
0
100
AcDbSpline
70
4
71
3
72
20
73
16
40
0
40
0
40
0
40
0
40
0.0954611577633986
40
0.190423686204094
40
0.286891044164501
40
0.385280336869944
40
0.485040453304319
40
0.585933952660488
40
0.641874070977274
40
0.702538367679674
40
0.76688903369734
40
0.820618933546103
40
0.860513065827667
40
0.928089036650723
40
1
40
1
40
1
40
1
41
1
10
85.0077988861774
20
-3.74141542859872
30
0
41
1
10
84.7722602524761
20
-3.68600686200114
30
0
41
1
10
84.3196761738242
20
-3.53430071150561
30
0
41
1
10
83.6838016256702
20
-3.17727251459474
30
0
41
1
10
83.1061283571459
20
-2.70052304459876
30
0
41
1
10
82.6021603666392
20
-2.09957749169987
30
0
41
1
10
82.1859731310402
20
-1.39060724524447
30
0
41
1
10
81.9128111853777
20
-0.714281159441421
30
0
41
1
10
81.7527822608594
20
-0.10007142245142
30
0
41
1
10
81.6739413905244
20
0.434720821502316
30
0
41
1
10
81.6394138694863
20
0.975037408963898
30
0
41
1
10
81.6221150864468
20
1.4555492230802
30
0
41
1
10
81.6388406024491
20
1.95171566858541
30
0
41
1
10
81.7185383991585
20
2.50677941240895
30
0
41
1
10
81.8092601571685
20
2.93311311983563
30
0
41
1
10
81.8665255512717
20
3.15221574049619
30
0
0
SPLINE
5
142
100
AcDbEntity
8
1
62
256
6
ByLayer
370
18
48
1
60
0
100
AcDbSpline
70
4
71
3
72
11
73
7
40
0
40
0
40
0
40
0
40
0.284610256884459
40
0.569220513768916
40
0.784610256884459
40
1
40
1
40
1
40
1
41
1
10
85.0077988861774
20
-3.74141542859872
30
0
41
1
10
84.9396454267046
20
-3.99741021045837
30
0
41
1
10
84.7777716972973
20
-4.48916276957176
30
0
41
1
10
84.4791922094275
20
-5.12264942203701
30
0
41
1
10
84.1584681620064
20
-5.63723093301448
30
0
41
1
10
83.9455082415249
20
-5.90704561238242
30
0
41
1
10
83.8336266544136
20
-6.03255419117671
30
0
0
SPLINE
5
143
100
AcDbEntity
8
1
62
256
6
ByLayer
370
18
48
1
60
0
100
AcDbSpline
70
4
71
1
72
4
73
2
40
0
40
0
40
1
40
1
41
1
10
89.6159148166861
20
13.645249444594
30
0
41
1
10
89.6227855414908
20
13.6713869358873
30
0
0
SPLINE
5
144
100
AcDbEntity
8
1
62
256
6
ByLayer
370
18
48
1
60
0
100
AcDbSpline
70
4
71
3
72
20
73
16
40
0
40
0
40
0
40
0
40
0.0954611577633991
40
0.190423686204096
40
0.286891044164501
40
0.385280336869944
40
0.485040453304317
40
0.585933952660487
40
0.641874070977274
40
0.702538367679673
40
0.766889033697339
40
0.820618933546104
40
0.860513065827667
40
0.928089036650722
40
1
40
1
40
1
40
1
41
1
10
89.6159148166861
20
13.645249444594
30
0
41
1
10
89.38032030048
20
13.7004471635481
30
0
41
1
10
88.9050532804265
20
13.7665693776944
30
0
41
1
10
88.1655083168714
20
13.732443619925
30
0
41
1
10
87.4176022592822
20
13.566895782619
30
0
41
1
10
86.6727897072496
20
13.2591220799851
30
0
41
1
10
85.9515670551989
20
12.8171775837819
30
0
41
1
10
85.37290390983
20
12.3408315020972
30
0
41
1
10
84.9251173519511
20
11.8693164848949
30
0
41
1
10
84.5886385975122
20
11.4320273799626
30
0
41
1
10
84.2885249130108
20
10.9702733405716
30
0
41
1
10
84.0334655932878
20
10.5537020878282
30
0
41
1
10
83.8006324373565
20
10.1082704788264
30
0
41
1
10
83.5940028983912
20
9.58300605719512
30
0
41
1
10
83.4613452575548
20
9.16651749064139
30
0
41
1
10
83.4025641947747
20
8.94777069822708
30
0
0
SPLINE
5
145
100
AcDbEntity
8
1
62
256
6
ByLayer
370
18
48
1
60
0
100
AcDbSpline
70
4
71
3
72
15
73
11
40
0
40
0
40
0
40
0
40
0.125
40
0.25
40
0.375
40
0.5
40
0.624999999999999
40
0.75
40
0.874999999999989
40
1
40
1
40
1
40
1
41
1
10
83.4025641947747
20
8.94777069822708
30
0
41
1
10
83.4704613243226
20
9.20395015532069
30
0
41
1
10
83.5746636434628
20
9.71436259988991
30
0
41
1
10
83.6361852664327
20
10.4874939088413
30
0
41
1
10
83.6029431412812
20
11.2280817070358
30
0
41
1
10
83.4716428194219
20
11.9081283170952
30
0
41
1
10
83.2522159335962
20
12.5048103635421
30
0
41
1
10
82.9487809865944
20
12.9898054587993
30
0
41
1
10
82.5754829196819
20
13.3516129617874
30
0
41
1
10
82.2916804601132
20
13.4949868245629
30
0
41
1
10
82.1400750989515
20
13.5435248109552
30
0
0
SPLINE
5
146
100
AcDbEntity
8
1
62
256
6
ByLayer
370
18
48
1
60
0
100
AcDbSpline
70
4
71
3
72
11
73
7
40
0
40
0
40
0
40
0
40
0.178515643649744
40
0.356941109827463
40
0.546671180828994
40
1
40
1
40
1
40
1
41
1
10
82.6424960521685
20
14.9022003051154
30
0
41
1
10
82.6049021524667
20
14.8248399372804
30
0
41
1
10
82.5325416161827
20
14.668743253957
30
0
41
1
10
82.4326659365209
20
14.4240628314548
30
0
41
1
10
82.2886315703037
20
14.0536277393267
30
0
41
1
10
82.1963444681435
20
13.7563359371704
30
0
41
1
10
82.1400750989517
20
13.5435248109551
30
0
0
SPLINE
5
147
100
AcDbEntity
8
1
62
256
6
ByLayer
370
18
48
1
60
0
100
AcDbSpline
70
4
71
3
72
20
73
16
40
0
40
0
40
0
40
0
40
0.121845643722773
40
0.243398001387916
40
0.291007342447815
40
0.338512017668221
40
0.374453955076905
40
0.410336451095219
40
0.446216049102582
40
0.482158692458451
40
0.545227980207925
40
0.608495182516169
40
0.73875502570929
40
0.869360906831669
40
1
40
1
40
1
40
1
41
1
10
82.642496051965
20
14.902200305231
30
0
41
1
10
82.8499201820126
20
14.8656258347893
30
0
41
1
10
83.2956488833467
20
14.7870318388904
30
0
41
1
10
83.8942731596556
20
14.6814782281704
30
0
41
1
10
84.3883223050455
20
14.5943640339917
30
0
41
1
10
84.7109172512368
20
14.5374818411463
30
0
41
1
10
85.0268342973144
20
14.4817771422554
30
0
41
1
10
85.3260771249489
20
14.4290125579604
30
0
41
1
10
85.630393182803
20
14.3753534262978
30
0
41
1
10
86.0062210044052
20
14.3090848412485
30
0
41
1
10
86.4427831887199
20
14.2321071493967
30
0
41
1
10
87.0895835068985
20
14.118058802171
30
0
41
1
10
87.860922693797
20
13.9820508922431
30
0
41
1
10
88.7445178699707
20
13.8262492226598
30
0
41
1
10
89.332023422492
20
13.7226561424343
30
0
41
1
10
89.6227855414907
20
13.6713869358868
30
0
0
SPLINE
5
148
100
AcDbEntity
8
1
62
256
6
ByLayer
370
18
48
1
60
0
100
AcDbSpline
70
4
71
3
72
11
73
7
40
0
40
0
40
0
40
0
40
0.275610306988
40
0.551220613976002
40
0.776274487773468
40
1
40
1
40
1
40
1
41
1
10
81.9685864845898
20
13.5984286215232
30
0
41
1
10
81.8169811234282
20
13.6469666079154
30
0
41
1
10
81.5075044959088
20
13.6935235043049
30
0
41
1
10
81.0459517724938
20
13.6138739852539
30
0
41
1
10
80.6139764082643
20
13.423903911746
30
0
41
1
10
80.353810427421
20
13.2434745514616
30
0
41
1
10
80.2252877263927
20
13.1378121522635
30
0
0
SPLINE
5
149
100
AcDbEntity
8
1
62
256
6
ByLayer
370
18
48
1
60
0
100
AcDbSpline
70
4
71
1
72
4
73
2
40
0
40
0
40
1
40
1
41
1
10
82.0543307917708
20
13.5709767162391
30
0
41
1
10
81.9685864845897
20
13.5984286215232
30
0
0
SPLINE
5
14A
100
AcDbEntity
8
1
62
256
6
ByLayer
370
18
48
1
60
0
100
AcDbSpline
70
4
71
1
72
4
73
2
40
0
40
0
40
1
40
1
41
1
10
82.1400750989517
20
13.5435248109551
30
0
41
1
10
82.0543307917706
20
13.5709767162392
30
0
0
SPLINE
5
14B
100
AcDbEntity
8
1
62
256
6
ByLayer
370
18
48
1
60
0
100
AcDbSpline
70
4
71
1
72
4
73
2
40
0
40
0
40
1
40
1
41
1
10
78.5559849307782
20
0.0205632429163584
30
0
41
1
10
78.4702406235973
20
0.0480151482003871
30
0
0
SPLINE
5
14C
100
AcDbEntity
8
1
62
256
6
ByLayer
370
18
48
1
60
0
100
AcDbSpline
70
4
71
1
72
4
73
2
40
0
40
0
40
1
40
1
41
1
10
78.4702406235973
20
0.0480151482003871
30
0
41
1
10
78.3844963164164
20
0.0754670534844149
30
0
0
SPLINE
5
14D
100
AcDbEntity
8
1
62
256
6
ByLayer
370
18
48
1
60
0
100
AcDbSpline
70
4
71
3
72
19
73
15
40
0
40
0
40
0
40
0
40
0.101356956350736
40
0.202814075972068
40
0.305120752955939
40
0.410205271919239
40
0.525075767146204
40
0.647716170767595
40
0.726330217401094
40
0.784812410728534
40
0.834831443734998
40
0.889198229477132
40
0.944311756543003
40
1
40
1
40
1
40
1
41
1
10
79.3317763145094
20
-5.33760746705998
30
0
41
1
10
79.2266329007752
20
-5.19975666321631
30
0
41
1
10
79.0300576466213
20
-4.91132719996074
30
0
41
1
10
78.7747331856003
20
-4.43725560382733
30
0
41
1
10
78.5609813792914
20
-3.92340353124923
30
0
41
1
10
78.3841158758293
20
-3.35659682616259
30
0
41
1
10
78.2788751157411
20
-2.71393030975905
30
0
41
1
10
78.2410581636828
20
-2.10424504729351
30
0
41
1
10
78.2262545387992
20
-1.6000421981452
30
0
41
1
10
78.2404060856837
20
-1.23248334724895
30
0
41
1
10
78.2822395223941
20
-0.911932022479981
30
0
41
1
10
78.3264408499314
20
-0.598363260119452
30
0
41
1
10
78.3898356539589
20
-0.274913978241077
30
0
41
1
10
78.4416371879771
20
-0.0597475821626076
30
0
41
1
10
78.4702406235973
20
0.0480151482003866
30
0
0
SPLINE
5
14E
100
AcDbEntity
8
1
62
256
6
ByLayer
370
18
48
1
60
0
100
AcDbSpline
70
4
71
3
72
10
73
6
40
0
40
0
40
0
40
0
40
0.264100023969026
40
0.546017245507364
40
1
40
1
40
1
40
1
41
1
10
82.459588072941
20
14.9344519169176
30
0
41
1
10
82.4064603899529
20
14.8211284443674
30
0
41
1
10
82.3018849922216
20
14.5844710672214
30
0
41
1
10
82.1280714387694
20
14.1417464815036
30
0
41
1
10
82.0241998140367
20
13.8077242038083
30
0
41
1
10
81.9685864845898
20
13.5984286215232
30
0
0
SPLINE
5
14F
100
AcDbEntity
8
1
62
256
6
ByLayer
370
18
48
1
60
0
100
AcDbSpline
70
4
71
3
72
11
73
7
40
0
40
0
40
0
40
0
40
0.177339444107161
40
0.356375810041299
40
0.546336332886212
40
1
40
1
40
1
40
1
41
1
10
82.5510209580896
20
14.9183298323011
30
0
41
1
10
82.5142985587135
20
14.8419921584948
30
0
41
1
10
82.4431408777188
20
14.6872657968668
30
0
41
1
10
82.3442198120293
20
14.4448868874942
30
0
41
1
10
82.2016166154754
20
14.0770196861457
30
0
41
1
10
82.1101306302096
20
13.7820660953171
30
0
41
1
10
82.0543307917708
20
13.5709767162391
30
0
0
SPLINE
5
150
100
AcDbEntity
8
1
62
256
6
ByLayer
370
18
48
1
60
0
100
AcDbSpline
70
4
71
3
72
10
73
6
40
0
40
0
40
0
40
0
40
0.249999994954243
40
0.624999994060263
40
1
40
1
40
1
40
1
41
1
10
82.4595880727574
20
14.9344519170197
30
0
41
1
10
82.4672057184986
20
14.9331087208948
30
0
41
1
10
82.4862509343927
20
14.9297505361613
30
0
41
1
10
82.5167277213964
20
14.9243766559508
30
0
41
1
10
82.5395892227211
20
14.9203455565421
30
0
41
1
10
82.5510209584036
20
14.9183298331047
30
0
0
SPLINE
5
151
100
AcDbEntity
8
1
62
256
6
ByLayer
370
18
48
1
60
0
100
AcDbSpline
70
4
71
3
72
10
73
6
40
0
40
0
40
0
40
0
40
0.249999995289553
40
0.624999994453883
40
1
40
1
40
1
40
1
41
1
10
82.5510209578956
20
14.9183298324102
30
0
41
1
10
82.5586421810255
20
14.9169860055118
30
0
41
1
10
82.5776963028674
20
14.9136262504519
30
0
41
1
10
82.6081871872661
20
14.9082498844722
30
0
41
1
10
82.6310591296784
20
14.9042169440225
30
0
41
1
10
82.6424960524988
20
14.9022003059528
30
0
0
SPLINE
5
152
100
AcDbEntity
8
1
62
256
6
ByLayer
370
18
48
1
60
0
100
AcDbSpline
70
4
71
3
72
13
73
9
40
0
40
0
40
0
40
0
40
0.0603518410059438
40
0.279656158929826
40
0.499060089569381
40
0.713052562211259
40
0.927135902611583
40
1
40
1
40
1
40
1
41
1
10
90.5269529574114
20
0.0542981726263389
30
0
41
1
10
90.4733640866791
20
0.068797399052556
30
0
41
1
10
90.2275610075537
20
0.140905244381132
30
0
41
1
10
89.8059147753774
20
0.312472853366829
30
0
41
1
10
89.3070629637753
20
0.614638406466592
30
0
41
1
10
88.8751313609171
20
0.985113792183471
30
0
41
1
10
88.5898822216821
20
1.3179868429926
30
0
41
1
10
88.4463348893532
20
1.52412701504423
30
0
41
1
10
88.4111347067428
20
1.57753215165744
30
0
0
SPLINE
5
153
100
AcDbEntity
8
1
62
256
6
ByLayer
370
18
48
1
60
0
100
AcDbSpline
70
4
71
1
72
4
73
2
40
0
40
0
40
1
40
1
41
1
10
93.3356501876212
20
-0.614288130855601
30
0
41
1
10
93.0777545484486
20
-0.59115060307284
30
0
0
SPLINE
5
154
100
AcDbEntity
8
1
62
256
6
ByLayer
370
18
48
1
60
0
100
AcDbSpline
70
4
71
3
72
14
73
10
40
0
40
0
40
0
40
0
40
0.0046371930015445
40
0.170530994167954
40
0.336424795334362
40
0.502318596500772
40
0.668212397667182
40
0.834106198833592
40
1
40
1
40
1
40
1
41
1
10
93.335650187647
20
-0.614288154791351
30
0
41
1
10
93.3341734737044
20
-0.618380799545641
30
0
41
1
10
93.2798752633826
20
-0.768732839347764
30
0
41
1
10
93.1729187277157
20
-1.05522031007573
30
0
41
1
10
93.0173364738839
20
-1.44403466418125
30
0
41
1
10
92.8660889607146
20
-1.79363869140537
30
0
41
1
10
92.7209892430528
20
-2.09985607147577
30
0
41
1
10
92.5835481813283
20
-2.35943843916073
30
0
41
1
10
92.4984784241188
20
-2.49873282920861
30
0
41
1
10
92.4574619626117
20
-2.56016243658745
30
0
0
SPLINE
5
155
100
AcDbEntity
8
1
62
256
6
ByLayer
370
18
48
1
60
0
100
AcDbSpline
70
4
71
3
72
14
73
10
40
0
40
0
40
0
40
0
40
0.185711059847537
40
0.374949563145765
40
0.487831160120498
40
0.600699303269453
40
0.717935915300255
40
0.835152857895956
40
1
40
1
40
1
40
1
41
1
10
88.2828879608552
20
1.75434309010604
30
0
41
1
10
88.0611431008327
20
1.56470991266564
30
0
41
1
10
87.62046960354
20
1.1948869243113
30
0
41
1
10
87.0597463882995
20
0.742035136190518
30
0
41
1
10
86.6033402511743
20
0.388384029625943
30
0
41
1
10
86.2411528493995
20
0.117977413275761
30
0
41
1
10
85.8943381474021
20
-0.12880081395221
30
0
41
1
10
85.5228641856135
20
-0.377079561817937
30
0
41
1
10
85.2906370327263
20
-0.515552634132269
30
0
41
1
10
85.164519904737
20
-0.584555443446165
30
0
0
SPLINE
5
156
100
AcDbEntity
8
1
62
256
6
ByLayer
370
18
48
1
60
0
100
AcDbSpline
70
4
71
1
72
4
73
2
40
0
40
0
40
1
40
1
41
1
10
88.2828879608553
20
1.75434309010604
30
0
41
1
10
88.4111347067428
20
1.57753215165744
30
0
0
SPLINE
5
157
100
AcDbEntity
8
1
62
256
6
ByLayer
370
18
48
1
60
0
100
AcDbSpline
70
4
71
3
72
12
73
8
40
0
40
0
40
0
40
0
40
0.18142966613487
40
0.366867448225741
40
0.58203304786658
40
0.802198386802962
40
1
40
1
40
1
40
1
41
1
10
83.9601003938036
20
1.68609289761309
30
0
41
1
10
84.1132614096552
20
1.70957247666871
30
0
41
1
10
84.4461577247811
20
1.76682316571789
30
0
41
1
10
85.0565132564749
20
1.89180460378744
30
0
41
1
10
85.7761136177824
20
2.05516081220943
30
0
41
1
10
86.5673457787911
20
2.24840078508632
30
0
41
1
10
87.109433220708
20
2.38685345778033
30
0
41
1
10
87.3716779478249
20
2.45527660193806
30
0
0
SPLINE
5
158
100
AcDbEntity
8
1
62
256
6
ByLayer
370
18
48
1
60
0
100
AcDbSpline
70
4
71
3
72
10
73
6
40
0
40
0
40
0
40
0
40
0.470923083159061
40
0.891368634980571
40
1
40
1
40
1
40
1
41
1
10
87.3716779478249
20
2.45527660193807
30
0
41
1
10
87.5383630412517
20
2.37810307774982
30
0
41
1
10
87.8302406918074
20
2.20398674167745
30
0
41
1
10
88.1295663396439
20
1.93832961477227
30
0
41
1
10
88.257500032615
20
1.78625117442012
30
0
41
1
10
88.2828879608553
20
1.75434309010604
30
0
0
SPLINE
5
159
100
AcDbEntity
8
1
62
256
6
ByLayer
370
18
48
1
60
0
100
AcDbSpline
70
4
71
1
72
4
73
2
40
0
40
0
40
1
40
1
41
1
10
85.9544411423609
20
9.83828798302841
30
0
41
1
10
85.9738574377535
20
9.90563299822124
30
0
0
SPLINE
5
15A
100
AcDbEntity
8
1
62
256
6
ByLayer
370
18
48
1
60
0
100
AcDbSpline
70
4
71
3
72
13
73
9
40
0
40
0
40
0
40
0
40
0.2608221217998
40
0.395252665390483
40
0.529665972265148
40
0.740111661383766
40
0.956233497746073
40
1
40
1
40
1
40
1
41
1
10
88.7393021373734
20
7.61539492680953
30
0
41
1
10
88.481330146525
20
7.85963508990925
30
0
41
1
10
88.0990126256548
20
8.21237591543907
30
0
41
1
10
87.6016474466486
20
8.65278253189764
30
0
41
1
10
87.1669347179285
20
9.02412595730085
30
0
41
1
10
86.6864139067623
20
9.41175902689276
30
0
41
1
10
86.3246548496956
20
9.67452036205881
30
0
41
1
10
86.143867866532
20
9.79317761188127
30
0
41
1
10
86.1138965133241
20
9.81247945125001
30
0
0
SPLINE
5
15B
100
AcDbEntity
8
1
62
256
6
ByLayer
370
18
48
1
60
0
100
AcDbSpline
70
4
71
1
72
4
73
2
40
0
40
0
40
1
40
1
41
1
10
88.7393021373734
20
7.61539492680953
30
0
41
1
10
88.4887343236839
20
7.63716439102067
30
0
0
SPLINE
5
15C
100
AcDbEntity
8
1
62
256
6
ByLayer
370
18
48
1
60
0
100
AcDbSpline
70
4
71
2
72
6
73
3
40
0
40
0
40
0
40
1
40
1
40
1
41
1
10
87.3716779478249
20
2.45527660193807
30
0
41
1
10
87.0269257317903
20
2.6179502690668
30
0
41
1
10
86.6738815725912
20
2.70364077802664
30
0
0
SPLINE
5
15D
100
AcDbEntity
8
1
62
256
6
ByLayer
370
18
48
1
60
0
100
AcDbSpline
70
4
71
1
72
4
73
2
40
0
40
0
40
1
40
1
41
1
10
83.8039870414568
20
1.7245110422051
30
0
41
1
10
83.7875477428875
20
1.65657100696832
30
0
0
SPLINE
5
15E
100
AcDbEntity
8
1
62
256
6
ByLayer
370
18
48
1
60
0
100
AcDbSpline
70
4
71
3
72
13
73
9
40
0
40
0
40
0
40
0
40
0.18554010443375
40
0.376970109381426
40
0.562319173928968
40
0.751995371395345
40
0.875492911618998
40
1
40
1
40
1
40
1
41
1
10
88.2763014148481
20
11.1563606035435
30
0
41
1
10
88.366343702955
20
11.0363394648541
30
0
41
1
10
88.5543044328786
20
10.7532790890006
30
0
41
1
10
88.853538912038
20
10.2006463666818
30
0
41
1
10
89.1630500624696
20
9.54724378435598
30
0
41
1
10
89.4378862945579
20
8.90465413080812
30
0
41
1
10
89.6772789248533
20
8.30445896962036
30
0
41
1
10
89.8110752110987
20
7.95238875456432
30
0
41
1
10
89.8778626514145
20
7.77226686715576
30
0
0
SPLINE
5
15F
100
AcDbEntity
8
1
62
256
6
ByLayer
370
18
48
1
60
0
100
AcDbSpline
70
4
71
3
72
11
73
7
40
0
40
0
40
0
40
0
40
0.228974136894824
40
0.466571673620232
40
0.9281214312173
40
1
40
1
40
1
40
1
41
1
10
89.8778626514229
20
7.77226686715784
30
0
41
1
10
89.7978216532516
20
7.74223538758552
30
0
41
1
10
89.6303249079642
20
7.68965080927182
30
0
41
1
10
89.2737599349942
20
7.61953609837078
30
0
41
1
10
88.9688824296822
20
7.60572999210769
30
0
41
1
10
88.7665246199954
20
7.61392091748536
30
0
41
1
10
88.7393021373734
20
7.61539492680953
30
0
0
SPLINE
5
160
100
AcDbEntity
8
1
62
256
6
ByLayer
370
18
48
1
60
0
100
AcDbSpline
70
4
71
3
72
14
73
10
40
0
40
0
40
0
40
0
40
0.165893799697863
40
0.331787599395727
40
0.497681399093589
40
0.663575198791453
40
0.829468998489316
40
0.99536279818718
40
1
40
1
40
1
40
1
41
1
10
95.5692434727228
20
9.18075361040224
30
0
41
1
10
95.5776976510741
20
9.11932400302351
30
0
41
1
10
95.5889309707043
20
8.98002961297596
30
0
41
1
10
95.5887739763861
20
8.72044724529181
30
0
41
1
10
95.5715555959433
20
8.41422986522271
30
0
41
1
10
95.5374868453012
20
8.06462583799963
30
0
41
1
10
95.4869684314979
20
7.67581148389739
30
0
41
1
10
95.4420651944412
20
7.38932400562837
30
0
41
1
10
95.4166655849116
20
7.2389719577585
30
0
41
1
10
95.4159728899206
20
7.23487930517633
30
0
0
SPLINE
5
161
100
AcDbEntity
8
1
62
256
6
ByLayer
370
18
48
1
60
0
100
AcDbSpline
70
4
71
2
72
6
73
3
40
0
40
0
40
0
40
1
40
1
40
1
41
1
10
95.4159728762522
20
7.23487931193887
30
0
41
1
10
95.028028738088
20
7.42715869132798
30
0
41
1
10
94.6143347642245
20
7.53984732767978
30
0
0
SPLINE
5
162
100
AcDbEntity
8
1
62
256
6
ByLayer
370
18
48
1
60
0
100
AcDbSpline
70
4
71
3
72
11
73
7
40
0
40
0
40
0
40
0
40
0.271626740148315
40
0.549022435368085
40
0.862949264684881
40
1
40
1
40
1
40
1
41
1
10
90.0753555960205
20
7.85672549513838
30
0
41
1
10
90.2417292421381
20
7.9369249628996
30
0
41
1
10
90.5869658883284
20
8.07151116299972
30
0
41
1
10
91.1600631154983
20
8.19785183893536
30
0
41
1
10
91.6660452524965
20
8.2210315955776
30
0
41
1
10
91.9825034026157
20
8.19500795813378
30
0
41
1
10
92.0792453941224
20
8.18340725053607
30
0
0
SPLINE
5
163
100
AcDbEntity
8
1
62
256
6
ByLayer
370
18
48
1
60
0
100
AcDbSpline
70
4
71
1
72
4
73
2
40
0
40
0
40
1
40
1
41
1
10
90.0753555960205
20
7.85672549513838
30
0
41
1
10
89.8778626514229
20
7.77226686715784
30
0
0
SPLINE
5
164
100
AcDbEntity
8
1
62
256
6
ByLayer
370
18
48
1
60
0
100
AcDbSpline
70
4
71
2
72
6
73
3
40
0
40
0
40
0
40
1
40
1
40
1
41
1
10
88.4887343236839
20
7.63716439102067
30
0
41
1
10
88.2399506466646
20
7.66749094698338
30
0
41
1
10
88.005115063627
20
7.72645507472675
30
0
0
SPLINE
5
165
100
AcDbEntity
8
1
62
256
6
ByLayer
370
18
48
1
60
0
100
AcDbSpline
70
4
71
2
72
6
73
3
40
0
40
0
40
0
40
1
40
1
40
1
41
1
10
92.0792453941224
20
8.18340725053607
30
0
41
1
10
92.3672818646768
20
8.14860204139413
30
0
41
1
10
92.6518064142571
20
8.07148253082075
30
0
0
SPLINE
5
166
100
AcDbEntity
8
1
62
256
6
ByLayer
370
18
48
1
60
0
100
AcDbSpline
70
4
71
3
72
15
73
11
40
0
40
0
40
0
40
0
40
0.166515919983872
40
0.332774473620627
40
0.501628500714137
40
0.630966776588329
40
0.722350043801145
40
0.814286437225677
40
0.89617148634531
40
1
40
1
40
1
40
1
41
1
10
104.298157475043
20
-0.0940153788747422
30
0
41
1
10
104.198617849062
20
-0.120894270988748
30
0
41
1
10
103.997647007505
20
-0.183897329515649
30
0
41
1
10
103.688001499778
20
-0.302178732543825
30
0
41
1
10
103.39656306535
20
-0.44648803439501
30
0
41
1
10
103.159064382012
20
-0.610311735906676
30
0
41
1
10
102.996122711472
20
-0.770628352461384
30
0
41
1
10
102.900891863146
20
-0.91741586109853
30
0
41
1
10
102.861200486781
20
-1.05944274488491
30
0
41
1
10
102.86576681111
20
-1.13900622469932
30
0
41
1
10
102.879171008354
20
-1.17934404467054
30
0
0
SPLINE
5
167
100
AcDbEntity
8
1
62
256
6
ByLayer
370
18
48
1
60
0
100
AcDbSpline
70
4
71
3
72
21
73
17
40
0
40
0
40
0
40
0
40
0.0387846401381892
40
0.0869206919828092
40
0.143208125786672
40
0.206285280140791
40
0.315676119316985
40
0.432650019755857
40
0.540774574240226
40
0.645946529719764
40
0.743522580537986
40
0.828841547097602
40
0.899151826988436
40
0.936215701465231
40
0.969831648817451
40
1
40
1
40
1
40
1
41
1
10
92.4574619626117
20
-2.56016243658746
30
0
41
1
10
92.5955714180365
20
-2.57497782127679
30
0
41
1
10
92.905257113033
20
-2.59723349223507
30
0
41
1
10
93.4174759685868
20
-2.5811663182048
30
0
41
1
10
94.0139672014323
20
-2.53681838195712
30
0
41
1
10
94.8261776009625
20
-2.44651551856454
30
0
41
1
10
95.849867441494
20
-2.29931188590843
30
0
41
1
10
97.0282543612336
20
-2.09819199225243
30
0
41
1
10
98.1860677164993
20
-1.87822307798719
30
0
41
1
10
99.2701173639422
20
-1.65861865130715
30
0
41
1
10
100.269086533018
20
-1.44931739502989
30
0
41
1
10
101.140383244544
20
-1.26319737821193
30
0
41
1
10
101.797506183281
20
-1.13078485624187
30
0
41
1
10
102.272313522914
20
-1.08801474548584
30
0
41
1
10
102.596703818512
20
-1.11764770687817
30
0
41
1
10
102.790097292095
20
-1.15580087494969
30
0
41
1
10
102.879171008354
20
-1.17934404467063
30
0
0
SPLINE
5
168
100
AcDbEntity
8
1
62
256
6
ByLayer
370
18
48
1
60
0
100
AcDbSpline
70
4
71
3
72
15
73
11
40
0
40
0
40
0
40
0
40
0.113779781629083
40
0.227638929968222
40
0.353559136983215
40
0.479544210916592
40
0.63229992321891
40
0.785036244231013
40
0.892516027901573
40
1
40
1
40
1
40
1
41
1
10
97.2057169742071
20
1.31680733650707
30
0
41
1
10
97.1159552807449
20
1.16950464196045
30
0
41
1
10
96.9180970059015
20
0.88984783771766
30
0
41
1
10
96.549399939735
20
0.499041956255984
30
0
41
1
10
96.1161524335293
20
0.152737223615288
30
0
41
1
10
95.5901464779509
20
-0.162191840650785
30
0
41
1
10
94.9858150524813
20
-0.413816071411745
30
0
41
1
10
94.3771053903733
20
-0.564299262761739
30
0
41
1
10
93.8230374450021
20
-0.624748767923716
30
0
41
1
10
93.4985071296667
20
-0.623782322535794
30
0
41
1
10
93.3356501961004
20
-0.614288131363195
30
0
0
SPLINE
5
169
100
AcDbEntity
8
1
62
256
6
ByLayer
370
18
48
1
60
0
100
AcDbSpline
70
4
71
3
72
17
73
13
40
0
40
0
40
0
40
0
40
0.130238464742308
40
0.263334731270983
40
0.393954289831347
40
0.51637334524818
40
0.624775654101447
40
0.716205662892976
40
0.783807881204231
40
0.846432154747478
40
0.915848407525957
40
1
40
1
40
1
40
1
41
1
10
97.2057169742071
20
1.31680733650706
30
0
41
1
10
97.5365216507644
20
1.25389714262756
30
0
41
1
10
98.2004028247696
20
1.12928966766782
30
0
41
1
10
99.1786005138863
20
0.95117043515186
30
0
41
1
10
100.12237654443
20
0.783409413470274
30
0
41
1
10
100.992599154013
20
0.632131918909335
30
0
41
1
10
101.756036583834
20
0.502956256364984
30
0
41
1
10
102.37641274193
20
0.399841152152898
30
0
41
1
10
102.879903650142
20
0.297577414335648
30
0
41
1
10
103.322522556043
20
0.177371491142405
30
0
41
1
10
103.790411214169
20
0.0417452989830847
30
0
41
1
10
104.119432803751
20
-0.0467345299360841
30
0
41
1
10
104.298157475033
20
-0.0940153788720679
30
0
0
SPLINE
5
16A
100
AcDbEntity
8
1
62
256
6
ByLayer
370
18
48
1
60
0
100
AcDbSpline
70
4
71
3
72
21
73
17
40
0
40
0
40
0
40
0
40
0.0387846401375008
40
0.0869206919816731
40
0.143208125785325
40
0.20628528013947
40
0.315676119316181
40
0.432650019756176
40
0.540774574242063
40
0.645946529723407
40
0.743522580543512
40
0.828841547104868
40
0.899151826997124
40
0.936215701474594
40
0.969831648827315
40
1
40
1
40
1
40
1
41
1
10
95.5692434727228
20
9.18075361040225
30
0
41
1
10
95.6965039554857
20
9.12500447867531
30
0
41
1
10
95.9765102548747
20
8.99076688002489
30
0
41
1
10
96.4138666961568
20
8.72437420973423
30
0
41
1
10
96.910565696517
20
8.39220078038219
30
0
41
1
10
97.5720988387612
20
7.91399039111459
30
0
41
1
10
98.3891329512697
20
7.28147104341575
30
0
41
1
10
99.3132957731281
20
6.5233899839758
30
0
41
1
10
100.209256676655
20
5.75537576297746
30
0
41
1
10
101.040574234074
20
5.0214086609963
30
0
41
1
10
101.802449468493
20
4.33614197503895
30
0
41
1
10
102.464419193563
20
3.73246021223431
30
0
41
1
10
102.966739161945
20
3.28079294809218
30
0
41
1
10
103.354846418552
20
2.99643906481769
30
0
41
1
10
103.648275467067
20
2.849987682479
30
0
41
1
10
103.83298015494
20
2.77905126696824
30
0
41
1
10
103.920908664679
20
2.75118717266206
30
0
0
SPLINE
5
16B
100
AcDbEntity
8
1
62
256
6
ByLayer
370
18
48
1
60
0
100
AcDbSpline
70
4
71
3
72
15
73
11
40
0
40
0
40
0
40
0
40
0.110693970968659
40
0.197429022413272
40
0.284502571994587
40
0.366456905974866
40
0.497678234412344
40
0.615432755153241
40
0.733526927695918
40
1
40
1
40
1
40
1
41
1
10
103.920908664758
20
2.75118717263467
30
0
41
1
10
103.888289077297
20
2.72624478982607
30
0
41
1
10
103.845279452191
20
2.66283805196845
30
0
41
1
10
103.815625854364
20
2.52226072995247
30
0
41
1
10
103.831826521143
20
2.3584365949419
30
0
41
1
10
103.892842133806
20
2.15157025241921
30
0
41
1
10
103.998727406536
20
1.92905167583889
30
0
41
1
10
104.136312455346
20
1.70539894566396
30
0
41
1
10
104.33918864915
20
1.42498874152625
30
0
41
1
10
104.500581327694
20
1.23103332511531
30
0
41
1
10
104.616699822205
20
1.1078617269808
30
0
0
SPLINE
5
16C
100
AcDbEntity
8
1
62
256
6
ByLayer
370
18
48
1
60
0
100
AcDbSpline
70
4
71
3
72
17
73
13
40
0
40
0
40
0
40
0
40
0.130238464790171
40
0.263334732062099
40
0.39395429185696
40
0.516373348690229
40
0.624775658810997
40
0.716205668354824
40
0.783807885365183
40
0.846432157703244
40
0.915848409145674
40
1
40
1
40
1
40
1
41
1
10
97.8234108906533
20
3.64739969939531
30
0
41
1
10
98.1401136956984
20
3.53128237082035
30
0
41
1
10
98.7745474291534
20
3.29556808304103
30
0
41
1
10
99.7055653024243
20
2.93943681021036
30
0
41
1
10
100.600906260985
20
2.58892759318074
30
0
41
1
10
101.424045555893
20
2.26000215778064
30
0
41
1
10
102.143773010237
20
1.96590635588713
30
0
41
1
10
102.727076333268
20
1.72291343206429
30
0
41
1
10
103.209288933355
20
1.54036549080472
30
0
41
1
10
103.647931552233
20
1.40515682658475
30
0
41
1
10
104.115418009117
20
1.26801310789994
30
0
41
1
10
104.440550216077
20
1.16485843286353
30
0
41
1
10
104.616699822188
20
1.10786172698635
30
0
0
SPLINE
5
16D
100
AcDbEntity
8
1
62
256
6
ByLayer
370
18
48
1
60
0
100
AcDbSpline
70
4
71
3
72
14
73
10
40
0
40
0
40
0
40
0
40
0.160803108009355
40
0.321601255345446
40
0.482749910744496
40
0.643860957374316
40
0.777689287684141
40
0.911384844347718
40
1
40
1
40
1
40
1
41
1
10
95.4159728899205
20
7.23487930517633
30
0
41
1
10
95.6353870277131
20
7.12476861477166
30
0
41
1
10
96.0502635130457
20
6.87343143808225
30
0
41
1
10
96.6082726779912
20
6.39585892763169
30
0
41
1
10
97.0803417121252
20
5.83816453946068
30
0
41
1
10
97.4350295591412
20
5.24674770861814
30
0
41
1
10
97.673730222287
20
4.64463518260242
30
0
41
1
10
97.7933266206789
20
4.11652785286915
30
0
41
1
10
97.8199842709185
20
3.78206028361336
30
0
41
1
10
97.8234110309176
20
3.64739964801725
30
0
0
SPLINE
5
16E
100
AcDbEntity
8
1
62
256
6
ByLayer
370
18
48
1
60
0
100
AcDbSpline
70
4
71
2
72
6
73
3
40
0
40
0
40
0
40
1
40
1
40
1
41
1
10
93.0777545484486
20
-0.59115060307284
30
0
41
1
10
92.7784098946694
20
-0.555349609686777
30
0
41
1
10
92.4894813073788
20
-0.477337030514634
30
0
0
SPLINE
5
16F
100
AcDbEntity
8
1
62
256
6
ByLayer
370
18
48
1
60
0
100
AcDbSpline
70
4
71
3
72
11
73
7
40
0
40
0
40
0
40
0
40
0.287267503471612
40
0.570601528946045
40
0.78359306756729
40
1
40
1
40
1
40
1
41
1
10
97.8234110309169
20
3.64739964801779
30
0
41
1
10
97.8285984213938
20
3.4110365293778
30
0
41
1
10
97.8018094647595
20
2.94776758111128
30
0
41
1
10
97.6622585395058
20
2.32048997276681
30
0
41
1
10
97.4577989587424
20
1.77618971812273
30
0
41
1
10
97.2967286744061
20
1.46777603704257
30
0
41
1
10
97.2057169742071
20
1.31680733650707
30
0
0
SPLINE
5
170
100
AcDbEntity
8
1
62
256
6
ByLayer
370
18
48
1
60
0
100
AcDbSpline
70
4
71
2
72
6
73
3
40
0
40
0
40
0
40
1
40
1
40
1
41
1
10
104.616699822205
20
1.1078617269808
30
0
41
1
10
105.048545538438
20
0.631689002269326
30
0
41
1
10
105.486396381031
20
0.202943145535418
30
0
0
SPLINE
5
171
100
AcDbEntity
8
1
62
256
6
ByLayer
370
18
48
1
60
0
100
AcDbSpline
70
4
71
2
72
6
73
3
40
0
40
0
40
0
40
1
40
1
40
1
41
1
10
105.48639638102
20
0.202943145546769
30
0
41
1
10
104.901217631037
20
0.0772543034601889
30
0
41
1
10
104.298157475043
20
-0.0940153788747413
30
0
0
SPLINE
5
172
100
AcDbEntity
8
1
62
256
6
ByLayer
370
18
48
1
60
0
100
AcDbSpline
70
4
71
3
72
16
73
12
40
0
40
0
40
0
40
0
40
0.193175194179158
40
0.386603933897724
40
0.49900769381081
40
0.611232808940374
40
0.703623602274012
40
0.795912588408085
40
0.868506640166581
40
0.94103684844427
40
1
40
1
40
1
40
1
41
1
10
84.3270261125237
20
-1.41919725942077
30
0
41
1
10
84.2125463957844
20
-1.30377838278217
30
0
41
1
10
84.0145769319868
20
-1.04582751769857
30
0
41
1
10
83.8608225202381
20
-0.658031241116938
30
0
41
1
10
83.7570642671487
20
-0.267381803593682
30
0
41
1
10
83.7003394142128
20
0.0737014024750239
30
0
41
1
10
83.6708400937805
20
0.4333080036526
30
0
41
1
10
83.6696070946103
20
0.771951263409101
30
0
41
1
10
83.6934458252366
20
1.10010871558311
30
0
41
1
10
83.7332504587294
20
1.38938388698071
30
0
41
1
10
83.7692547663579
20
1.57381994633739
30
0
41
1
10
83.7875477428875
20
1.65657100696832
30
0
0
SPLINE
5
173
100
AcDbEntity
8
1
62
256
6
ByLayer
370
18
48
1
60
0
100
AcDbSpline
70
4
71
3
72
10
73
6
40
0
40
0
40
0
40
0
40
0.324059532807391
40
0.655488310967222
40
1
40
1
40
1
40
1
41
1
10
84.582251378133
20
-1.79427339389265
30
0
41
1
10
84.400740852544
20
-1.75642736074588
30
0
41
1
10
84.0296863820171
20
-1.6470376607693
30
0
41
1
10
83.4306047150941
20
-1.39408297993991
30
0
41
1
10
83.0461486738596
20
-1.13143601700094
30
0
41
1
10
82.8518047564369
20
-0.976465606813604
30
0
0
SPLINE
5
174
100
AcDbEntity
8
1
62
256
6
ByLayer
370
18
48
1
60
0
100
AcDbSpline
70
4
71
3
72
15
73
11
40
0
40
0
40
0
40
0
40
0.0745275399797382
40
0.149166569620988
40
0.29671410198799
40
0.404641565313068
40
0.512745133321917
40
0.692425899560696
40
0.872499590221622
40
1
40
1
40
1
40
1
41
1
10
85.9738574377535
20
9.90563299822126
30
0
41
1
10
86.0059504753916
20
10.0087101637342
30
0
41
1
10
86.0755019970151
20
10.2098158798197
30
0
41
1
10
86.2358484228794
20
10.5934223806636
30
0
41
1
10
86.4465845895148
20
10.971669759903
30
0
41
1
10
86.6904623327989
20
11.3084006824496
30
0
41
1
10
86.9559176474324
20
11.6062094261173
30
0
41
1
10
87.25607259962
20
11.8636689458435
30
0
41
1
10
87.5758282808653
20
12.0364965505953
30
0
41
1
10
87.8129155204478
20
12.1008445094269
30
0
41
1
10
87.9152617240945
20
12.1194052855782
30
0
0
SPLINE
5
175
100
AcDbEntity
8
1
62
256
6
ByLayer
370
18
48
1
60
0
100
AcDbSpline
70
4
71
2
72
6
73
3
40
0
40
0
40
0
40
1
40
1
40
1
41
1
10
87.696762485331
20
12.2153151923325
30
0
41
1
10
87.0631442283792
20
12.3041643214493
30
0
41
1
10
86.3359434821286
20
12.1693738878596
30
0
0
SPLINE
5
176
100
AcDbEntity
8
1
62
256
6
ByLayer
370
18
48
1
60
0
100
AcDbSpline
70
4
71
1
72
4
73
2
40
0
40
0
40
1
40
1
41
1
10
92.4574619626117
20
-2.56016243658746
30
0
41
1
10
91.7345022105625
20
-3.6423162653809
30
0
0
SPLINE
5
177
100
AcDbEntity
8
1
62
256
6
ByLayer
370
18
48
1
60
0
100
AcDbSpline
70
4
71
1
72
4
73
2
40
0
40
0
40
1
40
1
41
1
10
95.5692434727228
20
9.18075361040225
30
0
41
1
10
95.4199061300429
20
10.2629074391977
30
0
0
SPLINE
5
178
100
AcDbEntity
8
1
62
256
6
ByLayer
370
18
48
1
60
0
100
AcDbSpline
70
4
71
1
72
4
73
2
40
0
40
0
40
1
40
1
41
1
10
102.123308842112
20
-3.95170878942769
30
0
41
1
10
101.812484073362
20
-3.91469740820683
30
0
0
SPLINE
5
179
100
AcDbEntity
8
1
62
256
6
ByLayer
370
18
48
1
60
0
100
AcDbSpline
70
4
71
3
72
11
73
7
40
0
40
0
40
0
40
0
40
0.302293823441659
40
0.613181578417232
40
0.805254037931544
40
1
40
1
40
1
40
1
41
1
10
99.5885389875951
20
-3.94686556102179
30
0
41
1
10
99.8327093843224
20
-3.91132964308191
30
0
41
1
10
100.316821031204
20
-3.85962087132545
30
0
41
1
10
100.934130196304
20
-3.83322842929722
30
0
41
1
10
101.431989321657
20
-3.86681320000126
30
0
41
1
10
101.688185283106
20
-3.89611305059598
30
0
41
1
10
101.812484073362
20
-3.91469740820683
30
0
0
SPLINE
5
17A
100
AcDbEntity
8
1
62
256
6
ByLayer
370
18
48
1
60
0
100
AcDbSpline
70
4
71
3
72
14
73
10
40
0
40
0
40
0
40
0
40
0.144402987238157
40
0.288816040396093
40
0.43464586630454
40
0.580466006356705
40
0.789543228855795
40
0.894806799335096
40
1
40
1
40
1
40
1
41
1
10
99.5885389875951
20
-3.94686556102179
30
0
41
1
10
99.2112993677057
20
-3.99824650410058
30
0
41
1
10
98.455367748869
20
-4.08298884735337
30
0
41
1
10
97.3122893057971
20
-4.15570583094213
30
0
41
1
10
96.1635097084641
20
-4.17510466450372
30
0
41
1
10
94.8448941746947
20
-4.12365797613638
30
0
41
1
10
93.6389228698007
20
-3.99343182718894
30
0
41
1
10
92.5455316986569
20
-3.82822897365158
30
0
41
1
10
92.0039083798443
20
-3.70915936936713
30
0
41
1
10
91.7345022105625
20
-3.6423162653809
30
0
0
SPLINE
5
17B
100
AcDbEntity
8
1
62
256
6
ByLayer
370
18
48
1
60
0
100
AcDbSpline
70
4
71
1
72
4
73
2
40
0
40
0
40
1
40
1
41
1
10
104.028623363482
20
-3.3420604090968
30
0
41
1
10
105.140333388601
20
-2.80768476859654
30
0
0
SPLINE
5
17C
100
AcDbEntity
8
1
62
256
6
ByLayer
370
18
48
1
60
0
100
AcDbSpline
70
4
71
1
72
4
73
2
40
0
40
0
40
1
40
1
41
1
10
102.123313216917
20
-3.95151750036426
30
0
41
1
10
104.028520228955
20
-3.3421242805897
30
0
0
SPLINE
5
17D
100
AcDbEntity
8
1
62
256
6
ByLayer
370
18
48
1
60
0
100
AcDbSpline
70
4
71
3
72
13
73
9
40
0
40
0
40
0
40
0
40
0.0949456310502645
40
0.189945938410663
40
0.381302979155933
40
0.576203035380219
40
0.772127636249983
40
1
40
1
40
1
40
1
41
1
10
95.4199061300429
20
10.2629074391977
30
0
41
1
10
95.6603463915044
20
10.1924893289162
30
0
41
1
10
96.1372042757346
20
10.0397089691567
30
0
41
1
10
97.0744987017426
20
9.67394190034931
30
0
41
1
10
98.2380727729202
20
9.16419349280882
30
0
41
1
10
99.6007449578854
20
8.4504063745921
30
0
41
1
10
100.987354483704
20
7.58189656963205
30
0
41
1
10
101.896037221459
20
6.92754697570558
30
0
41
1
10
102.372321369838
20
6.55649244685988
30
0
0
SPLINE
5
17E
100
AcDbEntity
8
1
62
256
6
ByLayer
370
18
48
1
60
0
100
AcDbSpline
70
4
71
3
72
11
73
7
40
0
40
0
40
0
40
0
40
0.27748993564133
40
0.56327749418293
40
0.780107031837086
40
1
40
1
40
1
40
1
41
1
10
104.270529694835
20
5.35963859115869
30
0
41
1
10
104.104422210967
20
5.43354537620618
30
0
41
1
10
103.760966063355
20
5.60552222716224
30
0
41
1
10
103.256856493279
20
5.9054826791252
30
0
41
1
10
102.792987562787
20
6.23419513331753
30
0
41
1
10
102.51305745779
20
6.44562762375289
30
0
41
1
10
102.372321369838
20
6.55649244685988
30
0
0
SPLINE
5
17F
100
AcDbEntity
8
1
62
256
6
ByLayer
370
18
48
1
60
0
100
AcDbSpline
70
4
71
1
72
4
73
2
40
0
40
0
40
1
40
1
41
1
10
104.270529694835
20
5.35963859115869
30
0
41
1
10
104.55413377415
20
5.21992211053093
30
0
0
SPLINE
5
180
100
AcDbEntity
8
1
62
256
6
ByLayer
370
18
48
1
60
0
100
AcDbSpline
70
4
71
1
72
4
73
2
40
0
40
0
40
1
40
1
41
1
10
105.902628659536
20
3.72891001309901
30
0
41
1
10
104.554042746919
20
5.21975385890185
30
0
0
SPLINE
5
181
100
AcDbEntity
8
1
62
256
6
ByLayer
370
18
48
1
60
0
100
AcDbSpline
70
4
71
1
72
4
73
2
40
0
40
0
40
1
40
1
41
1
10
105.902672906887
20
3.72882753476771
30
0
41
1
10
106.604906891807
20
2.71822844046082
30
0
0
SPLINE
5
182
100
AcDbEntity
8
1
62
256
6
ByLayer
370
18
48
1
60
0
100
AcDbSpline
70
4
71
1
72
4
73
2
40
0
40
0
40
1
40
1
41
1
10
106.288598488599
20
-2.19387983885097
30
0
41
1
10
106.518358205245
20
-2.10816028657455
30
0
0
SPLINE
5
183
100
AcDbEntity
8
1
62
256
6
ByLayer
370
18
48
1
60
0
100
AcDbSpline
70
4
71
1
72
4
73
2
40
0
40
0
40
1
40
1
41
1
10
107.446907059953
20
1.39530360163017
30
0
41
1
10
107.292017171399
20
1.59207186645482
30
0
0
SPLINE
5
184
100
AcDbEntity
8
1
62
256
6
ByLayer
370
18
48
1
60
0
100
AcDbSpline
70
4
71
3
72
19
73
15
40
0
40
0
40
0
40
0
40
0.120231815449534
40
0.227116561441901
40
0.320624828416345
40
0.435720855547786
40
0.523907259986269
40
0.572562166051293
40
0.61336153089967
40
0.659851863134285
40
0.716367092350801
40
0.791920569769348
40
0.886480144505441
40
1
40
1
40
1
40
1
41
1
10
90.5279028409489
20
7.30397056410391
30
0
41
1
10
90.3710589203717
20
7.34735124516848
30
0
41
1
10
90.0727842195228
20
7.40667566459948
30
0
41
1
10
89.6429286410787
20
7.43036648059582
30
0
41
1
10
89.2216902993861
20
7.40081353113589
30
0
41
1
10
88.8314250373174
20
7.32168111016775
30
0
41
1
10
88.5111520164467
20
7.2132092011899
30
0
41
1
10
88.2924657101316
20
7.11785952904817
30
0
41
1
10
88.1291596996957
20
7.03567200848021
30
0
41
1
10
87.9610888873885
20
6.93948235243914
30
0
41
1
10
87.7598276574275
20
6.80683601013829
30
0
41
1
10
87.5177971163974
20
6.6178919817904
30
0
41
1
10
87.2388374083644
20
6.34986071097827
30
0
41
1
10
87.0597895723666
20
6.12905367592047
30
0
41
1
10
86.9693462480576
20
6.0010095022221
30
0
0
SPLINE
5
185
100
AcDbEntity
8
1
62
256
6
ByLayer
370
18
48
1
60
0
100
AcDbSpline
70
4
71
3
72
17
73
13
40
0
40
0
40
0
40
0
40
0.157757247226144
40
0.284900415086179
40
0.352658331628341
40
0.406773927122073
40
0.452019558512583
40
0.542339665594531
40
0.663753348829503
40
0.762018414486725
40
0.87410312128042
40
1
40
1
40
1
40
1
41
1
10
86.9303736439301
20
2.0969930568959
30
0
41
1
10
87.0535133044883
20
1.91081376569053
30
0
41
1
10
87.3023138089366
20
1.60078090782715
30
0
41
1
10
87.6738093710234
20
1.27140369206505
30
0
41
1
10
87.9598177404222
20
1.07162669164078
30
0
41
1
10
88.1609938299629
20
0.951635725645445
30
0
41
1
10
88.3968722596135
20
0.829115513057301
30
0
41
1
10
88.7292567077096
20
0.688947619714836
30
0
41
1
10
89.1491285506467
20
0.570962971821056
30
0
41
1
10
89.6102122182772
20
0.503913018478269
30
0
41
1
10
90.0835786286998
20
0.494357088398348
30
0
41
1
10
90.4142940163837
20
0.534331711625153
30
0
41
1
10
90.5888623640721
20
0.568561435458392
30
0
0
SPLINE
5
186
100
AcDbEntity
8
1
62
256
6
ByLayer
370
18
48
1
60
0
100
AcDbSpline
70
4
71
3
72
17
73
13
40
0
40
0
40
0
40
0
40
0.157821708881596
40
0.285015117513143
40
0.3527943332601
40
0.406921149610397
40
0.45217003155415
40
0.542497913360427
40
0.66391355169703
40
0.816351868500682
40
0.904297858577639
40
1
40
1
40
1
40
1
41
1
10
86.9693463133908
20
6.00100959320634
30
0
41
1
10
86.84313357698
20
5.82159586945776
30
0
41
1
10
86.6494553549637
20
5.48255203674934
30
0
41
1
10
86.4840881224141
20
5.02362738359036
30
0
41
1
10
86.4066917561505
20
4.6894667555763
30
0
41
1
10
86.3712991031711
20
4.46175468746117
30
0
41
1
10
86.3466546519298
20
4.20128671839183
30
0
41
1
10
86.3420585919981
20
3.84598458377762
30
0
41
1
10
86.3993899020732
20
3.34387853134332
30
0
41
1
10
86.5373240204439
20
2.85817099620926
30
0
41
1
10
86.7279648632958
20
2.43007540959238
30
0
41
1
10
86.8565723915741
20
2.20899527192113
30
0
41
1
10
86.9303736700702
20
2.09699301625508
30
0
0
SPLINE
5
187
100
AcDbEntity
8
SK1
62
256
6
ByLayer
370
18
48
1
60
0
100
AcDbSpline
70
4
71
2
72
6
73
3
40
0
40
0
40
0
40
1
40
1
40
1
41
0.500003660046511
10
-0.200000000000035
20
-7.06635637915061
30
0
41
0.499996339953489
10
-0.200000000000035
20
-6.95057438850096
30
0
41
0.500003660046511
10
-0.200000000000035
20
-6.83438537300107
30
0
0
SPLINE
5
188
100
AcDbEntity
8
SK1
62
256
6
ByLayer
370
18
48
1
60
0
100
AcDbSpline
70
4
71
2
72
6
73
3
40
0
40
0
40
0
40
1
40
1
40
1
41
0.500003660052447
10
-0.200000000000035
20
6.83438539664981
30
0
41
0.499996339947553
10
-0.200000000000035
20
6.95057450632969
30
0
41
0.500003660052447
10
-0.200000000000035
20
7.06635659049324
30
0
0
SPLINE
5
189
100
AcDbEntity
8
1
62
256
6
ByLayer
370
18
48
1
60
0
100
AcDbSpline
70
4
71
2
72
6
73
3
40
0
40
0
40
0
40
1
40
1
40
1
41
0.500270904229879
10
106.360605944212
20
-2.16000278351136
30
0
41
0.499729095770121
10
106.261088955462
20
-2.22572326842227
30
0
41
0.500270904229879
10
106.155960133096
20
-2.28180687328098
30
0
0
SPLINE
5
18A
100
AcDbEntity
8
1
62
256
6
ByLayer
370
18
48
1
60
0
100
AcDbSpline
70
4
71
2
72
6
73
3
40
0
40
0
40
0
40
1
40
1
40
1
41
0.500222025195757
10
104.964986006131
20
-8.0468428995066
30
0
41
0.499777974804243
10
104.931871812875
20
-8.0468428995066
30
0
41
0.500222025195757
10
104.89887515018
20
-8.04402479473643
30
0
0
SPLINE
5
18B
100
AcDbEntity
8
1
62
256
6
ByLayer
370
18
48
1
60
0
100
AcDbSpline
70
4
71
2
72
6
73
3
40
0
40
0
40
0
40
1
40
1
40
1
41
0.500222025195714
10
104.898875150219
20
8.04402479478407
30
0
41
0.499777974804286
10
104.93187181291
20
8.0468428995537
30
0
41
0.500222025195714
10
104.964986006163
20
8.0468428995537
30
0
0
SPLINE
5
18C
100
AcDbEntity
8
1
62
256
6
ByLayer
370
18
48
1
60
0
100
AcDbSpline
70
4
71
2
72
6
73
3
40
0
40
0
40
0
40
1
40
1
40
1
41
0.500006827532375
10
84.582251378133
20
-1.79427339389265
30
0
41
0.499993172467625
10
84.6191790274942
20
-1.80267208876667
30
0
41
0.500006827532375
10
84.6556041651374
20
-1.8109157295138
30
0
0
SPLINE
5
18D
100
AcDbEntity
8
1
62
256
6
ByLayer
370
18
48
1
60
0
100
AcDbSpline
70
4
71
2
72
6
73
3
40
0
40
0
40
0
40
1
40
1
40
1
41
0.500009077127154
10
90.3452585698235
20
13.5439954481574
30
0
41
0.499990922872846
10
90.3373182923222
20
13.5108621750712
30
0
41
0.500009077127154
10
90.3285918243717
20
13.4779367504357
30
0
0
LINE
5
70
100
AcDbEntity
8
1
62
256
6
ByLayer
370
18
48
1
60
0
100
AcDbLine
10
0.3
20
31.5
30
0
11
0
21
31.2
31
0
39
0
210
0
220
0
230
1
0
LINE
5
72
100
AcDbEntity
8
1
62
256
6
ByLayer
370
18
48
1
60
0
100
AcDbLine
10
0
20
-31.2
30
0
11
0.3
21
-31.5
31
0
39
0
210
0
220
0
230
1
0
LINE
5
73
100
AcDbEntity
8
1
62
256
6
ByLayer
370
18
48
1
60
0
100
AcDbLine
10
22
20
31.5
30
0
11
0.3
21
31.5
31
0
39
0
210
0
220
0
230
1
0
LINE
5
74
100
AcDbEntity
8
1
62
256
6
ByLayer
370
18
48
1
60
0
100
AcDbLine
10
0.3
20
-31.5
30
0
11
22
21
-31.5
31
0
39
0
210
0
220
0
230
1
0
LINE
5
75
100
AcDbEntity
8
1
62
256
6
ByLayer
370
18
48
1
60
0
100
AcDbLine
10
10.538675
20
30.080593
30
0
11
13.461325
21
30.080593
31
0
39
0
210
0
220
0
230
1
0
LINE
5
76
100
AcDbEntity
8
1
62
256
6
ByLayer
370
18
48
1
60
0
100
AcDbLine
10
13.461325
20
9.349221
30
0
11
10.538675
21
9.349221
31
0
39
0
210
0
220
0
230
1
0
LINE
5
77
100
AcDbEntity
8
1
62
256
6
ByLayer
370
18
48
1
60
0
100
AcDbLine
10
10.538675
20
-9.349221
30
0
11
13.461325
21
-9.349221
31
0
39
0
210
0
220
0
230
1
0
LINE
5
78
100
AcDbEntity
8
1
62
256
6
ByLayer
370
18
48
1
60
0
100
AcDbLine
10
13.461325
20
-30.080593
30
0
11
10.538675
21
-30.080593
31
0
39
0
210
0
220
0
230
1
0
LINE
5
79
100
AcDbEntity
8
1
62
256
6
ByLayer
370
18
48
1
60
0
100
AcDbLine
10
13.461325
20
9.349221
30
0
11
13.461325
21
30.080593
31
0
39
0
210
0
220
0
230
1
0
LINE
5
7A
100
AcDbEntity
8
1
62
256
6
ByLayer
370
18
48
1
60
0
100
AcDbLine
10
13.894338
20
9.869413
30
0
11
13.894338
21
29.913955
31
0
39
0
210
0
220
0
230
1
0
LINE
5
7B
100
AcDbEntity
8
1
62
256
6
ByLayer
370
18
48
1
60
0
100
AcDbLine
10
10.105662
20
-29.913955
30
0
11
10.105662
21
-9.869413
31
0
39
0
210
0
220
0
230
1
0
LINE
5
7C
100
AcDbEntity
8
1
62
256
6
ByLayer
370
18
48
1
60
0
100
AcDbLine
10
10.538675
20
-30.080593
30
0
11
10.538675
21
-9.349221
31
0
39
0
210
0
220
0
230
1
0
LINE
5
7D
100
AcDbEntity
8
1
62
256
6
ByLayer
370
18
48
1
60
0
100
AcDbLine
10
10.105662
20
9.869413
30
0
11
10.105662
21
29.913955
31
0
39
0
210
0
220
0
230
1
0
LINE
5
7E
100
AcDbEntity
8
1
62
256
6
ByLayer
370
18
48
1
60
0
100
AcDbLine
10
10.538675
20
9.349221
30
0
11
10.538675
21
30.080593
31
0
39
0
210
0
220
0
230
1
0
LINE
5
7F
100
AcDbEntity
8
1
62
256
6
ByLayer
370
18
48
1
60
0
100
AcDbLine
10
13.461325
20
-30.080593
30
0
11
13.461325
21
-9.349221
31
0
39
0
210
0
220
0
230
1
0
LINE
5
80
100
AcDbEntity
8
1
62
256
6
ByLayer
370
18
48
1
60
0
100
AcDbLine
10
13.894338
20
-29.913955
30
0
11
13.894338
21
-9.869413
31
0
39
0
210
0
220
0
230
1
0
LINE
5
81
100
AcDbEntity
8
SK1
62
256
6
ByLayer
370
18
48
1
60
0
100
AcDbLine
10
-0.2
20
-22.45
30
0
11
0
21
-22.45
31
0
39
0
210
0
220
0
230
1
0
LINE
5
83
100
AcDbEntity
8
SK1
62
256
6
ByLayer
370
18
48
1
60
0
100
AcDbLine
10
0
20
22.45
30
0
11
-0.2
21
22.45
31
0
39
0
210
0
220
0
230
1
0
LINE
5
84
100
AcDbEntity
8
1
62
256
6
ByLayer
370
18
48
1
60
0
100
AcDbLine
10
55.374131
20
-19.799202
30
0
11
55.374131
21
-16.39563
31
0
39
0
210
0
220
0
230
1
0
LINE
5
85
100
AcDbEntity
8
1
62
256
6
ByLayer
370
18
48
1
60
0
100
AcDbLine
10
55.374131
20
-11.50132
30
0
11
55.374131
21
19.799202
31
0
39
0
210
0
220
0
230
1
0
LINE
5
86
100
AcDbEntity
8
1
62
256
6
ByLayer
370
18
48
1
60
0
100
AcDbLine
10
53.745032
20
-20.156589
30
0
11
53.745032
21
-16.538157
31
0
39
0
210
0
220
0
230
1
0
LINE
5
87
100
AcDbEntity
8
1
62
256
6
ByLayer
370
18
48
1
60
0
100
AcDbLine
10
90.328592
20
13.477937
30
0
11
89.875111
21
11.766931
31
0
39
0
210
0
220
0
230
1
0
LINE
5
88
100
AcDbEntity
8
1
62
256
6
ByLayer
370
18
48
1
60
0
100
AcDbLine
10
105.015913
20
7.94474
30
0
11
100.533082
21
11.747607
31
0
39
0
210
0
220
0
230
1
0
LINE
5
89
100
AcDbEntity
8
1
62
256
6
ByLayer
370
18
48
1
60
0
100
AcDbLine
10
102.90822
20
6.156745
30
0
11
105.015913
21
7.94474
31
0
39
0
210
0
220
0
230
1
0
LINE
5
8A
100
AcDbEntity
8
1
62
256
6
ByLayer
370
18
48
1
60
0
100
AcDbLine
10
98.819598
20
-4.115341
30
0
11
98.931442
21
-4.020461
31
0
39
0
210
0
220
0
230
1
0
LINE
5
8B
100
AcDbEntity
8
1
62
256
6
ByLayer
370
18
48
1
60
0
100
AcDbLine
10
100.210839
20
-3.878544
30
0
11
105.031277
21
-7.931706
31
0
39
0
210
0
220
0
230
1
0
LINE
5
8C
100
AcDbEntity
8
1
62
256
6
ByLayer
370
18
48
1
60
0
100
AcDbLine
10
100.533082
20
-11.747607
30
0
11
105.031277
21
-7.931706
31
0
39
0
210
0
220
0
230
1
0
LINE
5
8D
100
AcDbEntity
8
1
62
256
6
ByLayer
370
18
48
1
60
0
100
AcDbLine
10
100.533082
20
-11.747607
30
0
11
60.2216
21
-18.855609
31
0
39
0
210
0
220
0
230
1
0
LINE
5
8E
100
AcDbEntity
8
1
62
256
6
ByLayer
370
18
48
1
60
0
100
AcDbLine
10
80.225359
20
13.137871
30
0
11
77.138995
21
1.492858
31
0
39
0
210
0
220
0
230
1
0
LINE
5
8F
100
AcDbEntity
8
1
62
256
6
ByLayer
370
18
48
1
60
0
100
AcDbLine
10
86.184752
20
-2.156989
30
0
11
85.720476
21
-3.908728
31
0
39
0
210
0
220
0
230
1
0
LINE
5
90
100
AcDbEntity
8
1
62
256
6
ByLayer
370
18
48
1
60
0
100
AcDbLine
10
83.402564
20
8.947771
30
0
11
81.866526
21
3.152216
31
0
39
0
210
0
220
0
230
1
0
LINE
5
91
100
AcDbEntity
8
1
62
256
6
ByLayer
370
18
48
1
60
0
100
AcDbLine
10
85.720476
20
-3.908728
30
0
11
85.007799
21
-3.741415
31
0
39
0
210
0
220
0
230
1
0
LINE
5
92
100
AcDbEntity
8
1
62
256
6
ByLayer
370
18
48
1
60
0
100
AcDbLine
10
90.328592
20
13.477937
30
0
11
89.615915
21
13.645249
31
0
39
0
210
0
220
0
230
1
0
LINE
5
93
100
AcDbEntity
8
1
62
256
6
ByLayer
370
18
48
1
60
0
100
AcDbLine
10
105.015913
20
7.94474
30
0
11
105.060073
21
7.832444
31
0
39
0
210
0
220
0
230
1
0
LINE
5
94
100
AcDbEntity
8
1
62
256
6
ByLayer
370
18
48
1
60
0
100
AcDbLine
10
105.060073
20
7.832444
30
0
11
103.004949
21
6.089044
31
0
39
0
210
0
220
0
230
1
0
LINE
5
95
100
AcDbEntity
8
1
62
256
6
ByLayer
370
18
48
1
60
0
100
AcDbLine
10
97.268356
20
-4.214372
30
0
11
98.819598
21
-4.115341
31
0
39
0
210
0
220
0
230
1
0
LINE
5
96
100
AcDbEntity
8
1
62
256
6
ByLayer
370
18
48
1
60
0
100
AcDbLine
10
97.268356
20
-4.214372
30
0
11
97.350842
21
-4.144398
31
0
39
0
210
0
220
0
230
1
0
LINE
5
97
100
AcDbEntity
8
1
62
256
6
ByLayer
370
18
48
1
60
0
100
AcDbLine
10
100.373649
20
-3.865838
30
0
11
105.07554
21
-7.819323
31
0
39
0
210
0
220
0
230
1
0
LINE
5
98
100
AcDbEntity
8
1
62
256
6
ByLayer
370
18
48
1
60
0
100
AcDbLine
10
105.031277
20
-7.931706
30
0
11
105.07554
21
-7.819323
31
0
39
0
210
0
220
0
230
1
0
LINE
5
99
100
AcDbEntity
8
1
62
256
6
ByLayer
370
18
48
1
60
0
100
AcDbLine
10
97.200948
20
-4.148409
30
0
11
97.268356
21
-4.214372
31
0
39
0
210
0
220
0
230
1
0
LINE
5
9A
100
AcDbEntity
8
1
62
256
6
ByLayer
370
18
48
1
60
0
100
AcDbLine
10
55.675233
20
-16.369287
30
0
11
55.811589
21
-16.206784
31
0
39
0
210
0
220
0
230
1
0
LINE
5
9B
100
AcDbEntity
8
1
62
256
6
ByLayer
370
18
48
1
60
0
100
AcDbLine
10
55.401957
20
-11.524669
30
0
11
55.239455
21
-11.388313
31
0
39
0
210
0
220
0
230
1
0
LINE
5
9C
100
AcDbEntity
8
1
62
256
6
ByLayer
370
18
48
1
60
0
100
AcDbLine
10
55.239455
20
-11.388313
30
0
11
50.407937
21
-11.811016
31
0
39
0
210
0
220
0
230
1
0
LINE
5
9D
100
AcDbEntity
8
1
62
256
6
ByLayer
370
18
48
1
60
0
100
AcDbLine
10
50.843716
20
-16.79199
30
0
11
55.675233
21
-16.369287
31
0
39
0
210
0
220
0
230
1
0
LINE
5
9E
100
AcDbEntity
8
1
62
256
6
ByLayer
370
18
48
1
60
0
100
AcDbLine
10
114.719318
20
0.608239
30
0
11
106.169647
21
7.861082
31
0
39
0
210
0
220
0
230
1
0
LINE
5
9F
100
AcDbEntity
8
1
62
256
6
ByLayer
370
18
48
1
60
0
100
AcDbLine
10
106.169647
20
-7.861082
30
0
11
114.719318
21
-0.608239
31
0
39
0
210
0
220
0
230
1
0
LINE
5
A0
100
AcDbEntity
8
1
62
256
6
ByLayer
370
18
48
1
60
0
100
AcDbLine
10
100.447543
20
-3.863424
30
0
11
105.159993
21
-7.861082
31
0
39
0
210
0
220
0
230
1
0
LINE
5
A1
100
AcDbEntity
8
1
62
256
6
ByLayer
370
18
48
1
60
0
100
AcDbLine
10
105.159993
20
7.861082
30
0
11
103.0412
21
6.063672
31
0
39
0
210
0
220
0
230
1
0
LINE
5
A2
100
AcDbEntity
8
1
62
256
6
ByLayer
370
18
48
1
60
0
100
AcDbLine
10
105.159993
20
7.861082
30
0
11
105.048811
21
7.861082
31
0
39
0
210
0
220
0
230
1
0
LINE
5
A3
100
AcDbEntity
8
1
62
256
6
ByLayer
370
18
48
1
60
0
100
AcDbLine
10
105.059093
20
-7.861082
30
0
11
105.159993
21
-7.861082
31
0
39
0
210
0
220
0
230
1
0
LINE
5
A4
100
AcDbEntity
8
1
62
256
6
ByLayer
370
18
48
1
60
0
100
AcDbLine
10
104.964986
20
-8.046843
30
0
11
105.66482
21
-8.046843
31
0
39
0
210
0
220
0
230
1
0
LINE
5
A5
100
AcDbEntity
8
1
62
256
6
ByLayer
370
18
48
1
60
0
100
AcDbLine
10
105.66482
20
8.046843
30
0
11
104.964986
21
8.046843
31
0
39
0
210
0
220
0
230
1
0
LINE
5
A6
100
AcDbEntity
8
1
62
256
6
ByLayer
370
18
48
1
60
0
100
AcDbLine
10
92.489481
20
-0.477337
30
0
11
90.526953
21
0.054298
31
0
39
0
210
0
220
0
230
1
0
LINE
5
A7
100
AcDbEntity
8
1
62
256
6
ByLayer
370
18
48
1
60
0
100
AcDbLine
10
85.16452
20
-0.584555
30
0
11
92.457462
21
-2.560162
31
0
39
0
210
0
220
0
230
1
0
LINE
5
A8
100
AcDbEntity
8
1
62
256
6
ByLayer
370
18
48
1
60
0
100
AcDbLine
10
85.954441
20
9.838288
30
0
11
83.803987
21
1.724511
31
0
39
0
210
0
220
0
230
1
0
LINE
5
A9
100
AcDbEntity
8
1
62
256
6
ByLayer
370
18
48
1
60
0
100
AcDbLine
10
86.102173
20
8.175295
30
0
11
84.770939
21
3.152481
31
0
39
0
210
0
220
0
230
1
0
LINE
5
AA
100
AcDbEntity
8
1
62
256
6
ByLayer
370
18
48
1
60
0
100
AcDbLine
10
92.651806
20
8.071483
30
0
11
94.614335
21
7.539847
31
0
39
0
210
0
220
0
230
1
0
LINE
5
AB
100
AcDbEntity
8
1
62
256
6
ByLayer
370
18
48
1
60
0
100
AcDbLine
10
88.276301
20
11.156361
30
0
11
95.569243
21
9.180754
31
0
39
0
210
0
220
0
230
1
0
LINE
5
AC
100
AcDbEntity
8
1
62
256
6
ByLayer
370
18
48
1
60
0
100
AcDbLine
10
87.972981
20
7.699169
30
0
11
88.489793
21
7.637037
31
0
39
0
210
0
220
0
230
1
0
LINE
5
AD
100
AcDbEntity
8
1
62
256
6
ByLayer
370
18
48
1
60
0
100
AcDbLine
10
88.005115
20
7.726455
30
0
11
87.555698
21
7.780485
31
0
39
0
210
0
220
0
230
1
0
LINE
5
AE
100
AcDbEntity
8
1
62
256
6
ByLayer
370
18
48
1
60
0
100
AcDbLine
10
92.651806
20
8.071483
30
0
11
92.187817
21
8.127264
31
0
39
0
210
0
220
0
230
1
0
LINE
5
AF
100
AcDbEntity
8
1
62
256
6
ByLayer
370
18
48
1
60
0
100
AcDbLine
10
87.555698
20
7.780485
30
0
11
86.102173
21
8.175295
31
0
39
0
210
0
220
0
230
1
0
LINE
5
B0
100
AcDbEntity
8
1
62
256
6
ByLayer
370
18
48
1
60
0
100
AcDbLine
10
94.614335
20
7.539847
30
0
11
94.140888
21
7.596766
31
0
39
0
210
0
220
0
230
1
0
LINE
5
B1
100
AcDbEntity
8
1
62
256
6
ByLayer
370
18
48
1
60
0
100
AcDbLine
10
92.187817
20
8.127264
30
0
11
94.140888
21
7.596766
31
0
39
0
210
0
220
0
230
1
0
LINE
5
B2
100
AcDbEntity
8
1
62
256
6
ByLayer
370
18
48
1
60
0
100
AcDbLine
10
85.159841
20
-1.863712
30
0
11
84.582251
21
-1.794273
31
0
39
0
210
0
220
0
230
1
0
LINE
5
B3
100
AcDbEntity
8
1
62
256
6
ByLayer
370
18
48
1
60
0
100
AcDbLine
10
83.803987
20
1.724511
30
0
11
82.063493
21
1.933757
31
0
39
0
210
0
220
0
230
1
0
LINE
5
B4
100
AcDbEntity
8
1
62
256
6
ByLayer
370
18
48
1
60
0
100
AcDbLine
10
82.063493
20
1.933757
30
0
11
84.213948
21
10.047534
31
0
39
0
210
0
220
0
230
1
0
LINE
5
B5
100
AcDbEntity
8
1
62
256
6
ByLayer
370
18
48
1
60
0
100
AcDbLine
10
85.954441
20
9.838288
30
0
11
84.213948
21
10.047534
31
0
39
0
210
0
220
0
230
1
0
LINE
5
B6
100
AcDbEntity
8
1
62
256
6
ByLayer
370
18
48
1
60
0
100
AcDbLine
10
88.44437
20
12.125436
30
0
11
87.69664
21
12.21533
31
0
39
0
210
0
220
0
230
1
0
LINE
5
B7
100
AcDbEntity
8
1
62
256
6
ByLayer
370
18
48
1
60
0
100
AcDbLine
10
91.734502
20
-3.642316
30
0
11
86.541076
21
-2.235453
31
0
39
0
210
0
220
0
230
1
0
LINE
5
B8
100
AcDbEntity
8
1
62
256
6
ByLayer
370
18
48
1
60
0
100
AcDbLine
10
86.5355
20
-2.236369
30
0
11
86.541076
21
-2.235453
31
0
39
0
210
0
220
0
230
1
0
LINE
5
B9
100
AcDbEntity
8
1
62
256
6
ByLayer
370
18
48
1
60
0
100
AcDbLine
10
85.159841
20
-1.863712
30
0
11
86.5355
21
-2.236369
31
0
39
0
210
0
220
0
230
1
0
LINE
5
BA
100
AcDbEntity
8
1
62
256
6
ByLayer
370
18
48
1
60
0
100
AcDbLine
10
90.221993
20
11.672963
30
0
11
88.846334
21
12.04562
31
0
39
0
210
0
220
0
230
1
0
LINE
5
BB
100
AcDbEntity
8
1
62
256
6
ByLayer
370
18
48
1
60
0
100
AcDbLine
10
90.221993
20
11.672963
30
0
11
90.22648
21
11.66977
31
0
39
0
210
0
220
0
230
1
0
LINE
5
BC
100
AcDbEntity
8
1
62
256
6
ByLayer
370
18
48
1
60
0
100
AcDbLine
10
95.419906
20
10.262907
30
0
11
90.22648
21
11.66977
31
0
39
0
210
0
220
0
230
1
0
LINE
5
BD
100
AcDbEntity
8
1
62
256
6
ByLayer
370
18
48
1
60
0
100
AcDbLine
10
106.089519
20
-2.325851
30
0
11
106.288598
21
-2.19388
31
0
39
0
210
0
220
0
230
1
0
LINE
5
BE
100
AcDbEntity
8
1
62
256
6
ByLayer
370
18
48
1
60
0
100
AcDbLine
10
106.089519
20
-2.325851
30
0
11
105.140333
21
-2.807685
31
0
39
0
210
0
220
0
230
1
0
LINE
5
BF
100
AcDbEntity
8
1
62
256
6
ByLayer
370
18
48
1
60
0
100
AcDbLine
10
106.719969
20
-2.005817
30
0
11
106.518358
21
-2.10816
31
0
39
0
210
0
220
0
230
1
0
LINE
5
C0
100
AcDbEntity
8
1
62
256
6
ByLayer
370
18
48
1
60
0
100
AcDbLine
10
107.184878
20
1.806996
30
0
11
106.604907
21
2.718228
31
0
39
0
210
0
220
0
230
1
0
LINE
5
C1
100
AcDbEntity
8
1
62
256
6
ByLayer
370
18
48
1
60
0
100
AcDbLine
10
107.292017
20
1.592072
30
0
11
107.184878
21
1.806996
31
0
39
0
210
0
220
0
230
1
0
LINE
5
C2
100
AcDbEntity
8
1
62
256
6
ByLayer
370
18
48
1
60
0
100
AcDbLine
10
107.570095
20
1.201754
30
0
11
107.446907
21
1.395304
31
0
39
0
210
0
220
0
230
1
0
LINE
5
C3
100
AcDbEntity
8
1
62
256
6
ByLayer
370
18
48
1
60
0
100
AcDbLine
10
86.5355
20
-2.236369
30
0
11
84.655604
21
-1.810916
31
0
39
0
210
0
220
0
230
1
0
LINE
5
C4
100
AcDbEntity
8
1
62
256
6
ByLayer
370
18
48
1
60
0
100
AcDbLine
10
92.399217
20
-0.221242
30
0
11
92.644153
21
-0.221242
31
0
39
0
210
0
220
0
230
1
0
LINE
5
C5
100
AcDbEntity
8
1
62
256
6
ByLayer
370
18
48
1
60
0
100
AcDbLine
10
92.644153
20
7.778758
30
0
11
92.399217
21
7.778758
31
0
39
0
210
0
220
0
230
1
0
LINE
5
C6
100
AcDbEntity
8
SK1
62
256
6
ByLayer
370
18
48
1
60
0
100
AcDbLine
10
-3
20
-22
30
0
11
-3
21
22
31
0
39
0
210
0
220
0
230
1
0
LINE
5
C7
100
AcDbEntity
8
SK1
62
256
6
ByLayer
370
18
48
1
60
0
100
AcDbLine
10
-2
20
21.825128
30
0
11
-2
21
-21.825128
31
0
39
0
210
0
220
0
230
1
0
LINE
5
C8
100
AcDbEntity
8
SK1
62
256
6
ByLayer
370
18
48
1
60
0
100
AcDbLine
10
-0.4
20
21.825128
30
0
11
-0.4
21
6.104232
31
0
39
0
210
0
220
0
230
1
0
LINE
5
C9
100
AcDbEntity
8
SK1
62
256
6
ByLayer
370
18
48
1
60
0
100
AcDbLine
10
-0.4
20
-6.104232
30
0
11
-0.4
21
-21.825128
31
0
39
0
210
0
220
0
230
1
0
LINE
5
CA
100
AcDbEntity
8
SK1
62
256
6
ByLayer
370
18
48
1
60
0
100
AcDbLine
10
-36.500473
20
21.157872
30
0
11
-36.500473
21
-21.157996
31
0
39
0
210
0
220
0
230
1
0
LINE
5
CB
100
AcDbEntity
8
SK1
62
256
6
ByLayer
370
18
48
1
60
0
100
AcDbLine
10
-38
20
-20.239988
30
0
11
-38
21
20.247289
31
0
39
0
210
0
220
0
230
1
0
LINE
5
CC
100
AcDbEntity
8
1
62
256
6
ByLayer
370
18
48
1
60
0
100
AcDbLine
10
0.3
20
31.5
30
0
11
0.3
21
-31.5
31
0
39
0
210
0
220
0
230
1
0
LINE
5
CD
100
AcDbEntity
8
1
62
256
6
ByLayer
370
18
48
1
60
0
100
AcDbLine
10
0
20
-31.2
30
0
11
0
21
31.2
31
0
39
0
210
0
220
0
230
1
0
LINE
5
CE
100
AcDbEntity
8
1
62
256
6
ByLayer
370
18
48
1
60
0
100
AcDbLine
10
22
20
-31.5
30
0
11
22
21
31.5
31
0
39
0
210
0
220
0
230
1
0
LINE
5
CF
100
AcDbEntity
8
1
62
256
6
ByLayer
370
18
48
1
60
0
100
AcDbLine
10
50.256274
20
-16.846617
30
0
11
50.256274
21
20.991185
31
0
39
0
210
0
220
0
230
1
0
LINE
5
D0
100
AcDbEntity
8
SK1
62
256
6
ByLayer
370
18
48
1
60
0
100
AcDbLine
10
-1.307107
20
4.695915
30
0
11
-1.307107
21
-4.695917
31
0
39
0
210
0
220
0
230
1
0
LINE
5
D1
100
AcDbEntity
8
SK1
62
256
6
ByLayer
370
18
48
1
60
0
100
AcDbLine
10
-0.2
20
-22.45
30
0
11
-0.2
21
-7.454102
31
0
39
0
210
0
220
0
230
1
0
LINE
5
D2
100
AcDbEntity
8
SK1
62
256
6
ByLayer
370
18
48
1
60
0
100
AcDbLine
10
-0.2
20
7.454103
30
0
11
-0.2
21
22.45
31
0
39
0
210
0
220
0
230
1
0
LINE
5
D3
100
AcDbEntity
8
1
62
256
6
ByLayer
370
18
48
1
60
0
100
AcDbLine
10
50.407937
20
-11.811016
30
0
11
50.843716
21
-16.79199
31
0
39
0
210
0
220
0
230
1
0
LINE
5
D4
100
AcDbEntity
8
1
62
256
6
ByLayer
370
18
48
1
60
0
100
AcDbLine
10
55.401957
20
-11.524669
30
0
11
55.811589
21
-16.206784
31
0
39
0
210
0
220
0
230
1
0
LINE
5
D5
100
AcDbEntity
8
1
62
256
6
ByLayer
370
18
48
1
60
0
100
AcDbLine
10
55.675233
20
-16.369287
30
0
11
55.239455
21
-11.388313
31
0
39
0
210
0
220
0
230
1
0
LINE
5
D6
100
AcDbEntity
8
1
62
256
6
ByLayer
370
18
48
1
60
0
100
AcDbLine
10
50.080552
20
-21.035742
30
0
11
49.723371
21
-16.953137
31
0
39
0
210
0
220
0
230
1
0
LINE
5
D7
100
AcDbEntity
8
1
62
256
6
ByLayer
370
18
48
1
60
0
100
AcDbLine
10
104.721817
20
7.493949
30
0
11
104.565855
21
7.379042
31
0
39
0
210
0
220
0
230
1
0
LINE
5
D8
100
AcDbEntity
8
1
62
256
6
ByLayer
370
18
48
1
60
0
100
AcDbLine
10
104.721817
20
-7.493949
30
0
11
104.565855
21
-7.379042
31
0
39
0
210
0
220
0
230
1
0
LINE
5
D9
100
AcDbEntity
8
SK1
62
256
6
ByLayer
370
18
48
1
60
0
100
AcDbLine
10
-2.2
20
18.805799
30
0
11
-2.2
21
-18.805799
31
0
39
0
210
0
220
0
230
1
0
LINE
5
DA
100
AcDbEntity
8
1
62
256
6
ByLayer
370
18
48
1
60
0
100
AcDbLine
10
89.622786
20
13.671387
30
0
11
100.533082
21
11.747607
31
0
39
0
210
0
220
0
230
1
0
LINE
5
DB
100
AcDbEntity
8
1
62
256
6
ByLayer
370
18
48
1
60
0
100
AcDbLine
10
60.2216
20
18.855609
30
0
11
82.459588
21
14.934452
31
0
39
0
210
0
220
0
230
1
0
LINE
5
DC
100
AcDbEntity
8
4
62
256
6
ByLayer
370
18
48
0.05
60
0
100
AcDbLine
10
0
20
0
30
0
11
120.378981
21
0
31
0
39
0
210
0
220
0
230
1
0
LINE
5
DE
100
AcDbEntity
8
SK4
62
256
6
ByLayer
370
18
48
0.05
60
0
100
AcDbLine
10
-48.527246
20
0
30
0
11
120.378981
21
0
31
0
39
0
210
0
220
0
230
1
0
LINE
5
E0
100
AcDbEntity
8
80
62
256
6
ByLayer
370
18
48
1
60
0
100
AcDbLine
10
0
20
0
30
0
11
-18.527246
21
0
31
0
39
0
210
0
220
0
230
1
0
LINE
5
E1
100
AcDbEntity
8
81
62
256
6
ByLayer
370
18
48
1
60
0
100
AcDbLine
10
133.963558
20
0
30
0
11
115.436312
21
0
31
0
39
0
210
0
220
0
230
1
0
MTEXT
5
18E
100
AcDbEntity
8
SK6
62
256
6
ByLayer
370
18
48
1
60
0
100
AcDbMText
10
8.797555
20
-75.630573
30
0
210
0
220
0
230
1
1
\W0.6867;C6-DCMNN-00115-12
40
3
41
0
44
1.084337
50
0
71
7
72
5
7
iso_b_vert
0
DIMENSION
5
1A1
100
AcDbEntity
8
2
62
256
6
ByLayer
370
18
48
1
60
0
100
AcDbDimension
2
DimnDraft3D1
10
49.993465
20
0.3
30
0
11
49.993465
21
53.115031
31
0
70
32
71
5
72
1
41
1
210
0
220
0
230
1
3
Standard
100
AcDbAlignedDimension
13
2
23
115.436312
33
0
14
33.5
24
0.3
34
0
50
90
100
AcDbRotatedDimension
1001
ACAD
1000
DSTYLE
1002
{
1070
    74
1070
     0
1070
   279
1070
     0
1070
   172
1070
     1
1070
   173
1070
     1
1070
   340
1005
194
1070
   271
1070
     0
1070
    77
1070
     1
1070
    73
1070
     0
1070
   171
1070
     3
1070
   274
1070
     4
1070
   177
1070
     7
1070
   176
1070
     7
1070
   178
1070
     7
1070
    78
1070
     8
1070
    41
1041
3.175
1070
   147
1041
1.5
1070
    42
1041
2.0
1070
    44
1041
2.0
1070
   140
1041
3.0
1070
   343
1005
1A2
1070
   344
1005
1A2
1002
}
0
DIMENSION
5
1B8
100
AcDbEntity
8
SK2
62
256
6
ByLayer
370
18
48
1
60
0
100
AcDbDimension
2
DimnDraft3D2
10
31.5
20
60.952748
30
0
11
-7.61875
21
60.952748
31
0
70
32
71
5
72
1
41
1
210
0
220
0
230
1
3
Standard
100
AcDbAlignedDimension
13
-31.5
23
1.7
33
0
14
31.5
24
1.7
34
0
50
0
100
AcDbRotatedDimension
1001
ACAD
1000
DSTYLE
1002
{
1070
   279
1070
     0
1070
   172
1070
     1
1070
   173
1070
     1
1070
   340
1005
194
1070
    77
1070
     1
1070
    73
1070
     0
1070
   171
1070
     3
1070
   274
1070
     4
1070
   177
1070
     7
1070
   176
1070
     7
1070
   178
1070
     7
1070
    78
1070
     8
1070
    41
1041
3.175
1070
   147
1041
1.5
1070
    42
1041
2.0
1070
    44
1041
2.0
1070
   140
1041
3.0
1070
   343
1005
1A2
1070
   344
1005
1A2
1002
}
0
DIMENSION
5
1C6
100
AcDbEntity
8
2
62
256
6
ByLayer
370
18
48
1
60
0
100
AcDbDimension
2
DimnDraft3D3
10
106.169647
20
7.861082
30
0
11
94.66633
21
21.905466
31
0
70
34
71
5
72
1
41
1
210
0
220
0
230
1
3
Standard
100
AcDb2LineAngularDimension
13
115.436312
23
0
33
0
14
115.436312
24
-1
34
0
15
114.719318
25
0.608239
35
0
16
104.013565
26
24.669368
36
0
40
0
0
ENDSEC
0
SECTION
2
OBJECTS
0
DICTIONARY
5
231
330
0
100
AcDbDictionary
280
0
281
1
3
ACAD_GROUP
350
232
3
ACAD_MLINESTYLE
350
233
0
DICTIONARY
5
232
330
0
100
AcDbDictionary
280
0
281
1
0
DICTIONARY
5
233
330
0
100
AcDbDictionary
280
0
281
1
3
Standard
350
18
0
MLINESTYLE
5
18
330
233
100
AcDbMlineStyle
2
Standard
70
0
3

62
256
51
90
52
90
71
2
49
-0.5
62
256
6
ByLayer
49
0.5
62
256
6
ByLayer
0
RASTERVARIABLES
5
21f
330

100
AcDbRasterVariables
90
0
70
1
71
1
72
1
0
ENDSEC
0
EOF
