0
SECTION
2
HEADER
9
$ACADVER
1
AC1015
9
$DWGCODEPAGE
3
ANSI_1252
9
$HANDSEED
5
29d
9
$ANGBASE
50
0
9
$ANGDIR
70
0
9
$ATTMODE
70
1
9
$AUNITS
70
0
9
$AUPREC
70
0
9
$CECOLOR
62
256
9
$CELTSCALE
40
1
9
$CELTYPE
6
ByLayer
9
$CELWEIGHT
370
18
9
$CLAYER
8
0
9
$CMLJUST
70
0
9
$CMLSCALE
40
1
9
$CMLSTYLE
2
Standard
9
$DIMSTYLE
2
Standard
9
$TEXTSIZE
40
0.2
9
$TEXTSTYLE
7
Standard
9
$LUNITS
70
2
9
$LUPREC
70
4
9
$EXTNAMES
290
1
9
$INSUNITS
70
4
9
$LTSCALE
40
1
9
$LWDISPLAY
290
1
9
$PDMODE
70
0
9
$PDSIZE
40
0
9
$PLINEGEN
70
0
0
ENDSEC
0
SECTION
2
CLASSES
0
CLASS
1
RASTERVARIABLES
2
AcDbRasterVariables
3
ISM
90
0
280
0
281
0
0
ENDSEC
0
SECTION
2
TABLES
0
TABLE
2
VPORT
5
293
100
AcDbSymbolTable
0
VPORT
5
1
100
AcDbSymbolTableRecord
100
AcDbViewportTableRecord
2
*Active
70
0
10
0
20
0
11
1
21
1
12
-1
22
1
13
0
23
0
14
0.5
24
0.5
15
10
25
10
16
0
26
0
36
1
17
0
27
0
37
0
0
ENDTAB
0
TABLE
2
LTYPE
5
294
100
AcDbSymbolTable
0
LTYPE
5
14
100
AcDbSymbolTableRecord
100
AcDbLinetypeTableRecord
70
0
2
ByBlock
3

72
65
73
0
40
0
0
LTYPE
5
15
100
AcDbSymbolTableRecord
100
AcDbLinetypeTableRecord
70
0
2
ByLayer
3

72
65
73
0
40
0
0
LTYPE
5
16
100
AcDbSymbolTableRecord
100
AcDbLinetypeTableRecord
70
0
2
CONTINUOUS
3
Solid line
72
65
73
0
40
0
0
LTYPE
5
6A
100
AcDbSymbolTableRecord
100
AcDbLinetypeTableRecord
70
0
2
CENTER
3
____ _ ____ _ ____ _ ____
72
65
73
4
40
47.5
49
22
74
0
49
-8.5
74
0
49
8.5
74
0
49
-8.5
74
0
0
LTYPE
5
6B
100
AcDbSymbolTableRecord
100
AcDbLinetypeTableRecord
70
0
2
DASHED
3
__ __ __ __ __ __ __ __ __
72
65
73
2
40
25.72
49
12.86
74
0
49
-12.86
74
0
0
ENDTAB
0
TABLE
2
LAYER
5
295
100
AcDbSymbolTable
0
LAYER
5
10
100
AcDbSymbolTableRecord
100
AcDbLayerTableRecord
2
0
70
0
62
7
6
CONTINUOUS
290
1
370
-3
390
0
0
LAYER
5
6D
100
AcDbSymbolTableRecord
100
AcDbLayerTableRecord
2
80
70
0
62
-6
6
CONTINUOUS
290
1
370
-3
390
0
0
LAYER
5
6F
100
AcDbSymbolTableRecord
100
AcDbLayerTableRecord
2
81
70
0
62
-3
6
CONTINUOUS
290
1
370
-3
390
0
0
LAYER
5
71
100
AcDbSymbolTableRecord
100
AcDbLayerTableRecord
2
4
70
0
62
-2
6
CENTER
290
1
370
-3
390
0
0
LAYER
5
73
100
AcDbSymbolTableRecord
100
AcDbLayerTableRecord
2
1
70
0
62
4
6
CONTINUOUS
290
1
370
-3
390
0
0
LAYER
5
1FD
100
AcDbSymbolTableRecord
100
AcDbLayerTableRecord
2
2
70
0
62
7
6
CONTINUOUS
290
1
370
-3
390
0
0
LAYER
5
27f
100
AcDbSymbolTableRecord
100
AcDbLayerTableRecord
2
SK1
70
0
62
4
6
CONTINUOUS
290
1
370
-3
390
0
0
LAYER
5
280
100
AcDbSymbolTableRecord
100
AcDbLayerTableRecord
2
SK4
70
0
62
2
6
CENTER
290
1
370
-3
390
0
0
LAYER
5
281
100
AcDbSymbolTableRecord
100
AcDbLayerTableRecord
2
SK6
70
0
62
5
6
CONTINUOUS
290
1
370
-3
390
0
0
LAYER
5
282
100
AcDbSymbolTableRecord
100
AcDbLayerTableRecord
2
SK2
70
0
62
7
6
CONTINUOUS
290
1
370
-3
390
0
0
ENDTAB
0
TABLE
2
STYLE
5
296
100
AcDbSymbolTable
0
STYLE
5
11
100
AcDbSymbolTableRecord
100
AcDbTextStyleTableRecord
2
Standard
3
txt
70
0
71
0
40
0
41
1
42
0
50
0
0
STYLE
5
1E2
100
AcDbSymbolTableRecord
100
AcDbTextStyleTableRecord
2
iso_b_vert
3
simplex.shx
70
0
71
0
40
0
41
1
42
0
50
0
0
STYLE
5
1E3
100
AcDbSymbolTableRecord
100
AcDbTextStyleTableRecord
2
DWGDirectTextStyle
3
simplex
70
0
71
0
40
0
41
1
42
0
50
0
0
ENDTAB
0
TABLE
2
DIMSTYLE
5
297
100
AcDbSymbolTable
100
AcDbDimStyleTable
0
DIMSTYLE
105
27
100
AcDbSymbolTableRecord
100
AcDbDimStyleTableRecord
2
Standard
70
0
3
<>
41
0.18
42
0.0625
44
0.18
140
0.18
147
0.09
73
0
74
0
77
1
271
2
275
0
278
52
280
0
340
11
0
ENDTAB
0
TABLE
2
VIEW
5
298
100
AcDbSymbolTable
0
ENDTAB
0
TABLE
2
UCS
5
299
100
AcDbSymbolTable
0
ENDTAB
0
TABLE
2
APPID
5
29a
100
AcDbSymbolTable
0
APPID
5
12
100
AcDbSymbolTableRecord
100
AcDbRegAppTableRecord
2
ACAD
70
0
0
ENDTAB
0
TABLE
2
BLOCK_RECORD
5
29b
100
AcDbSymbolTable
0
BLOCK_RECORD
5
1F
100
AcDbSymbolTableRecord
100
AcDbBlockTableRecord
2
*Model_Space
340
0
70
0
0
BLOCK_RECORD
5
1B
100
AcDbSymbolTableRecord
100
AcDbBlockTableRecord
2
*Paper_Space
340
0
70
0
0
BLOCK_RECORD
5
23
100
AcDbSymbolTableRecord
100
AcDbBlockTableRecord
2
*Paper_Space0
340
0
70
0
0
BLOCK_RECORD
5
1E5
100
AcDbSymbolTableRecord
100
AcDbBlockTableRecord
2
DimnDraft3D1
340
0
70
0
0
BLOCK_RECORD
5
1F4
100
AcDbSymbolTableRecord
100
AcDbBlockTableRecord
2
_CLOSED
340
0
70
0
0
BLOCK_RECORD
5
1FB
100
AcDbSymbolTableRecord
100
AcDbBlockTableRecord
2
DimnDraft3D2
340
0
70
0
0
BLOCK_RECORD
5
20A
100
AcDbSymbolTableRecord
100
AcDbBlockTableRecord
2
DimnDraft3D3
340
0
70
0
0
BLOCK_RECORD
5
218
100
AcDbSymbolTableRecord
100
AcDbBlockTableRecord
2
DimnDraft3D4
340
0
70
0
0
ENDTAB
0
ENDSEC
0
SECTION
2
BLOCKS
0
BLOCK
5
20
100
AcDbEntity
8
0
100
AcDbBlockBegin
2
*Model_Space
70
0
10
0
20
0
30
0
3
*Model_Space
0
ENDBLK
5
21
100
AcDbEntity
8
0
100
AcDbBlockEnd
0
BLOCK
5
1C
100
AcDbEntity
8
0
100
AcDbBlockBegin
2
*Paper_Space
70
0
10
0
20
0
30
0
3
*Paper_Space
0
ENDBLK
5
1D
100
AcDbEntity
8
0
100
AcDbBlockEnd
0
BLOCK
5
24
100
AcDbEntity
8
0
100
AcDbBlockBegin
2
*Paper_Space0
70
0
10
0
20
0
30
0
3
*Paper_Space0
0
ENDBLK
5
25
100
AcDbEntity
8
0
100
AcDbBlockEnd
0
BLOCK
5
1F1
100
AcDbEntity
8
0
100
AcDbBlockBegin
2
DimnDraft3D1
70
0
10
0
20
0
30
0
3
DimnDraft3D1
0
MTEXT
5
1E6
100
AcDbEntity
8
SK2
62
256
6
ByLayer
370
18
48
1
60
0
100
AcDbMText
10
-58.040931
20
-4.452632
30
0
210
0
220
0
230
1
1
\W1.2949;%%c63
40
3
41
0
44
1.084337
50
90
71
7
72
5
7
iso_b_vert
0
LINE
5
1E8
100
AcDbEntity
8
SK2
62
256
6
ByLayer
370
13
48
1
60
0
100
AcDbLine
10
-1.7
20
-31.5
30
0
11
-58.540931
21
-31.5
31
0
39
0
210
0
220
0
230
1
0
LINE
5
1E9
100
AcDbEntity
8
SK2
62
256
6
ByLayer
370
13
48
1
60
0
100
AcDbLine
10
-1.7
20
31.5
30
0
11
-58.540931
21
31.5
31
0
39
0
210
0
220
0
230
1
0
LINE
5
1EA
100
AcDbEntity
8
SK2
62
256
6
ByLayer
370
13
48
1
60
0
100
AcDbLine
10
-56.540931
20
-31.5
30
0
11
-56.540931
21
31.5
31
0
39
0
210
0
220
0
230
1
0
LINE
5
1EB
100
AcDbEntity
8
SK2
62
256
6
ByLayer
370
13
48
1
60
0
100
AcDbLine
10
-56.540931
20
-31.5
30
0
11
-56.958927
21
-28.325002
31
0
39
0
210
0
220
0
230
1
0
LINE
5
1EC
100
AcDbEntity
8
SK2
62
256
6
ByLayer
370
13
48
1
60
0
100
AcDbLine
10
-56.540931
20
-31.5
30
0
11
-56.122934
21
-28.324998
31
0
39
0
210
0
220
0
230
1
0
LINE
5
1ED
100
AcDbEntity
8
SK2
62
256
6
ByLayer
370
13
48
1
60
0
100
AcDbLine
10
-56.958927
20
-28.325002
30
0
11
-56.122934
21
-28.324998
31
0
39
0
210
0
220
0
230
1
0
LINE
5
1EE
100
AcDbEntity
8
SK2
62
256
6
ByLayer
370
13
48
1
60
0
100
AcDbLine
10
-56.540931
20
31.5
30
0
11
-56.122934
21
28.325002
31
0
39
0
210
0
220
0
230
1
0
LINE
5
1EF
100
AcDbEntity
8
SK2
62
256
6
ByLayer
370
13
48
1
60
0
100
AcDbLine
10
-56.540931
20
31.5
30
0
11
-56.958927
21
28.324998
31
0
39
0
210
0
220
0
230
1
0
LINE
5
1F0
100
AcDbEntity
8
SK2
62
256
6
ByLayer
370
13
48
1
60
0
100
AcDbLine
10
-56.122934
20
28.325002
30
0
11
-56.958927
21
28.324998
31
0
39
0
210
0
220
0
230
1
0
ENDBLK
5
1F2
100
AcDbEntity
8
0
100
AcDbBlockEnd
0
BLOCK
5
1F5
100
AcDbEntity
8
0
100
AcDbBlockBegin
2
_CLOSED
70
0
10
0
20
0
30
0
3
_CLOSED
0
LINE
5
1F7
100
AcDbEntity
8
0
62
256
6
ByLayer
370
-2
48
1
60
0
100
AcDbLine
10
-1
20
0.166667
30
0
11
0
21
0
31
0
39
0
210
0
220
0
230
1
0
LINE
5
1F8
100
AcDbEntity
8
0
62
256
6
ByLayer
370
-2
48
1
60
0
100
AcDbLine
10
0
20
0
30
0
11
-1
21
-0.166667
31
0
39
0
210
0
220
0
230
1
0
LINE
5
1F9
100
AcDbEntity
8
0
62
256
6
ByLayer
370
-2
48
1
60
0
100
AcDbLine
10
-1
20
0.166667
30
0
11
-1
21
-0.166667
31
0
39
0
210
0
220
0
230
1
0
LINE
5
1FA
100
AcDbEntity
8
0
62
256
6
ByLayer
370
-2
48
1
60
0
100
AcDbLine
10
0
20
0
30
0
11
-1
21
0
31
0
39
0
210
0
220
0
230
1
0
ENDBLK
5
1F6
100
AcDbEntity
8
0
100
AcDbBlockEnd
0
BLOCK
5
207
100
AcDbEntity
8
0
100
AcDbBlockBegin
2
DimnDraft3D2
70
0
10
0
20
0
30
0
3
DimnDraft3D2
0
MTEXT
5
1FC
100
AcDbEntity
8
2
62
256
6
ByLayer
370
18
48
1
60
0
100
AcDbMText
10
104.669046
20
11.560372
30
0
210
0
220
0
230
1
1
\W0.6912;0.6
40
3
41
0
44
1.084337
50
90
71
7
72
5
7
iso_b_vert
0
LINE
5
1FE
100
AcDbEntity
8
2
62
256
6
ByLayer
370
13
48
1
60
0
100
AcDbLine
10
92.002856
20
0.555372
30
0
11
107.419046
21
0.555372
31
0
39
0
210
0
220
0
230
1
0
LINE
5
1FF
100
AcDbEntity
8
2
62
256
6
ByLayer
370
13
48
1
60
0
100
AcDbLine
10
97.336674
20
0
30
0
11
107.419046
21
0
31
0
39
0
210
0
220
0
230
1
0
LINE
5
200
100
AcDbEntity
8
2
62
256
6
ByLayer
370
13
48
1
60
0
100
AcDbLine
10
105.419046
20
-7.5
30
0
11
105.419046
21
15.491951
31
0
39
0
210
0
220
0
230
1
0
LINE
5
201
100
AcDbEntity
8
2
62
256
6
ByLayer
370
13
48
1
60
0
100
AcDbLine
10
105.419046
20
0.555372
30
0
11
105.00105
21
3.730371
31
0
39
0
210
0
220
0
230
1
0
LINE
5
202
100
AcDbEntity
8
2
62
256
6
ByLayer
370
13
48
1
60
0
100
AcDbLine
10
105.419046
20
0.555372
30
0
11
105.837043
21
3.730374
31
0
39
0
210
0
220
0
230
1
0
LINE
5
203
100
AcDbEntity
8
2
62
256
6
ByLayer
370
13
48
1
60
0
100
AcDbLine
10
105.00105
20
3.730371
30
0
11
105.837043
21
3.730374
31
0
39
0
210
0
220
0
230
1
0
LINE
5
204
100
AcDbEntity
8
2
62
256
6
ByLayer
370
13
48
1
60
0
100
AcDbLine
10
105.419046
20
0
30
0
11
105.837043
21
-3.174998
31
0
39
0
210
0
220
0
230
1
0
LINE
5
205
100
AcDbEntity
8
2
62
256
6
ByLayer
370
13
48
1
60
0
100
AcDbLine
10
105.419046
20
0
30
0
11
105.00105
21
-3.175002
31
0
39
0
210
0
220
0
230
1
0
LINE
5
206
100
AcDbEntity
8
2
62
256
6
ByLayer
370
13
48
1
60
0
100
AcDbLine
10
105.837043
20
-3.174998
30
0
11
105.00105
21
-3.175002
31
0
39
0
210
0
220
0
230
1
0
ENDBLK
5
208
100
AcDbEntity
8
0
100
AcDbBlockEnd
0
BLOCK
5
215
100
AcDbEntity
8
0
100
AcDbBlockBegin
2
DimnDraft3D3
70
0
10
0
20
0
30
0
3
DimnDraft3D3
0
MTEXT
5
20B
100
AcDbEntity
8
2
62
256
6
ByLayer
370
18
48
1
60
0
100
AcDbMText
10
43.998796
20
-47.181008
30
0
210
0
220
0
230
1
1
\W0.6563;90
40
3
41
0
44
1.084337
50
0
71
7
72
5
7
iso_b_vert
0
LINE
5
20C
100
AcDbEntity
8
2
62
256
6
ByLayer
370
13
48
1
60
0
100
AcDbLine
10
0
20
-33.2
30
0
11
0
21
-49.931008
31
0
39
0
210
0
220
0
230
1
0
LINE
5
20D
100
AcDbEntity
8
2
62
256
6
ByLayer
370
13
48
1
60
0
100
AcDbLine
10
90.002856
20
-1.444628
30
0
11
90.002856
21
-49.931008
31
0
39
0
210
0
220
0
230
1
0
LINE
5
20E
100
AcDbEntity
8
2
62
256
6
ByLayer
370
13
48
1
60
0
100
AcDbLine
10
0
20
-47.931008
30
0
11
90.002856
21
-47.931008
31
0
39
0
210
0
220
0
230
1
0
LINE
5
20F
100
AcDbEntity
8
2
62
256
6
ByLayer
370
13
48
1
60
0
100
AcDbLine
10
0
20
-47.931008
30
0
11
3.174998
21
-47.513012
31
0
39
0
210
0
220
0
230
1
0
LINE
5
210
100
AcDbEntity
8
2
62
256
6
ByLayer
370
13
48
1
60
0
100
AcDbLine
10
0
20
-47.931008
30
0
11
3.175002
21
-48.349005
31
0
39
0
210
0
220
0
230
1
0
LINE
5
211
100
AcDbEntity
8
2
62
256
6
ByLayer
370
13
48
1
60
0
100
AcDbLine
10
3.174998
20
-47.513012
30
0
11
3.175002
21
-48.349005
31
0
39
0
210
0
220
0
230
1
0
LINE
5
212
100
AcDbEntity
8
2
62
256
6
ByLayer
370
13
48
1
60
0
100
AcDbLine
10
90.002856
20
-47.931008
30
0
11
86.827857
21
-48.349005
31
0
39
0
210
0
220
0
230
1
0
LINE
5
213
100
AcDbEntity
8
2
62
256
6
ByLayer
370
13
48
1
60
0
100
AcDbLine
10
90.002856
20
-47.931008
30
0
11
86.827854
21
-47.513012
31
0
39
0
210
0
220
0
230
1
0
LINE
5
214
100
AcDbEntity
8
2
62
256
6
ByLayer
370
13
48
1
60
0
100
AcDbLine
10
86.827857
20
-48.349005
30
0
11
86.827854
21
-47.513012
31
0
39
0
210
0
220
0
230
1
0
ENDBLK
5
216
100
AcDbEntity
8
0
100
AcDbBlockEnd
0
BLOCK
5
223
100
AcDbEntity
8
0
100
AcDbBlockBegin
2
DimnDraft3D4
70
0
10
0
20
0
30
0
3
DimnDraft3D4
0
MTEXT
5
219
100
AcDbEntity
8
2
62
256
6
ByLayer
370
18
48
1
60
0
100
AcDbMText
10
73.457399
20
25.319967
30
0
210
0
220
0
230
1
1
\W0.7959;49%%d41'
40
3
41
0
44
1.084337
50
24.8457231612857
71
7
72
5
7
iso_b_vert
0
LINE
5
21A
100
AcDbEntity
8
2
62
256
6
ByLayer
370
13
48
1
60
0
100
AcDbLine
10
90.002856
20
2.555372
30
0
11
90.002856
21
31.229827
31
0
39
0
210
0
220
0
230
1
0
LINE
5
21B
100
AcDbEntity
8
2
62
256
6
ByLayer
370
13
48
1
60
0
100
AcDbLine
10
77.675262
20
11.013096
30
0
11
66.611383
21
20.398788
31
0
39
0
210
0
220
0
230
1
0
ARC
5
21C
100
AcDbEntity
8
2
62
256
6
ByLayer
370
13
48
1
60
0
100
AcDbCircle
39
0
10
90.002856
20
0.555372
30
0
40
28.6744545884189
210
0
220
0
230
1
100
AcDbArc
50
90
51
139.691446
0
LINE
5
21D
100
AcDbEntity
8
2
62
256
6
ByLayer
370
13
48
1
60
0
100
AcDbLine
10
90.002856
20
29.229827
30
0
11
86.840629
21
28.724202
31
0
39
0
210
0
220
0
230
1
0
LINE
5
21E
100
AcDbEntity
8
2
62
256
6
ByLayer
370
13
48
1
60
0
100
AcDbLine
10
90.002856
20
29.229827
30
0
11
86.817511
21
29.559876
31
0
39
0
210
0
220
0
230
1
0
LINE
5
21F
100
AcDbEntity
8
2
62
256
6
ByLayer
370
13
48
1
60
0
100
AcDbLine
10
86.840629
20
28.724202
30
0
11
86.817511
21
29.559876
31
0
39
0
210
0
220
0
230
1
0
LINE
5
220
100
AcDbEntity
8
2
62
256
6
ByLayer
370
13
48
1
60
0
100
AcDbLine
10
68.136526
20
19.104981
30
0
11
69.94545
21
21.747543
31
0
39
0
210
0
220
0
230
1
0
LINE
5
221
100
AcDbEntity
8
2
62
256
6
ByLayer
370
13
48
1
60
0
100
AcDbLine
10
68.136526
20
19.104981
30
0
11
70.56776
21
21.189318
31
0
39
0
210
0
220
0
230
1
0
LINE
5
222
100
AcDbEntity
8
2
62
256
6
ByLayer
370
13
48
1
60
0
100
AcDbLine
10
69.94545
20
21.747543
30
0
11
70.56776
21
21.189318
31
0
39
0
210
0
220
0
230
1
0
ENDBLK
5
224
100
AcDbEntity
8
0
100
AcDbBlockEnd
0
ENDSEC
0
SECTION
2
ENTITIES
0
ARC
5
F2
100
AcDbEntity
8
1
62
256
6
ByLayer
370
18
48
1
60
0
100
AcDbCircle
39
0
10
59.878478
20
70.924624
30
0
40
54.9999999999979
210
0
220
0
230
1
100
AcDbArc
50
236.693642
51
267
0
ARC
5
F3
100
AcDbEntity
8
1
62
256
6
ByLayer
370
18
48
1
60
0
100
AcDbCircle
39
0
10
59.878478
20
-70.924624
30
0
40
54.9999999999922
210
0
220
0
230
1
100
AcDbArc
50
93
51
123.306358
0
ELLIPSE
5
F4
100
AcDbEntity
8
1
62
256
6
ByLayer
370
18
48
1
60
0
100
AcDbEllipse
10
62.317217
20
0.624701
30
0
11
1.53075794227797E-16
21
2.5
31
0
210
0
220
0
230
1
40
0.989133
41
0
42
6.28318530717959
0
ELLIPSE
5
F5
100
AcDbEntity
8
1
62
256
6
ByLayer
370
18
48
1
60
0
100
AcDbEllipse
10
62.317217
20
0.624701
30
0
11
8.72532027130504E-17
21
1.42500000005236
31
0
210
0
220
0
230
1
40
0.989133
41
-2.25949859167642
42
-1.99910478317182
0
ELLIPSE
5
F6
100
AcDbEntity
8
1
62
256
6
ByLayer
370
18
48
1
60
0
100
AcDbEllipse
10
63.892085
20
-0.370197
30
0
11
3.06151588448057E-17
21
0.49999999998769
31
0
210
0
220
0
230
1
40
0.989133
41
0.119305502547681
42
0.633267154582053
0
ELLIPSE
5
F7
100
AcDbEntity
8
1
62
256
6
ByLayer
370
18
48
1
60
0
100
AcDbEllipse
10
63.780242
20
0.57305
30
0
11
2.75536429610037E-17
21
0.450000000000003
31
0
210
0
220
0
230
1
40
0.989133
41
-3.02228715104229
42
-0.189118672627306
0
ELLIPSE
5
F8
100
AcDbEntity
8
1
62
256
6
ByLayer
370
18
48
1
60
0
100
AcDbEllipse
10
63.956895
20
1.506112
30
0
11
3.0615158845623E-17
21
0.500000000001039
31
0
210
0
220
0
230
1
40
0.989133
41
2.43851232893646
42
2.95247398096241
0
ELLIPSE
5
F9
100
AcDbEntity
8
1
62
256
6
ByLayer
370
18
48
1
60
0
100
AcDbEllipse
10
62.317217
20
0.624701
30
0
11
8.72532027062814E-17
21
1.42499999994181
31
0
210
0
220
0
230
1
40
0.989133
41
-1.2123010404892
42
-0.951907231961418
0
ELLIPSE
5
FA
100
AcDbEntity
8
1
62
256
6
ByLayer
370
18
48
1
60
0
100
AcDbEllipse
10
63.956895
20
1.506112
30
0
11
3.06151588458138E-17
21
0.500000000004154
31
0
210
0
220
0
230
1
40
0.989133
41
1.16650305374766
42
1.6804647057699
0
ELLIPSE
5
FB
100
AcDbEntity
8
1
62
256
6
ByLayer
370
18
48
1
60
0
100
AcDbEllipse
10
63.092975
20
1.879812
30
0
11
2.75536429610039E-17
21
0.450000000000006
31
0
210
0
220
0
230
1
40
0.989133
41
-1.97508959984567
42
0
0
ELLIPSE
5
FC
100
AcDbEntity
8
1
62
256
6
ByLayer
370
18
48
1
60
0
100
AcDbEllipse
10
62.382027
20
2.50101
30
0
11
3.06151588442874E-17
21
0.499999999979226
31
0
210
0
220
0
230
1
40
0.989133
41
-2.79747542705018
42
-2.28351377500633
0
ELLIPSE
5
FD
100
AcDbEntity
8
1
62
256
6
ByLayer
370
18
48
1
60
0
100
AcDbEllipse
10
62.317217
20
0.624701
30
0
11
8.72532027096882E-17
21
1.42499999999745
31
0
210
0
220
0
230
1
40
0.989133
41
-0.165103489297846
42
0.0952903192180136
0
ELLIPSE
5
FE
100
AcDbEntity
8
1
62
256
6
ByLayer
370
18
48
1
60
0
100
AcDbEllipse
10
62.382027
20
2.50101
30
0
11
3.06151588466498E-17
21
0.500000000017808
31
0
210
0
220
0
230
1
40
0.989133
41
2.21370060495212
42
2.7276622569627
0
ELLIPSE
5
FF
100
AcDbEntity
8
1
62
256
6
ByLayer
370
18
48
1
60
0
100
AcDbEllipse
10
61.62995
20
1.931463
30
0
11
2.75536429609691E-17
21
0.449999999999438
31
0
210
0
220
0
230
1
40
0.989133
41
-0.927892048649713
42
0
0
ELLIPSE
5
100
100
AcDbEntity
8
1
62
256
6
ByLayer
370
18
48
1
60
0
100
AcDbEllipse
10
60.742349
20
1.619599
30
0
11
3.06151588459022E-17
21
0.500000000005598
31
0
210
0
220
0
230
1
40
0.989133
41
-1.75027787584851
42
-1.23631622382774
0
ELLIPSE
5
101
100
AcDbEntity
8
1
62
256
6
ByLayer
370
18
48
1
60
0
100
AcDbEllipse
10
62.317217
20
0.624701
30
0
11
8.7253202719847E-17
21
1.42500000016336
31
0
210
0
220
0
230
1
40
0.989133
41
0.88209406194035
42
1.14248787042219
0
ELLIPSE
5
102
100
AcDbEntity
8
1
62
256
6
ByLayer
370
18
48
1
60
0
100
AcDbEllipse
10
60.742349
20
1.619599
30
0
11
3.06151588457684E-17
21
0.500000000003413
31
0
210
0
220
0
230
1
40
0.989133
41
-3.02228715104223
42
-2.50832549901772
0
ELLIPSE
5
103
100
AcDbEntity
8
1
62
256
6
ByLayer
370
18
48
1
60
0
100
AcDbEllipse
10
60.854192
20
0.676352
30
0
11
2.75536429610035E-17
21
0.450000000000001
31
0
210
0
220
0
230
1
40
0.989133
41
0.119305502547493
42
2.95247398096252
0
ELLIPSE
5
104
100
AcDbEntity
8
1
62
256
6
ByLayer
370
18
48
1
60
0
100
AcDbEllipse
10
60.677539
20
-0.25671
30
0
11
3.06151588452576E-17
21
0.499999999995071
31
0
210
0
220
0
230
1
40
0.989133
41
-0.703080324657355
42
-0.189118672627368
0
ELLIPSE
5
105
100
AcDbEntity
8
1
62
256
6
ByLayer
370
18
48
1
60
0
100
AcDbEllipse
10
62.317217
20
0.624701
30
0
11
8.72532027161076E-17
21
1.42500000010229
31
0
210
0
220
0
230
1
40
0.989133
41
1.92929161308849
42
2.18968542158301
0
ELLIPSE
5
106
100
AcDbEntity
8
1
62
256
6
ByLayer
370
18
48
1
60
0
100
AcDbEllipse
10
60.677539
20
-0.25671
30
0
11
3.06151588448338E-17
21
0.499999999988149
31
0
210
0
220
0
230
1
40
0.989133
41
-1.97508959985561
42
-1.46112794781623
0
ELLIPSE
5
107
100
AcDbEntity
8
1
62
256
6
ByLayer
370
18
48
1
60
0
100
AcDbEllipse
10
61.541459
20
-0.63041
30
0
11
2.75536429610025E-17
21
0.449999999999984
31
0
210
0
220
0
230
1
40
0.989133
41
1.16650305374396
42
3.14159265358979
0
ELLIPSE
5
108
100
AcDbEntity
8
1
62
256
6
ByLayer
370
18
48
1
60
0
100
AcDbEllipse
10
62.252407
20
-1.251608
30
0
11
3.06151588452009E-17
21
0.499999999994144
31
0
210
0
220
0
230
1
40
0.989133
41
0.344117226541839
42
0.858078878573317
0
ELLIPSE
5
109
100
AcDbEntity
8
1
62
256
6
ByLayer
370
18
48
1
60
0
100
AcDbEllipse
10
62.317217
20
0.624701
30
0
11
8.72532027081759E-17
21
1.42499999997275
31
0
210
0
220
0
230
1
40
0.989133
41
2.9764891642905
42
-3.04630233437096
0
ELLIPSE
5
10A
100
AcDbEntity
8
1
62
256
6
ByLayer
370
18
48
1
60
0
100
AcDbEllipse
10
62.252407
20
-1.251608
30
0
11
3.06151588452766E-17
21
0.499999999995381
31
0
210
0
220
0
230
1
40
0.989133
41
-0.927892048651963
42
-0.413930396621101
0
ELLIPSE
5
10B
100
AcDbEntity
8
1
62
256
6
ByLayer
370
18
48
1
60
0
100
AcDbEllipse
10
63.004484
20
-0.682061
30
0
11
2.75536429610386E-17
21
0.450000000000574
31
0
210
0
220
0
230
1
40
0.989133
41
2.21370060494121
42
3.14159265358979
0
ELLIPSE
5
10C
100
AcDbEntity
8
1
62
256
6
ByLayer
370
18
48
1
60
0
100
AcDbEllipse
10
63.892085
20
-0.370197
30
0
11
3.06151588448822E-17
21
0.499999999988939
31
0
210
0
220
0
230
1
40
0.989133
41
1.3913147777352
42
1.90527642977358
0
ELLIPSE
5
10D
100
AcDbEntity
8
1
62
256
6
ByLayer
370
18
48
1
60
0
100
AcDbEllipse
10
62.310851
20
0.624701
30
0
11
-4.30241185395125E-08
21
1.39999999861673
31
0
210
0
220
0
230
1
40
0.989133
41
1.96788732737339
42
2.15108964587338
0
ELLIPSE
5
10E
100
AcDbEntity
8
1
62
256
6
ByLayer
370
18
48
1
60
0
100
AcDbEllipse
10
62.310851
20
0.624701
30
0
11
-5.8573906084379E-08
21
-1.39999999817998
31
0
210
0
220
0
230
1
40
0.989133
41
-2.22090280486558
42
-2.03770048632846
0
ELLIPSE
5
10F
100
AcDbEntity
8
1
62
256
6
ByLayer
370
18
48
1
60
0
100
AcDbEllipse
10
61.541459
20
-0.63041
30
0
11
2.75536429609465E-17
21
0.449999999999069
31
0
210
0
220
0
230
1
40
0.989133
41
3.14159265358979
42
-2.28351377501945
0
ELLIPSE
5
110
100
AcDbEntity
8
1
62
256
6
ByLayer
370
18
48
1
60
0
100
AcDbEllipse
10
61.62995
20
1.931463
30
0
11
2.7553642961003E-17
21
0.449999999999992
31
0
210
0
220
0
230
1
40
0.989133
41
0
42
1.90527642976594
0
ELLIPSE
5
111
100
AcDbEntity
8
1
62
256
6
ByLayer
370
18
48
1
60
0
100
AcDbEllipse
10
61.809984
20
0.624701
30
0
11
8.57224447675664E-17
21
1.4
31
0
210
0
220
0
230
1
40
0.989133
41
-2.9160616376038
42
-0.0566945741353536
0
ELLIPSE
5
112
100
AcDbEntity
8
1
62
256
6
ByLayer
370
18
48
1
60
0
100
AcDbEllipse
10
61.934955
20
0.624701
30
0
11
8.57224447675885E-17
21
1.40000000000036
31
0
210
0
220
0
230
1
40
0.989133
41
-2.03770052825781
42
-1.17370529541169
0
ELLIPSE
5
113
100
AcDbEntity
8
1
62
256
6
ByLayer
370
18
48
1
60
0
100
AcDbEllipse
10
62.310851
20
0.624701
30
0
11
8.57224447764326E-17
21
1.4000000001448
31
0
210
0
220
0
230
1
40
0.989133
41
-2.22090284657547
42
-2.03770052824668
0
ELLIPSE
5
114
100
AcDbEntity
8
1
62
256
6
ByLayer
370
18
48
1
60
0
100
AcDbEllipse
10
61.934955
20
0.624701
30
0
11
8.57224447674201E-17
21
1.39999999999761
31
0
210
0
220
0
230
1
40
0.989133
41
-2.99004643869506
42
-2.22090284660744
0
ELLIPSE
5
115
100
AcDbEntity
8
1
62
256
6
ByLayer
370
18
48
1
60
0
100
AcDbEllipse
10
61.934955
20
0.624701
30
0
11
8.57224447685002E-17
21
1.40000000001525
31
0
210
0
220
0
230
1
40
0.989133
41
2.49795378858143
42
3.01508490937487
0
ELLIPSE
5
116
100
AcDbEntity
8
1
62
256
6
ByLayer
370
18
48
1
60
0
100
AcDbEllipse
10
61.934955
20
0.624701
30
0
11
8.57224447690231E-17
21
1.40000000002379
31
0
210
0
220
0
230
1
40
0.989133
41
1.27015779617138
42
1.80054789799625
0
ELLIPSE
5
117
100
AcDbEntity
8
1
62
256
6
ByLayer
370
18
48
1
60
0
100
AcDbEllipse
10
61.934955
20
0.624701
30
0
11
8.57224447677268E-17
21
1.40000000000262
31
0
210
0
220
0
230
1
40
0.989133
41
0.0566945741352565
42
0.55950134818975
0
ELLIPSE
5
118
100
AcDbEntity
8
1
62
256
6
ByLayer
370
18
48
1
60
0
100
AcDbEllipse
10
61.934955
20
0.624701
30
0
11
8.57224447676411E-17
21
1.40000000000122
31
0
210
0
220
0
230
1
40
0.989133
41
-0.990502977060999
42
-0.213505532302284
0
ELLIPSE
5
119
100
AcDbEntity
8
1
62
256
6
ByLayer
370
18
48
1
60
0
100
AcDbEllipse
10
62.310851
20
0.624701
30
0
11
-5.29832538564167E-08
21
1.39999999830259
31
0
210
0
220
0
230
1
40
0.989133
41
-1.17370533335125
42
-0.990503014818802
0
ELLIPSE
5
11A
100
AcDbEntity
8
1
62
256
6
ByLayer
370
18
48
1
60
0
100
AcDbEllipse
10
61.870145
20
-1.251608
30
0
11
3.06151588456545E-17
21
0.500000000001553
31
0
210
0
220
0
230
1
40
0.989133
41
0.224104464018146
42
0.85807887856807
0
ELLIPSE
5
11B
100
AcDbEntity
8
1
62
256
6
ByLayer
370
18
48
1
60
0
100
AcDbEllipse
10
61.999765
20
2.50101
30
0
11
3.06151588456145E-17
21
0.5000000000009
31
0
210
0
220
0
230
1
40
0.989133
41
2.21370060494148
42
2.84767501949203
0
ELLIPSE
5
11C
100
AcDbEntity
8
1
62
256
6
ByLayer
370
18
48
1
60
0
100
AcDbEllipse
10
62.622222
20
-0.682061
30
0
11
2.75536429609855E-17
21
0.449999999999707
31
0
210
0
220
0
230
1
40
0.989133
41
-2.65229765699996
42
-1.23631622382346
0
ELLIPSE
5
11D
100
AcDbEntity
8
1
62
256
6
ByLayer
370
18
48
1
60
0
100
AcDbEllipse
10
63.004484
20
-0.682061
30
0
11
2.75536429610059E-17
21
0.45000000000004
31
0
210
0
220
0
230
1
40
0.989133
41
3.14159265358979
42
-1.23631622382382
0
ELLIPSE
5
11E
100
AcDbEntity
8
1
62
256
6
ByLayer
370
18
48
1
60
0
100
AcDbEllipse
10
63.092975
20
1.879812
30
0
11
2.75536429609405E-17
21
0.449999999998971
31
0
210
0
220
0
230
1
40
0.989133
41
0
42
0.858078878570358
0
ELLIPSE
5
11F
100
AcDbEntity
8
1
62
256
6
ByLayer
370
18
48
1
60
0
100
AcDbEllipse
10
62.710712
20
1.879812
30
0
11
2.7553642961001E-17
21
0.44999999999996
31
0
210
0
220
0
230
1
40
0.989133
41
-1.97508959984573
42
-0.47980018706474
0
ELLIPSE
5
120
100
AcDbEntity
8
1
62
256
6
ByLayer
370
18
48
1
60
0
100
AcDbEllipse
10
63.509822
20
-0.370197
30
0
11
3.06151588451977E-17
21
0.499999999994092
31
0
210
0
220
0
230
1
40
0.989133
41
1.27130201521088
42
1.90527642977005
0
ELLIPSE
5
121
100
AcDbEntity
8
1
62
256
6
ByLayer
370
18
48
1
60
0
100
AcDbEllipse
10
63.574633
20
1.506112
30
0
11
3.06151588452502E-17
21
0.49999999999495
31
0
210
0
220
0
230
1
40
0.989133
41
1.1665030537398
42
1.80047746829796
0
ELLIPSE
5
122
100
AcDbEntity
8
1
62
256
6
ByLayer
370
18
48
1
60
0
100
AcDbEllipse
10
63.509822
20
-0.370197
30
0
11
3.06151588455914E-17
21
0.500000000000522
31
0
210
0
220
0
230
1
40
0.989133
41
0.11930550254734
42
0.753279917098485
0
ELLIPSE
5
123
100
AcDbEntity
8
1
62
256
6
ByLayer
370
18
48
1
60
0
100
AcDbEllipse
10
63.574633
20
1.506112
30
0
11
3.06151588452513E-17
21
0.499999999994968
31
0
210
0
220
0
230
1
40
0.989133
41
2.318499566407
42
2.95247398096287
0
ELLIPSE
5
124
100
AcDbEntity
8
1
62
256
6
ByLayer
370
18
48
1
60
0
100
AcDbEllipse
10
63.39798
20
0.57305
30
0
11
2.75536429610035E-17
21
0.450000000000001
31
0
210
0
220
0
230
1
40
0.989133
41
-3.0222871510423
42
-0.18911867262728
0
ELLIPSE
5
125
100
AcDbEntity
8
1
62
256
6
ByLayer
370
18
48
1
60
0
100
AcDbEllipse
10
62.076191
20
0.624701
30
0
11
3.06151588455594E-16
21
5
31
0
210
0
220
0
230
1
40
0.989133
41
0
42
3.1066860685499
0
ELLIPSE
5
126
100
AcDbEntity
8
1
62
256
6
ByLayer
370
18
48
1
60
0
100
AcDbEllipse
10
62.076191
20
0.624701
30
0
11
3.06151588455594E-16
21
5
31
0
210
0
220
0
230
1
40
0.989133
41
3.14159265358979
42
-2.4693248068514E-16
0
ELLIPSE
5
127
100
AcDbEntity
8
1
62
256
6
ByLayer
370
18
48
1
60
0
100
AcDbEllipse
10
78.443165
20
8.80693
30
0
11
7.29253083706534E-17
21
1.19100000000867
31
0
210
0
220
0
230
1
40
0.989133
41
-0.698131700795058
42
0
0
ELLIPSE
5
128
100
AcDbEntity
8
1
62
256
6
ByLayer
370
18
48
1
60
0
100
AcDbEllipse
10
88.824799
20
0
30
0
11
7.29253083701232E-17
21
1.19100000000001
31
0
210
0
220
0
230
1
40
0.989133
41
-2.44346095279206
42
-0.698131700797734
0
ELLIPSE
5
129
100
AcDbEntity
8
1
62
256
6
ByLayer
370
18
48
1
60
0
100
AcDbEllipse
10
78.443165
20
0
30
0
11
1.94406258669302E-16
21
3.175
31
0
210
0
220
0
230
1
40
0.989133
41
-2.90108065110022
42
-0.310724025168494
0
ELLIPSE
5
12A
100
AcDbEntity
8
1
62
256
6
ByLayer
370
18
48
1
60
0
100
AcDbEllipse
10
78.443165
20
-8.80693
30
0
11
7.29253083706259E-17
21
1.19100000000822
31
0
210
0
220
0
230
1
40
0.989133
41
3.14159265358979
42
-2.44346095279459
0
ELLIPSE
5
12B
100
AcDbEntity
8
1
62
256
6
ByLayer
370
18
48
1
60
0
100
AcDbEllipse
10
78.443165
20
8.80693
30
0
11
7.29253083697876E-17
21
1.19099999999453
31
0
210
0
220
0
230
1
40
0.989133
41
0
42
0.698131700799413
0
ELLIPSE
5
12C
100
AcDbEntity
8
1
62
256
6
ByLayer
370
18
48
1
60
0
100
AcDbEllipse
10
28.333421
20
-17.599593
30
0
11
-0.386094550589676
21
2.16585572674425
31
0
210
0
220
0
230
1
40
0.144791
41
3.14159265358979
42
-2.9947323848205
0
ELLIPSE
5
12D
100
AcDbEntity
8
1
62
256
6
ByLayer
370
18
48
1
60
0
100
AcDbEllipse
10
28.333421
20
-17.599593
30
0
11
-0.386094549275502
21
2.16585571980677
31
0
210
0
220
0
230
1
40
0.144791
41
-2.99473238457942
42
-0.233278715161075
0
ELLIPSE
5
12E
100
AcDbEntity
8
1
62
256
6
ByLayer
370
18
48
1
60
0
100
AcDbEllipse
10
28.576948
20
-17.556181
30
0
11
-0.342220168676014
21
1.91973575164693
31
0
210
0
220
0
230
1
40
0.144791
41
-2.99473238457938
42
-0.1468602690104
0
ELLIPSE
5
12F
100
AcDbEntity
8
1
62
256
6
ByLayer
370
18
48
1
60
0
100
AcDbEllipse
10
28.333421
20
17.599593
30
0
11
-0.386094549275498
21
-2.16585571980678
31
0
210
0
220
0
230
1
40
0.144791
41
0.233278715161086
42
2.99473238457941
0
ELLIPSE
5
130
100
AcDbEntity
8
1
62
256
6
ByLayer
370
18
48
1
60
0
100
AcDbEllipse
10
28.333421
20
17.599593
30
0
11
-0.386094548673383
21
-2.16585571662534
31
0
210
0
220
0
230
1
40
0.144791
41
2.99473238446888
42
3.14159265358979
0
ELLIPSE
5
131
100
AcDbEntity
8
1
62
256
6
ByLayer
370
18
48
1
60
0
100
AcDbEllipse
10
28.576948
20
17.556181
30
0
11
-0.342220168676008
21
-1.91973575164692
31
0
210
0
220
0
230
1
40
0.144791
41
0.146860269010375
42
2.99473238457939
0
ELLIPSE
5
132
100
AcDbEntity
8
1
62
256
6
ByLayer
370
18
48
1
60
0
100
AcDbEllipse
10
57.417312
20
3.76282
30
0
11
-5.49672190670753
21
0.189863827316344
31
0
210
0
220
0
230
1
40
0.005131
41
-1.22205822382328
42
-0.816639051771174
0
ELLIPSE
5
133
100
AcDbEntity
8
1
62
256
6
ByLayer
370
18
48
1
60
0
100
AcDbEllipse
10
57.21019
20
-2.233525
30
0
11
-5.49672190758316
21
0.189863827349796
31
0
210
0
220
0
230
1
40
0.005131
41
-1.22205822374078
42
-0.816639051739762
0
ELLIPSE
5
134
100
AcDbEntity
8
1
62
256
6
ByLayer
370
18
48
1
60
0
100
AcDbEllipse
10
62.643184
20
0.593369
30
0
11
-0.0190969182559116
21
-5.14996459286014
31
0
210
0
220
0
230
1
40
0.986418
41
0.0373047083540198
42
3.11034916473802
0
ELLIPSE
5
135
100
AcDbEntity
8
1
62
256
6
ByLayer
370
18
48
1
60
0
100
AcDbEllipse
10
12
20
-21.401377
30
0
11
-1.65000000000247
21
1.6675544408884E-15
31
0
210
0
220
0
230
1
40
0.642788
41
-0.49882597512246
42
0
0
ELLIPSE
5
136
100
AcDbEntity
8
1
62
256
6
ByLayer
370
18
48
1
60
0
100
AcDbEllipse
10
12
20
-21.401377
30
0
11
-1.65
21
1.6675544408859E-15
31
0
210
0
220
0
230
1
40
0.642788
41
0
42
3.14159265358979
0
ELLIPSE
5
137
100
AcDbEntity
8
1
62
256
6
ByLayer
370
18
48
1
60
0
100
AcDbEllipse
10
12
20
-21.401377
30
0
11
-1.65000000000887
21
1.66755444089486E-15
31
0
210
0
220
0
230
1
40
0.642788
41
3.14159265358979
42
-2.64276667846833
0
ELLIPSE
5
138
100
AcDbEntity
8
1
62
256
6
ByLayer
370
18
48
1
60
0
100
AcDbEllipse
10
12
20
21.401377
30
0
11
-1.64999999999887
21
1.66755444088476E-15
31
0
210
0
220
0
230
1
40
0.642788
41
0
42
0.498825975122462
0
ELLIPSE
5
139
100
AcDbEntity
8
1
62
256
6
ByLayer
370
18
48
1
60
0
100
AcDbEllipse
10
12
20
21.401377
30
0
11
-1.65
21
1.6675544408859E-15
31
0
210
0
220
0
230
1
40
0.642788
41
3.14159265358979
42
0
0
ELLIPSE
5
13A
100
AcDbEntity
8
1
62
256
6
ByLayer
370
18
48
1
60
0
100
AcDbEllipse
10
12
20
21.401377
30
0
11
-1.64999999999609
21
1.66755444088195E-15
31
0
210
0
220
0
230
1
40
0.642788
41
2.64276667846687
42
3.14159265358979
0
ELLIPSE
5
13B
100
AcDbEntity
8
1
62
256
6
ByLayer
370
18
48
1
60
0
100
AcDbEllipse
10
12
20
-21.401377
30
0
11
-2
21
2.02127811016473E-15
31
0
210
0
220
0
230
1
40
0.642788
41
0.134192642808711
42
3.00740001078045
0
ELLIPSE
5
13C
100
AcDbEntity
8
1
62
256
6
ByLayer
370
18
48
1
60
0
100
AcDbEllipse
10
12
20
21.401377
30
0
11
-2
21
2.02127811016473E-15
31
0
210
0
220
0
230
1
40
0.642788
41
-3.00740001078052
42
-0.134192642808901
0
ELLIPSE
5
13D
100
AcDbEntity
8
1
62
256
6
ByLayer
370
18
48
1
60
0
100
AcDbEllipse
10
12.611854
20
-20.402186
30
0
11
-3.18197285987001
21
-2.68929907501079
31
0
210
0
220
0
230
1
40
0.191309
41
-1.36883405654152
42
-1.03982676537058
0
ELLIPSE
5
13E
100
AcDbEntity
8
1
62
256
6
ByLayer
370
18
48
1
60
0
100
AcDbEllipse
10
12.611854
20
20.402186
30
0
11
-3.18197286006883
21
2.68929907514273
31
0
210
0
220
0
230
1
40
0.191309
41
1.03983659499968
42
1.36883405649472
0
ELLIPSE
5
13F
100
AcDbEntity
8
1
62
256
6
ByLayer
370
18
48
1
60
0
100
AcDbEllipse
10
57.054781
20
-4.571389
30
0
11
-3.8862634659844
21
-2.73834986691459
31
0
210
0
220
0
230
1
40
0.546569
41
-0.493749558462671
42
0.624223115707713
0
ELLIPSE
5
140
100
AcDbEntity
8
1
62
256
6
ByLayer
370
18
48
1
60
0
100
AcDbEllipse
10
53.736735
20
-4.518415
30
0
11
-0.261533884926146
21
3.49031551289973
31
0
210
0
220
0
230
1
40
0.996504
41
1.46109678271637
42
2.63333161342805
0
ELLIPSE
5
141
100
AcDbEntity
8
1
62
256
6
ByLayer
370
18
48
1
60
0
100
AcDbEllipse
10
54.107482
20
6.215042
30
0
11
-0.261533884756522
21
3.4903155129109
31
0
210
0
220
0
230
1
40
0.996504
41
0.288861952053067
42
1.46109678276514
0
ELLIPSE
5
142
100
AcDbEntity
8
1
62
256
6
ByLayer
370
18
48
1
60
0
100
AcDbEllipse
10
57.425528
20
6.162068
30
0
11
-3.71797545184153
21
2.90368318797212
31
0
210
0
220
0
230
1
40
0.542016
41
-0.622264696288512
42
0.476448469414763
0
ELLIPSE
5
143
100
AcDbEntity
8
1
62
256
6
ByLayer
370
18
48
1
60
0
100
AcDbEllipse
10
79.124504
20
-0.004886
30
0
11
-1.12258784945477
21
-2.65539242342863
31
0
210
0
220
0
230
1
40
0.791203
41
1.40896865309113
42
1.85867862914088
0
ELLIPSE
5
144
100
AcDbEntity
8
1
62
256
6
ByLayer
370
18
48
1
60
0
100
AcDbEllipse
10
79.124504
20
-0.004886
30
0
11
-1.02059712711708
21
2.68148681198917
31
0
210
0
220
0
230
1
40
0.789729
41
-1.89768968866094
42
-1.44797971264651
0
ELLIPSE
5
145
100
AcDbEntity
8
1
62
256
6
ByLayer
370
18
48
1
60
0
100
AcDbEllipse
10
-2.358073
20
0
30
0
11
-14.7536831606547
21
-31.0932549155792
31
0
210
0
220
0
230
1
40
0.341999
41
2.03430384406488
42
2.99983569071639
0
ELLIPSE
5
146
100
AcDbEntity
8
1
62
256
6
ByLayer
370
18
48
1
60
0
100
AcDbEllipse
10
26.358073
20
0
30
0
11
-14.7536831606568
21
31.0932549155816
31
0
210
0
220
0
230
1
40
0.341999
41
0.141756962873392
42
1.10728880952485
0
ELLIPSE
5
147
100
AcDbEntity
8
1
62
256
6
ByLayer
370
18
48
1
60
0
100
AcDbEllipse
10
-2.358073
20
0
30
0
11
-14.7536831606573
21
31.0932549155824
31
0
210
0
220
0
230
1
40
0.341999
41
-2.9998356907164
42
-2.03430384406496
0
ELLIPSE
5
148
100
AcDbEntity
8
1
62
256
6
ByLayer
370
18
48
1
60
0
100
AcDbEllipse
10
26.358073
20
0
30
0
11
-14.7536831606556
21
-31.0932549155801
31
0
210
0
220
0
230
1
40
0.341999
41
-1.10728880952489
42
-0.141756962873401
0
ELLIPSE
5
149
100
AcDbEntity
8
1
62
256
6
ByLayer
370
18
48
1
60
0
100
AcDbEllipse
10
12
20
19.123462
30
0
11
-1.88063044407739
21
2.98790633194233
31
0
210
0
220
0
230
1
40
0.227788
41
-0.158119600281287
42
0.347240910002212
0
ELLIPSE
5
14A
100
AcDbEntity
8
1
62
256
6
ByLayer
370
18
48
1
60
0
100
AcDbEllipse
10
12
20
21.45428
30
0
11
-1.65000000000001
21
1.66755444088591E-15
31
0
210
0
220
0
230
1
40
0.709808
41
0.498825975122336
42
2.64276667846746
0
ELLIPSE
5
14B
100
AcDbEntity
8
1
62
256
6
ByLayer
370
18
48
1
60
0
100
AcDbEllipse
10
12
20
-19.123462
30
0
11
-1.88063044407538
21
2.98790633193939
31
0
210
0
220
0
230
1
40
0.227788
41
2.98347305330841
42
-2.79435174358741
0
ELLIPSE
5
14C
100
AcDbEntity
8
1
62
256
6
ByLayer
370
18
48
1
60
0
100
AcDbEllipse
10
12
20
-19.123462
30
0
11
-1.88063044406863
21
-2.98790633193046
31
0
210
0
220
0
230
1
40
0.227788
41
-0.844019993374382
42
-0.347240910002898
0
ELLIPSE
5
14D
100
AcDbEntity
8
1
62
256
6
ByLayer
370
18
48
1
60
0
100
AcDbEllipse
10
12
20
19.123462
30
0
11
-1.88063044406208
21
-2.98790633192255
31
0
210
0
220
0
230
1
40
0.227788
41
2.29757266021404
42
2.79435174358637
0
ELLIPSE
5
14E
100
AcDbEntity
8
1
62
256
6
ByLayer
370
18
48
1
60
0
100
AcDbEllipse
10
12
20
-21.45428
30
0
11
-1.65000000000002
21
1.66755444088592E-15
31
0
210
0
220
0
230
1
40
0.709808
41
-2.64276667846694
42
-0.498825975122879
0
ELLIPSE
5
14F
100
AcDbEntity
8
1
62
256
6
ByLayer
370
18
48
1
60
0
100
AcDbEllipse
10
12
20
-19.123462
30
0
11
-1.88063044407384
21
-2.98790633193715
31
0
210
0
220
0
230
1
40
0.227788
41
-0.347240910002522
42
0.158119600281414
0
ELLIPSE
5
150
100
AcDbEntity
8
1
62
256
6
ByLayer
370
18
48
1
60
0
100
AcDbEllipse
10
12
20
-19.123462
30
0
11
-1.88063044406485
21
2.98790633192588
31
0
210
0
220
0
230
1
40
0.227788
41
-2.7943517435866
42
-2.29757266021459
0
ELLIPSE
5
151
100
AcDbEntity
8
1
62
256
6
ByLayer
370
18
48
1
60
0
100
AcDbEllipse
10
12
20
-21.45428
30
0
11
-2
21
2.02127811016473E-15
31
0
210
0
220
0
230
1
40
0.709808
41
0.505360510284153
42
2.63623214330563
0
ELLIPSE
5
152
100
AcDbEntity
8
1
62
256
6
ByLayer
370
18
48
1
60
0
100
AcDbEllipse
10
12
20
19.123462
30
0
11
-1.880630444066
21
2.98790633192733
31
0
210
0
220
0
230
1
40
0.227788
41
0.347240910003087
42
0.844019993374879
0
ELLIPSE
5
153
100
AcDbEntity
8
1
62
256
6
ByLayer
370
18
48
1
60
0
100
AcDbEllipse
10
12
20
19.123462
30
0
11
-1.88063044408548
21
-2.98790633195472
31
0
210
0
220
0
230
1
40
0.227788
41
2.79435174358834
42
-2.98347305330879
0
ELLIPSE
5
154
100
AcDbEntity
8
1
62
256
6
ByLayer
370
18
48
1
60
0
100
AcDbEllipse
10
12
20
21.45428
30
0
11
-2.00000000000001
21
2.02127811016474E-15
31
0
210
0
220
0
230
1
40
0.709808
41
-2.63623214330562
42
-0.505360510284144
0
ELLIPSE
5
155
100
AcDbEntity
8
1
62
256
6
ByLayer
370
18
48
1
60
0
100
AcDbEllipse
10
30.412241
20
-168.731405
30
0
11
-0.817852629342331
21
166.134962575948
31
0
210
0
220
0
230
1
40
0.029691
41
0.461478440492137
42
0.501571720113752
0
ELLIPSE
5
156
100
AcDbEntity
8
1
62
256
6
ByLayer
370
18
48
1
60
0
100
AcDbEllipse
10
30.412242
20
-168.731425
30
0
11
-0.817852911953057
21
166.1349821139
31
0
210
0
220
0
230
1
40
0.029691
41
0.366751379119312
42
0.397036898961352
0
ELLIPSE
5
157
100
AcDbEntity
8
1
62
256
6
ByLayer
370
18
48
1
60
0
100
AcDbEllipse
10
30.412242
20
168.731426
30
0
11
-0.817852923987377
21
-166.134982851764
31
0
210
0
220
0
230
1
40
0.029691
41
-0.3970368981019
42
-0.366751378332464
0
ELLIPSE
5
158
100
AcDbEntity
8
1
62
256
6
ByLayer
370
18
48
1
60
0
100
AcDbEllipse
10
30.412241
20
168.731411
30
0
11
-0.817852739111574
21
-166.134968478066
31
0
210
0
220
0
230
1
40
0.029691
41
-0.501571711533144
42
-0.461478432709365
0
ELLIPSE
5
159
100
AcDbEntity
8
1
62
256
6
ByLayer
370
18
48
1
60
0
100
AcDbEllipse
10
30.412241
20
48.001435
30
0
11
-4.93265824962243
21
-27.5457708694139
31
0
210
0
220
0
230
1
40
0.029691
41
-0.469149548868714
42
-0.164308806469373
0
ELLIPSE
5
15A
100
AcDbEntity
8
1
62
256
6
ByLayer
370
18
48
1
60
0
100
AcDbEllipse
10
30.412241
20
-48.001435
30
0
11
-4.93265824885815
21
27.5457708653617
31
0
210
0
220
0
230
1
40
0.029691
41
0.16430880648068
42
0.469149548903674
0
ELLIPSE
5
15B
100
AcDbEntity
8
1
62
256
6
ByLayer
370
18
48
1
60
0
100
AcDbEllipse
10
50.843353
20
-9.030921
30
0
11
-5.59181493161789
21
0.201875732330128
31
0
210
0
220
0
230
1
40
0.714856
41
1.8665483668799
42
-3.14047835238979
0
ELLIPSE
5
15C
100
AcDbEntity
8
1
62
256
6
ByLayer
370
18
48
1
60
0
100
AcDbEllipse
10
51.533758
20
10.956895
30
0
11
-5.5918149316176
21
0.201875732330923
31
0
210
0
220
0
230
1
40
0.714856
41
-3.1404783523897
42
-1.8643197645964
0
ELLIPSE
5
15D
100
AcDbEntity
8
1
62
256
6
ByLayer
370
18
48
1
60
0
100
AcDbEllipse
10
74.416887
20
4.041582
30
0
11
-2.04100684591864
21
-3.37445157214859
31
0
210
0
220
0
230
1
40
0.533007
41
-2.4193128634322
42
-2.13200220225335
0
POINT
5
6C
100
AcDbEntity
8
80
62
256
6
ByLayer
370
18
48
1
60
0
100
AcDbPoint
10
0
20
0
30
0
39
0
210
0
220
0
230
1
50
360
0
POINT
5
6E
100
AcDbEntity
8
81
62
256
6
ByLayer
370
18
48
1
60
0
100
AcDbPoint
10
90.002856
20
0.555372
30
0
39
0
210
0
220
0
230
1
50
360
0
SPLINE
5
15E
100
AcDbEntity
8
1
62
256
6
ByLayer
370
18
48
1
60
0
100
AcDbSpline
70
4
71
2
72
6
73
3
40
0
40
0
40
0
40
1
40
1
40
1
41
1
10
61.169134505143
20
-0.201985200089679
30
0
41
1
10
61.1625933934416
20
-0.173891379969849
30
0
41
1
10
61.1527515234133
20
-0.142876014050802
30
0
0
SPLINE
5
15F
100
AcDbEntity
8
1
62
256
6
ByLayer
370
18
48
1
60
0
100
AcDbSpline
70
4
71
2
72
6
73
3
40
0
40
0
40
0
40
1
40
1
40
1
41
1
10
61.0338149455941
20
0.0832686856950225
30
0
41
1
10
61.015184056664
20
0.106547288767517
30
0
41
1
10
60.9973113045486
20
0.124717541994755
30
0
0
SPLINE
5
160
100
AcDbEntity
8
1
62
256
6
ByLayer
370
18
48
1
60
0
100
AcDbSpline
70
4
71
2
72
6
73
3
40
0
40
0
40
0
40
1
40
1
40
1
41
1
10
61.2085341994596
20
1.47208067237486
30
0
41
1
10
61.2205312154274
20
1.50251085616998
30
0
41
1
10
61.2289712218731
20
1.5303394681754
30
0
0
SPLINE
5
161
100
AcDbEntity
8
1
62
256
6
ByLayer
370
18
48
1
60
0
100
AcDbSpline
70
4
71
2
72
6
73
3
40
0
40
0
40
0
40
1
40
1
40
1
41
1
10
61.0350245992132
20
1.21655001943054
30
0
41
1
10
61.05406828863
20
1.23321606221686
30
0
41
1
10
61.0742837169932
20
1.25487459624365
30
0
0
SPLINE
5
162
100
AcDbEntity
8
1
62
256
6
ByLayer
370
18
48
1
60
0
100
AcDbSpline
70
4
71
2
72
6
73
3
40
0
40
0
40
0
40
1
40
1
40
1
41
1
10
62.1361314509584
20
-0.76411099570578
30
0
41
1
10
62.108273259656
20
-0.771228190296606
30
0
41
1
10
62.0855571118276
20
-0.780920935205902
30
0
0
SPLINE
5
163
100
AcDbEntity
8
1
62
256
6
ByLayer
370
18
48
1
60
0
100
AcDbSpline
70
4
71
2
72
6
73
3
40
0
40
0
40
0
40
1
40
1
40
1
41
1
10
62.1831071232223
20
2.04323621049497
30
0
41
1
10
62.205090463998
20
2.03171355784109
30
0
41
1
10
62.2323828984038
20
2.02245160126882
30
0
0
SPLINE
5
164
100
AcDbEntity
8
1
62
256
6
ByLayer
370
18
48
1
60
0
100
AcDbSpline
70
4
71
2
72
6
73
3
40
0
40
0
40
0
40
1
40
1
40
1
41
1
10
62.4513269350819
20
-0.793834228545485
30
0
41
1
10
62.4222108341804
20
-0.782311575891161
30
0
41
1
10
62.3893185112445
20
-0.773049619319664
30
0
0
SPLINE
5
165
100
AcDbEntity
8
1
62
256
6
ByLayer
370
18
48
1
60
0
100
AcDbSpline
70
4
71
2
72
6
73
3
40
0
40
0
40
0
40
1
40
1
40
1
41
1
10
62.4855699586903
20
2.01351297765526
30
0
41
1
10
62.5190280385214
20
2.02063017224608
30
0
41
1
10
62.5488769464766
20
2.03032291715538
30
0
0
SPLINE
5
166
100
AcDbEntity
8
1
62
256
6
ByLayer
370
18
48
1
60
0
100
AcDbSpline
70
4
71
2
72
6
73
3
40
0
40
0
40
0
40
1
40
1
40
1
41
1
10
63.4131672101894
20
-0.222678690425433
30
0
41
1
10
63.4068194602788
20
-0.253108874220525
30
0
41
1
10
63.4054628364311
20
-0.280937486225919
30
0
0
SPLINE
5
167
100
AcDbEntity
8
1
62
256
6
ByLayer
370
18
48
1
60
0
100
AcDbSpline
70
4
71
2
72
6
73
3
40
0
40
0
40
0
40
1
40
1
40
1
41
1
10
63.599409459091
20
0.032851962518933
30
0
41
1
10
63.5732985726226
20
0.0161859197326277
30
0
41
1
10
63.5474176926558
20
-0.0054726142941714
30
0
0
SPLINE
5
168
100
AcDbEntity
8
1
62
256
6
ByLayer
370
18
48
1
60
0
100
AcDbSpline
70
4
71
2
72
6
73
3
40
0
40
0
40
0
40
1
40
1
40
1
41
1
10
63.4652995531612
20
1.45138718203916
30
0
41
1
10
63.4647962216447
20
1.42329336191928
30
0
41
1
10
63.4689498862358
20
1.39227799600023
30
0
0
SPLINE
5
169
100
AcDbEntity
8
1
62
256
6
ByLayer
370
18
48
1
60
0
100
AcDbSpline
70
4
71
2
72
6
73
3
40
0
40
0
40
0
40
1
40
1
40
1
41
1
10
63.5878864640548
20
1.16613329625551
30
0
41
1
10
63.612124935454
20
1.14285469318031
30
0
41
1
10
63.6371227537556
20
1.12468443995472
30
0
0
SPLINE
5
16A
100
AcDbEntity
8
1
62
256
6
ByLayer
370
18
48
1
60
0
100
AcDbSpline
70
4
71
1
72
4
73
2
40
0
40
0
40
1
40
1
41
1
10
28.2104827320845
20
-15.6009150671863
30
0
41
1
10
28.0302782657607
20
-15.4794796315601
30
0
0
SPLINE
5
16B
100
AcDbEntity
8
1
62
256
6
ByLayer
370
18
48
1
60
0
100
AcDbSpline
70
4
71
1
72
4
73
2
40
0
40
0
40
1
40
1
41
1
10
28.0302782657608
20
15.4794796315603
30
0
41
1
10
28.2104827320841
20
15.6009150671857
30
0
0
SPLINE
5
16C
100
AcDbEntity
8
SK1
62
256
6
ByLayer
370
18
48
1
60
0
100
AcDbSpline
70
4
71
3
72
17
73
13
40
0
40
0
40
0
40
0
40
0.0916970829334629
40
0.183391081738644
40
0.277661349850053
40
0.371929548727692
40
0.464104584053188
40
0.556279300755331
40
0.651207196052778
40
0.746136571187464
40
0.872254158021777
40
1
40
1
40
1
40
1
41
1
10
-1.51711681646352
20
4.3786878798765
30
0
41
1
10
-1.5739400281408
20
4.12869432918808
30
0
41
1
10
-1.6775232862672
20
3.62087590059026
30
0
41
1
10
-1.80439775990501
20
2.82608663455514
30
0
41
1
10
-1.90022165182402
20
2.00413186629959
30
0
41
1
10
-1.96318710703672
20
1.16611958867701
30
0
41
1
10
-1.99240375690217
20
0.325961475993845
30
0
41
1
10
-1.98885339463344
20
-0.518505925475284
30
0
41
1
10
-1.95125708283224
20
-1.36760756571797
30
0
41
1
10
-1.8712663083135
20
-2.30726174251292
30
0
41
1
10
-1.73442807616131
20
-3.32233241229979
30
0
41
1
10
-1.59645095399117
20
-4.02964723478353
30
0
41
1
10
-1.51711681646264
20
-4.37868787988033
30
0
0
SPLINE
5
16D
100
AcDbEntity
8
SK1
62
256
6
ByLayer
370
18
48
1
60
0
100
AcDbSpline
70
4
71
1
72
4
73
2
40
0
40
0
40
1
40
1
41
1
10
-1.30710678118651
20
5.313222924113
30
0
41
1
10
-1.51711681646363
20
4.37868787987604
30
0
0
SPLINE
5
16E
100
AcDbEntity
8
SK1
62
256
6
ByLayer
370
18
48
1
60
0
100
AcDbSpline
70
4
71
1
72
4
73
2
40
0
40
0
40
1
40
1
41
1
10
-1.51711681646358
20
-4.37868787987623
30
0
41
1
10
-1.30710678118647
20
-5.31322292411306
30
0
0
SPLINE
5
16F
100
AcDbEntity
8
SK1
62
256
6
ByLayer
370
18
48
1
60
0
100
AcDbSpline
70
4
71
3
72
19
73
15
40
0
40
0
40
0
40
0
40
0.192560302658255
40
0.384638521604452
40
0.518100162726009
40
0.563684590672324
40
0.591267948733099
40
0.615713583718929
40
0.640028111718206
40
0.67092480378313
40
0.724987326986717
40
0.810145918538087
40
0.895622938748552
40
1
40
1
40
1
40
1
41
1
10
-1.30710678118651
20
5.313222924113
30
0
41
1
10
-1.27402334911851
20
5.48277265931843
30
0
41
1
10
-1.18708536872411
20
5.81487265612257
30
0
41
1
10
-1.02859246368757
20
6.24791798474797
30
0
41
1
10
-0.863173762912064
20
6.54325826313803
30
0
41
1
10
-0.715725648098689
20
6.67194967721648
30
0
41
1
10
-0.62724052525852
20
6.70967012909425
30
0
41
1
10
-0.550399782172601
20
6.71493498995791
30
0
41
1
10
-0.474497881287894
20
6.69401562568599
30
0
41
1
10
-0.386488410971474
20
6.63872896243086
30
0
41
1
10
-0.281619866340148
20
6.52322280754508
30
0
41
1
10
-0.177982435065305
20
6.35095205948304
30
0
41
1
10
-0.0825623421664831
20
6.12696757500812
30
0
41
1
10
-0.0265068918991448
20
5.96882442958287
30
0
41
1
10
3.909E-13
20
5.88020144346684
30
0
0
SPLINE
5
170
100
AcDbEntity
8
SK1
62
256
6
ByLayer
370
18
48
1
60
0
100
AcDbSpline
70
4
71
3
72
19
73
15
40
0
40
0
40
0
40
0
40
0.122287031711579
40
0.244130836272731
40
0.321457372863055
40
0.351082292034463
40
0.380997063343767
40
0.403347257500487
40
0.425633966240542
40
0.46281359246927
40
0.555914205367541
40
0.723007321623271
40
0.890852872519147
40
1
40
1
40
1
40
1
41
1
10
1.39E-14
20
-5.88020144346776
30
0
41
1
10
-0.028886307146713
20
-5.98491583646866
30
0
41
1
10
-0.102002960729745
20
-6.18773452757021
30
0
41
1
10
-0.226418320086413
20
-6.44454648783482
30
0
41
1
10
-0.353060079361129
20
-6.61068810985512
30
0
41
1
10
-0.457331369085789
20
-6.6857285259327
30
0
41
1
10
-0.533463690245304
20
-6.71311953047304
30
0
41
1
10
-0.608358068793059
20
-6.7124476698211
30
0
41
1
10
-0.685520550022708
20
-6.68794199951524
30
0
41
1
10
-0.805724464572148
20
-6.60374921848964
30
0
41
1
10
-0.963627155945646
20
-6.37974149216821
30
0
41
1
10
-1.11868960837548
20
-6.02964929191145
30
0
41
1
10
-1.22704515112996
20
-5.64890903546869
30
0
41
1
10
-1.28619964635399
20
-5.40867917751215
30
0
41
1
10
-1.30710678118686
20
-5.31322292411128
30
0
0
SPLINE
5
171
100
AcDbEntity
8
1
62
256
6
ByLayer
370
18
48
1
60
0
100
AcDbSpline
70
4
71
1
72
4
73
2
40
0
40
0
40
1
40
1
41
1
10
53.2427981498243
20
6.29625979043799
30
0
41
1
10
53.2922825522788
20
6.69463944997999
30
0
0
SPLINE
5
172
100
AcDbEntity
8
1
62
256
6
ByLayer
370
18
48
1
60
0
100
AcDbSpline
70
4
71
3
72
13
73
9
40
0
40
0
40
0
40
0
40
0.144384137961538
40
0.288755721797824
40
0.436732040259568
40
0.584683748668938
40
0.790246154830233
40
1
40
1
40
1
40
1
41
1
10
56.3621902440271
20
3.91801258708636
30
0
41
1
10
56.2022905817822
20
4.0694123480698
30
0
41
1
10
55.8843470958048
20
4.36858623440416
30
0
41
1
10
55.4076247720298
20
4.81146595623145
30
0
41
1
10
54.9355866056663
20
5.24412033330281
30
0
41
1
10
54.4125962940038
20
5.71665634425355
30
0
41
1
10
53.8499113265523
20
6.21547539037923
30
0
41
1
10
53.4738065940933
20
6.54027344938488
30
0
41
1
10
53.2922825522775
20
6.6946394499809
30
0
0
SPLINE
5
173
100
AcDbEntity
8
1
62
256
6
ByLayer
370
18
48
1
60
0
100
AcDbSpline
70
4
71
2
72
6
73
3
40
0
40
0
40
0
40
1
40
1
40
1
41
1
10
56.3621902440272
20
3.91801258708636
30
0
41
1
10
55.9803840586212
20
3.84382587847091
30
0
41
1
10
55.6025299086963
20
3.85265697526054
30
0
0
SPLINE
5
174
100
AcDbEntity
8
1
62
256
6
ByLayer
370
18
48
1
60
0
100
AcDbSpline
70
4
71
2
72
6
73
3
40
0
40
0
40
0
40
1
40
1
40
1
41
1
10
56.1487871198448
20
-2.26019230964234
30
0
41
1
10
55.7414961656071
20
-2.15231353931565
30
0
41
1
10
55.3328090125949
20
-2.14213946095793
30
0
0
SPLINE
5
175
100
AcDbEntity
8
1
62
256
6
ByLayer
370
18
48
1
60
0
100
AcDbSpline
70
4
71
3
72
13
73
9
40
0
40
0
40
0
40
0
40
0.12526020565259
40
0.250547093653017
40
0.379805671657662
40
0.509084240437051
40
0.752371685079521
40
1
40
1
40
1
40
1
41
1
10
52.8939442501941
20
-4.83759869285051
30
0
41
1
10
53.0074975248302
20
-4.7525137627331
30
0
41
1
10
53.2422480747932
20
-4.57512519854389
30
0
41
1
10
53.6234188738088
20
-4.2827401500136
30
0
41
1
10
54.0278126166196
20
-3.9682284002536
30
0
41
1
10
54.5766519065604
20
-3.53598526686917
30
0
41
1
10
55.2842040905278
20
-2.96934059850272
30
0
41
1
10
55.8558762332612
20
-2.50198948211726
30
0
41
1
10
56.1487871198466
20
-2.26019230964088
30
0
0
SPLINE
5
176
100
AcDbEntity
8
1
62
256
6
ByLayer
370
18
48
1
60
0
100
AcDbSpline
70
4
71
1
72
4
73
2
40
0
40
0
40
1
40
1
41
1
10
52.8720507566472
20
-4.43719769174711
30
0
41
1
10
52.8939442501941
20
-4.83759869285071
30
0
0
SPLINE
5
177
100
AcDbEntity
8
1
62
256
6
ByLayer
370
18
48
1
60
0
100
AcDbSpline
70
4
71
2
72
6
73
3
40
0
40
0
40
0
40
1
40
1
40
1
41
1
10
56.1487871198448
20
-2.26019230964234
30
0
41
1
10
56.3228594673159
20
-2.30586227744238
30
0
41
1
10
56.4824968160135
20
-2.37514858250051
30
0
0
SPLINE
5
178
100
AcDbEntity
8
1
62
256
6
ByLayer
370
18
48
1
60
0
100
AcDbSpline
70
4
71
3
72
14
73
10
40
0
40
0
40
0
40
0
40
0.204637212697247
40
0.413088074458299
40
0.597845864890291
40
0.692590301247614
40
0.787317400888731
40
0.892990801006439
40
1
40
1
40
1
40
1
41
1
10
56.4824968160133
20
-2.37514858250039
30
0
41
1
10
56.2084693259111
20
-2.66774194962498
30
0
41
1
10
55.6629257536735
20
-3.24337543833745
30
0
41
1
10
54.8865244241176
20
-4.04209968094406
30
0
41
1
10
54.2841609475198
20
-4.64536251316047
30
0
41
1
10
53.8498235314278
20
-5.07079100215857
30
0
41
1
10
53.5258124110018
20
-5.38273080282914
30
0
41
1
10
53.2128364100137
20
-5.67759519412492
30
0
41
1
10
53.020802373697
20
-5.85347940157585
30
0
41
1
10
52.9298372899716
20
-5.93536503496825
30
0
0
SPLINE
5
179
100
AcDbEntity
8
1
62
256
6
ByLayer
370
18
48
1
60
0
100
AcDbSpline
70
4
71
3
72
13
73
9
40
0
40
0
40
0
40
0
40
0.236322744745058
40
0.471915530049522
40
0.657506231940605
40
0.844171875648272
40
0.957158437148355
40
1
40
1
40
1
40
1
41
1
10
52.9298372899729
20
-5.93536503496711
30
0
41
1
10
52.9373427044525
20
-5.8870507926491
30
0
41
1
10
52.9474859051054
20
-5.77287769990046
30
0
41
1
10
52.947783175281
20
-5.56824508996662
30
0
41
1
10
52.9375263505365
20
-5.33238347155945
30
0
41
1
10
52.9228851799844
20
-5.10932551917748
30
0
41
1
10
52.9069376379075
20
-4.93555487888364
30
0
41
1
10
52.8968757075122
20
-4.85874118976209
30
0
41
1
10
52.893944250194
20
-4.83759869284977
30
0
0
SPLINE
5
17A
100
AcDbEntity
8
1
62
256
6
ByLayer
370
18
48
1
60
0
100
AcDbSpline
70
4
71
3
72
15
73
11
40
0
40
0
40
0
40
0
40
0.0867053084987774
40
0.173427834034998
40
0.35257590735472
40
0.459359020107299
40
0.566162424072927
40
0.676001668014178
40
0.785854580879624
40
1
40
1
40
1
40
1
41
1
10
53.4035177776395
20
7.77809450127432
30
0
41
1
10
53.4723157883673
20
7.70845787865329
30
0
41
1
10
53.6170546441026
20
7.55955333827506
30
0
41
1
10
53.9423174760006
20
7.21561903481888
30
0
41
1
10
54.3265263208758
20
6.79555380245982
30
0
41
1
10
54.7608176552564
20
6.30711583674542
30
0
41
1
10
55.1327260013816
20
5.88124163182632
30
0
41
1
10
55.5187481873142
20
5.43176555881854
30
0
41
1
10
56.0421859096073
20
4.81271078004892
30
0
41
1
10
56.4382738011837
20
4.33400177133797
30
0
41
1
10
56.7030341740203
20
4.00959854976971
30
0
0
SPLINE
5
17B
100
AcDbEntity
8
1
62
256
6
ByLayer
370
18
48
1
60
0
100
AcDbSpline
70
4
71
2
72
6
73
3
40
0
40
0
40
0
40
1
40
1
40
1
41
1
10
56.7030341740184
20
4.00959854977198
30
0
41
1
10
56.5346252022616
20
3.95140347826519
30
0
41
1
10
56.362190244027
20
3.91801258708633
30
0
0
SPLINE
5
17C
100
AcDbEntity
8
1
62
256
6
ByLayer
370
18
48
1
60
0
100
AcDbSpline
70
4
71
3
72
13
73
9
40
0
40
0
40
0
40
0
40
0.108097845296601
40
0.261062704054106
40
0.501857223970366
40
0.690308849357433
40
0.879123452890365
40
1
40
1
40
1
40
1
41
1
10
53.2922825522788
20
6.69463944997979
30
0
41
1
10
53.3031467589955
20
6.7490440839299
30
0
41
1
10
53.3272380985706
20
6.87758146820994
30
0
41
1
10
53.3614725918652
20
7.11899171508233
30
0
41
1
10
53.3900625197311
20
7.35330024691441
30
0
41
1
10
53.4063499378861
20
7.55373729379635
30
0
41
1
10
53.4092442124684
20
7.68470228740692
30
0
41
1
10
53.4057055174432
20
7.75339024080239
30
0
41
1
10
53.4035177776466
20
7.77809450128523
30
0
0
SPLINE
5
17D
100
AcDbEntity
8
1
62
256
6
ByLayer
370
18
48
1
60
0
100
AcDbSpline
70
4
71
3
72
12
73
8
40
0
40
0
40
0
40
0
40
0.158767555627575
40
0.36907566672068
40
0.579383777813787
40
0.789691888906893
40
1
40
1
40
1
40
1
41
1
10
63.2968406469632
20
5.72329724610692
30
0
41
1
10
63.2868150041246
20
5.84406070910404
30
0
41
1
10
63.2617215264094
20
6.11512581791923
30
0
41
1
10
63.2156017596333
20
6.5071723555639
30
0
41
1
10
63.1577281592037
20
6.88641832453645
30
0
41
1
10
63.0926903518192
20
7.21476771620935
30
0
41
1
10
63.0452062722471
20
7.39658985418968
30
0
41
1
10
63.0203786307444
20
7.47849375947337
30
0
0
SPLINE
5
17E
100
AcDbEntity
8
1
62
256
6
ByLayer
370
18
48
1
60
0
100
AcDbSpline
70
4
71
1
72
4
73
2
40
0
40
0
40
1
40
1
41
1
10
63.2968406471188
20
5.72329724609479
30
0
41
1
10
63.0713467590619
20
5.73623466064737
30
0
0
SPLINE
5
17F
100
AcDbEntity
8
1
62
256
6
ByLayer
370
18
48
1
60
0
100
AcDbSpline
70
4
71
3
72
12
73
8
40
0
40
0
40
0
40
0
40
0.212800050925006
40
0.447229873425252
40
0.68949898132129
40
0.855771771684003
40
1
40
1
40
1
40
1
41
1
10
57.6228610728318
20
4.57342476714754
30
0
41
1
10
57.799200142806
20
4.74478587157529
30
0
41
1
10
58.1932917369341
20
5.06933232851536
30
0
41
1
10
58.8781051683534
20
5.45955845643214
30
0
41
1
10
59.5902176900376
20
5.69896601881979
30
0
41
1
10
60.2470418295523
20
5.80384470461175
30
0
41
1
10
60.6262621815792
20
5.81816484574621
30
0
41
1
10
60.8052869312378
20
5.81530800425182
30
0
0
SPLINE
5
180
100
AcDbEntity
8
1
62
256
6
ByLayer
370
18
48
1
60
0
100
AcDbSpline
70
4
71
3
72
10
73
6
40
0
40
0
40
0
40
0
40
0.340160854642359
40
0.68823643261049
40
1
40
1
40
1
40
1
41
1
10
57.6228610728318
20
4.57342476714754
30
0
41
1
10
57.5359842389593
20
4.48938943468324
30
0
41
1
10
57.3482187784402
20
4.33319925601614
30
0
41
1
10
57.0352956453192
20
4.1437335476744
30
0
41
1
10
56.8125877573032
20
4.04844709648362
30
0
41
1
10
56.7030341740179
20
4.00959854977181
30
0
0
SPLINE
5
181
100
AcDbEntity
8
1
62
256
6
ByLayer
370
18
48
1
60
0
100
AcDbSpline
70
4
71
1
72
4
73
2
40
0
40
0
40
1
40
1
41
1
10
53.4035177776395
20
7.77809450127432
30
0
41
1
10
53.3998206910673
20
7.81814202695502
30
0
0
SPLINE
5
182
100
AcDbEntity
8
1
62
256
6
ByLayer
370
18
48
1
60
0
100
AcDbSpline
70
4
71
3
72
13
73
9
40
0
40
0
40
0
40
0
40
0.110370609553679
40
0.291589189013797
40
0.472931792514703
40
0.657295776210515
40
0.841748782765048
40
1
40
1
40
1
40
1
41
1
10
60.5465973727599
20
-4.48090881995188
30
0
41
1
10
60.4059393187903
20
-4.47599246959101
30
0
41
1
10
60.0394919779158
20
-4.44764196208216
30
0
41
1
10
59.4615890330369
20
-4.33394585435278
30
0
41
1
10
58.8381535214907
20
-4.11217959520837
30
0
41
1
10
58.2661319511345
20
-3.80174434206653
30
0
41
1
10
57.7727772188541
20
-3.42895955836711
30
0
41
1
10
57.4862174642704
20
-3.14503958496175
30
0
41
1
10
57.3611002235504
20
-3.00477806840698
30
0
0
SPLINE
5
183
100
AcDbEntity
8
1
62
256
6
ByLayer
370
18
48
1
60
0
100
AcDbSpline
70
4
71
1
72
4
73
2
40
0
40
0
40
1
40
1
41
1
10
62.9416269599617
20
-4.56044601597963
30
0
41
1
10
62.81385411369
20
-4.56000131461951
30
0
0
SPLINE
5
184
100
AcDbEntity
8
1
62
256
6
ByLayer
370
18
48
1
60
0
100
AcDbSpline
70
4
71
3
72
12
73
8
40
0
40
0
40
0
40
0
40
0.158767531158604
40
0.369075648368953
40
0.579383765579303
40
0.78969188278965
40
1
40
1
40
1
40
1
41
1
10
62.941626949882
20
-4.56044608226327
30
0
41
1
10
62.9232586602996
20
-4.68120952168809
30
0
41
1
10
62.8794393125022
20
-4.95227460750607
30
0
41
1
10
62.8062359685413
20
-5.34432112544008
30
0
41
1
10
62.7221630833786
20
-5.72356709441595
30
0
41
1
10
62.63444205743
20
-6.05191648608378
30
0
41
1
10
62.5743972379867
20
-6.23373862406303
30
0
41
1
10
62.5439114645309
20
-6.31564252934609
30
0
0
SPLINE
5
185
100
AcDbEntity
8
1
62
256
6
ByLayer
370
18
48
1
60
0
100
AcDbSpline
70
4
71
2
72
6
73
3
40
0
40
0
40
0
40
1
40
1
40
1
41
1
10
52.9233535248539
20
-5.97599426186329
30
0
41
1
10
52.9266480209824
20
-5.95605423577735
30
0
41
1
10
52.9298372899729
20
-5.93536503496708
30
0
0
SPLINE
5
186
100
AcDbEntity
8
1
62
256
6
ByLayer
370
18
48
1
60
0
100
AcDbSpline
70
4
71
3
72
11
73
7
40
0
40
0
40
0
40
0
40
0.0078578168666741
40
0.417986723929741
40
0.841480154300537
40
1
40
1
40
1
40
1
41
1
10
56.4824968160133
20
-2.37514858250039
30
0
41
1
10
56.4851632422439
20
-2.37631261591919
30
0
41
1
10
56.626862536963
20
-2.43844529459063
30
0
41
1
10
56.9000244758003
20
-2.58760614938403
30
0
41
1
10
57.1809808791524
20
-2.8142657669468
30
0
41
1
10
57.3237026389258
20
-2.96295514110557
30
0
41
1
10
57.3611002235519
20
-3.0047780684087
30
0
0
SPLINE
5
187
100
AcDbEntity
8
1
62
256
6
ByLayer
370
18
48
1
60
0
100
AcDbSpline
70
4
71
1
72
4
73
2
40
0
40
0
40
1
40
1
41
1
10
55.6025299086967
20
3.85265697526053
30
0
41
1
10
55.5399304612976
20
3.85420550115664
30
0
0
SPLINE
5
188
100
AcDbEntity
8
1
62
256
6
ByLayer
370
18
48
1
60
0
100
AcDbSpline
70
4
71
1
72
4
73
2
40
0
40
0
40
1
40
1
41
1
10
60.8052869312359
20
5.81530800425185
30
0
41
1
10
60.9021558596989
20
5.81281669834481
30
0
0
SPLINE
5
189
100
AcDbEntity
8
1
62
256
6
ByLayer
370
18
48
1
60
0
100
AcDbSpline
70
4
71
3
72
15
73
11
40
0
40
0
40
0
40
0
40
0.228435565827109
40
0.455268471850386
40
0.597059656971079
40
0.693578837374154
40
0.768481282605449
40
0.843713841304806
40
0.913294020400118
40
1
40
1
40
1
40
1
41
1
10
77.0247368754079
20
-0.636275190931806
30
0
41
1
10
76.8699790751909
20
-0.718509777025359
30
0
41
1
10
76.5633537789935
20
-0.909229278193134
30
0
41
1
10
76.1549060434599
20
-1.21624757505347
30
0
41
1
10
75.853656877718
20
-1.5163966132779
30
0
41
1
10
75.6794504397556
20
-1.74820471782283
30
0
41
1
10
75.5817005234395
20
-1.93855568762926
30
0
41
1
10
75.5452841960674
20
-2.09455233326484
30
0
41
1
10
75.5621717007771
20
-2.22323023759947
30
0
41
1
10
75.5972022417309
20
-2.28697151801405
30
0
41
1
10
75.6254868029811
20
-2.3149440386059
30
0
0
SPLINE
5
18A
100
AcDbEntity
8
1
62
256
6
ByLayer
370
18
48
1
60
0
100
AcDbSpline
70
4
71
3
72
22
73
18
40
0
40
0
40
0
40
0
40
0.0398593159906953
40
0.088643135320984
40
0.145182137757599
40
0.208222486434422
40
0.276480167276716
40
0.348665814083663
40
0.423501122463804
40
0.512388740508845
40
0.600607238348102
40
0.68554026058172
40
0.764545249694695
40
0.835054174448039
40
0.896263553347136
40
0.951870103079799
40
1
40
1
40
1
40
1
41
1
10
62.5439114645311
20
-6.3156425293455
30
0
41
1
10
62.7290172645509
20
-6.3014651634604
30
0
41
1
10
63.1391708853572
20
-6.2587959841856
30
0
41
1
10
63.8049973334482
20
-6.13701680096349
30
0
41
1
10
64.5707409555698
20
-5.9682206804247
30
0
41
1
10
65.418813544956
20
-5.75303133346351
30
0
41
1
10
66.3313300793081
20
-5.49845930952905
30
0
41
1
10
67.2902702115771
20
-5.20972508198847
30
0
41
1
10
68.3334655401293
20
-4.8747601816815
30
0
41
1
10
69.4370873211104
20
-4.49739430320574
30
0
41
1
10
70.5740871779995
20
-4.08973301489197
30
0
41
1
10
71.658318652078
20
-3.68760087486728
30
0
41
1
10
72.6572798385776
20
-3.3093640166976
30
0
41
1
10
73.5455827322376
20
-2.96793405630189
30
0
41
1
10
74.3258283172349
20
-2.67532264890919
30
0
41
1
10
75.0075991237714
20
-2.4442253767232
30
0
41
1
10
75.4303878886564
20
-2.35023921110116
30
0
41
1
10
75.6254868029868
20
-2.31494403860432
30
0
0
SPLINE
5
18B
100
AcDbEntity
8
1
62
256
6
ByLayer
370
18
48
1
60
0
100
AcDbSpline
70
4
71
3
72
16
73
12
40
0
40
0
40
0
40
0
40
0.0906968187834705
40
0.181452090039393
40
0.304886776498982
40
0.428457050100114
40
0.554103264959009
40
0.679719172461892
40
0.820251593222322
40
0.960728460740152
40
1
40
1
40
1
40
1
41
1
10
68.0446024505737
20
-0.854835209446339
30
0
41
1
10
67.9888687960234
20
-1.05243135217224
30
0
41
1
10
67.852220150527
20
-1.43620319404945
30
0
41
1
10
67.5337484910612
20
-2.04756946711198
30
0
41
1
10
67.0817407973695
20
-2.660106292088
30
0
41
1
10
66.4845772505569
20
-3.24586743740773
30
0
41
1
10
65.8014224355676
20
-3.7371828090094
30
0
41
1
10
65.0180894441999
20
-4.14411784733241
30
0
41
1
10
64.145106486446
20
-4.43530590613761
30
0
41
1
10
63.4300093202921
20
-4.5458766044267
30
0
41
1
10
63.0293515745761
20
-4.55962861063251
30
0
41
1
10
62.9416269599583
20
-4.56044601597966
30
0
0
SPLINE
5
18C
100
AcDbEntity
8
1
62
256
6
ByLayer
370
18
48
1
60
0
100
AcDbSpline
70
4
71
3
72
18
73
14
40
0
40
0
40
0
40
0
40
0.0759799328441246
40
0.216950636843266
40
0.356423101488992
40
0.488469120205417
40
0.607076641018378
40
0.708907296935518
40
0.77331916481356
40
0.830732578780718
40
0.883746847658003
40
0.938130719748054
40
1
40
1
40
1
40
1
41
1
10
68.0446024504905
20
-0.854835209446894
30
0
41
1
10
68.2890481344283
20
-0.853157300148896
30
0
41
1
10
68.9836687729018
20
-0.847016886339932
30
0
41
1
10
70.1086977681155
20
-0.830053113032522
30
0
41
1
10
71.3879738898502
20
-0.80220830252518
30
0
41
1
10
72.5775394222764
20
-0.768921960616523
30
0
41
1
10
73.6328339260661
20
-0.732200552478828
30
0
41
1
10
74.4667162028581
20
-0.697091204530304
30
0
41
1
10
75.1095367667525
20
-0.67109371036552
30
0
41
1
10
75.606640114119
20
-0.655808275873801
30
0
41
1
10
76.07142864302
20
-0.649242827600043
30
0
41
1
10
76.5406303589821
20
-0.645159979907515
30
0
41
1
10
76.8576076236467
20
-0.639592722466671
30
0
41
1
10
77.0247368752347
20
-0.636275190935623
30
0
0
SPLINE
5
18D
100
AcDbEntity
8
1
62
256
6
ByLayer
370
18
48
1
60
0
100
AcDbSpline
70
4
71
3
72
22
73
18
40
0
40
0
40
0
40
0
40
0.0398593159879893
40
0.0886431353159041
40
0.145182137750537
40
0.208222486425829
40
0.276480167267103
40
0.348665814073606
40
0.423501122453941
40
0.51238874050003
40
0.600607238340984
40
0.685540260576635
40
0.764545249691688
40
0.835054174446873
40
0.896263553347476
40
0.951870103079895
40
1
40
1
40
1
40
1
41
1
10
63.0203786307446
20
7.47849375947278
30
0
41
1
10
63.2040610969123
20
7.45146438049242
30
0
41
1
10
63.6102855227094
20
7.38037996885274
30
0
41
1
10
64.2661168791602
20
7.21279261106208
30
0
41
1
10
65.0183827382392
20
6.99139584315962
30
0
41
1
10
65.8495783399982
20
6.7179818117216
30
0
41
1
10
66.7423422212669
20
6.40069745655394
30
0
41
1
10
67.6790547687597
20
6.04592389307354
30
0
41
1
10
68.6966204580946
20
5.63888858548465
30
0
41
1
10
69.7715268815443
20
5.1849200434497
30
0
41
1
10
70.8776257692916
20
4.6979715657369
30
0
41
1
10
71.9314530758977
20
4.21987677728946
30
0
41
1
10
72.9018546683686
20
3.77128870245536
30
0
41
1
10
73.7643963026918
20
3.36690793792496
30
0
41
1
10
74.5225007500443
20
3.01851427264971
30
0
41
1
10
75.1866037896088
20
2.73811441987775
30
0
41
1
10
75.6018242235253
20
2.61299086234404
30
0
41
1
10
75.7939849540275
20
2.5632230734148
30
0
0
SPLINE
5
18E
100
AcDbEntity
8
1
62
256
6
ByLayer
370
18
48
1
60
0
100
AcDbSpline
70
4
71
3
72
16
73
12
40
0
40
0
40
0
40
0
40
0.118546636851417
40
0.191014590194126
40
0.263713635625981
40
0.333764906153627
40
0.452008025544354
40
0.553339821228455
40
0.654921614862683
40
0.827282712617538
40
1
40
1
40
1
40
1
41
1
10
75.7939849540215
20
2.56322307341637
30
0
41
1
10
75.7505122921643
20
2.52899206158606
30
0
41
1
10
75.7084090043917
20
2.44978795822811
30
0
41
1
10
75.7038025321972
20
2.28521150403449
30
0
41
1
10
75.7527277949604
20
2.12055320933627
30
0
41
1
10
75.8591085449324
20
1.91360278109434
30
0
41
1
10
76.0183627735947
20
1.69546799085587
30
0
41
1
10
76.2130691373161
20
1.48109834796339
30
0
41
1
10
76.4506304380359
20
1.25607288082827
30
0
41
1
10
76.7397439488565
20
1.0227384821665
30
0
41
1
10
76.9623004177036
20
0.864707103689498
30
0
41
1
10
77.0740756981827
20
0.792126373900516
30
0
0
SPLINE
5
18F
100
AcDbEntity
8
1
62
256
6
ByLayer
370
18
48
1
60
0
100
AcDbSpline
70
4
71
3
72
18
73
14
40
0
40
0
40
0
40
0
40
0.0759799328404167
40
0.216950636837053
40
0.356423101480452
40
0.488469120194707
40
0.607076641005627
40
0.708907296920896
40
0.773319164801294
40
0.830732578770267
40
0.883746847649593
40
0.938130719742846
40
1
40
1
40
1
40
1
41
1
10
68.1320368264371
20
1.67646554674955
30
0
41
1
10
68.3757568974281
20
1.6571363342677
30
0
41
1
10
69.0682172692478
20
1.60073516143152
30
0
41
1
10
70.1892443384696
20
1.50183971838615
30
0
41
1
10
71.4633570224405
20
1.38019854256093
30
0
41
1
10
72.6475920076038
20
1.25916093369999
30
0
41
1
10
73.6976442845986
20
1.14411534498425
30
0
41
1
10
74.5269481715657
20
1.04667634988518
30
0
41
1
10
75.1663035280316
20
0.972353093334248
30
0
41
1
10
75.6610553285563
20
0.91955921342951
30
0
41
1
10
76.1241752341623
20
0.877816574211032
30
0
41
1
10
76.59186186045
20
0.838036265202158
30
0
41
1
10
76.9076179030596
20
0.808248087783656
30
0
41
1
10
77.0740756981858
20
0.792126373900757
30
0
0
SPLINE
5
190
100
AcDbEntity
8
1
62
256
6
ByLayer
370
18
48
1
60
0
100
AcDbSpline
70
4
71
3
72
16
73
12
40
0
40
0
40
0
40
0
40
0.106710449235809
40
0.213401716204671
40
0.336736720313617
40
0.460143959161156
40
0.593301403099268
40
0.726369811232023
40
0.832171375576821
40
0.937863836237408
40
1
40
1
40
1
40
1
41
1
10
63.2968406469632
20
5.72329724610692
30
0
41
1
10
63.5357799056582
20
5.70354499762917
30
0
41
1
10
64.0071814152234
20
5.63294615600155
30
0
41
1
10
64.7373104536333
20
5.42048517153995
30
0
41
1
10
65.4657696085984
20
5.09309006934718
30
0
41
1
10
66.1886960215019
20
4.63614434734889
30
0
41
1
10
66.8493747180916
20
4.06379944714858
30
0
41
1
10
67.3848545933993
20
3.42203117857587
30
0
41
1
10
67.779141554454
20
2.75408680604155
30
0
41
1
10
68.0105294056662
20
2.17903660516916
30
0
41
1
10
68.1037336043694
20
1.8138642953371
30
0
41
1
10
68.1320368265204
20
1.67646554673968
30
0
0
SPLINE
5
191
100
AcDbEntity
8
1
62
256
6
ByLayer
370
18
48
1
60
0
100
AcDbSpline
70
4
71
1
72
4
73
2
40
0
40
0
40
1
40
1
41
1
10
62.8138541136901
20
-4.56000131461951
30
0
41
1
10
62.715788272123
20
-4.55749085764933
30
0
0
SPLINE
5
192
100
AcDbEntity
8
1
62
256
6
ByLayer
370
18
48
1
60
0
100
AcDbSpline
70
4
71
3
72
11
73
7
40
0
40
0
40
0
40
0
40
0.274372063566575
40
0.548743888963174
40
0.772964608938921
40
1
40
1
40
1
40
1
41
1
10
68.1320368265197
20
1.67646554674302
30
0
41
1
10
68.178930828939
20
1.44627204347913
30
0
41
1
10
68.2425459035308
20
0.984092277200128
30
0
41
1
10
68.2473056207005
20
0.322517717097632
30
0
41
1
10
68.1790053833421
20
-0.293478417865888
30
0
41
1
10
68.0963942636869
20
-0.668055469916213
30
0
41
1
10
68.0446024505734
20
-0.85483520944756
30
0
0
SPLINE
5
193
100
AcDbEntity
8
1
62
256
6
ByLayer
370
18
48
1
60
0
100
AcDbSpline
70
4
71
3
72
10
73
6
40
0
40
0
40
0
40
0
40
0.419320200747444
40
0.850977049530496
40
1
40
1
40
1
40
1
41
1
10
53.9844799294018
20
-8.02216762921059
30
0
41
1
10
53.7634913714259
20
-8.02017304947881
30
0
41
1
10
53.300911614275
20
-7.97734018248138
30
0
41
1
10
52.7068055210737
20
-7.8516979132001
30
0
41
1
10
52.3616898487022
20
-7.72866475447808
30
0
41
1
10
52.2725538927902
20
-7.69436032839301
30
0
0
SPLINE
5
194
100
AcDbEntity
8
1
62
256
6
ByLayer
370
18
48
1
60
0
100
AcDbSpline
70
4
71
2
72
6
73
3
40
0
40
0
40
0
40
1
40
1
40
1
41
1
10
77.0740756981817
20
0.792126373901149
30
0
41
1
10
77.6712132352813
20
0.39481933254796
30
0
41
1
10
78.2647757774348
20
0.0311206512575064
30
0
0
SPLINE
5
195
100
AcDbEntity
8
1
62
256
6
ByLayer
370
18
48
1
60
0
100
AcDbSpline
70
4
71
2
72
6
73
3
40
0
40
0
40
0
40
1
40
1
40
1
41
1
10
78.2647757774507
20
0.031120651247806
30
0
41
1
10
77.6475703412144
20
-0.286014252091593
30
0
41
1
10
77.0247368754072
20
-0.636275190932155
30
0
0
SPLINE
5
196
100
AcDbEntity
8
1
62
256
6
ByLayer
370
18
48
1
60
0
100
AcDbSpline
70
4
71
3
72
10
73
6
40
0
40
0
40
0
40
0
40
0.386237089665376
40
0.842486754482327
40
1
40
1
40
1
40
1
41
1
10
54.5119570400255
20
9.70902625535294
30
0
41
1
10
54.317249722116
20
9.71569901897473
30
0
41
1
10
53.8791636241421
20
9.69923326306823
30
0
41
1
10
53.3101567146591
20
9.61566228979431
30
0
41
1
10
52.9573084557168
20
9.51500873221342
30
0
41
1
10
52.8660031537635
20
9.48650871536632
30
0
0
SPLINE
5
197
100
AcDbEntity
8
1
62
256
6
ByLayer
370
18
48
1
60
0
100
AcDbSpline
70
4
71
1
72
4
73
2
40
0
40
0
40
1
40
1
41
1
10
62.5439114645311
20
-6.3156425293455
30
0
41
1
10
61.8154863889377
20
-8.2713604767482
30
0
0
SPLINE
5
198
100
AcDbEntity
8
1
62
256
6
ByLayer
370
18
48
1
60
0
100
AcDbSpline
70
4
71
1
72
4
73
2
40
0
40
0
40
1
40
1
41
1
10
63.0203786307446
20
7.47849375947278
30
0
41
1
10
62.4270595695912
20
9.43421170687548
30
0
0
SPLINE
5
199
100
AcDbEntity
8
1
62
256
6
ByLayer
370
18
48
1
60
0
100
AcDbSpline
70
4
71
3
72
13
73
9
40
0
40
0
40
0
40
0
40
0.127184875645933
40
0.273253586308535
40
0.447674241578032
40
0.643202188315993
40
0.8272634567048
40
1
40
1
40
1
40
1
41
1
10
75.2856385434383
20
-5.5909152110288
30
0
41
1
10
75.4508877519221
20
-5.50414039229324
30
0
41
1
10
75.8038887011508
20
-5.31398797610006
30
0
41
1
10
76.3740928603528
20
-4.98731730820822
30
0
41
1
10
77.0241135766888
20
-4.59826975460551
30
0
41
1
10
77.7132460347131
20
-4.16593978855491
30
0
41
1
10
78.3892242614796
20
-3.71723158601206
30
0
41
1
10
78.8166527924897
20
-3.41383626382193
30
0
41
1
10
79.0216182822638
20
-3.26400403355224
30
0
0
SPLINE
5
19A
100
AcDbEntity
8
1
62
256
6
ByLayer
370
18
48
1
60
0
100
AcDbSpline
70
4
71
1
72
4
73
2
40
0
40
0
40
1
40
1
41
1
10
75.2856442380017
20
-5.5909432596749
30
0
41
1
10
74.8179331958004
20
-5.65055251633735
30
0
0
SPLINE
5
19B
100
AcDbEntity
8
1
62
256
6
ByLayer
370
18
48
1
60
0
100
AcDbSpline
70
4
71
3
72
11
73
7
40
0
40
0
40
0
40
0
40
0.285829026671024
40
0.578637116264078
40
0.787421011610946
40
1
40
1
40
1
40
1
41
1
10
72.6592633437674
20
-6.24123206441329
30
0
41
1
10
72.8767287731953
20
-6.15473721946341
30
0
41
1
10
73.3114030795494
20
-5.99618525797025
30
0
41
1
10
73.8947161577084
20
-5.81964916238456
30
0
41
1
10
74.4006257969211
20
-5.70527358179085
30
0
41
1
10
74.6807214659998
20
-5.664598903069
30
0
41
1
10
74.8179331958015
20
-5.65055251633722
30
0
0
SPLINE
5
19C
100
AcDbEntity
8
1
62
256
6
ByLayer
370
18
48
1
60
0
100
AcDbSpline
70
4
71
3
72
13
73
9
40
0
40
0
40
0
40
0
40
0.191242723953692
40
0.382509656090717
40
0.57791302036804
40
0.773345337697938
40
0.886540373994359
40
1
40
1
40
1
40
1
41
1
10
72.6592633437674
20
-6.24123206441329
30
0
41
1
10
71.9986816921234
20
-6.50028409515164
30
0
41
1
10
70.6634828835402
20
-6.97140605153358
30
0
41
1
10
68.600775887705
20
-7.54639839640104
30
0
41
1
10
66.4868389081579
20
-7.97016118835714
30
0
41
1
10
64.6327462897628
20
-8.18319160636339
30
0
41
1
10
63.0736151907776
20
-8.27500121442078
30
0
41
1
10
62.2354363954498
20
-8.27946745398137
30
0
41
1
10
61.8154863889325
20
-8.27136047674711
30
0
0
SPLINE
5
19D
100
AcDbEntity
8
1
62
256
6
ByLayer
370
18
48
1
60
0
100
AcDbSpline
70
4
71
3
72
15
73
11
40
0
40
0
40
0
40
0
40
0.168844406260328
40
0.338112901645274
40
0.448061316414473
40
0.558007865422697
40
0.671314201919502
40
0.784553545822871
40
0.89101789276163
40
1
40
1
40
1
40
1
41
1
10
75.6254868029807
20
-2.31494403860542
30
0
41
1
10
75.7490313154679
20
-2.4629143359373
30
0
41
1
10
76.0149354580781
20
-2.73715871050735
30
0
41
1
10
76.3988363449353
20
-3.06590466526183
30
0
41
1
10
76.7926774362463
20
-3.2752150158163
30
0
41
1
10
77.1655050780627
20
-3.40495982990315
30
0
41
1
10
77.5768891870374
20
-3.4839524351687
30
0
41
1
10
78.0215192060157
20
-3.49919475941417
30
0
41
1
10
78.4988130908726
20
-3.44458914054337
30
0
41
1
10
78.8400418731219
20
-3.33735665832007
30
0
41
1
10
79.0195998425734
20
-3.26709103321927
30
0
0
SPLINE
5
19E
100
AcDbEntity
8
1
62
256
6
ByLayer
370
18
48
1
60
0
100
AcDbSpline
70
4
71
3
72
15
73
11
40
0
40
0
40
0
40
0
40
0.129891227445042
40
0.259933892712574
40
0.389915445294386
40
0.523443522624367
40
0.657086560106936
40
0.790662289483958
40
0.895259307045811
40
1
40
1
40
1
40
1
41
1
10
62.4270595695915
20
9.4342117068745
30
0
41
1
10
62.9077290292407
20
9.41254153972074
30
0
41
1
10
63.8663889615623
20
9.34050496266171
30
0
41
1
10
65.2957667336102
20
9.1372958630851
30
0
41
1
10
66.7265227465853
20
8.86362504979227
30
0
41
1
10
68.1549398194516
20
8.51316803293701
30
0
41
1
10
69.573863685501
20
8.07692578267781
30
0
41
1
10
70.8692303493482
20
7.60843514941157
30
0
41
1
10
72.046746197422
20
7.13065164904119
30
0
41
1
10
72.7535067944786
20
6.81096795865456
30
0
41
1
10
73.1043459651472
20
6.64429452457963
30
0
0
SPLINE
5
19F
100
AcDbEntity
8
1
62
256
6
ByLayer
370
18
48
1
60
0
100
AcDbSpline
70
4
71
3
72
11
73
7
40
0
40
0
40
0
40
0
40
0.283766240604027
40
0.577212127289772
40
0.787246122736144
40
1
40
1
40
1
40
1
41
1
10
75.2167855279656
20
5.89656724161313
30
0
41
1
10
75.0342747535671
20
5.93009884462188
30
0
41
1
10
74.6519556350345
20
6.0207903301767
30
0
41
1
10
74.0913103237973
20
6.2140099088072
30
0
41
1
10
73.5701182221411
20
6.4281423339875
30
0
41
1
10
73.260766783789
20
6.5692209113898
30
0
41
1
10
73.104345965141
20
6.64429452458255
30
0
0
SPLINE
5
1A0
100
AcDbEntity
8
1
62
256
6
ByLayer
370
18
48
1
60
0
100
AcDbSpline
70
4
71
1
72
4
73
2
40
0
40
0
40
1
40
1
41
1
10
75.2167855279656
20
5.89656724161312
30
0
41
1
10
75.6791378953182
20
5.80103822996826
30
0
0
SPLINE
5
1A1
100
AcDbEntity
8
1
62
256
6
ByLayer
370
18
48
1
60
0
100
AcDbSpline
70
4
71
3
72
10
73
6
40
0
40
0
40
0
40
0
40
0.355206539474764
40
0.687065685878787
40
1
40
1
40
1
40
1
41
1
10
79.2455425443104
20
3.21615847810033
30
0
41
1
10
78.8449747515503
20
3.55196926502714
30
0
41
1
10
78.0552166379679
20
4.18094829357696
30
0
41
1
10
76.8629290232527
20
5.04094819133407
30
0
41
1
10
76.0695933833549
20
5.55735470467023
30
0
41
1
10
75.6786752777922
20
5.79936659524872
30
0
0
SPLINE
5
1A2
100
AcDbEntity
8
1
62
256
6
ByLayer
370
18
48
1
60
0
100
AcDbSpline
70
4
71
3
72
16
73
12
40
0
40
0
40
0
40
0
40
0.0637986609166964
40
0.12764291590032
40
0.260105498711657
40
0.363136258917887
40
0.466201155740995
40
0.572053271930381
40
0.677908717537029
40
0.838591252276261
40
1
40
1
40
1
40
1
41
1
10
79.2436556266123
20
3.21951759890792
30
0
41
1
10
79.1418743438356
20
3.27002536403898
30
0
41
1
10
78.9421644034651
20
3.35828529870479
30
0
41
1
10
78.5509414379467
20
3.48189423375758
30
0
41
1
10
78.1299753399536
20
3.54632442295945
30
0
41
1
10
77.690064209546
20
3.54433892857483
30
0
41
1
10
77.3122267591637
20
3.49056509844713
30
0
41
1
10
76.9587163619362
20
3.38886276722314
30
0
41
1
10
76.5755071073069
20
3.21318457698246
30
0
41
1
10
76.1919453222101
20
2.92940586335073
30
0
41
1
10
75.9218818286014
20
2.69224585482123
30
0
41
1
10
75.7939849540203
20
2.56322307341517
30
0
0
SPLINE
5
1A3
100
AcDbEntity
8
1
62
256
6
ByLayer
370
18
48
1
60
0
100
AcDbSpline
70
4
71
3
72
13
73
9
40
0
40
0
40
0
40
0
40
0.264501747229014
40
0.448386406949544
40
0.632293150443367
40
0.808287277690966
40
0.984397949906627
40
1
40
1
40
1
40
1
41
1
10
79.6163205363212
20
-2.6291764791764
30
0
41
1
10
79.7500688078505
20
-2.55940682717638
30
0
41
1
10
79.9747798037676
20
-2.41769182019216
30
0
41
1
10
80.2919224721955
20
-2.15791262571162
30
0
41
1
10
80.5524981962171
20
-1.90168375154947
30
0
41
1
10
80.7906180920176
20
-1.62437871022272
30
0
41
1
10
80.9389293037907
20
-1.42389808415395
30
0
41
1
10
81.0112781283962
20
-1.31795541820903
30
0
41
1
10
81.0171353335651
20
-1.30931942736003
30
0
0
SPLINE
5
1A4
100
AcDbEntity
8
1
62
256
6
ByLayer
370
18
48
1
60
0
100
AcDbSpline
70
4
71
3
72
13
73
9
40
0
40
0
40
0
40
0
40
0.0563758328103343
40
0.244667706604236
40
0.432815762071667
40
0.621794598248242
40
0.810787676669419
40
1
40
1
40
1
40
1
41
1
10
81.1011694914629
20
1.12354207739567
30
0
41
1
10
81.0821969992623
20
1.1561128495795
30
0
41
1
10
80.9980930504769
20
1.29671892079905
30
0
41
1
10
80.8348325408069
20
1.54191627536
30
0
41
1
10
80.5967666160933
20
1.84488508850844
30
0
41
1
10
80.3380868592019
20
2.11906740195473
30
0
41
1
10
80.0669779319783
20
2.35676814073804
30
0
41
1
10
79.8860880910702
20
2.48441934342139
30
0
41
1
10
79.7949076398648
20
2.54107452739725
30
0
0
SPLINE
5
1A5
100
AcDbEntity
8
1
62
256
6
ByLayer
370
18
48
1
60
0
100
AcDbSpline
70
4
71
3
72
12
73
8
40
0
40
0
40
0
40
0
40
0.210306146851699
40
0.40519744108638
40
0.600081052130926
40
0.800043250730868
40
1
40
1
40
1
40
1
41
1
10
25.4122411146712
20
-28.0634701690531
30
0
41
1
10
25.0791229466656
20
-28.3325136662214
30
0
41
1
10
24.4747794792847
20
-28.8291091605952
30
0
41
1
10
23.6854521967914
20
-29.5077755080635
30
0
41
1
10
23.0132832076609
20
-30.1055003342195
30
0
41
1
10
22.4437740423035
20
-30.6284381359017
30
0
41
1
10
22.1355252579923
20
-30.9174875480365
30
0
41
1
10
21.9999999999989
20
-31.047050071917
30
0
0
SPLINE
5
1A6
100
AcDbEntity
8
1
62
256
6
ByLayer
370
18
48
1
60
0
100
AcDbSpline
70
4
71
3
72
12
73
8
40
0
40
0
40
0
40
0
40
0.218907257523255
40
0.437822550591366
40
0.664079435649969
40
0.890351150266679
40
1
40
1
40
1
40
1
41
1
10
22
20
31.0470500719164
30
0
41
1
10
22.1484271014719
20
30.904960845483
30
0
41
1
10
22.48979918877
20
30.5853248419569
30
0
41
1
10
23.1431119229803
20
29.987607726464
30
0
41
1
10
23.9414772429769
20
29.2836991714951
30
0
41
1
10
24.7232732839427
20
28.6225395892306
30
0
41
1
10
25.2387500952683
20
28.203242541095
30
0
41
1
10
25.4122411146735
20
28.0634701690515
30
0
0
SPLINE
5
1A7
100
AcDbEntity
8
1
62
256
6
ByLayer
370
18
48
1
60
0
100
AcDbSpline
70
4
71
3
72
11
73
7
40
0
40
0
40
0
40
0
40
0.0321093546093572
40
0.382749461486847
40
0.690500654401473
40
1
40
1
40
1
40
1
41
1
10
21.5287841135612
20
-31.49999999978
30
0
41
1
10
21.5288506289004
20
-31.4999253291054
30
0
41
1
10
21.5310595054527
20
-31.4974194979591
30
0
41
1
10
21.5756284593501
20
-31.4545693248184
30
0
41
1
10
21.7390569362917
20
-31.2960430491608
30
0
41
1
10
21.9028371345386
20
-31.1396616088307
30
0
41
1
10
22.0000000000005
20
-31.0470500719156
30
0
0
SPLINE
5
1A8
100
AcDbEntity
8
1
62
256
6
ByLayer
370
18
48
1
60
0
100
AcDbSpline
70
4
71
3
72
11
73
7
40
0
40
0
40
0
40
0
40
0.315471697466456
40
0.630940769520493
40
0.954214826710729
40
1
40
1
40
1
40
1
41
1
10
22
20
31.0470500719164
30
0
41
1
10
21.9009945598207
20
31.1413970197245
30
0
41
1
10
21.7342013466931
20
31.3006407364694
30
0
41
1
10
21.5759865785831
20
31.4541952919756
30
0
41
1
10
21.53161947049
20
31.4970518329734
30
0
41
1
10
21.5288537013758
20
31.4999281838003
30
0
41
1
10
21.5287841135573
20
31.499999999784
30
0
0
SPLINE
5
1A9
100
AcDbEntity
8
1
62
256
6
ByLayer
370
18
48
1
60
0
100
AcDbSpline
70
4
71
3
72
20
73
16
40
0
40
0
40
0
40
0
40
0.159797970189617
40
0.319300932834487
40
0.385116106213546
40
0.45072213658787
40
0.516705622570907
40
0.54852707417242
40
0.580555005341172
40
0.609780829023457
40
0.657559167630806
40
0.703424695375511
40
0.749421714372421
40
0.891165897960428
40
1
40
1
40
1
40
1
41
1
10
27.323482080227
20
-23.0713010206538
30
0
41
1
10
27.3127647684253
20
-23.3754231734125
30
0
41
1
10
27.2689822472322
20
-23.978420387543
30
0
41
1
10
27.1765600475966
20
-24.7017244420193
30
0
41
1
10
27.0627558321324
20
-25.2343041959988
30
0
41
1
10
26.954922230416
20
-25.5794614305968
30
0
41
1
10
26.824911107966
20
-25.8397835711544
30
0
41
1
10
26.6824943623657
20
-25.9772445467372
30
0
41
1
10
26.5668769614616
20
-26.016270411379
30
0
41
1
10
26.4367216020476
20
-25.9881428202017
30
0
41
1
10
26.3110585550306
20
-25.8832539198252
30
0
41
1
10
26.1953054422262
20
-25.7187375129784
30
0
41
1
10
26.0345431677502
20
-25.3990766843104
30
0
41
1
10
25.8868523846143
20
-24.9322806842454
30
0
41
1
10
25.7964784127604
20
-24.515763444832
30
0
41
1
10
25.7657074719796
20
-24.3275056023783
30
0
0
SPLINE
5
1AA
100
AcDbEntity
8
1
62
256
6
ByLayer
370
18
48
1
60
0
100
AcDbSpline
70
4
71
3
72
10
73
6
40
0
40
0
40
0
40
0
40
0.0537426120365738
40
0.842597780239986
40
1
40
1
40
1
40
1
41
1
10
25.6427672924778
20
23.4981145110626
30
0
41
1
10
25.6445863723259
20
23.5133616753221
30
0
41
1
10
25.6735591785648
20
23.7521289245499
30
0
41
1
10
25.7071059497881
20
24.0362748978094
30
0
41
1
10
25.7583081670026
20
24.2926649154949
30
0
41
1
10
25.7671076557944
20
24.335135277937
30
0
0
SPLINE
5
1AB
100
AcDbEntity
8
1
62
256
6
ByLayer
370
18
48
1
60
0
100
AcDbSpline
70
4
71
3
72
17
73
13
40
0
40
0
40
0
40
0
40
0.090813280257577
40
0.181666962153549
40
0.272032849009386
40
0.362464244542318
40
0.460712188421811
40
0.559019191075355
40
0.678368002046287
40
0.797768457808302
40
0.898882547762155
40
1
40
1
40
1
40
1
41
1
10
25.4122411146711
20
28.0634701690534
30
0
41
1
10
25.413179471861
20
28.0625952083909
30
0
41
1
10
25.4472030046439
20
28.0353076444717
30
0
41
1
10
25.5971320255149
20
27.9152098539228
30
0
41
1
10
25.837423334712
20
27.7245352218475
30
0
41
1
10
26.1614127506998
20
27.4708397377891
30
0
41
1
10
26.5663315682988
20
27.1593316277307
30
0
41
1
10
27.0771522886281
20
26.7744466768887
30
0
41
1
10
27.6863847255274
20
26.3276615296368
30
0
41
1
10
28.3539433445309
20
25.8532149755725
30
0
41
1
10
29.0221739385473
20
25.3934589085451
30
0
41
1
10
29.4561044014427
20
25.1039298401608
30
0
41
1
10
29.677121301819
20
24.9585708703148
30
0
0
SPLINE
5
1AC
100
AcDbEntity
8
1
62
256
6
ByLayer
370
18
48
1
60
0
100
AcDbSpline
70
4
71
3
72
17
73
13
40
0
40
0
40
0
40
0
40
0.0799523710195721
40
0.179975899492002
40
0.280305754949548
40
0.3802769615943
40
0.501028898071752
40
0.621663590778077
40
0.719113589174096
40
0.81647629044438
40
0.908259338510546
40
1
40
1
40
1
40
1
41
1
10
29.6771213018157
20
-24.9585708703166
30
0
41
1
10
29.5025939173279
20
-25.0732837484532
30
0
41
1
10
29.1151685469022
20
-25.3309173443115
30
0
41
1
10
28.5279690735972
20
-25.7326485236138
30
0
41
1
10
27.9277725824965
20
-26.1551467657324
30
0
41
1
10
27.3247125772824
20
-26.5912774484939
30
0
41
1
10
26.7412156232336
20
-27.0260591342525
30
0
41
1
10
26.2407414162969
20
-27.4090467838704
30
0
41
1
10
25.8633199205466
20
-27.7040432491392
30
0
41
1
10
25.604217152026
20
-27.9095376553862
30
0
41
1
10
25.4479403211484
20
-28.0347137550096
30
0
41
1
10
25.4132165344777
20
-28.0625606966639
30
0
41
1
10
25.4122411146712
20
-28.0634701690531
30
0
0
SPLINE
5
1AD
100
AcDbEntity
8
1
62
256
6
ByLayer
370
18
48
1
60
0
100
AcDbSpline
70
4
71
3
72
19
73
15
40
0
40
0
40
0
40
0
40
0.101737160997584
40
0.228015712806209
40
0.294427759948783
40
0.361196502029336
40
0.396624436668344
40
0.432391491029271
40
0.463770673912445
40
0.503768476285377
40
0.574754634237194
40
0.690015099438528
40
0.805853009552518
40
1
40
1
40
1
40
1
41
1
10
25.7671076557943
20
24.3351352779366
30
0
41
1
10
25.7955676164064
20
24.5108537945322
30
0
41
1
10
25.8755441318935
20
24.8911288807684
30
0
41
1
10
26.0196652746634
20
25.3545892788915
30
0
41
1
10
26.1896430082173
20
25.7181547069929
30
0
41
1
10
26.3341148553139
20
25.9140474252469
30
0
41
1
10
26.4832905004175
20
26.0068675769601
30
0
41
1
10
26.6101837275133
20
26.0117086417136
30
0
41
1
10
26.7384189110222
20
25.9347200323669
30
0
41
1
10
26.8791136940286
20
25.7499898420446
30
0
41
1
10
27.0322962368941
20
25.3703690363367
30
0
41
1
10
27.1595297635347
20
24.8207159119888
30
0
41
1
10
27.2618092736291
20
24.0240694665676
30
0
41
1
10
27.3093958338678
20
23.4402384667587
30
0
41
1
10
27.3234820802271
20
23.0713010206516
30
0
0
SPLINE
5
1AE
100
AcDbEntity
8
1
62
256
6
ByLayer
370
18
48
1
60
0
100
AcDbSpline
70
4
71
1
72
4
73
2
40
0
40
0
40
1
40
1
41
1
10
25.539563163593
20
20.3330513305194
30
0
41
1
10
25.4070557190267
20
20.530909782414
30
0
0
SPLINE
5
1AF
100
AcDbEntity
8
1
62
256
6
ByLayer
370
18
48
1
60
0
100
AcDbSpline
70
4
71
2
72
6
73
3
40
0
40
0
40
0
40
1
40
1
40
1
41
1
10
25.76570747198
20
-24.3275056023809
30
0
41
1
10
25.6917127981452
20
-23.920811972747
30
0
41
1
10
25.6427672924778
20
-23.4981145110618
30
0
0
SPLINE
5
1B0
100
AcDbEntity
8
1
62
256
6
ByLayer
370
18
48
1
60
0
100
AcDbSpline
70
4
71
2
72
6
73
3
40
0
40
0
40
0
40
1
40
1
40
1
41
1
10
25.409242058405
20
-20.5273936289274
30
0
41
1
10
25.4683490967
20
-20.4320924841069
30
0
41
1
10
25.5401208648826
20
-20.3322758222806
30
0
0
SPLINE
5
1B1
100
AcDbEntity
8
1
62
256
6
ByLayer
370
18
48
1
60
0
100
AcDbSpline
70
4
71
3
72
10
73
6
40
0
40
0
40
0
40
0
40
0.361494492034212
40
0.738291349240212
40
1
40
1
40
1
40
1
41
1
10
48.1148584762033
20
-11.7814858161336
30
0
41
1
10
48.3478010909881
20
-11.9654365325515
30
0
41
1
10
48.8450410647121
20
-12.2984985077484
30
0
41
1
10
49.5864250023291
20
-12.6457456582219
30
0
41
1
10
50.0835217433898
20
-12.7871610430117
30
0
41
1
10
50.2921132794332
20
-12.8330633219825
30
0
0
SPLINE
5
1B2
100
AcDbEntity
8
1
62
256
6
ByLayer
370
18
48
1
60
0
100
AcDbSpline
70
4
71
3
72
11
73
7
40
0
40
0
40
0
40
0
40
0.26723596370042
40
0.534471927400841
40
0.801707891101255
40
1
40
1
40
1
40
1
41
1
10
46.8488289044342
20
-6.90533530411839
30
0
41
1
10
46.6501941720585
20
-6.89709739640423
30
0
41
1
10
46.2687959860513
20
-6.80393846249762
30
0
41
1
10
45.7313542239204
20
-6.42127860133891
30
0
41
1
10
45.3073375576732
20
-5.88479037118479
30
0
41
1
10
45.0942205204714
20
-5.4573292548653
30
0
41
1
10
45.0123890272611
20
-5.25842933447832
30
0
0
SPLINE
5
1B3
100
AcDbEntity
8
1
62
256
6
ByLayer
370
18
48
1
60
0
100
AcDbSpline
70
4
71
1
72
4
73
2
40
0
40
0
40
1
40
1
41
1
10
45.0123890272617
20
-5.25842933447983
30
0
41
1
10
44.9317359456352
20
-5.04817205427522
30
0
0
SPLINE
5
1B4
100
AcDbEntity
8
1
62
256
6
ByLayer
370
18
48
1
60
0
100
AcDbSpline
70
4
71
3
72
16
73
12
40
0
40
0
40
0
40
0
40
0.102432645582495
40
0.205986277487079
40
0.311166214104396
40
0.418550002222183
40
0.528649133150715
40
0.639960342020718
40
0.755247980356913
40
0.875012113914819
40
1
40
1
40
1
40
1
41
1
10
50.2921132794333
20
-12.8330633219828
30
0
41
1
10
50.081843406688
20
-12.7598743864218
30
0
41
1
10
49.6718101697383
20
-12.5791180513844
30
0
41
1
10
49.0861549487377
20
-12.2010452164547
30
0
41
1
10
48.5417981089751
20
-11.7181329367236
30
0
41
1
10
48.0484105396126
20
-11.1315868826491
30
0
41
1
10
47.6209923524679
20
-10.4488143518359
30
0
41
1
10
47.2716278041583
20
-9.67524821697638
30
0
41
1
10
47.0127264844927
20
-8.81981357953207
30
0
41
1
10
46.8579535862852
20
-7.88462684971028
30
0
41
1
10
46.8374981415144
20
-7.23933185796223
30
0
41
1
10
46.8488289044343
20
-6.90533530411433
30
0
0
SPLINE
5
1B5
100
AcDbEntity
8
1
62
256
6
ByLayer
370
18
48
1
60
0
100
AcDbSpline
70
4
71
3
72
17
73
13
40
0
40
0
40
0
40
0
40
0.0446484894606009
40
0.134389045706439
40
0.224228003895184
40
0.374681947489399
40
0.525591192097319
40
0.675956656529548
40
0.782209229170739
40
0.888689375805465
40
0.99480249494857
40
1
40
1
40
1
40
1
41
1
10
44.9533630989461
20
-5.30464378979769
30
0
41
1
10
44.9513182343266
20
-5.41555690501813
30
0
41
1
10
44.9555198820976
20
-5.7485230847589
30
0
41
1
10
45.0258953668999
20
-6.30169582668257
30
0
41
1
10
45.1983344154585
20
-7.1013172982594
30
0
41
1
10
45.4841050378978
20
-8.02934629738482
30
0
41
1
10
45.9299941287884
20
-9.05685596496052
30
0
41
1
10
46.4349263897058
20
-9.93157555501434
30
0
41
1
10
46.9644283209365
20
-10.6567503973846
30
0
41
1
10
47.4894288834487
20
-11.2442092872096
30
0
41
1
10
47.8895494814518
20
-11.6039529979242
30
0
41
1
10
48.1047845478779
20
-11.7735924225794
30
0
41
1
10
48.1148584762062
20
-11.7814858161359
30
0
0
SPLINE
5
1B6
100
AcDbEntity
8
1
62
256
6
ByLayer
370
18
48
1
60
0
100
AcDbSpline
70
4
71
3
72
16
73
12
40
0
40
0
40
0
40
0
40
0.0372309142102381
40
0.141613561291996
40
0.283524697374125
40
0.425955242203847
40
0.568047628981638
40
0.684980785530553
40
0.802069041825235
40
0.91879810932047
40
1
40
1
40
1
40
1
41
1
10
48.6414266630054
20
13.6311453774341
30
0
41
1
10
48.573592576508
20
13.577946335703
30
0
41
1
10
48.3193517477714
20
13.3713037641652
30
0
41
1
10
47.8381426208388
20
12.9227226068826
30
0
41
1
10
47.2500486791466
20
12.2368140966648
30
0
41
1
10
46.6923272408203
20
11.4166043452482
30
0
41
1
10
46.2499698613633
20
10.5936258585896
30
0
41
1
10
45.8997576841691
20
9.79114074001888
30
0
41
1
10
45.6367298135336
20
9.01789896370146
30
0
41
1
10
45.4631192054168
20
8.30262819162042
30
0
41
1
10
45.4131634898611
20
7.84458938322174
30
0
41
1
10
45.4010083589215
20
7.65507351026914
30
0
0
SPLINE
5
1B7
100
AcDbEntity
8
1
62
256
6
ByLayer
370
18
48
1
60
0
100
AcDbSpline
70
4
71
2
72
6
73
3
40
0
40
0
40
0
40
1
40
1
40
1
41
1
10
49.0638118994231
20
13.9346435322033
30
0
41
1
10
48.8477436529844
20
13.7900278155529
30
0
41
1
10
48.6414266630052
20
13.6311453774339
30
0
0
SPLINE
5
1B8
100
AcDbEntity
8
1
62
256
6
ByLayer
370
18
48
1
60
0
100
AcDbSpline
70
4
71
3
72
11
73
7
40
0
40
0
40
0
40
0
40
0.258196534579688
40
0.499999999999997
40
0.741803465420306
40
1
40
1
40
1
40
1
41
1
10
45.3614604890197
20
7.39192261438993
30
0
41
1
10
45.4835688695769
20
7.67785465735051
30
0
41
1
10
45.7509142628834
20
8.16490751158813
30
0
41
1
10
46.2440345366431
20
8.72897420330523
30
0
41
1
10
46.8074446374392
20
9.04185399599498
30
0
41
1
10
47.1952136570996
20
9.09856239573515
30
0
41
1
10
47.4011527676415
20
9.08491792818709
30
0
0
SPLINE
5
1B9
100
AcDbEntity
8
1
62
256
6
ByLayer
370
18
48
1
60
0
100
AcDbSpline
70
4
71
3
72
10
73
6
40
0
40
0
40
0
40
0
40
0.358004405600109
40
0.716292933623651
40
1
40
1
40
1
40
1
41
1
10
51.2462027093074
20
14.7886503251795
30
0
41
1
10
50.9653465641689
20
14.7463147499498
30
0
41
1
10
50.4181508684588
20
14.6190731584161
30
0
41
1
10
49.6873525584029
20
14.3127270576619
30
0
41
1
10
49.2511248893894
20
14.0590642108964
30
0
41
1
10
49.0638118994221
20
13.9346435322027
30
0
0
SPLINE
5
1BA
100
AcDbEntity
8
1
62
256
6
ByLayer
370
18
48
1
60
0
100
AcDbSpline
70
4
71
3
72
16
73
12
40
0
40
0
40
0
40
0
40
0.102432645582493
40
0.20598627748708
40
0.311166214104396
40
0.418550002222181
40
0.528649133150714
40
0.639960342020717
40
0.755247980356912
40
0.875012113914818
40
1
40
1
40
1
40
1
41
1
10
51.2462027093087
20
14.78865032518
30
0
41
1
10
51.0313280788459
20
14.7285275447676
30
0
41
1
10
50.6096906092766
20
14.5733313155339
30
0
41
1
10
49.9991869561621
20
14.2320205634105
30
0
41
1
10
49.4226591972969
20
13.7835569286902
30
0
41
1
10
48.8898409133984
20
13.228549715626
30
0
41
1
10
48.4162115751207
20
12.5734694792552
30
0
41
1
10
48.0142047284404
20
11.822995575736
30
0
41
1
10
47.6968195588182
20
10.985272207336
30
0
41
1
10
47.4778383286494
20
10.0615722294114
30
0
41
1
10
47.4128949070338
20
9.41890183901485
30
0
41
1
10
47.4011527676402
20
9.08491792818312
30
0
0
SPLINE
5
1BB
100
AcDbEntity
8
1
62
256
6
ByLayer
370
18
48
1
60
0
100
AcDbSpline
70
4
71
3
72
10
73
6
40
0
40
0
40
0
40
0
40
0.348659368687341
40
0.674323688947159
40
1
40
1
40
1
40
1
41
1
10
50.292113279432
20
-12.8330633219822
30
0
41
1
10
50.3162948515174
20
-12.8382938526589
30
0
41
1
10
50.3630945567755
20
-12.8482558454878
30
0
41
1
10
50.4325887731993
20
-12.8625867699074
30
0
41
1
10
50.4779076092346
20
-12.8716435431723
30
0
41
1
10
50.5005813284569
20
-12.8761025603641
30
0
0
SPLINE
5
1BC
100
AcDbEntity
8
1
62
256
6
ByLayer
370
18
48
1
60
0
100
AcDbSpline
70
4
71
3
72
10
73
6
40
0
40
0
40
0
40
0
40
0.349686470891689
40
0.674837395094241
40
1
40
1
40
1
40
1
41
1
10
50.5005813284566
20
-12.8761025603635
30
0
41
1
10
50.5248551726658
20
-12.8808762521317
30
0
41
1
10
50.5717279761628
20
-12.8899356022214
30
0
41
1
10
50.641268403835
20
-12.9029219699158
30
0
41
1
10
50.6865400157135
20
-12.9110932573622
30
0
41
1
10
50.7091886258622
20
-12.9151104377378
30
0
0
SPLINE
5
1BD
100
AcDbEntity
8
1
62
256
6
ByLayer
370
18
48
1
60
0
100
AcDbSpline
70
4
71
2
72
6
73
3
40
0
40
0
40
0
40
1
40
1
40
1
41
1
10
50.709188625862
20
-12.9151104377373
30
0
41
1
10
51.5220823517692
20
-13.0592238447172
30
0
41
1
10
52.3350936276186
20
-12.913549121671
30
0
0
SPLINE
5
1BE
100
AcDbEntity
8
1
62
256
6
ByLayer
370
18
48
1
60
0
100
AcDbSpline
70
4
71
2
72
6
73
3
40
0
40
0
40
0
40
1
40
1
40
1
41
1
10
53.2897598534828
20
14.7248632679319
30
0
41
1
10
52.4891720246933
20
14.9275084118579
30
0
41
1
10
51.6679232029441
20
14.8410842360007
30
0
0
SPLINE
5
1BF
100
AcDbEntity
8
1
62
256
6
ByLayer
370
18
48
1
60
0
100
AcDbSpline
70
4
71
3
72
10
73
6
40
0
40
0
40
0
40
0
40
0.349686450151637
40
0.674837364016488
40
1
40
1
40
1
40
1
41
1
10
51.6679232029434
20
14.8410842360004
30
0
41
1
10
51.6433276324375
20
14.8384923203266
30
0
41
1
10
51.5958793222058
20
14.8333357914064
30
0
41
1
10
51.5256158623436
20
14.825253107673
30
0
41
1
10
51.4799553305848
20
14.819719258528
30
0
41
1
10
51.4571325803169
20
14.8168829610943
30
0
0
SPLINE
5
1C0
100
AcDbEntity
8
1
62
256
6
ByLayer
370
18
48
1
60
0
100
AcDbSpline
70
4
71
3
72
10
73
6
40
0
40
0
40
0
40
0
40
0.348659344257067
40
0.67432365213196
40
1
40
1
40
1
40
1
41
1
10
51.4571325803167
20
14.8168829610937
30
0
41
1
10
51.4325884826279
20
14.8138327663093
30
0
41
1
10
51.3851391637111
20
14.8077777852019
30
0
41
1
10
51.3148294100903
20
14.7983522309635
30
0
41
1
10
51.2690723202014
20
14.791931236589
30
0
41
1
10
51.2462027093076
20
14.7886503251806
30
0
0
SPLINE
5
1C1
100
AcDbEntity
8
1
62
256
6
ByLayer
370
18
48
1
60
0
100
AcDbSpline
70
4
71
3
72
11
73
7
40
0
40
0
40
0
40
0
40
0.249999999999997
40
0.499999999999997
40
0.749999999999998
40
1
40
1
40
1
40
1
41
1
10
49.5455599077753
20
-3.01388598038882
30
0
41
1
10
49.5340066996109
20
-3.34836134258093
30
0
41
1
10
49.4654429747869
20
-3.99307367961262
30
0
41
1
10
49.2182822881813
20
-4.90959726539451
30
0
41
1
10
48.8506360238566
20
-5.709065204535
30
0
41
1
10
48.5411011435919
20
-6.11966624828743
30
0
41
1
10
48.3689004984679
20
-6.29806741495875
30
0
0
SPLINE
5
1C2
100
AcDbEntity
8
1
62
256
6
ByLayer
370
18
48
1
60
0
100
AcDbSpline
70
4
71
1
72
4
73
2
40
0
40
0
40
1
40
1
41
1
10
48.3689004984689
20
-6.29806741495768
30
0
41
1
10
47.9855782433345
20
-6.62207947911609
30
0
0
SPLINE
5
1C3
100
AcDbEntity
8
1
62
256
6
ByLayer
370
18
48
1
60
0
100
AcDbSpline
70
4
71
2
72
6
73
3
40
0
40
0
40
0
40
1
40
1
40
1
41
1
10
47.9855782433347
20
-6.62207947911593
30
0
41
1
10
47.521137860608
20
-6.93321773469894
30
0
41
1
10
47.027339372169
20
-6.91273860535185
30
0
0
SPLINE
5
1C4
100
AcDbEntity
8
1
62
256
6
ByLayer
370
18
48
1
60
0
100
AcDbSpline
70
4
71
1
72
4
73
2
40
0
40
0
40
1
40
1
41
1
10
47.0273393721695
20
-6.91273860535187
30
0
41
1
10
46.9380841383021
20
-6.90903695473513
30
0
0
SPLINE
5
1C5
100
AcDbEntity
8
1
62
256
6
ByLayer
370
18
48
1
60
0
100
AcDbSpline
70
4
71
1
72
4
73
2
40
0
40
0
40
1
40
1
41
1
10
46.9380841383018
20
-6.90903695473512
30
0
41
1
10
46.848828904435
20
-6.9053353041184
30
0
0
SPLINE
5
1C6
100
AcDbEntity
8
1
62
256
6
ByLayer
370
18
48
1
60
0
100
AcDbSpline
70
4
71
1
72
4
73
2
40
0
40
0
40
1
40
1
41
1
10
47.4011527676403
20
9.08491792818717
30
0
41
1
10
47.490408001508
20
9.08121627757041
30
0
0
SPLINE
5
1C7
100
AcDbEntity
8
1
62
256
6
ByLayer
370
18
48
1
60
0
100
AcDbSpline
70
4
71
1
72
4
73
2
40
0
40
0
40
1
40
1
41
1
10
47.4904080015079
20
9.08121627757041
30
0
41
1
10
47.5796632353756
20
9.07751462695366
30
0
0
SPLINE
5
1C8
100
AcDbEntity
8
1
62
256
6
ByLayer
370
18
48
1
60
0
100
AcDbSpline
70
4
71
2
72
6
73
3
40
0
40
0
40
0
40
1
40
1
40
1
41
1
10
47.5796632353756
20
9.07751462695366
30
0
41
1
10
48.0734673313754
20
9.05703526504636
30
0
41
1
10
48.5151195056835
20
8.70831176023282
30
0
0
SPLINE
5
1C9
100
AcDbEntity
8
1
62
256
6
ByLayer
370
18
48
1
60
0
100
AcDbSpline
70
4
71
1
72
4
73
2
40
0
40
0
40
1
40
1
41
1
10
48.5151195056831
20
8.70831176023317
30
0
41
1
10
48.8750243227597
20
8.35343626455491
30
0
0
SPLINE
5
1CA
100
AcDbEntity
8
1
62
256
6
ByLayer
370
18
48
1
60
0
100
AcDbSpline
70
4
71
3
72
11
73
7
40
0
40
0
40
0
40
0
40
0.258240595936042
40
0.500000000000003
40
0.741759404063963
40
1
40
1
40
1
40
1
41
1
10
48.8750243227596
20
8.35343626455508
30
0
41
1
10
49.0423080274539
20
8.15821263033428
30
0
41
1
10
49.3252459024246
20
7.72577730530301
30
0
41
1
10
49.6469656577925
20
6.9159142304337
30
0
41
1
10
49.815712994412
20
5.978702918151
30
0
41
1
10
49.8367780809573
20
5.32826072425982
30
0
41
1
10
49.8217218393782
20
4.98124063576193
30
0
0
SPLINE
5
1CB
100
AcDbEntity
8
1
62
256
6
ByLayer
370
18
48
1
60
0
100
AcDbSpline
70
4
71
3
72
17
73
13
40
0
40
0
40
0
40
0
40
0.102992230007424
40
0.206635923500911
40
0.311441121829309
40
0.418095913428566
40
0.527437102017469
40
0.615762333387616
40
0.706637562657417
40
0.800696512127445
40
0.898286281849838
40
1
40
1
40
1
40
1
41
1
10
54.1561875049506
20
-9.15829696717341
30
0
41
1
10
53.8941194946494
20
-9.14997395273647
30
0
41
1
10
53.3779346136025
20
-9.08205534770156
30
0
41
1
10
52.6197308594281
20
-8.82178446998605
30
0
41
1
10
51.901124905495
20
-8.40651373718447
30
0
41
1
10
51.2375170022817
20
-7.83748274137655
30
0
41
1
10
50.6921760447651
20
-7.17121326213463
30
0
41
1
10
50.2620509416928
20
-6.44744544086533
30
0
41
1
10
49.9372872887904
20
-5.69532861289042
30
0
41
1
10
49.6961268210059
20
-4.86386777333982
30
0
41
1
10
49.5529065019
20
-3.95909567042737
30
0
41
1
10
49.534604498575
20
-3.33591486228507
30
0
41
1
10
49.5455599077754
20
-3.01388598038406
30
0
0
SPLINE
5
1CC
100
AcDbEntity
8
1
62
256
6
ByLayer
370
18
48
1
60
0
100
AcDbSpline
70
4
71
3
72
14
73
10
40
0
40
0
40
0
40
0
40
0.0769266901289042
40
0.230772241774087
40
0.38461779341927
40
0.538463345064453
40
0.692308896709635
40
0.846154448354818
40
1
40
1
40
1
40
1
41
1
10
52.3350934640212
20
-12.9135491969454
30
0
41
1
10
52.4111778334386
20
-12.8784937457578
30
0
41
1
10
52.6350428629099
20
-12.7558482582174
30
0
41
1
10
52.991522271975
20
-12.4599598314493
30
0
41
1
10
53.3715945982389
20
-11.9748148353868
30
0
41
1
10
53.6906360021952
20
-11.3773172319741
30
0
41
1
10
53.935949309769
20
-10.6914466130593
30
0
41
1
10
54.0985799803575
20
-9.94040218574938
30
0
41
1
10
54.146742627719
20
-9.42324188639326
30
0
41
1
10
54.1561875049507
20
-9.15829696717084
30
0
0
SPLINE
5
1CD
100
AcDbEntity
8
1
62
256
6
ByLayer
370
18
48
1
60
0
100
AcDbSpline
70
4
71
3
72
16
73
12
40
0
40
0
40
0
40
0
40
0.102510678782433
40
0.20604586201101
40
0.311116433239303
40
0.418335687078029
40
0.528298646421839
40
0.639506458452538
40
0.754764161392741
40
0.874671452111367
40
1
40
1
40
1
40
1
41
1
10
50.7091886258625
20
-12.9151104377376
30
0
41
1
10
50.4874716448183
20
-12.8530590647793
30
0
41
1
10
50.0543311720718
20
-12.6913829477108
30
0
41
1
10
49.4323888887254
20
-12.3320500252081
30
0
41
1
10
48.8521049751222
20
-11.8582744544143
30
0
41
1
10
48.3241543325675
20
-11.2712056763843
30
0
41
1
10
47.8650151580604
20
-10.5784804405317
30
0
41
1
10
47.4881076368723
20
-9.78588014179087
30
0
41
1
10
47.207616775899
20
-8.90289650534067
30
0
41
1
10
47.0386949874266
20
-7.93215828311403
30
0
41
1
10
47.0155717134649
20
-7.26086794529802
30
0
41
1
10
47.0273393721696
20
-6.91273860534772
30
0
0
SPLINE
5
1CE
100
AcDbEntity
8
1
62
256
6
ByLayer
370
18
48
1
60
0
100
AcDbSpline
70
4
71
3
72
17
73
13
40
0
40
0
40
0
40
0
40
0.102992230007422
40
0.206635923500909
40
0.311441121829308
40
0.418095913428565
40
0.527437102017468
40
0.615762333387614
40
0.706637562657415
40
0.800696512127443
40
0.898286281849837
40
1
40
1
40
1
40
1
41
1
10
54.8465923339582
20
10.8295195732085
30
0
41
1
10
54.5845057765987
20
10.837305634277
30
0
41
1
10
54.064728652926
20
10.8012257103953
30
0
41
1
10
53.290171855262
20
10.5880618445894
30
0
41
1
10
52.5444324424125
20
10.2177954893797
30
0
41
1
10
51.8429635459521
20
9.69071800612962
30
0
41
1
10
51.2528004031344
20
9.05934647954817
30
0
41
1
10
50.7736408333952
20
8.3635241086364
30
0
41
1
10
50.3976629080563
20
7.63294348332029
30
0
41
1
10
50.0996353790498
20
6.81805374834037
30
0
41
1
10
49.8942811185381
20
5.92399454305159
30
0
41
1
10
49.8330126556496
20
5.30325920944546
30
0
41
1
10
49.8217218393782
20
4.98124063575918
30
0
0
SPLINE
5
1CF
100
AcDbEntity
8
1
62
256
6
ByLayer
370
18
48
1
60
0
100
AcDbSpline
70
4
71
3
72
16
73
12
40
0
40
0
40
0
40
0
40
0.102510678782432
40
0.206045862011008
40
0.311116433239303
40
0.418335687078027
40
0.528298646421837
40
0.639506458452535
40
0.754764161392738
40
0.874671452111364
40
1
40
1
40
1
40
1
41
1
10
51.6679232029449
20
14.8410842360008
30
0
41
1
10
51.4423943377687
20
14.792778268598
30
0
41
1
10
50.9990153530284
20
14.6580406139485
30
0
41
1
10
50.3535948269555
20
14.3376581164718
30
0
41
1
10
49.7418467097148
20
13.9005177963741
30
0
41
1
10
49.1745025844118
20
13.3471111997019
30
0
41
1
10
48.6685327063307
20
12.6840470897047
30
0
41
1
10
48.237727768018
20
11.9162705773038
30
0
41
1
10
47.896897708861
20
11.0523822730952
30
0
41
1
10
47.6613442128402
20
10.0940749697232
30
0
41
1
10
47.5919446993793
20
9.42562817589304
30
0
41
1
10
47.5796632353755
20
9.07751462694951
30
0
0
SPLINE
5
1D0
100
AcDbEntity
8
1
62
256
6
ByLayer
370
18
48
1
60
0
100
AcDbSpline
70
4
71
3
72
14
73
10
40
0
40
0
40
0
40
0
40
0.153845551810934
40
0.307691103621868
40
0.461536655432802
40
0.615382207243736
40
0.76922775905467
40
0.923073310865605
40
1
40
1
40
1
40
1
41
1
10
54.8465923339582
20
10.8295195732085
30
0
41
1
10
54.8554513708574
20
11.0944887887789
30
0
41
1
10
54.843102168414
20
11.6141586745886
30
0
41
1
10
54.7327466318997
20
12.3765245619208
30
0
41
1
10
54.5354490749085
20
13.0807514240358
30
0
41
1
10
54.2585380514524
20
13.7029647508283
30
0
41
1
10
53.9130202077063
20
14.2182018903319
30
0
41
1
10
53.5779721571833
20
14.5427697889743
30
0
41
1
10
53.363208137944
20
14.6836063829234
30
0
41
1
10
53.2897596986208
20
14.7248633548163
30
0
0
SPLINE
5
1D1
100
AcDbEntity
8
1
62
256
6
ByLayer
370
18
48
1
60
0
100
AcDbSpline
70
4
71
3
72
16
73
12
40
0
40
0
40
0
40
0
40
0.102468554494703
40
0.206009614037343
40
0.311132370766806
40
0.418432957595272
40
0.528464785855488
40
0.639724836388443
40
0.75499983283661
40
0.874838449823066
40
1
40
1
40
1
40
1
41
1
10
50.5005813284574
20
-12.8761025603638
30
0
41
1
10
50.2845402957749
20
-12.8083439325505
30
0
41
1
10
49.8628765947233
20
-12.6368671280742
30
0
41
1
10
49.25902653297
20
-12.2678129885782
30
0
41
1
10
48.6966958290998
20
-11.7891591546409
30
0
41
1
10
48.1860492221155
20
-11.2020805294198
30
0
41
1
10
47.742812229806
20
-10.5141097860679
30
0
41
1
10
47.3797367618366
20
-9.7308449284937
30
0
41
1
10
47.1101039798117
20
-8.86150332788195
30
0
41
1
10
46.9483089274981
20
-7.90845232114676
30
0
41
1
10
46.9265335637619
20
-7.25011521510177
30
0
41
1
10
46.938084138302
20
-6.90903695473103
30
0
0
SPLINE
5
1D2
100
AcDbEntity
8
1
62
256
6
ByLayer
370
18
48
1
60
0
100
AcDbSpline
70
4
71
1
72
4
73
2
40
0
40
0
40
1
40
1
41
1
10
51.4571325803176
20
14.8168829610939
30
0
41
1
10
51.2260866996339
20
14.7527804116778
30
0
0
SPLINE
5
1D3
100
AcDbEntity
8
1
62
256
6
ByLayer
370
18
48
1
60
0
100
AcDbSpline
70
4
71
3
72
16
73
12
40
0
40
0
40
0
40
0
40
0.0687624302704049
40
0.176191897102546
40
0.285262460580026
40
0.396592640942058
40
0.510756632471358
40
0.626194971245071
40
0.745799034234243
40
0.870138101128323
40
1
40
1
40
1
40
1
41
1
10
51.2260866996341
20
14.7527804116778
30
0
41
1
10
51.0855438479782
20
14.7092787245324
30
0
41
1
10
50.7310872596373
20
14.578736760298
30
0
41
1
10
50.1762725496367
20
14.2861317038201
30
0
41
1
10
49.5820529126511
20
13.8430024683908
30
0
41
1
10
49.0319892510725
20
13.288528695079
30
0
41
1
10
48.542212108722
20
12.62923114728
30
0
41
1
10
48.1258551715425
20
11.8699213569904
30
0
41
1
10
47.7968012945067
20
11.0189793405951
30
0
41
1
10
47.5695800875269
20
10.0778841780888
30
0
41
1
10
47.5024194991432
20
9.42228037218269
30
0
41
1
10
47.4904080015078
20
9.08121627756647
30
0
0
SPLINE
5
1D4
100
AcDbEntity
8
1
62
256
6
ByLayer
370
18
48
1
60
0
100
AcDbSpline
70
4
71
2
72
6
73
3
40
0
40
0
40
0
40
1
40
1
40
1
41
0.500038079110719
10
61.9035893057332
20
-4.37225314412074
30
0
41
0.499961920889281
10
61.9898636153524
20
-4.37529900902526
30
0
41
0.500038079110719
10
62.0761905129852
20
-4.37529900902526
30
0
0
SPLINE
5
1D5
100
AcDbEntity
8
1
62
256
6
ByLayer
370
18
48
1
60
0
100
AcDbSpline
70
4
71
2
72
6
73
3
40
0
40
0
40
0
40
1
40
1
40
1
41
0.505316320789197
10
61.3516303770697
20
-1.03618263168247
30
0
41
0.494683679210803
10
61.4352927565904
20
-0.9956300375109
30
0
41
0.505316320789197
10
61.4959616840159
20
-0.924661668232583
30
0
0
SPLINE
5
1D6
100
AcDbEntity
8
1
62
256
6
ByLayer
370
18
48
1
60
0
100
AcDbSpline
70
4
71
2
72
6
73
3
40
0
40
0
40
0
40
1
40
1
40
1
41
0.507567226471774
10
61.6039346327137
20
2.20124852129767
30
0
41
0.492432773528227
10
61.5372679226038
20
2.29122587050915
30
0
41
0.507567226471774
10
61.4365777229067
20
2.33893388605754
30
0
0
SPLINE
5
1D7
100
AcDbEntity
8
1
62
256
6
ByLayer
370
18
48
1
60
0
100
AcDbSpline
70
4
71
2
72
6
73
3
40
0
40
0
40
0
40
1
40
1
40
1
41
0.500306550499753
10
62.1196557129962
20
-0.739844704257434
30
0
41
0.499693449500247
10
62.0527743522905
20
-0.755358166355409
30
0
41
0.500306550499753
10
61.9847036121474
20
-0.764110995706151
30
0
0
SPLINE
5
1D8
100
AcDbEntity
8
1
62
256
6
ByLayer
370
18
48
1
60
0
100
AcDbSpline
70
4
71
2
72
6
73
3
40
0
40
0
40
0
40
1
40
1
40
1
41
0.50050046523996
10
62.3108507048246
20
-0.775299009025258
30
0
41
0.49949953476004
10
62.2231406130075
20
-0.775299009025258
30
0
41
0.50050046523996
10
62.1361314509586
20
-0.764110995706083
30
0
0
SPLINE
5
1D9
100
AcDbEntity
8
1
62
256
6
ByLayer
370
18
48
1
60
0
100
AcDbSpline
70
4
71
2
72
6
73
3
40
0
40
0
40
0
40
1
40
1
40
1
41
0.50050046523996
10
62.3108507048246
20
2.02470099097474
30
0
41
0.49949953476004
10
62.3985607966416
20
2.02470099097474
30
0
41
0.50050046523996
10
62.4855699586905
20
2.01351297765557
30
0
0
SPLINE
5
1DA
100
AcDbEntity
8
1
62
256
6
ByLayer
370
18
48
1
60
0
100
AcDbSpline
70
4
71
2
72
6
73
3
40
0
40
0
40
0
40
1
40
1
40
1
41
0.500019591918463
10
62.1440114611271
20
-0.759253374657898
30
0
41
0.499980408081537
10
62.1268727987185
20
-0.761899497461112
30
0
41
0.500019591918463
10
62.1096739803328
20
-0.76411099570615
30
0
0
SPLINE
5
1DB
100
AcDbEntity
8
1
62
256
6
ByLayer
370
18
48
1
60
0
100
AcDbSpline
70
4
71
2
72
6
73
3
40
0
40
0
40
0
40
1
40
1
40
1
41
0.500100459539598
10
62.3893185112446
20
-0.773049619319682
30
0
41
0.499899540460402
10
62.3501161520677
20
-0.775299009025258
30
0
41
0.500100459539598
10
62.3108507048246
20
-0.775299009025258
30
0
0
SPLINE
5
1DC
100
AcDbEntity
8
1
62
256
6
ByLayer
370
18
48
1
60
0
100
AcDbSpline
70
4
71
2
72
6
73
3
40
0
40
0
40
0
40
1
40
1
40
1
41
0.5001004595396
10
62.2323828984039
20
2.02245160126913
30
0
41
0.4998995404604
10
62.2715852575811
20
2.02470099097474
30
0
41
0.5001004595396
10
62.3108507048246
20
2.02470099097474
30
0
0
SPLINE
5
1DD
100
AcDbEntity
8
1
62
256
6
ByLayer
370
18
48
1
60
0
100
AcDbSpline
70
4
71
2
72
6
73
3
40
0
40
0
40
0
40
1
40
1
40
1
41
0.500236593831332
10
62.1096739803327
20
2.01351297765564
30
0
41
0.499763406168668
10
62.169466984001
20
2.00582453536198
30
0
41
0.500236593831332
10
62.2283730807587
20
1.9929127924661
30
0
0
SPLINE
5
1DE
100
AcDbEntity
8
1
62
256
6
ByLayer
370
18
48
1
60
0
100
AcDbSpline
70
4
71
2
72
6
73
3
40
0
40
0
40
0
40
1
40
1
40
1
41
0.50001146507579
10
55.2070607978444
20
3.85896953395812
30
0
41
0.49998853492421
10
55.1787226694648
20
3.85942196375913
30
0
41
0.50001146507579
10
55.1503983419082
20
3.86042454063947
30
0
0
SPLINE
5
1DF
100
AcDbEntity
8
1
62
256
6
ByLayer
370
18
48
1
60
0
100
AcDbSpline
70
4
71
2
72
6
73
3
40
0
40
0
40
0
40
1
40
1
40
1
41
0.500029413795637
10
53.9844799294019
20
-8.02216762921059
30
0
41
0.499970586204363
10
54.0645069187013
20
-8.02456443753406
30
0
41
0.500029413795637
10
54.1423027725867
20
-8.02687174388081
30
0
0
SPLINE
5
1E0
100
AcDbEntity
8
1
62
256
6
ByLayer
370
18
48
1
60
0
100
AcDbSpline
70
4
71
2
72
6
73
3
40
0
40
0
40
0
40
1
40
1
40
1
41
0.500011591698485
10
55.3218044395117
20
9.69610093957062
30
0
41
0.499988408301515
10
55.3549892530941
20
9.69557113045957
30
0
41
0.500011591698485
10
55.3885580659016
20
9.69438600282114
30
0
0
LINE
5
70
100
AcDbEntity
8
4
62
256
6
ByLayer
370
18
48
0.05
60
0
100
AcDbLine
10
0
20
0
30
0
11
95.336674
21
0
31
0
39
0
210
0
220
0
230
1
0
LINE
5
72
100
AcDbEntity
8
1
62
256
6
ByLayer
370
18
48
1
60
0
100
AcDbLine
10
61.495962
20
-0.924662
30
0
11
61.878224
21
-0.924662
31
0
39
0
210
0
220
0
230
1
0
LINE
5
74
100
AcDbEntity
8
1
62
256
6
ByLayer
370
18
48
1
60
0
100
AcDbLine
10
61.603935
20
2.201249
30
0
11
61.986197
21
2.201249
31
0
39
0
210
0
220
0
230
1
0
LINE
5
75
100
AcDbEntity
8
1
62
256
6
ByLayer
370
18
48
1
60
0
100
AcDbLine
10
63.21199
20
1.166133
30
0
11
63.587886
21
1.166133
31
0
39
0
210
0
220
0
230
1
0
LINE
5
76
100
AcDbEntity
8
1
62
256
6
ByLayer
370
18
48
1
60
0
100
AcDbLine
10
63.547418
20
-0.005473
30
0
11
63.171522
21
-0.005473
31
0
39
0
210
0
220
0
230
1
0
LINE
5
77
100
AcDbEntity
8
1
62
256
6
ByLayer
370
18
48
1
60
0
100
AcDbLine
10
63.037271
20
-0.222679
30
0
11
63.413167
21
-0.222679
31
0
39
0
210
0
220
0
230
1
0
LINE
5
78
100
AcDbEntity
8
1
62
256
6
ByLayer
370
18
48
1
60
0
100
AcDbLine
10
62.389319
20
-0.77305
30
0
11
62.232383
21
-0.77305
31
0
39
0
210
0
220
0
230
1
0
LINE
5
79
100
AcDbEntity
8
1
62
256
6
ByLayer
370
18
48
1
60
0
100
AcDbLine
10
61.760235
20
-0.764111
30
0
11
62.136131
21
-0.764111
31
0
39
0
210
0
220
0
230
1
0
LINE
5
7A
100
AcDbEntity
8
1
62
256
6
ByLayer
370
18
48
1
60
0
100
AcDbLine
10
62.232383
20
2.022452
30
0
11
61.856487
21
2.022452
31
0
39
0
210
0
220
0
230
1
0
LINE
5
7B
100
AcDbEntity
8
1
62
256
6
ByLayer
370
18
48
1
60
0
100
AcDbLine
10
63.46895
20
1.392278
30
0
11
63.093054
21
1.392278
31
0
39
0
210
0
220
0
230
1
0
LINE
5
7C
100
AcDbEntity
8
1
62
256
6
ByLayer
370
18
48
1
60
0
100
AcDbLine
10
63.042664
20
-0.534336
30
0
11
63.424927
21
-0.534336
31
0
39
0
210
0
220
0
230
1
0
LINE
5
7D
100
AcDbEntity
8
1
62
256
6
ByLayer
370
18
48
1
60
0
100
AcDbLine
10
63.119938
20
1.702796
30
0
11
63.5022
21
1.702796
31
0
39
0
210
0
220
0
230
1
0
LINE
5
7E
100
AcDbEntity
8
1
62
256
6
ByLayer
370
18
48
1
60
0
100
AcDbLine
10
63.450958
20
0.126249
30
0
11
63.83322
21
0.126249
31
0
39
0
210
0
220
0
230
1
0
LINE
5
7F
100
AcDbEntity
8
1
62
256
6
ByLayer
370
18
48
1
60
0
100
AcDbLine
10
63.481657
20
1.015026
30
0
11
63.86392
21
1.015026
31
0
39
0
210
0
220
0
230
1
0
LINE
5
80
100
AcDbEntity
8
1
62
256
6
ByLayer
370
18
48
1
60
0
100
AcDbLine
10
61.758526
20
-4.375299
30
0
11
62.076191
21
-4.375299
31
0
39
0
210
0
220
0
230
1
0
LINE
5
81
100
AcDbEntity
8
1
62
256
6
ByLayer
370
18
48
1
60
0
100
AcDbLine
10
62.076191
20
5.624701
30
0
11
61.758526
21
5.624701
31
0
39
0
210
0
220
0
230
1
0
LINE
5
82
100
AcDbEntity
8
1
62
256
6
ByLayer
370
18
48
1
60
0
100
AcDbLine
10
89.582039
20
0.912359
30
0
11
79.200406
21
9.719289
31
0
39
0
210
0
220
0
230
1
0
LINE
5
83
100
AcDbEntity
8
1
62
256
6
ByLayer
370
18
48
1
60
0
100
AcDbLine
10
79.200406
20
-9.719289
30
0
11
89.582039
21
-0.912359
31
0
39
0
210
0
220
0
230
1
0
LINE
5
84
100
AcDbEntity
8
1
62
256
6
ByLayer
370
18
48
1
60
0
100
AcDbLine
10
77.685924
20
9.719289
30
0
11
73.732175
21
6.365251
31
0
39
0
210
0
220
0
230
1
0
LINE
5
85
100
AcDbEntity
8
1
62
256
6
ByLayer
370
18
48
1
60
0
100
AcDbLine
10
77.685924
20
9.719289
30
0
11
77.619764
21
9.719289
31
0
39
0
210
0
220
0
230
1
0
LINE
5
86
100
AcDbEntity
8
1
62
256
6
ByLayer
370
18
48
1
60
0
100
AcDbLine
10
77.815001
20
-9.99793
30
0
11
78.443165
21
-9.99793
31
0
39
0
210
0
220
0
230
1
0
LINE
5
87
100
AcDbEntity
8
1
62
256
6
ByLayer
370
18
48
1
60
0
100
AcDbLine
10
78.443165
20
9.99793
30
0
11
77.801786
21
9.99793
31
0
39
0
210
0
220
0
230
1
0
LINE
5
88
100
AcDbEntity
8
1
62
256
6
ByLayer
370
18
48
1
60
0
100
AcDbLine
10
25.412241
20
-20.355018
30
0
11
28.719516
21
-19.765449
31
0
39
0
210
0
220
0
230
1
0
LINE
5
89
100
AcDbEntity
8
1
62
256
6
ByLayer
370
18
48
1
60
0
100
AcDbLine
10
28.030278
20
-15.47948
30
0
11
25.412241
21
-15.946182
31
0
39
0
210
0
220
0
230
1
0
LINE
5
8A
100
AcDbEntity
8
1
62
256
6
ByLayer
370
18
48
1
60
0
100
AcDbLine
10
28.761249
20
-19.733954
30
0
11
28.956159
21
-19.448001
31
0
39
0
210
0
220
0
230
1
0
LINE
5
8B
100
AcDbEntity
8
1
62
256
6
ByLayer
370
18
48
1
60
0
100
AcDbLine
10
28.279086
20
-15.64986
30
0
11
28.209761
21
-15.6004
31
0
39
0
210
0
220
0
230
1
0
LINE
5
8C
100
AcDbEntity
8
1
62
256
6
ByLayer
370
18
48
1
60
0
100
AcDbLine
10
28.719516
20
19.765449
30
0
11
25.412241
21
20.355018
31
0
39
0
210
0
220
0
230
1
0
LINE
5
8D
100
AcDbEntity
8
1
62
256
6
ByLayer
370
18
48
1
60
0
100
AcDbLine
10
25.412241
20
15.946182
30
0
11
28.030278
21
15.47948
31
0
39
0
210
0
220
0
230
1
0
LINE
5
8E
100
AcDbEntity
8
1
62
256
6
ByLayer
370
18
48
1
60
0
100
AcDbLine
10
28.209761
20
15.6004
30
0
11
28.279086
21
15.64986
31
0
39
0
210
0
220
0
230
1
0
LINE
5
8F
100
AcDbEntity
8
1
62
256
6
ByLayer
370
18
48
1
60
0
100
AcDbLine
10
28.956159
20
19.448001
30
0
11
28.761249
21
19.733954
31
0
39
0
210
0
220
0
230
1
0
LINE
5
90
100
AcDbEntity
8
SK1
62
256
6
ByLayer
370
18
48
1
60
0
100
AcDbLine
10
-36.642113
20
-4.030013
30
0
11
-1.517117
21
-4.378688
31
0
39
0
210
0
220
0
230
1
0
LINE
5
92
100
AcDbEntity
8
SK1
62
256
6
ByLayer
370
18
48
1
60
0
100
AcDbLine
10
-36.642113
20
4.030013
30
0
11
-1.517117
21
4.378688
31
0
39
0
210
0
220
0
230
1
0
LINE
5
93
100
AcDbEntity
8
SK1
62
256
6
ByLayer
370
18
48
1
60
0
100
AcDbLine
10
-38
20
3.718991
30
0
11
-36.642113
21
4.030013
31
0
39
0
210
0
220
0
230
1
0
LINE
5
94
100
AcDbEntity
8
SK1
62
256
6
ByLayer
370
18
48
1
60
0
100
AcDbLine
10
-38
20
-3.718991
30
0
11
-36.642113
21
-4.030013
31
0
39
0
210
0
220
0
230
1
0
LINE
5
95
100
AcDbEntity
8
SK1
62
256
6
ByLayer
370
18
48
1
60
0
100
AcDbLine
10
0
20
21.934027
30
0
11
-36.642113
21
21.017182
31
0
39
0
210
0
220
0
230
1
0
LINE
5
96
100
AcDbEntity
8
SK1
62
256
6
ByLayer
370
18
48
1
60
0
100
AcDbLine
10
-36.642113
20
-21.017182
30
0
11
0
21
-21.934027
31
0
39
0
210
0
220
0
230
1
0
LINE
5
97
100
AcDbEntity
8
SK1
62
256
6
ByLayer
370
18
48
1
60
0
100
AcDbLine
10
-36.642113
20
21.017182
30
0
11
-38
21
20.233206
31
0
39
0
210
0
220
0
230
1
0
LINE
5
98
100
AcDbEntity
8
SK1
62
256
6
ByLayer
370
18
48
1
60
0
100
AcDbLine
10
-38
20
-20.233206
30
0
11
-36.642113
21
-21.017182
31
0
39
0
210
0
220
0
230
1
0
LINE
5
99
100
AcDbEntity
8
1
62
256
6
ByLayer
370
18
48
1
60
0
100
AcDbLine
10
53.242798
20
6.29626
30
0
11
52.872051
21
-4.437198
31
0
39
0
210
0
220
0
230
1
0
LINE
5
9A
100
AcDbEntity
8
1
62
256
6
ByLayer
370
18
48
1
60
0
100
AcDbLine
10
53.654555
20
3.913372
30
0
11
53.447434
21
-2.082973
31
0
39
0
210
0
220
0
230
1
0
LINE
5
9B
100
AcDbEntity
8
1
62
256
6
ByLayer
370
18
48
1
60
0
100
AcDbLine
10
53.399821
20
7.818142
30
0
11
63.020379
21
7.478494
31
0
39
0
210
0
220
0
230
1
0
LINE
5
9C
100
AcDbEntity
8
1
62
256
6
ByLayer
370
18
48
1
60
0
100
AcDbLine
10
60.902156
20
5.812817
30
0
11
63.071347
21
5.736235
31
0
39
0
210
0
220
0
230
1
0
LINE
5
9D
100
AcDbEntity
8
1
62
256
6
ByLayer
370
18
48
1
60
0
100
AcDbLine
10
62.715788
20
-4.557491
30
0
11
60.546597
21
-4.480909
31
0
39
0
210
0
220
0
230
1
0
LINE
5
9E
100
AcDbEntity
8
1
62
256
6
ByLayer
370
18
48
1
60
0
100
AcDbLine
10
52.923354
20
-5.975994
30
0
11
62.543911
21
-6.315643
31
0
39
0
210
0
220
0
230
1
0
LINE
5
9F
100
AcDbEntity
8
1
62
256
6
ByLayer
370
18
48
1
60
0
100
AcDbLine
10
55.207061
20
3.85897
30
0
11
55.604296
21
3.852628
31
0
39
0
210
0
220
0
230
1
0
LINE
5
A0
100
AcDbEntity
8
1
62
256
6
ByLayer
370
18
48
1
60
0
100
AcDbLine
10
55.53993
20
3.854206
30
0
11
55.150398
21
3.860425
31
0
39
0
210
0
220
0
230
1
0
LINE
5
A1
100
AcDbEntity
8
1
62
256
6
ByLayer
370
18
48
1
60
0
100
AcDbLine
10
60.902156
20
5.812817
30
0
11
60.662031
21
5.81665
31
0
39
0
210
0
220
0
230
1
0
LINE
5
A2
100
AcDbEntity
8
1
62
256
6
ByLayer
370
18
48
1
60
0
100
AcDbLine
10
55.150398
20
3.860425
30
0
11
53.654555
21
3.913372
31
0
39
0
210
0
220
0
230
1
0
LINE
5
A3
100
AcDbEntity
8
1
62
256
6
ByLayer
370
18
48
1
60
0
100
AcDbLine
10
60.662031
20
5.81665
30
0
11
62.820963
21
5.740232
31
0
39
0
210
0
220
0
230
1
0
LINE
5
A4
100
AcDbEntity
8
1
62
256
6
ByLayer
370
18
48
1
60
0
100
AcDbLine
10
63.071347
20
5.736235
30
0
11
62.820963
21
5.740232
31
0
39
0
210
0
220
0
230
1
0
LINE
5
A5
100
AcDbEntity
8
1
62
256
6
ByLayer
370
18
48
1
60
0
100
AcDbLine
10
54.776169
20
-8.034807
30
0
11
53.98448
21
-8.022168
31
0
39
0
210
0
220
0
230
1
0
LINE
5
A6
100
AcDbEntity
8
1
62
256
6
ByLayer
370
18
48
1
60
0
100
AcDbLine
10
52.872051
20
-4.437198
30
0
11
50.250895
21
-4.39535
31
0
39
0
210
0
220
0
230
1
0
LINE
5
A7
100
AcDbEntity
8
1
62
256
6
ByLayer
370
18
48
1
60
0
100
AcDbLine
10
55.321804
20
9.696101
30
0
11
54.507636
21
9.709099
31
0
39
0
210
0
220
0
230
1
0
LINE
5
A8
100
AcDbEntity
8
1
62
256
6
ByLayer
370
18
48
1
60
0
100
AcDbLine
10
53.242798
20
6.29626
30
0
11
50.621643
21
6.338108
31
0
39
0
210
0
220
0
230
1
0
LINE
5
A9
100
AcDbEntity
8
1
62
256
6
ByLayer
370
18
48
1
60
0
100
AcDbLine
10
50.250895
20
-4.39535
30
0
11
50.621643
21
6.338108
31
0
39
0
210
0
220
0
230
1
0
LINE
5
AA
100
AcDbEntity
8
1
62
256
6
ByLayer
370
18
48
1
60
0
100
AcDbLine
10
61.815486
20
-8.27136
30
0
11
56.72574
21
-8.09167
31
0
39
0
210
0
220
0
230
1
0
LINE
5
AB
100
AcDbEntity
8
1
62
256
6
ByLayer
370
18
48
1
60
0
100
AcDbLine
10
56.700376
20
-8.10274
30
0
11
56.72574
21
-8.09167
31
0
39
0
210
0
220
0
230
1
0
LINE
5
AC
100
AcDbEntity
8
1
62
256
6
ByLayer
370
18
48
1
60
0
100
AcDbLine
10
54.776169
20
-8.034807
30
0
11
56.700376
21
-8.10274
31
0
39
0
210
0
220
0
230
1
0
LINE
5
AD
100
AcDbEntity
8
1
62
256
6
ByLayer
370
18
48
1
60
0
100
AcDbLine
10
62.42706
20
9.434212
30
0
11
57.337313
21
9.613902
31
0
39
0
210
0
220
0
230
1
0
LINE
5
AE
100
AcDbEntity
8
1
62
256
6
ByLayer
370
18
48
1
60
0
100
AcDbLine
10
57.312765
20
9.626453
30
0
11
55.388558
21
9.694386
31
0
39
0
210
0
220
0
230
1
0
LINE
5
AF
100
AcDbEntity
8
1
62
256
6
ByLayer
370
18
48
1
60
0
100
AcDbLine
10
57.312765
20
9.626453
30
0
11
57.337313
21
9.613902
31
0
39
0
210
0
220
0
230
1
0
LINE
5
B0
100
AcDbEntity
8
1
62
256
6
ByLayer
370
18
48
1
60
0
100
AcDbLine
10
79.024393
20
-3.261967
30
0
11
79.616321
21
-2.629176
31
0
39
0
210
0
220
0
230
1
0
LINE
5
B1
100
AcDbEntity
8
1
62
256
6
ByLayer
370
18
48
1
60
0
100
AcDbLine
10
78.264776
20
0.031121
30
0
11
81.457727
21
-0.102605
31
0
39
0
210
0
220
0
230
1
0
LINE
5
B2
100
AcDbEntity
8
1
62
256
6
ByLayer
370
18
48
1
60
0
100
AcDbLine
10
79.794908
20
2.541075
30
0
11
79.248282
21
3.213823
31
0
39
0
210
0
220
0
230
1
0
LINE
5
B3
100
AcDbEntity
8
1
62
256
6
ByLayer
370
18
48
1
60
0
100
AcDbLine
10
56.700376
20
-8.10274
30
0
11
54.142303
21
-8.026872
31
0
39
0
210
0
220
0
230
1
0
LINE
5
B4
100
AcDbEntity
8
1
62
256
6
ByLayer
370
18
48
1
60
0
100
AcDbLine
10
0.3
20
-31.5
30
0
11
21.53368
21
-31.5
31
0
39
0
210
0
220
0
230
1
0
LINE
5
B5
100
AcDbEntity
8
1
62
256
6
ByLayer
370
18
48
1
60
0
100
AcDbLine
10
21.534825
20
31.5
30
0
11
0.3
21
31.5
31
0
39
0
210
0
220
0
230
1
0
LINE
5
B6
100
AcDbEntity
8
1
62
256
6
ByLayer
370
18
48
1
60
0
100
AcDbLine
10
13.75
20
30.068492
30
0
11
10.25
21
30.068492
31
0
39
0
210
0
220
0
230
1
0
LINE
5
B7
100
AcDbEntity
8
1
62
256
6
ByLayer
370
18
48
1
60
0
100
AcDbLine
10
10.25
20
9.388066
30
0
11
13.75
21
9.388066
31
0
39
0
210
0
220
0
230
1
0
LINE
5
B8
100
AcDbEntity
8
1
62
256
6
ByLayer
370
18
48
1
60
0
100
AcDbLine
10
13.75
20
-9.388066
30
0
11
10.25
21
-9.388066
31
0
39
0
210
0
220
0
230
1
0
LINE
5
B9
100
AcDbEntity
8
1
62
256
6
ByLayer
370
18
48
1
60
0
100
AcDbLine
10
10.25
20
-30.068492
30
0
11
13.75
21
-30.068492
31
0
39
0
210
0
220
0
230
1
0
LINE
5
BA
100
AcDbEntity
8
1
62
256
6
ByLayer
370
18
48
1
60
0
100
AcDbLine
10
0.3
20
31.5
30
0
11
0
21
31.2
31
0
39
0
210
0
220
0
230
1
0
LINE
5
BB
100
AcDbEntity
8
1
62
256
6
ByLayer
370
18
48
1
60
0
100
AcDbLine
10
0
20
-31.2
30
0
11
0.3
21
-31.5
31
0
39
0
210
0
220
0
230
1
0
LINE
5
BC
100
AcDbEntity
8
1
62
256
6
ByLayer
370
18
48
1
60
0
100
AcDbLine
10
10.241756
20
20.788677
30
0
11
10.25
21
20.893992
31
0
39
0
210
0
220
0
230
1
0
LINE
5
BD
100
AcDbEntity
8
1
62
256
6
ByLayer
370
18
48
1
60
0
100
AcDbLine
10
10.25
20
20.893992
30
0
11
10.25
21
9.388066
31
0
39
0
210
0
220
0
230
1
0
LINE
5
BE
100
AcDbEntity
8
1
62
256
6
ByLayer
370
18
48
1
60
0
100
AcDbLine
10
10.25
20
30.068492
30
0
11
10.25
21
22.141548
31
0
39
0
210
0
220
0
230
1
0
LINE
5
BF
100
AcDbEntity
8
1
62
256
6
ByLayer
370
18
48
1
60
0
100
AcDbLine
10
13.448939
20
20.893992
30
0
11
13.75
21
20.893992
31
0
39
0
210
0
220
0
230
1
0
LINE
5
C0
100
AcDbEntity
8
1
62
256
6
ByLayer
370
18
48
1
60
0
100
AcDbLine
10
13.75
20
20.893992
30
0
11
13.75
21
9.388066
31
0
39
0
210
0
220
0
230
1
0
LINE
5
C1
100
AcDbEntity
8
1
62
256
6
ByLayer
370
18
48
1
60
0
100
AcDbLine
10
10.25
20
20.893992
30
0
11
10.551061
21
20.893992
31
0
39
0
210
0
220
0
230
1
0
LINE
5
C2
100
AcDbEntity
8
1
62
256
6
ByLayer
370
18
48
1
60
0
100
AcDbLine
10
13.758244
20
-20.788677
30
0
11
13.75
21
-20.893992
31
0
39
0
210
0
220
0
230
1
0
LINE
5
C3
100
AcDbEntity
8
1
62
256
6
ByLayer
370
18
48
1
60
0
100
AcDbLine
10
13.75
20
-9.388066
30
0
11
13.75
21
-20.893992
31
0
39
0
210
0
220
0
230
1
0
LINE
5
C4
100
AcDbEntity
8
1
62
256
6
ByLayer
370
18
48
1
60
0
100
AcDbLine
10
13.75
20
-22.141548
30
0
11
13.75
21
-30.068492
31
0
39
0
210
0
220
0
230
1
0
LINE
5
C5
100
AcDbEntity
8
1
62
256
6
ByLayer
370
18
48
1
60
0
100
AcDbLine
10
10.25
20
-22.141548
30
0
11
10.25
21
-30.068492
31
0
39
0
210
0
220
0
230
1
0
LINE
5
C6
100
AcDbEntity
8
1
62
256
6
ByLayer
370
18
48
1
60
0
100
AcDbLine
10
10.25
20
-9.388066
30
0
11
10.25
21
-20.893992
31
0
39
0
210
0
220
0
230
1
0
LINE
5
C7
100
AcDbEntity
8
1
62
256
6
ByLayer
370
18
48
1
60
0
100
AcDbLine
10
10.25
20
-20.893992
30
0
11
10.241756
21
-20.788677
31
0
39
0
210
0
220
0
230
1
0
LINE
5
C8
100
AcDbEntity
8
1
62
256
6
ByLayer
370
18
48
1
60
0
100
AcDbLine
10
13.75
20
30.068492
30
0
11
13.75
21
22.141548
31
0
39
0
210
0
220
0
230
1
0
LINE
5
C9
100
AcDbEntity
8
1
62
256
6
ByLayer
370
18
48
1
60
0
100
AcDbLine
10
13.75
20
20.893992
30
0
11
13.758244
21
20.788677
31
0
39
0
210
0
220
0
230
1
0
LINE
5
CA
100
AcDbEntity
8
1
62
256
6
ByLayer
370
18
48
1
60
0
100
AcDbLine
10
10.551061
20
-20.893992
30
0
11
10.25
21
-20.893992
31
0
39
0
210
0
220
0
230
1
0
LINE
5
CB
100
AcDbEntity
8
1
62
256
6
ByLayer
370
18
48
1
60
0
100
AcDbLine
10
13.75
20
-20.893992
30
0
11
13.448939
21
-20.893992
31
0
39
0
210
0
220
0
230
1
0
LINE
5
CC
100
AcDbEntity
8
1
62
256
6
ByLayer
370
18
48
1
60
0
100
AcDbLine
10
29.677121
20
-24.958571
30
0
11
29.677121
21
24.958571
31
0
39
0
210
0
220
0
230
1
0
LINE
5
CD
100
AcDbEntity
8
1
62
256
6
ByLayer
370
18
48
1
60
0
100
AcDbLine
10
27.323482
20
23.071301
30
0
11
26.778412
21
20.111478
31
0
39
0
210
0
220
0
230
1
0
LINE
5
CE
100
AcDbEntity
8
1
62
256
6
ByLayer
370
18
48
1
60
0
100
AcDbLine
10
27.323482
20
-23.071301
30
0
11
26.778412
21
-20.111478
31
0
39
0
210
0
220
0
230
1
0
LINE
5
CF
100
AcDbEntity
8
1
62
256
6
ByLayer
370
18
48
1
60
0
100
AcDbLine
10
25.992302
20
15.842778
30
0
11
25.664293
21
14.061633
31
0
39
0
210
0
220
0
230
1
0
LINE
5
D0
100
AcDbEntity
8
1
62
256
6
ByLayer
370
18
48
1
60
0
100
AcDbLine
10
25.992302
20
-15.842778
30
0
11
25.664293
21
-14.061633
31
0
39
0
210
0
220
0
230
1
0
LINE
5
D1
100
AcDbEntity
8
1
62
256
6
ByLayer
370
18
48
1
60
0
100
AcDbLine
10
71.6464
20
15.232415
30
0
11
57
21
16
31
0
39
0
210
0
220
0
230
1
0
LINE
5
D2
100
AcDbEntity
8
1
62
256
6
ByLayer
370
18
48
1
60
0
100
AcDbLine
10
71.6464
20
15.232415
30
0
11
77.794258
21
10.017074
31
0
39
0
210
0
220
0
230
1
0
LINE
5
D3
100
AcDbEntity
8
1
62
256
6
ByLayer
370
18
48
1
60
0
100
AcDbLine
10
77.794258
20
10.017074
30
0
11
73.56859
21
6.432362
31
0
39
0
210
0
220
0
230
1
0
LINE
5
D4
100
AcDbEntity
8
1
62
256
6
ByLayer
370
18
48
1
60
0
100
AcDbLine
10
77.814086
20
-10.000253
30
0
11
73.136044
21
-6.066823
31
0
39
0
210
0
220
0
230
1
0
LINE
5
D5
100
AcDbEntity
8
1
62
256
6
ByLayer
370
18
48
1
60
0
100
AcDbLine
10
77.814086
20
-10.000253
30
0
11
71.6464
21
-15.232415
31
0
39
0
210
0
220
0
230
1
0
LINE
5
D6
100
AcDbEntity
8
1
62
256
6
ByLayer
370
18
48
1
60
0
100
AcDbLine
10
57
20
-16
30
0
11
71.6464
21
-15.232415
31
0
39
0
210
0
220
0
230
1
0
LINE
5
D7
100
AcDbEntity
8
1
62
256
6
ByLayer
370
18
48
1
60
0
100
AcDbLine
10
45.401008
20
7.655074
30
0
11
44.953363
21
-5.304644
31
0
39
0
210
0
220
0
230
1
0
LINE
5
D8
100
AcDbEntity
8
1
62
256
6
ByLayer
370
18
48
1
60
0
100
AcDbLine
10
56.474437
20
-8.096039
30
0
11
56.435326
21
-9.228343
31
0
39
0
210
0
220
0
230
1
0
LINE
5
D9
100
AcDbEntity
8
1
62
256
6
ByLayer
370
18
48
1
60
0
100
AcDbLine
10
57.125731
20
10.759474
30
0
11
57.08687
21
9.634428
31
0
39
0
210
0
220
0
230
1
0
LINE
5
DA
100
AcDbEntity
8
1
62
256
6
ByLayer
370
18
48
1
60
0
100
AcDbLine
10
49.54556
20
-3.013886
30
0
11
49.821722
21
4.981241
31
0
39
0
210
0
220
0
230
1
0
LINE
5
DB
100
AcDbEntity
8
1
62
256
6
ByLayer
370
18
48
1
60
0
100
AcDbLine
10
56.435326
20
-9.228343
30
0
11
54.156188
21
-9.158297
31
0
39
0
210
0
220
0
230
1
0
LINE
5
DC
100
AcDbEntity
8
1
62
256
6
ByLayer
370
18
48
1
60
0
100
AcDbLine
10
57.125731
20
10.759474
30
0
11
54.846592
21
10.82952
31
0
39
0
210
0
220
0
230
1
0
LINE
5
DD
100
AcDbEntity
8
1
62
256
6
ByLayer
370
18
48
1
60
0
100
AcDbLine
10
77.838418
20
9.904778
30
0
11
74.759203
21
7.292623
31
0
39
0
210
0
220
0
230
1
0
LINE
5
DE
100
AcDbEntity
8
1
62
256
6
ByLayer
370
18
48
1
60
0
100
AcDbLine
10
73.58693
20
6.424708
30
0
11
73.980401
21
6.758497
31
0
39
0
210
0
220
0
230
1
0
LINE
5
DF
100
AcDbEntity
8
1
62
256
6
ByLayer
370
18
48
1
60
0
100
AcDbLine
10
77.838418
20
9.904778
30
0
11
77.794258
21
10.017074
31
0
39
0
210
0
220
0
230
1
0
LINE
5
E0
100
AcDbEntity
8
1
62
256
6
ByLayer
370
18
48
1
60
0
100
AcDbLine
10
77.858349
20
-9.88787
30
0
11
77.814086
21
-10.000253
31
0
39
0
210
0
220
0
230
1
0
LINE
5
E1
100
AcDbEntity
8
SK1
62
256
6
ByLayer
370
18
48
1
60
0
100
AcDbLine
10
-36.642113
20
4.030013
30
0
11
-36.642113
21
-4.030013
31
0
39
0
210
0
220
0
230
1
0
LINE
5
E2
100
AcDbEntity
8
SK1
62
256
6
ByLayer
370
18
48
1
60
0
100
AcDbLine
10
-1.307107
20
-5.313223
30
0
11
-1.307107
21
5.313223
31
0
39
0
210
0
220
0
230
1
0
LINE
5
E3
100
AcDbEntity
8
SK1
62
256
6
ByLayer
370
18
48
1
60
0
100
AcDbLine
10
-38
20
-3.718991
30
0
11
-38
21
3.718991
31
0
39
0
210
0
220
0
230
1
0
LINE
5
E4
100
AcDbEntity
8
SK1
62
256
6
ByLayer
370
18
48
1
60
0
100
AcDbLine
10
-36.642113
20
21.017182
30
0
11
-36.642113
21
4.030013
31
0
39
0
210
0
220
0
230
1
0
LINE
5
E5
100
AcDbEntity
8
SK1
62
256
6
ByLayer
370
18
48
1
60
0
100
AcDbLine
10
-36.642113
20
-4.030013
30
0
11
-36.642113
21
-21.017182
31
0
39
0
210
0
220
0
230
1
0
LINE
5
E6
100
AcDbEntity
8
SK1
62
256
6
ByLayer
370
18
48
1
60
0
100
AcDbLine
10
-38
20
3.718991
30
0
11
-38
21
20.233206
31
0
39
0
210
0
220
0
230
1
0
LINE
5
E7
100
AcDbEntity
8
SK1
62
256
6
ByLayer
370
18
48
1
60
0
100
AcDbLine
10
-38
20
-20.233206
30
0
11
-38
21
-3.718991
31
0
39
0
210
0
220
0
230
1
0
LINE
5
E8
100
AcDbEntity
8
1
62
256
6
ByLayer
370
18
48
1
60
0
100
AcDbLine
10
25.412241
20
-28.06347
30
0
11
25.412241
21
28.06347
31
0
39
0
210
0
220
0
230
1
0
LINE
5
E9
100
AcDbEntity
8
1
62
256
6
ByLayer
370
18
48
1
60
0
100
AcDbLine
10
22
20
31.04705
30
0
11
22
21
-31.04705
31
0
39
0
210
0
220
0
230
1
0
LINE
5
EA
100
AcDbEntity
8
1
62
256
6
ByLayer
370
18
48
1
60
0
100
AcDbLine
10
0.3
20
-31.5
30
0
11
0.3
21
31.5
31
0
39
0
210
0
220
0
230
1
0
LINE
5
EB
100
AcDbEntity
8
1
62
256
6
ByLayer
370
18
48
1
60
0
100
AcDbLine
10
0
20
-31.2
30
0
11
0
21
31.2
31
0
39
0
210
0
220
0
230
1
0
LINE
5
EC
100
AcDbEntity
8
1
62
256
6
ByLayer
370
18
48
1
60
0
100
AcDbLine
10
25.412241
20
-14.10805
30
0
11
27.880002
21
-13.653596
31
0
39
0
210
0
220
0
230
1
0
LINE
5
ED
100
AcDbEntity
8
1
62
256
6
ByLayer
370
18
48
1
60
0
100
AcDbLine
10
27.880002
20
13.653596
30
0
11
25.412241
21
14.10805
31
0
39
0
210
0
220
0
230
1
0
LINE
5
EE
100
AcDbEntity
8
SK4
62
256
6
ByLayer
370
18
48
0.05
60
0
100
AcDbLine
10
-38
20
0
30
0
11
95.336674
21
0
31
0
39
0
210
0
220
0
230
1
0
LINE
5
F0
100
AcDbEntity
8
80
62
256
6
ByLayer
370
18
48
1
60
0
100
AcDbLine
10
0
20
0
30
0
11
-18
21
0
31
0
39
0
210
0
220
0
230
1
0
LINE
5
F1
100
AcDbEntity
8
81
62
256
6
ByLayer
370
18
48
1
60
0
100
AcDbLine
10
108.002856
20
0.555372
30
0
11
90.002856
21
0.555372
31
0
39
0
210
0
220
0
230
1
0
MTEXT
5
1E1
100
AcDbEntity
8
SK6
62
256
6
ByLayer
370
18
48
1
60
0
100
AcDbMText
10
17.317885
20
-65.664776
30
0
210
0
220
0
230
1
1
\W0.7154;C6-DCMNN-00090-16
40
3
41
0
44
1.084337
50
0
71
7
72
5
7
iso_b_vert
0
DIMENSION
5
1F3
100
AcDbEntity
8
SK2
62
256
6
ByLayer
370
13
48
1
60
0
100
AcDbDimension
2
DimnDraft3D1
10
31.5
20
56.540931
30
0
11
-5.202632
21
56.540931
31
0
70
32
71
5
72
1
41
1
210
0
220
0
230
1
3
Standard
100
AcDbAlignedDimension
13
-31.5
23
1.7
33
0
14
31.5
24
1.7
34
0
50
0
100
AcDbRotatedDimension
1001
ACAD
1000
DSTYLE
1002
{
1070
   279
1070
     0
1070
   172
1070
     1
1070
   173
1070
     1
1070
   340
1005
1E2
1070
    77
1070
     1
1070
    73
1070
     0
1070
   171
1070
     3
1070
   274
1070
     4
1070
   177
1070
     7
1070
   176
1070
     7
1070
   178
1070
     7
1070
    78
1070
     8
1070
    41
1041
3.175
1070
   147
1041
1.5
1070
    42
1041
2.0
1070
    44
1041
2.0
1070
   140
1041
3.0
1070
   343
1005
1F4
1070
   344
1005
1F4
1002
}
0
DIMENSION
5
209
100
AcDbEntity
8
2
62
256
6
ByLayer
370
13
48
1
60
0
100
AcDbDimension
2
DimnDraft3D2
10
0
20
-105.419046
30
0
11
10.810372
21
-105.419046
31
0
70
32
71
5
72
1
41
1
210
0
220
0
230
1
3
Standard
100
AcDbAlignedDimension
13
0.555372
23
-92.002856
33
0
14
0
24
-97.336674
34
0
50
0
100
AcDbRotatedDimension
1001
ACAD
1000
DSTYLE
1002
{
1070
   279
1070
     0
1070
   172
1070
     1
1070
   173
1070
     1
1070
   340
1005
1E2
1070
    77
1070
     1
1070
    73
1070
     0
1070
   171
1070
     3
1070
   274
1070
     4
1070
   177
1070
     7
1070
   176
1070
     7
1070
   178
1070
     7
1070
    78
1070
     8
1070
    41
1041
3.175
1070
   147
1041
1.5
1070
    42
1041
2.0
1070
    44
1041
2.0
1070
   140
1041
3.0
1070
   343
1005
1F4
1070
   344
1005
1F4
1002
}
0
DIMENSION
5
217
100
AcDbEntity
8
2
62
256
6
ByLayer
370
13
48
1
60
0
100
AcDbDimension
2
DimnDraft3D3
10
47.931008
20
90.002856
30
0
11
47.931008
21
43.248796
31
0
70
32
71
5
72
1
41
1
210
0
220
0
230
1
3
Standard
100
AcDbAlignedDimension
13
33.2
23
0
33
0
14
1.444628
24
90.002856
34
0
50
90
100
AcDbRotatedDimension
1001
ACAD
1000
DSTYLE
1002
{
1070
    74
1070
     0
1070
   279
1070
     0
1070
   172
1070
     1
1070
   173
1070
     1
1070
   340
1005
1E2
1070
    77
1070
     1
1070
    73
1070
     0
1070
   171
1070
     3
1070
   274
1070
     4
1070
   177
1070
     7
1070
   176
1070
     7
1070
   178
1070
     7
1070
    78
1070
     8
1070
    41
1041
3.175
1070
   147
1041
1.5
1070
    42
1041
2.0
1070
    44
1041
2.0
1070
   140
1041
3.0
1070
   343
1005
1F4
1070
   344
1005
1F4
1002
}
0
DIMENSION
5
225
100
AcDbEntity
8
2
62
256
6
ByLayer
370
13
48
1
60
0
100
AcDbDimension
2
DimnDraft3D4
10
79.200406
20
9.719289
30
0
11
76.693998
21
29.298117
31
0
70
34
71
5
72
1
41
1
210
0
220
0
230
1
3
Standard
100
AcDb2LineAngularDimension
13
90.002856
23
0.555372
33
0
14
90.002856
24
-0.444628
34
0
15
89.582039
25
0.912359
35
0
16
77.954527
26
26.57579
36
0
40
0
0
ENDSEC
0
SECTION
2
OBJECTS
0
DICTIONARY
5
290
330
0
100
AcDbDictionary
280
0
281
1
3
ACAD_GROUP
350
291
3
ACAD_MLINESTYLE
350
292
0
DICTIONARY
5
291
330
0
100
AcDbDictionary
280
0
281
1
0
DICTIONARY
5
292
330
0
100
AcDbDictionary
280
0
281
1
3
Standard
350
18
0
MLINESTYLE
5
18
330
292
100
AcDbMlineStyle
2
Standard
70
0
3

62
256
51
90
52
90
71
2
49
-0.5
62
256
6
ByLayer
49
0.5
62
256
6
ByLayer
0
RASTERVARIABLES
5
27e
330

100
AcDbRasterVariables
90
0
70
1
71
1
72
1
0
ENDSEC
0
EOF
