0
SECTION
2
HEADER
9
$ACADVER
1
AC1015
9
$DWGCODEPAGE
3
ANSI_1252
9
$HANDSEED
5
298
9
$ANGBASE
50
0
9
$ANGDIR
70
0
9
$ATTMODE
70
1
9
$AUNITS
70
0
9
$AUPREC
70
0
9
$CECOLOR
62
256
9
$CELTSCALE
40
1
9
$CELTYPE
6
ByLayer
9
$CELWEIGHT
370
18
9
$CLAYER
8
0
9
$CMLJUST
70
0
9
$CMLSCALE
40
1
9
$CMLSTYLE
2
Standard
9
$DIMSTYLE
2
Standard
9
$TEXTSIZE
40
0.2
9
$TEXTSTYLE
7
Standard
9
$LUNITS
70
2
9
$LUPREC
70
4
9
$EXTNAMES
290
1
9
$INSUNITS
70
4
9
$LTSCALE
40
1
9
$LWDISPLAY
290
1
9
$PDMODE
70
0
9
$PDSIZE
40
0
9
$PLINEGEN
70
0
0
ENDSEC
0
SECTION
2
CLASSES
0
CLASS
1
RASTERVARIABLES
2
AcDbRasterVariables
3
ISM
90
0
280
0
281
0
0
ENDSEC
0
SECTION
2
TABLES
0
TABLE
2
VPORT
5
28e
100
AcDbSymbolTable
0
VPORT
5
1
100
AcDbSymbolTableRecord
100
AcDbViewportTableRecord
2
*Active
70
0
10
0
20
0
11
1
21
1
12
-1
22
1
13
0
23
0
14
0.5
24
0.5
15
10
25
10
16
0
26
0
36
1
17
0
27
0
37
0
0
ENDTAB
0
TABLE
2
LTYPE
5
28f
100
AcDbSymbolTable
0
LTYPE
5
14
100
AcDbSymbolTableRecord
100
AcDbLinetypeTableRecord
70
0
2
ByBlock
3

72
65
73
0
40
0
0
LTYPE
5
15
100
AcDbSymbolTableRecord
100
AcDbLinetypeTableRecord
70
0
2
ByLayer
3

72
65
73
0
40
0
0
LTYPE
5
16
100
AcDbSymbolTableRecord
100
AcDbLinetypeTableRecord
70
0
2
CONTINUOUS
3
Solid line
72
65
73
0
40
0
0
LTYPE
5
6A
100
AcDbSymbolTableRecord
100
AcDbLinetypeTableRecord
70
0
2
CENTER
3
____ _ ____ _ ____ _ ____
72
65
73
4
40
47.5
49
22
74
0
49
-8.5
74
0
49
8.5
74
0
49
-8.5
74
0
0
LTYPE
5
6B
100
AcDbSymbolTableRecord
100
AcDbLinetypeTableRecord
70
0
2
DASHED
3
__ __ __ __ __ __ __ __ __
72
65
73
2
40
25.72
49
12.86
74
0
49
-12.86
74
0
0
ENDTAB
0
TABLE
2
LAYER
5
290
100
AcDbSymbolTable
0
LAYER
5
10
100
AcDbSymbolTableRecord
100
AcDbLayerTableRecord
2
0
70
0
62
7
6
CONTINUOUS
290
1
370
-3
390
0
0
LAYER
5
6D
100
AcDbSymbolTableRecord
100
AcDbLayerTableRecord
2
2
70
0
62
7
6
CONTINUOUS
290
1
370
-3
390
0
0
LAYER
5
6F
100
AcDbSymbolTableRecord
100
AcDbLayerTableRecord
2
80
70
0
62
-6
6
CONTINUOUS
290
1
370
-3
390
0
0
LAYER
5
71
100
AcDbSymbolTableRecord
100
AcDbLayerTableRecord
2
81
70
0
62
-3
6
CONTINUOUS
290
1
370
-3
390
0
0
LAYER
5
73
100
AcDbSymbolTableRecord
100
AcDbLayerTableRecord
2
1
70
0
62
4
6
CONTINUOUS
290
1
370
-3
390
0
0
LAYER
5
88
100
AcDbSymbolTableRecord
100
AcDbLayerTableRecord
2
4
70
0
62
-2
6
CENTER
290
1
370
-3
390
0
0
LAYER
5
27a
100
AcDbSymbolTableRecord
100
AcDbLayerTableRecord
2
SK4
70
0
62
2
6
CENTER
290
1
370
-3
390
0
0
LAYER
5
27b
100
AcDbSymbolTableRecord
100
AcDbLayerTableRecord
2
SK1
70
0
62
4
6
CONTINUOUS
290
1
370
-3
390
0
0
LAYER
5
27c
100
AcDbSymbolTableRecord
100
AcDbLayerTableRecord
2
SK6
70
0
62
5
6
CONTINUOUS
290
1
370
-3
390
0
0
LAYER
5
27d
100
AcDbSymbolTableRecord
100
AcDbLayerTableRecord
2
SK2
70
0
62
7
6
CONTINUOUS
290
1
370
-3
390
0
0
ENDTAB
0
TABLE
2
STYLE
5
291
100
AcDbSymbolTable
0
STYLE
5
11
100
AcDbSymbolTableRecord
100
AcDbTextStyleTableRecord
2
Standard
3
txt
70
0
71
0
40
0
41
1
42
0
50
0
0
STYLE
5
1DE
100
AcDbSymbolTableRecord
100
AcDbTextStyleTableRecord
2
iso_b_vert
3
simplex.shx
70
0
71
0
40
0
41
1
42
0
50
0
0
STYLE
5
1DF
100
AcDbSymbolTableRecord
100
AcDbTextStyleTableRecord
2
DWGDirectTextStyle
3
simplex
70
0
71
0
40
0
41
1
42
0
50
0
0
ENDTAB
0
TABLE
2
DIMSTYLE
5
292
100
AcDbSymbolTable
100
AcDbDimStyleTable
0
DIMSTYLE
105
27
100
AcDbSymbolTableRecord
100
AcDbDimStyleTableRecord
2
Standard
70
0
3
<>
41
0.18
42
0.0625
44
0.18
140
0.18
147
0.09
73
0
74
0
77
1
271
2
275
0
278
52
280
0
340
11
0
ENDTAB
0
TABLE
2
VIEW
5
293
100
AcDbSymbolTable
0
ENDTAB
0
TABLE
2
UCS
5
294
100
AcDbSymbolTable
0
ENDTAB
0
TABLE
2
APPID
5
295
100
AcDbSymbolTable
0
APPID
5
12
100
AcDbSymbolTableRecord
100
AcDbRegAppTableRecord
2
ACAD
70
0
0
ENDTAB
0
TABLE
2
BLOCK_RECORD
5
296
100
AcDbSymbolTable
0
BLOCK_RECORD
5
1F
100
AcDbSymbolTableRecord
100
AcDbBlockTableRecord
2
*Model_Space
340
0
70
0
0
BLOCK_RECORD
5
1B
100
AcDbSymbolTableRecord
100
AcDbBlockTableRecord
2
*Paper_Space
340
0
70
0
0
BLOCK_RECORD
5
23
100
AcDbSymbolTableRecord
100
AcDbBlockTableRecord
2
*Paper_Space0
340
0
70
0
0
BLOCK_RECORD
5
1E1
100
AcDbSymbolTableRecord
100
AcDbBlockTableRecord
2
DimnDraft3D11
340
0
70
0
0
BLOCK_RECORD
5
1EF
100
AcDbSymbolTableRecord
100
AcDbBlockTableRecord
2
DimnDraft3D2
340
0
70
0
0
BLOCK_RECORD
5
1FD
100
AcDbSymbolTableRecord
100
AcDbBlockTableRecord
2
_CLOSED
340
0
70
0
0
BLOCK_RECORD
5
204
100
AcDbSymbolTableRecord
100
AcDbBlockTableRecord
2
DimnDraft3D3
340
0
70
0
0
BLOCK_RECORD
5
213
100
AcDbSymbolTableRecord
100
AcDbBlockTableRecord
2
DimnDraft3D4
340
0
70
0
0
ENDTAB
0
ENDSEC
0
SECTION
2
BLOCKS
0
BLOCK
5
20
100
AcDbEntity
8
0
100
AcDbBlockBegin
2
*Model_Space
70
0
10
0
20
0
30
0
3
*Model_Space
0
ENDBLK
5
21
100
AcDbEntity
8
0
100
AcDbBlockEnd
0
BLOCK
5
1C
100
AcDbEntity
8
0
100
AcDbBlockBegin
2
*Paper_Space
70
0
10
0
20
0
30
0
3
*Paper_Space
0
ENDBLK
5
1D
100
AcDbEntity
8
0
100
AcDbBlockEnd
0
BLOCK
5
24
100
AcDbEntity
8
0
100
AcDbBlockBegin
2
*Paper_Space0
70
0
10
0
20
0
30
0
3
*Paper_Space0
0
ENDBLK
5
25
100
AcDbEntity
8
0
100
AcDbBlockEnd
0
BLOCK
5
1E2
100
AcDbEntity
8
0
100
AcDbBlockBegin
2
DimnDraft3D11
70
0
10
0
20
0
30
0
3
DimnDraft3D11
0
LINE
5
1E4
100
AcDbEntity
8
2
62
256
6
ByLayer
370
25
48
1
60
0
100
AcDbLine
10
65
20
47
30
0
11
65
21
75.75
31
0
39
0
210
0
220
0
230
1
0
LINE
5
1E5
100
AcDbEntity
8
2
62
256
6
ByLayer
370
25
48
1
60
0
100
AcDbLine
10
0
20
33.5
30
0
11
0
21
75.75
31
0
39
0
210
0
220
0
230
1
0
LINE
5
1E6
100
AcDbEntity
8
2
62
256
6
ByLayer
370
25
48
1
60
0
100
AcDbLine
10
65
20
73.75
30
0
11
0
21
73.75
31
0
39
0
210
0
220
0
230
1
0
LINE
5
1E7
100
AcDbEntity
8
2
62
256
6
ByLayer
370
25
48
1
60
0
100
AcDbLine
10
65
20
73.75
30
0
11
61.825002
21
73.332003
31
0
39
0
210
0
220
0
230
1
0
LINE
5
1E8
100
AcDbEntity
8
2
62
256
6
ByLayer
370
25
48
1
60
0
100
AcDbLine
10
65
20
73.75
30
0
11
61.824998
21
74.167997
31
0
39
0
210
0
220
0
230
1
0
LINE
5
1E9
100
AcDbEntity
8
2
62
256
6
ByLayer
370
25
48
1
60
0
100
AcDbLine
10
61.825002
20
73.332003
30
0
11
61.824998
21
74.167997
31
0
39
0
210
0
220
0
230
1
0
LINE
5
1EA
100
AcDbEntity
8
2
62
256
6
ByLayer
370
25
48
1
60
0
100
AcDbLine
10
0
20
73.75
30
0
11
3.174998
21
74.167997
31
0
39
0
210
0
220
0
230
1
0
LINE
5
1EB
100
AcDbEntity
8
2
62
256
6
ByLayer
370
25
48
1
60
0
100
AcDbLine
10
0
20
73.75
30
0
11
3.175002
21
73.332003
31
0
39
0
210
0
220
0
230
1
0
LINE
5
1EC
100
AcDbEntity
8
2
62
256
6
ByLayer
370
25
48
1
60
0
100
AcDbLine
10
3.174998
20
74.167997
30
0
11
3.175002
21
73.332003
31
0
39
0
210
0
220
0
230
1
0
MTEXT
5
1ED
100
AcDbEntity
8
2
62
256
6
ByLayer
370
18
48
1
60
0
100
AcDbMText
10
28.343421
20
74.875
30
0
210
0
220
0
230
1
1
\W0.7346;65.0
40
4.5
41
0
44
1.084337
50
0
71
7
72
5
7
iso_b_vert
0
ENDBLK
5
1E3
100
AcDbEntity
8
0
100
AcDbBlockEnd
0
BLOCK
5
1FA
100
AcDbEntity
8
0
100
AcDbBlockBegin
2
DimnDraft3D2
70
0
10
0
20
0
30
0
3
DimnDraft3D2
0
MTEXT
5
1F0
100
AcDbEntity
8
2
62
256
6
ByLayer
370
18
48
1
60
0
100
AcDbMText
10
53.075961
20
52.118216
30
0
210
0
220
0
230
1
1
\W0.7399;95%%d
40
4.5
41
0
44
1.084337
50
47.3457231600001
71
7
72
5
7
iso_b_vert
0
LINE
5
1F1
100
AcDbEntity
8
2
62
256
6
ByLayer
370
13
48
1
60
0
100
AcDbLine
10
65
20
47
30
0
11
65
21
59.500506
31
0
39
0
210
0
220
0
230
1
0
LINE
5
1F2
100
AcDbEntity
8
2
62
256
6
ByLayer
370
13
48
1
60
0
100
AcDbLine
10
60.722045
20
44.750642
30
0
11
50.649446
21
43.924037
31
0
39
0
210
0
220
0
230
1
0
ARC
5
1F3
100
AcDbEntity
8
2
62
256
6
ByLayer
370
13
48
1
60
0
100
AcDbCircle
39
0
10
65
20
45.101711
30
0
40
12.3987954559122
210
0
220
0
230
1
100
AcDbArc
50
90
51
184.691446
0
LINE
5
1F4
100
AcDbEntity
8
2
62
256
6
ByLayer
370
13
48
1
60
0
100
AcDbLine
10
65
20
57.500506
30
0
11
61.858032
21
56.881335
31
0
39
0
210
0
220
0
230
1
0
LINE
5
1F5
100
AcDbEntity
8
2
62
256
6
ByLayer
370
13
48
1
60
0
100
AcDbLine
10
65
20
57.500506
30
0
11
61.804836
21
57.715634
31
0
39
0
210
0
220
0
230
1
0
LINE
5
1F6
100
AcDbEntity
8
2
62
256
6
ByLayer
370
13
48
1
60
0
100
AcDbLine
10
61.858032
20
56.881335
30
0
11
61.804836
21
57.715634
31
0
39
0
210
0
220
0
230
1
0
LINE
5
1F7
100
AcDbEntity
8
2
62
256
6
ByLayer
370
13
48
1
60
0
100
AcDbLine
10
52.642745
20
44.087617
30
0
11
52.167007
21
47.254478
31
0
39
0
210
0
220
0
230
1
0
LINE
5
1F8
100
AcDbEntity
8
2
62
256
6
ByLayer
370
13
48
1
60
0
100
AcDbLine
10
52.642745
20
44.087617
30
0
11
53.002861
21
47.269703
31
0
39
0
210
0
220
0
230
1
0
LINE
5
1F9
100
AcDbEntity
8
2
62
256
6
ByLayer
370
13
48
1
60
0
100
AcDbLine
10
52.167007
20
47.254478
30
0
11
53.002861
21
47.269703
31
0
39
0
210
0
220
0
230
1
0
ENDBLK
5
1FB
100
AcDbEntity
8
0
100
AcDbBlockEnd
0
BLOCK
5
1FE
100
AcDbEntity
8
0
100
AcDbBlockBegin
2
_CLOSED
70
0
10
0
20
0
30
0
3
_CLOSED
0
LINE
5
200
100
AcDbEntity
8
0
62
256
6
ByLayer
370
-2
48
1
60
0
100
AcDbLine
10
-1
20
0.166667
30
0
11
0
21
0
31
0
39
0
210
0
220
0
230
1
0
LINE
5
201
100
AcDbEntity
8
0
62
256
6
ByLayer
370
-2
48
1
60
0
100
AcDbLine
10
0
20
0
30
0
11
-1
21
-0.166667
31
0
39
0
210
0
220
0
230
1
0
LINE
5
202
100
AcDbEntity
8
0
62
256
6
ByLayer
370
-2
48
1
60
0
100
AcDbLine
10
-1
20
0.166667
30
0
11
-1
21
-0.166667
31
0
39
0
210
0
220
0
230
1
0
LINE
5
203
100
AcDbEntity
8
0
62
256
6
ByLayer
370
-2
48
1
60
0
100
AcDbLine
10
0
20
0
30
0
11
-1
21
0
31
0
39
0
210
0
220
0
230
1
0
ENDBLK
5
1FF
100
AcDbEntity
8
0
100
AcDbBlockEnd
0
BLOCK
5
210
100
AcDbEntity
8
0
100
AcDbBlockBegin
2
DimnDraft3D3
70
0
10
0
20
0
30
0
3
DimnDraft3D3
0
MTEXT
5
205
100
AcDbEntity
8
SK2
62
256
6
ByLayer
370
18
48
1
60
0
100
AcDbMText
10
-46.875
20
-1.563158
30
0
210
0
220
0
230
1
1
\W0.6740;63
40
4.5
41
0
44
1.084337
50
90
71
7
72
5
7
iso_b_vert
0
LINE
5
207
100
AcDbEntity
8
SK2
62
256
6
ByLayer
370
13
48
1
60
0
100
AcDbLine
10
-2
20
-31.5
30
0
11
-47.75
21
-31.5
31
0
39
0
210
0
220
0
230
1
0
LINE
5
208
100
AcDbEntity
8
SK2
62
256
6
ByLayer
370
13
48
1
60
0
100
AcDbLine
10
-2
20
31.5
30
0
11
-47.75
21
31.5
31
0
39
0
210
0
220
0
230
1
0
LINE
5
209
100
AcDbEntity
8
SK2
62
256
6
ByLayer
370
13
48
1
60
0
100
AcDbLine
10
-45.75
20
-31.5
30
0
11
-45.75
21
31.5
31
0
39
0
210
0
220
0
230
1
0
LINE
5
20A
100
AcDbEntity
8
SK2
62
256
6
ByLayer
370
13
48
1
60
0
100
AcDbLine
10
-45.75
20
-31.5
30
0
11
-46.167997
21
-28.325002
31
0
39
0
210
0
220
0
230
1
0
LINE
5
20B
100
AcDbEntity
8
SK2
62
256
6
ByLayer
370
13
48
1
60
0
100
AcDbLine
10
-45.75
20
-31.5
30
0
11
-45.332003
21
-28.324998
31
0
39
0
210
0
220
0
230
1
0
LINE
5
20C
100
AcDbEntity
8
SK2
62
256
6
ByLayer
370
13
48
1
60
0
100
AcDbLine
10
-46.167997
20
-28.325002
30
0
11
-45.332003
21
-28.324998
31
0
39
0
210
0
220
0
230
1
0
LINE
5
20D
100
AcDbEntity
8
SK2
62
256
6
ByLayer
370
13
48
1
60
0
100
AcDbLine
10
-45.75
20
31.5
30
0
11
-45.332003
21
28.325002
31
0
39
0
210
0
220
0
230
1
0
LINE
5
20E
100
AcDbEntity
8
SK2
62
256
6
ByLayer
370
13
48
1
60
0
100
AcDbLine
10
-45.75
20
31.5
30
0
11
-46.167997
21
28.324998
31
0
39
0
210
0
220
0
230
1
0
LINE
5
20F
100
AcDbEntity
8
SK2
62
256
6
ByLayer
370
13
48
1
60
0
100
AcDbLine
10
-45.332003
20
28.325002
30
0
11
-46.167997
21
28.324998
31
0
39
0
210
0
220
0
230
1
0
ENDBLK
5
211
100
AcDbEntity
8
0
100
AcDbBlockEnd
0
BLOCK
5
21E
100
AcDbEntity
8
0
100
AcDbBlockBegin
2
DimnDraft3D4
70
0
10
0
20
0
30
0
3
DimnDraft3D4
0
MTEXT
5
214
100
AcDbEntity
8
2
62
256
6
ByLayer
370
18
48
1
60
0
100
AcDbMText
10
86.125
20
18.106579
30
0
210
0
220
0
230
1
1
\W0.7640;45.0
40
4.5
41
0
44
1.084337
50
90
71
7
72
5
7
iso_b_vert
0
LINE
5
215
100
AcDbEntity
8
2
62
256
6
ByLayer
370
13
48
1
60
0
100
AcDbLine
10
67
20
0
30
0
11
89.25
21
0
31
0
39
0
210
0
220
0
230
1
0
LINE
5
216
100
AcDbEntity
8
2
62
256
6
ByLayer
370
13
48
1
60
0
100
AcDbLine
10
67
20
45
30
0
11
89.25
21
45
31
0
39
0
210
0
220
0
230
1
0
LINE
5
217
100
AcDbEntity
8
2
62
256
6
ByLayer
370
13
48
1
60
0
100
AcDbLine
10
87.25
20
0
30
0
11
87.25
21
45
31
0
39
0
210
0
220
0
230
1
0
LINE
5
218
100
AcDbEntity
8
2
62
256
6
ByLayer
370
13
48
1
60
0
100
AcDbLine
10
87.25
20
0
30
0
11
86.832003
21
3.174998
31
0
39
0
210
0
220
0
230
1
0
LINE
5
219
100
AcDbEntity
8
2
62
256
6
ByLayer
370
13
48
1
60
0
100
AcDbLine
10
87.25
20
0
30
0
11
87.667997
21
3.175002
31
0
39
0
210
0
220
0
230
1
0
LINE
5
21A
100
AcDbEntity
8
2
62
256
6
ByLayer
370
13
48
1
60
0
100
AcDbLine
10
86.832003
20
3.174998
30
0
11
87.667997
21
3.175002
31
0
39
0
210
0
220
0
230
1
0
LINE
5
21B
100
AcDbEntity
8
2
62
256
6
ByLayer
370
13
48
1
60
0
100
AcDbLine
10
87.25
20
45
30
0
11
87.667997
21
41.825002
31
0
39
0
210
0
220
0
230
1
0
LINE
5
21C
100
AcDbEntity
8
2
62
256
6
ByLayer
370
13
48
1
60
0
100
AcDbLine
10
87.25
20
45
30
0
11
86.832003
21
41.824998
31
0
39
0
210
0
220
0
230
1
0
LINE
5
21D
100
AcDbEntity
8
2
62
256
6
ByLayer
370
13
48
1
60
0
100
AcDbLine
10
87.667997
20
41.825002
30
0
11
86.832003
21
41.824998
31
0
39
0
210
0
220
0
230
1
0
ENDBLK
5
21F
100
AcDbEntity
8
0
100
AcDbBlockEnd
0
ENDSEC
0
SECTION
2
ENTITIES
0
ARC
5
F0
100
AcDbEntity
8
SK1
62
256
6
ByLayer
370
18
48
1
60
0
100
AcDbCircle
39
0
10
0.6
20
-23.45
30
0
40
0.999999999999999
210
0
220
0
230
-1
100
AcDbArc
50
113.578178
51
126.869898
0
ARC
5
F1
100
AcDbEntity
8
SK1
62
256
6
ByLayer
370
18
48
1
60
0
100
AcDbCircle
39
0
10
0.6
20
23.45
30
0
40
0.999999999999999
210
0
220
0
230
-1
100
AcDbArc
50
233.130102
51
246.421822
0
ELLIPSE
5
F2
100
AcDbEntity
8
1
62
256
6
ByLayer
370
18
48
1
60
0
100
AcDbEllipse
10
26.120944
20
28.511122
30
0
11
1.0256697528779
21
-1.94627890037152
31
0
210
0
220
0
230
1
40
0.147987
41
0.113154465956592
42
3.14153853165424
0
ELLIPSE
5
F3
100
AcDbEntity
8
1
62
256
6
ByLayer
370
18
48
1
60
0
100
AcDbEllipse
10
26.339677
20
28.626392
30
0
11
-0.909116371869051
21
1.7251108435111
31
0
210
0
220
0
230
1
40
0.147987
41
-2.99133293890602
42
-0.15020015310821
0
ELLIPSE
5
F4
100
AcDbEntity
8
1
62
256
6
ByLayer
370
18
48
1
60
0
100
AcDbEllipse
10
42.896411
20
25.688856
30
0
11
-0.31819805153467
21
0.318198051533223
31
0
210
0
220
0
230
1
40
0.989133
41
-2.79623373661198
42
-2.42314011518001
0
ELLIPSE
5
F5
100
AcDbEntity
8
1
62
256
6
ByLayer
370
18
48
1
60
0
100
AcDbEllipse
10
42.702932
20
27.098735
30
0
11
0.989949493663432
21
-0.989949493658901
31
0
210
0
220
0
230
1
40
0.989133
41
3.11238420644165
42
-1.40718976785498
0
ELLIPSE
5
F6
100
AcDbEntity
8
1
62
256
6
ByLayer
370
18
48
1
60
0
100
AcDbEllipse
10
42.702932
20
27.098735
30
0
11
0.989949493663432
21
-0.989949493658901
31
0
210
0
220
0
230
1
40
0.989133
41
0.136215985086706
42
3.11238420644165
0
ELLIPSE
5
F7
100
AcDbEntity
8
1
62
256
6
ByLayer
370
18
48
1
60
0
100
AcDbEllipse
10
42.760111
20
27.155914
30
0
11
0.989949493663432
21
-0.989949493658901
31
0
210
0
220
0
230
1
40
0.989133
41
0.106742054852214
42
0.781063466822043
0
ELLIPSE
5
F8
100
AcDbEntity
8
1
62
256
6
ByLayer
370
18
48
1
60
0
100
AcDbEllipse
10
42.760111
20
27.155914
30
0
11
0.989949493663432
21
-0.989949493658901
31
0
210
0
220
0
230
1
40
0.989133
41
-0.845199859506963
42
-0.266134084374554
0
ELLIPSE
5
F9
100
AcDbEntity
8
1
62
256
6
ByLayer
370
18
48
1
60
0
100
AcDbEllipse
10
42.760111
20
27.155914
30
0
11
0.989949493663432
21
-0.989949493658901
31
0
210
0
220
0
230
1
40
0.989133
41
-2.09709674383293
42
-1.48318776289585
0
ELLIPSE
5
FA
100
AcDbEntity
8
1
62
256
6
ByLayer
370
18
48
1
60
0
100
AcDbEllipse
10
42.760111
20
27.155914
30
0
11
0.989949493663432
21
-0.989949493658901
31
0
210
0
220
0
230
1
40
0.989133
41
3.05866088756548
42
-2.67069007507049
0
ELLIPSE
5
FB
100
AcDbEntity
8
1
62
256
6
ByLayer
370
18
48
1
60
0
100
AcDbEllipse
10
41.422665
20
27.785279
30
0
11
-0.31819805153467
21
0.318198051533223
31
0
210
0
220
0
230
1
40
0.989133
41
-1.06751838880866
42
-0.345369760549682
0
ELLIPSE
5
FC
100
AcDbEntity
8
1
62
256
6
ByLayer
370
18
48
1
60
0
100
AcDbEllipse
10
44.097557
20
26.52655
30
0
11
-0.31819805153467
21
0.318198051533223
31
0
210
0
220
0
230
1
40
0.989133
41
-2.79615610031135
42
-1.37594256398337
0
ELLIPSE
5
FD
100
AcDbEntity
8
1
62
256
6
ByLayer
370
18
48
1
60
0
100
AcDbEllipse
10
42.62381
20
28.622972
30
0
11
-0.31819805153467
21
0.318198051533223
31
0
210
0
220
0
230
1
40
0.989133
41
-2.11471594000527
42
-0.345401656471066
0
ELLIPSE
5
FE
100
AcDbEntity
8
1
62
256
6
ByLayer
370
18
48
1
60
0
100
AcDbEllipse
10
44.619367
20
27.308493
30
0
11
0.353553390594083
21
-0.353553390592465
31
0
210
0
220
0
230
1
40
0.989133
41
-3.14158599185621
42
-2.52793907665041
0
ELLIPSE
5
FF
100
AcDbEntity
8
1
62
256
6
ByLayer
370
18
48
1
60
0
100
AcDbEllipse
10
43.961256
20
27.993608
30
0
11
-0.31819805153467
21
0.318198051533223
31
0
210
0
220
0
230
1
40
0.989133
41
-3.11202227657912
42
-0.328745012786803
0
ELLIPSE
5
100
100
AcDbEntity
8
1
62
256
6
ByLayer
370
18
48
1
60
0
100
AcDbEllipse
10
42.661347
20
27.057151
30
0
11
3.53553390594083
21
-3.53553390592464
31
0
210
0
220
0
230
1
40
0.989133
41
4.7344872473995E-05
42
-1.40718982501422
0
ELLIPSE
5
101
100
AcDbEntity
8
1
62
256
6
ByLayer
370
18
48
1
60
0
100
AcDbEllipse
10
42.661347
20
27.057151
30
0
11
3.53553390594083
21
-3.53553390592464
31
0
210
0
220
0
230
1
40
0.989133
41
-0.214071732482897
42
0
0
ELLIPSE
5
102
100
AcDbEntity
8
1
62
256
6
ByLayer
370
18
48
1
60
0
100
AcDbEllipse
10
19.807168
20
25.183824
30
0
11
-0.027017422267863
21
-2.8375973320249
31
0
210
0
220
0
230
1
40
0.078776
41
-0.234984584259386
42
0.549098093718079
0
ELLIPSE
5
103
100
AcDbEntity
8
1
62
256
6
ByLayer
370
18
48
1
60
0
100
AcDbEllipse
10
12
20
24.018926
30
0
11
1.64999999999998
21
0
31
0
210
0
220
0
230
1
40
0.5
41
0.167191463980102
42
2.97577558800012
0
ELLIPSE
5
104
100
AcDbEntity
8
1
62
256
6
ByLayer
370
18
48
1
60
0
100
AcDbEllipse
10
51.478416
20
26.966404
30
0
11
2.36914480392033
21
-2.36914480390948
31
0
210
0
220
0
230
1
40
0.989133
41
-0.503527467500471
42
0.698131700797722
0
ELLIPSE
5
105
100
AcDbEntity
8
1
62
256
6
ByLayer
370
18
48
1
60
0
100
AcDbEllipse
10
46.521054
20
0
30
0
11
-22.9998450269978
21
-31.6470389231096
31
0
210
0
220
0
230
1
40
0.018823
41
0.0136784504686034
42
0.204406774119319
0
ELLIPSE
5
106
100
AcDbEntity
8
1
62
256
6
ByLayer
370
18
48
1
60
0
100
AcDbEllipse
10
12
20
24.018926
30
0
11
1.99999999999999
21
0
31
0
210
0
220
0
230
1
40
0.5
41
0.448462556004162
42
2.67722591773394
0
ELLIPSE
5
107
100
AcDbEntity
8
1
62
256
6
ByLayer
370
18
48
1
60
0
100
AcDbEllipse
10
50.769657
20
36.485317
30
0
11
-0.942887807914769
21
3.82930737025323
31
0
210
0
220
0
230
1
40
0.533007
41
0.722279790219128
42
0.834869712965636
0
ELLIPSE
5
108
100
AcDbEntity
8
1
62
256
6
ByLayer
370
18
48
1
60
0
100
AcDbEllipse
10
50.158103
20
25.646091
30
0
11
2.47363954431144
21
-2.47363954430012
31
0
210
0
220
0
230
1
40
0.989133
41
0.353759079292443
42
0.660923429469326
0
ELLIPSE
5
109
100
AcDbEntity
8
1
62
256
6
ByLayer
370
18
48
1
60
0
100
AcDbEllipse
10
50.142509
20
25.630496
30
0
11
2.36757352713322
21
-2.36757352712238
31
0
210
0
220
0
230
1
40
0.989133
41
0.288006640584396
42
0.567043856927
0
ELLIPSE
5
10A
100
AcDbEntity
8
1
62
256
6
ByLayer
370
18
48
1
60
0
100
AcDbEllipse
10
33.699647
20
28.123385
30
0
11
2.0817652655485
21
-2.16015123988016
31
0
210
0
220
0
230
1
40
0.986455
41
-0.156280282981029
42
-0.0604792845384533
0
ELLIPSE
5
10B
100
AcDbEntity
8
1
62
256
6
ByLayer
370
18
48
1
60
0
100
AcDbEllipse
10
43.387973
20
27.563306
30
0
11
-3.57369703919159
21
3.70825962846094
31
0
210
0
220
0
230
1
40
0.986455
41
3.08108183140579
42
-0.156280282981031
0
ELLIPSE
5
10C
100
AcDbEntity
8
1
62
256
6
ByLayer
370
18
48
1
60
0
100
AcDbEllipse
10
56.474495
20
36.474495
30
0
11
2.24506403027243
21
-2.24506403026215
31
0
210
0
220
0
230
1
40
0.989133
41
0.0999238899414939
42
2.69055980370838
0
ELLIPSE
5
10D
100
AcDbEntity
8
1
62
256
6
ByLayer
370
18
48
1
60
0
100
AcDbEllipse
10
56.972037
20
36.937656
30
0
11
-2.5036750322666
21
1.35073548482256
31
0
210
0
220
0
230
1
40
0.787101
41
-1.97655749919104
42
-1.52684752316928
0
ELLIPSE
5
10E
100
AcDbEntity
8
1
62
256
6
ByLayer
370
18
48
1
60
0
100
AcDbEllipse
10
37.342206
20
26.900953
30
0
11
4.4994639761384
21
3.16304029810447
31
0
210
0
220
0
230
1
40
0.02553
41
1.92165591251141
42
2.32707508452467
0
ELLIPSE
5
10F
100
AcDbEntity
8
1
62
256
6
ByLayer
370
18
48
1
60
0
100
AcDbEllipse
10
33.311504
20
26.759742
30
0
11
-3.08205525306575
21
1.66308325901844
31
0
210
0
220
0
230
1
40
0.99535
41
-0.0665514951196583
42
1.1056833355921
0
ELLIPSE
5
110
100
AcDbEntity
8
1
62
256
6
ByLayer
370
18
48
1
60
0
100
AcDbEllipse
10
40.791671
20
21.994047
30
0
11
4.4994639761384
21
3.16304029810447
31
0
210
0
220
0
230
1
40
0.02553
41
1.92165591251141
42
2.32707508452467
0
ELLIPSE
5
111
100
AcDbEntity
8
1
62
256
6
ByLayer
370
18
48
1
60
0
100
AcDbEllipse
10
39.486046
20
17.97638
30
0
11
-3.08205525307473
21
1.66308325900188
31
0
210
0
220
0
230
1
40
0.99535
41
1.10568333558664
42
2.27791816629843
0
ELLIPSE
5
112
100
AcDbEntity
8
1
62
256
6
ByLayer
370
18
48
1
60
0
100
AcDbEllipse
10
42.003156
20
20.120731
30
0
11
-1.28250598833247
21
-4.64708230247856
31
0
210
0
220
0
230
1
40
0.556435
41
-0.52716521342589
42
0.590807460744586
0
ELLIPSE
5
113
100
AcDbEntity
8
1
62
256
6
ByLayer
370
18
48
1
60
0
100
AcDbEllipse
10
37.87588
20
12.771771
30
0
11
5.72659051508524
21
4.02568765213296
31
0
210
0
220
0
230
1
40
0.02553
41
-0.839252960940417
42
-0.808573903783162
0
ELLIPSE
5
114
100
AcDbEntity
8
1
62
256
6
ByLayer
370
18
48
1
60
0
100
AcDbEllipse
10
35.828615
20
28.904093
30
0
11
-4.63714380004532
21
-0.107271033124064
31
0
210
0
220
0
230
1
40
0.533782
41
-0.677420796207349
42
0.44055187796297
0
ELLIPSE
5
115
100
AcDbEntity
8
1
62
256
6
ByLayer
370
18
48
1
60
0
100
AcDbEllipse
10
56.972037
20
36.937656
30
0
11
-0.897950543950042
21
2.77148575033992
31
0
210
0
220
0
230
1
40
0.794417
41
-1.80970431868799
42
-1.35999434266082
0
ELLIPSE
5
116
100
AcDbEntity
8
1
62
256
6
ByLayer
370
18
48
1
60
0
100
AcDbEllipse
10
12
20
22.2799
30
0
11
-1.88914494149012
21
-3.41434906401724
31
0
210
0
220
0
230
1
40
0.192308
41
2.48058027399185
42
3.13359220704443
0
ELLIPSE
5
117
100
AcDbEntity
8
1
62
256
6
ByLayer
370
18
48
1
60
0
100
AcDbEllipse
10
39.637895
20
12.542372
30
0
11
-5.4067073704157
21
-3.95647429459375
31
-3.34721397089054E-17
210
6.1908546950511E-18
220
3.85185988877447E-34
230
-1
40
0.59704
41
-1.89655398477407
42
-1.85006514822461
0
ELLIPSE
5
118
100
AcDbEntity
8
1
62
256
6
ByLayer
370
18
48
1
60
0
100
AcDbEllipse
10
19.807168
20
25.183824
30
0
11
-0.0270174222678859
21
-2.83759733201539
31
0
210
0
220
0
230
1
40
0.078776
41
2.78004637164212
42
-0.552940736317557
0
ELLIPSE
5
119
100
AcDbEntity
8
1
62
256
6
ByLayer
370
18
48
1
60
0
100
AcDbEllipse
10
23.429872
20
27.264378
30
0
11
22.5259793613141
21
-32.043484467842
31
0
210
-6.1908546950511E-18
220
-2.69630192214213E-33
230
1
40
0.02553
41
-1.46454261950056
42
-1.08738291576809
0
ELLIPSE
5
11A
100
AcDbEntity
8
1
62
256
6
ByLayer
370
18
48
1
60
0
100
AcDbEllipse
10
26.347154
20
0
30
0
11
-14.7536831606555
21
31.0932549155802
31
0
210
0
220
0
230
1
40
0.341999
41
0.157806186645435
42
1.09123958575285
0
ELLIPSE
5
11B
100
AcDbEntity
8
1
62
256
6
ByLayer
370
18
48
1
60
0
100
AcDbEllipse
10
28.346809
20
29.050298
30
0
11
-4.60348651607462
21
-3.18394601548882
31
0
210
0
220
0
230
1
40
0.714389
41
-3.13614006881301
42
-1.85998148090321
0
ELLIPSE
5
11C
100
AcDbEntity
8
1
62
256
6
ByLayer
370
18
48
1
60
0
100
AcDbEllipse
10
12
20
22.2799
30
0
11
-1.8891449414941
21
3.41434906402345
31
0
210
0
220
0
230
1
40
0.192308
41
0.00800044654536786
42
0.661012379597218
0
ELLIPSE
5
11D
100
AcDbEntity
8
1
62
256
6
ByLayer
370
18
48
1
60
0
100
AcDbEllipse
10
-2.347154
20
0
30
0
11
-14.7536831606548
21
31.0932549155792
31
0
210
0
220
0
230
1
40
0.341999
41
-2.98378646694435
42
-2.05035306783692
0
ELLIPSE
5
11E
100
AcDbEntity
8
1
62
256
6
ByLayer
370
18
48
1
60
0
100
AcDbEllipse
10
-2.347154
20
0
30
0
11
-14.7536831606537
21
-31.0932549155779
31
0
210
0
220
0
230
1
40
0.341999
41
2.05035306783689
42
2.98378646694435
0
ELLIPSE
5
11F
100
AcDbEntity
8
1
62
256
6
ByLayer
370
18
48
1
60
0
100
AcDbEllipse
10
26.347154
20
0
30
0
11
-14.7536831606553
21
-31.0932549155799
31
0
210
0
220
0
230
1
40
0.341999
41
-1.09123958575286
42
-0.157806186645435
0
ELLIPSE
5
120
100
AcDbEntity
8
1
62
256
6
ByLayer
370
18
48
1
60
0
100
AcDbEllipse
10
24.494172
20
68.337981
30
0
11
-7.02934607980386E-15
21
-38.2672415935297
31
0
210
-6.1908546950511E-18
220
0
230
1
40
0.104528
41
-0.150033791857382
42
-0.104149827605797
0
ELLIPSE
5
121
100
AcDbEntity
8
1
62
256
6
ByLayer
370
18
48
1
60
0
100
AcDbEllipse
10
39.845025
20
12.693944
30
0
11
-4.60348651607449
21
-3.1839460154883
31
0
210
0
220
0
230
1
40
0.714389
41
1.93383703408644
42
-3.13614006881297
0
ELLIPSE
5
122
100
AcDbEntity
8
1
62
256
6
ByLayer
370
18
48
1
60
0
100
AcDbEllipse
10
12
20
24.9975
30
0
11
-2.00000000000002
21
2.02127811016475E-15
31
0
210
0
220
0
230
1
40
0.732051
41
-2.39008803209745
42
-0.751504621492315
0
ELLIPSE
5
123
100
AcDbEntity
8
1
62
256
6
ByLayer
370
18
48
1
60
0
100
AcDbEllipse
10
12
20
24.9975
30
0
11
-1.99999999999996
21
2.02127811016469E-15
31
0
210
0
220
0
230
1
40
0.732051
41
0.751504621492287
42
2.3900880320975
0
ELLIPSE
5
124
100
AcDbEntity
8
1
62
256
6
ByLayer
370
18
48
1
60
0
100
AcDbEllipse
10
20.755893
20
0
30
0
11
1.92875500727024E-15
21
31.5
31
0
210
0
220
0
230
1
40
0.087489
41
0.311401384074101
42
2.83019126951569
0
ELLIPSE
5
125
100
AcDbEntity
8
1
62
256
6
ByLayer
370
18
48
1
60
0
100
AcDbEllipse
10
42.96873
20
27.364534
30
0
11
0.989949493663432
21
-0.989949493658901
31
0
210
0
220
0
230
1
40
0.989133
41
1.82826101801865
42
2.01146333636886
0
ELLIPSE
5
126
100
AcDbEntity
8
1
62
256
6
ByLayer
370
18
48
1
60
0
100
AcDbEllipse
10
41.113975
20
27.216456
30
0
11
0.353553390594083
21
-0.353553390592465
31
0
210
0
220
0
230
1
40
0.989133
41
-0.0203208376120417
42
0.493640814414665
0
ELLIPSE
5
127
100
AcDbEntity
8
1
62
256
6
ByLayer
370
18
48
1
60
0
100
AcDbEllipse
10
43.753121
20
29.057029
30
0
11
0.353553390594083
21
-0.353553390592465
31
0
210
0
220
0
230
1
40
0.989133
41
-2.11471594000523
42
-1.60075428797854
0
ELLIPSE
5
128
100
AcDbEntity
8
1
62
256
6
ByLayer
370
18
48
1
60
0
100
AcDbEllipse
10
42.973232
20
27.369036
30
0
11
1.00762716319314
21
-1.00762716318852
31
0
210
0
220
0
230
1
40
0.989133
41
2.83686282413255
42
3.09725663264817
0
ELLIPSE
5
129
100
AcDbEntity
8
1
62
256
6
ByLayer
370
18
48
1
60
0
100
AcDbEllipse
10
42.96873
20
27.364534
30
0
11
0.989949493663432
21
-0.989949493658901
31
0
210
0
220
0
230
1
40
0.989133
41
-0.266134084374973
42
-0.0829317660243152
0
ELLIPSE
5
12A
100
AcDbEntity
8
1
62
256
6
ByLayer
370
18
48
1
60
0
100
AcDbEllipse
10
41.635786
20
27.9984
30
0
11
-0.31819805153467
21
0.318198051533223
31
0
210
0
220
0
230
1
40
0.989133
41
-1.06751838880866
42
1.76565008960637
0
ELLIPSE
5
12B
100
AcDbEntity
8
1
62
256
6
ByLayer
370
18
48
1
60
0
100
AcDbEllipse
10
41.113975
20
27.216456
30
0
11
0.353553390594083
21
-0.353553390592465
31
0
210
0
220
0
230
1
40
0.989133
41
1.25168843757966
42
1.76565008960639
0
ELLIPSE
5
12C
100
AcDbEntity
8
1
62
256
6
ByLayer
370
18
48
1
60
0
100
AcDbEllipse
10
41.893865
20
28.904449
30
0
11
0.353553390594083
21
-0.353553390592465
31
0
210
0
220
0
230
1
40
0.989133
41
0.204490886383107
42
0.718452538409803
0
ELLIPSE
5
12D
100
AcDbEntity
8
1
62
256
6
ByLayer
370
18
48
1
60
0
100
AcDbEllipse
10
42.836932
20
28.836094
30
0
11
-0.31819805153467
21
0.318198051533223
31
0
210
0
220
0
230
1
40
0.989133
41
-2.11471594000527
42
0.718452538409779
0
ELLIPSE
5
12E
100
AcDbEntity
8
1
62
256
6
ByLayer
370
18
48
1
60
0
100
AcDbEllipse
10
43.54
20
28.843907
30
0
11
0.353553390594083
21
-0.353553390592465
31
0
210
0
220
0
230
1
40
0.989133
41
-2.11471594000524
42
-1.48074152545378
0
ELLIPSE
5
12F
100
AcDbEntity
8
1
62
256
6
ByLayer
370
18
48
1
60
0
100
AcDbEllipse
10
44.174377
20
28.206729
30
0
11
-0.31819805153467
21
0.318198051533223
31
0
210
0
220
0
230
1
40
0.989133
41
3.12127181597772
42
-0.32874501278678
0
ELLIPSE
5
130
100
AcDbEntity
8
1
62
256
6
ByLayer
370
18
48
1
60
0
100
AcDbEllipse
10
42.973232
20
27.369036
30
0
11
1.00762716319314
21
-1.00762716318852
31
0
210
0
220
0
230
1
40
0.989133
41
-2.39912493185044
42
-2.13873112333482
0
ELLIPSE
5
131
100
AcDbEntity
8
1
62
256
6
ByLayer
370
18
48
1
60
0
100
AcDbEllipse
10
44.832489
20
27.521615
30
0
11
0.353553390594083
21
-0.353553390592465
31
0
210
0
220
0
230
1
40
0.989133
41
3.12127181597774
42
-2.64795183917515
0
ELLIPSE
5
132
100
AcDbEntity
8
1
62
256
6
ByLayer
370
18
48
1
60
0
100
AcDbEllipse
10
41.893865
20
28.904449
30
0
11
0.353553390594083
21
-0.353553390592465
31
0
210
0
220
0
230
1
40
0.989133
41
-1.06751838880864
42
-0.553556736781936
0
ELLIPSE
5
133
100
AcDbEntity
8
1
62
256
6
ByLayer
370
18
48
1
60
0
100
AcDbEllipse
10
42.96873
20
27.364534
30
0
11
0.989949493663432
21
-0.989949493658901
31
0
210
0
220
0
230
1
40
0.989133
41
2.87545856921483
42
3.05866088756589
0
ELLIPSE
5
134
100
AcDbEntity
8
1
62
256
6
ByLayer
370
18
48
1
60
0
100
AcDbEllipse
10
41.680743
20
28.691328
30
0
11
0.353553390594083
21
-0.353553390592465
31
0
210
0
220
0
230
1
40
0.989133
41
-1.06751838880864
42
-0.433543974257184
0
ELLIPSE
5
135
100
AcDbEntity
8
1
62
256
6
ByLayer
370
18
48
1
60
0
100
AcDbEllipse
10
42.832432
20
27.228236
30
0
11
-3.53553390594078
21
3.53553390592469
31
0
210
0
220
0
230
1
40
0.989133
41
0
42
6.28318530717959
0
ELLIPSE
5
136
100
AcDbEntity
8
1
62
256
6
ByLayer
370
18
48
1
60
0
100
AcDbEllipse
10
44.832489
20
27.521615
30
0
11
0.353553390594083
21
-0.353553390592465
31
0
210
0
220
0
230
1
40
0.989133
41
-1.88990421601009
42
-1.37594256398342
0
ELLIPSE
5
137
100
AcDbEntity
8
1
62
256
6
ByLayer
370
18
48
1
60
0
100
AcDbEllipse
10
42.96873
20
27.364534
30
0
11
0.989949493663432
21
-0.989949493658901
31
0
210
0
220
0
230
1
40
0.989133
41
-2.36052918676774
42
-2.17732686841752
0
ELLIPSE
5
138
100
AcDbEntity
8
1
62
256
6
ByLayer
370
18
48
1
60
0
100
AcDbEllipse
10
42.193343
20
25.681042
30
0
11
0.353553390594083
21
-0.353553390592465
31
0
210
0
220
0
230
1
40
0.989133
41
2.29888598877629
42
2.81284764080296
0
ELLIPSE
5
139
100
AcDbEntity
8
1
62
256
6
ByLayer
370
18
48
1
60
0
100
AcDbEllipse
10
43.54
20
28.843907
30
0
11
0.353553390594083
21
-0.353553390592465
31
0
210
0
220
0
230
1
40
0.989133
41
-0.962719427338307
42
-0.328745012786816
0
ELLIPSE
5
13A
100
AcDbEntity
8
1
62
256
6
ByLayer
370
18
48
1
60
0
100
AcDbEllipse
10
42.760111
20
27.155914
30
0
11
0.989949493663432
21
-0.989949493658901
31
0
210
0
220
0
230
1
40
0.989133
41
0.964265785172284
42
1.82826101801865
0
ELLIPSE
5
13B
100
AcDbEntity
8
1
62
256
6
ByLayer
370
18
48
1
60
0
100
AcDbEllipse
10
44.310678
20
26.739671
30
0
11
-0.31819805153467
21
0.318198051533223
31
0
210
0
220
0
230
1
40
0.989133
41
2.07407426478112
42
-1.37594256398336
0
ELLIPSE
5
13C
100
AcDbEntity
8
1
62
256
6
ByLayer
370
18
48
1
60
0
100
AcDbEllipse
10
44.0526
20
25.833622
30
0
11
0.353553390594083
21
-0.353553390592465
31
0
210
0
220
0
230
1
40
0.989133
41
2.07407426478114
42
2.58803591680783
0
ELLIPSE
5
13D
100
AcDbEntity
8
1
62
256
6
ByLayer
370
18
48
1
60
0
100
AcDbEllipse
10
43.109533
20
25.901978
30
0
11
-0.31819805153467
21
0.318198051533223
31
0
210
0
220
0
230
1
40
0.989133
41
1.02687671358455
42
-2.42314011517999
0
ELLIPSE
5
13E
100
AcDbEntity
8
1
62
256
6
ByLayer
370
18
48
1
60
0
100
AcDbEllipse
10
43.839478
20
25.6205
30
0
11
0.353553390594083
21
-0.353553390592465
31
0
210
0
220
0
230
1
40
0.989133
41
-3.05711452973147
42
-2.42314011518002
0
ELLIPSE
5
13F
100
AcDbEntity
8
1
62
256
6
ByLayer
370
18
48
1
60
0
100
AcDbEllipse
10
42.96873
20
27.364534
30
0
11
0.989949493663432
21
-0.989949493658901
31
0
210
0
220
0
230
1
40
0.989133
41
-1.31333163557181
42
-1.1301293172209
0
ELLIPSE
5
140
100
AcDbEntity
8
1
62
256
6
ByLayer
370
18
48
1
60
0
100
AcDbEllipse
10
43.753121
20
29.057029
30
0
11
0.353553390594083
21
-0.353553390592465
31
0
210
0
220
0
230
1
40
0.989133
41
-0.84270666481351
42
-0.32874501278683
0
ELLIPSE
5
141
100
AcDbEntity
8
1
62
256
6
ByLayer
370
18
48
1
60
0
100
AcDbEllipse
10
42.973232
20
27.369036
30
0
11
1.00762716319314
21
-1.00762716318852
31
0
210
0
220
0
230
1
40
0.989133
41
-1.35192738065385
42
-1.09153357213822
0
ELLIPSE
5
142
100
AcDbEntity
8
1
62
256
6
ByLayer
370
18
48
1
60
0
100
AcDbEllipse
10
42.973232
20
27.369036
30
0
11
1.00762716319314
21
-1.00762716318852
31
0
210
0
220
0
230
1
40
0.989133
41
0.74246772173935
42
1.00286153025498
0
ELLIPSE
5
143
100
AcDbEntity
8
1
62
256
6
ByLayer
370
18
48
1
60
0
100
AcDbEllipse
10
42.760111
20
27.155914
30
0
11
0.989949493663432
21
-0.989949493658901
31
0
210
0
220
0
230
1
40
0.989133
41
2.01146333636886
42
2.87545856921525
0
ELLIPSE
5
144
100
AcDbEntity
8
1
62
256
6
ByLayer
370
18
48
1
60
0
100
AcDbEllipse
10
42.193343
20
25.681042
30
0
11
0.353553390594083
21
-0.353553390592465
31
0
210
0
220
0
230
1
40
0.989133
41
1.02687671358454
42
1.54083836561124
0
ELLIPSE
5
145
100
AcDbEntity
8
1
62
256
6
ByLayer
370
18
48
1
60
0
100
AcDbEllipse
10
44.619367
20
27.308493
30
0
11
0.353553390594083
21
-0.353553390592465
31
0
210
0
220
0
230
1
40
0.989133
41
-2.00991697853483
42
-1.37594256398341
0
ELLIPSE
5
146
100
AcDbEntity
8
1
62
256
6
ByLayer
370
18
48
1
60
0
100
AcDbEllipse
10
42.973232
20
27.369036
30
0
11
1.00762716319314
21
-1.00762716318852
31
0
210
0
220
0
230
1
40
0.989133
41
-0.304729829457254
42
-0.0443360209416242
0
ELLIPSE
5
147
100
AcDbEntity
8
1
62
256
6
ByLayer
370
18
48
1
60
0
100
AcDbEllipse
10
42.973232
20
27.369036
30
0
11
-1.76776695297039
21
1.76776695296235
31
0
210
0
220
0
230
1
40
0.989133
41
0
42
6.28318530717959
0
ELLIPSE
5
148
100
AcDbEntity
8
1
62
256
6
ByLayer
370
18
48
1
60
0
100
AcDbEllipse
10
42.96873
20
27.364534
30
0
11
0.989949493663432
21
-0.989949493658901
31
0
210
0
220
0
230
1
40
0.989133
41
0.781063466822048
42
0.964265785172286
0
ELLIPSE
5
149
100
AcDbEntity
8
1
62
256
6
ByLayer
370
18
48
1
60
0
100
AcDbEllipse
10
42.973232
20
27.369036
30
0
11
1.00762716319314
21
-1.00762716318852
31
0
210
0
220
0
230
1
40
0.989133
41
1.78966527293595
42
2.05005908145156
0
ELLIPSE
5
14A
100
AcDbEntity
8
1
62
256
6
ByLayer
370
18
48
1
60
0
100
AcDbEllipse
10
44.0526
20
25.833622
30
0
11
0.353553390594083
21
-0.353553390592465
31
0
210
0
220
0
230
1
40
0.989133
41
-2.9371017672067
42
-2.42314011518
0
ELLIPSE
5
14B
100
AcDbEntity
8
1
62
256
6
ByLayer
370
18
48
1
60
0
100
AcDbEllipse
10
41.772087
20
26.531342
30
0
11
-0.31819805153467
21
0.318198051533223
31
0
210
0
220
0
230
1
40
0.989133
41
-0.0203208376120593
42
2.812847640803
0
ELLIPSE
5
14C
100
AcDbEntity
8
1
62
256
6
ByLayer
370
18
48
1
60
0
100
AcDbEllipse
10
50.247055
20
42.701935
30
0
11
-0.842164176395094
21
0.842164176391263
31
0
210
0
220
0
230
1
40
0.989133
41
-0.698131700797733
42
0.698131700797724
0
ELLIPSE
5
14D
100
AcDbEntity
8
1
62
256
6
ByLayer
370
18
48
1
60
0
100
AcDbEllipse
10
63.815419
20
43.815419
30
0
11
-0.842164176395094
21
0.842164176391263
31
0
210
0
220
0
230
1
40
0.989133
41
-2.44346095279208
42
-0.698131700797737
0
ELLIPSE
5
14E
100
AcDbEntity
8
1
62
256
6
ByLayer
370
18
48
1
60
0
100
AcDbEllipse
10
62.701935
20
30.247055
30
0
11
-0.842164176395094
21
0.842164176391263
31
0
210
0
220
0
230
1
40
0.989133
41
2.44346095279206
42
-2.44346095279206
0
POINT
5
6C
100
AcDbEntity
8
2
62
256
6
ByLayer
370
18
48
1
60
0
100
AcDbPoint
10
65
20
45
30
0
39
0
210
0
220
0
230
1
50
360
0
POINT
5
6E
100
AcDbEntity
8
80
62
256
6
ByLayer
370
18
48
1
60
0
100
AcDbPoint
10
0
20
0
30
0
39
0
210
0
220
0
230
1
50
360
0
POINT
5
70
100
AcDbEntity
8
81
62
256
6
ByLayer
370
18
48
1
60
0
100
AcDbPoint
10
65
20
45
30
0
39
0
210
0
220
0
230
1
50
360
0
SPLINE
5
14F
100
AcDbEntity
8
SK1
62
256
6
ByLayer
370
18
48
1
60
0
100
AcDbSpline
70
4
71
2
72
6
73
3
40
0
40
0
40
0
40
1
40
1
40
1
41
1
10
-36.5
20
-21.1521177089669
30
0
41
1
10
-19.3499999999701
20
-21.5828554470541
30
0
41
1
10
-2.19999999999999
20
-22.0135928951589
30
0
0
SPLINE
5
150
100
AcDbEntity
8
SK1
62
256
6
ByLayer
370
18
48
1
60
0
100
AcDbSpline
70
4
71
2
72
6
73
3
40
0
40
0
40
0
40
1
40
1
40
1
41
1
10
-2.19999999999999
20
22.0135927638551
30
0
41
1
10
-19.3499999999869
20
21.5828539542124
30
0
41
1
10
-36.5
20
21.1521149580209
30
0
0
SPLINE
5
151
100
AcDbEntity
8
SK1
62
256
6
ByLayer
370
18
48
1
60
0
100
AcDbSpline
70
4
71
3
72
13
73
9
40
0
40
0
40
0
40
0
40
0.239456135763718
40
0.368359721933656
40
0.499998984021097
40
0.63163841528373
40
0.760542467778167
40
1
40
1
40
1
40
1
41
1
10
-2.19999999999999
20
-22.0200986606755
30
0
41
1
10
-2.19909198642273
20
-21.9940411845603
30
0
41
1
10
-2.19103284106941
20
-21.9566686002238
30
0
41
1
10
-2.16563592203337
20
-21.9104494263858
30
0
41
1
10
-2.1388637867926
20
-21.8791678725253
30
0
41
1
10
-2.10627712749869
20
-21.8540005023229
30
0
41
1
10
-2.05884064234078
20
-21.8309566998545
30
0
41
1
10
-2.02111030873027
20
-21.8247844448324
30
0
41
1
10
-1.99503997793928
20
-21.825186084775
30
0
0
SPLINE
5
152
100
AcDbEntity
8
SK1
62
256
6
ByLayer
370
18
48
1
60
0
100
AcDbSpline
70
4
71
3
72
13
73
9
40
0
40
0
40
0
40
0
40
0.239457532152995
40
0.368361584623188
40
0.500001015876169
40
0.631640277971204
40
0.760543864164266
40
1
40
1
40
1
40
1
41
1
10
-1.99503997793928
20
21.8251861015554
30
0
41
1
10
-2.02111030873166
20
21.8247844616134
30
0
41
1
10
-2.05884064234343
20
21.8309567166392
30
0
41
1
10
-2.10627712750076
20
21.854000519123
30
0
41
1
10
-2.13886378679456
20
21.8791678893421
30
0
41
1
10
-2.16563592203485
20
21.9104494432231
30
0
41
1
10
-2.19103284107055
20
21.9566686170919
30
0
41
1
10
-2.19909198642387
20
21.9940412014509
30
0
41
1
10
-2.19999999999999
20
22.0200986775813
30
0
0
SPLINE
5
153
100
AcDbEntity
8
SK1
62
256
6
ByLayer
370
18
48
1
60
0
100
AcDbSpline
70
4
71
2
72
6
73
3
40
0
40
0
40
0
40
1
40
1
40
1
41
1
10
-1.99503997793928
20
-21.8251812553753
30
0
41
1
10
-1.19500843340728
20
-21.8452807024746
30
0
41
1
10
-0.394976888875277
20
-21.8653801495793
30
0
0
SPLINE
5
154
100
AcDbEntity
8
SK1
62
256
6
ByLayer
370
18
48
1
60
0
100
AcDbSpline
70
4
71
2
72
6
73
3
40
0
40
0
40
0
40
1
40
1
40
1
41
1
10
-0.394976888875277
20
21.8653802062992
30
0
41
1
10
-1.19500843340728
20
21.8452807593862
30
0
41
1
10
-1.99503997793928
20
21.8251813124779
30
0
0
SPLINE
5
155
100
AcDbEntity
8
SK1
62
256
6
ByLayer
370
18
48
1
60
0
100
AcDbSpline
70
4
71
2
72
6
73
3
40
0
40
0
40
0
40
1
40
1
40
1
41
1
10
-38
20
-20.289405225553
30
0
41
1
10
-37.2500000000012
20
-20.7223540793632
30
0
41
1
10
-36.5
20
-21.1553029418638
30
0
0
SPLINE
5
156
100
AcDbEntity
8
SK1
62
256
6
ByLayer
370
18
48
1
60
0
100
AcDbSpline
70
4
71
2
72
6
73
3
40
0
40
0
40
0
40
1
40
1
40
1
41
1
10
-36.5
20
21.155302724897
30
0
41
1
10
-37.2500000000012
20
20.7223538609616
30
0
41
1
10
-38
20
20.2894050057151
30
0
0
SPLINE
5
157
100
AcDbEntity
8
SK1
62
256
6
ByLayer
370
18
48
1
60
0
100
AcDbSpline
70
4
71
2
72
6
73
3
40
0
40
0
40
0
40
1
40
1
40
1
41
1
10
-0.394976888875277
20
-21.8653849865467
30
0
41
1
10
-0.265172990617003
20
-21.8689012906761
30
0
41
1
10
-0.240502439654279
20
-21.9465691723769
30
0
0
SPLINE
5
158
100
AcDbEntity
8
SK1
62
256
6
ByLayer
370
18
48
1
60
0
100
AcDbSpline
70
4
71
2
72
6
73
3
40
0
40
0
40
0
40
1
40
1
40
1
41
1
10
-0.239684768755779
20
21.9481214799355
30
0
41
1
10
-0.264174311740362
20
21.8692639605625
30
0
41
1
10
-0.394976888875277
20
21.865385003355
30
0
0
SPLINE
5
159
100
AcDbEntity
8
SK1
62
256
6
ByLayer
370
18
48
1
60
0
100
AcDbSpline
70
4
71
3
72
299
73
295
40
0
40
0
40
0
40
0
40
0.0032949708874142
40
0.0068176979390452
40
0.0103404249906761
40
0.013863152042307
40
0.017385879093938
40
0.0209086061455689
40
0.0244313331971999
40
0.0279540602488308
40
0.0349995143520927
40
0.0420449684553545
40
0.0490904225586164
40
0.0526131496102473
40
0.0561358766618783
40
0.0596586037135092
40
0.0631813307651402
40
0.070226784868402
40
0.073749511920033
40
0.0772722389716639
40
0.0807949660232948
40
0.0843176930749258
40
0.0878404201265567
40
0.0913631471781877
40
0.0984086012814495
40
0.10193132833308
40
0.105454055384711
40
0.108976782436342
40
0.112499509487973
40
0.116022236539604
40
0.119544963591235
40
0.123067690642866
40
0.126590417694497
40
0.130113144746128
40
0.133635871797759
40
0.13715859884939
40
0.140681325901021
40
0.144204052952652
40
0.147726780004283
40
0.154772234107545
40
0.158294961159175
40
0.161817688210806
40
0.163579051736622
40
0.165340415262437
40
0.168863142314068
40
0.17590859641733
40
0.179431323468961
40
0.182954050520592
40
0.186476777572223
40
0.189999504623854
40
0.197044958727116
40
0.200567685778747
40
0.204090412830378
40
0.205851776356193
40
0.207613139882008
40
0.211135866933639
40
0.218181321036901
40
0.221704048088532
40
0.225226775140163
40
0.228749502191794
40
0.232272229243425
40
0.239317683346687
40
0.242840410398318
40
0.246363137449949
40
0.248124500975764
40
0.24988586450158
40
0.253408591553211
40
0.256931318604842
40
0.260454045656473
40
0.262215409182288
40
0.263976772708103
40
0.267499499759734
40
0.271022226811365
40
0.274544953862996
40
0.278067680914627
40
0.281590407966258
40
0.285113135017889
40
0.28863586206952
40
0.292158589121151
40
0.295681316172782
40
0.299204043224413
40
0.302726770276044
40
0.306249497327675
40
0.309772224379306
40
0.313294951430937
40
0.316817678482567
40
0.323863132585829
40
0.32738585963746
40
0.330908586689091
40
0.334431313740722
40
0.337954040792353
40
0.341476767843984
40
0.344999494895615
40
0.348522221947246
40
0.352044948998877
40
0.359090403102139
40
0.366135857205401
40
0.373181311308663
40
0.376704038360293
40
0.380226765411924
40
0.383749492463555
40
0.387272219515186
40
0.390794946566817
40
0.394317673618448
40
0.397840400670079
40
0.40136312772171
40
0.404885854773341
40
0.408408581824972
40
0.411931308876603
40
0.415454035928234
40
0.418976762979865
40
0.422499490031496
40
0.426022217083126
40
0.429544944134758
40
0.433067671186388
40
0.434829034712204
40
0.436590398238019
40
0.438351761763835
40
0.44011312528965
40
0.443635852341281
40
0.447158579392912
40
0.448919942918728
40
0.450681306444543
40
0.452442669970358
40
0.454204033496174
40
0.457726760547805
40
0.45948812407362
40
0.461249487599436
40
0.463010851125251
40
0.464772214651067
40
0.466533578176882
40
0.468294941702698
40
0.470056305228513
40
0.471817668754329
40
0.473579032280144
40
0.47534039580596
40
0.477101759331775
40
0.478863122857591
40
0.480624486383406
40
0.482385849909222
40
0.484147213435037
40
0.485908576960852
40
0.487669940486668
40
0.489431304012483
40
0.491192667538299
40
0.492954031064114
40
0.49471539458993
40
0.496476758115745
40
0.498238121641561
40
0.499999485167376
40
0.501760848693192
40
0.503522212219007
40
0.505283575744823
40
0.507044939270638
40
0.508806302796454
40
0.510567666322269
40
0.512329029848084
40
0.5140903933739
40
0.515851756899715
40
0.517613120425531
40
0.519374483951346
40
0.521135847477162
40
0.522897211002977
40
0.524658574528793
40
0.526419938054608
40
0.528181301580424
40
0.529942665106239
40
0.531704028632055
40
0.53346539215787
40
0.535226755683686
40
0.536988119209501
40
0.538749482735317
40
0.540510846261132
40
0.542272209786947
40
0.545794936838578
40
0.547556300364394
40
0.549317663890209
40
0.551079027416025
40
0.55284039094184
40
0.556363117993471
40
0.559885845045102
40
0.561647208570918
40
0.563408572096733
40
0.565169935622549
40
0.566931299148364
40
0.570454026199995
40
0.573976753251626
40
0.577499480303257
40
0.581022207354888
40
0.584544934406519
40
0.58806766145815
40
0.591590388509781
40
0.595113115561411
40
0.598635842613042
40
0.602158569664673
40
0.605681296716304
40
0.609204023767935
40
0.612726750819566
40
0.616249477871197
40
0.619772204922828
40
0.623294931974459
40
0.62681765902609
40
0.633863113129352
40
0.640908567232614
40
0.647954021335876
40
0.651476748387506
40
0.654999475439137
40
0.658522202490768
40
0.662044929542399
40
0.66556765659403
40
0.669090383645661
40
0.672613110697292
40
0.676135837748923
40
0.683181291852185
40
0.686704018903816
40
0.690226745955447
40
0.693749473007078
40
0.697272200058709
40
0.70079492711034
40
0.70431765416197
40
0.707840381213601
40
0.711363108265232
40
0.714885835316863
40
0.718408562368494
40
0.721931289420125
40
0.725454016471756
40
0.732499470575018
40
0.736022197626649
40
0.73954492467828
40
0.746590378781542
40
0.750113105833173
40
0.753635832884804
40
0.757158559936434
40
0.760681286988065
40
0.767726741091327
40
0.771249468142958
40
0.774772195194589
40
0.77829492224622
40
0.781817649297851
40
0.788863103401113
40
0.792385830452744
40
0.795908557504375
40
0.799431284556006
40
0.802954011607637
40
0.809999465710899
40
0.81352219276253
40
0.81704491981416
40
0.820567646865791
40
0.824090373917422
40
0.831135828020684
40
0.834658555072315
40
0.838181282123946
40
0.841704009175577
40
0.845226736227208
40
0.85227219033047
40
0.855794917382101
40
0.859317644433732
40
0.862840371485363
40
0.866363098536994
40
0.869885825588624
40
0.873408552640255
40
0.876931279691886
40
0.880454006743517
40
0.883976733795148
40
0.887499460846779
40
0.89102218789841
40
0.894544914950041
40
0.898067642001672
40
0.901590369053303
40
0.908635823156565
40
0.912158550208196
40
0.915681277259827
40
0.919204004311458
40
0.922726731363088
40
0.926249458414719
40
0.92977218546635
40
0.936817639569612
40
0.940340366621243
40
0.943863093672874
40
0.947385820724505
40
0.950908547776136
40
0.957954001879398
40
0.961476728931029
40
0.96499945598266
40
0.968522183034291
40
0.972044910085922
40
0.975567637137553
40
0.979090364189183
40
0.982613091240814
40
0.986135818292445
40
0.989658545344076
40
0.993181272395707
40
0.996703999447338
40
1
40
1
40
1
40
1
41
1
10
-1.99503997793931
20
21.8251672683403
30
0
41
1
10
-1.99503997793928
20
21.8252770441926
30
0
41
1
10
-1.99503997793928
20
21.8245105604298
30
0
41
1
10
-1.99503997793928
20
21.8202836860757
30
0
41
1
10
-1.99503997793928
20
21.812783044142
30
0
41
1
10
-1.99503997793928
20
21.8021565364934
30
0
41
1
10
-1.99503997793928
20
21.7884557330328
30
0
41
1
10
-1.99503997793928
20
21.7717308612526
30
0
41
1
10
-1.99503997793928
20
21.7520291985819
30
0
41
1
10
-1.99503997793928
20
21.7218385059106
30
0
41
1
10
-1.99503997793928
20
21.6769140218914
30
0
41
1
10
-1.99503997793928
20
21.6117670092986
30
0
41
1
10
-1.99503997793928
20
21.5484022523455
30
0
41
1
10
-1.99503997793928
20
21.4923512863894
30
0
41
1
10
-1.99503997793928
20
21.4477036012609
30
0
41
1
10
-1.99503997793928
20
21.4004602751572
30
0
41
1
10
-1.99503997793928
20
21.3340243579833
30
0
41
1
10
-1.99503997793928
20
21.2626002065085
30
0
41
1
10
-1.99503997793928
20
21.1861355372814
30
0
41
1
10
-1.99503997793928
20
21.126355615456
30
0
41
1
10
-1.99503997793928
20
21.0641493981766
30
0
41
1
10
-1.99503997793928
20
20.9995415089612
30
0
41
1
10
-1.99503997793928
20
20.9325549476398
30
0
41
1
10
-1.99503997793928
20
20.8400664063016
30
0
41
1
10
-1.99503997793928
20
20.7430171949632
30
0
41
1
10
-1.99503997793928
20
20.6412830606924
30
0
41
1
10
-1.99503997793928
20
20.5627395849404
30
0
41
1
10
-1.99503997793928
20
20.4819464711493
30
0
41
1
10
-1.99503997793928
20
20.3989234016943
30
0
41
1
10
-1.99503997793928
20
20.3136873945745
30
0
41
1
10
-1.99503997793928
20
20.2262576082901
30
0
41
1
10
-1.99503997793928
20
20.136651569995
30
0
41
1
10
-1.99503997793928
20
20.0448848271876
30
0
41
1
10
-1.99503997793928
20
19.9509751576252
30
0
41
1
10
-1.99503997793928
20
19.8549383078336
30
0
41
1
10
-1.99503997793928
20
19.7567886026657
30
0
41
1
10
-1.99503997793928
20
19.6565424313982
30
0
41
1
10
-1.99503997793928
20
19.5542139601407
30
0
41
1
10
-1.99503997793928
20
19.4149698127943
30
0
41
1
10
-1.99503997793928
20
19.2717622924356
30
0
41
1
10
-1.99503997793928
20
19.1243520606764
30
0
41
1
10
-1.99503997793928
20
19.0305969699326
30
0
41
1
10
-1.99503997793928
20
18.9545457436666
30
0
41
1
10
-1.99503997793928
20
18.877828345234
30
0
41
1
10
-1.99503997793928
20
18.7418485706132
30
0
41
1
10
-1.99503997793928
20
18.5826225030747
30
0
41
1
10
-1.99503997793928
20
18.4193199892891
30
0
41
1
10
-1.99503997793928
20
18.2949375082747
30
0
41
1
10
-1.99503997793928
20
18.1686188381619
30
0
41
1
10
-1.99503997793928
20
17.9975681157064
30
0
41
1
10
-1.99503997793928
20
17.8228588844704
30
0
41
1
10
-1.99503997793928
20
17.6441795672679
30
0
41
1
10
-1.99503997793928
20
17.5309981410348
30
0
41
1
10
-1.99503997793928
20
17.4394590341184
30
0
41
1
10
-1.99503997793928
20
17.3472945498449
30
0
41
1
10
-1.99503997793928
20
17.1843913435575
30
0
41
1
10
-1.99503997793928
20
16.9946548235122
30
0
41
1
10
-1.99503997793928
20
16.8010333841432
30
0
41
1
10
-1.99503997793928
20
16.654027023888
30
0
41
1
10
-1.99503997793928
20
16.5051894370887
30
0
41
1
10
-1.99503997793928
20
16.3042392155796
30
0
41
1
10
-1.99503997793928
20
16.0998599858609
30
0
41
1
10
-1.99503997793928
20
15.8916662065006
30
0
41
1
10
-1.99503997793928
20
15.7601264684356
30
0
41
1
10
-1.99503997793928
20
15.6539352235828
30
0
41
1
10
-1.99503997793928
20
15.5471478788444
30
0
41
1
10
-1.99503997793928
20
15.4126292313156
30
0
41
1
10
-1.99503997793928
20
15.2493853238091
30
0
41
1
10
-1.99503997793928
20
15.1119089381336
30
0
41
1
10
-1.99503997793928
20
15.0009760777421
30
0
41
1
10
-1.99503997793928
20
14.8894548819647
30
0
41
1
10
-1.99503997793928
20
14.7490386600655
30
0
41
1
10
-1.99503997793928
20
14.578735707937
30
0
41
1
10
-1.99503997793928
20
14.4066808882548
30
0
41
1
10
-1.99503997793928
20
14.2328806917249
30
0
41
1
10
-1.99503997793928
20
14.0573388809364
30
0
41
1
10
-1.99503997793928
20
13.8800596938692
30
0
41
1
10
-1.99503997793928
20
13.7010488098078
30
0
41
1
10
-1.99503997793928
20
13.5203096364964
30
0
41
1
10
-1.99503997793928
20
13.3378467409434
30
0
41
1
10
-1.99503997793928
20
13.1536651576331
30
0
41
1
10
-1.99503997793928
20
12.967767664355
30
0
41
1
10
-1.99503997793928
20
12.7801589185361
30
0
41
1
10
-1.99503997793928
20
12.5908431445087
30
0
41
1
10
-1.99503997793928
20
12.3998230002593
30
0
41
1
10
-1.99503997793928
20
12.1427688173785
30
0
41
1
10
-1.99503997793928
20
11.8826118718573
30
0
41
1
10
-1.99503997793928
20
11.6187779306707
30
0
41
1
10
-1.99503997793928
20
11.4192921752591
30
0
41
1
10
-1.99503997793928
20
11.2181233733031
30
0
41
1
10
-1.99503997793928
20
11.0152750188843
30
0
41
1
10
-1.99503997793928
20
10.8107494713072
30
0
41
1
10
-1.99503997793928
20
10.6045508021232
30
0
41
1
10
-1.99503997793928
20
10.3966814407573
30
0
41
1
10
-1.99503997793928
20
10.1171870033238
30
0
41
1
10
-1.99503997793928
20
9.76392166117952
30
0
41
1
10
-1.99503997793928
20
9.33322608836653
30
0
41
1
10
-1.99503997793928
20
8.96893242084855
30
0
41
1
10
-1.99503997793928
20
8.67397578579323
30
0
41
1
10
-1.99503997793928
20
8.45121977200662
30
0
41
1
10
-1.99503997793928
20
8.22682776167494
30
0
41
1
10
-1.99503997793928
20
8.00080467620245
30
0
41
1
10
-1.99503997793928
20
7.77315513008728
30
0
41
1
10
-1.99503997793928
20
7.54388372935193
30
0
41
1
10
-1.99503997793928
20
7.31299637479285
30
0
41
1
10
-1.99503997793928
20
7.08049945458953
30
0
41
1
10
-1.99503997793928
20
6.8463997482805
30
0
41
1
10
-1.99503997793928
20
6.61070495432838
30
0
41
1
10
-1.99503997793928
20
6.37342319970753
30
0
41
1
10
-1.99503997793928
20
6.13456384015993
30
0
41
1
10
-1.99503997793928
20
5.89413749968628
30
0
41
1
10
-1.99503997793928
20
5.65215638001948
30
0
41
1
10
-1.99503997793928
20
5.4086336510897
30
0
41
1
10
-1.99503997793928
20
5.16358499073451
30
0
41
1
10
-1.99503997793928
20
4.95821799704331
30
0
41
1
10
-1.99503997793928
20
4.79299516838267
30
0
41
1
10
-1.99503997793928
20
4.66878842905288
30
0
41
1
10
-1.99503997793928
20
4.5442150281373
30
0
41
1
10
-1.99503997793928
20
4.37752561794156
30
0
41
1
10
-1.99503997793928
20
4.16851547631595
30
0
41
1
10
-1.99503997793928
20
3.95832363498766
30
0
41
1
10
-1.99503997793928
20
3.78926935835412
30
0
41
1
10
-1.99503997793928
20
3.66223142121836
30
0
41
1
10
-1.99503997793928
20
3.53485872774326
30
0
41
1
10
-1.99503997793928
20
3.36446603264318
30
0
41
1
10
-1.99503997793928
20
3.19381064862623
30
0
41
1
10
-1.99503997793928
20
3.02213557666008
30
0
41
1
10
-1.99503997793928
20
2.8931784837302
30
0
41
1
10
-1.99503997793928
20
2.76392442628162
30
0
41
1
10
-1.99503997793928
20
2.63438251344519
30
0
41
1
10
-1.99503997793928
20
2.50455988721876
30
0
41
1
10
-1.99503997793928
20
2.37446636334928
30
0
41
1
10
-1.99503997793928
20
2.24411116870439
30
0
41
1
10
-1.99503997793928
20
2.11350398186613
30
0
41
1
10
-1.99503997793928
20
1.98265625862297
30
0
41
1
10
-1.99503997793928
20
1.85157817347522
30
0
41
1
10
-1.99503997793928
20
1.72028262405345
30
0
41
1
10
-1.99503997793928
20
1.58878098022359
30
0
41
1
10
-1.99503997793928
20
1.45708718468359
30
0
41
1
10
-1.99503997793928
20
1.32521409071333
30
0
41
1
10
-1.99503997793928
20
1.19317647053177
30
0
41
1
10
-1.99503997793928
20
1.06098852682439
30
0
41
1
10
-1.99503997793928
20
0.928665923975672
30
0
41
1
10
-1.99503997793928
20
0.796224037396229
30
0
41
1
10
-1.99503997793928
20
0.663679321648374
30
0
41
1
10
-1.99503997793928
20
0.531048033506266
30
0
41
1
10
-1.99503997793928
20
0.398347293868937
30
0
41
1
10
-1.99503997793928
20
0.265594055935196
30
0
41
1
10
-1.99503997793928
20
0.132805828560237
30
0
41
1
10
-1.99503997793928
20
-2.0604887E-09
30
0
41
1
10
-1.99503997793928
20
-0.132805835966792
30
0
41
1
10
-1.99503997793928
20
-0.265594069601519
30
0
41
1
10
-1.99503997793928
20
-0.398347307093388
30
0
41
1
10
-1.99503997793928
20
-0.531048037421954
30
0
41
1
10
-1.99503997793928
20
-0.663679323049081
30
0
41
1
10
-1.99503997793928
20
-0.796224050825089
30
0
41
1
10
-1.99503997793928
20
-0.92866594303203
30
0
41
1
10
-1.99503997793928
20
-1.06098853158755
30
0
41
1
10
-1.99503997793928
20
-1.1931764657121
30
0
41
1
10
-1.99503997793928
20
-1.32521410103647
30
0
41
1
10
-1.99503997793928
20
-1.45708720896539
30
0
41
1
10
-1.99503997793928
20
-1.58878099035152
30
0
41
1
10
-1.99503997793928
20
-1.72028261530932
30
0
41
1
10
-1.99503997793928
20
-1.85157817419835
30
0
41
1
10
-1.99503997793928
20
-1.98265628188182
30
0
41
1
10
-1.99503997793928
20
-2.11350400419804
30
0
41
1
10
-1.99503997793928
20
-2.24411116714702
30
0
41
1
10
-1.99503997793928
20
-2.37446635053539
30
0
41
1
10
-1.99503997793928
20
-2.50455989433328
30
0
41
1
10
-1.99503997793928
20
-2.63438254221708
30
0
41
1
10
-1.99503997793928
20
-2.76392444618182
30
0
41
1
10
-1.99503997793928
20
-2.89317847799558
30
0
41
1
10
-1.99503997793928
20
-3.02213556164864
30
0
41
1
10
-1.99503997793928
20
-3.19381066067948
30
0
41
1
10
-1.99503997793928
20
-3.36446606295527
30
0
41
1
10
-1.99503997793928
20
-3.53485872835634
30
0
41
1
10
-1.99503997793928
20
-3.66223140396673
30
0
41
1
10
-1.99503997793928
20
-3.78926935085312
30
0
41
1
10
-1.99503997793928
20
-3.95832365779984
30
0
41
1
10
-1.99503997793928
20
-4.16851549788919
30
0
41
1
10
-1.99503997793928
20
-4.37752560184694
30
0
41
1
10
-1.99503997793928
20
-4.54421502107886
30
0
41
1
10
-1.99503997793928
20
-4.66878844332788
30
0
41
1
10
-1.99503997793928
20
-4.79299519854527
30
0
41
1
10
-1.99503997793928
20
-4.95821801342223
30
0
41
1
10
-1.99503997793928
20
-5.16358497720142
30
0
41
1
10
-1.99503997793928
20
-5.40863364784667
30
0
41
1
10
-1.99503997793928
20
-5.65215640891225
30
0
41
1
10
-1.99503997793928
20
-5.89413750153935
30
0
41
1
10
-1.99503997793928
20
-6.13456381441384
30
0
41
1
10
-1.99503997793928
20
-6.37342317953835
30
0
41
1
10
-1.99503997793928
20
-6.61070492919379
30
0
41
1
10
-1.99503997793928
20
-6.84639976314463
30
0
41
1
10
-1.99503997793928
20
-7.08049963775395
30
0
41
1
10
-1.99503997793928
20
-7.31299670603016
30
0
41
1
10
-1.99503997793928
20
-7.54388383469134
30
0
41
1
10
-1.99503997793928
20
-7.77315487290267
30
0
41
1
10
-1.99503997793928
20
-8.00080468509063
30
0
41
1
10
-1.99503997793928
20
-8.22682785520686
30
0
41
1
10
-1.99503997793928
20
-8.4512197921853
30
0
41
1
10
-1.99503997793928
20
-8.67397577159846
30
0
41
1
10
-1.99503997793928
20
-8.96893239301764
30
0
41
1
10
-1.99503997793928
20
-9.33322609823665
30
0
41
1
10
-1.99503997793928
20
-9.76392165975841
30
0
41
1
10
-1.99503997793928
20
-10.1171869828061
30
0
41
1
10
-1.99503997793928
20
-10.3966814549587
30
0
41
1
10
-1.99503997793928
20
-10.6045508126063
30
0
41
1
10
-1.99503997793928
20
-10.8107494592904
30
0
41
1
10
-1.99503997793928
20
-11.0152749978462
30
0
41
1
10
-1.99503997793928
20
-11.2181233670389
30
0
41
1
10
-1.99503997793928
20
-11.4192921870092
30
0
41
1
10
-1.99503997793928
20
-11.6187779427602
30
0
41
1
10
-1.99503997793928
20
-11.8826118620781
30
0
41
1
10
-1.99503997793928
20
-12.1427687977971
30
0
41
1
10
-1.99503997793928
20
-12.3998230071702
30
0
41
1
10
-1.99503997793928
20
-12.5908431584255
30
0
41
1
10
-1.99503997793928
20
-12.7801589212449
30
0
41
1
10
-1.99503997793928
20
-12.9677676529033
30
0
41
1
10
-1.99503997793928
20
-13.1536651432542
30
0
41
1
10
-1.99503997793928
20
-13.3378467396349
30
0
41
1
10
-1.99503997793928
20
-13.520309646993
30
0
41
1
10
-1.99503997793928
20
-13.7010488212408
30
0
41
1
10
-1.99503997793928
20
-13.8800597145162
30
0
41
1
10
-1.99503997793928
20
-14.0573389921213
30
0
41
1
10
-1.99503997793928
20
-14.2328810143213
30
0
41
1
10
-1.99503997793928
20
-14.4646959102749
30
0
41
1
10
-1.99503997793928
20
-14.6927797943809
30
0
41
1
10
-1.99503997793928
20
-14.9175842595472
30
0
41
1
10
-1.99503997793928
20
-15.1400402265273
30
0
41
1
10
-1.99503997793928
20
-15.3587351142266
30
0
41
1
10
-1.99503997793928
20
-15.574095422854
30
0
41
1
10
-1.99503997793928
20
-15.733775855726
30
0
41
1
10
-1.99503997793928
20
-15.8916657661057
30
0
41
1
10
-1.99503997793928
20
-16.0998603532658
30
0
41
1
10
-1.99503997793928
20
-16.3042398246232
30
0
41
1
10
-1.99503997793928
20
-16.5051894037979
30
0
41
1
10
-1.99503997793928
20
-16.6540265683948
30
0
41
1
10
-1.99503997793928
20
-16.8010329188422
30
0
41
1
10
-1.99503997793928
20
-16.9946550481209
30
0
41
1
10
-1.99503997793928
20
-17.1843924611907
30
0
41
1
10
-1.99503997793928
20
-17.3705928023913
30
0
41
1
10
-1.99503997793928
20
-17.5083251903719
30
0
41
1
10
-1.99503997793928
20
-17.6441786252734
30
0
41
1
10
-1.99503997793928
20
-17.8228590748674
30
0
41
1
10
-1.99503997793928
20
-17.9975683374733
30
0
41
1
10
-1.99503997793928
20
-18.1686188521771
30
0
41
1
10
-1.99503997793928
20
-18.2949373683468
30
0
41
1
10
-1.99503997793928
20
-18.4193198181252
30
0
41
1
10
-1.99503997793928
20
-18.5826226298873
30
0
41
1
10
-1.99503997793928
20
-18.7418497326446
30
0
41
1
10
-1.99503997793928
20
-18.8972761707097
30
0
41
1
10
-1.99503997793928
20
-19.0118150097952
30
0
41
1
10
-1.99503997793928
20
-19.1243510467918
30
0
41
1
10
-1.99503997793928
20
-19.2717625055688
30
0
41
1
10
-1.99503997793928
20
-19.414970513124
30
0
41
1
10
-1.99503997793928
20
-19.5542140249085
30
0
41
1
10
-1.99503997793928
20
-19.6565420567613
30
0
41
1
10
-1.99503997793928
20
-19.7567881415466
30
0
41
1
10
-1.99503997793928
20
-19.8549381550126
30
0
41
1
10
-1.99503997793928
20
-19.9509751416388
30
0
41
1
10
-1.99503997793928
20
-20.0448848362119
30
0
41
1
10
-1.99503997793928
20
-20.1366515718167
30
0
41
1
10
-1.99503997793928
20
-20.2262576202058
30
0
41
1
10
-1.99503997793928
20
-20.3136874196731
30
0
41
1
10
-1.99503997793928
20
-20.398923430088
30
0
41
1
10
-1.99503997793928
20
-20.4819464863244
30
0
41
1
10
-1.99503997793928
20
-20.5627395868944
30
0
41
1
10
-1.99503997793928
20
-20.6412830627252
30
0
41
1
10
-1.99503997793928
20
-20.7430172190698
30
0
41
1
10
-1.99503997793928
20
-20.8400664428987
30
0
41
1
10
-1.99503997793928
20
-20.9325549572362
30
0
41
1
10
-1.99503997793928
20
-20.9995415068112
30
0
41
1
10
-1.99503997793928
20
-21.064149408511
30
0
41
1
10
-1.99503997793928
20
-21.1263556466612
30
0
41
1
10
-1.99503997793928
20
-21.1861355753666
30
0
41
1
10
-1.99503997793928
20
-21.262600218376
30
0
41
1
10
-1.99503997793928
20
-21.3340243512753
30
0
41
1
10
-1.99503997793928
20
-21.4004603045828
30
0
41
1
10
-1.99503997793928
20
-21.4477036445725
30
0
41
1
10
-1.99503997793928
20
-21.4923513092323
30
0
41
1
10
-1.99503997793928
20
-21.5484022410126
30
0
41
1
10
-1.99503997793928
20
-21.5990695510926
30
0
41
1
10
-1.99503997793928
20
-21.6443396610233
30
0
41
1
10
-1.99503997793928
20
-21.6755105092645
30
0
41
1
10
-1.99503997793928
20
-21.7038764495607
30
0
41
1
10
-1.99503997793928
20
-21.7293964429163
30
0
41
1
10
-1.99503997793928
20
-21.7520292420694
30
0
41
1
10
-1.99503997793928
20
-21.7717309018817
30
0
41
1
10
-1.99503997793928
20
-21.7884557380592
30
0
41
1
10
-1.99503997793928
20
-21.8021565310045
30
0
41
1
10
-1.99503997793928
20
-21.8127830851058
30
0
41
1
10
-1.99503997793928
20
-21.8202838734724
30
0
41
1
10
-1.99503997793926
20
-21.8245113283157
30
0
41
1
10
-1.99503997793926
20
-21.8252773406769
30
0
41
1
10
-1.99503997793926
20
-21.8251671051265
30
0
0
SPLINE
5
15A
100
AcDbEntity
8
SK1
62
256
6
ByLayer
370
18
48
1
60
0
100
AcDbSpline
70
4
71
3
72
295
73
291
40
0
40
0
40
0
40
0
40
0.0029463038585294
40
0.0065222287416001
40
0.0100981536246709
40
0.0136740785077417
40
0.0172500033908125
40
0.0208259282738833
40
0.0279777780400249
40
0.0351296278061665
40
0.042281477572308
40
0.0458574024553788
40
0.0494333273384496
40
0.0530092522215204
40
0.0565851771045912
40
0.0637370268707328
40
0.0673129517538036
40
0.0708888766368743
40
0.0744648015199451
40
0.0780407264030159
40
0.0816166512860867
40
0.0851925761691575
40
0.0923444259352991
40
0.0959203508183699
40
0.0994962757014407
40
0.103072200584511
40
0.106648125467582
40
0.110224050350653
40
0.113799975233724
40
0.117375900116795
40
0.120951824999865
40
0.124527749882936
40
0.128103674766007
40
0.131679599649078
40
0.135255524532149
40
0.138831449415219
40
0.14240737429829
40
0.149559224064432
40
0.153135148947502
40
0.156711073830573
40
0.158499036272109
40
0.160286998713644
40
0.163862923596715
40
0.171014773362856
40
0.174590698245927
40
0.178166623128998
40
0.181742548012069
40
0.18531847289514
40
0.192470322661281
40
0.196046247544352
40
0.199622172427423
40
0.201410134868958
40
0.203198097310493
40
0.206774022193564
40
0.213925871959706
40
0.217501796842777
40
0.221077721725847
40
0.224653646608918
40
0.228229571491989
40
0.235381421258131
40
0.238957346141202
40
0.242533271024272
40
0.244321233465808
40
0.246109195907343
40
0.249685120790414
40
0.253261045673485
40
0.256836970556555
40
0.258624932998091
40
0.260412895439626
40
0.263988820322697
40
0.267564745205768
40
0.271140670088839
40
0.274716594971909
40
0.27829251985498
40
0.281868444738051
40
0.285444369621122
40
0.289020294504192
40
0.292596219387263
40
0.296172144270334
40
0.299748069153405
40
0.303323994036476
40
0.306899918919546
40
0.310475843802617
40
0.314051768685688
40
0.32120361845183
40
0.3247795433349
40
0.328355468217971
40
0.331931393101042
40
0.335507317984113
40
0.339083242867184
40
0.342659167750254
40
0.346235092633325
40
0.349811017516396
40
0.356962867282538
40
0.364114717048679
40
0.371266566814821
40
0.374842491697891
40
0.378418416580962
40
0.381994341464033
40
0.385570266347104
40
0.389146191230175
40
0.392722116113245
40
0.396298040996316
40
0.399873965879387
40
0.403449890762458
40
0.407025815645528
40
0.410601740528599
40
0.41417766541167
40
0.417753590294741
40
0.421329515177812
40
0.424905440060882
40
0.428481364943953
40
0.432057289827024
40
0.43384525226856
40
0.435633214710095
40
0.43742117715163
40
0.439209139593166
40
0.442785064476236
40
0.446360989359307
40
0.448148951800843
40
0.449936914242378
40
0.451724876683913
40
0.453512839125449
40
0.45708876400852
40
0.458876726450055
40
0.46066468889159
40
0.462452651333126
40
0.464240613774661
40
0.466028576216196
40
0.467816538657732
40
0.469604501099267
40
0.471392463540803
40
0.473180425982338
40
0.474968388423874
40
0.476756350865409
40
0.478544313306944
40
0.48033227574848
40
0.482120238190015
40
0.48390820063155
40
0.485696163073086
40
0.487484125514621
40
0.489272087956157
40
0.491060050397692
40
0.492848012839228
40
0.494635975280763
40
0.496423937722298
40
0.498211900163834
40
0.499999862605369
40
0.501787825046904
40
0.50357578748844
40
0.505363749929975
40
0.507151712371511
40
0.508939674813046
40
0.510727637254581
40
0.512515599696117
40
0.514303562137652
40
0.516091524579188
40
0.517879487020723
40
0.519667449462258
40
0.521455411903794
40
0.523243374345329
40
0.525031336786865
40
0.5268192992284
40
0.528607261669935
40
0.530395224111471
40
0.532183186553006
40
0.533971148994542
40
0.535759111436077
40
0.537547073877612
40
0.539335036319148
40
0.541122998760683
40
0.542910961202218
40
0.546486886085289
40
0.548274848526825
40
0.55006281096836
40
0.551850773409896
40
0.553638735851431
40
0.557214660734502
40
0.560790585617572
40
0.562578548059108
40
0.564366510500643
40
0.566154472942179
40
0.567942435383714
40
0.571518360266785
40
0.575094285149856
40
0.578670210032926
40
0.582246134915997
40
0.585822059799068
40
0.589397984682139
40
0.59297390956521
40
0.59654983444828
40
0.600125759331351
40
0.603701684214422
40
0.607277609097493
40
0.610853533980564
40
0.614429458863634
40
0.618005383746705
40
0.621581308629776
40
0.625157233512847
40
0.628733158395917
40
0.635885008162059
40
0.643036857928201
40
0.650188707694342
40
0.653764632577413
40
0.657340557460484
40
0.660916482343555
40
0.664492407226625
40
0.668068332109696
40
0.671644256992767
40
0.675220181875838
40
0.678796106758909
40
0.68594795652505
40
0.689523881408121
40
0.693099806291192
40
0.696675731174262
40
0.700251656057333
40
0.703827580940404
40
0.707403505823475
40
0.710979430706546
40
0.714555355589616
40
0.718131280472687
40
0.721707205355758
40
0.725283130238829
40
0.7288590551219
40
0.736010904888041
40
0.739586829771112
40
0.743162754654183
40
0.750314604420324
40
0.753890529303395
40
0.757466454186466
40
0.761042379069537
40
0.764618303952607
40
0.771770153718749
40
0.77534607860182
40
0.778922003484891
40
0.782497928367961
40
0.786073853251032
40
0.793225703017174
40
0.796801627900245
40
0.800377552783315
40
0.803953477666386
40
0.807529402549457
40
0.814681252315598
40
0.818257177198669
40
0.82183310208174
40
0.825409026964811
40
0.828984951847882
40
0.836136801614023
40
0.839712726497094
40
0.843288651380165
40
0.846864576263236
40
0.850440501146306
40
0.857592350912448
40
0.861168275795519
40
0.86474420067859
40
0.86832012556166
40
0.871896050444731
40
0.875471975327802
40
0.879047900210873
40
0.882623825093944
40
0.886199749977014
40
0.889775674860085
40
0.893351599743156
40
0.896927524626227
40
0.900503449509297
40
0.904079374392368
40
0.907655299275439
40
0.914807149041581
40
0.918383073924651
40
0.921958998807722
40
0.925534923690793
40
0.929110848573864
40
0.932686773456935
40
0.936262698340005
40
0.943414548106147
40
0.946990472989218
40
0.950566397872288
40
0.954142322755359
40
0.95771824763843
40
0.964870097404572
40
0.968446022287642
40
0.972021947170713
40
0.975597872053784
40
0.979173796936855
40
0.982749721819926
40
0.986325646702996
40
0.989901571586067
40
0.993477496469138
40
0.997053421352209
40
1
40
1
40
1
40
1
41
1
10
-2.19999999999996
20
22.0135196685538
30
0
41
1
10
-2.19999999999996
20
22.0117276032611
30
0
41
1
10
-2.20000000000002
20
22.0069596861707
30
0
41
1
10
-2.19999999999999
20
21.9968726461305
30
0
41
1
10
-2.19999999999999
20
21.9830583750197
30
0
41
1
10
-2.19999999999999
20
21.9661971621578
30
0
41
1
10
-2.19999999999999
20
21.9463373083127
30
0
41
1
10
-2.19999999999999
20
21.9159230944434
30
0
41
1
10
-2.19999999999999
20
21.870633664349
30
0
41
1
10
-2.19999999999999
20
21.8049949078793
30
0
41
1
10
-2.19999999999999
20
21.7411390111089
30
0
41
1
10
-2.19999999999999
20
21.6847072709128
30
0
41
1
10
-2.19999999999999
20
21.6397397481888
30
0
41
1
10
-2.19999999999999
20
21.5921615264853
30
0
41
1
10
-2.19999999999999
20
21.5252891523049
30
0
41
1
10
-2.19999999999999
20
21.453308753177
30
0
41
1
10
-2.19999999999999
20
21.3763547276269
30
0
41
1
10
-2.19999999999999
20
21.3161703964091
30
0
41
1
10
-2.19999999999999
20
21.2535469243879
30
0
41
1
10
-2.19999999999999
20
21.1885090229233
30
0
41
1
10
-2.19999999999999
20
21.121080083473
30
0
41
1
10
-2.19999999999999
20
21.0280237507364
30
0
41
1
10
-2.19999999999999
20
20.9302657445266
30
0
41
1
10
-2.19999999999999
20
20.8279188369072
30
0
41
1
10
-2.19999999999999
20
20.7488739070252
30
0
41
1
10
-2.19999999999999
20
20.6675681841826
30
0
41
1
10
-2.19999999999999
20
20.5840212184218
30
0
41
1
10
-2.19999999999999
20
20.4982502525025
30
0
41
1
10
-2.19999999999999
20
20.4102747128949
30
0
41
1
10
-2.19999999999999
20
20.3201119071544
30
0
41
1
10
-2.19999999999999
20
20.2277776663919
30
0
41
1
10
-2.19999999999999
20
20.1332899477274
30
0
41
1
10
-2.19999999999999
20
20.0366642357894
30
0
41
1
10
-2.19999999999999
20
19.9379151599299
30
0
41
1
10
-2.19999999999999
20
19.8370591957147
30
0
41
1
10
-2.19999999999999
20
19.7341102362335
30
0
41
1
10
-2.19999999999999
20
19.5940778412012
30
0
41
1
10
-2.19999999999999
20
19.4499005336558
30
0
41
1
10
-2.19999999999999
20
19.3016622310533
30
0
41
1
10
-2.19999999999999
20
19.2073184270571
30
0
41
1
10
-2.19999999999999
20
19.1308417758755
30
0
41
1
10
-2.19999999999999
20
19.0536957086557
30
0
41
1
10
-2.19999999999999
20
18.9169360704622
30
0
41
1
10
-2.19999999999999
20
18.756645794641
30
0
41
1
10
-2.19999999999999
20
18.5924362845557
30
0
41
1
10
-2.19999999999999
20
18.4673177976698
30
0
41
1
10
-2.19999999999999
20
18.3402521463352
30
0
41
1
10
-2.19999999999999
20
18.1682545122203
30
0
41
1
10
-2.19999999999999
20
17.9923842356821
30
0
41
1
10
-2.19999999999999
20
17.8127164551587
30
0
41
1
10
-2.19999999999999
20
17.6988333809735
30
0
41
1
10
-2.19999999999999
20
17.606787767091
30
0
41
1
10
-2.19999999999999
20
17.5141131161323
30
0
41
1
10
-2.19999999999999
20
17.3502824417036
30
0
41
1
10
-2.19999999999999
20
17.1592829447589
30
0
41
1
10
-2.19999999999999
20
16.9645867974536
30
0
41
1
10
-2.19999999999999
20
16.8167088060477
30
0
41
1
10
-2.19999999999999
20
16.6669871400996
30
0
41
1
10
-2.19999999999999
20
16.4649164953067
30
0
41
1
10
-2.19999999999999
20
16.2591646002876
30
0
41
1
10
-2.19999999999999
20
16.049802831716
30
0
41
1
10
-2.19999999999999
20
15.9174340084588
30
0
41
1
10
-2.19999999999999
20
15.8106442286412
30
0
41
1
10
-2.19999999999999
20
15.7032538676567
30
0
41
1
10
-2.19999999999999
20
15.567882396309
30
0
41
1
10
-2.19999999999999
20
15.4036502143979
30
0
41
1
10
-2.19999999999999
20
15.2652965264295
30
0
41
1
10
-2.19999999999999
20
15.1537302031574
30
0
41
1
10
-2.19999999999999
20
15.0415708470876
30
0
41
1
10
-2.19999999999999
20
14.90025131083
30
0
41
1
10
-2.19999999999999
20
14.7289012367181
30
0
41
1
10
-2.19999999999999
20
14.5557843226631
30
0
41
1
10
-2.19999999999999
20
14.3809062427341
30
0
41
1
10
-2.19999999999999
20
14.2042700822291
30
0
41
1
10
-2.19999999999999
20
14.0258803741545
30
0
41
1
10
-2.19999999999999
20
13.8457420253844
30
0
41
1
10
-2.19999999999999
20
13.6638579861817
30
0
41
1
10
-2.19999999999999
20
13.4802328481714
30
0
41
1
10
-2.19999999999999
20
13.2948705974071
30
0
41
1
10
-2.19999999999999
20
13.1077737485311
30
0
41
1
10
-2.19999999999999
20
12.9189467805057
30
0
41
1
10
-2.19999999999999
20
12.728392778749
30
0
41
1
10
-2.19999999999999
20
12.5361142588231
30
0
41
1
10
-2.19999999999999
20
12.2774598592137
30
0
41
1
10
-2.19999999999999
20
12.0153352592314
30
0
41
1
10
-2.19999999999999
20
11.7498207258852
30
0
41
1
10
-2.19999999999999
20
11.5489655826483
30
0
41
1
10
-2.19999999999999
20
11.3464032807099
30
0
41
1
10
-2.19999999999999
20
11.1421359853758
30
0
41
1
10
-2.19999999999999
20
10.9361655879759
30
0
41
1
10
-2.19999999999999
20
10.7284950970913
30
0
41
1
10
-2.19999999999999
20
10.5191258614377
30
0
41
1
10
-2.19999999999999
20
10.2377184130835
30
0
41
1
10
-2.19999999999999
20
9.88169304970987
30
0
41
1
10
-2.19999999999999
20
9.44771865839311
30
0
41
1
10
-2.19999999999999
20
9.08043848955603
30
0
41
1
10
-2.19999999999999
20
8.78327689677775
30
0
41
1
10
-2.19999999999999
20
8.55871419535617
30
0
41
1
10
-2.19999999999999
20
8.33247380011301
30
0
41
1
10
-2.19999999999999
20
8.10455852701506
30
0
41
1
10
-2.19999999999999
20
7.87497060194644
30
0
41
1
10
-2.19999999999999
20
7.6437128367312
30
0
41
1
10
-2.19999999999999
20
7.41078884464241
30
0
41
1
10
-2.19999999999999
20
7.17620220160032
30
0
41
1
10
-2.19999999999999
20
6.93995692090419
30
0
41
1
10
-2.19999999999999
20
6.70205758660663
30
0
41
1
10
-2.19999999999999
20
6.46250918569618
30
0
41
1
10
-2.19999999999999
20
6.2213178400012
30
0
41
1
10
-2.19999999999999
20
5.97849049576266
30
0
41
1
10
-2.19999999999999
20
5.73403521575827
30
0
41
1
10
-2.19999999999999
20
5.48796107357256
30
0
41
1
10
-2.19999999999999
20
5.24027911118978
30
0
41
1
10
-2.19999999999999
20
5.03253661023487
30
0
41
1
10
-2.19999999999999
20
4.86557359122418
30
0
41
1
10
-2.19999999999999
20
4.73994908127321
30
0
41
1
10
-2.19999999999999
20
4.61393371339017
30
0
41
1
10
-2.19999999999999
20
4.44540774959788
30
0
41
1
10
-2.19999999999999
20
4.23375652596863
30
0
41
1
10
-2.19999999999999
20
4.02083961713782
30
0
41
1
10
-2.19999999999999
20
3.84978439152417
30
0
41
1
10
-2.19999999999999
20
3.72111342731068
30
0
41
1
10
-2.19999999999999
20
3.59207749308624
30
0
41
1
10
-2.19999999999999
20
3.41956369464535
30
0
41
1
10
-2.19999999999999
20
3.24629481959221
30
0
41
1
10
-2.19999999999999
20
3.0723836150739
30
0
41
1
10
-2.19999999999999
20
2.94160046512798
30
0
41
1
10
-2.19999999999999
20
2.81048647644627
30
0
41
1
10
-2.19999999999999
20
2.67904892732182
30
0
41
1
10
-2.19999999999999
20
2.54729562722176
30
0
41
1
10
-2.19999999999999
20
2.41523551097489
30
0
41
1
10
-2.19999999999999
20
2.28287740252156
30
0
41
1
10
-2.19999999999999
20
2.15023166945255
30
0
41
1
10
-2.19999999999999
20
2.01730873413072
30
0
41
1
10
-2.19999999999999
20
1.88412021099791
30
0
41
1
10
-2.19999999999999
20
1.75067841854351
30
0
41
1
10
-2.19999999999999
20
1.61699634722072
30
0
41
1
10
-2.19999999999999
20
1.48308821885627
30
0
41
1
10
-2.19999999999999
20
1.34896859254377
30
0
41
1
10
-2.19999999999999
20
1.21465350310541
30
0
41
1
10
-2.19999999999999
20
1.0801592162689
30
0
41
1
10
-2.19999999999999
20
0.945503442662783
30
0
41
1
10
-2.19999999999999
20
0.810704113119073
30
0
41
1
10
-2.19999999999999
20
0.675780421912322
30
0
41
1
10
-2.19999999999999
20
0.540751787789588
30
0
41
1
10
-2.19999999999999
20
0.405638599098921
30
0
41
1
10
-2.19999999999999
20
0.270461428271432
30
0
41
1
10
-2.19999999999999
20
0.135241462279822
30
0
41
1
10
-2.19999999999999
20
-5.3654787E-09
30
0
41
1
10
-2.19999999999999
20
-0.135241472589996
30
0
41
1
10
-2.19999999999999
20
-0.270461437853925
30
0
41
1
10
-2.19999999999999
20
-0.405638608907907
30
0
41
1
10
-2.19999999999999
20
-0.540751798686529
30
0
41
1
10
-2.19999999999999
20
-0.675780432522174
30
0
41
1
10
-2.19999999999999
20
-0.810704122044939
30
0
41
1
10
-2.19999999999999
20
-0.945503451789534
30
0
41
1
10
-2.19999999999999
20
-1.08015922751395
30
0
41
1
10
-2.19999999999999
20
-1.21465351395383
30
0
41
1
10
-2.19999999999999
20
-1.34896860046499
30
0
41
1
10
-2.19999999999999
20
-1.48308822685564
30
0
41
1
10
-2.19999999999999
20
-1.61699635855226
30
0
41
1
10
-2.19999999999999
20
-1.75067843002711
30
0
41
1
10
-2.19999999999999
20
-1.88412021847037
30
0
41
1
10
-2.19999999999999
20
-2.01730874020455
30
0
41
1
10
-2.19999999999999
20
-2.15023167925048
30
0
41
1
10
-2.19999999999999
20
-2.28287741514001
30
0
41
1
10
-2.19999999999999
20
-2.41523552035437
30
0
41
1
10
-2.19999999999999
20
-2.54729563151926
30
0
41
1
10
-2.19999999999999
20
-2.67904893291683
30
0
41
1
10
-2.19999999999999
20
-2.81048648769612
30
0
41
1
10
-2.19999999999999
20
-2.94160047796311
30
0
41
1
10
-2.19999999999999
20
-3.072383622975
30
0
41
1
10
-2.19999999999999
20
-3.24629481975686
30
0
41
1
10
-2.19999999999999
20
-3.41956370437865
30
0
41
1
10
-2.19999999999999
20
-3.59207750684843
30
0
41
1
10
-2.19999999999999
20
-3.72111343644576
30
0
41
1
10
-2.19999999999999
20
-3.84978439330678
30
0
41
1
10
-2.19999999999999
20
-4.020839617489
30
0
41
1
10
-2.19999999999999
20
-4.23375654375474
30
0
41
1
10
-2.19999999999999
20
-4.44540775759583
30
0
41
1
10
-2.19999999999999
20
-4.61393371339872
30
0
41
1
10
-2.19999999999999
20
-4.73994907984499
30
0
41
1
10
-2.19999999999999
20
-4.86557359653659
30
0
41
1
10
-2.19999999999999
20
-5.03253662624778
30
0
41
1
10
-2.19999999999999
20
-5.24027911954084
30
0
41
1
10
-2.19999999999999
20
-5.48796106514416
30
0
41
1
10
-2.19999999999999
20
-5.73403522651989
30
0
41
1
10
-2.19999999999999
20
-5.97849051253721
30
0
41
1
10
-2.19999999999999
20
-6.22131783489101
30
0
41
1
10
-2.19999999999999
20
-6.46250917346816
30
0
41
1
10
-2.19999999999999
20
-6.70205756880287
30
0
41
1
10
-2.19999999999999
20
-6.93995689241024
30
0
41
1
10
-2.19999999999999
20
-7.17620223308296
30
0
41
1
10
-2.19999999999999
20
-7.41078904293681
30
0
41
1
10
-2.19999999999999
20
-7.64371312168015
30
0
41
1
10
-2.19999999999999
20
-7.87497052861914
30
0
41
1
10
-2.19999999999999
20
-8.10455846042146
30
0
41
1
10
-2.19999999999999
20
-8.33247384441506
30
0
41
1
10
-2.19999999999999
20
-8.55871423477029
30
0
41
1
10
-2.19999999999999
20
-8.78327691067398
30
0
41
1
10
-2.19999999999999
20
-9.08043846702645
30
0
41
1
10
-2.19999999999999
20
-9.44771866001565
30
0
41
1
10
-2.19999999999999
20
-9.88169305528194
30
0
41
1
10
-2.19999999999999
20
-10.2377183913447
30
0
41
1
10
-2.19999999999999
20
-10.5191258633122
30
0
41
1
10
-2.19999999999999
20
-10.7284951094206
30
0
41
1
10
-2.19999999999999
20
-10.9361655882296
30
0
41
1
10
-2.19999999999999
20
-11.1421359694817
30
0
41
1
10
-2.19999999999999
20
-11.3464032666245
30
0
41
1
10
-2.19999999999999
20
-11.5489655840494
30
0
41
1
10
-2.19999999999999
20
-11.7498207382014
30
0
41
1
10
-2.19999999999999
20
-12.015335258712
30
0
41
1
10
-2.19999999999999
20
-12.277459839655
30
0
41
1
10
-2.19999999999999
20
-12.5361142561418
30
0
41
1
10
-2.19999999999999
20
-12.7283927892775
30
0
41
1
10
-2.19999999999999
20
-12.9189467887917
30
0
41
1
10
-2.19999999999999
20
-13.1077737445537
30
0
41
1
10
-2.19999999999999
20
-13.2948705838035
30
0
41
1
10
-2.19999999999999
20
-13.4802328404438
30
0
41
1
10
-2.19999999999999
20
-13.6638579908945
30
0
41
1
10
-2.19999999999999
20
-13.845742035678
30
0
41
1
10
-2.19999999999999
20
-14.0258803815961
30
0
41
1
10
-2.19999999999999
20
-14.2042701267483
30
0
41
1
10
-2.19999999999999
20
-14.3809064511142
30
0
41
1
10
-2.19999999999999
20
-14.61406817927
30
0
41
1
10
-2.19999999999999
20
-14.8437340716545
30
0
41
1
10
-2.19999999999999
20
-15.069828938707
30
0
41
1
10
-2.19999999999999
20
-15.2935559429894
30
0
41
1
10
-2.19999999999999
20
-15.513744330902
30
0
41
1
10
-2.19999999999999
20
-15.7303232767805
30
0
41
1
10
-2.19999999999999
20
-15.8909649274654
30
0
41
1
10
-2.19999999999999
20
-16.0498023362736
30
0
41
1
10
-2.19999999999999
20
-16.2591647559547
30
0
41
1
10
-2.19999999999999
20
-16.4649171124643
30
0
41
1
10
-2.19999999999999
20
-16.666987304737
30
0
41
1
10
-2.19999999999999
20
-16.8167085043733
30
0
41
1
10
-2.19999999999999
20
-16.9645862898264
30
0
41
1
10
-2.19999999999999
20
-17.1592828976246
30
0
41
1
10
-2.19999999999999
20
-17.3502835148979
30
0
41
1
10
-2.19999999999999
20
-17.5375147595292
30
0
41
1
10
-2.19999999999999
20
-17.676060438985
30
0
41
1
10
-2.19999999999999
20
-17.8127154575359
30
0
41
1
10
-2.19999999999999
20
-17.9923842415009
30
0
41
1
10
-2.19999999999999
20
-18.1682547291306
30
0
41
1
10
-2.19999999999999
20
-18.3402522143585
30
0
41
1
10
-2.19999999999999
20
-18.4673177032107
30
0
41
1
10
-2.19999999999999
20
-18.5924361073221
30
0
41
1
10
-2.19999999999999
20
-18.7566457425986
30
0
41
1
10
-2.19999999999999
20
-18.9169371900015
30
0
41
1
10
-2.19999999999999
20
-19.0732305996174
30
0
41
1
10
-2.19999999999999
20
-19.1884526890887
30
0
41
1
10
-2.19999999999999
20
-19.3016611759423
30
0
41
1
10
-2.19999999999999
20
-19.4499005391959
30
0
41
1
10
-2.19999999999999
20
-19.5940785255289
30
0
41
1
10
-2.19999999999999
20
-19.7341104289282
30
0
41
1
10
-2.19999999999999
20
-19.8370589164793
30
0
41
1
10
-2.19999999999999
20
-19.9379146863563
30
0
41
1
10
-2.19999999999999
20
-20.0366640227898
30
0
41
1
10
-2.19999999999999
20
-20.133289903145
30
0
41
1
10
-2.19999999999999
20
-20.2277776697998
30
0
41
1
10
-2.19999999999999
20
-20.3201119082527
30
0
41
1
10
-2.19999999999999
20
-20.4102747220553
30
0
41
1
10
-2.19999999999999
20
-20.4982502752196
30
0
41
1
10
-2.19999999999999
20
-20.5840212474559
30
0
41
1
10
-2.19999999999999
20
-20.6675682022903
30
0
41
1
10
-2.19999999999999
20
-20.7488739108727
30
0
41
1
10
-2.19999999999999
20
-20.82791883753
30
0
41
1
10
-2.19999999999999
20
-20.9302657657864
30
0
41
1
10
-2.19999999999999
20
-21.0280237880878
30
0
41
1
10
-2.19999999999999
20
-21.1210800961781
30
0
41
1
10
-2.19999999999999
20
-21.1885090211437
30
0
41
1
10
-2.19999999999999
20
-21.2535469320083
30
0
41
1
10
-2.19999999999999
20
-21.3161704250344
30
0
41
1
10
-2.19999999999999
20
-21.3763547664481
30
0
41
1
10
-2.19999999999999
20
-21.4533087676779
30
0
41
1
10
-2.19999999999999
20
-21.5252891448141
30
0
41
1
10
-2.19999999999999
20
-21.5921615531195
30
0
41
1
10
-2.19999999999999
20
-21.6397397916631
30
0
41
1
10
-2.19999999999999
20
-21.6847072964973
30
0
41
1
10
-2.19999999999999
20
-21.7411389990572
30
0
41
1
10
-2.19999999999999
20
-21.7922265879071
30
0
41
1
10
-2.19999999999999
20
-21.8378144981283
30
0
41
1
10
-2.19999999999999
20
-21.8692221254414
30
0
41
1
10
-2.19999999999999
20
-21.8978063777089
30
0
41
1
10
-2.19999999999999
20
-21.9235254752891
30
0
41
1
10
-2.19999999999999
20
-21.9463373508774
30
0
41
1
10
-2.19999999999999
20
-21.9661972037607
30
0
41
1
10
-2.19999999999999
20
-21.9830583809744
30
0
41
1
10
-2.19999999999999
20
-21.9968726399857
30
0
41
1
10
-2.19999999999999
20
-22.0069599964576
30
0
41
1
10
-2.20000000000002
20
-22.0117281243967
30
0
41
1
10
-2.20000000000002
20
-22.0135203311473
30
0
0
SPLINE
5
15B
100
AcDbEntity
8
SK1
62
256
6
ByLayer
370
18
48
1
60
0
100
AcDbSpline
70
4
71
3
72
303
73
299
40
0
40
0
40
0
40
0
40
0.0005133423844899
40
0.0040062587737836
40
0.0074991751630773
40
0.010992091552371
40
0.0144850079416648
40
0.0179779243309585
40
0.0214708407202522
40
0.024963757109546
40
0.0284566734988397
40
0.0319495898881334
40
0.0389354226667208
40
0.0459212554453083
40
0.0529070882238957
40
0.0564000046131895
40
0.0598929210024832
40
0.0633858373917769
40
0.0668787537810706
40
0.0738645865596581
40
0.0773575029489518
40
0.0808504193382455
40
0.0843433357275393
40
0.0878362521168329
40
0.0913291685061266
40
0.0948220848954203
40
0.101807917674008
40
0.105300834063301
40
0.108793750452595
40
0.112286666841889
40
0.115779583231183
40
0.119272499620476
40
0.12276541600977
40
0.126258332399064
40
0.129751248788358
40
0.133244165177651
40
0.136737081566945
40
0.140229997956239
40
0.143722914345532
40
0.147215830734826
40
0.15070874712412
40
0.157694579902707
40
0.161187496292001
40
0.164680412681295
40
0.166426870875942
40
0.168173329070588
40
0.171666245459882
40
0.17865207823847
40
0.182144994627763
40
0.185637911017057
40
0.189130827406351
40
0.192623743795645
40
0.199609576574232
40
0.203102492963526
40
0.206595409352819
40
0.208341867547466
40
0.210088325742113
40
0.213581242131407
40
0.220567074909994
40
0.224059991299288
40
0.227552907688582
40
0.231045824077875
40
0.234538740467169
40
0.241524573245757
40
0.24501748963505
40
0.248510406024344
40
0.250256864218991
40
0.252003322413638
40
0.255496238802931
40
0.258989155192225
40
0.262482071581519
40
0.264228529776166
40
0.265974987970813
40
0.269467904360106
40
0.2729608207494
40
0.276453737138694
40
0.279946653527987
40
0.283439569917281
40
0.286932486306575
40
0.290425402695869
40
0.293918319085163
40
0.297411235474456
40
0.30090415186375
40
0.304397068253044
40
0.307889984642337
40
0.311382901031631
40
0.314875817420925
40
0.318368733810219
40
0.325354566588806
40
0.3288474829781
40
0.332340399367393
40
0.335833315756687
40
0.339326232145981
40
0.342819148535275
40
0.346312064924568
40
0.349804981313862
40
0.353297897703156
40
0.360283730481743
40
0.367269563260331
40
0.374255396038918
40
0.377748312428212
40
0.381241228817506
40
0.384734145206799
40
0.388227061596093
40
0.391719977985387
40
0.39521289437468
40
0.398705810763974
40
0.402198727153268
40
0.405691643542561
40
0.409184559931855
40
0.412677476321149
40
0.416170392710443
40
0.419663309099736
40
0.42315622548903
40
0.426649141878324
40
0.430142058267618
40
0.433634974656911
40
0.435381432851558
40
0.437127891046205
40
0.438874349240852
40
0.440620807435499
40
0.444113723824792
40
0.447606640214086
40
0.449353098408733
40
0.45109955660338
40
0.452846014798027
40
0.454592472992674
40
0.458085389381967
40
0.459831847576614
40
0.461578305771261
40
0.463324763965908
40
0.465071222160555
40
0.466817680355202
40
0.468564138549849
40
0.470310596744495
40
0.472057054939142
40
0.473803513133789
40
0.475549971328436
40
0.477296429523083
40
0.47904288771773
40
0.480789345912377
40
0.482535804107024
40
0.48428226230167
40
0.486028720496317
40
0.487775178690964
40
0.489521636885611
40
0.491268095080258
40
0.493014553274905
40
0.494761011469551
40
0.496507469664198
40
0.498253927858845
40
0.500000386053492
40
0.501746844248139
40
0.503493302442786
40
0.505239760637433
40
0.506986218832079
40
0.508732677026726
40
0.510479135221373
40
0.51222559341602
40
0.513972051610667
40
0.515718509805314
40
0.517464967999961
40
0.519211426194607
40
0.520957884389254
40
0.522704342583901
40
0.524450800778548
40
0.526197258973195
40
0.527943717167842
40
0.529690175362489
40
0.531436633557136
40
0.533183091751782
40
0.534929549946429
40
0.536676008141076
40
0.538422466335723
40
0.54016892453037
40
0.541915382725016
40
0.545408299114311
40
0.547154757308957
40
0.548901215503604
40
0.550647673698251
40
0.552394131892898
40
0.555887048282192
40
0.559379964671485
40
0.561126422866132
40
0.562872881060779
40
0.564619339255426
40
0.566365797450073
40
0.569858713839367
40
0.57335163022866
40
0.576844546617954
40
0.580337463007248
40
0.583830379396541
40
0.587323295785835
40
0.590816212175129
40
0.594309128564423
40
0.597802044953716
40
0.60129496134301
40
0.604787877732304
40
0.608280794121597
40
0.611773710510891
40
0.615266626900185
40
0.618759543289479
40
0.622252459678772
40
0.625745376068066
40
0.632731208846654
40
0.639717041625241
40
0.646702874403828
40
0.650195790793122
40
0.653688707182416
40
0.65718162357171
40
0.660674539961003
40
0.664167456350297
40
0.667660372739591
40
0.671153289128885
40
0.674646205518178
40
0.681632038296766
40
0.685124954686059
40
0.688617871075353
40
0.692110787464647
40
0.695603703853941
40
0.699096620243234
40
0.702589536632528
40
0.706082453021822
40
0.709575369411116
40
0.713068285800409
40
0.716561202189703
40
0.720054118578997
40
0.72354703496829
40
0.730532867746878
40
0.734025784136172
40
0.737518700525465
40
0.744504533304053
40
0.747997449693346
40
0.75149036608264
40
0.754983282471934
40
0.758476198861228
40
0.765462031639815
40
0.768954948029109
40
0.772447864418402
40
0.775940780807696
40
0.77943369719699
40
0.786419529975577
40
0.789912446364871
40
0.793405362754165
40
0.796898279143458
40
0.800391195532752
40
0.80737702831134
40
0.810869944700633
40
0.814362861089927
40
0.817855777479221
40
0.821348693868514
40
0.828334526647102
40
0.831827443036396
40
0.835320359425689
40
0.838813275814983
40
0.842306192204277
40
0.849292024982864
40
0.852784941372158
40
0.856277857761452
40
0.859770774150746
40
0.863263690540039
40
0.866756606929333
40
0.870249523318627
40
0.87374243970792
40
0.877235356097214
40
0.880728272486508
40
0.884221188875802
40
0.887714105265095
40
0.891207021654389
40
0.894699938043683
40
0.898192854432976
40
0.905178687211564
40
0.908671603600858
40
0.912164519990151
40
0.915657436379445
40
0.919150352768739
40
0.922643269158033
40
0.926136185547326
40
0.933122018325914
40
0.936614934715207
40
0.940107851104501
40
0.943600767493795
40
0.947093683883088
40
0.954079516661676
40
0.95757243305097
40
0.961065349440263
40
0.964558265829557
40
0.968051182218851
40
0.971544098608144
40
0.975037014997438
40
0.978529931386732
40
0.982022847776026
40
0.98551576416532
40
0.989008680554613
40
0.992501596943907
40
0.995994513333201
40
0.999487429722494
40
1
40
1
40
1
40
1
41
1
10
-36.5
20
21.155577608204
30
0
41
1
10
-36.5
20
21.1557858215842
30
0
41
1
10
-36.5
20
21.1573191512582
30
0
41
1
10
-36.5
20
21.1588544331657
30
0
41
1
10
-36.5
20
21.1578038223016
30
0
41
1
10
-36.5
20
21.1536126358382
30
0
41
1
10
-36.5
20
21.1463317213717
30
0
41
1
10
-36.5
20
21.1360112678938
30
0
41
1
10
-36.5
20
21.1226986497682
30
0
41
1
10
-36.5
20
21.1064402158535
30
0
41
1
10
-36.5
20
21.0872797426226
30
0
41
1
10
-36.5
20
21.0578537406018
30
0
41
1
10
-36.5
20
21.0141777773224
30
0
41
1
10
-36.5
20
20.950713074722
30
0
41
1
10
-36.5
20
20.8890285612071
30
0
41
1
10
-36.5
20
20.8342802658871
30
0
41
1
10
-36.5
20
20.7907267804185
30
0
41
1
10
-36.5
20
20.7446291690672
30
0
41
1
10
-36.5
20
20.6796864194097
30
0
41
1
10
-36.5
20
20.6101652524536
30
0
41
1
10
-36.5
20
20.5353747251341
30
0
41
1
10
-36.5
20
20.4769783324059
30
0
41
1
10
-36.5
20
20.4161995895793
30
0
41
1
10
-36.5
20
20.3530628196555
30
0
41
1
10
-36.5
20
20.2875896826626
30
0
41
1
10
-36.5
20
20.1970436182683
30
0
41
1
10
-36.5
20
20.1024192722933
30
0
41
1
10
-36.5
20
20.0027815031752
30
0
41
1
10
-36.5
20
19.9259535572617
30
0
41
1
10
-36.5
20
19.8469141355251
30
0
41
1
10
-36.5
20
19.7656833730651
30
0
41
1
10
-36.5
20
19.6822775189499
30
0
41
1
10
-36.5
20
19.5967148149262
30
0
41
1
10
-36.5
20
19.5090135394173
30
0
41
1
10
-36.5
20
19.4191882696517
30
0
41
1
10
-36.5
20
19.3272561697677
30
0
41
1
10
-36.5
20
19.2332338822713
30
0
41
1
10
-36.5
20
19.1371346902893
30
0
41
1
10
-36.5
20
19.0389746878943
30
0
41
1
10
-36.5
20
18.9387689752275
30
0
41
1
10
-36.5
20
18.8022215100789
30
0
41
1
10
-36.5
20
18.6623317385554
30
0
41
1
10
-36.5
20
18.5177544284038
30
0
41
1
10
-36.5
20
18.4260133905722
30
0
41
1
10
-36.5
20
18.3514175898237
30
0
41
1
10
-36.5
20
18.2761667145511
30
0
41
1
10
-36.5
20
18.1428549391526
30
0
41
1
10
-36.5
20
17.987269645424
30
0
41
1
10
-36.5
20
17.8270700659299
30
0
41
1
10
-36.5
20
17.705205542109
30
0
41
1
10
-36.5
20
17.5814423770725
30
0
41
1
10
-36.5
20
17.4136311437529
30
0
41
1
10
-36.5
20
17.2428939764416
30
0
41
1
10
-36.5
20
17.0675963011876
30
0
41
1
10
-36.5
20
16.9568152899196
30
0
41
1
10
-36.5
20
16.867008999151
30
0
41
1
10
-36.5
20
16.7765898513273
30
0
41
1
10
-36.5
20
16.6168596157572
30
0
41
1
10
-36.5
20
16.4314438788638
30
0
41
1
10
-36.5
20
16.2414991337765
30
0
41
1
10
-36.5
20
16.097474719741
30
0
41
1
10
-36.5
20
15.9516616651348
30
0
41
1
10
-36.5
20
15.7545445351489
30
0
41
1
10
-36.5
20
15.5548613446891
30
0
41
1
10
-36.5
20
15.350663385132
30
0
41
1
10
-36.5
20
15.2219600388738
30
0
41
1
10
-36.5
20
15.1178164480938
30
0
41
1
10
-36.5
20
15.0130920883853
30
0
41
1
10
-36.5
20
14.8814910451208
30
0
41
1
10
-36.5
20
14.7216281332594
30
0
41
1
10
-36.5
20
14.5871530954062
30
0
41
1
10
-36.5
20
14.4783873813363
30
0
41
1
10
-36.5
20
14.3690494022437
30
0
41
1
10
-36.5
20
14.2317235183089
30
0
41
1
10
-36.5
20
14.0650028858775
30
0
41
1
10
-36.5
20
13.8965816080865
30
0
41
1
10
-36.5
20
13.7264689694465
30
0
41
1
10
-36.5
20
13.5546710496343
30
0
41
1
10
-36.5
20
13.3811910773122
30
0
41
1
10
-36.5
20
13.2060373742644
30
0
41
1
10
-36.5
20
13.0292149133303
30
0
41
1
10
-36.5
20
12.850728177302
30
0
41
1
10
-36.5
20
12.6705857874604
30
0
41
1
10
-36.5
20
12.4887914218501
30
0
41
1
10
-36.5
20
12.3053503484466
30
0
41
1
10
-36.5
20
12.1202706879328
30
0
41
1
10
-36.5
20
11.9335555855444
30
0
41
1
10
-36.5
20
11.6819759204348
30
0
41
1
10
-36.5
20
11.4285505376587
30
0
41
1
10
-36.5
20
11.1704660874499
30
0
41
1
10
-36.5
20
10.9756651586938
30
0
41
1
10
-36.5
20
10.7792636737398
30
0
41
1
10
-36.5
20
10.5812696725585
30
0
41
1
10
-36.5
20
10.3816871154457
30
0
41
1
10
-36.5
20
10.180523710493
30
0
41
1
10
-36.5
20
9.9777855843503
30
0
41
1
10
-36.5
20
9.70483576808863
30
0
41
1
10
-36.5
20
9.36101276272154
30
0
41
1
10
-36.5
20
8.94153438933262
30
0
41
1
10
-36.5
20
8.58745787193689
30
0
41
1
10
-36.5
20
8.30004464023602
30
0
41
1
10
-36.5
20
8.08346950394392
30
0
41
1
10
-36.5
20
7.86540102208474
30
0
41
1
10
-36.5
20
7.64585131899614
30
0
41
1
10
-36.5
20
7.42483318088833
30
0
41
1
10
-36.5
20
7.20235735193418
30
0
41
1
10
-36.5
20
6.97843755879967
30
0
41
1
10
-36.5
20
6.75308981071325
30
0
41
1
10
-36.5
20
6.52633035082275
30
0
41
1
10
-36.5
20
6.29817753233076
30
0
41
1
10
-36.5
20
6.06865022444896
30
0
41
1
10
-36.5
20
5.83776884649418
30
0
41
1
10
-36.5
20
5.60555660448861
30
0
41
1
10
-36.5
20
5.37203985998678
30
0
41
1
10
-36.5
20
5.13724579696884
30
0
41
1
10
-36.5
20
4.90120595303733
30
0
41
1
10
-36.5
20
4.70396583147405
30
0
41
1
10
-36.5
20
4.54469638576828
30
0
41
1
10
-36.5
20
4.42533999597057
30
0
41
1
10
-36.5
20
4.30569972295402
30
0
41
1
10
-36.5
20
4.14529336499854
30
0
41
1
10
-36.5
20
3.94531865595207
30
0
41
1
10
-36.5
20
3.74444957084984
30
0
41
1
10
-36.5
20
3.58224076117995
30
0
41
1
10
-36.5
20
3.46078958963511
30
0
41
1
10
-36.5
20
3.33910702605107
30
0
41
1
10
-36.5
20
3.17597085922344
30
0
41
1
10
-36.5
20
3.01425651604552
30
0
41
1
10
-36.5
20
2.85023149996007
30
0
41
1
10
-36.5
20
2.72752154931175
30
0
41
1
10
-36.5
20
2.60463052157442
30
0
41
1
10
-36.5
20
2.48157378937663
30
0
41
1
10
-36.5
20
2.35835621123036
30
0
41
1
10
-36.5
20
2.23499061660055
30
0
41
1
10
-36.5
20
2.11148761081347
30
0
41
1
10
-36.5
20
1.9878545152765
30
0
41
1
10
-36.5
20
1.86410632124097
30
0
41
1
10
-36.5
20
1.74024827700825
30
0
41
1
10
-36.5
20
1.61629526151512
30
0
41
1
10
-36.5
20
1.49225310041959
30
0
41
1
10
-36.5
20
1.3681347814894
30
0
41
1
10
-36.5
20
1.2439473222278
30
0
41
1
10
-36.5
20
1.11970117534864
30
0
41
1
10
-36.5
20
0.995403485642782
30
0
41
1
10
-36.5
20
0.8710629170684
30
0
41
1
10
-36.5
20
0.746686102657719
30
0
41
1
10
-36.5
20
0.622280124115576
30
0
41
1
10
-36.5
20
0.497850420758397
30
0
41
1
10
-36.5
20
0.373402935182185
30
0
41
1
10
-36.5
20
0.248942238793177
30
0
41
1
10
-36.5
20
0.124473257200918
30
0
41
1
10
-36.5
20
9.2462358E-09
30
0
41
1
10
-36.5
20
-0.124473254673973
30
0
41
1
10
-36.5
20
-0.248942266430618
30
0
41
1
10
-36.5
20
-0.373402960091397
30
0
41
1
10
-36.5
20
-0.497850400790554
30
0
41
1
10
-36.5
20
-0.622280094010847
30
0
41
1
10
-36.5
20
-0.746686131491799
30
0
41
1
10
-36.5
20
-0.871062970095124
30
0
41
1
10
-36.5
20
-0.995403468230791
30
0
41
1
10
-36.5
20
-1.11970111692671
30
0
41
1
10
-36.5
20
-1.2439473407681
30
0
41
1
10
-36.5
20
-1.36813486147517
30
0
41
1
10
-36.5
20
-1.49225310642996
30
0
41
1
10
-36.5
20
-1.61629518356963
30
0
41
1
10
-36.5
20
-1.74024825464127
30
0
41
1
10
-36.5
20
-1.86410640329151
30
0
41
1
10
-36.5
20
-1.98785458048855
30
0
41
1
10
-36.5
20
-2.11148756075909
30
0
41
1
10
-36.5
20
-2.2349905278607
30
0
41
1
10
-36.5
20
-2.3583562279822
30
0
41
1
10
-36.5
20
-2.48157389743915
30
0
41
1
10
-36.5
20
-2.60463057106841
30
0
41
1
10
-36.5
20
-2.72752148004804
30
0
41
1
10
-36.5
20
-2.8502314065623
30
0
41
1
10
-36.5
20
-3.01425656877106
30
0
41
1
10
-36.5
20
-3.17597095993784
30
0
41
1
10
-36.5
20
-3.33910698167958
30
0
41
1
10
-36.5
20
-3.46078948211164
30
0
41
1
10
-36.5
20
-3.58224072191865
30
0
41
1
10
-36.5
20
-3.74444967050349
30
0
41
1
10
-36.5
20
-3.94531869048151
30
0
41
1
10
-36.5
20
-4.14529326648051
30
0
41
1
10
-36.5
20
-4.30569969171859
30
0
41
1
10
-36.5
20
-4.42534006396792
30
0
41
1
10
-36.5
20
-4.54469650094606
30
0
41
1
10
-36.5
20
-4.70396584910503
30
0
41
1
10
-36.5
20
-4.90120586463618
30
0
41
1
10
-36.5
20
-5.1372458114655
30
0
41
1
10
-36.5
20
-5.37203995090806
30
0
41
1
10
-36.5
20
-5.6055565552935
30
0
41
1
10
-36.5
20
-5.83776875015036
30
0
41
1
10
-36.5
20
-6.06865017711209
30
0
41
1
10
-36.5
20
-6.29817748211653
30
0
41
1
10
-36.5
20
-6.52633051401983
30
0
41
1
10
-36.5
20
-6.75309051279777
30
0
41
1
10
-36.5
20
-6.97843834484934
30
0
41
1
10
-36.5
20
-7.20235684280951
30
0
41
1
10
-36.5
20
-7.42483229470756
30
0
41
1
10
-36.5
20
-7.64585158611578
30
0
41
1
10
-36.5
20
-7.86540128403743
30
0
41
1
10
-36.5
20
-8.08346945831602
30
0
41
1
10
-36.5
20
-8.3000445299389
30
0
41
1
10
-36.5
20
-8.58745782596952
30
0
41
1
10
-36.5
20
-8.94153442741853
30
0
41
1
10
-36.5
20
-9.36101273737586
30
0
41
1
10
-36.5
20
-9.70483575174822
30
0
41
1
10
-36.5
20
-9.97778564072317
30
0
41
1
10
-36.5
20
-10.18052371466
30
0
41
1
10
-36.5
20
-10.3816870614505
30
0
41
1
10
-36.5
20
-10.5812696339219
30
0
41
1
10
-36.5
20
-10.7792636942327
30
0
41
1
10
-36.5
20
-10.9756652058486
30
0
41
1
10
-36.5
20
-11.1704660987636
30
0
41
1
10
-36.5
20
-11.4285504962004
30
0
41
1
10
-36.5
20
-11.6819759007756
30
0
41
1
10
-36.5
20
-11.9335556252714
30
0
41
1
10
-36.5
20
-12.1202707134412
30
0
41
1
10
-36.5
20
-12.3053503320752
30
0
41
1
10
-36.5
20
-12.4887913848281
30
0
41
1
10
-36.5
20
-12.6705857704289
30
0
41
1
10
-36.5
20
-12.8507281979538
30
0
41
1
10
-36.5
20
-13.0292149436136
30
0
41
1
10
-36.5
20
-13.2060373895955
30
0
41
1
10
-36.5
20
-13.3811911431361
30
0
41
1
10
-36.5
20
-13.5546713888901
30
0
41
1
10
-36.5
20
-13.7264696827893
30
0
41
1
10
-36.5
20
-13.9536769173599
30
0
41
1
10
-36.5
20
-14.176348576809
30
0
41
1
10
-36.5
20
-14.3967384349213
30
0
41
1
10
-36.5
20
-14.6148460432235
30
0
41
1
10
-36.5
20
-14.8284315021107
30
0
41
1
10
-36.5
20
-15.0396227184095
30
0
41
1
10
-36.5
20
-15.1960147192182
30
0
41
1
10
-36.5
20
-15.3506631330603
30
0
41
1
10
-36.5
20
-15.5548624364723
30
0
41
1
10
-36.5
20
-15.7545451164335
30
0
41
1
10
-36.5
20
-15.9516609547094
30
0
41
1
10
-36.5
20
-16.0974737380165
30
0
41
1
10
-36.5
20
-16.241498813278
30
0
41
1
10
-36.5
20
-16.4314450331352
30
0
41
1
10
-36.5
20
-16.6168608854212
30
0
41
1
10
-36.5
20
-16.7995343923805
30
0
41
1
10
-36.5
20
-16.9344844206004
30
0
41
1
10
-36.5
20
-17.0675955495037
30
0
41
1
10
-36.5
20
-17.2428947983014
30
0
41
1
10
-36.5
20
-17.4136313821348
30
0
41
1
10
-36.5
20
-17.5814422063202
30
0
41
1
10
-36.5
20
-17.7052052466277
30
0
41
1
10
-36.5
20
-17.827069915531
30
0
41
1
10
-36.5
20
-17.9872703841193
30
0
41
1
10
-36.5
20
-18.1428562465544
30
0
41
1
10
-36.5
20
-18.2953166794047
30
0
41
1
10
-36.5
20
-18.4075180436267
30
0
41
1
10
-36.5
20
-18.5177535555592
30
0
41
1
10
-36.5
20
-18.6623326618876
30
0
41
1
10
-36.5
20
-18.8022222651529
30
0
41
1
10
-36.5
20
-18.9387686023437
30
0
41
1
10
-36.5
20
-19.0389739868785
30
0
41
1
10
-36.5
20
-19.1371342717784
30
0
41
1
10
-36.5
20
-19.2332339353276
30
0
41
1
10
-36.5
20
-19.3272562516113
30
0
41
1
10
-36.5
20
-19.4191882978898
30
0
41
1
10
-36.5
20
-19.5090135437133
30
0
41
1
10
-36.5
20
-19.5967148362678
30
0
41
1
10
-36.5
20
-19.6822775521962
30
0
41
1
10
-36.5
20
-19.7656833992675
30
0
41
1
10
-36.5
20
-19.8469141406672
30
0
41
1
10
-36.5
20
-19.9259535527381
30
0
41
1
10
-36.5
20
-20.0027815100322
30
0
41
1
10
-36.5
20
-20.1024193061391
30
0
41
1
10
-36.5
20
-20.1970436522849
30
0
41
1
10
-36.5
20
-20.287589681624
30
0
41
1
10
-36.5
20
-20.353062816238
30
0
41
1
10
-36.5
20
-20.4161996091986
30
0
41
1
10
-36.5
20
-20.4769783724375
30
0
41
1
10
-36.5
20
-20.5353747607017
30
0
41
1
10
-36.5
20
-20.6101652553123
30
0
41
1
10
-36.5
20
-20.6796864153796
30
0
41
1
10
-36.5
20
-20.7446292080422
30
0
41
1
10
-36.5
20
-20.7907268231738
30
0
41
1
10
-36.5
20
-20.8342802793506
30
0
41
1
10
-36.5
20
-20.8890285523336
30
0
41
1
10
-36.5
20
-20.9382580424269
30
0
41
1
10
-36.5
20
-20.9824409225429
30
0
41
1
10
-36.5
20
-21.0128017234864
30
0
41
1
10
-36.5
20
-21.0404207944711
30
0
41
1
10
-36.5
20
-21.0652596303332
30
0
41
1
10
-36.5
20
-21.0872797892674
30
0
41
1
10
-36.5
20
-21.1064402531507
30
0
41
1
10
-36.5
20
-21.1226986516191
30
0
41
1
10
-36.5
20
-21.1360112646484
30
0
41
1
10
-36.5
20
-21.1463317710584
30
0
41
1
10
-36.5
20
-21.1536128319466
30
0
41
1
10
-36.5
20
-21.1578041644649
30
0
41
1
10
-36.5
20
-21.1588543296933
30
0
41
1
10
-36.5
20
-21.1573189712111
30
0
41
1
10
-36.5
20
-21.155786028809
30
0
41
1
10
-36.5
20
-21.1555781594006
30
0
0
SPLINE
5
15C
100
AcDbEntity
8
SK1
62
256
6
ByLayer
370
18
48
1
60
0
100
AcDbSpline
70
4
71
3
72
111
73
107
40
0
40
0
40
0
40
0
40
0.0023113641589946
40
0.0108556432332173
40
0.0193999223074399
40
0.0279442013816626
40
0.0364884804558852
40
0.0450327595301079
40
0.0535770386043306
40
0.0621213176785532
40
0.0706655967527759
40
0.0792098758269985
40
0.0877541549012212
40
0.0962984339754438
40
0.113386992123889
40
0.130475550272335
40
0.14756410842078
40
0.156108387495002
40
0.164652666569225
40
0.173196945643448
40
0.18174122471767
40
0.190285503791893
40
0.198829782866116
40
0.207374061940338
40
0.215918341014561
40
0.233006899163006
40
0.241551178237229
40
0.250095457311452
40
0.258639736385674
40
0.267184015459897
40
0.27572829453412
40
0.284272573608342
40
0.292816852682565
40
0.301361131756788
40
0.30990541083101
40
0.318449689905233
40
0.326993968979456
40
0.335538248053678
40
0.352626806202124
40
0.361171085276346
40
0.369715364350569
40
0.386803922499014
40
0.395348201573237
40
0.403892480647459
40
0.412436759721682
40
0.420981038795905
40
0.43806959694435
40
0.446613876018573
40
0.455158155092795
40
0.463702434167018
40
0.472246713241241
40
0.489335271389686
40
0.497879550463909
40
0.506423829538131
40
0.514968108612354
40
0.523512387686577
40
0.540600945835022
40
0.549145224909245
40
0.557689503983467
40
0.56623378305769
40
0.574778062131913
40
0.591866620280358
40
0.600410899354581
40
0.608955178428803
40
0.617499457503026
40
0.626043736577249
40
0.643132294725694
40
0.651676573799917
40
0.660220852874139
40
0.668765131948362
40
0.677309411022585
40
0.685853690096807
40
0.69439796917103
40
0.702942248245253
40
0.711486527319475
40
0.720030806393698
40
0.72857508546792
40
0.737119364542143
40
0.745663643616366
40
0.754207922690588
40
0.762752201764811
40
0.779840759913257
40
0.788385038987479
40
0.796929318061702
40
0.805473597135924
40
0.814017876210147
40
0.82256215528437
40
0.831106434358592
40
0.848194992507038
40
0.85673927158126
40
0.865283550655483
40
0.873827829729706
40
0.882372108803928
40
0.899460666952374
40
0.908004946026596
40
0.916549225100819
40
0.925093504175042
40
0.933637783249264
40
0.942182062323487
40
0.95072634139771
40
0.959270620471932
40
0.967814899546155
40
0.976359178620378
40
0.9849034576946
40
0.993447736768823
40
1
40
1
40
1
40
1
41
1
10
-0.394976888875277
20
-6.32694279392976
30
0
41
1
10
-0.394976888875277
20
-6.3484916311391
30
0
41
1
10
-0.394976888875277
20
-6.44960775400912
30
0
41
1
10
-0.394976888875277
20
-6.62954555948869
30
0
41
1
10
-0.394976888875277
20
-6.8656950488801
30
0
41
1
10
-0.394976888875277
20
-7.10023740586411
30
0
41
1
10
-0.394976888875277
20
-7.33316546385933
30
0
41
1
10
-0.394976888875277
20
-7.56447269448574
30
0
41
1
10
-0.394976888875277
20
-7.79415340272945
30
0
41
1
10
-0.394976888875277
20
-8.02220293401996
30
0
41
1
10
-0.394976888875277
20
-8.24861635560848
30
0
41
1
10
-0.394976888875277
20
-8.47338951886385
30
0
41
1
10
-0.394976888875277
20
-8.69651811258549
30
0
41
1
10
-0.394976888875277
20
-8.99192948127941
30
0
41
1
10
-0.394976888875277
20
-9.35683912175983
30
0
41
1
10
-0.394976888875277
20
-9.78821091217483
30
0
41
1
10
-0.394976888875277
20
-10.142045462177
30
0
41
1
10
-0.394976888875277
20
-10.4219344727077
30
0
41
1
10
-0.394976888875277
20
-10.6301131683678
30
0
41
1
10
-0.394976888875277
20
-10.8366153667066
30
0
41
1
10
-0.394976888875277
20
-11.0414388905992
30
0
41
1
10
-0.394976888875277
20
-11.2445799004538
30
0
41
1
10
-0.394976888875277
20
-11.4460361162834
30
0
41
1
10
-0.394976888875277
20
-11.6458042976885
30
0
41
1
10
-0.394976888875277
20
-11.9099848253352
30
0
41
1
10
-0.394976888875277
20
-12.1705475695385
30
0
41
1
10
-0.394976888875277
20
-12.4279318067111
30
0
41
1
10
-0.394976888875277
20
-12.6192114874981
30
0
41
1
10
-0.394976888875277
20
-12.8087826250924
30
0
41
1
10
-0.394976888875277
20
-12.9966426041155
30
0
41
1
10
-0.394976888875277
20
-13.182787448996
30
0
41
1
10
-0.394976888875277
20
-13.3672125455487
30
0
41
1
10
-0.394976888875277
20
-13.5499151547097
30
0
41
1
10
-0.394976888875277
20
-13.7308904478326
30
0
41
1
10
-0.394976888875277
20
-13.910133867705
30
0
41
1
10
-0.394976888875277
20
-14.0876421688895
30
0
41
1
10
-0.394976888875277
20
-14.2634098807097
30
0
41
1
10
-0.394976888875277
20
-14.4955025482493
30
0
41
1
10
-0.394976888875277
20
-14.7239127068147
30
0
41
1
10
-0.394976888875277
20
-14.9489833053404
30
0
41
1
10
-0.394976888875277
20
-15.171701411915
30
0
41
1
10
-0.394976888875277
20
-15.3907043201103
30
0
41
1
10
-0.394976888875277
20
-15.6063159613101
30
0
41
1
10
-0.394976888875277
20
-15.7661946363952
30
0
41
1
10
-0.394976888875277
20
-15.9242799594928
30
0
41
1
10
-0.394976888875277
20
-16.1327154012234
30
0
41
1
10
-0.394976888875277
20
-16.3373780173449
30
0
41
1
10
-0.394976888875277
20
-16.5385587125243
30
0
41
1
10
-0.394976888875277
20
-16.6875782011067
30
0
41
1
10
-0.394976888875277
20
-16.8347642769002
30
0
41
1
10
-0.394976888875277
20
-17.0286080073569
30
0
41
1
10
-0.394976888875277
20
-17.2186059445175
30
0
41
1
10
-0.394976888875277
20
-17.4050188999402
30
0
41
1
10
-0.394976888875277
20
-17.5429190217058
30
0
41
1
10
-0.394976888875277
20
-17.6789377757623
30
0
41
1
10
-0.394976888875277
20
-17.8578220601067
30
0
41
1
10
-0.394976888875277
20
-18.0327708145484
30
0
41
1
10
-0.394976888875277
20
-18.2040166330947
30
0
41
1
10
-0.394976888875277
20
-18.3304892054167
30
0
41
1
10
-0.394976888875277
20
-18.4550234389153
30
0
41
1
10
-0.394976888875277
20
-18.6185132745736
30
0
41
1
10
-0.394976888875277
20
-18.7779598884918
30
0
41
1
10
-0.394976888875277
20
-18.933565131357
30
0
41
1
10
-0.394976888875277
20
-19.048244884465
30
0
41
1
10
-0.394976888875277
20
-19.1609196079758
30
0
41
1
10
-0.394976888875277
20
-19.3085018143331
30
0
41
1
10
-0.394976888875277
20
-19.4519098709686
30
0
41
1
10
-0.394976888875277
20
-19.5913159811741
30
0
41
1
10
-0.394976888875277
20
-19.6937719762305
30
0
41
1
10
-0.394976888875277
20
-19.7941438028822
30
0
41
1
10
-0.394976888875277
20
-19.8924174211231
30
0
41
1
10
-0.394976888875277
20
-19.988575861591
30
0
41
1
10
-0.394976888875277
20
-20.082604778142
30
0
41
1
10
-0.394976888875277
20
-20.1744885559187
30
0
41
1
10
-0.394976888875277
20
-20.264209431984
30
0
41
1
10
-0.394976888875277
20
-20.3517517880635
30
0
41
1
10
-0.394976888875277
20
-20.437098129367
30
0
41
1
10
-0.394976888875277
20
-20.5202292348052
30
0
41
1
10
-0.394976888875277
20
-20.6011280559991
30
0
41
1
10
-0.394976888875277
20
-20.6797749513881
30
0
41
1
10
-0.394976888875277
20
-20.781635486227
30
0
41
1
10
-0.394976888875277
20
-20.8788308931333
30
0
41
1
10
-0.394976888875277
20
-20.9714365096391
30
0
41
1
10
-0.394976888875277
20
-21.0385142950144
30
0
41
1
10
-0.394976888875277
20
-21.1032108820957
30
0
41
1
10
-0.394976888875277
20
-21.1655031751743
30
0
41
1
10
-0.394976888875277
20
-21.2253665102307
30
0
41
1
10
-0.394976888875277
20
-21.301932078811
30
0
41
1
10
-0.394976888875277
20
-21.3734709318986
30
0
41
1
10
-0.394976888875277
20
-21.4399968999807
30
0
41
1
10
-0.394976888875277
20
-21.4873093096751
30
0
41
1
10
-0.394976888875277
20
-21.5320229383892
30
0
41
1
10
-0.394976888875277
20
-21.5881524005931
30
0
41
1
10
-0.394976888875277
20
-21.6389063892513
30
0
41
1
10
-0.394976888875277
20
-21.6842420425293
30
0
41
1
10
-0.394976888875277
20
-21.7154617242468
30
0
41
1
10
-0.394976888875277
20
-21.7438726893518
30
0
41
1
10
-0.394976888875277
20
-21.7694337460976
30
0
41
1
10
-0.394976888875277
20
-21.7921034780961
30
0
41
1
10
-0.394976888875277
20
-21.8118377637545
30
0
41
1
10
-0.394976888875277
20
-21.8285907189997
30
0
41
1
10
-0.394976888875277
20
-21.8423149132633
30
0
41
1
10
-0.394976888875277
20
-21.8529599173647
30
0
41
1
10
-0.394976888875277
20
-21.8604739519412
30
0
41
1
10
-0.394976888875306
20
-21.8644655184847
30
0
41
1
10
-0.394976888875249
20
-21.8653271906739
30
0
41
1
10
-0.394976888875249
20
-21.8653787938678
30
0
0
SPLINE
5
15D
100
AcDbEntity
8
SK1
62
256
6
ByLayer
370
18
48
1
60
0
100
AcDbSpline
70
4
71
3
72
115
73
111
40
0
40
0
40
0
40
0
40
0.0065651301770295
40
0.0151092986725508
40
0.0236534671680721
40
0.0321976356635935
40
0.0407418041591148
40
0.0492859726546361
40
0.0578301411501574
40
0.0663743096456788
40
0.0834626466367214
40
0.100550983627764
40
0.117639320618807
40
0.126183489114328
40
0.134727657609849
40
0.143271826105371
40
0.151815994600892
40
0.168904331591935
40
0.177448500087456
40
0.185992668582977
40
0.194536837078499
40
0.20308100557402
40
0.211625174069541
40
0.220169342565062
40
0.237257679556105
40
0.245801848051627
40
0.254346016547148
40
0.262890185042669
40
0.271434353538191
40
0.279978522033712
40
0.288522690529233
40
0.297066859024754
40
0.305611027520276
40
0.314155196015797
40
0.322699364511318
40
0.33124353300684
40
0.339787701502361
40
0.348331869997882
40
0.356876038493404
40
0.373964375484446
40
0.382508543979968
40
0.391052712475489
40
0.39532479672325
40
0.39959688097101
40
0.408141049466532
40
0.425229386457574
40
0.433773554953096
40
0.442317723448617
40
0.450861891944138
40
0.45940606043966
40
0.476494397430702
40
0.485038565926224
40
0.493582734421745
40
0.497854818669505
40
0.502126902917266
40
0.510671071412787
40
0.52775940840383
40
0.536303576899351
40
0.544847745394873
40
0.553391913890394
40
0.561936082385915
40
0.579024419376958
40
0.587568587872479
40
0.596112756368001
40
0.600384840615761
40
0.604656924863522
40
0.613201093359043
40
0.621745261854565
40
0.630289430350086
40
0.634561514597847
40
0.638833598845607
40
0.647377767341129
40
0.65592193583665
40
0.664466104332171
40
0.673010272827693
40
0.681554441323214
40
0.690098609818735
40
0.698642778314256
40
0.707186946809778
40
0.715731115305299
40
0.724275283800821
40
0.732819452296342
40
0.741363620791863
40
0.749907789287385
40
0.758451957782906
40
0.766996126278427
40
0.78408446326947
40
0.792628631764991
40
0.801172800260512
40
0.809716968756034
40
0.818261137251555
40
0.826805305747077
40
0.835349474242598
40
0.843893642738119
40
0.85243781123364
40
0.869526148224683
40
0.886614485215726
40
0.903702822206768
40
0.91224699070229
40
0.920791159197811
40
0.929335327693332
40
0.937879496188854
40
0.946423664684375
40
0.954967833179896
40
0.963512001675418
40
0.972056170170939
40
0.98060033866646
40
0.989144507161982
40
0.997688675657503
40
1
40
1
40
1
40
1
41
1
10
-0.394976888875277
20
21.865379088644
30
0
41
1
10
-0.394976888875277
20
21.8653285569697
30
0
41
1
10
-0.394976888875249
20
21.8644673669957
30
0
41
1
10
-0.394976888875277
20
21.8604737650697
30
0
41
1
10
-0.394976888875277
20
21.8529598769268
30
0
41
1
10
-0.394976888875277
20
21.8423149188875
30
0
41
1
10
-0.394976888875277
20
21.8285907137819
30
0
41
1
10
-0.394976888875277
20
21.8118377229246
30
0
41
1
10
-0.394976888875277
20
21.7921034347989
30
0
41
1
10
-0.394976888875277
20
21.7618666429643
30
0
41
1
10
-0.394976888875277
20
21.7168668922192
30
0
41
1
10
-0.394976888875277
20
21.651618462036
30
0
41
1
10
-0.394976888875277
20
21.5881524120742
30
0
41
1
10
-0.394976888875277
20
21.5320229149808
30
0
41
1
10
-0.394976888875277
20
21.4873092663299
30
0
41
1
10
-0.394976888875277
20
21.4399968711307
30
0
41
1
10
-0.394976888875277
20
21.3734709387681
30
0
41
1
10
-0.394976888875277
20
21.3019320664004
30
0
41
1
10
-0.394976888875277
20
21.2253664719936
30
0
41
1
10
-0.394976888875277
20
21.1655031445011
30
0
41
1
10
-0.394976888875277
20
21.1032108723211
30
0
41
1
10
-0.394976888875277
20
21.038514297088
30
0
41
1
10
-0.394976888875277
20
20.9714364994015
30
0
41
1
10
-0.394976888875277
20
20.8788308563806
30
0
41
1
10
-0.394976888875277
20
20.7816354627076
30
0
41
1
10
-0.394976888875277
20
20.6797749496461
30
0
41
1
10
-0.394976888875277
20
20.6011280536546
30
0
41
1
10
-0.394976888875277
20
20.5202292190253
30
0
41
1
10
-0.394976888875277
20
20.4370981008412
30
0
41
1
10
-0.394976888875277
20
20.3517517634561
30
0
41
1
10
-0.394976888875277
20
20.2642094206366
30
0
41
1
10
-0.394976888875277
20
20.1744885542463
30
0
41
1
10
-0.394976888875277
20
20.082604770276
30
0
41
1
10
-0.394976888875277
20
19.9885758834751
30
0
41
1
10
-0.394976888875277
20
19.8924175863555
30
0
41
1
10
-0.394976888875277
20
19.79414426657
30
0
41
1
10
-0.394976888875277
20
19.6937723311917
30
0
41
1
10
-0.394976888875277
20
19.5913158900225
30
0
41
1
10
-0.394976888875277
20
19.4519091739392
30
0
41
1
10
-0.394976888875277
20
19.308501644014
30
0
41
1
10
-0.394976888875277
20
19.160920630363
30
0
41
1
10
-0.394976888875277
20
19.0670441229991
30
0
41
1
10
-0.394976888875277
20
18.9909051568102
30
0
41
1
10
-0.394976888875277
20
18.9140993494365
30
0
41
1
10
-0.394976888875277
20
18.777958735224
30
0
41
1
10
-0.394976888875277
20
18.6185131846482
30
0
41
1
10
-0.394976888875277
20
18.4550236113311
30
0
41
1
10
-0.394976888875277
20
18.330489335967
30
0
41
1
10
-0.394976888875277
20
18.2040166079408
30
0
41
1
10
-0.394976888875277
20
18.0327705937831
30
0
41
1
10
-0.394976888875277
20
17.8578219077773
30
0
41
1
10
-0.394976888875277
20
17.6789387292296
30
0
41
1
10
-0.394976888875277
20
17.5656125946474
30
0
41
1
10
-0.394976888875277
20
17.4739690253912
30
0
41
1
10
-0.394976888875277
20
17.3816993239948
30
0
41
1
10
-0.394976888875277
20
17.2186048360495
30
0
41
1
10
-0.394976888875277
20
17.0286078387926
30
0
41
1
10
-0.394976888875277
20
16.8347647509306
30
0
41
1
10
-0.394976888875277
20
16.6875786248762
30
0
41
1
10
-0.394976888875277
20
16.5385587049943
30
0
41
1
10
-0.394976888875277
20
16.3373774066279
30
0
41
1
10
-0.394976888875277
20
16.1327150774874
30
0
41
1
10
-0.394976888875277
20
15.9242804112408
30
0
41
1
10
-0.394976888875277
20
15.7925696820839
30
0
41
1
10
-0.394976888875277
20
15.6862549949744
30
0
41
1
10
-0.394976888875277
20
15.5793432837569
30
0
41
1
10
-0.394976888875277
20
15.4446487492657
30
0
41
1
10
-0.394976888875277
20
15.2812010193763
30
0
41
1
10
-0.394976888875277
20
15.1435436982815
30
0
41
1
10
-0.394976888875277
20
15.0324801920763
30
0
41
1
10
-0.394976888875277
20
14.9208273816877
30
0
41
1
10
-0.394976888875277
20
14.7802248596231
30
0
41
1
10
-0.394976888875277
20
14.6097059483473
30
0
41
1
10
-0.394976888875277
20
14.4374320816019
30
0
41
1
10
-0.394976888875277
20
14.2634095816694
30
0
41
1
10
-0.394976888875277
20
14.0876420714538
30
0
41
1
10
-0.394976888875277
20
13.9101338497815
30
0
41
1
10
-0.394976888875277
20
13.7308904366346
30
0
41
1
10
-0.394976888875277
20
13.549915145406
30
0
41
1
10
-0.394976888875277
20
13.3672125481811
30
0
41
1
10
-0.394976888875277
20
13.182787463215
30
0
41
1
10
-0.394976888875277
20
12.9966426140257
30
0
41
1
10
-0.394976888875277
20
12.8087826212334
30
0
41
1
10
-0.394976888875277
20
12.6192114742801
30
0
41
1
10
-0.394976888875277
20
12.4279318017785
30
0
41
1
10
-0.394976888875277
20
12.1705475891153
30
0
41
1
10
-0.394976888875277
20
11.9099848332047
30
0
41
1
10
-0.394976888875277
20
11.6458042855523
30
0
41
1
10
-0.394976888875277
20
11.4460361066677
30
0
41
1
10
-0.394976888875277
20
11.2445799083311
30
0
41
1
10
-0.394976888875277
20
11.0414389105764
30
0
41
1
10
-0.394976888875277
20
10.8366153761928
30
0
41
1
10
-0.394976888875277
20
10.630113157504
30
0
41
1
10
-0.394976888875277
20
10.4219344610486
30
0
41
1
10
-0.394976888875277
20
10.1420454829465
30
0
41
1
10
-0.394976888875277
20
9.78821091215369
30
0
41
1
10
-0.394976888875277
20
9.3568391135907
30
0
41
1
10
-0.394976888875277
20
8.99192950801697
30
0
41
1
10
-0.394976888875277
20
8.69651812098675
30
0
41
1
10
-0.394976888875277
20
8.47338949471808
30
0
41
1
10
-0.394976888875277
20
8.24861627222975
30
0
41
1
10
-0.394976888875277
20
8.0222029406992
30
0
41
1
10
-0.394976888875277
20
7.79415362199521
30
0
41
1
10
-0.394976888875277
20
7.56447255210355
30
0
41
1
10
-0.394976888875277
20
7.33316516004027
30
0
41
1
10
-0.394976888875277
20
7.10023725398264
30
0
41
1
10
-0.394976888875277
20
6.86569504295815
30
0
41
1
10
-0.394976888875277
20
6.62954558311137
30
0
41
1
10
-0.394976888875277
20
6.44960786563362
30
0
41
1
10
-0.394976888875277
20
6.34849183540922
30
0
41
1
10
-0.394976888875277
20
6.32694309067119
30
0
0
SPLINE
5
15E
100
AcDbEntity
8
SK1
62
256
6
ByLayer
370
18
48
1
60
0
100
AcDbSpline
70
4
71
3
72
299
73
295
40
0
40
0
40
0
40
0
40
0.0029510795937941
40
0.0064761447115025
40
0.0100012098292108
40
0.0135262749469192
40
0.0170513400646275
40
0.0205764051823359
40
0.0241014703000442
40
0.0276265354177525
40
0.0346766656531692
40
0.0417267958885859
40
0.0487769261240025
40
0.0523019912417109
40
0.0558270563594192
40
0.0593521214771276
40
0.0628771865948359
40
0.0699273168302526
40
0.0734523819479609
40
0.0769774470656692
40
0.0805025121833776
40
0.0840275773010859
40
0.0875526424187943
40
0.0910777075365026
40
0.0981278377719193
40
0.101652902889628
40
0.105177968007336
40
0.108703033125044
40
0.112228098242753
40
0.115753163360461
40
0.119278228478169
40
0.122803293595878
40
0.126328358713586
40
0.129853423831294
40
0.133378488949003
40
0.136903554066711
40
0.140428619184419
40
0.143953684302128
40
0.147478749419836
40
0.154528879655253
40
0.158053944772961
40
0.161579009890669
40
0.163341542449524
40
0.165104075008378
40
0.168629140126086
40
0.175679270361503
40
0.179204335479211
40
0.18272940059692
40
0.186254465714628
40
0.189779530832336
40
0.196829661067753
40
0.200354726185461
40
0.203879791303169
40
0.205642323862024
40
0.207404856420878
40
0.210929921538586
40
0.217980051774003
40
0.221505116891711
40
0.22503018200942
40
0.228555247127128
40
0.232080312244836
40
0.239130442480253
40
0.242655507597961
40
0.24618057271567
40
0.247943105274524
40
0.249705637833378
40
0.253230702951086
40
0.256755768068795
40
0.260280833186503
40
0.262043365745357
40
0.263805898304211
40
0.267330963421919
40
0.270856028539628
40
0.274381093657336
40
0.277906158775044
40
0.281431223892753
40
0.284956289010461
40
0.28848135412817
40
0.292006419245878
40
0.295531484363586
40
0.299056549481295
40
0.302581614599003
40
0.306106679716711
40
0.30963174483442
40
0.313156809952128
40
0.316681875069836
40
0.323732005305253
40
0.327257070422961
40
0.33078213554067
40
0.334307200658378
40
0.337832265776086
40
0.341357330893795
40
0.344882396011503
40
0.348407461129211
40
0.35193252624692
40
0.358982656482336
40
0.366032786717753
40
0.37308291695317
40
0.376607982070878
40
0.380133047188586
40
0.383658112306295
40
0.387183177424003
40
0.390708242541711
40
0.39423330765942
40
0.397758372777128
40
0.401283437894837
40
0.404808503012545
40
0.408333568130253
40
0.411858633247962
40
0.41538369836567
40
0.418908763483378
40
0.422433828601087
40
0.425958893718795
40
0.429483958836503
40
0.433009023954212
40
0.434771556513066
40
0.43653408907192
40
0.438296621630774
40
0.440059154189628
40
0.443584219307337
40
0.447109284425045
40
0.448871816983899
40
0.450634349542753
40
0.452396882101607
40
0.454159414660462
40
0.45768447977817
40
0.459447012337024
40
0.461209544895878
40
0.462972077454732
40
0.464734610013587
40
0.466497142572441
40
0.468259675131295
40
0.470022207690149
40
0.471784740249003
40
0.473547272807857
40
0.475309805366712
40
0.477072337925566
40
0.47883487048442
40
0.480597403043274
40
0.482359935602128
40
0.484122468160982
40
0.485885000719837
40
0.487647533278691
40
0.489410065837545
40
0.491172598396399
40
0.492935130955253
40
0.494697663514107
40
0.496460196072962
40
0.498222728631816
40
0.49998526119067
40
0.501747793749524
40
0.503510326308378
40
0.505272858867232
40
0.507035391426087
40
0.508797923984941
40
0.510560456543795
40
0.512322989102649
40
0.514085521661503
40
0.515848054220357
40
0.517610586779212
40
0.519373119338066
40
0.52113565189692
40
0.522898184455774
40
0.524660717014628
40
0.526423249573483
40
0.528185782132337
40
0.529948314691191
40
0.531710847250045
40
0.533473379808899
40
0.535235912367753
40
0.536998444926608
40
0.538760977485462
40
0.540523510044316
40
0.54228604260317
40
0.545811107720878
40
0.547573640279733
40
0.549336172838587
40
0.551098705397441
40
0.552861237956295
40
0.556386303074003
40
0.559911368191712
40
0.561673900750566
40
0.56343643330942
40
0.565198965868274
40
0.566961498427129
40
0.570486563544837
40
0.574011628662545
40
0.577536693780254
40
0.581061758897962
40
0.58458682401567
40
0.588111889133378
40
0.591636954251087
40
0.595162019368795
40
0.598687084486503
40
0.602212149604212
40
0.60573721472192
40
0.609262279839628
40
0.612787344957337
40
0.616312410075045
40
0.619837475192753
40
0.623362540310462
40
0.62688760542817
40
0.633937735663587
40
0.640987865899003
40
0.64803799613442
40
0.651563061252128
40
0.655088126369837
40
0.658613191487545
40
0.662138256605253
40
0.665663321722962
40
0.66918838684067
40
0.672713451958378
40
0.676238517076087
40
0.683288647311504
40
0.686813712429212
40
0.69033877754692
40
0.693863842664629
40
0.697388907782337
40
0.700913972900045
40
0.704439038017754
40
0.707964103135462
40
0.71148916825317
40
0.715014233370879
40
0.718539298488587
40
0.722064363606295
40
0.725589428724003
40
0.73263955895942
40
0.736164624077128
40
0.739689689194837
40
0.746739819430254
40
0.750264884547962
40
0.75378994966567
40
0.757315014783379
40
0.760840079901087
40
0.767890210136504
40
0.771415275254212
40
0.774940340371921
40
0.778465405489629
40
0.781990470607337
40
0.789040600842754
40
0.792565665960462
40
0.79609073107817
40
0.799615796195879
40
0.803140861313587
40
0.810190991549004
40
0.813716056666712
40
0.817241121784421
40
0.820766186902129
40
0.824291252019837
40
0.831341382255254
40
0.834866447372962
40
0.838391512490671
40
0.841916577608379
40
0.845441642726087
40
0.852491772961504
40
0.856016838079212
40
0.85954190319692
40
0.863066968314629
40
0.866592033432337
40
0.870117098550045
40
0.873642163667754
40
0.877167228785462
40
0.880692293903171
40
0.884217359020879
40
0.887742424138587
40
0.891267489256296
40
0.894792554374004
40
0.898317619491712
40
0.901842684609421
40
0.908892814844837
40
0.912417879962546
40
0.915942945080254
40
0.919468010197962
40
0.922993075315671
40
0.926518140433379
40
0.930043205551087
40
0.937093335786504
40
0.940618400904212
40
0.944143466021921
40
0.947668531139629
40
0.951193596257337
40
0.958243726492754
40
0.961768791610462
40
0.965293856728171
40
0.968818921845879
40
0.972343986963587
40
0.975869052081296
40
0.979394117199004
40
0.982919182316712
40
0.986444247434421
40
0.989969312552129
40
0.993494377669837
40
0.997019442787546
40
1
40
1
40
1
40
1
41
1
10
-38
20
20.2923486238811
30
0
41
1
10
-38
20
20.292355851915
30
0
41
1
10
-38
20
20.2915882611882
30
0
41
1
10
-38
20
20.2877827415225
30
0
41
1
10
-38
20
20.2807871950942
30
0
41
1
10
-38
20
20.270864225278
30
0
41
1
10
-38
20
20.2580557575388
30
0
41
1
10
-38
20
20.2424031034125
30
0
41
1
10
-38
20
20.2239454925533
30
0
41
1
10
-38
20
20.19551262204
30
0
41
1
10
-38
20
20.153458157969
30
0
41
1
10
-38
20
20.0921783324266
30
0
41
1
10
-38
20
20.0326760120608
30
0
41
1
10
-38
20
19.9796195423852
30
0
41
1
10
-38
20
19.9374871337363
30
0
41
1
10
-38
20
19.8928775037255
30
0
41
1
10
-38
20
19.8298739849263
30
0
41
1
10
-38
20
19.7628242930463
30
0
41
1
10
-38
20
19.6902080345968
30
0
41
1
10
-38
20
19.6336084813315
30
0
41
1
10
-38
20
19.5746836513967
30
0
41
1
10
-38
20
19.5134574775013
30
0
41
1
10
-38
20
19.4499498796239
30
0
41
1
10
-38
20
19.361926580552
30
0
41
1
10
-38
20
19.2704514952516
30
0
41
1
10
-38
20
19.1735363516591
30
0
41
1
10
-38
20
19.0989364266239
30
0
41
1
10
-38
20
19.0221745884206
30
0
41
1
10
-38
20
18.9432715601189
30
0
41
1
10
-38
20
18.8622425921487
30
0
41
1
10
-38
20
18.7791047356355
30
0
41
1
10
-38
20
18.6938772447032
30
0
41
1
10
-38
20
18.6065734364562
30
0
41
1
10
-38
20
18.5172096781029
30
0
41
1
10
-38
20
18.4258037757915
30
0
41
1
10
-38
20
18.3323676597213
30
0
41
1
10
-38
20
18.236917040573
30
0
41
1
10
-38
20
18.1394682315479
30
0
41
1
10
-38
20
18.006423045464
30
0
41
1
10
-38
20
17.870842154793
30
0
41
1
10
-38
20
17.7299440627733
30
0
41
1
10
-38
20
17.6408187485726
30
0
41
1
10
-38
20
17.5681131617785
30
0
41
1
10
-38
20
17.4947669133713
30
0
41
1
10
-38
20
17.3649201654158
30
0
41
1
10
-38
20
17.2140632768009
30
0
41
1
10
-38
20
17.0578935907134
30
0
41
1
10
-38
20
16.9392992293059
30
0
41
1
10
-38
20
16.8188549914818
30
0
41
1
10
-38
20
16.6552510003021
30
0
41
1
10
-38
20
16.489672496603
30
0
41
1
10
-38
20
16.3187666825072
30
0
41
1
10
-38
20
16.2111031772939
30
0
41
1
10
-38
20
16.1235473577608
30
0
41
1
10
-38
20
16.0353949417433
30
0
41
1
10
-38
20
15.8797855584285
30
0
41
1
10
-38
20
15.6999813794666
30
0
41
1
10
-38
20
15.5148116907138
30
0
41
1
10
-38
20
15.3746600384839
30
0
41
1
10
-38
20
15.2327750536327
30
0
41
1
10
-38
20
15.0406360987563
30
0
41
1
10
-38
20
14.8470518249568
30
0
41
1
10
-38
20
14.6480433816337
30
0
41
1
10
-38
20
14.5230237603812
30
0
41
1
10
-38
20
14.4215395322791
30
0
41
1
10
-38
20
14.319494446119
30
0
41
1
10
-38
20
14.1916826014269
30
0
41
1
10
-38
20
14.0362107113462
30
0
41
1
10
-38
20
13.905633632864
30
0
41
1
10
-38
20
13.7996824703933
30
0
41
1
10
-38
20
13.6931799140641
30
0
41
1
10
-38
20
13.5598675642285
30
0
41
1
10
-38
20
13.3977994204325
30
0
41
1
10
-38
20
13.2340971553998
30
0
41
1
10
-38
20
13.0687736820565
30
0
41
1
10
-38
20
12.9018380893652
30
0
41
1
10
-38
20
12.7332922951509
30
0
41
1
10
-38
20
12.5631480531082
30
0
41
1
10
-38
20
12.3914123687224
30
0
41
1
10
-38
20
12.2180896154105
30
0
41
1
10
-38
20
12.0431930727568
30
0
41
1
10
-38
20
11.8667275879997
30
0
41
1
10
-38
20
11.6886992220563
30
0
41
1
10
-38
20
11.5091211559413
30
0
41
1
10
-38
20
11.3279971676986
30
0
41
1
10
-38
20
11.0835274575533
30
0
41
1
10
-38
20
10.8388445996823
30
0
41
1
10
-38
20
10.5882272221232
30
0
41
1
10
-38
20
10.3995106478125
30
0
41
1
10
-38
20
10.2093006505112
30
0
41
1
10
-38
20
10.0176111741013
30
0
41
1
10
-38
20
9.82444825814403
30
0
41
1
10
-38
20
9.62982433363783
30
0
41
1
10
-38
20
9.43375032895256
30
0
41
1
10
-38
20
9.16930024978848
30
0
41
1
10
-38
20
8.83774034996793
30
0
41
1
10
-38
20
8.43283016067576
30
0
41
1
10
-38
20
8.09202302704495
30
0
41
1
10
-38
20
7.81440668711983
30
0
41
1
10
-38
20
7.60585888080689
30
0
41
1
10
-38
20
7.39600299493051
30
0
41
1
10
-38
20
7.18486050853949
30
0
41
1
10
-38
20
6.972454820743
30
0
41
1
10
-38
20
6.75880464755275
30
0
41
1
10
-38
20
6.54393387937549
30
0
41
1
10
-38
20
6.32787102064523
30
0
41
1
10
-38
20
6.11064460524281
30
0
41
1
10
-38
20
5.89228682406826
30
0
41
1
10
-38
20
5.67283049766701
30
0
41
1
10
-38
20
5.45231041402207
30
0
41
1
10
-38
20
5.2307661198837
30
0
41
1
10
-38
20
5.00824236668089
30
0
41
1
10
-38
20
4.78478453894905
30
0
41
1
10
-38
20
4.56044477194348
30
0
41
1
10
-38
20
4.3737593142329
30
0
41
1
10
-38
20
4.22222174308931
30
0
41
1
10
-38
20
4.10916467830541
30
0
41
1
10
-38
20
3.99593123757288
30
0
41
1
10
-38
20
3.84368490764803
30
0
41
1
10
-38
20
3.65544484289478
30
0
41
1
10
-38
20
3.46668355973628
30
0
41
1
10
-38
20
3.31336520651504
30
0
41
1
10
-38
20
3.19916977025284
30
0
41
1
10
-38
20
3.0848771849204
30
0
41
1
10
-38
20
2.93116533478539
30
0
41
1
10
-38
20
2.7810630459212
30
0
41
1
10
-38
20
2.62697343511894
30
0
41
1
10
-38
20
2.51237687493429
30
0
41
1
10
-38
20
2.39774974487253
30
0
41
1
10
-38
20
2.28311555219403
30
0
41
1
10
-38
20
2.16847618976473
30
0
41
1
10
-38
20
2.05384840107453
30
0
41
1
10
-38
20
1.93924458170406
30
0
41
1
10
-38
20
1.82466899171223
30
0
41
1
10
-38
20
1.71014121398446
30
0
41
1
10
-38
20
1.59566009898879
30
0
41
1
10
-38
20
1.48124309885608
30
0
41
1
10
-38
20
1.36688883878045
30
0
41
1
10
-38
20
1.25260906632701
30
0
41
1
10
-38
20
1.13840321986405
30
0
41
1
10
-38
20
1.02427614220741
30
0
41
1
10
-38
20
0.910225811803912
30
0
41
1
10
-38
20
0.796251800903974
30
0
41
1
10
-38
20
0.682349388495624
30
0
41
1
10
-38
20
0.568513483413511
30
0
41
1
10
-38
20
0.454735475948979
30
0
41
1
10
-38
20
0.341006791030111
30
0
41
1
10
-38
20
0.227315919379521
30
0
41
1
10
-38
20
0.113651444289076
30
0
41
1
10
-38
20
2.39307099E-08
30
0
41
1
10
-38
20
-0.113651428861147
30
0
41
1
10
-38
20
-0.227315965161807
30
0
41
1
10
-38
20
-0.341006831114754
30
0
41
1
10
-38
20
-0.454735424962735
30
0
41
1
10
-38
20
-0.568513412391525
30
0
41
1
10
-38
20
-0.682349437337052
30
0
41
1
10
-38
20
-0.796251898049235
30
0
41
1
10
-38
20
-0.910225765592202
30
0
41
1
10
-38
20
-1.02427601417025
30
0
41
1
10
-38
20
-1.13840324907633
30
0
41
1
10
-38
20
-1.25260921865757
30
0
41
1
10
-38
20
-1.36688883944314
30
0
41
1
10
-38
20
-1.48124293103632
30
0
41
1
10
-38
20
-1.59566004663384
30
0
41
1
10
-38
20
-1.71014137238996
30
0
41
1
10
-38
20
-1.82466911261432
30
0
41
1
10
-38
20
-1.93924446866484
30
0
41
1
10
-38
20
-2.05384821372689
30
0
41
1
10
-38
20
-2.16847621903287
30
0
41
1
10
-38
20
-2.28311576323418
30
0
41
1
10
-38
20
-2.39774983280105
30
0
41
1
10
-38
20
-2.51237672316307
30
0
41
1
10
-38
20
-2.62697323991799
30
0
41
1
10
-38
20
-2.78106315146928
30
0
41
1
10
-38
20
-2.93116552693385
30
0
41
1
10
-38
20
-3.08487708212581
30
0
41
1
10
-38
20
-3.19916954549007
30
0
41
1
10
-38
20
-3.31336512600546
30
0
41
1
10
-38
20
-3.46668375918677
30
0
41
1
10
-38
20
-3.65544489425085
30
0
41
1
10
-38
20
-3.84368470208372
30
0
41
1
10
-38
20
-3.99593117493791
30
0
41
1
10
-38
20
-4.10916481607396
30
0
41
1
10
-38
20
-4.22222196867938
30
0
41
1
10
-38
20
-4.37375933349006
30
0
41
1
10
-38
20
-4.56044458630845
30
0
41
1
10
-38
20
-4.78478457648492
30
0
41
1
10
-38
20
-5.00824253816086
30
0
41
1
10
-38
20
-5.23076600439052
30
0
41
1
10
-38
20
-5.45231022599046
30
0
41
1
10
-38
20
-5.67283041504652
30
0
41
1
10
-38
20
-5.89228674128222
30
0
41
1
10
-38
20
-6.11064496108523
30
0
41
1
10
-38
20
-6.32787239667013
30
0
41
1
10
-38
20
-6.54393525610644
30
0
41
1
10
-38
20
-6.75880334040127
30
0
41
1
10
-38
20
-6.97245311766207
30
0
41
1
10
-38
20
-7.18486111103374
30
0
41
1
10
-38
20
-7.39600347561742
30
0
41
1
10
-38
20
-7.60585874971361
30
0
41
1
10
-38
20
-7.8144064520111
30
0
41
1
10
-38
20
-8.09202295752311
30
0
41
1
10
-38
20
-8.43283023540656
30
0
41
1
10
-38
20
-8.83774029355055
30
0
41
1
10
-38
20
-9.16930023887323
30
0
41
1
10
-38
20
-9.43375044009511
30
0
41
1
10
-38
20
-9.62982432960192
30
0
41
1
10
-38
20
-9.82444814962994
30
0
41
1
10
-38
20
-10.0176111126089
30
0
41
1
10
-38
20
-10.2093007057547
30
0
41
1
10
-38
20
-10.3995107409486
30
0
41
1
10
-38
20
-10.5882272324294
30
0
41
1
10
-38
20
-10.8388445170812
30
0
41
1
10
-38
20
-11.0835274377931
30
0
41
1
10
-38
20
-11.327997250045
30
0
41
1
10
-38
20
-11.5091211965041
30
0
41
1
10
-38
20
-11.6886991809046
30
0
41
1
10
-38
20
-11.8667275177687
30
0
41
1
10
-38
20
-12.0431930522803
30
0
41
1
10
-38
20
-12.2180896645831
30
0
41
1
10
-38
20
-12.3914124247035
30
0
41
1
10
-38
20
-12.5631480735019
30
0
41
1
10
-38
20
-12.7332924196477
30
0
41
1
10
-38
20
-12.9018387248249
30
0
41
1
10
-38
20
-13.068774902876
30
0
41
1
10
-38
20
-13.2899980003418
30
0
41
1
10
-38
20
-13.5056406071554
30
0
41
1
10
-38
20
-13.7202970548285
30
0
41
1
10
-38
20
-13.9327572918622
30
0
41
1
10
-38
20
-14.1397069500695
30
0
41
1
10
-38
20
-14.3454836148157
30
0
41
1
10
-38
20
-14.4976048095277
30
0
41
1
10
-38
20
-14.6480433741443
30
0
41
1
10
-38
20
-14.8470538575164
30
0
41
1
10
-38
20
-15.0406366439893
30
0
41
1
10
-38
20
-15.2327734637881
30
0
41
1
10
-38
20
-15.3746583733236
30
0
41
1
10
-38
20
-15.5148115582755
30
0
41
1
10
-38
20
-15.6999837411247
30
0
41
1
10
-38
20
-15.8797870255403
30
0
41
1
10
-38
20
-16.0578801048401
30
0
41
1
10
-38
20
-16.189216581434
30
0
41
1
10
-38
20
-16.3187661779867
30
0
41
1
10
-38
20
-16.4896741385663
30
0
41
1
10
-38
20
-16.6552512602625
30
0
41
1
10
-38
20
-16.8188545807649
30
0
41
1
10
-38
20
-16.9392987318018
30
0
41
1
10
-38
20
-17.0578934672827
30
0
41
1
10
-38
20
-17.2140648101705
30
0
41
1
10
-38
20
-17.3649216616153
30
0
41
1
10
-38
20
-17.513530035822
30
0
41
1
10
-38
20
-17.6226956365842
30
0
41
1
10
-38
20
-17.7299433731025
30
0
41
1
10
-38
20
-17.8708440004863
30
0
41
1
10
-38
20
-18.0064238716364
30
0
41
1
10
-38
20
-18.1394672902698
30
0
41
1
10
-38
20
-18.236915915677
30
0
41
1
10
-38
20
-18.3323672965474
30
0
41
1
10
-38
20
-18.4258040962282
30
0
41
1
10
-38
20
-18.517209887002
30
0
41
1
10
-38
20
-18.6065734896479
30
0
41
1
10
-38
20
-18.6938772522127
30
0
41
1
10
-38
20
-18.7791047692188
30
0
41
1
10
-38
20
-18.8622426359768
30
0
41
1
10
-38
20
-18.9432715834756
30
0
41
1
10
-38
20
-19.0221745805325
30
0
41
1
10
-38
20
-19.0989364136873
30
0
41
1
10
-38
20
-19.1735363647814
30
0
41
1
10
-38
20
-19.2704515417461
30
0
41
1
10
-38
20
-19.3619266112172
30
0
41
1
10
-38
20
-19.4499498647732
30
0
41
1
10
-38
20
-19.5134574724377
30
0
41
1
10
-38
20
-19.5746836830748
30
0
41
1
10
-38
20
-19.6336085328263
30
0
41
1
10
-38
20
-19.6902080668946
30
0
41
1
10
-38
20
-19.7628242842049
30
0
41
1
10
-38
20
-19.829873984374
30
0
41
1
10
-38
20
-19.8928775551026
30
0
41
1
10
-38
20
-19.9374871757691
30
0
41
1
10
-38
20
-19.9796195436673
30
0
41
1
10
-38
20
-20.0326760063813
30
0
41
1
10
-38
20
-20.0800381474625
30
0
41
1
10
-38
20
-20.1228090027496
30
0
41
1
10
-38
20
-20.1521177658612
30
0
41
1
10
-38
20
-20.1787668505585
30
0
41
1
10
-38
20
-20.2027210424566
30
0
41
1
10
-38
20
-20.2239455432986
30
0
41
1
10
-38
20
-20.2424031363825
30
0
41
1
10
-38
20
-20.2580557552655
30
0
41
1
10
-38
20
-20.2708642249464
30
0
41
1
10
-38
20
-20.2807872561095
30
0
41
1
10
-38
20
-20.2877829489451
30
0
41
1
10
-38
20
-20.291599802569
30
0
41
1
10
-38
20
-20.2923628907424
30
0
41
1
10
-38
20
-20.2923482781085
30
0
0
SPLINE
5
15F
100
AcDbEntity
8
1
62
256
6
ByLayer
370
18
48
1
60
0
100
AcDbSpline
70
4
71
3
72
8
73
4
40
0
40
0
40
0
40
0
40
1
40
1
40
1
40
1
41
1
10
19.9115068236138
20
27.8372204408566
30
0
41
1
10
19.9171302676948
20
27.8088754726766
30
0
41
1
10
19.9243065965645
20
27.7780566772567
30
0
41
1
10
19.9327767125656
20
27.7448623512588
30
0
0
SPLINE
5
160
100
AcDbEntity
8
1
62
256
6
ByLayer
370
18
48
1
60
0
100
AcDbSpline
70
4
71
3
72
8
73
4
40
0
40
0
40
0
40
0
40
1
40
1
40
1
40
1
41
1
10
24.7027723130643
20
30.2660893935156
30
0
41
1
10
24.9648647839768
20
30.8856109451177
30
0
41
1
10
25.3293127194065
20
31.4549069310444
30
0
41
1
10
25.8067407018464
20
31.93363123779
30
0
0
SPLINE
5
161
100
AcDbEntity
8
1
62
256
6
ByLayer
370
18
48
1
60
0
100
AcDbSpline
70
4
71
3
72
8
73
4
40
0
40
0
40
0
40
0
40
1
40
1
40
1
40
1
41
1.02613459695995
10
25.8067407018457
20
31.9336312377888
30
0
41
1.02613459695995
10
25.5179701858882
20
31.5435863761541
30
0
41
1.02613459695995
10
25.2895573086244
20
31.0911735487931
30
0
41
1.02613459695995
10
25.1345656036882
20
30.5877562407474
30
0
0
SPLINE
5
162
100
AcDbEntity
8
1
62
256
6
ByLayer
370
18
48
1
60
0
100
AcDbSpline
70
4
71
3
72
8
73
4
40
0
40
0
40
0
40
0
40
1
40
1
40
1
40
1
41
1.02613459695995
10
25.6627451919142
20
25.9420158665917
30
0
41
1.02613459695995
10
25.8199298842569
20
25.6318621476418
30
0
41
1.02613459695995
10
26.0032329138974
20
25.3245110696282
30
0
41
1.02613459695995
10
26.2141771043095
20
25.0244869981883
30
0
0
SPLINE
5
163
100
AcDbEntity
8
1
62
256
6
ByLayer
370
18
48
1
60
0
100
AcDbSpline
70
4
71
3
72
8
73
4
40
0
40
0
40
0
40
0
40
1
40
1
40
1
40
1
41
1
10
24.3930532314679
20
25.1372485752816
30
0
41
1
10
24.5396230138396
20
24.5059943744028
30
0
41
1
10
24.7465600377408
20
23.887114526903
30
0
41
1
10
25.0053692534571
20
23.2941870454512
30
0
0
SPLINE
5
164
100
AcDbEntity
8
1
62
256
6
ByLayer
370
18
48
1
60
0
100
AcDbSpline
70
4
71
3
72
9
73
5
40
0
40
0
40
0
40
0
40
0.956396112744832
40
1
40
1
40
1
40
1
41
1
10
26.1123860295249
20
32.2287925192463
30
0
41
1
10
25.7475710428909
20
31.7946481610309
30
0
41
1
10
25.4506254020371
20
31.2471253247843
30
0
41
1
10
25.2654686762431
20
30.622135439813
30
0
41
1
10
25.2576098401694
20
30.594738216647
30
0
0
SPLINE
5
165
100
AcDbEntity
8
1
62
256
6
ByLayer
370
18
48
1
60
0
100
AcDbSpline
70
4
71
3
72
8
73
4
40
0
40
0
40
0
40
0
40
1
40
1
40
1
40
1
41
1
10
25.8194889191002
20
26.0269725221198
30
0
41
1
10
25.9751905535861
20
25.7212506071617
30
0
41
1
10
26.1563032497739
20
25.4183149432293
30
0
41
1
10
26.3642866033983
20
25.1225020439775
30
0
0
SPLINE
5
166
100
AcDbEntity
8
1
62
256
6
ByLayer
370
18
48
1
60
0
100
AcDbSpline
70
4
71
3
72
8
73
4
40
0
40
0
40
0
40
0
40
1
40
1
40
1
40
1
41
1
10
25.3945038415677
20
40.713776155025
30
0
41
1
10
25.4327994903934
20
40.8676013441124
30
0
41
1
10
25.4965450300751
20
41.0239513223442
30
0
41
1
10
25.5868137757096
20
41.1829325693247
30
0
0
SPLINE
5
167
100
AcDbEntity
8
1
62
256
6
ByLayer
370
18
48
1
60
0
100
AcDbSpline
70
4
71
3
72
9
73
5
40
0
40
0
40
0
40
0
40
0.982771992454637
40
1
40
1
40
1
40
1
41
1
10
25.958403822873
20
32.0828613425216
30
0
41
1
10
25.6314234001108
20
31.6684772829727
30
0
41
1
10
25.3707023146403
20
31.1698147308302
30
0
41
1
10
25.2008957349583
20
30.6081505971273
30
0
41
1
10
25.1979973880203
20
30.5984556369411
30
0
0
SPLINE
5
168
100
AcDbEntity
8
1
62
256
6
ByLayer
370
18
48
1
60
0
100
AcDbSpline
70
4
71
3
72
8
73
4
40
0
40
0
40
0
40
0
40
1
40
1
40
1
40
1
41
1
10
25.7411036265002
20
25.9845126090516
30
0
41
1
10
25.897551428231
20
25.6765684582424
30
0
41
1
10
26.0797638115613
20
25.3714190800024
30
0
41
1
10
26.2892318538539
20
25.0734945210829
30
0
0
SPLINE
5
169
100
AcDbEntity
8
1
62
256
6
ByLayer
370
18
48
1
60
0
100
AcDbSpline
70
4
71
3
72
8
73
4
40
0
40
0
40
0
40
0
40
1
40
1
40
1
40
1
41
1
10
31.2349448861663
20
29.5891760039834
30
0
41
1
10
30.9245107242441
20
29.3267145026735
30
0
41
1
10
30.616505910818
20
29.0120066396173
30
0
41
1
10
30.346356467445
20
28.6231540908993
30
0
0
SPLINE
5
16A
100
AcDbEntity
8
1
62
256
6
ByLayer
370
18
48
1
60
0
100
AcDbSpline
70
4
71
3
72
8
73
4
40
0
40
0
40
0
40
0
40
1
40
1
40
1
40
1
41
1
10
38.8708585763176
20
17.368999929903
30
0
41
1
10
39.1719150170919
20
18.4796445880489
30
0
41
1
10
39.5365740861447
20
19.9205707495067
30
0
41
1
10
39.8883609378108
20
21.4162096062215
30
0
0
SPLINE
5
16B
100
AcDbEntity
8
1
62
256
6
ByLayer
370
18
48
1
60
0
100
AcDbSpline
70
4
71
3
72
8
73
4
40
0
40
0
40
0
40
0
40
1
40
1
40
1
40
1
41
1
10
40.2239566070792
20
21.5256646105011
30
0
41
1
10
40.5888392245047
20
21.6115509114823
30
0
41
1
10
40.9607397522436
20
21.6180366123122
30
0
41
1
10
41.3092149644476
20
21.5478191681649
30
0
0
SPLINE
5
16C
100
AcDbEntity
8
1
62
256
6
ByLayer
370
18
48
1
60
0
100
AcDbSpline
70
4
71
3
72
12
73
8
40
0
40
0
40
0
40
0
40
0.274077856982874
40
0.274077856982874
40
0.548155363965172
40
0.548155363965172
40
1
40
1
40
1
40
1
41
1
10
47.0991174321098
20
31.7536625236805
30
0
41
1
10
47.2744367734851
20
31.5992862521823
30
0
41
1
10
47.4402309702561
20
31.4329507959266
30
0
41
1
10
47.7483107711289
20
31.0810196002948
30
0
41
1
10
47.8913025646654
20
30.8946177665675
30
0
41
1
10
48.2347558515315
20
30.3813423421739
30
0
41
1
10
48.4150215302811
20
30.0378038246222
30
0
41
1
10
48.555276576916
20
29.68225811587
30
0
0
SPLINE
5
16D
100
AcDbEntity
8
1
62
256
6
ByLayer
370
18
48
1
60
0
100
AcDbSpline
70
4
71
3
72
16
73
12
40
0
40
0
40
0
40
0
40
0.474320436274422
40
0.474320436274422
40
0.658954025821059
40
0.658954025821059
40
0.845504004041776
40
0.845504004041776
40
0.957858191960719
40
0.957858191960719
40
1
40
1
40
1
40
1
41
1
10
39.5733468890362
20
16.5012860267313
30
0
41
1
10
39.5233144866504
20
16.5921044237576
30
0
41
1
10
39.4471493013948
20
16.7005431857039
30
0
41
1
10
39.2992150930062
20
16.885531358075
30
0
41
1
10
39.2523042206384
20
16.9422867248014
30
0
41
1
10
39.1491869474498
20
17.0639587344095
30
0
41
1
10
39.0918285066908
20
17.130364715525
30
0
41
1
10
38.9939168836947
20
17.2397939439787
30
0
41
1
10
38.9548833934025
20
17.2825518008666
30
0
41
1
10
38.9007572007952
20
17.3389228285144
30
0
41
1
10
38.8857516485988
20
17.3542365568239
30
0
41
1
10
38.8708585763176
20
17.368999929903
30
0
0
SPLINE
5
16E
100
AcDbEntity
8
1
62
256
6
ByLayer
370
18
48
1
60
0
100
AcDbSpline
70
4
71
3
72
10
73
6
40
0
40
0
40
0
40
0
40
0.914968234315958
40
0.914968234315958
40
1
40
1
40
1
40
1
41
1
10
54.8267138081318
20
36.3703431421835
30
0
41
1
10
55.2669194997684
20
36.3922918917456
30
0
41
1
10
55.7010857902088
20
36.4213029960404
30
0
41
1
10
56.1686070239992
20
36.4601498709972
30
0
41
1
10
56.2083128017999
20
36.4635148775827
30
0
41
1
10
56.2479576418871
20
36.4669428299596
30
0
0
SPLINE
5
16F
100
AcDbEntity
8
1
62
256
6
ByLayer
370
18
48
1
60
0
100
AcDbSpline
70
4
71
3
72
8
73
4
40
0
40
0
40
0
40
0
40
1
40
1
40
1
40
1
41
1
10
39.5938908209018
20
16.4635686941458
30
0
41
1
10
39.5872261535731
20
16.4759570026496
30
0
41
1
10
39.5803671149307
20
16.4885429715883
30
0
41
1
10
39.573346889036
20
16.5012860267311
30
0
0
SPLINE
5
170
100
AcDbEntity
8
1
62
256
6
ByLayer
370
18
48
1
60
0
100
AcDbSpline
70
4
71
3
72
11
73
7
40
0
40
0
40
0
40
0
40
0.0598016998855049
40
0.468392215040458
40
0.740785891810426
40
1
40
1
40
1
40
1
41
1.02298250505371
10
48.5552765768495
20
29.6822581158197
30
0
41
1.02281639303115
10
48.7480800745451
20
29.828119940027
30
0
41
1.02150796927554
10
50.2707068090151
20
30.9841425698271
30
0
41
1.01953314781965
10
52.7107738616927
20
32.8924197766559
30
0
41
1.0172623798868
10
54.4787664639996
20
34.3350379469109
30
0
41
1.01931548101
10
55.171196384179
20
34.835588730682
30
0
41
1.02052415826788
10
55.6484178255879
20
35.2014590060164
30
0
0
SPLINE
5
171
100
AcDbEntity
8
1
62
256
6
ByLayer
370
18
48
1
60
0
100
AcDbSpline
70
4
71
3
72
10
73
6
40
0
40
0
40
0
40
0
40
0.5
40
0.5
40
1
40
1
40
1
40
1
41
1
10
40.8052028754106
20
32.0620886554937
30
0
41
1
10
41.7558387785306
20
32.6649624921831
30
0
41
1
10
42.8962438125148
20
32.9512855947305
30
0
41
1
10
45.130766052651
20
32.8763125585817
30
0
41
1
10
46.2459028069442
20
32.5048744400366
30
0
41
1
10
47.0991174321099
20
31.7536625236805
30
0
0
SPLINE
5
172
100
AcDbEntity
8
1
62
256
6
ByLayer
370
18
48
1
60
0
100
AcDbSpline
70
4
71
3
72
10
73
6
40
0
40
0
40
0
40
0
40
0.300434803509637
40
0.92657630224394
40
1
40
1
40
1
40
1
41
1.01906281214953
10
57.3187075617268
20
30.120089731217
30
0
41
1.01951662816455
10
57.4551796008604
20
30.4063943483996
30
0
41
1.02128725997138
10
57.8857249920419
20
31.3630985082569
30
0
41
1.02366220434836
10
58.5488752330905
20
33.0588206548559
30
0
41
1.02527232143637
10
58.8723211252361
20
34.1111722769703
30
0
41
1.02543997666398
10
58.9047794638499
20
34.2199141422796
30
0
0
SPLINE
5
173
100
AcDbEntity
8
1
62
256
6
ByLayer
370
18
48
1
60
0
100
AcDbSpline
70
4
71
3
72
11
73
7
40
0
40
0
40
0
40
0
40
0.425230898249523
40
0.744154071936666
40
0.956769521061427
40
1
40
1
40
1
40
1
41
1.0258173342201
10
47.4923802351031
20
21.9720714996015
30
0
41
1.02559001729416
10
48.3628503453971
20
22.7100473576734
30
0
41
1.0228008665691
10
50.8937634668063
20
25.915678884969
30
0
41
1.01953314781965
10
53.9658660122286
20
30.7774696468122
30
0
41
1.01775466813744
10
55.0260093941816
20
32.4560931153711
30
0
41
1.01823166218986
10
55.4691479168518
20
32.9409744220874
30
0
41
1.01834276704995
10
55.5442967875972
20
33.0187716063753
30
0
0
SPLINE
5
174
100
AcDbEntity
8
1
62
256
6
ByLayer
370
18
48
1
60
0
100
AcDbSpline
70
4
71
3
72
10
73
6
40
0
40
0
40
0
40
0
40
0.311681797709781
40
0.311681797709781
40
1
40
1
40
1
40
1
41
1
10
56.2479576419065
20
36.4669428299612
30
0
41
1
10
56.1839982843574
20
36.3386839622611
30
0
41
1
10
56.1205839611823
20
36.2093276727774
30
0
41
1
10
55.9187619739495
20
35.7912020074725
30
0
41
1
10
55.7821673842432
20
35.4988201902789
30
0
41
1
10
55.6484178257287
20
35.2014590061243
30
0
0
SPLINE
5
175
100
AcDbEntity
8
1
62
256
6
ByLayer
370
18
48
1
60
0
100
AcDbSpline
70
4
71
3
72
8
73
4
40
0
40
0
40
0
40
0
40
1
40
1
40
1
40
1
41
1
10
36.9497688049169
20
27.7491852912833
30
0
41
1
10
37.1380834352323
20
28.9063963729157
30
0
41
1
10
37.786383307171
20
29.96268817293
30
0
41
1
10
38.836217981188
20
30.6948556727927
30
0
0
SPLINE
5
176
100
AcDbEntity
8
1
62
256
6
ByLayer
370
18
48
1
60
0
100
AcDbSpline
70
4
71
3
72
10
73
6
40
0
40
0
40
0
40
0
40
0.5
40
0.5
40
1
40
1
40
1
40
1
41
1
10
48.555276576916
20
29.6822581158699
30
0
41
1
10
48.971390725751
20
28.6272536400068
30
0
41
1
10
48.9469182272269
20
27.4397577162847
30
0
41
1
10
48.267538847244
20
25.3052277826592
30
0
41
1
10
47.6159520418429
20
24.3321771513565
30
0
41
1
10
46.7210415039519
20
23.6467349801956
30
0
0
SPLINE
5
177
100
AcDbEntity
8
1
62
256
6
ByLayer
370
18
48
1
60
0
100
AcDbSpline
70
4
71
3
72
10
73
6
40
0
40
0
40
0
40
0
40
0.731096563947344
40
0.731096563947344
40
1
40
1
40
1
40
1
41
1
10
36.5510592237091
20
26.7504066014358
30
0
41
1
10
36.5047917334817
20
26.6810815607196
30
0
41
1
10
36.4514226772301
20
26.6103738124435
30
0
41
1
10
36.3760498221368
20
26.5197087577106
30
0
41
1
10
36.3552292406962
20
26.4955244659858
30
0
41
1
10
36.3342792915042
20
26.4719347404837
30
0
0
SPLINE
5
178
100
AcDbEntity
8
1
62
256
6
ByLayer
370
18
48
1
60
0
100
AcDbSpline
70
4
71
3
72
8
73
4
40
0
40
0
40
0
40
0
40
1
40
1
40
1
40
1
41
1
10
36.3342792915042
20
26.4719347404837
30
0
41
1
10
36.1473207276329
20
26.2614186594393
30
0
41
1
10
35.9380558386636
20
26.0781125295854
30
0
41
1
10
35.719883014513
20
25.9216747884726
30
0
0
SPLINE
5
179
100
AcDbEntity
8
1
62
256
6
ByLayer
370
18
48
1
60
0
100
AcDbSpline
70
4
71
3
72
8
73
4
40
0
40
0
40
0
40
0
40
1
40
1
40
1
40
1
41
1
10
37.9647928532699
20
34.3931251976009
30
0
41
1
10
41.0419165458079
20
36.5118647080674
30
0
41
1
10
44.5310187262244
20
37.8456128315153
30
0
41
1
10
48.1855946877926
20
38.5821891781766
30
0
0
SPLINE
5
17A
100
AcDbEntity
8
1
62
256
6
ByLayer
370
18
48
1
60
0
100
AcDbSpline
70
4
71
3
72
8
73
4
40
0
40
0
40
0
40
0
40
1
40
1
40
1
40
1
41
1
10
32.4380666461149
20
26.457804962445
30
0
41
1
10
32.3593751946077
20
26.5697445262562
30
0
41
1
10
32.2929483648651
20
26.6860126583651
30
0
41
1
10
32.2368092675982
20
26.8060171877598
30
0
0
SPLINE
5
17B
100
AcDbEntity
8
1
62
256
6
ByLayer
370
18
48
1
60
0
100
AcDbSpline
70
4
71
3
72
10
73
6
40
0
40
0
40
0
40
0
40
0.5
40
0.5
40
1
40
1
40
1
40
1
41
1
10
55.5442967875972
20
33.0187716063753
30
0
41
1
10
56.1173509420581
20
32.9028122916355
30
0
41
1
10
56.7003971206075
20
32.8060495645882
30
0
41
1
10
57.8455865125168
20
33.13336136034
30
0
41
1
10
58.4348054856618
20
33.4522420558151
30
0
41
1
10
58.9037965002262
20
34.2166220203803
30
0
0
SPLINE
5
17C
100
AcDbEntity
8
1
62
256
6
ByLayer
370
18
48
1
60
0
100
AcDbSpline
70
4
71
3
72
8
73
4
40
0
40
0
40
0
40
0
40
1
40
1
40
1
40
1
41
1
10
31.6845255145739
20
27.7232320796662
30
0
41
1
10
31.6757918100461
20
27.732897371458
30
0
41
1
10
31.6671724793443
20
27.7423330613033
30
0
41
1
10
31.6586592398484
20
27.7515338404204
30
0
0
SPLINE
5
17D
100
AcDbEntity
8
1
62
256
6
ByLayer
370
18
48
1
60
0
100
AcDbSpline
70
4
71
3
72
10
73
6
40
0
40
0
40
0
40
0
40
0.0734657164133858
40
0.699676314776447
40
1
40
1
40
1
40
1
41
1.02544020896672
10
55.1759017521193
20
39.5245034555623
30
0
41
1.02527247753992
10
55.062158675794
20
39.5313219278642
30
0
41
1.02366228488755
10
53.9586621746545
20
39.5885448365611
30
0
41
1.02128760257541
10
52.1322454145025
20
39.5478760142692
30
0
41
1.01951717951064
10
51.0824615847952
20
39.4721540795611
30
0
41
1.01906346594983
10
50.7658033718467
20
39.4423694468909
30
0
0
SPLINE
5
17E
100
AcDbEntity
8
1
62
256
6
ByLayer
370
18
48
1
60
0
100
AcDbSpline
70
4
71
3
72
12
73
8
40
0
40
0
40
0
40
0
40
0.5
40
0.5
40
0.75
40
0.75
40
1
40
1
40
1
40
1
41
1
10
55.6484178257287
20
35.2014590061243
30
0
41
1
10
55.4912146106647
20
34.8521192272584
30
0
41
1
10
55.3447259878479
20
34.4778748161439
30
0
41
1
10
55.2363573397349
20
33.8100994043099
30
0
41
1
10
55.2210589334095
20
33.5610442206472
30
0
41
1
10
55.3157547047816
20
33.1520188903471
30
0
41
1
10
55.4297023466816
20
33.043655309544
30
0
41
1
10
55.5442967875972
20
33.0187716063753
30
0
0
SPLINE
5
17F
100
AcDbEntity
8
1
62
256
6
ByLayer
370
18
48
1
60
0
100
AcDbSpline
70
4
71
3
72
8
73
4
40
0
40
0
40
0
40
0
40
1
40
1
40
1
40
1
41
1
10
50.3339498347164
20
39.2454124446355
30
0
41
1
10
50.4759890900935
20
39.3141374146811
30
0
41
1
10
50.6196012514758
20
39.3802224065269
30
0
41
1
10
50.7653391673408
20
39.4423257788132
30
0
0
SPLINE
5
180
100
AcDbEntity
8
1
62
256
6
ByLayer
370
18
48
1
60
0
100
AcDbSpline
70
4
71
3
72
10
73
6
40
0
40
0
40
0
40
0
40
0.5
40
0.5
40
1
40
1
40
1
40
1
41
1
10
55.1723021461464
20
39.5247189259605
30
0
41
1
10
54.270963390229
20
39.3734500875228
30
0
41
1
10
53.7437886269379
20
38.9697961588763
30
0
41
1
10
52.9890635964351
20
38.0847271933271
30
0
41
1
10
52.8528069670058
20
37.5468650353421
30
0
41
1
10
52.7380764549331
20
37.0106547649214
30
0
0
SPLINE
5
181
100
AcDbEntity
8
1
62
256
6
ByLayer
370
18
48
1
60
0
100
AcDbSpline
70
4
71
3
72
16
73
12
40
0
40
0
40
0
40
0
40
0.107738294188994
40
0.107738294188994
40
0.260376815889414
40
0.260376815889414
40
0.501548994683952
40
0.501548994683952
40
0.879664328740045
40
0.879664328740045
40
1
40
1
40
1
40
1
41
1
10
32.2368092675982
20
26.8060171877598
30
0
41
1
10
32.2141553466494
20
26.8544428528447
30
0
41
1
10
32.1887516886518
20
26.9043919374477
30
0
41
1
10
32.1285521897271
20
27.0190747981769
30
0
41
1
10
32.0929817141108
20
27.0838426904016
30
0
41
1
10
32.0072904122093
20
27.2371807094891
30
0
41
1
10
31.9586189466027
20
27.3213283054471
30
0
41
1
10
31.8462972597565
20
27.5075628475631
30
0
41
1
10
31.7869987897808
20
27.5967608462265
30
0
41
1
10
31.7169809250904
20
27.685931540196
30
0
41
1
10
31.7005178407281
20
27.7055339198403
30
0
41
1
10
31.6845255145731
20
27.7232320796791
30
0
0
SPLINE
5
182
100
AcDbEntity
8
1
62
256
6
ByLayer
370
18
48
1
60
0
100
AcDbSpline
70
4
71
3
72
14
73
10
40
0
40
0
40
0
40
0
40
0.264998964150955
40
0.264998964150955
40
0.633007150607455
40
0.633007150607455
40
0.984533813617863
40
0.984533813617863
40
1
40
1
40
1
40
1
41
1
10
58.99641523076
20
35.0838713455758
30
0
41
1
10
59.0609168566549
20
35.2161852089582
30
0
41
1
10
59.1186677117412
20
35.3636779548295
30
0
41
1
10
59.2324660956513
20
35.7393914448468
30
0
41
1
10
59.2803412590176
20
35.9825231883366
30
0
41
1
10
59.3309193789576
20
36.4641851194174
30
0
41
1
10
59.3363999470301
20
36.7079765937907
30
0
41
1
10
59.3247915941519
20
36.9539886666327
30
0
41
1
10
59.3242656391853
20
36.9644458442678
30
0
41
1
10
59.3237079854893
20
36.9748923013016
30
0
0
SPLINE
5
183
100
AcDbEntity
8
1
62
256
6
ByLayer
370
18
48
1
60
0
100
AcDbSpline
70
4
71
2
72
6
73
3
40
0
40
0
40
0
40
1
40
1
40
1
41
0.943993462491077
10
46.7210415365738
20
23.6467349204462
30
0
41
0.955129619920243
10
47.2927720593703
20
22.5995677816511
30
0
41
1.0258173342201
10
47.4923802351031
20
21.9720714996015
30
0
0
SPLINE
5
184
100
AcDbEntity
8
1
62
256
6
ByLayer
370
18
48
1
60
0
100
AcDbSpline
70
4
71
3
72
8
73
4
40
0
40
0
40
0
40
0
40
1
40
1
40
1
40
1
41
1
10
39.8883609378108
20
21.4162096062215
30
0
41
1
10
39.6285821390535
20
21.3092812106705
30
0
41
1
10
39.3875205182922
20
21.1712063253705
30
0
41
1
10
39.1693476941417
20
21.0147685842576
30
0
0
SPLINE
5
185
100
AcDbEntity
8
1
62
256
6
ByLayer
370
18
48
1
60
0
100
AcDbSpline
70
4
71
3
72
8
73
4
40
0
40
0
40
0
40
0
40
1
40
1
40
1
40
1
41
1
10
50.3339498347164
20
39.2454124446355
30
0
41
1
10
49.7458076340122
20
38.960842837321
30
0
41
1
10
48.9886432262263
20
38.744042855553
30
0
41
1
10
48.1855946877926
20
38.5821891781766
30
0
0
SPLINE
5
186
100
AcDbEntity
8
1
62
256
6
ByLayer
370
18
48
1
60
0
100
AcDbSpline
70
4
71
3
72
10
73
6
40
0
40
0
40
0
40
0
40
0.5
40
0.5
40
1
40
1
40
1
40
1
41
1
10
55.5981383503039
20
28.0377540658542
30
0
41
1
10
54.6287912966367
20
26.4585359400129
30
0
41
1
10
53.530705728421
20
24.9826032861159
30
0
41
1
10
51.0557882053722
20
22.2543730901264
30
0
41
1
10
49.6756814420141
20
20.9819534550653
30
0
41
1
10
48.1501217937984
20
19.9043687057877
30
0
0
SPLINE
5
187
100
AcDbEntity
8
1
62
256
6
ByLayer
370
18
48
1
60
0
100
AcDbSpline
70
4
71
2
72
6
73
3
40
0
40
0
40
0
40
1
40
1
40
1
41
1.0258173342201
10
47.4923802351031
20
21.9720714996015
30
0
41
1.0258173342201
10
47.8212510144508
20
20.9382201026946
30
0
41
1.0258173342201
10
48.1501217937984
20
19.9043687057877
30
0
0
SPLINE
5
188
100
AcDbEntity
8
1
62
256
6
ByLayer
370
18
48
1
60
0
100
AcDbSpline
70
4
71
3
72
8
73
4
40
0
40
0
40
0
40
0
40
1
40
1
40
1
40
1
41
1
10
38.6126084226502
20
17.6744428569002
30
0
41
1
10
38.6912998741574
20
17.5625032930891
30
0
41
1
10
38.7777602300274
20
17.461287511228
30
0
41
1
10
38.8708585763176
20
17.368999929903
30
0
0
SPLINE
5
189
100
AcDbEntity
8
1
62
256
6
ByLayer
370
18
48
1
60
0
100
AcDbSpline
70
4
71
3
72
8
73
4
40
0
40
0
40
0
40
0
40
1
40
1
40
1
40
1
41
1
10
36.9497688049169
20
27.7491852912833
30
0
41
1
10
36.8933173392076
20
27.4022857350262
30
0
41
1
10
36.7556905159244
20
27.0570165471
30
0
41
1
10
36.5510592237091
20
26.7504066014358
30
0
0
SPLINE
5
18A
100
AcDbEntity
8
1
62
256
6
ByLayer
370
18
48
1
60
0
100
AcDbSpline
70
4
71
3
72
8
73
4
40
0
40
0
40
0
40
0
40
1
40
1
40
1
40
1
41
1
10
40.8052028755423
20
32.0620886555776
30
0
41
1
10
40.7414075142184
20
32.0215652579855
30
0
41
1
10
40.6787117232784
20
31.9798332697862
30
0
41
1
10
40.6171262677376
20
31.9368828223232
30
0
0
SPLINE
5
18B
100
AcDbEntity
8
1
62
256
6
ByLayer
370
18
48
1
60
0
100
AcDbSpline
70
4
71
3
72
11
73
7
40
0
40
0
40
0
40
0
40
0.425230898251466
40
0.744154071940065
40
0.956769521065798
40
1
40
1
40
1
40
1
41
1.0258173342201
10
39.5571486540498
20
33.2600366458761
30
0
41
1.02559001729416
10
40.5485226460118
20
33.8260252355593
30
0
41
1.0228008665691
10
44.4187628219899
20
35.1264474493055
30
0
41
1.01953314781965
10
50.0626438504634
20
36.3298514858581
30
0
41
1.01775466813745
10
52.0214952182722
20
36.7300517204073
30
0
41
1.01823166218985
10
52.6377008543581
20
36.9687429160858
30
0
41
1.01834276704992
10
52.7380764549331
20
37.0106547649214
30
0
0
SPLINE
5
18C
100
AcDbEntity
8
1
62
256
6
ByLayer
370
18
48
1
60
0
100
AcDbSpline
70
4
71
3
72
8
73
4
40
0
40
0
40
0
40
0
40
1
40
1
40
1
40
1
41
1
10
36.3342792915042
20
26.4719347404837
30
0
41
1
10
34.814953731995
20
26.6376616396246
30
0
41
1
10
33.3518555602955
20
26.7578642353301
30
0
41
1
10
32.2368092675982
20
26.8060171877598
30
0
0
SPLINE
5
18D
100
AcDbEntity
8
1
62
256
6
ByLayer
370
18
48
1
60
0
100
AcDbSpline
70
4
71
3
72
14
73
10
40
0
40
0
40
0
40
0
40
0.0560617400824656
40
0.0560617400824656
40
0.432699965147824
40
0.432699965147824
40
0.811345304670921
40
0.811345304670921
40
1
40
1
40
1
40
1
41
1
10
57.9241771239218
20
38.9657422752625
30
0
41
1
10
57.8895359376522
20
38.980130249619
30
0
41
1
10
57.8545952238313
20
38.9942083396735
30
0
41
1
10
57.5851630564437
20
39.0993548501533
30
0
41
1
10
57.335031927738
20
39.176619161179
30
0
41
1
10
56.8401355026338
20
39.2845616758815
30
0
41
1
10
56.5888087988096
20
39.3161746135021
30
0
41
1
10
56.2415398751373
20
39.3259266924798
30
0
41
1
10
56.1290061386883
20
39.323126111338
30
0
41
1
10
56.0221703624829
20
39.3147714858767
30
0
0
SPLINE
5
18E
100
AcDbEntity
8
1
62
256
6
ByLayer
370
18
48
1
60
0
100
AcDbSpline
70
4
71
3
72
8
73
4
40
0
40
0
40
0
40
0
40
1
40
1
40
1
40
1
41
1
10
31.6845255145739
20
27.7232320796662
30
0
41
1
10
32.7856846087675
20
27.5856789535578
30
0
41
1
10
34.6553410731316
20
27.2087812222029
30
0
41
1
10
36.5510592237091
20
26.7504066014358
30
0
0
SPLINE
5
18F
100
AcDbEntity
8
1
62
256
6
ByLayer
370
18
48
1
60
0
100
AcDbSpline
70
4
71
3
72
10
73
6
40
0
40
0
40
0
40
0
40
0.579529299651682
40
0.579529299651682
40
1
40
1
40
1
40
1
41
1
10
55.5981383503039
20
28.0377540658543
30
0
41
1
10
55.8426891146094
20
28.4361655514192
30
0
41
1
10
56.1058923562596
20
28.8201247381495
30
0
41
1
10
56.5715910523151
20
29.3963478409193
30
0
41
1
10
56.7760324193202
20
29.6148532256664
30
0
41
1
10
56.976559959409
20
29.796217320091
30
0
0
SPLINE
5
190
100
AcDbEntity
8
1
62
256
6
ByLayer
370
18
48
1
60
0
100
AcDbSpline
70
4
71
3
72
10
73
6
40
0
40
0
40
0
40
0
40
0.73129736996678
40
0.73129736996678
40
1
40
1
40
1
40
1
41
1
10
39.8883609378108
20
21.4162096062215
30
0
41
1
10
39.9665820162306
20
21.4484064385023
30
0
41
1
10
40.0498262458951
20
21.4780228519346
30
0
41
1
10
40.1628988367017
20
21.5104781510663
30
0
41
1
10
40.1936196493961
20
21.5185238782382
30
0
41
1
10
40.2239566070792
20
21.5256646105011
30
0
0
SPLINE
5
191
100
AcDbEntity
8
1
62
256
6
ByLayer
370
18
48
1
60
0
100
AcDbSpline
70
4
71
3
72
8
73
4
40
0
40
0
40
0
40
0
40
1
40
1
40
1
40
1
41
1
10
44.7577990145505
20
22.271333355557
30
0
41
1
10
43.7195540103642
20
21.5472486327203
30
0
41
1
10
42.4732089707371
20
21.3132754150888
30
0
41
1
10
41.3092149644475
20
21.547819168165
30
0
0
SPLINE
5
192
100
AcDbEntity
8
1
62
256
6
ByLayer
370
18
48
1
60
0
100
AcDbSpline
70
4
71
3
72
8
73
4
40
0
40
0
40
0
40
0
40
1
40
1
40
1
40
1
41
1
10
57.3187042635496
20
30.1200828119762
30
0
41
1
10
57.2073349689387
20
30.0090896505371
30
0
41
1
10
57.0929259716823
20
29.9014627962407
30
0
41
1
10
56.976559959409
20
29.796217320091
30
0
0
SPLINE
5
193
100
AcDbEntity
8
1
62
256
6
ByLayer
370
18
48
1
60
0
100
AcDbSpline
70
4
71
3
72
20
73
16
40
0
40
0
40
0
40
0
40
0.11896205633978
40
0.11896205633978
40
0.191173230286444
40
0.191173230286444
40
0.263712164126314
40
0.263712164126314
40
0.333306822588752
40
0.333306822588752
40
0.451479822004391
40
0.451479822004391
40
0.654414534009032
40
0.654414534009032
40
1
40
1
40
1
40
1
41
1
10
52.738076454933
20
37.0106547649214
30
0
41
1
10
52.7281231102866
20
36.9604053966417
30
0
41
1
10
52.7316260293093
20
36.9052161250613
30
0
41
1
10
52.7758379890287
20
36.8134090556257
30
0
41
1
10
52.8022368329199
20
36.7772179115199
30
0
41
1
10
52.8740370358724
20
36.7076725680552
30
0
41
1
10
52.9204540437457
20
36.6735167229458
30
0
41
1
10
53.022744514276
20
36.6133419549557
30
0
41
1
10
53.0791160938996
20
36.5863217925175
30
0
41
1
10
53.2358259721056
20
36.5224449299565
30
0
41
1
10
53.3420688758894
20
36.4903579759132
30
0
41
1
10
53.6263224488
20
36.4216269223665
30
0
41
1
10
53.8077039035124
20
36.3959520309634
30
0
41
1
10
54.2764240174528
20
36.3545487552069
30
0
41
1
10
54.5581805687684
20
36.3569105232106
30
0
41
1
10
54.8267138081318
20
36.3703431421835
30
0
0
SPLINE
5
194
100
AcDbEntity
8
1
62
256
6
ByLayer
370
18
48
1
60
0
100
AcDbSpline
70
4
71
3
72
8
73
4
40
0
40
0
40
0
40
0
40
1
40
1
40
1
40
1
41
1
10
46.7210415039519
20
23.6467349801956
30
0
41
1
10
46.6613319924192
20
23.6009756275601
30
0
41
1
10
46.6005665208473
20
23.5565018790455
30
0
41
1
10
46.5387073011001
20
23.5133605050876
30
0
0
SPLINE
5
195
100
AcDbEntity
8
1
62
256
6
ByLayer
370
18
48
1
60
0
100
AcDbSpline
70
4
71
1
72
4
73
2
40
0
40
0
40
1
40
1
41
1
10
39.5571486540498
20
33.2600366458761
30
0
41
1
10
37.9647928532699
20
34.3931251976009
30
0
0
SPLINE
5
196
100
AcDbEntity
8
1
62
256
6
ByLayer
370
18
48
1
60
0
100
AcDbSpline
70
4
71
3
72
8
73
4
40
0
40
0
40
0
40
0
40
1
40
1
40
1
40
1
41
1
10
40.2239566070792
20
21.5256646105011
30
0
41
1
10
40.0219370449987
20
19.5775020018709
30
0
41
1
10
39.7683636626041
20
17.6490981561572
30
0
41
1
10
39.5733468890362
20
16.5012860267313
30
0
0
SPLINE
5
197
100
AcDbEntity
8
1
62
256
6
ByLayer
370
18
48
1
60
0
100
AcDbSpline
70
4
71
3
72
11
73
7
40
0
40
0
40
0
40
0
40
0.0598016998824447
40
0.468392215028713
40
0.740785891792893
40
1
40
1
40
1
40
1
41
1.0229825050537
10
47.0991174320397
20
31.7536625236364
30
0
41
1.02281639303114
10
47.303851934681
20
31.882552345614
30
0
41
1.02150796927553
10
48.9254098112164
20
32.8978442012485
30
0
41
1.01953314781965
10
51.5884950361573
20
34.4888752975343
30
0
41
1.01726237988674
10
53.5856087024861
20
35.6055659182554
30
0
41
1.01931548101018
10
54.307827185288
20
36.0637421030224
30
0
41
1.02052415826821
10
54.8267138081318
20
36.3703431421835
30
0
0
SPLINE
5
198
100
AcDbEntity
8
1
62
256
6
ByLayer
370
18
48
1
60
0
100
AcDbSpline
70
4
71
3
72
8
73
4
40
0
40
0
40
0
40
0
40
1
40
1
40
1
40
1
41
1
10
40.8052028754106
20
32.0620886554937
30
0
41
1
10
40.3054077117187
20
32.6202204747728
30
0
41
1
10
39.872939437145
20
33.0353262382586
30
0
41
1
10
39.5571486540498
20
33.2600366458761
30
0
0
SPLINE
5
199
100
AcDbEntity
8
1
62
256
6
ByLayer
370
18
48
1
60
0
100
AcDbSpline
70
4
71
3
72
8
73
4
40
0
40
0
40
0
40
0
40
1
40
1
40
1
40
1
41
1
10
41.7778325237447
20
15.3522105247131
30
0
41
1
10
41.3563788006095
20
15.0412674131689
30
0
41
1
10
40.842899980774
20
14.7420335335344
30
0
41
1
10
40.2298440429956
20
14.563770676957
30
0
0
SPLINE
5
19A
100
AcDbEntity
8
1
62
256
6
ByLayer
370
18
48
1
60
0
100
AcDbSpline
70
4
71
3
72
24
73
20
40
0
40
0
40
0
40
0
40
0.0052701073258754
40
0.0052701073258754
40
0.0526311510711096
40
0.0526311510711096
40
0.166729100021885
40
0.166729100021885
40
0.285397990020215
40
0.285397990020215
40
0.403655426959701
40
0.403655426959701
40
0.579382821811428
40
0.579382821811428
40
0.638912923125956
40
0.638912923125956
40
0.992412419892883
40
0.992412419892883
40
1
40
1
40
1
40
1
41
1
10
29.4059363569006
20
26.3443460942477
30
0
41
1
10
29.4032151773998
20
26.3441265825141
30
0
41
1
10
29.4004848427015
20
26.3439137241316
30
0
41
1
10
29.3725977411036
20
26.3414754857255
30
0
41
1
10
29.347091373655
20
26.3379862434732
30
0
41
1
10
29.260102617613
20
26.3213933351975
30
0
41
1
10
29.1968645431211
20
26.3012844188353
30
0
41
1
10
29.0725394305481
20
26.2419039855896
30
0
41
1
10
29.0101485977356
20
26.2009794994109
30
0
41
1
10
28.8990111732798
20
26.1037817312905
30
0
41
1
10
28.8488037333917
20
26.0463820696523
30
0
41
1
10
28.7455418367293
20
25.8955229391738
30
0
41
1
10
28.7002423638182
20
25.7951684074373
30
0
41
1
10
28.6597281331481
20
25.661718748275
30
0
41
1
10
28.6510052412759
20
25.6274177639737
30
0
41
1
10
28.601707081906
20
25.3939725788269
30
0
41
1
10
28.6083536739102
20
25.1938561620181
30
0
41
1
10
28.6421710996871
20
25.0035610573169
30
0
41
1
10
28.6429039066884
20
24.9995635816811
30
0
41
1
10
28.6436373452102
20
24.9955740541575
30
0
0
SPLINE
5
19B
100
AcDbEntity
8
1
62
256
6
ByLayer
370
18
48
1
60
0
100
AcDbSpline
70
4
71
2
72
6
73
3
40
0
40
0
40
0
40
1
40
1
40
1
41
1
10
26.2141771043096
20
25.0244869981883
30
0
41
1
10
25.2828796703937
20
24.4163898345657
30
0
41
1
10
25.4864958784413
20
22.9414368019919
30
0
0
SPLINE
5
19C
100
AcDbEntity
8
1
62
256
6
ByLayer
370
18
48
1
60
0
100
AcDbSpline
70
4
71
3
72
16
73
12
40
0
40
0
40
0
40
0
40
0.113316224833592
40
0.113316224833592
40
0.252990411571568
40
0.252990411571568
40
0.473309013928318
40
0.473309013928318
40
0.896716357718825
40
0.896716357718825
40
1
40
1
40
1
40
1
41
1
10
13.4613248654052
20
9.3492213145251
30
0
41
1
10
13.4894125595718
20
9.3492213145251
30
0
41
1
10
13.517849357763
20
9.35431657338981
30
0
41
1
10
13.5767970345725
20
9.37467777536565
30
0
41
1
10
13.6072473721288
20
9.39213979793414
30
0
41
1
10
13.6769143636602
20
9.44503542604383
30
0
41
1
10
13.7128266507651
20
9.4856938043188
30
0
41
1
10
13.8014637450836
20
9.61105923366807
30
0
41
1
10
13.842370839753
20
9.70465429390066
30
0
41
1
10
13.8809034737598
20
9.82244573862474
30
0
41
1
10
13.8878971837969
20
9.84586944318031
30
0
41
1
10
13.8943375672975
20
9.86941261896621
30
0
0
SPLINE
5
19D
100
AcDbEntity
8
1
62
256
6
ByLayer
370
18
48
1
60
0
100
AcDbSpline
70
4
71
3
72
12
73
8
40
0
40
0
40
0
40
0
40
0.348659528467882
40
0.348659528467882
40
0.674323771489841
40
0.674323771489841
40
1
40
1
40
1
40
1
41
1
10
25.8067407018449
20
31.9336312377877
30
0
41
1
10
25.824202637695
20
31.9511405867193
30
0
41
1
10
25.8417224726632
20
31.968592375006
30
0
41
1
10
25.8757172144931
20
32.002232903256
30
0
41
1
10
25.8921849873151
20
32.0184291891394
30
0
41
1
10
25.925220009559
20
32.0507209555788
30
0
41
1
10
25.9417874145365
20
32.0668165809022
30
0
41
1
10
25.9584038228723
20
32.0828613425215
30
0
0
SPLINE
5
19E
100
AcDbEntity
8
1
62
256
6
ByLayer
370
18
48
1
60
0
100
AcDbSpline
70
4
71
3
72
11
73
7
40
0
40
0
40
0
40
0
40
0.203463824197694
40
0.362771059358155
40
0.681385529679078
40
1
40
1
40
1
40
1
41
1
10
41.4628306341233
20
9.28837921437702
30
0
41
1
10
41.0935168601987
20
9.19528515982279
30
0
41
1
10
40.3963893517254
20
9.11731243311468
30
0
41
1
10
38.9999494588888
20
9.29143798863166
30
0
41
1
10
37.2915364486762
20
10.0208546577714
30
0
41
1
10
36.0220375925818
20
11.2283397147587
30
0
41
1
10
35.4878043328636
20
11.988411309843
30
0
0
SPLINE
5
19F
100
AcDbEntity
8
1
62
256
6
ByLayer
370
18
48
1
60
0
100
AcDbSpline
70
4
71
3
72
16
73
12
40
0
40
0
40
0
40
0
40
0.463423600832209
40
0.463423600832209
40
0.646243952932815
40
0.646243952932815
40
0.831657283224495
40
0.831657283224495
40
0.947504344290837
40
0.947504344290837
40
1
40
1
40
1
40
1
41
1
10
13.8943375672974
20
-9.86941261896621
30
0
41
1
10
13.8656609252734
20
-9.76458357826289
30
0
41
1
10
13.8263500123909
20
-9.66039292789941
30
0
41
1
10
13.7453819366532
20
-9.52957658281042
30
0
41
1
10
13.7190869808859
20
-9.49380155568073
30
0
41
1
10
13.6579862203325
20
-9.42941539787637
30
0
41
1
10
13.6222599905468
20
-9.40014891155712
30
0
41
1
10
13.556648346355
20
-9.36662118733784
30
0
41
1
10
13.5289597975987
20
-9.35698328824239
30
0
41
1
10
13.4876776374751
20
-9.35029954873104
30
0
41
1
10
13.4744789968601
20
-9.34922131452501
30
0
41
1
10
13.4613248654052
20
-9.34922131452501
30
0
0
SPLINE
5
1A0
100
AcDbEntity
8
1
62
256
6
ByLayer
370
18
48
1
60
0
100
AcDbSpline
70
4
71
3
72
16
73
12
40
0
40
0
40
0
40
0
40
0.113316224833593
40
0.113316224833593
40
0.252990411571579
40
0.252990411571579
40
0.473309013928354
40
0.473309013928354
40
0.896716357718913
40
0.896716357718913
40
1
40
1
40
1
40
1
41
1
10
10.5386751345948
20
-9.34922131452512
30
0
41
1
10
10.5105874404281
20
-9.34922131452512
30
0
41
1
10
10.482150642237
20
-9.35431657338984
30
0
41
1
10
10.4232029654275
20
-9.37467777536568
30
0
41
1
10
10.3927526278712
20
-9.39213979793414
30
0
41
1
10
10.3230856363398
20
-9.44503542604386
30
0
41
1
10
10.2871733492349
20
-9.48569380431883
30
0
41
1
10
10.1985362549164
20
-9.6110592336681
30
0
41
1
10
10.1576291602469
20
-9.70465429390072
30
0
41
1
10
10.1190965262402
20
-9.82244573862477
30
0
41
1
10
10.112102816203
20
-9.84586944318031
30
0
41
1
10
10.1056624327025
20
-9.86941261896618
30
0
0
SPLINE
5
1A1
100
AcDbEntity
8
1
62
256
6
ByLayer
370
18
48
1
60
0
100
AcDbSpline
70
4
71
3
72
16
73
12
40
0
40
0
40
0
40
0
40
0.463423600832241
40
0.463423600832241
40
0.646243952932834
40
0.646243952932834
40
0.831657283224497
40
0.831657283224497
40
0.947504344290847
40
0.947504344290847
40
1
40
1
40
1
40
1
41
1
10
13.8943375672974
20
29.9139548464691
30
0
41
1
10
13.8656609252734
20
29.9485407466772
30
0
41
1
10
13.8263500123909
20
29.982269090612
30
0
41
1
10
13.7453819366532
20
30.0239686896252
30
0
41
1
10
13.7190869808859
20
30.0352936109065
30
0
41
1
10
13.6579862203325
20
30.0555697561518
30
0
41
1
10
13.6222599905467
20
30.0647246060481
30
0
41
1
10
13.556648346355
20
30.0751823136668
30
0
41
1
10
13.5289597975987
20
30.0781795790239
30
0
41
1
10
13.4876776374751
20
30.0802576981002
30
0
41
1
10
13.47447899686
20
30.0805927603169
30
0
41
1
10
13.4613248654052
20
30.0805927603169
30
0
0
SPLINE
5
1A2
100
AcDbEntity
8
1
62
256
6
ByLayer
370
18
48
1
60
0
100
AcDbSpline
70
4
71
3
72
8
73
4
40
0
40
0
40
0
40
0
40
1
40
1
40
1
40
1
41
1
10
23.8962856159808
20
-31.0760760071151
30
0
41
1
10
23.5776018829067
20
-31.0760760071151
30
0
41
1
10
23.2659394678548
20
-31.0688931604307
30
0
41
1
10
22.9609847588647
20
-31.0544615075761
30
0
0
SPLINE
5
1A3
100
AcDbEntity
8
1
62
256
6
ByLayer
370
18
48
1
60
0
100
AcDbSpline
70
4
71
3
72
8
73
4
40
0
40
0
40
0
40
0
40
1
40
1
40
1
40
1
41
1
10
22.92079238
20
30.8996141556632
30
0
41
1
10
22.9876698376536
20
31.1573850967534
30
0
41
1
10
23.0547179127685
20
31.4152349486452
30
0
41
1
10
23.1219141666923
20
31.6731305178926
30
0
0
SPLINE
5
1A4
100
AcDbEntity
8
1
62
256
6
ByLayer
370
18
48
1
60
0
100
AcDbSpline
70
4
71
3
72
10
73
6
40
0
40
0
40
0
40
0
40
0.690272108908799
40
0.690272108908799
40
1
40
1
40
1
40
1
41
1
10
13.8943375672974
20
24.7520548830776
30
0
41
1
10
13.8395431206921
20
24.5485075382183
30
0
41
1
10
13.7572550106766
20
24.3530769032313
30
0
41
1
10
13.5891377804999
20
24.1179667125787
30
0
41
1
10
13.5287708184857
20
24.0507408934402
30
0
41
1
10
13.4613248654052
20
23.9979013266023
30
0
0
SPLINE
5
1A5
100
AcDbEntity
8
1
62
256
6
ByLayer
370
18
48
1
60
0
100
AcDbSpline
70
4
71
3
72
8
73
4
40
0
40
0
40
0
40
0
40
1
40
1
40
1
40
1
41
1
10
24.078325231456
20
35.4011561406791
30
0
41
1
10
23.7545313398447
20
34.1529547766159
30
0
41
1
10
23.4351052065542
20
32.9102917796717
30
0
41
1
10
23.1219141666924
20
31.6731305178926
30
0
0
SPLINE
5
1A6
100
AcDbEntity
8
1
62
256
6
ByLayer
370
18
48
1
60
0
100
AcDbSpline
70
4
71
3
72
15
73
11
40
0
40
0
40
0
40
0
40
0.28103962914102
40
0.28103962914102
40
0.562712048900373
40
0.562712048900373
40
0.835250831097508
40
0.835250831097508
40
0.835250831097508
40
1
40
1
40
1
40
1
41
1
10
19.9115068236138
20
-29.9850116132027
30
0
41
1
10
19.9505361776874
20
-30.1286017607468
30
0
41
1
10
20.0674973665296
20
-30.2617723075542
30
0
41
1
10
20.4463314652044
20
-30.489895050164
30
0
41
1
10
20.7141452574929
20
-30.5880850478212
30
0
41
1
10
21.3538238361363
20
-30.741378992888
30
0
41
1
10
21.7310620960588
20
-30.8001569918553
30
0
41
1
10
22.1388781334302
20
-30.8415901871074
30
0
41
1
10
22.3877509516846
20
-30.8668751075782
30
0
41
1
10
22.6513106929054
20
-30.88619079412
30
0
41
1
10
22.92079238
20
-30.8996141556632
30
0
0
SPLINE
5
1A7
100
AcDbEntity
8
1
62
256
6
ByLayer
370
18
48
1
60
0
100
AcDbSpline
70
4
71
3
72
8
73
4
40
0
40
0
40
0
40
0
40
1
40
1
40
1
40
1
41
1
10
26.1123860295246
20
32.2287925192459
30
0
41
1
10
26.5153513270615
20
32.6036260351651
30
0
41
1
10
26.9706256135682
20
32.8981344052179
30
0
41
1
10
27.4794636827083
20
33.1103907811497
30
0
0
SPLINE
5
1A8
100
AcDbEntity
8
1
62
256
6
ByLayer
370
18
48
1
60
0
100
AcDbSpline
70
4
71
2
72
6
73
3
40
0
40
0
40
0
40
1
40
1
40
1
41
1
10
27.3502936798425
20
25.3724013743362
30
0
41
1
10
26.7795265971025
20
25.3936358978876
30
0
41
1
10
26.3642866033983
20
25.1225020439775
30
0
0
SPLINE
5
1A9
100
AcDbEntity
8
1
62
256
6
ByLayer
370
18
48
1
60
0
100
AcDbSpline
70
4
71
3
72
14
73
10
40
0
40
0
40
0
40
0
40
0.264682281129105
40
0.264682281129105
40
0.529206797196864
40
0.529206797196864
40
0.796215005013496
40
0.796215005013496
40
1
40
1
40
1
40
1
41
1
10
22.92079238
20
30.8996141556632
30
0
41
1
10
22.4918347090298
20
30.8782470120691
30
0
41
1
10
22.0760939855286
20
30.8416690423415
30
0
41
1
10
21.3399746287024
20
30.7377355602684
30
0
41
1
10
21.0095242838747
20
30.6687823920308
30
0
41
1
10
20.4724242383792
20
30.4990243000185
30
0
41
1
10
20.2597267854547
20
30.3955004707743
30
0
41
1
10
20.0093210835962
20
30.1888506958789
30
0
41
1
10
19.9399854717531
20
30.0897854016817
30
0
41
1
10
19.9115068236138
20
29.9850116132027
30
0
0
SPLINE
5
1AA
100
AcDbEntity
8
1
62
256
6
ByLayer
370
18
48
1
60
0
100
AcDbSpline
70
4
71
3
72
10
73
6
40
0
40
0
40
0
40
0
40
0.5
40
0.5
40
1
40
1
40
1
40
1
41
1
10
33.175698137439
20
11.8612335235095
30
0
41
1
10
34.1473231542836
20
10.7158906863945
30
0
41
1
10
35.4461692830092
20
9.87645419104962
30
0
41
1
10
38.2350173462498
20
8.86115797390548
30
0
41
1
10
39.7879733983864
20
8.70733058550303
30
0
41
1
10
41.2202093254758
20
9.20083922261011
30
0
0
SPLINE
5
1AB
100
AcDbEntity
8
1
62
256
6
ByLayer
370
18
48
1
60
0
100
AcDbSpline
70
4
71
1
72
4
73
2
40
0
40
0
40
1
40
1
41
1
10
26.3642866033983
20
25.1225020439775
30
0
41
1
10
26.2892318538539
20
25.0734945210829
30
0
0
SPLINE
5
1AC
100
AcDbEntity
8
1
62
256
6
ByLayer
370
18
48
1
60
0
100
AcDbSpline
70
4
71
3
72
8
73
4
40
0
40
0
40
0
40
0
40
1
40
1
40
1
40
1
41
1
10
23.1219141666924
20
31.6731305178926
30
0
41
1
10
23.3668720439318
20
31.2771209759303
30
0
41
1
10
23.629119747669
20
30.8870110354033
30
0
41
1
10
23.8962856159808
20
30.500632379144
30
0
0
SPLINE
5
1AD
100
AcDbEntity
8
1
62
256
6
ByLayer
370
18
48
1
60
0
100
AcDbSpline
70
4
71
3
72
10
73
6
40
0
40
0
40
0
40
0
40
0.380409167241274
40
0.380409167241274
40
1
40
1
40
1
40
1
41
1
10
10.5386751345948
20
23.9979013266023
30
0
41
1
10
10.4562351620401
20
24.0624877434437
30
0
41
1
10
10.3844110470353
20
24.1483900669021
30
0
41
1
10
10.2264153584242
20
24.3932272932951
30
0
41
1
10
10.1549704016743
20
24.5688883983991
30
0
41
1
10
10.1056624327026
20
24.7520548830776
30
0
0
SPLINE
5
1AE
100
AcDbEntity
8
1
62
256
6
ByLayer
370
18
48
1
60
0
100
AcDbSpline
70
4
71
2
72
7
73
4
40
0
40
0
40
0
40
0.422013723493268
40
1
40
1
40
1
41
1
10
33.1334019658717
20
12.0657159072615
30
0
41
1
10
33.67758972013
20
11.7805865605679
30
0
41
1
10
34.9116535878269
20
11.6122096570556
30
0
41
1
10
35.4127495833192
20
11.9394037869484
30
0
0
SPLINE
5
1AF
100
AcDbEntity
8
1
62
256
6
ByLayer
370
18
48
1
60
0
100
AcDbSpline
70
4
71
3
72
11
73
7
40
0
40
0
40
0
40
0
40
0.226877868314768
40
0.381502294651815
40
0.690751147325907
40
1
40
1
40
1
40
1
41
1
10
41.7013352907115
20
9.38222382198239
30
0
41
1
10
41.2846446116686
20
9.25850091546067
30
0
41
1
10
40.533510660083
20
9.15858072277211
30
0
41
1
10
39.0750042084332
20
9.34044551152627
30
0
41
1
10
37.3665911982205
20
10.069862180666
30
0
41
1
10
36.0970923421262
20
11.2773472376533
30
0
41
1
10
35.5628590824079
20
12.0374188327376
30
0
0
SPLINE
5
1B0
100
AcDbEntity
8
1
62
256
6
ByLayer
370
18
48
1
60
0
100
AcDbSpline
70
4
71
3
72
24
73
20
40
0
40
0
40
0
40
0
40
0.0075875801221371
40
0.0075875801221371
40
0.361087076888804
40
0.361087076888804
40
0.42061717707599
40
0.42061717707599
40
0.596344571898488
40
0.596344571898488
40
0.714602008946851
40
0.714602008946851
40
0.833270899065745
40
0.833270899065745
40
0.94736884797215
40
0.94736884797215
40
0.994729892674215
40
0.994729892674215
40
1
40
1
40
1
40
1
41
1
10
36.2856983101768
20
14.1246477294192
30
0
41
1
10
36.2892708194257
20
14.1225119929461
30
0
41
1
10
36.2928506352443
20
14.1203747179408
30
0
41
1
10
36.4636304385932
20
14.0196277317109
30
0
41
1
10
36.6526865824064
20
13.9413545844246
30
0
41
1
10
36.8916806105858
20
13.9049550472993
30
0
41
1
10
36.9272748689027
20
13.9010311792953
30
0
41
1
10
37.0678767440074
20
13.8921049241078
30
0
41
1
10
37.1783936566461
20
13.8996868402774
30
0
41
1
10
37.3558029403713
20
13.9450703946493
30
0
41
1
10
37.4268036242361
20
13.9728914093918
30
0
41
1
10
37.5553751955575
20
14.0452888880338
30
0
41
1
10
37.6144903747542
20
14.0908730322323
30
0
41
1
10
37.7110348081718
20
14.1897718257357
30
0
41
1
10
37.7504636678151
20
14.2437496450409
30
0
41
1
10
37.7940757257823
20
14.3220464442685
30
0
41
1
10
37.8055425068709
20
14.3455071727644
30
0
41
1
10
37.8167573963752
20
14.3716618399661
30
0
41
1
10
37.8178309247376
20
14.374231525883
30
0
41
1
10
37.8189072236727
20
14.3767909005857
30
0
0
SPLINE
5
1B1
100
AcDbEntity
8
1
62
256
6
ByLayer
370
18
48
1
60
0
100
AcDbSpline
70
4
71
3
72
10
73
6
40
0
40
0
40
0
40
0
40
0.568935487604416
40
0.758580650139221
40
1
40
1
40
1
40
1
41
1.02613459695995
10
31.1002587885722
20
30.9074494137862
30
0
41
1.02613459695995
10
30.3996353944644
20
30.3956689238925
30
0
41
1.02613459695995
10
29.6890166885333
20
29.3884196093679
30
0
41
1.02613459695995
10
29.3363137267283
20
27.6558644439155
30
0
41
1.02613459695995
10
29.3440400670811
20
26.8256537297684
30
0
41
1.02613459695995
10
29.4059363569007
20
26.3443460942477
30
0
0
SPLINE
5
1B2
100
AcDbEntity
8
1
62
256
6
ByLayer
370
18
48
1
60
0
100
AcDbSpline
70
4
71
3
72
16
73
12
40
0
40
0
40
0
40
0
40
0.113316224833594
40
0.113316224833594
40
0.252990411571577
40
0.252990411571577
40
0.473309013928351
40
0.473309013928351
40
0.896716357718897
40
0.896716357718897
40
1
40
1
40
1
40
1
41
1
10
10.5386751345948
20
30.0805927603169
30
0
41
1
10
10.5105874404281
20
30.0805927603169
30
0
41
1
10
10.482150642237
20
30.0790101689566
30
0
41
1
10
10.4232029654275
20
30.0726712338969
30
0
41
1
10
10.3927526278712
20
30.0672275748685
30
0
41
1
10
10.3230856363398
20
30.0506647867052
30
0
41
1
10
10.2871733492349
20
30.0378702684275
30
0
41
1
10
10.1985362549164
20
29.9980833386355
30
0
41
1
10
10.1576291602469
20
29.967975934908
30
0
41
1
10
10.1190965262402
20
29.9294196064672
30
0
41
1
10
10.112102816203
20
29.9217223689309
30
0
41
1
10
10.1056624327025
20
29.9139548464691
30
0
0
SPLINE
5
1B3
100
AcDbEntity
8
1
62
256
6
ByLayer
370
18
48
1
60
0
100
AcDbSpline
70
4
71
2
72
6
73
3
40
0
40
0
40
0
40
1
40
1
40
1
41
1
10
35.5628590824079
20
12.0374188327376
30
0
41
1
10
35.5253317076358
20
12.0129150712903
30
0
41
1
10
35.4878043328636
20
11.988411309843
30
0
0
SPLINE
5
1B4
100
AcDbEntity
8
1
62
256
6
ByLayer
370
18
48
1
60
0
100
AcDbSpline
70
4
71
2
72
6
73
3
40
0
40
0
40
0
40
1
40
1
40
1
41
1
10
28.6355722726394
20
25.0138379303848
30
0
41
1
10
28.2578782007037
20
25.2002044509367
30
0
41
1
10
27.8580776001508
20
25.2986649827311
30
0
0
SPLINE
5
1B5
100
AcDbEntity
8
1
62
256
6
ByLayer
370
18
48
1
60
0
100
AcDbSpline
70
4
71
1
72
4
73
2
40
0
40
0
40
1
40
1
41
1
10
26.2892318538539
20
25.0734945210829
30
0
41
1
10
26.2141771043096
20
25.0244869981883
30
0
0
SPLINE
5
1B6
100
AcDbEntity
8
1
62
256
6
ByLayer
370
18
48
1
60
0
100
AcDbSpline
70
4
71
3
72
8
73
4
40
0
40
0
40
0
40
0
40
1
40
1
40
1
40
1
41
1
10
25.5868137757096
20
41.1829325693247
30
0
41
1
10
25.0816564173627
20
39.256306236042
30
0
41
1
10
24.5784611903679
20
37.3291430555162
30
0
41
1
10
24.078325231456
20
35.4011561406791
30
0
0
SPLINE
5
1B7
100
AcDbEntity
8
1
62
256
6
ByLayer
370
18
48
1
60
0
100
AcDbSpline
70
4
71
2
72
6
73
3
40
0
40
0
40
0
40
1
40
1
40
1
41
1
10
35.4878043328636
20
11.988411309843
30
0
41
1
10
35.4502769580914
20
11.9639075483957
30
0
41
1
10
35.4127495833192
20
11.9394037869484
30
0
0
SPLINE
5
1B8
100
AcDbEntity
8
1
62
256
6
ByLayer
370
18
48
1
60
0
100
AcDbSpline
70
4
71
3
72
12
73
8
40
0
40
0
40
0
40
0
40
0.290768162287771
40
0.290768162287771
40
0.581536297163925
40
0.581536297163925
40
1
40
1
40
1
40
1
41
1
10
41.2202093253612
20
9.20083922069784
30
0
41
1
10
41.2438457192649
20
9.20898366417484
30
0
41
1
10
41.2674479976851
20
9.21722779289914
30
0
41
1
10
41.3145820431734
20
9.23391389247689
30
0
41
1
10
41.3381142255624
20
9.24235601218817
30
0
41
1
10
41.3954250793167
20
9.26318743992957
30
0
41
1
10
41.4291662579881
20
9.27568243849143
30
0
41
1
10
41.4628306358128
20
9.28837921641392
30
0
0
SPLINE
5
1B9
100
AcDbEntity
8
1
62
256
6
ByLayer
370
18
48
1
60
0
100
AcDbSpline
70
4
71
3
72
10
73
6
40
0
40
0
40
0
40
0
40
0.568935487604414
40
0.758580650139219
40
1
40
1
40
1
40
1
41
1.02613459695995
10
42.5984743873342
20
14.5510953997364
30
0
41
1.02613459695995
10
41.8987011442779
20
14.0381055594488
30
0
41
1.02613459695995
10
40.7357383300307
20
13.6743213381153
30
0
41
1.02613459695995
10
39.0141747290783
20
13.8889873755948
30
0
41
1.02613459695995
10
38.2458987578205
20
14.1626495550637
30
0
41
1.02613459695995
10
37.8189072236727
20
14.3767909005856
30
0
0
SPLINE
5
1BA
100
AcDbEntity
8
1
62
256
6
ByLayer
370
18
48
1
60
0
100
AcDbSpline
70
4
71
3
72
10
73
6
40
0
40
0
40
0
40
0
40
0.5
40
0.5
40
1
40
1
40
1
40
1
41
1
10
27.4794635003818
20
33.1103907599315
30
0
41
1
10
28.0288524685866
20
33.1743255350242
30
0
41
1
10
28.6902151456942
20
32.9921644227717
30
0
41
1
10
29.983110845945
20
32.2055490060908
30
0
41
1
10
30.6111405421062
20
31.6032261736854
30
0
41
1
10
31.1002587885722
20
30.9074494137862
30
0
0
SPLINE
5
1BB
100
AcDbEntity
8
1
62
256
6
ByLayer
370
18
48
1
60
0
100
AcDbSpline
70
4
71
3
72
10
73
6
40
0
40
0
40
0
40
0
40
0.5
40
0.5
40
1
40
1
40
1
40
1
41
1
10
42.5984743873343
20
14.5510953997364
30
0
41
1
10
43.0812833362627
20
13.8642936936808
30
0
41
1
10
43.4263134040956
20
13.0901074214175
30
0
41
1
10
43.7116244598929
20
11.6568481459422
30
0
41
1
10
43.6511711066251
20
11.001464103816
30
0
41
1
10
43.3989267964747
20
10.5300250042291
30
0
0
SPLINE
5
1BC
100
AcDbEntity
8
1
62
256
6
ByLayer
370
18
48
1
60
0
100
AcDbSpline
70
4
71
3
72
12
73
8
40
0
40
0
40
0
40
0
40
0.45150534291289
40
0.45150534291289
40
0.920730471123023
40
0.920730471123023
40
1
40
1
40
1
40
1
41
1
10
13.4613248654052
20
25.997099587303
30
0
41
1
10
13.547661047609
20
25.929460740764
30
0
41
1
10
13.6282992629309
20
25.8729427445377
30
0
41
1
10
13.7673195883123
20
25.7763694015603
30
0
41
1
10
13.8267012384145
20
25.7351243777348
30
0
41
1
10
13.8799694443486
20
25.7002149875781
30
0
41
1
10
13.8873502204194
20
25.6954884708364
30
0
41
1
10
13.8943375672974
20
25.6912337669114
30
0
0
SPLINE
5
1BD
100
AcDbEntity
8
1
62
256
6
ByLayer
370
18
48
1
60
0
100
AcDbSpline
70
4
71
1
72
4
73
2
40
0
40
0
40
1
40
1
41
1
10
27.8580776001508
20
25.2986649827311
30
0
41
1
10
27.3502936798425
20
25.3724013743362
30
0
0
SPLINE
5
1BE
100
AcDbEntity
8
1
62
256
6
ByLayer
370
18
48
1
60
0
100
AcDbSpline
70
4
71
3
72
10
73
6
40
0
40
0
40
0
40
0
40
0.546460146737551
40
0.546460146737551
40
1
40
1
40
1
40
1
41
1
10
10.1056624327026
20
25.6912337669117
30
0
41
1
10
10.1532894702054
20
25.7202346089961
30
0
41
1
10
10.2200330642683
20
25.76759902668
30
0
41
1
10
10.3706988494232
20
25.8722342073356
30
0
41
1
10
10.4518011249023
20
25.9290393875139
30
0
41
1
10
10.5386751345948
20
25.997099587303
30
0
0
SPLINE
5
1BF
100
AcDbEntity
8
1
62
256
6
ByLayer
370
18
48
1
60
0
100
AcDbSpline
70
4
71
3
72
16
73
12
40
0
40
0
40
0
40
0
40
0.463423600832241
40
0.463423600832241
40
0.646243952932837
40
0.646243952932837
40
0.831657283224505
40
0.831657283224505
40
0.947504344290848
40
0.947504344290848
40
1
40
1
40
1
40
1
41
1
10
10.1056624327026
20
9.86941261896621
30
0
41
1
10
10.1343390747265
20
9.76458357826289
30
0
41
1
10
10.1736499876091
20
9.66039292789938
30
0
41
1
10
10.2546180633468
20
9.52957658281042
30
0
41
1
10
10.2809130191141
20
9.49380155568073
30
0
41
1
10
10.3420137796675
20
9.42941539787637
30
0
41
1
10
10.3777400094532
20
9.40014891155712
30
0
41
1
10
10.4433516536449
20
9.36662118733787
30
0
41
1
10
10.4710402024013
20
9.35698328824239
30
0
41
1
10
10.5123223625249
20
9.35029954873107
30
0
41
1
10
10.5255210031399
20
9.34922131452504
30
0
41
1
10
10.5386751345948
20
9.34922131452504
30
0
0
SPLINE
5
1C0
100
AcDbEntity
8
1
62
256
6
ByLayer
370
18
48
1
60
0
100
AcDbSpline
70
4
71
3
72
16
73
12
40
0
40
0
40
0
40
0
40
0.113316224833596
40
0.113316224833596
40
0.252990411571581
40
0.252990411571581
40
0.473309013928343
40
0.473309013928343
40
0.896716357718895
40
0.896716357718895
40
1
40
1
40
1
40
1
41
1
10
13.4613248654052
20
-30.0805927603169
30
0
41
1
10
13.4894125595718
20
-30.0805927603169
30
0
41
1
10
13.517849357763
20
-30.0790101689567
30
0
41
1
10
13.5767970345725
20
-30.0726712338969
30
0
41
1
10
13.6072473721288
20
-30.0672275748685
30
0
41
1
10
13.6769143636602
20
-30.0506647867052
30
0
41
1
10
13.7128266507651
20
-30.0378702684275
30
0
41
1
10
13.8014637450836
20
-29.9980833386355
30
0
41
1
10
13.842370839753
20
-29.967975934908
30
0
41
1
10
13.8809034737598
20
-29.9294196064672
30
0
41
1
10
13.8878971837969
20
-29.9217223689309
30
0
41
1
10
13.8943375672975
20
-29.9139548464691
30
0
0
SPLINE
5
1C1
100
AcDbEntity
8
1
62
256
6
ByLayer
370
18
48
1
60
0
100
AcDbSpline
70
4
71
3
72
11
73
7
40
0
40
0
40
0
40
0
40
0.178398369361444
40
0.342718695489155
40
0.671359347744578
40
1
40
1
40
1
40
1
41
1.02613459695995
10
41.2202093231299
20
9.20083922023339
30
0
41
1.02613459695995
10
40.9008814010337
20
9.13437014716587
30
0
41
1.02613459695995
10
40.2588110508657
20
9.07610112698637
30
0
41
1.02613459695995
10
38.9248947093444
20
9.24243046573703
30
0
41
1.02613459695995
10
37.2164816991318
20
9.97184713487678
30
0
41
1.02613459695995
10
35.9469828430375
20
11.1793321918641
30
0
41
1.02613459695995
10
35.4127495833192
20
11.9394037869484
30
0
0
SPLINE
5
1C2
100
AcDbEntity
8
1
62
256
6
ByLayer
370
18
48
1
60
0
100
AcDbSpline
70
4
71
3
72
8
73
4
40
0
40
0
40
0
40
0
40
1
40
1
40
1
40
1
41
1
10
41.7013352907098
20
9.38222382198191
30
0
41
1
10
42.3429001618513
20
9.64521192078956
30
0
41
1
10
42.9165825949951
20
10.0315679210499
30
0
41
1
10
43.3989268281242
20
10.5300250633812
30
0
0
SPLINE
5
1C3
100
AcDbEntity
8
1
62
256
6
ByLayer
370
18
48
1
60
0
100
AcDbSpline
70
4
71
1
72
4
73
2
40
0
40
0
40
1
40
1
41
1
10
36.1692650879847
20
12.8272881682717
30
0
41
1
10
36.2864850480323
20
13.3090777112259
30
0
0
SPLINE
5
1C4
100
AcDbEntity
8
1
62
256
6
ByLayer
370
18
48
1
60
0
100
AcDbSpline
70
4
71
3
72
12
73
8
40
0
40
0
40
0
40
0
40
0.349686636732721
40
0.349686636732721
40
0.674837480218284
40
0.674837480218284
40
1
40
1
40
1
40
1
41
1
10
25.9584038228725
20
32.0828613425209
30
0
41
1
10
25.9761928536695
20
32.1000383854058
30
0
41
1
10
25.994038228516
20
32.1171573064897
30
0
41
1
10
26.0285842309588
20
32.1500811113191
30
0
41
1
10
26.0452774813106
20
32.1658940649851
30
0
41
1
10
26.07875996623
20
32.1974190628282
30
0
41
1
10
26.0955493544717
20
32.2131312448264
30
0
41
1
10
26.1123860295245
20
32.2287925192463
30
0
0
SPLINE
5
1C5
100
AcDbEntity
8
1
62
256
6
ByLayer
370
18
48
1
60
0
100
AcDbSpline
70
4
71
2
72
6
73
3
40
0
40
0
40
0
40
1
40
1
40
1
41
1
10
35.5628590824079
20
12.0374188327377
30
0
41
1
10
35.978094360712
20
12.3085496076943
30
0
41
1
10
36.1692650879847
20
12.8272881682717
30
0
0
SPLINE
5
1C6
100
AcDbEntity
8
1
62
256
6
ByLayer
370
18
48
1
60
0
100
AcDbSpline
70
4
71
3
72
10
73
6
40
0
40
0
40
0
40
0
40
0.94346466449175
40
0.94346466449175
40
1
40
1
40
1
40
1
41
1
10
33.1756981374355
20
11.8612335235064
30
0
41
1
10
33.1613722558566
20
11.9229676025113
30
0
41
1
10
33.1480661426853
20
11.9877020421098
30
0
41
1
10
33.1348806351507
20
12.0583561506738
30
0
41
1
10
33.1341322679775
20
12.0623422402649
30
0
41
1
10
33.1333988293106
20
12.0663317678434
30
0
0
SPLINE
5
1C7
100
AcDbEntity
8
1
62
256
6
ByLayer
370
18
48
1
60
0
100
AcDbSpline
70
4
71
3
72
16
73
12
40
0
40
0
40
0
40
0
40
0.463423600832262
40
0.463423600832262
40
0.646243952932856
40
0.646243952932856
40
0.831657283224518
40
0.831657283224518
40
0.94750434429086
40
0.94750434429086
40
1
40
1
40
1
40
1
41
1
10
10.1056624327026
20
-29.9139548464691
30
0
41
1
10
10.1343390747265
20
-29.9485407466772
30
0
41
1
10
10.1736499876091
20
-29.982269090612
30
0
41
1
10
10.2546180633468
20
-30.0239686896252
30
0
41
1
10
10.2809130191141
20
-30.0352936109065
30
0
41
1
10
10.3420137796675
20
-30.0555697561518
30
0
41
1
10
10.3777400094532
20
-30.0647246060481
30
0
41
1
10
10.4433516536449
20
-30.0751823136668
30
0
41
1
10
10.4710402024013
20
-30.0781795790239
30
0
41
1
10
10.5123223625249
20
-30.0802576981002
30
0
41
1
10
10.5255210031399
20
-30.0805927603169
30
0
41
1
10
10.5386751345948
20
-30.0805927603169
30
0
0
SPLINE
5
1C8
100
AcDbEntity
8
1
62
256
6
ByLayer
370
18
48
1
60
0
100
AcDbSpline
70
4
71
3
72
12
73
8
40
0
40
0
40
0
40
0
40
0.292615166674947
40
0.292615166674947
40
0.585230309866326
40
0.585230309866326
40
1
40
1
40
1
40
1
41
1
10
41.4628306363492
20
9.28837921493812
30
0
41
1
10
41.4862224336821
20
9.29720161046413
30
0
41
1
10
41.50957764699
20
9.30612161757199
30
0
41
1
10
41.5562126878966
20
9.32415536980957
30
0
41
1
10
41.5794929180787
20
9.33326927225806
30
0
41
1
10
41.6356788048109
20
9.35553442180196
30
0
41
1
10
41.6685466867688
20
9.368783228518
30
0
41
1
10
41.7013352907102
20
9.38222382198094
30
0
0
SPLINE
5
1C9
100
AcDbEntity
8
1
62
256
6
ByLayer
370
18
48
1
60
0
100
AcDbSpline
70
4
71
3
72
8
73
4
40
0
40
0
40
0
40
0
40
1
40
1
40
1
40
1
41
1
10
22.9609847588646
20
-31.0544615075761
30
0
41
1
10
22.9475806244986
20
-31.0028429217618
30
0
41
1
10
22.9341831017393
20
-30.9512270468484
30
0
41
1
10
22.92079238
20
-30.8996141556632
30
0
0
SPLINE
5
1CA
100
AcDbEntity
8
1
62
256
6
ByLayer
370
18
48
1
60
0
100
AcDbSpline
70
4
71
2
72
6
73
3
40
0
40
0
40
0
40
1
40
1
40
1
41
1
10
36.2864850480323
20
13.3090777112259
30
0
41
1
10
36.3387268696647
20
13.6950981421547
30
0
41
1
10
36.2869077513396
20
14.1235076623475
30
0
0
SPLINE
5
1CB
100
AcDbEntity
8
1
62
256
6
ByLayer
370
18
48
1
60
0
100
AcDbSpline
70
4
71
3
72
12
73
8
40
0
40
0
40
0
40
0
40
0.0182968219912156
40
0.0182968219912156
40
0.805534938804045
40
0.805534938804045
40
1
40
1
40
1
40
1
41
1
10
25.4913378604705
20
22.9372580897467
30
0
41
1
10
25.48776535123
20
22.9393938263657
30
0
41
1
10
25.4842010990526
20
22.9415424908158
30
0
41
1
10
25.3275886858105
20
23.035755899794
30
0
41
1
10
25.1849327437212
20
23.1309300083702
30
0
41
1
10
25.0514428169297
20
23.247666166475
30
0
41
1
10
25.0269016147821
20
23.2710526737257
30
0
41
1
10
25.0053692534634
20
23.2941870454445
30
0
0
SPLINE
5
1CC
100
AcDbEntity
8
SK1
62
256
6
ByLayer
370
18
48
1
60
0
100
AcDbSpline
70
4
71
3
72
22
73
18
40
0
40
0
40
0
40
0
40
0.366862607601256
40
0.366862607601256
40
0.737339621375052
40
0.737339621375052
40
0.838459586400285
40
0.838459586400285
40
0.872990642836393
40
0.872990642836393
40
0.908114554314301
40
0.908114554314301
40
0.93841147631739
40
0.93841147631739
40
0.978567405872927
40
0.978567405872927
40
1
40
1
40
1
40
1
41
1
10
-1.30710678118655
20
4.81101329740289
30
0
41
1
10
-1.26411319574365
20
5.05427021725674
30
0
41
1
10
-1.21291926611929
20
5.29463858107241
30
0
41
1
10
-1.07751639291712
20
5.76447191425098
30
0
41
1
10
-0.99999394263088
20
6.0024064332149
30
0
41
1
10
-0.818580317119483
20
6.26150782359156
30
0
41
1
10
-0.772786229091963
20
6.31609141287933
30
0
41
1
10
-0.693958175551444
20
6.37002132562083
30
0
41
1
10
-0.67174289599555
20
6.38213989760789
30
0
41
1
10
-0.624176343099663
20
6.39933264200099
30
0
41
1
10
-0.598041368844491
20
6.40433410743103
30
0
41
1
10
-0.550095873812666
20
6.4042038836908
30
0
41
1
10
-0.52764508925199
20
6.40038614973912
30
0
41
1
10
-0.479150674129698
20
6.38487542657816
30
0
41
1
10
-0.453444961156862
20
6.37100758594852
30
0
41
1
10
-0.417985764291785
20
6.34622757774423
30
0
41
1
10
-0.406197231050186
20
6.33682378409867
30
0
41
1
10
-0.394976888874737
20
6.32694309068151
30
0
0
SPLINE
5
1CD
100
AcDbEntity
8
SK1
62
256
6
ByLayer
370
18
48
1
60
0
100
AcDbSpline
70
4
71
3
72
22
73
18
40
0
40
0
40
0
40
0
40
0.025518692999354
40
0.025518692999354
40
0.0515625307794633
40
0.0515625307794633
40
0.0689220502117165
40
0.0689220502117165
40
0.0862030429090035
40
0.0862030429090035
40
0.113761926258803
40
0.113761926258803
40
0.167639902693809
40
0.167639902693809
40
0.357269752158031
40
0.357269752158031
40
1
40
1
40
1
40
1
41
1
10
-0.394976888875277
20
6.326943090669
30
0
41
1
10
-0.389699799773268
20
6.32229605774103
30
0
41
1
10
-0.38394554029108
20
6.31808234313019
30
0
41
1
10
-0.371336208800898
20
6.31155719556298
30
0
41
1
10
-0.364237316839024
20
6.30923328231674
30
0
41
1
10
-0.35209572007625
20
6.30844589498398
30
0
41
1
10
-0.347038791108759
20
6.3089739150856
30
0
41
1
10
-0.337436838154161
20
6.31166640764118
30
0
41
1
10
-0.332782752688161
20
6.31383711710231
30
0
41
1
10
-0.321723955926899
20
6.32078578121266
30
0
41
1
10
-0.315689795621665
20
6.32640446307903
30
0
41
1
10
-0.300083216036057
20
6.3442802085479
30
0
41
1
10
-0.292057158925616
20
6.35806878925098
30
0
41
1
10
-0.261294067338724
20
6.42092251611513
30
0
41
1
10
-0.248999237994838
20
6.47445017323312
30
0
41
1
10
-0.204624309665832
20
6.70435570668306
30
0
41
1
10
-0.200000000000955
20
6.88379158154922
30
0
41
1
10
-0.200000000000955
20
7.05951756777665
30
0
0
SPLINE
5
1CE
100
AcDbEntity
8
SK1
62
256
6
ByLayer
370
18
48
1
60
0
100
AcDbSpline
70
4
71
3
72
22
73
18
40
0
40
0
40
0
40
0
40
0.038427246458711
40
0.038427246458711
40
0.0775026456766427
40
0.0775026456766427
40
0.106475059033524
40
0.106475059033524
40
0.135305917881828
40
0.135305917881828
40
0.182167074412018
40
0.182167074412018
40
0.275660663800869
40
0.275660663800869
40
0.616530102228659
40
0.616530102228659
40
1
40
1
40
1
40
1
41
1
10
-0.394976888875306
20
-6.32694279392757
30
0
41
1
10
-0.414867561016194
20
-6.34445862132063
30
0
41
1
10
-0.436644357284194
20
-6.36058691921457
30
0
41
1
10
-0.484524151203374
20
-6.3868168818706
30
0
41
1
10
-0.511419954277358
20
-6.39702622866628
30
0
41
1
10
-0.560078773491597
20
-6.40490957850619
30
0
41
1
10
-0.58185248496946
20
-6.40512642059926
30
0
41
1
10
-0.623683911276856
20
-6.39912423041605
30
0
41
1
10
-0.644207278837683
20
-6.39293597600829
30
0
41
1
10
-0.694134540330907
20
-6.37121870092642
30
0
41
1
10
-0.722113964046542
20
-6.35215911803172
30
0
41
1
10
-0.796598131612939
20
-6.28903777408343
30
0
41
1
10
-0.836555557792792
20
-6.23798237717094
30
0
41
1
10
-0.997773060879837
20
-5.995390913813
30
0
41
1
10
-1.07178904300878
20
-5.77805690787602
30
0
41
1
10
-1.20827315239353
20
-5.31693201445015
30
0
41
1
10
-1.26212533694985
20
-5.06551762472202
30
0
41
1
10
-1.30710678118655
20
-4.81101321788441
30
0
0
SPLINE
5
1CF
100
AcDbEntity
8
SK1
62
256
6
ByLayer
370
18
48
1
60
0
100
AcDbSpline
70
4
71
3
72
10
73
6
40
0
40
0
40
0
40
0
40
0.5
40
0.5
40
1
40
1
40
1
40
1
41
1
10
-1.30710678118655
20
4.81101329740289
30
0
41
1
10
-1.57713284158248
20
3.28321078789992
30
0
41
1
10
-1.79449339715788
20
1.64680798700616
30
0
41
1
10
-1.79438545511854
20
-1.6481258022005
30
0
41
1
10
-1.57704898370505
20
-3.28368386467716
30
0
41
1
10
-1.30710678118663
20
-4.81101321788435
30
0
0
SPLINE
5
1D0
100
AcDbEntity
8
SK1
62
256
6
ByLayer
370
18
48
1
60
0
100
AcDbSpline
70
4
71
3
72
26
73
22
40
0
40
0
40
0
40
0
40
0.462420532187944
40
0.462420532187944
40
0.662465761698283
40
0.662465761698283
40
0.830433309169693
40
0.830433309169693
40
0.87601894963741
40
0.87601894963741
40
0.905535493032455
40
0.905535493032455
40
0.92577818311669
40
0.92577818311669
40
0.946307111163799
40
0.946307111163799
40
0.963675313617857
40
0.963675313617857
40
0.991859972782862
40
0.991859972782862
40
1
40
1
40
1
40
1
41
1
10
-0.199999999999989
20
-7.05951749342083
30
0
41
1
10
-0.199999999999989
20
-6.93273416480454
30
0
41
1
10
-0.203968014086513
20
-6.80463429773329
30
0
41
1
10
-0.223222206303944
20
-6.62063667774228
30
0
41
1
10
-0.230822389897867
20
-6.56482953243432
30
0
41
1
10
-0.252035566714568
20
-6.46316921019911
30
0
41
1
10
-0.263798801619998
20
-6.41617607028249
30
0
41
1
10
-0.290531391619595
20
-6.36108887379029
30
0
41
1
10
-0.29710300077241
20
-6.34947181616241
30
0
41
1
10
-0.310313928765424
20
-6.33213067856883
30
0
41
1
10
-0.316208846631128
20
-6.32567949173321
30
0
41
1
10
-0.327595492701022
20
-6.31681373578161
30
0
41
1
10
-0.332739264568545
20
-6.31372817209197
30
0
41
1
10
-0.343644708736434
20
-6.30958040401461
30
0
41
1
10
-0.349575964479982
20
-6.30853210514005
30
0
41
1
10
-0.360183897281416
20
-6.30881607347521
30
0
41
1
10
-0.365032052617437
20
-6.30978620719449
30
0
41
1
10
-0.376922909163994
20
-6.31387292952667
30
0
41
1
10
-0.383695246431131
20
-6.3179475897727
30
0
41
1
10
-0.39156461480826
20
-6.32402624429125
30
0
41
1
10
-0.393293161608796
20
-6.32546009510432
30
0
41
1
10
-0.394976888875277
20
-6.32694279392757
30
0
0
SPLINE
5
1D1
100
AcDbEntity
8
1
62
256
6
ByLayer
370
18
48
1
60
0
100
AcDbSpline
70
4
71
3
72
10
73
6
40
0
40
0
40
0
40
0
40
0.276054056491938
40
0.276054056491938
40
1
40
1
40
1
40
1
41
1
10
42.2738848054259
20
26.1655472382842
30
0
41
1
10
42.2684894670604
20
26.1669731229566
30
0
41
1
10
42.2631884755812
20
26.1682976662731
30
0
41
1
10
42.2444090080231
20
26.1727349786111
30
0
41
1
10
42.2314574237472
20
26.1753064573374
30
0
41
1
10
42.2191137786066
20
26.177353672144
30
0
0
SPLINE
5
1D2
100
AcDbEntity
8
1
62
256
6
ByLayer
370
18
48
1
60
0
100
AcDbSpline
70
4
71
3
72
10
73
6
40
0
40
0
40
0
40
0
40
0.276054056492342
40
0.276054056492342
40
1
40
1
40
1
40
1
41
1
10
43.6635761872317
20
28.5635205183806
30
0
41
1
10
43.6696984570591
20
28.5628215651699
30
0
41
1
10
43.6757612364079
20
28.562258809723
30
0
41
1
10
43.6973951917223
20
28.5606759851414
30
0
41
1
10
43.7126135487413
20
28.5603712791582
30
0
41
1
10
43.7273505562579
20
28.5607174267276
30
0
0
SPLINE
5
1D3
100
AcDbEntity
8
1
62
256
6
ByLayer
370
18
48
1
60
0
100
AcDbSpline
70
4
71
3
72
10
73
6
40
0
40
0
40
0
40
0
40
0.355593196477755
40
0.355593196477755
40
1
40
1
40
1
40
1
41
1
10
41.5910249026732
20
27.0708178726294
30
0
41
1
10
41.5923227610458
20
27.0766199214779
30
0
41
1
10
41.5935453367727
20
27.0826059326116
30
0
41
1
10
41.596730384244
20
27.0999439114971
30
0
41
1
10
41.5985024526148
20
27.1117713483573
30
0
41
1
10
41.5999053675492
20
27.1242913311756
30
0
0
SPLINE
5
1D4
100
AcDbEntity
8
1
62
256
6
ByLayer
370
18
48
1
60
0
100
AcDbSpline
70
4
71
3
72
10
73
6
40
0
40
0
40
0
40
0
40
0.201157530231731
40
0.201157530231731
40
1
40
1
40
1
40
1
41
1
10
42.5534876642124
20
26.0200066587075
30
0
41
1
10
42.5505423931452
20
26.0224430553627
30
0
41
1
10
42.5475415678256
20
26.0248863505574
30
0
41
1
10
42.5323989713008
20
26.0370134115612
30
0
41
1
10
42.5193678345195
20
26.0468248490069
30
0
41
1
10
42.5053394956424
20
26.0566311242588
30
0
0
SPLINE
5
1D5
100
AcDbEntity
8
1
62
256
6
ByLayer
370
18
48
1
60
0
100
AcDbSpline
70
4
71
3
72
10
73
6
40
0
40
0
40
0
40
0
40
0.201157530231483
40
0.201157530231483
40
1
40
1
40
1
40
1
41
1
10
43.3929766706513
20
28.7180644401633
30
0
41
1
10
43.3952535478193
20
28.7149596496088
30
0
41
1
10
43.3975963051898
20
28.711858286465
30
0
41
1
10
43.4095384536104
20
28.6965307773571
30
0
41
1
10
43.420186367612
20
28.6843361171316
30
0
41
1
10
43.4321214970156
20
28.6724366324063
30
0
0
SPLINE
5
1D6
100
AcDbEntity
8
1
62
256
6
ByLayer
370
18
48
1
60
0
100
AcDbSpline
70
4
71
3
72
10
73
6
40
0
40
0
40
0
40
0
40
0.537616842494946
40
0.537616842494946
40
1
40
1
40
1
40
1
41
1
10
44.3611434402413
20
27.3508914187423
30
0
41
1
10
44.3657557628577
20
27.3409085249925
30
0
41
1
10
44.370675202313
20
27.3314565805835
30
0
41
1
10
44.3802237234155
20
27.3148172292062
30
0
41
1
10
44.384807471803
20
27.3074800916716
30
0
41
1
10
44.3895158615445
20
27.3004751059717
30
0
0
SPLINE
5
1D7
100
AcDbEntity
8
1
62
256
6
ByLayer
370
18
48
1
60
0
100
AcDbSpline
70
4
71
3
72
10
73
6
40
0
40
0
40
0
40
0
40
0.355593196477923
40
0.355593196477923
40
1
40
1
40
1
40
1
41
1
10
44.355439432189
20
27.6672532262399
30
0
41
1
10
44.3529614973858
20
27.6602711009607
30
0
41
1
10
44.3505907095152
20
27.6531368776834
30
0
41
1
10
44.3442965480912
20
27.6326897848451
30
0
41
1
10
44.3406470972924
20
27.618984965557
30
0
41
1
10
44.3375556251087
20
27.6047764254895
30
0
0
SPLINE
5
1D8
100
AcDbEntity
8
1
62
256
6
ByLayer
370
18
48
1
60
0
100
AcDbSpline
70
4
71
3
72
10
73
6
40
0
40
0
40
0
40
0
40
0.537616842495281
40
0.537616842495281
40
1
40
1
40
1
40
1
41
1
10
41.5763175524167
20
27.3781763379228
30
0
41
1
10
41.5731156311302
20
27.3895696330023
30
0
41
1
10
41.5697382844264
20
27.4005636701629
30
0
41
1
10
41.5632309423397
20
27.4202442005562
30
0
41
1
10
41.5601254208587
20
27.4290595649971
30
0
41
1
10
41.5569484733201
20
27.4375959929
30
0
0
SPLINE
5
1D9
100
AcDbEntity
8
1
62
256
6
ByLayer
370
18
48
1
60
0
100
AcDbSpline
70
4
71
3
72
10
73
6
40
0
40
0
40
0
40
0
40
0.769561481283256
40
0.769561481283256
40
1
40
1
40
1
40
1
41
1
10
43.9356949289739
20
26.3182243355061
30
0
41
1
10
43.920401032291
20
26.313713494098
30
0
41
1
10
43.9046901255016
20
26.3085178301412
30
0
41
1
10
43.8838660755013
20
26.3007068713447
30
0
41
1
10
43.8790280960615
20
26.2988291910153
30
0
41
1
10
43.8741646244223
20
26.2968736714162
30
0
0
SPLINE
5
1DA
100
AcDbEntity
8
1
62
256
6
ByLayer
370
18
48
1
60
0
100
AcDbSpline
70
4
71
3
72
10
73
6
40
0
40
0
40
0
40
0
40
0.230438518716765
40
0.230438518716765
40
1
40
1
40
1
40
1
41
1
10
43.6662977493382
20
26.1519047786931
30
0
41
1
10
43.6634812314686
20
26.1485041799844
30
0
41
1
10
43.6607744713218
20
26.1451200669506
30
0
41
1
10
43.6495030845956
20
26.1305472769087
30
0
41
1
10
43.6419745102544
20
26.1195354434198
30
0
41
1
10
43.6353974727118
20
26.1087932286773
30
0
0
SPLINE
5
1DB
100
AcDbEntity
8
1
62
256
6
ByLayer
370
18
48
1
60
0
100
AcDbSpline
70
4
71
3
72
10
73
6
40
0
40
0
40
0
40
0
40
0.230438518716716
40
0.230438518716716
40
1
40
1
40
1
40
1
41
1
10
42.2711632433196
20
28.5771629779717
30
0
41
1
10
42.2745852226836
20
28.5811690381749
30
0
41
1
10
42.2779215990644
20
28.5851827674426
30
0
41
1
10
42.2920111140144
20
28.6025736857083
30
0
41
1
10
42.3019435149404
20
28.615989345782
30
0
41
1
10
42.3110668621514
20
28.6292778701929
30
0
0
SPLINE
5
1DC
100
AcDbEntity
8
1
62
256
6
ByLayer
370
18
48
1
60
0
100
AcDbSpline
70
4
71
3
72
10
73
6
40
0
40
0
40
0
40
0
40
0.769561481283277
40
0.769561481283277
40
1
40
1
40
1
40
1
41
1
10
42.0107694058892
20
28.4198467633642
30
0
41
1
10
42.0235169929038
20
28.4218112951038
30
0
41
1
10
42.0368240731083
20
28.4246031324758
30
0
41
1
10
42.0548299948849
20
28.4295959630485
30
0
41
1
10
42.0590383580908
20
28.430844027144
30
0
41
1
10
42.0632963682355
20
28.4321940852486
30
0
0
INSERT
5
1EE
100
AcDbEntity
8
2
62
256
6
ByLayer
370
25
48
1
60
0
100
AcDbBlockReference
2
DimnDraft3D11
10
0
20
0
30
0
41
1
42
1
43
1
50
0
210
0
220
0
230
1
0
LINE
5
72
100
AcDbEntity
8
1
62
256
6
ByLayer
370
18
48
1
60
0
100
AcDbLine
10
25.095275
20
30.457401
30
0
11
19.715862
21
27.622503
31
0
39
0
210
0
220
0
230
1
0
LINE
5
74
100
AcDbEntity
8
1
62
256
6
ByLayer
370
18
48
1
60
0
100
AcDbLine
10
12.463406
20
23.800531
30
0
11
11.957164
21
23.533746
31
0
39
0
210
0
220
0
230
1
0
LINE
5
75
100
AcDbEntity
8
1
62
256
6
ByLayer
370
18
48
1
60
0
100
AcDbLine
10
44.478935
20
27.875168
30
0
11
44.265814
21
27.662047
31
0
39
0
210
0
220
0
230
1
0
LINE
5
76
100
AcDbEntity
8
1
62
256
6
ByLayer
370
18
48
1
60
0
100
AcDbLine
10
46.196881
20
23.521617
30
0
11
46.367966
21
23.692702
31
0
39
0
210
0
220
0
230
1
0
LINE
5
77
100
AcDbEntity
8
1
62
256
6
ByLayer
370
18
48
1
60
0
100
AcDbLine
10
0.3
20
-31.5
30
0
11
22.920792
21
-31.5
31
0
39
0
210
0
220
0
230
1
0
LINE
5
78
100
AcDbEntity
8
1
62
256
6
ByLayer
370
18
48
1
60
0
100
AcDbLine
10
22.920792
20
31.5
30
0
11
0.3
21
31.5
31
0
39
0
210
0
220
0
230
1
0
LINE
5
79
100
AcDbEntity
8
1
62
256
6
ByLayer
370
18
48
1
60
0
100
AcDbLine
10
0.3
20
31.5
30
0
11
0
21
31.2
31
0
39
0
210
0
220
0
230
1
0
LINE
5
7A
100
AcDbEntity
8
1
62
256
6
ByLayer
370
18
48
1
60
0
100
AcDbLine
10
0
20
-31.2
30
0
11
0.3
21
-31.5
31
0
39
0
210
0
220
0
230
1
0
LINE
5
7B
100
AcDbEntity
8
1
62
256
6
ByLayer
370
18
48
1
60
0
100
AcDbLine
10
22.960985
20
-31.65
30
0
11
23.531509
21
-31.65
31
0
39
0
210
0
220
0
230
1
0
LINE
5
7C
100
AcDbEntity
8
1
62
256
6
ByLayer
370
18
48
1
60
0
100
AcDbLine
10
22.920792
20
-31.5
30
0
11
22.960985
21
-31.65
31
0
39
0
210
0
220
0
230
1
0
LINE
5
7D
100
AcDbEntity
8
1
62
256
6
ByLayer
370
18
48
1
60
0
100
AcDbLine
10
31.921201
20
30.173202
30
0
11
31.229127
21
29.583618
31
0
39
0
210
0
220
0
230
1
0
LINE
5
7E
100
AcDbEntity
8
1
62
256
6
ByLayer
370
18
48
1
60
0
100
AcDbLine
10
25.391318
20
40.720127
30
0
11
22.920792
21
31.5
31
0
39
0
210
0
220
0
230
1
0
LINE
5
7F
100
AcDbEntity
8
1
62
256
6
ByLayer
370
18
48
1
60
0
100
AcDbLine
10
35.648763
20
25.843021
30
0
11
35.973609
21
26.11976
31
0
39
0
210
0
220
0
230
1
0
LINE
5
80
100
AcDbEntity
8
1
62
256
6
ByLayer
370
18
48
1
60
0
100
AcDbLine
10
49.404891
20
43.5441
30
0
11
48.951374
21
43.090582
31
0
39
0
210
0
220
0
230
1
0
LINE
5
81
100
AcDbEntity
8
1
62
256
6
ByLayer
370
18
48
1
60
0
100
AcDbLine
10
63.099928
20
28.960719
30
0
11
63.5441
21
29.404891
31
0
39
0
210
0
220
0
230
1
0
LINE
5
82
100
AcDbEntity
8
1
62
256
6
ByLayer
370
18
48
1
60
0
100
AcDbLine
10
41.444735
20
26.840109
30
0
11
41.467529
21
26.862903
31
0
39
0
210
0
220
0
230
1
0
LINE
5
83
100
AcDbEntity
8
1
62
256
6
ByLayer
370
18
48
1
60
0
100
AcDbLine
10
39.296898
20
30.76377
30
0
11
39.127032
21
30.593904
31
0
39
0
210
0
220
0
230
1
0
LINE
5
84
100
AcDbEntity
8
1
62
256
6
ByLayer
370
18
48
1
60
0
100
AcDbLine
10
27.178165
20
26.609468
30
0
11
27.276759
21
26.940835
31
0
39
0
210
0
220
0
230
1
0
LINE
5
85
100
AcDbEntity
8
1
62
256
6
ByLayer
370
18
48
1
60
0
100
AcDbLine
10
25.478997
20
30.352212
30
0
11
25.149921
21
30.458201
31
0
39
0
210
0
220
0
230
1
0
LINE
5
86
100
AcDbEntity
8
80
62
256
6
ByLayer
370
18
48
1
60
0
100
AcDbLine
10
0
20
0
30
0
11
-5
21
0
31
0
39
0
210
0
220
0
230
1
0
LINE
5
87
100
AcDbEntity
8
4
62
256
6
ByLayer
370
18
48
0.05
60
0
100
AcDbLine
10
0
20
0
30
0
11
65
21
0
31
0
39
0
210
0
220
0
230
1
0
LINE
5
89
100
AcDbEntity
8
81
62
256
6
ByLayer
370
18
48
1
60
0
100
AcDbLine
10
65
20
45
30
0
11
75
21
45
31
0
39
0
210
0
220
0
230
1
0
LINE
5
8A
100
AcDbEntity
8
SK4
62
256
6
ByLayer
370
18
48
0.05
60
0
100
AcDbLine
10
-43
20
0
30
0
11
65
21
0
31
0
39
0
210
0
220
0
230
1
0
LINE
5
8C
100
AcDbEntity
8
1
62
256
6
ByLayer
370
18
48
1
60
0
100
AcDbLine
10
19.68837
20
22.650325
30
0
11
27.172576
21
26.594428
31
0
39
0
210
0
220
0
230
1
0
LINE
5
8D
100
AcDbEntity
8
1
62
256
6
ByLayer
370
18
48
1
60
0
100
AcDbLine
10
41.447556
20
26.843076
30
0
11
41.46035
21
26.85587
31
0
39
0
210
0
220
0
230
1
0
LINE
5
8E
100
AcDbEntity
8
1
62
256
6
ByLayer
370
18
48
1
60
0
100
AcDbLine
10
49.06647
20
42.811621
30
0
11
49.019681
21
42.764832
31
0
39
0
210
0
220
0
230
1
0
LINE
5
8F
100
AcDbEntity
8
1
62
256
6
ByLayer
370
18
48
1
60
0
100
AcDbLine
10
46.196881
20
23.521617
30
0
11
46.197047
21
23.521783
31
0
39
0
210
0
220
0
230
1
0
LINE
5
90
100
AcDbEntity
8
1
62
256
6
ByLayer
370
18
48
1
60
0
100
AcDbLine
10
22.920792
20
31.5
30
0
11
22.920792
21
30.899614
31
0
39
0
210
0
220
0
230
1
0
LINE
5
91
100
AcDbEntity
8
1
62
256
6
ByLayer
370
18
48
1
60
0
100
AcDbLine
10
22.920792
20
-30.899614
30
0
11
22.920792
21
-31.5
31
0
39
0
210
0
220
0
230
1
0
LINE
5
92
100
AcDbEntity
8
1
62
256
6
ByLayer
370
18
48
1
60
0
100
AcDbLine
10
0.3
20
-31.5
30
0
11
0.3
21
31.5
31
0
39
0
210
0
220
0
230
1
0
LINE
5
93
100
AcDbEntity
8
1
62
256
6
ByLayer
370
18
48
1
60
0
100
AcDbLine
10
0
20
-31.2
30
0
11
0
21
31.2
31
0
39
0
210
0
220
0
230
1
0
LINE
5
94
100
AcDbEntity
8
1
62
256
6
ByLayer
370
18
48
1
60
0
100
AcDbLine
10
19.911507
20
22.767267
30
0
11
19.911507
21
-29.985012
31
0
39
0
210
0
220
0
230
1
0
LINE
5
95
100
AcDbEntity
8
1
62
256
6
ByLayer
370
18
48
1
60
0
100
AcDbLine
10
62.773765
20
29.028614
30
0
11
62.811621
21
29.06647
31
0
39
0
210
0
220
0
230
1
0
LINE
5
96
100
AcDbEntity
8
SK1
62
256
6
ByLayer
370
18
48
1
60
0
100
AcDbLine
10
-0.2
20
7.059518
30
0
11
-0.2
21
22.533485
31
0
39
0
210
0
220
0
230
1
0
LINE
5
98
100
AcDbEntity
8
SK1
62
256
6
ByLayer
370
18
48
1
60
0
100
AcDbLine
10
-0.2
20
-22.533485
30
0
11
-0.2
21
-7.059517
31
0
39
0
210
0
220
0
230
1
0
LINE
5
99
100
AcDbEntity
8
1
62
256
6
ByLayer
370
18
48
1
60
0
100
AcDbLine
10
23.896286
20
30.500632
30
0
11
23.896286
21
29.825213
31
0
39
0
210
0
220
0
230
1
0
LINE
5
9A
100
AcDbEntity
8
1
62
256
6
ByLayer
370
18
48
1
60
0
100
AcDbLine
10
23.896286
20
24.867326
30
0
11
23.896286
21
-31.076076
31
0
39
0
210
0
220
0
230
1
0
LINE
5
9B
100
AcDbEntity
8
1
62
256
6
ByLayer
370
18
48
1
60
0
100
AcDbLine
10
54.799594
20
26.657841
30
0
11
54.816358
21
26.86211
31
0
39
0
210
0
220
0
230
1
0
LINE
5
9C
100
AcDbEntity
8
1
62
256
6
ByLayer
370
18
48
1
60
0
100
AcDbLine
10
55.785763
20
28.325901
30
0
11
63.100916
21
28.958422
31
0
39
0
210
0
220
0
230
1
0
LINE
5
9D
100
AcDbEntity
8
1
62
256
6
ByLayer
370
18
48
1
60
0
100
AcDbLine
10
44.436041
20
15.895774
30
0
11
43.777786
21
16.83215
31
0
39
0
210
0
220
0
230
1
0
LINE
5
9E
100
AcDbEntity
8
1
62
256
6
ByLayer
370
18
48
1
60
0
100
AcDbLine
10
33.575275
20
31.345347
30
0
11
32.937825
21
32.252128
31
0
39
0
210
0
220
0
230
1
0
LINE
5
9F
100
AcDbEntity
8
1
62
256
6
ByLayer
370
18
48
1
60
0
100
AcDbLine
10
24.078325
20
30.278098
30
0
11
24.311866
21
30.044557
31
0
39
0
210
0
220
0
230
1
0
LINE
5
A0
100
AcDbEntity
8
1
62
256
6
ByLayer
370
18
48
1
60
0
100
AcDbLine
10
48.568735
20
38.666033
30
0
11
48.932508
21
43.098789
31
0
39
0
210
0
220
0
230
1
0
LINE
5
A1
100
AcDbEntity
8
1
62
256
6
ByLayer
370
18
48
1
60
0
100
AcDbLine
10
22.960985
20
-31.65
30
0
11
22.960985
21
-31.054462
31
0
39
0
210
0
220
0
230
1
0
LINE
5
A2
100
AcDbEntity
8
1
62
256
6
ByLayer
370
18
48
1
60
0
100
AcDbLine
10
37.818907
20
14.376791
30
0
11
37.02559
21
15.505294
31
0
39
0
210
0
220
0
230
1
0
LINE
5
A3
100
AcDbEntity
8
1
62
256
6
ByLayer
370
18
48
1
60
0
100
AcDbLine
10
30.138654
20
25.302047
30
0
11
29.405936
21
26.344346
31
0
39
0
210
0
220
0
230
1
0
LINE
5
A4
100
AcDbEntity
8
1
62
256
6
ByLayer
370
18
48
1
60
0
100
AcDbLine
10
54.17543
20
25.948549
30
0
11
54.799594
21
26.657841
31
0
39
0
210
0
220
0
230
1
0
LINE
5
A5
100
AcDbEntity
8
1
62
256
6
ByLayer
370
18
48
1
60
0
100
AcDbLine
10
55.86506
20
28.447688
30
0
11
57.175936
21
28.561036
31
0
39
0
210
0
220
0
230
1
0
LINE
5
A6
100
AcDbEntity
8
1
62
256
6
ByLayer
370
18
48
1
60
0
100
AcDbLine
10
63.006063
20
29.065151
30
0
11
63.052748
21
29.069188
31
0
39
0
210
0
220
0
230
1
0
LINE
5
A7
100
AcDbEntity
8
1
62
256
6
ByLayer
370
18
48
1
60
0
100
AcDbLine
10
55.898539
20
28.49915
30
0
11
62.811621
21
29.06647
31
0
39
0
210
0
220
0
230
1
0
LINE
5
A8
100
AcDbEntity
8
1
62
256
6
ByLayer
370
18
48
1
60
0
100
AcDbLine
10
49.06647
20
42.811621
30
0
11
48.729293
21
38.70295
31
0
39
0
210
0
220
0
230
1
0
LINE
5
A9
100
AcDbEntity
8
1
62
256
6
ByLayer
370
18
48
1
60
0
100
AcDbLine
10
48.150122
20
19.904369
30
0
11
43.971434
21
16.990101
31
0
39
0
210
0
220
0
230
1
0
LINE
5
AA
100
AcDbEntity
8
1
62
256
6
ByLayer
370
18
48
1
60
0
100
AcDbLine
10
56.02217
20
39.314771
30
0
11
55.179435
21
39.522957
31
0
39
0
210
0
220
0
230
1
0
LINE
5
AB
100
AcDbEntity
8
1
62
256
6
ByLayer
370
18
48
1
60
0
100
AcDbLine
10
46.538707
20
23.513361
30
0
11
44.757799
21
22.271333
31
0
39
0
210
0
220
0
230
1
0
LINE
5
AC
100
AcDbEntity
8
1
62
256
6
ByLayer
370
18
48
1
60
0
100
AcDbLine
10
38.836218
20
30.694856
30
0
11
40.617126
21
31.936883
31
0
39
0
210
0
220
0
230
1
0
LINE
5
AD
100
AcDbEntity
8
1
62
256
6
ByLayer
370
18
48
1
60
0
100
AcDbLine
10
56.247958
20
36.466943
30
0
11
58.937121
21
38.215129
31
0
39
0
210
0
220
0
230
1
0
LINE
5
AE
100
AcDbEntity
8
1
62
256
6
ByLayer
370
18
48
1
60
0
100
AcDbLine
10
33.759277
20
31.473696
30
0
11
33.786105
21
31.478858
31
0
39
0
210
0
220
0
230
1
0
LINE
5
AF
100
AcDbEntity
8
1
62
256
6
ByLayer
370
18
48
1
60
0
100
AcDbLine
10
32.438067
20
26.457805
30
0
11
30.449626
21
24.763833
31
0
39
0
210
0
220
0
230
1
0
LINE
5
B0
100
AcDbEntity
8
1
62
256
6
ByLayer
370
18
48
1
60
0
100
AcDbLine
10
36.624168
20
15.980471
30
0
11
30.449626
21
24.763833
31
0
39
0
210
0
220
0
230
1
0
LINE
5
B1
100
AcDbEntity
8
1
62
256
6
ByLayer
370
18
48
1
60
0
100
AcDbLine
10
31.658659
20
27.751534
30
0
11
39.557149
21
33.260037
31
0
39
0
210
0
220
0
230
1
0
LINE
5
B2
100
AcDbEntity
8
1
62
256
6
ByLayer
370
18
48
1
60
0
100
AcDbLine
10
33.759277
20
31.473696
30
0
11
32.1795
21
30.371941
31
0
39
0
210
0
220
0
230
1
0
LINE
5
B3
100
AcDbEntity
8
1
62
256
6
ByLayer
370
18
48
1
60
0
100
AcDbLine
10
35.719883
20
25.921675
30
0
11
35.424379
21
25.669932
31
0
39
0
210
0
220
0
230
1
0
LINE
5
B4
100
AcDbEntity
8
1
62
256
6
ByLayer
370
18
48
1
60
0
100
AcDbLine
10
43.958194
20
16.96561
30
0
11
43.971434
21
16.990101
31
0
39
0
210
0
220
0
230
1
0
LINE
5
B5
100
AcDbEntity
8
1
62
256
6
ByLayer
370
18
48
1
60
0
100
AcDbLine
10
40.617126
20
31.936883
30
0
11
40.427182
21
31.775068
31
0
39
0
210
0
220
0
230
1
0
LINE
5
B6
100
AcDbEntity
8
1
62
256
6
ByLayer
370
18
48
1
60
0
100
AcDbLine
10
34.195847
20
24.813972
30
0
11
37.645311
21
19.907066
31
0
39
0
210
0
220
0
230
1
0
LINE
5
B7
100
AcDbEntity
8
1
62
256
6
ByLayer
370
18
48
1
60
0
100
AcDbLine
10
38.612608
20
17.674443
30
0
11
36.624168
21
15.980471
31
0
39
0
210
0
220
0
230
1
0
LINE
5
B8
100
AcDbEntity
8
1
62
256
6
ByLayer
370
18
48
1
60
0
100
AcDbLine
10
42.378418
20
15.863855
30
0
11
41.777833
21
15.352211
31
0
39
0
210
0
220
0
230
1
0
LINE
5
B9
100
AcDbEntity
8
1
62
256
6
ByLayer
370
18
48
1
60
0
100
AcDbLine
10
42.378418
20
15.863855
30
0
11
43.958194
21
16.96561
31
0
39
0
210
0
220
0
230
1
0
LINE
5
BA
100
AcDbEntity
8
1
62
256
6
ByLayer
370
18
48
1
60
0
100
AcDbLine
10
39.593891
20
16.463569
30
0
11
47.49238
21
21.972071
31
0
39
0
210
0
220
0
230
1
0
LINE
5
BB
100
AcDbEntity
8
1
62
256
6
ByLayer
370
18
48
1
60
0
100
AcDbLine
10
38.654056
20
30.53967
30
0
11
40.427182
21
31.775068
31
0
39
0
210
0
220
0
230
1
0
LINE
5
BC
100
AcDbEntity
8
1
62
256
6
ByLayer
370
18
48
1
60
0
100
AcDbLine
10
43.958194
20
16.96561
30
0
11
41.904606
21
15.445883
31
0
39
0
210
0
220
0
230
1
0
LINE
5
BD
100
AcDbEntity
8
1
62
256
6
ByLayer
370
18
48
1
60
0
100
AcDbLine
10
32.438067
20
26.457805
30
0
11
38.612608
21
17.674443
31
0
39
0
210
0
220
0
230
1
0
LINE
5
BE
100
AcDbEntity
8
1
62
256
6
ByLayer
370
18
48
1
60
0
100
AcDbLine
10
58.90454
20
34.223588
30
0
11
58.996415
21
35.083871
31
0
39
0
210
0
220
0
230
1
0
LINE
5
BF
100
AcDbEntity
8
1
62
256
6
ByLayer
370
18
48
1
60
0
100
AcDbLine
10
37.964793
20
34.393125
30
0
11
33.786105
21
31.478858
31
0
39
0
210
0
220
0
230
1
0
LINE
5
C0
100
AcDbEntity
8
1
62
256
6
ByLayer
370
18
48
1
60
0
100
AcDbLine
10
35.424379
20
25.669932
30
0
11
34.195847
21
24.813972
31
0
39
0
210
0
220
0
230
1
0
LINE
5
C1
100
AcDbEntity
8
1
62
256
6
ByLayer
370
18
48
1
60
0
100
AcDbLine
10
43.60613
20
10.750293
30
0
11
49.917734
21
4.438689
31
0
39
0
210
0
220
0
230
1
0
LINE
5
C2
100
AcDbEntity
8
1
62
256
6
ByLayer
370
18
48
1
60
0
100
AcDbLine
10
10.105662
20
25.691234
30
0
11
10.105662
21
29.913955
31
0
39
0
210
0
220
0
230
1
0
LINE
5
C3
100
AcDbEntity
8
1
62
256
6
ByLayer
370
18
48
1
60
0
100
AcDbLine
10
13.894338
20
9.869413
30
0
11
13.894338
21
24.752055
31
0
39
0
210
0
220
0
230
1
0
LINE
5
C4
100
AcDbEntity
8
1
62
256
6
ByLayer
370
18
48
1
60
0
100
AcDbLine
10
62.523138
20
21.917907
30
0
11
49.917734
21
4.438689
31
0
39
0
210
0
220
0
230
1
0
LINE
5
C5
100
AcDbEntity
8
1
62
256
6
ByLayer
370
18
48
1
60
0
100
AcDbLine
10
32.937825
20
32.252128
30
0
11
31.100259
21
30.907449
31
0
39
0
210
0
220
0
230
1
0
LINE
5
C6
100
AcDbEntity
8
1
62
256
6
ByLayer
370
18
48
1
60
0
100
AcDbLine
10
13.461325
20
30.080593
30
0
11
10.538675
21
30.080593
31
0
39
0
210
0
220
0
230
1
0
LINE
5
C7
100
AcDbEntity
8
1
62
256
6
ByLayer
370
18
48
1
60
0
100
AcDbLine
10
48.932508
20
43.098789
30
0
11
25.586814
21
41.182933
31
0
39
0
210
0
220
0
230
1
0
LINE
5
C8
100
AcDbEntity
8
1
62
256
6
ByLayer
370
18
48
1
60
0
100
AcDbLine
10
13.461325
20
25.9971
30
0
11
13.461325
21
30.080593
31
0
39
0
210
0
220
0
230
1
0
LINE
5
C9
100
AcDbEntity
8
1
62
256
6
ByLayer
370
18
48
1
60
0
100
AcDbLine
10
13.894338
20
25.691234
30
0
11
13.894338
21
29.913955
31
0
39
0
210
0
220
0
230
1
0
LINE
5
CA
100
AcDbEntity
8
1
62
256
6
ByLayer
370
18
48
1
60
0
100
AcDbLine
10
49.043139
20
43.05061
30
0
11
48.712877
21
39.026203
31
0
39
0
210
0
220
0
230
1
0
LINE
5
CB
100
AcDbEntity
8
1
62
256
6
ByLayer
370
18
48
1
60
0
100
AcDbLine
10
33.134082
20
12.06536
30
0
11
25.486032
21
22.944806
31
0
39
0
210
0
220
0
230
1
0
LINE
5
CC
100
AcDbEntity
8
1
62
256
6
ByLayer
370
18
48
1
60
0
100
AcDbLine
10
10.105662
20
-29.913955
30
0
11
10.105662
21
-9.869413
31
0
39
0
210
0
220
0
230
1
0
LINE
5
CD
100
AcDbEntity
8
1
62
256
6
ByLayer
370
18
48
1
60
0
100
AcDbLine
10
62.523138
20
21.917907
30
0
11
63.100916
21
28.958422
31
0
39
0
210
0
220
0
230
1
0
LINE
5
CE
100
AcDbEntity
8
1
62
256
6
ByLayer
370
18
48
1
60
0
100
AcDbLine
10
24.120948
20
-31.076076
30
0
11
49.917734
21
4.438689
31
0
39
0
210
0
220
0
230
1
0
LINE
5
CF
100
AcDbEntity
8
1
62
256
6
ByLayer
370
18
48
1
60
0
100
AcDbLine
10
24.078325
20
30.278098
30
0
11
24.078325
21
35.401156
31
0
39
0
210
0
220
0
230
1
0
LINE
5
D0
100
AcDbEntity
8
1
62
256
6
ByLayer
370
18
48
1
60
0
100
AcDbLine
10
10.538675
20
-30.080593
30
0
11
10.538675
21
-9.349221
31
0
39
0
210
0
220
0
230
1
0
LINE
5
D1
100
AcDbEntity
8
1
62
256
6
ByLayer
370
18
48
1
60
0
100
AcDbLine
10
10.538675
20
9.349221
30
0
11
13.461325
21
9.349221
31
0
39
0
210
0
220
0
230
1
0
LINE
5
D2
100
AcDbEntity
8
1
62
256
6
ByLayer
370
18
48
1
60
0
100
AcDbLine
10
13.461325
20
-30.080593
30
0
11
13.461325
21
-9.349221
31
0
39
0
210
0
220
0
230
1
0
LINE
5
D3
100
AcDbEntity
8
1
62
256
6
ByLayer
370
18
48
1
60
0
100
AcDbLine
10
48.932508
20
43.098789
30
0
11
49.043139
21
43.05061
31
0
39
0
210
0
220
0
230
1
0
LINE
5
D4
100
AcDbEntity
8
1
62
256
6
ByLayer
370
18
48
1
60
0
100
AcDbLine
10
19.911507
20
29.985012
30
0
11
19.911507
21
27.83722
31
0
39
0
210
0
220
0
230
1
0
LINE
5
D5
100
AcDbEntity
8
1
62
256
6
ByLayer
370
18
48
1
60
0
100
AcDbLine
10
13.894338
20
-29.913955
30
0
11
13.894338
21
-9.869413
31
0
39
0
210
0
220
0
230
1
0
LINE
5
D6
100
AcDbEntity
8
1
62
256
6
ByLayer
370
18
48
1
60
0
100
AcDbLine
10
10.538675
20
25.9971
30
0
11
10.538675
21
30.080593
31
0
39
0
210
0
220
0
230
1
0
LINE
5
D7
100
AcDbEntity
8
1
62
256
6
ByLayer
370
18
48
1
60
0
100
AcDbLine
10
10.538675
20
-30.080593
30
0
11
13.461325
21
-30.080593
31
0
39
0
210
0
220
0
230
1
0
LINE
5
D8
100
AcDbEntity
8
1
62
256
6
ByLayer
370
18
48
1
60
0
100
AcDbLine
10
13.461325
20
-9.349221
30
0
11
10.538675
21
-9.349221
31
0
39
0
210
0
220
0
230
1
0
LINE
5
D9
100
AcDbEntity
8
1
62
256
6
ByLayer
370
18
48
1
60
0
100
AcDbLine
10
19.666778
20
22.770192
30
0
11
19.728848
21
22.424705
31
0
39
0
210
0
220
0
230
1
0
LINE
5
DA
100
AcDbEntity
8
1
62
256
6
ByLayer
370
18
48
1
60
0
100
AcDbLine
10
10.105662
20
9.869413
30
0
11
10.105662
21
24.752055
31
0
39
0
210
0
220
0
230
1
0
LINE
5
DB
100
AcDbEntity
8
1
62
256
6
ByLayer
370
18
48
1
60
0
100
AcDbLine
10
44.436041
20
15.895774
30
0
11
42.598474
21
14.551095
31
0
39
0
210
0
220
0
230
1
0
LINE
5
DC
100
AcDbEntity
8
1
62
256
6
ByLayer
370
18
48
1
60
0
100
AcDbLine
10
13.461325
20
9.349221
30
0
11
13.461325
21
23.997901
31
0
39
0
210
0
220
0
230
1
0
LINE
5
DD
100
AcDbEntity
8
1
62
256
6
ByLayer
370
18
48
1
60
0
100
AcDbLine
10
63.100916
20
28.958422
30
0
11
63.052748
21
29.069188
31
0
39
0
210
0
220
0
230
1
0
LINE
5
DE
100
AcDbEntity
8
1
62
256
6
ByLayer
370
18
48
1
60
0
100
AcDbLine
10
10.538675
20
9.349221
30
0
11
10.538675
21
23.997901
31
0
39
0
210
0
220
0
230
1
0
LINE
5
DF
100
AcDbEntity
8
1
62
256
6
ByLayer
370
18
48
1
60
0
100
AcDbLine
10
28.628273
20
25.017431
30
0
11
36.286992
21
14.122807
31
0
39
0
210
0
220
0
230
1
0
LINE
5
E0
100
AcDbEntity
8
1
62
256
6
ByLayer
370
18
48
1
60
0
100
AcDbLine
10
24.120948
20
-31.076076
30
0
11
23.896286
21
-31.076076
31
0
39
0
210
0
220
0
230
1
0
LINE
5
E1
100
AcDbEntity
8
SK1
62
256
6
ByLayer
370
18
48
1
60
0
100
AcDbLine
10
-1.307107
20
-4.811013
30
0
11
-1.307107
21
4.811013
31
0
39
0
210
0
220
0
230
1
0
LINE
5
E2
100
AcDbEntity
8
1
62
256
6
ByLayer
370
18
48
1
60
0
100
AcDbLine
10
44.152524
20
27.142272
30
0
11
44.361143
21
27.350891
31
0
39
0
210
0
220
0
230
1
0
LINE
5
E3
100
AcDbEntity
8
1
62
256
6
ByLayer
370
18
48
1
60
0
100
AcDbLine
10
43.761714
20
28.396381
30
0
11
43.974835
21
28.609502
31
0
39
0
210
0
220
0
230
1
0
LINE
5
E4
100
AcDbEntity
8
1
62
256
6
ByLayer
370
18
48
1
60
0
100
AcDbLine
10
43.343127
20
25.656477
30
0
11
43.556249
21
25.869598
31
0
39
0
210
0
220
0
230
1
0
LINE
5
E5
100
AcDbEntity
8
1
62
256
6
ByLayer
370
18
48
1
60
0
100
AcDbLine
10
42.062544
20
28.368543
30
0
11
42.271163
21
28.577163
31
0
39
0
210
0
220
0
230
1
0
LINE
5
E6
100
AcDbEntity
8
1
62
256
6
ByLayer
370
18
48
1
60
0
100
AcDbLine
10
44.34473
20
26.896944
30
0
11
44.557852
21
27.110065
31
0
39
0
210
0
220
0
230
1
0
LINE
5
E7
100
AcDbEntity
8
1
62
256
6
ByLayer
370
18
48
1
60
0
100
AcDbLine
10
43.057795
20
28.727626
30
0
11
43.270916
21
28.940747
31
0
39
0
210
0
220
0
230
1
0
LINE
5
E8
100
AcDbEntity
8
1
62
256
6
ByLayer
370
18
48
1
60
0
100
AcDbLine
10
43.432121
20
28.672437
30
0
11
43.223502
21
28.463817
31
0
39
0
210
0
220
0
230
1
0
LINE
5
E9
100
AcDbEntity
8
1
62
256
6
ByLayer
370
18
48
1
60
0
100
AcDbLine
10
41.544913
20
28.21446
30
0
11
41.758034
21
28.427581
31
0
39
0
210
0
220
0
230
1
0
LINE
5
EA
100
AcDbEntity
8
1
62
256
6
ByLayer
370
18
48
1
60
0
100
AcDbLine
10
43.454956
20
28.354901
30
0
11
43.663576
21
28.563521
31
0
39
0
210
0
220
0
230
1
0
LINE
5
EB
100
AcDbEntity
8
1
62
256
6
ByLayer
370
18
48
1
60
0
100
AcDbLine
10
44.337556
20
27.604776
30
0
11
44.128936
21
27.396157
31
0
39
0
210
0
220
0
230
1
0
LINE
5
EC
100
AcDbEntity
8
1
62
256
6
ByLayer
370
18
48
1
60
0
100
AcDbLine
10
42.063296
20
28.432194
30
0
11
41.854677
21
28.223574
31
0
39
0
210
0
220
0
230
1
0
LINE
5
ED
100
AcDbEntity
8
1
62
256
6
ByLayer
370
18
48
1
60
0
100
AcDbLine
10
43.457678
20
25.943285
30
0
11
43.666298
21
26.151905
31
0
39
0
210
0
220
0
230
1
0
LINE
5
EE
100
AcDbEntity
8
1
62
256
6
ByLayer
370
18
48
1
60
0
100
AcDbLine
10
63.705733
20
44.996004
30
0
11
50.13737
21
43.882521
31
0
39
0
210
0
220
0
230
1
0
LINE
5
EF
100
AcDbEntity
8
1
62
256
6
ByLayer
370
18
48
1
60
0
100
AcDbLine
10
63.882521
20
30.13737
30
0
11
64.996004
21
43.705733
31
0
39
0
210
0
220
0
230
1
0
MTEXT
5
1DD
100
AcDbEntity
8
SK6
62
256
6
ByLayer
370
18
48
1
60
0
100
AcDbMText
10
-8.125
20
-42.450018
30
0
210
0
220
0
230
1
1
\W0.7369;C6-DCLNR-45065-16
40
3.5
41
0
44
1.084337
50
0
71
7
72
5
7
iso_b_vert
0
DIMENSION
5
1FC
100
AcDbEntity
8
2
62
256
6
ByLayer
370
13
48
1
60
0
100
AcDbDimension
2
DimnDraft3D2
10
62.715345
20
44.914221
30
0
11
52.571687
21
56.551878
31
0
70
34
71
5
72
1
41
1
210
0
220
0
230
1
3
Standard
100
AcDb2LineAngularDimension
13
65
23
45
33
0
14
65
24
42.61875
34
0
15
63.711994
25
44.996011
35
0
16
55.881237
26
53.502799
36
0
40
0
0
DIMENSION
5
212
100
AcDbEntity
8
SK2
62
256
6
ByLayer
370
13
48
1
60
0
100
AcDbDimension
2
DimnDraft3D3
10
-45.75
20
31.5
30
0
11
-45.75
21
-2.688158
31
0
70
32
71
5
72
1
41
1
210
0
220
0
230
1
3
Standard
100
AcDbAlignedDimension
13
-2
23
-31.5
33
0
14
-2
24
31.5
34
0
50
90
100
AcDbRotatedDimension
1001
ACAD
1000
DSTYLE
1002
{
1070
    74
1070
     0
1070
   279
1070
     0
1070
   172
1070
     1
1070
   173
1070
     1
1070
   340
1005
1DE
1070
    77
1070
     1
1070
    73
1070
     0
1070
   171
1070
     3
1070
   274
1070
     4
1070
   177
1070
     2
1070
   176
1070
     2
1070
   178
1070
     7
1070
    78
1070
     8
1070
    41
1041
3.175
1070
   147
1041
2.25
1070
    42
1041
2.0
1070
    44
1041
2.0
1070
   140
1041
4.5
1070
   343
1005
1FD
1070
   344
1005
1FD
1002
}
0
DIMENSION
5
220
100
AcDbEntity
8
2
62
256
6
ByLayer
370
13
48
1
60
0
100
AcDbDimension
2
DimnDraft3D4
10
87.25
20
45
30
0
11
87.25
21
16.981579
31
0
70
32
71
5
72
1
41
1
210
0
220
0
230
1
3
Standard
100
AcDbAlignedDimension
13
67
23
0
33
0
14
67
24
45
34
0
50
90
100
AcDbRotatedDimension
1001
ACAD
1000
DSTYLE
1002
{
1070
    74
1070
     0
1070
   279
1070
     0
1070
   172
1070
     1
1070
   173
1070
     1
1070
   340
1005
1DE
1070
    77
1070
     1
1070
    73
1070
     0
1070
   171
1070
     3
1070
   274
1070
     4
1070
   177
1070
     2
1070
   176
1070
     2
1070
   178
1070
     7
1070
    78
1070
     8
1070
    41
1041
3.175
1070
   147
1041
2.25
1070
    42
1041
2.0
1070
    44
1041
2.0
1070
   140
1041
4.5
1070
   343
1005
1FD
1070
   344
1005
1FD
1002
}
0
ENDSEC
0
SECTION
2
OBJECTS
0
DICTIONARY
5
28b
330
0
100
AcDbDictionary
280
0
281
1
3
ACAD_GROUP
350
28c
3
ACAD_MLINESTYLE
350
28d
0
DICTIONARY
5
28c
330
0
100
AcDbDictionary
280
0
281
1
0
DICTIONARY
5
28d
330
0
100
AcDbDictionary
280
0
281
1
3
Standard
350
18
0
MLINESTYLE
5
18
330
28d
100
AcDbMlineStyle
2
Standard
70
0
3

62
256
51
90
52
90
71
2
49
-0.5
62
256
6
ByLayer
49
0.5
62
256
6
ByLayer
0
RASTERVARIABLES
5
279
330

100
AcDbRasterVariables
90
0
70
1
71
1
72
1
0
ENDSEC
0
EOF
