0
SECTION
2
HEADER
9
$ACADVER
1
AC1015
9
$DWGCODEPAGE
3
ANSI_1252
9
$HANDSEED
5
2b3
9
$ANGBASE
50
0
9
$ANGDIR
70
0
9
$ATTMODE
70
1
9
$AUNITS
70
0
9
$AUPREC
70
0
9
$CECOLOR
62
256
9
$CELTSCALE
40
1
9
$CELTYPE
6
ByLayer
9
$CELWEIGHT
370
18
9
$CLAYER
8
0
9
$CMLJUST
70
0
9
$CMLSCALE
40
1
9
$CMLSTYLE
2
Standard
9
$DIMSTYLE
2
Standard
9
$TEXTSIZE
40
0.2
9
$TEXTSTYLE
7
Standard
9
$LUNITS
70
2
9
$LUPREC
70
4
9
$EXTNAMES
290
1
9
$INSUNITS
70
4
9
$LTSCALE
40
1
9
$LWDISPLAY
290
1
9
$PDMODE
70
0
9
$PDSIZE
40
0
9
$PLINEGEN
70
0
0
ENDSEC
0
SECTION
2
CLASSES
0
CLASS
1
RASTERVARIABLES
2
AcDbRasterVariables
3
ISM
90
0
280
0
281
0
0
ENDSEC
0
SECTION
2
TABLES
0
TABLE
2
VPORT
5
2a9
100
AcDbSymbolTable
0
VPORT
5
1
100
AcDbSymbolTableRecord
100
AcDbViewportTableRecord
2
*Active
70
0
10
0
20
0
11
1
21
1
12
-1
22
1
13
0
23
0
14
0.5
24
0.5
15
10
25
10
16
0
26
0
36
1
17
0
27
0
37
0
0
ENDTAB
0
TABLE
2
LTYPE
5
2aa
100
AcDbSymbolTable
0
LTYPE
5
14
100
AcDbSymbolTableRecord
100
AcDbLinetypeTableRecord
70
0
2
ByBlock
3

72
65
73
0
40
0
0
LTYPE
5
15
100
AcDbSymbolTableRecord
100
AcDbLinetypeTableRecord
70
0
2
ByLayer
3

72
65
73
0
40
0
0
LTYPE
5
16
100
AcDbSymbolTableRecord
100
AcDbLinetypeTableRecord
70
0
2
CONTINUOUS
3
Solid line
72
65
73
0
40
0
0
LTYPE
5
6A
100
AcDbSymbolTableRecord
100
AcDbLinetypeTableRecord
70
0
2
CENTER
3
____ _ ____ _ ____ _ ____
72
65
73
4
40
47.5
49
22
74
0
49
-8.5
74
0
49
8.5
74
0
49
-8.5
74
0
0
LTYPE
5
6B
100
AcDbSymbolTableRecord
100
AcDbLinetypeTableRecord
70
0
2
DASHED
3
__ __ __ __ __ __ __ __ __
72
65
73
2
40
25.72
49
12.86
74
0
49
-12.86
74
0
0
ENDTAB
0
TABLE
2
LAYER
5
2ab
100
AcDbSymbolTable
0
LAYER
5
10
100
AcDbSymbolTableRecord
100
AcDbLayerTableRecord
2
0
70
0
62
7
6
CONTINUOUS
290
1
370
-3
390
0
0
LAYER
5
6D
100
AcDbSymbolTableRecord
100
AcDbLayerTableRecord
2
2
70
0
62
7
6
CONTINUOUS
290
1
370
-3
390
0
0
LAYER
5
6F
100
AcDbSymbolTableRecord
100
AcDbLayerTableRecord
2
80
70
0
62
-6
6
CONTINUOUS
290
1
370
-3
390
0
0
LAYER
5
71
100
AcDbSymbolTableRecord
100
AcDbLayerTableRecord
2
81
70
0
62
-3
6
CONTINUOUS
290
1
370
-3
390
0
0
LAYER
5
73
100
AcDbSymbolTableRecord
100
AcDbLayerTableRecord
2
1
70
0
62
4
6
CONTINUOUS
290
1
370
-3
390
0
0
LAYER
5
8A
100
AcDbSymbolTableRecord
100
AcDbLayerTableRecord
2
4
70
0
62
-2
6
CENTER
290
1
370
-3
390
0
0
LAYER
5
295
100
AcDbSymbolTableRecord
100
AcDbLayerTableRecord
2
SK4
70
0
62
2
6
CENTER
290
1
370
-3
390
0
0
LAYER
5
296
100
AcDbSymbolTableRecord
100
AcDbLayerTableRecord
2
SK1
70
0
62
4
6
CONTINUOUS
290
1
370
-3
390
0
0
LAYER
5
297
100
AcDbSymbolTableRecord
100
AcDbLayerTableRecord
2
SK6
70
0
62
5
6
CONTINUOUS
290
1
370
-3
390
0
0
LAYER
5
298
100
AcDbSymbolTableRecord
100
AcDbLayerTableRecord
2
SK2
70
0
62
7
6
CONTINUOUS
290
1
370
-3
390
0
0
ENDTAB
0
TABLE
2
STYLE
5
2ac
100
AcDbSymbolTable
0
STYLE
5
11
100
AcDbSymbolTableRecord
100
AcDbTextStyleTableRecord
2
Standard
3
txt
70
0
71
0
40
0
41
1
42
0
50
0
0
STYLE
5
1F9
100
AcDbSymbolTableRecord
100
AcDbTextStyleTableRecord
2
iso_b_vert
3
simplex.shx
70
0
71
0
40
0
41
1
42
0
50
0
0
STYLE
5
1FA
100
AcDbSymbolTableRecord
100
AcDbTextStyleTableRecord
2
DWGDirectTextStyle
3
simplex
70
0
71
0
40
0
41
1
42
0
50
0
0
ENDTAB
0
TABLE
2
DIMSTYLE
5
2ad
100
AcDbSymbolTable
100
AcDbDimStyleTable
0
DIMSTYLE
105
27
100
AcDbSymbolTableRecord
100
AcDbDimStyleTableRecord
2
Standard
70
0
3
<>
41
0.18
42
0.0625
44
0.18
140
0.18
147
0.09
73
0
74
0
77
1
271
2
275
0
278
52
280
0
340
11
0
ENDTAB
0
TABLE
2
VIEW
5
2ae
100
AcDbSymbolTable
0
ENDTAB
0
TABLE
2
UCS
5
2af
100
AcDbSymbolTable
0
ENDTAB
0
TABLE
2
APPID
5
2b0
100
AcDbSymbolTable
0
APPID
5
12
100
AcDbSymbolTableRecord
100
AcDbRegAppTableRecord
2
ACAD
70
0
0
ENDTAB
0
TABLE
2
BLOCK_RECORD
5
2b1
100
AcDbSymbolTable
0
BLOCK_RECORD
5
1F
100
AcDbSymbolTableRecord
100
AcDbBlockTableRecord
2
*Model_Space
340
0
70
0
0
BLOCK_RECORD
5
1B
100
AcDbSymbolTableRecord
100
AcDbBlockTableRecord
2
*Paper_Space
340
0
70
0
0
BLOCK_RECORD
5
23
100
AcDbSymbolTableRecord
100
AcDbBlockTableRecord
2
*Paper_Space0
340
0
70
0
0
BLOCK_RECORD
5
1FC
100
AcDbSymbolTableRecord
100
AcDbBlockTableRecord
2
DimnDraft3D11
340
0
70
0
0
BLOCK_RECORD
5
20A
100
AcDbSymbolTableRecord
100
AcDbBlockTableRecord
2
DimnDraft3D2
340
0
70
0
0
BLOCK_RECORD
5
218
100
AcDbSymbolTableRecord
100
AcDbBlockTableRecord
2
_CLOSED
340
0
70
0
0
BLOCK_RECORD
5
21F
100
AcDbSymbolTableRecord
100
AcDbBlockTableRecord
2
DimnDraft3D3
340
0
70
0
0
BLOCK_RECORD
5
22E
100
AcDbSymbolTableRecord
100
AcDbBlockTableRecord
2
DimnDraft3D4
340
0
70
0
0
ENDTAB
0
ENDSEC
0
SECTION
2
BLOCKS
0
BLOCK
5
20
100
AcDbEntity
8
0
100
AcDbBlockBegin
2
*Model_Space
70
0
10
0
20
0
30
0
3
*Model_Space
0
ENDBLK
5
21
100
AcDbEntity
8
0
100
AcDbBlockEnd
0
BLOCK
5
1C
100
AcDbEntity
8
0
100
AcDbBlockBegin
2
*Paper_Space
70
0
10
0
20
0
30
0
3
*Paper_Space
0
ENDBLK
5
1D
100
AcDbEntity
8
0
100
AcDbBlockEnd
0
BLOCK
5
24
100
AcDbEntity
8
0
100
AcDbBlockBegin
2
*Paper_Space0
70
0
10
0
20
0
30
0
3
*Paper_Space0
0
ENDBLK
5
25
100
AcDbEntity
8
0
100
AcDbBlockEnd
0
BLOCK
5
1FD
100
AcDbEntity
8
0
100
AcDbBlockBegin
2
DimnDraft3D11
70
0
10
0
20
0
30
0
3
DimnDraft3D11
0
LINE
5
1FF
100
AcDbEntity
8
2
62
256
6
ByLayer
370
25
48
1
60
0
100
AcDbLine
10
65
20
47
30
0
11
65
21
75.75
31
0
39
0
210
0
220
0
230
1
0
LINE
5
200
100
AcDbEntity
8
2
62
256
6
ByLayer
370
25
48
1
60
0
100
AcDbLine
10
0
20
33.5
30
0
11
0
21
75.75
31
0
39
0
210
0
220
0
230
1
0
LINE
5
201
100
AcDbEntity
8
2
62
256
6
ByLayer
370
25
48
1
60
0
100
AcDbLine
10
65
20
73.75
30
0
11
0
21
73.75
31
0
39
0
210
0
220
0
230
1
0
LINE
5
202
100
AcDbEntity
8
2
62
256
6
ByLayer
370
25
48
1
60
0
100
AcDbLine
10
65
20
73.75
30
0
11
61.825002
21
73.332003
31
0
39
0
210
0
220
0
230
1
0
LINE
5
203
100
AcDbEntity
8
2
62
256
6
ByLayer
370
25
48
1
60
0
100
AcDbLine
10
65
20
73.75
30
0
11
61.824998
21
74.167997
31
0
39
0
210
0
220
0
230
1
0
LINE
5
204
100
AcDbEntity
8
2
62
256
6
ByLayer
370
25
48
1
60
0
100
AcDbLine
10
61.825002
20
73.332003
30
0
11
61.824998
21
74.167997
31
0
39
0
210
0
220
0
230
1
0
LINE
5
205
100
AcDbEntity
8
2
62
256
6
ByLayer
370
25
48
1
60
0
100
AcDbLine
10
0
20
73.75
30
0
11
3.174998
21
74.167997
31
0
39
0
210
0
220
0
230
1
0
LINE
5
206
100
AcDbEntity
8
2
62
256
6
ByLayer
370
25
48
1
60
0
100
AcDbLine
10
0
20
73.75
30
0
11
3.175002
21
73.332003
31
0
39
0
210
0
220
0
230
1
0
LINE
5
207
100
AcDbEntity
8
2
62
256
6
ByLayer
370
25
48
1
60
0
100
AcDbLine
10
3.174998
20
74.167997
30
0
11
3.175002
21
73.332003
31
0
39
0
210
0
220
0
230
1
0
MTEXT
5
208
100
AcDbEntity
8
2
62
256
6
ByLayer
370
18
48
1
60
0
100
AcDbMText
10
28.343421
20
74.875
30
0
210
0
220
0
230
1
1
\W0.7346;65.0
40
4.5
41
0
44
1.084337
50
0
71
7
72
5
7
iso_b_vert
0
ENDBLK
5
1FE
100
AcDbEntity
8
0
100
AcDbBlockEnd
0
BLOCK
5
215
100
AcDbEntity
8
0
100
AcDbBlockBegin
2
DimnDraft3D2
70
0
10
0
20
0
30
0
3
DimnDraft3D2
0
MTEXT
5
20B
100
AcDbEntity
8
2
62
256
6
ByLayer
370
18
48
1
60
0
100
AcDbMText
10
53.058392
20
52.100499
30
0
210
0
220
0
230
1
1
\W0.7399;95%%d
40
4.5
41
0
44
1.084337
50
47.3457231599999
71
7
72
5
7
iso_b_vert
0
LINE
5
20C
100
AcDbEntity
8
2
62
256
6
ByLayer
370
13
48
1
60
0
100
AcDbLine
10
65
20
47
30
0
11
65
21
59.490491
31
0
39
0
210
0
220
0
230
1
0
LINE
5
20D
100
AcDbEntity
8
2
62
256
6
ByLayer
370
13
48
1
60
0
100
AcDbLine
10
61.151381
20
44.751971
30
0
11
50.625638
21
43.88818
31
0
39
0
210
0
220
0
230
1
0
ARC
5
20E
100
AcDbEntity
8
2
62
256
6
ByLayer
370
13
48
1
60
0
100
AcDbCircle
39
0
10
65
20
45.067807
30
0
40
12.4226837803016
210
0
220
0
230
1
100
AcDbArc
50
90
51
184.691446
0
LINE
5
20F
100
AcDbEntity
8
2
62
256
6
ByLayer
370
13
48
1
60
0
100
AcDbLine
10
65
20
57.490491
30
0
11
61.857957
21
56.8717
31
0
39
0
210
0
220
0
230
1
0
LINE
5
210
100
AcDbEntity
8
2
62
256
6
ByLayer
370
13
48
1
60
0
100
AcDbLine
10
65
20
57.490491
30
0
11
61.804862
21
57.706006
31
0
39
0
210
0
220
0
230
1
0
LINE
5
211
100
AcDbEntity
8
2
62
256
6
ByLayer
370
13
48
1
60
0
100
AcDbLine
10
61.857957
20
56.8717
30
0
11
61.804862
21
57.706006
31
0
39
0
210
0
220
0
230
1
0
LINE
5
212
100
AcDbEntity
8
2
62
256
6
ByLayer
370
13
48
1
60
0
100
AcDbLine
10
52.618937
20
44.051759
30
0
11
52.142815
21
47.218563
31
0
39
0
210
0
220
0
230
1
0
LINE
5
213
100
AcDbEntity
8
2
62
256
6
ByLayer
370
13
48
1
60
0
100
AcDbLine
10
52.618937
20
44.051759
30
0
11
52.978668
21
47.233889
31
0
39
0
210
0
220
0
230
1
0
LINE
5
214
100
AcDbEntity
8
2
62
256
6
ByLayer
370
13
48
1
60
0
100
AcDbLine
10
52.142815
20
47.218563
30
0
11
52.978668
21
47.233889
31
0
39
0
210
0
220
0
230
1
0
ENDBLK
5
216
100
AcDbEntity
8
0
100
AcDbBlockEnd
0
BLOCK
5
219
100
AcDbEntity
8
0
100
AcDbBlockBegin
2
_CLOSED
70
0
10
0
20
0
30
0
3
_CLOSED
0
LINE
5
21B
100
AcDbEntity
8
0
62
256
6
ByLayer
370
-2
48
1
60
0
100
AcDbLine
10
-1
20
0.166667
30
0
11
0
21
0
31
0
39
0
210
0
220
0
230
1
0
LINE
5
21C
100
AcDbEntity
8
0
62
256
6
ByLayer
370
-2
48
1
60
0
100
AcDbLine
10
0
20
0
30
0
11
-1
21
-0.166667
31
0
39
0
210
0
220
0
230
1
0
LINE
5
21D
100
AcDbEntity
8
0
62
256
6
ByLayer
370
-2
48
1
60
0
100
AcDbLine
10
-1
20
0.166667
30
0
11
-1
21
-0.166667
31
0
39
0
210
0
220
0
230
1
0
LINE
5
21E
100
AcDbEntity
8
0
62
256
6
ByLayer
370
-2
48
1
60
0
100
AcDbLine
10
0
20
0
30
0
11
-1
21
0
31
0
39
0
210
0
220
0
230
1
0
ENDBLK
5
21A
100
AcDbEntity
8
0
100
AcDbBlockEnd
0
BLOCK
5
22B
100
AcDbEntity
8
0
100
AcDbBlockBegin
2
DimnDraft3D3
70
0
10
0
20
0
30
0
3
DimnDraft3D3
0
MTEXT
5
220
100
AcDbEntity
8
SK2
62
256
6
ByLayer
370
18
48
1
60
0
100
AcDbMText
10
-46.875
20
-1.563158
30
0
210
0
220
0
230
1
1
\W0.6740;63
40
4.5
41
0
44
1.084337
50
90
71
7
72
5
7
iso_b_vert
0
LINE
5
222
100
AcDbEntity
8
SK2
62
256
6
ByLayer
370
13
48
1
60
0
100
AcDbLine
10
-2
20
-31.5
30
0
11
-47.75
21
-31.5
31
0
39
0
210
0
220
0
230
1
0
LINE
5
223
100
AcDbEntity
8
SK2
62
256
6
ByLayer
370
13
48
1
60
0
100
AcDbLine
10
-2
20
31.5
30
0
11
-47.75
21
31.5
31
0
39
0
210
0
220
0
230
1
0
LINE
5
224
100
AcDbEntity
8
SK2
62
256
6
ByLayer
370
13
48
1
60
0
100
AcDbLine
10
-45.75
20
-31.5
30
0
11
-45.75
21
31.5
31
0
39
0
210
0
220
0
230
1
0
LINE
5
225
100
AcDbEntity
8
SK2
62
256
6
ByLayer
370
13
48
1
60
0
100
AcDbLine
10
-45.75
20
-31.5
30
0
11
-46.167997
21
-28.325002
31
0
39
0
210
0
220
0
230
1
0
LINE
5
226
100
AcDbEntity
8
SK2
62
256
6
ByLayer
370
13
48
1
60
0
100
AcDbLine
10
-45.75
20
-31.5
30
0
11
-45.332003
21
-28.324998
31
0
39
0
210
0
220
0
230
1
0
LINE
5
227
100
AcDbEntity
8
SK2
62
256
6
ByLayer
370
13
48
1
60
0
100
AcDbLine
10
-46.167997
20
-28.325002
30
0
11
-45.332003
21
-28.324998
31
0
39
0
210
0
220
0
230
1
0
LINE
5
228
100
AcDbEntity
8
SK2
62
256
6
ByLayer
370
13
48
1
60
0
100
AcDbLine
10
-45.75
20
31.5
30
0
11
-45.332003
21
28.325002
31
0
39
0
210
0
220
0
230
1
0
LINE
5
229
100
AcDbEntity
8
SK2
62
256
6
ByLayer
370
13
48
1
60
0
100
AcDbLine
10
-45.75
20
31.5
30
0
11
-46.167997
21
28.324998
31
0
39
0
210
0
220
0
230
1
0
LINE
5
22A
100
AcDbEntity
8
SK2
62
256
6
ByLayer
370
13
48
1
60
0
100
AcDbLine
10
-45.332003
20
28.325002
30
0
11
-46.167997
21
28.324998
31
0
39
0
210
0
220
0
230
1
0
ENDBLK
5
22C
100
AcDbEntity
8
0
100
AcDbBlockEnd
0
BLOCK
5
239
100
AcDbEntity
8
0
100
AcDbBlockBegin
2
DimnDraft3D4
70
0
10
0
20
0
30
0
3
DimnDraft3D4
0
MTEXT
5
22F
100
AcDbEntity
8
2
62
256
6
ByLayer
370
18
48
1
60
0
100
AcDbMText
10
86.125
20
18.106579
30
0
210
0
220
0
230
1
1
\W0.7640;45.0
40
4.5
41
0
44
1.084337
50
90
71
7
72
5
7
iso_b_vert
0
LINE
5
230
100
AcDbEntity
8
2
62
256
6
ByLayer
370
13
48
1
60
0
100
AcDbLine
10
67
20
0
30
0
11
89.25
21
0
31
0
39
0
210
0
220
0
230
1
0
LINE
5
231
100
AcDbEntity
8
2
62
256
6
ByLayer
370
13
48
1
60
0
100
AcDbLine
10
67
20
45
30
0
11
89.25
21
45
31
0
39
0
210
0
220
0
230
1
0
LINE
5
232
100
AcDbEntity
8
2
62
256
6
ByLayer
370
13
48
1
60
0
100
AcDbLine
10
87.25
20
0
30
0
11
87.25
21
45
31
0
39
0
210
0
220
0
230
1
0
LINE
5
233
100
AcDbEntity
8
2
62
256
6
ByLayer
370
13
48
1
60
0
100
AcDbLine
10
87.25
20
0
30
0
11
86.832003
21
3.174998
31
0
39
0
210
0
220
0
230
1
0
LINE
5
234
100
AcDbEntity
8
2
62
256
6
ByLayer
370
13
48
1
60
0
100
AcDbLine
10
87.25
20
0
30
0
11
87.667997
21
3.175002
31
0
39
0
210
0
220
0
230
1
0
LINE
5
235
100
AcDbEntity
8
2
62
256
6
ByLayer
370
13
48
1
60
0
100
AcDbLine
10
86.832003
20
3.174998
30
0
11
87.667997
21
3.175002
31
0
39
0
210
0
220
0
230
1
0
LINE
5
236
100
AcDbEntity
8
2
62
256
6
ByLayer
370
13
48
1
60
0
100
AcDbLine
10
87.25
20
45
30
0
11
87.667997
21
41.825002
31
0
39
0
210
0
220
0
230
1
0
LINE
5
237
100
AcDbEntity
8
2
62
256
6
ByLayer
370
13
48
1
60
0
100
AcDbLine
10
87.25
20
45
30
0
11
86.832003
21
41.824998
31
0
39
0
210
0
220
0
230
1
0
LINE
5
238
100
AcDbEntity
8
2
62
256
6
ByLayer
370
13
48
1
60
0
100
AcDbLine
10
87.667997
20
41.825002
30
0
11
86.832003
21
41.824998
31
0
39
0
210
0
220
0
230
1
0
ENDBLK
5
23A
100
AcDbEntity
8
0
100
AcDbBlockEnd
0
ENDSEC
0
SECTION
2
ENTITIES
0
ARC
5
119
100
AcDbEntity
8
SK1
62
256
6
ByLayer
370
18
48
1
60
0
100
AcDbCircle
39
0
10
0.6
20
-23.45
30
0
40
0.999999999999999
210
0
220
0
230
-1
100
AcDbArc
50
113.578178
51
126.869898
0
ARC
5
11A
100
AcDbEntity
8
SK1
62
256
6
ByLayer
370
18
48
1
60
0
100
AcDbCircle
39
0
10
0.6
20
23.45
30
0
40
0.999999999999999
210
0
220
0
230
-1
100
AcDbArc
50
233.130102
51
246.421822
0
ELLIPSE
5
11B
100
AcDbEntity
8
1
62
256
6
ByLayer
370
18
48
1
60
0
100
AcDbEllipse
10
47.143762
20
30.637013
30
0
11
0.813172798366392
21
-0.813172798362667
31
0
210
0
220
0
230
1
40
0.989133
41
-1.50870245733191
42
-1.40718936401245
0
ELLIPSE
5
11C
100
AcDbEntity
8
1
62
256
6
ByLayer
370
18
48
1
60
0
100
AcDbEllipse
10
47.143762
20
30.637013
30
0
11
0.813172798366392
21
-0.813172798362667
31
0
210
0
220
0
230
1
40
0.989133
41
-2.11748433396723
42
-1.50870245733193
0
ELLIPSE
5
11D
100
AcDbEntity
8
1
62
256
6
ByLayer
370
18
48
1
60
0
100
AcDbEllipse
10
47.143762
20
30.637013
30
0
11
0.813172798366392
21
-0.813172798362667
31
0
210
0
220
0
230
1
40
0.989133
41
0.0518840451092855
42
-2.72960340840861
0
ELLIPSE
5
11E
100
AcDbEntity
8
1
62
256
6
ByLayer
370
18
48
1
60
0
100
AcDbEllipse
10
47.143762
20
30.637013
30
0
11
0.813172798366392
21
-0.813172798362667
31
0
210
0
220
0
230
1
40
0.989133
41
-0.790860895639593
42
-0.11844898374129
0
ELLIPSE
5
11F
100
AcDbEntity
8
1
62
256
6
ByLayer
370
18
48
1
60
0
100
AcDbEllipse
10
47.259342
20
29.392987
30
0
11
-0.268700576851502
21
0.268700576850274
31
0
210
0
220
0
230
1
40
0.989133
41
-2.68594738862234
42
-2.42225340979502
0
ELLIPSE
5
120
100
AcDbEntity
8
1
62
256
6
ByLayer
370
18
48
1
60
0
100
AcDbEllipse
10
46.009644
20
31.170697
30
0
11
-0.268700576851502
21
0.268700576850274
31
0
210
0
220
0
230
1
40
0.989133
41
-1.06840509419362
42
-0.455613680093743
0
ELLIPSE
5
121
100
AcDbEntity
8
1
62
256
6
ByLayer
370
18
48
1
60
0
100
AcDbEllipse
10
48.05851
20
29.335773
30
0
11
0.300520382004971
21
-0.300520382003594
31
0
210
0
220
0
230
1
40
0.989133
41
3.14158919864634
42
-2.42225340979507
0
ELLIPSE
5
122
100
AcDbEntity
8
1
62
256
6
ByLayer
370
18
48
1
60
0
100
AcDbEllipse
10
46.229015
20
31.938253
30
0
11
0.300520382004971
21
-0.300520382003594
31
0
210
0
220
0
230
1
40
0.989133
41
-1.06840509419363
42
-3.51676189843907E-06
0
ELLIPSE
5
123
100
AcDbEntity
8
1
62
256
6
ByLayer
370
18
48
1
60
0
100
AcDbEllipse
10
48.27788
20
30.103329
30
0
11
-0.268700576851502
21
0.268700576850274
31
0
210
0
220
0
230
1
40
0.989133
41
-2.68595059009182
42
-1.37505585859845
0
ELLIPSE
5
124
100
AcDbEntity
8
1
62
256
6
ByLayer
370
18
48
1
60
0
100
AcDbEllipse
10
47.028183
20
31.881038
30
0
11
-0.268700576851502
21
0.268700576850274
31
0
210
0
220
0
230
1
40
0.989133
41
-2.11560264539022
42
-0.45565646795622
0
ELLIPSE
5
125
100
AcDbEntity
8
1
62
256
6
ByLayer
370
18
48
1
60
0
100
AcDbEllipse
10
48.719454
20
30.766322
30
0
11
0.300520382004971
21
-0.300520382003594
31
0
210
0
220
0
230
1
40
0.989133
41
-3.14157045834449
42
-1.37505585859843
0
ELLIPSE
5
126
100
AcDbEntity
8
1
62
256
6
ByLayer
370
18
48
1
60
0
100
AcDbEllipse
10
48.162301
20
31.347354
30
0
11
-0.268700576851502
21
0.268700576850274
31
0
210
0
220
0
230
1
40
0.989133
41
-3.11070847430905
42
-0.327858307401863
0
ELLIPSE
5
127
100
AcDbEntity
8
1
62
256
6
ByLayer
370
18
48
1
60
0
100
AcDbEllipse
10
47.034603
20
30.527853
30
0
11
2.82842712475267
21
-2.82842712473971
31
0
210
0
220
0
230
1
40
0.989133
41
3.14154186687325
42
-0.790861354621183
0
ELLIPSE
5
128
100
AcDbEntity
8
1
62
256
6
ByLayer
370
18
48
1
60
0
100
AcDbEllipse
10
47.034603
20
30.527853
30
0
11
2.82842712475267
21
-2.82842712473971
31
0
210
0
220
0
230
1
40
0.989133
41
-0.790861354621172
42
0
0
ELLIPSE
5
129
100
AcDbEntity
8
1
62
256
6
ByLayer
370
18
48
1
60
0
100
AcDbEllipse
10
12
20
24.018926
30
0
11
1.99999999999999
21
0
31
0
210
0
220
0
230
1
40
0.5
41
0.448462556004162
42
2.67722591773394
0
ELLIPSE
5
12A
100
AcDbEntity
8
1
62
256
6
ByLayer
370
18
48
1
60
0
100
AcDbEllipse
10
42.026993
20
18.256849
30
0
11
-5.72659051508523
21
-4.02568765213298
31
0
210
0
220
0
230
1
40
0.02553
41
2.32834410581085
42
2.33301874980663
0
ELLIPSE
5
12B
100
AcDbEntity
8
1
62
256
6
ByLayer
370
18
48
1
60
0
100
AcDbEllipse
10
47.055395
20
30.548645
30
0
11
0.813172798366392
21
-0.813172798362667
31
0
210
0
220
0
230
1
40
0.989133
41
0.118446201696878
42
3.08666234056256
0
ELLIPSE
5
12C
100
AcDbEntity
8
1
62
256
6
ByLayer
370
18
48
1
60
0
100
AcDbEllipse
10
19.807168
20
25.478434
30
0
11
-0.0284771279158418
21
-2.88431306858131
31
0
210
0
220
0
230
1
40
0.077437
41
2.78657914346139
42
0.549437019819644
0
ELLIPSE
5
12D
100
AcDbEntity
8
1
62
256
6
ByLayer
370
18
48
1
60
0
100
AcDbEllipse
10
12
20
24.018926
30
0
11
1.64999999999998
21
0
31
0
210
0
220
0
230
1
40
0.5
41
0.167191463980102
42
2.97577558800012
0
ELLIPSE
5
12E
100
AcDbEntity
8
1
62
256
6
ByLayer
370
18
48
1
60
0
100
AcDbEllipse
10
45.149267
20
0
30
0
11
-21.6800497056997
21
-31.6462175344682
31
0
210
0
220
0
230
1
40
0.022569
41
0.0154463141841088
42
0.206188083061291
0
ELLIPSE
5
12F
100
AcDbEntity
8
1
62
256
6
ByLayer
370
18
48
1
60
0
100
AcDbEllipse
10
24.494172
20
68.337981
30
0
11
-7.02934607980384E-15
21
-38.2672415935296
31
0
210
-6.1908546950511E-18
220
2.6727647100922E-51
230
1
40
0.104528
41
-0.150033790339317
42
-0.125133828642989
0
ELLIPSE
5
130
100
AcDbEntity
8
1
62
256
6
ByLayer
370
18
48
1
60
0
100
AcDbEllipse
10
58.445445
20
38.445445
30
0
11
3.37752183088368
21
-3.37752183086821
31
0
210
0
220
0
230
1
40
0.989133
41
-0.734417524769673
42
-0.704393121263897
0
ELLIPSE
5
131
100
AcDbEntity
8
1
62
256
6
ByLayer
370
18
48
1
60
0
100
AcDbEllipse
10
58.445445
20
38.445445
30
0
11
3.37752183088368
21
-3.37752183086821
31
0
210
0
220
0
230
1
40
0.989133
41
-2.78626538272476
42
-2.75816014343865
0
ELLIPSE
5
132
100
AcDbEntity
8
1
62
256
6
ByLayer
370
18
48
1
60
0
100
AcDbEllipse
10
58.164749
20
38.164749
30
0
11
-3.8890872965349
21
3.88908729651712
31
0
210
0
220
0
230
1
40
0.989133
41
2.32785343388196
42
2.53072741539178
0
ELLIPSE
5
133
100
AcDbEntity
8
1
62
256
6
ByLayer
370
18
48
1
60
0
100
AcDbEllipse
10
58.164749
20
38.164749
30
0
11
-3.8890872965349
21
3.88908729651712
31
0
210
0
220
0
230
1
40
0.989133
41
0.261799387799151
42
0.765392315631818
0
ELLIPSE
5
134
100
AcDbEntity
8
1
62
256
6
ByLayer
370
18
48
1
60
0
100
AcDbEllipse
10
25.903414
20
28.921143
30
0
11
1.08181243135436
21
-1.915641371282
31
0
210
0
220
0
230
1
40
0.145707
41
0.103478557493321
42
3.14154536805373
0
ELLIPSE
5
135
100
AcDbEntity
8
1
62
256
6
ByLayer
370
18
48
1
60
0
100
AcDbEllipse
10
26.118778
20
29.042764
30
0
11
-0.958879200518633
21
1.69795485181815
31
0
210
0
220
0
230
1
40
0.145707
41
-2.99375941228707
42
-0.14781949685895
0
ELLIPSE
5
136
100
AcDbEntity
8
1
62
256
6
ByLayer
370
18
48
1
60
0
100
AcDbEllipse
10
39.223965
20
31.981292
30
0
11
2.08176526554849
21
-2.16015123988016
31
0
210
0
220
0
230
1
40
0.986455
41
-0.156280282981022
42
-0.0604884076533377
0
ELLIPSE
5
137
100
AcDbEntity
8
1
62
256
6
ByLayer
370
18
48
1
60
0
100
AcDbEllipse
10
47.702528
20
31.065681
30
0
11
2.87977528400875
21
-2.98820921516756
31
0
210
0
220
0
230
1
40
0.986455
41
0.0138074336181706
42
2.98531237060877
0
ELLIPSE
5
138
100
AcDbEntity
8
1
62
256
6
ByLayer
370
18
48
1
60
0
100
AcDbEllipse
10
40.726621
20
34.469188
30
0
11
-2.55875127368643
21
-1.57552183326986
31
0
210
0
220
0
230
1
40
0.340829
41
-0.015505816551765
42
0.521808140779381
0
ELLIPSE
5
139
100
AcDbEntity
8
1
62
256
6
ByLayer
370
18
48
1
60
0
100
AcDbEllipse
10
43.08329
20
30.941381
30
0
11
4.09042179648945
21
2.87549118009498
31
0
210
0
220
0
230
1
40
0.02553
41
1.99918174916221
42
2.49237968308225
0
ELLIPSE
5
13A
100
AcDbEntity
8
1
62
256
6
ByLayer
370
18
48
1
60
0
100
AcDbEllipse
10
54.844975
20
40.363235
30
0
11
-1.05474550223032
21
-0.233843842377198
31
0
210
0
220
0
230
1
40
0.175059
41
-1.35268507531488
42
-0.829086299709344
0
ELLIPSE
5
13B
100
AcDbEntity
8
1
62
256
6
ByLayer
370
18
48
1
60
0
100
AcDbEllipse
10
46.937343
20
25.611887
30
0
11
-1.25335491136545
21
-4.16877773766547
31
0
210
0
220
0
230
1
40
0.506194
41
0.24743930451432
42
0.568782557498598
0
ELLIPSE
5
13C
100
AcDbEntity
8
1
62
256
6
ByLayer
370
18
48
1
60
0
100
AcDbEllipse
10
48.574316
20
23.305744
30
0
11
-2.34383595231402
21
-1.88074787347826
31
0
210
0
220
0
230
1
40
0.391667
41
-0.525955037447204
42
0.0113589198744554
0
ELLIPSE
5
13D
100
AcDbEntity
8
1
62
256
6
ByLayer
370
18
48
1
60
0
100
AcDbEllipse
10
43.961267
20
23.076538
30
0
11
-2.6417616454884
21
1.4254999362947
31
0
210
0
220
0
230
1
40
0.99535
41
1.10568333558945
42
2.15821424005119
0
ELLIPSE
5
13E
100
AcDbEntity
8
1
62
256
6
ByLayer
370
18
48
1
60
0
100
AcDbEllipse
10
43.571964
20
30.246236
30
0
11
-5.32741126427738
21
2.36504468963498
31
0
210
0
220
0
230
1
40
0.117814
41
-1.32536540818936
42
-0.401049328632599
0
ELLIPSE
5
13F
100
AcDbEntity
8
1
62
256
6
ByLayer
370
18
48
1
60
0
100
AcDbEllipse
10
47.424064
20
24.766577
30
0
11
-3.99150159418144
21
-3.01589660485898
31
0
210
0
220
0
230
1
40
0.245743
41
-0.509500350559879
42
-0.404106675584192
0
ELLIPSE
5
140
100
AcDbEntity
8
1
62
256
6
ByLayer
370
18
48
1
60
0
100
AcDbEllipse
10
45.584152
20
27.383874
30
0
11
-2.37825173379356
21
-5.30791195081829
31
0
210
0
220
0
230
1
40
0.045332
41
0.474086533529271
42
1.34583741412082
0
ELLIPSE
5
141
100
AcDbEntity
8
1
62
256
6
ByLayer
370
18
48
1
60
0
100
AcDbEllipse
10
42.131089
20
32.448843
30
0
11
-4.16623761956823
21
-0.202630904167833
31
0
210
0
220
0
230
1
40
0.47969
41
-0.652688833334064
42
-0.331345580353576
0
ELLIPSE
5
142
100
AcDbEntity
8
1
62
256
6
ByLayer
370
18
48
1
60
0
100
AcDbEllipse
10
41.732052
20
32.863534
30
0
11
-4.18680116674151
21
-2.73820475509958
31
0
210
0
220
0
230
1
40
0.194744
41
0.40219847738236
42
0.507592152402295
0
ELLIPSE
5
143
100
AcDbEntity
8
1
62
256
6
ByLayer
370
18
48
1
60
0
100
AcDbEllipse
10
46.072826
20
26.688729
30
0
11
4.09042179648945
21
2.87549118009498
31
0
210
0
220
0
230
1
40
0.02553
41
1.99918174916223
42
2.49237968308225
0
ELLIPSE
5
144
100
AcDbEntity
8
1
62
256
6
ByLayer
370
18
48
1
60
0
100
AcDbEllipse
10
60.800373
20
37.053102
30
0
11
-0.571116455299997
21
-0.918981794959681
31
0
210
0
220
0
230
1
40
0.218147
41
1.33296183486162
42
1.53330768012812
0
ELLIPSE
5
145
100
AcDbEntity
8
1
62
256
6
ByLayer
370
18
48
1
60
0
100
AcDbEllipse
10
57.820511
20
41.063639
30
0
11
-6.11759667869036
21
1.37642652362076
31
0
210
0
220
0
230
1
40
0.534007
41
0.620180259208041
42
0.699482698429916
0
ELLIPSE
5
146
100
AcDbEntity
8
1
62
256
6
ByLayer
370
18
48
1
60
0
100
AcDbEllipse
10
39.78148
20
31.062988
30
0
11
0.0336313803299896
21
-1.99971721257209
31
0
210
0
220
0
230
1
40
0.83641
41
-2.51694140922384
42
-1.06772668549726
0
ELLIPSE
5
147
100
AcDbEntity
8
1
62
256
6
ByLayer
370
18
48
1
60
0
100
AcDbEllipse
10
58.99356
20
34.461821
30
0
11
-0.571116453356138
21
-0.91898179136407
31
0
210
0
220
0
230
1
40
0.218147
41
0.809363059444687
42
1.33296183502704
0
ELLIPSE
5
148
100
AcDbEntity
8
1
62
256
6
ByLayer
370
18
48
1
60
0
100
AcDbEllipse
10
45.027194
20
23.600895
30
0
11
1.91006367272338
21
-0.593006548144678
31
0
210
0
220
0
230
1
40
0.819617
41
-2.14767242923502
42
-0.698457705508437
0
ELLIPSE
5
149
100
AcDbEntity
8
1
62
256
6
ByLayer
370
18
48
1
60
0
100
AcDbEllipse
10
39.155013
20
29.913494
30
0
11
-2.64176164545063
21
1.42549993636301
31
0
210
0
220
0
230
1
40
0.99535
41
0.0531524311538053
42
1.10568333561565
0
ELLIPSE
5
14A
100
AcDbEntity
8
1
62
256
6
ByLayer
370
18
48
1
60
0
100
AcDbEllipse
10
60.660016
20
37.024407
30
0
11
-0.348951163585893
21
6.90792734593322
31
0
210
0
220
0
230
1
40
0.548566
41
2.25780315924196
42
2.33710559923637
0
ELLIPSE
5
14B
100
AcDbEntity
8
1
62
256
6
ByLayer
370
18
48
1
60
0
100
AcDbEllipse
10
45.584152
20
27.383874
30
0
11
-0.395141068297648
21
5.81029123393474
31
0
210
0
220
0
230
1
40
0.095437
41
-2.70279164398045
42
-1.77847556442588
0
ELLIPSE
5
14C
100
AcDbEntity
8
1
62
256
6
ByLayer
370
18
48
1
60
0
100
AcDbEllipse
10
43.571964
20
30.246236
30
0
11
-5.80586464930701
21
-0.424544944966544
31
0
210
0
220
0
230
1
40
0.082923
41
-1.32317444541754
42
-0.451423564823483
0
ELLIPSE
5
14D
100
AcDbEntity
8
1
62
256
6
ByLayer
370
18
48
1
60
0
100
AcDbEllipse
10
33.411941
20
31.875465
30
0
11
-4.60348651607831
21
-3.18394601549602
31
0
210
0
220
0
230
1
40
0.714389
41
-3.13614006881349
42
-2.44645526284959
0
ELLIPSE
5
14E
100
AcDbEntity
8
1
62
256
6
ByLayer
370
18
48
1
60
0
100
AcDbEllipse
10
12
20
22.2799
30
0
11
-1.88914494149012
21
-3.41434906401724
31
0
210
0
220
0
230
1
40
0.192308
41
2.48058027399185
42
3.13359220704443
0
ELLIPSE
5
14F
100
AcDbEntity
8
1
62
256
6
ByLayer
370
18
48
1
60
0
100
AcDbEllipse
10
-2.347154
20
0
30
0
11
-14.7536831606548
21
31.0932549155792
31
0
210
0
220
0
230
1
40
0.341999
41
-2.98378646694435
42
-2.05035306783692
0
ELLIPSE
5
150
100
AcDbEntity
8
1
62
256
6
ByLayer
370
18
48
1
60
0
100
AcDbEllipse
10
12
20
24.9975
30
0
11
-1.99999999999996
21
2.02127811016469E-15
31
0
210
0
220
0
230
1
40
0.732051
41
0.751504621492287
42
2.3900880320975
0
ELLIPSE
5
151
100
AcDbEntity
8
1
62
256
6
ByLayer
370
18
48
1
60
0
100
AcDbEllipse
10
20.755893
20
0
30
0
11
1.92875500727024E-15
21
31.5
31
0
210
0
220
0
230
1
40
0.087489
41
0.311401384074101
42
2.83019126951569
0
ELLIPSE
5
152
100
AcDbEntity
8
1
62
256
6
ByLayer
370
18
48
1
60
0
100
AcDbEllipse
10
26.347154
20
0
30
0
11
-14.7536831606555
21
31.0932549155802
31
0
210
0
220
0
230
1
40
0.341999
41
0.157806186645435
42
1.09123958575285
0
ELLIPSE
5
153
100
AcDbEntity
8
1
62
256
6
ByLayer
370
18
48
1
60
0
100
AcDbEllipse
10
-2.347154
20
0
30
0
11
-14.7536831606537
21
-31.0932549155779
31
0
210
0
220
0
230
1
40
0.341999
41
2.05035306783689
42
2.98378646694435
0
ELLIPSE
5
154
100
AcDbEntity
8
1
62
256
6
ByLayer
370
18
48
1
60
0
100
AcDbEllipse
10
26.347154
20
0
30
0
11
-14.7536831606553
21
-31.0932549155799
31
0
210
0
220
0
230
1
40
0.341999
41
-1.09123958575286
42
-0.157806186645435
0
ELLIPSE
5
155
100
AcDbEntity
8
1
62
256
6
ByLayer
370
18
48
1
60
0
100
AcDbEllipse
10
43.760335
20
17.154746
30
0
11
-4.60348651605668
21
-3.1839460154856
31
0
210
0
220
0
230
1
40
0.714389
41
2.45736043240018
42
-3.13614006881395
0
ELLIPSE
5
156
100
AcDbEntity
8
1
62
256
6
ByLayer
370
18
48
1
60
0
100
AcDbEllipse
10
12
20
22.2799
30
0
11
-1.8891449414941
21
3.41434906402345
31
0
210
0
220
0
230
1
40
0.192308
41
0.00800044654536786
42
0.661012379597218
0
ELLIPSE
5
157
100
AcDbEntity
8
1
62
256
6
ByLayer
370
18
48
1
60
0
100
AcDbEllipse
10
12
20
24.9975
30
0
11
-2.00000000000002
21
2.02127811016475E-15
31
0
210
0
220
0
230
1
40
0.732051
41
-2.39008803209745
42
-0.751504621492315
0
ELLIPSE
5
158
100
AcDbEntity
8
1
62
256
6
ByLayer
370
18
48
1
60
0
100
AcDbEllipse
10
64.210551
20
44.210551
30
0
11
-0.561266007568105
21
0.561266007565539
31
0
210
0
220
0
230
1
40
0.989133
41
-2.44346095279202
42
-0.698131700797688
0
ELLIPSE
5
159
100
AcDbEntity
8
1
62
256
6
ByLayer
370
18
48
1
60
0
100
AcDbEllipse
10
59.005169
20
38.857824
30
0
11
-2.53778696600815
21
2.53778696599654
31
0
210
0
220
0
230
1
40
0.989133
41
-0.704629737755967
42
-0.610865238198007
0
ELLIPSE
5
15A
100
AcDbEntity
8
1
62
256
6
ByLayer
370
18
48
1
60
0
100
AcDbEllipse
10
58.6517
20
38.504354
30
0
11
-3.18198051534674
21
3.18198051533219
31
0
210
0
220
0
230
1
40
0.989133
41
-2.35619449019235
42
-1.13446401379631
0
ELLIPSE
5
15B
100
AcDbEntity
8
1
62
256
6
ByLayer
370
18
48
1
60
0
100
AcDbEllipse
10
54.233913
20
39.271633
30
0
11
-8.77928479422908
21
0.377180977123931
31
0
210
0
220
0
230
1
40
0.731858
41
2.15633517464419
42
2.21990583440094
0
ELLIPSE
5
15C
100
AcDbEntity
8
1
62
256
6
ByLayer
370
18
48
1
60
0
100
AcDbEllipse
10
58.6517
20
38.504354
30
0
11
-3.18198051534674
21
3.18198051533219
31
0
210
0
220
0
230
1
40
0.989133
41
-2.87979326579065
42
-2.35619449019235
0
ELLIPSE
5
15D
100
AcDbEntity
8
1
62
256
6
ByLayer
370
18
48
1
60
0
100
AcDbEllipse
10
59.005169
20
38.857824
30
0
11
2.30693672462581
21
-2.30693672461524
31
0
210
0
220
0
230
1
40
0.989133
41
0.785398163397451
42
2.00712863979349
0
ELLIPSE
5
15E
100
AcDbEntity
8
1
62
256
6
ByLayer
370
18
48
1
60
0
100
AcDbEllipse
10
59.005169
20
38.857824
30
0
11
-2.53778696600815
21
2.53778696599654
31
0
210
0
220
0
230
1
40
0.989133
41
-2.87979326579064
42
-2.78602876623268
0
ELLIPSE
5
15F
100
AcDbEntity
8
1
62
256
6
ByLayer
370
18
48
1
60
0
100
AcDbEllipse
10
58.6517
20
38.504354
30
0
11
-3.18198051534674
21
3.18198051533219
31
0
210
0
220
0
230
1
40
0.989133
41
-1.13446401379631
42
-0.610865238198008
0
ELLIPSE
5
160
100
AcDbEntity
8
1
62
256
6
ByLayer
370
18
48
1
60
0
100
AcDbEllipse
10
61.289769
20
39.234314
30
0
11
-1.49847459157516
21
1.63003079786625
31
0
210
0
220
0
230
1
40
0.652432
41
2.74303571549633
42
-2.5191920312366
0
ELLIPSE
5
161
100
AcDbEntity
8
1
62
256
6
ByLayer
370
18
48
1
60
0
100
AcDbEllipse
10
58.518218
20
38.518218
30
0
11
2.37173880783045
21
-2.37173880781959
31
0
210
0
220
0
230
1
40
0.989133
41
0.200712863979348
42
2.59181393921158
0
ELLIPSE
5
162
100
AcDbEntity
8
1
62
256
6
ByLayer
370
18
48
1
60
0
100
AcDbEllipse
10
60.03135
20
41.024429
30
0
11
-1.15902115055691
21
1.55495811739251
31
0
210
0
220
0
230
1
40
0.75312
41
-0.858053350821167
42
0.162904209625283
0
ELLIPSE
5
163
100
AcDbEntity
8
1
62
256
6
ByLayer
370
18
48
1
60
0
100
AcDbEllipse
10
58.122884
20
33.739524
30
0
11
-1.49844313747124
21
-9.06767815354882
31
0
210
0
220
0
230
1
40
0.721982
41
-2.34099386399037
42
-2.2774232045338
0
ELLIPSE
5
164
100
AcDbEntity
8
1
62
256
6
ByLayer
370
18
48
1
60
0
100
AcDbEllipse
10
47.804707
20
32.067562
30
0
11
0.300520382004971
21
-0.300520382003594
31
0
210
0
220
0
230
1
40
0.989133
41
-2.11560264539023
42
-0.327858307401824
0
ELLIPSE
5
165
100
AcDbEntity
8
1
62
256
6
ByLayer
370
18
48
1
60
0
100
AcDbEllipse
10
48.292424
20
29.569687
30
0
11
0.300520382004971
21
-0.300520382003594
31
0
210
0
220
0
230
1
40
0.989133
41
2.07318755939612
42
2.79142400984191
0
ELLIPSE
5
166
100
AcDbEntity
8
1
62
256
6
ByLayer
370
18
48
1
60
0
100
AcDbEllipse
10
46.716732
20
29.440378
30
0
11
0.300520382004971
21
-0.300520382003594
31
0
210
0
220
0
230
1
40
0.989133
41
2.09549789574221
42
2.81373434618795
0
ELLIPSE
5
167
100
AcDbEntity
8
1
62
256
6
ByLayer
370
18
48
1
60
0
100
AcDbEllipse
10
48.953368
20
31.000235
30
0
11
0.300520382004971
21
-0.300520382003594
31
0
210
0
220
0
230
1
40
0.989133
41
-2.09329230904421
42
-1.37505585859843
0
ELLIPSE
5
168
100
AcDbEntity
8
1
62
256
6
ByLayer
370
18
48
1
60
0
100
AcDbEllipse
10
47.287563
20
30.780814
30
0
11
-2.82842712475265
21
2.82842712473973
31
0
210
0
220
0
230
1
40
0.989133
41
0
42
6.28318530717959
0
ELLIPSE
5
169
100
AcDbEntity
8
1
62
256
6
ByLayer
370
18
48
1
60
0
100
AcDbEllipse
10
46.462928
20
32.172167
30
0
11
0.300520382004971
21
-0.300520382003594
31
0
210
0
220
0
230
1
40
0.989133
41
0.00110279334900554
42
0.71933924379475
0
ELLIPSE
5
16A
100
AcDbEntity
8
1
62
256
6
ByLayer
370
18
48
1
60
0
100
AcDbEllipse
10
46.716732
20
29.440378
30
0
11
0.300520382004971
21
-0.300520382003594
31
0
210
0
220
0
230
1
40
0.989133
41
1.02599000819954
42
1.74422645864527
0
ELLIPSE
5
16B
100
AcDbEntity
8
1
62
256
6
ByLayer
370
18
48
1
60
0
100
AcDbEllipse
10
48.03862
20
32.301475
30
0
11
0.300520382004971
21
-0.300520382003594
31
0
210
0
220
0
230
1
40
0.989133
41
-2.11560264539023
42
-1.39736619494447
0
ELLIPSE
5
16C
100
AcDbEntity
8
1
62
256
6
ByLayer
370
18
48
1
60
0
100
AcDbEllipse
10
46.243558
20
31.404611
30
0
11
-0.268700576851502
21
0.268700576850274
31
0
210
0
220
0
230
1
40
0.989133
41
-1.06840509419362
42
1.76653679499138
0
ELLIPSE
5
16D
100
AcDbEntity
8
1
62
256
6
ByLayer
370
18
48
1
60
0
100
AcDbEllipse
10
47.262097
20
32.114952
30
0
11
-0.268700576851502
21
0.268700576850274
31
0
210
0
220
0
230
1
40
0.989133
41
-2.11560264539025
42
0.719339243794776
0
ELLIPSE
5
16E
100
AcDbEntity
8
1
62
256
6
ByLayer
370
18
48
1
60
0
100
AcDbEllipse
10
48.396215
20
31.581268
30
0
11
-0.268700576851502
21
0.268700576850274
31
0
210
0
220
0
230
1
40
0.989133
41
3.12038511059281
42
-0.327858307401881
0
ELLIPSE
5
16F
100
AcDbEntity
8
1
62
256
6
ByLayer
370
18
48
1
60
0
100
AcDbEllipse
10
48.511794
20
30.337242
30
0
11
-0.268700576851502
21
0.268700576850274
31
0
210
0
220
0
230
1
40
0.989133
41
2.07318755939617
42
-1.37505585859845
0
ELLIPSE
5
170
100
AcDbEntity
8
1
62
256
6
ByLayer
370
18
48
1
60
0
100
AcDbEllipse
10
48.953368
20
31.000235
30
0
11
0.300520382004971
21
-0.300520382003594
31
0
210
0
220
0
230
1
40
0.989133
41
3.12038511059276
42
-2.44456374614107
0
ELLIPSE
5
171
100
AcDbEntity
8
1
62
256
6
ByLayer
370
18
48
1
60
0
100
AcDbEllipse
10
45.801984
20
30.741618
30
0
11
0.300520382004971
21
-0.300520382003594
31
0
210
0
220
0
230
1
40
0.989133
41
-0.0212075429970151
42
0.697028907448701
0
ELLIPSE
5
172
100
AcDbEntity
8
1
62
256
6
ByLayer
370
18
48
1
60
0
100
AcDbEllipse
10
47.377676
20
30.870927
30
0
11
0.830850467896097
21
-0.830850467892291
31
0
210
0
220
0
230
1
40
0.989133
41
0.809420774298469
42
0.935908477695848
0
ELLIPSE
5
173
100
AcDbEntity
8
1
62
256
6
ByLayer
370
18
48
1
60
0
100
AcDbEllipse
10
48.292424
20
29.569687
30
0
11
0.300520382004971
21
-0.300520382003594
31
0
210
0
220
0
230
1
40
0.989133
41
-3.14048986024078
42
-2.42225340979506
0
ELLIPSE
5
174
100
AcDbEntity
8
1
62
256
6
ByLayer
370
18
48
1
60
0
100
AcDbEllipse
10
47.377676
20
30.870927
30
0
11
0.830850467896097
21
-0.830850467892291
31
0
210
0
220
0
230
1
40
0.989133
41
2.90381587669165
42
3.03030358008905
0
ELLIPSE
5
175
100
AcDbEntity
8
1
62
256
6
ByLayer
370
18
48
1
60
0
100
AcDbEllipse
10
48.03862
20
32.301475
30
0
11
0.300520382004971
21
-0.300520382003594
31
0
210
0
220
0
230
1
40
0.989133
41
-1.04609475784758
42
-0.327858307401853
0
ELLIPSE
5
176
100
AcDbEntity
8
1
62
256
6
ByLayer
370
18
48
1
60
0
100
AcDbEllipse
10
47.493255
20
29.626901
30
0
11
-0.268700576851502
21
0.268700576850274
31
0
210
0
220
0
230
1
40
0.989133
41
1.02599000819955
42
-2.42225340979502
0
ELLIPSE
5
177
100
AcDbEntity
8
1
62
256
6
ByLayer
370
18
48
1
60
0
100
AcDbEllipse
10
46.359137
20
30.160585
30
0
11
-0.268700576851502
21
0.268700576850274
31
0
210
0
220
0
230
1
40
0.989133
41
-0.021207542997025
42
2.81373434618797
0
ELLIPSE
5
178
100
AcDbEntity
8
1
62
256
6
ByLayer
370
18
48
1
60
0
100
AcDbEllipse
10
47.377676
20
30.870927
30
0
11
0.830850467896097
21
-0.830850467892291
31
0
210
0
220
0
230
1
40
0.989133
41
-0.237776776898134
42
-0.11128907350074
0
ELLIPSE
5
179
100
AcDbEntity
8
1
62
256
6
ByLayer
370
18
48
1
60
0
100
AcDbEllipse
10
47.377676
20
30.870927
30
0
11
0.830850467896097
21
-0.830850467892291
31
0
210
0
220
0
230
1
40
0.989133
41
-1.28497432809474
42
-1.15848662469733
0
ELLIPSE
5
17A
100
AcDbEntity
8
1
62
256
6
ByLayer
370
18
48
1
60
0
100
AcDbEllipse
10
47.377676
20
30.870927
30
0
11
0.830850467896097
21
-0.830850467892291
31
0
210
0
220
0
230
1
40
0.989133
41
-2.33217187929133
42
-2.20568417589392
0
ELLIPSE
5
17B
100
AcDbEntity
8
1
62
256
6
ByLayer
370
18
48
1
60
0
100
AcDbEllipse
10
47.377676
20
30.870927
30
0
11
-1.62634559673277
21
1.62634559672534
31
0
210
0
220
0
230
1
40
0.989133
41
0
42
6.28318530717959
0
ELLIPSE
5
17C
100
AcDbEntity
8
1
62
256
6
ByLayer
370
18
48
1
60
0
100
AcDbEllipse
10
45.801984
20
30.741618
30
0
11
0.300520382004971
21
-0.300520382003594
31
0
210
0
220
0
230
1
40
0.989133
41
1.0483003445456
42
1.76653679499135
0
ELLIPSE
5
17D
100
AcDbEntity
8
1
62
256
6
ByLayer
370
18
48
1
60
0
100
AcDbEllipse
10
46.462928
20
32.172167
30
0
11
0.300520382004971
21
-0.300520382003594
31
0
210
0
220
0
230
1
40
0.989133
41
-1.06840509419363
42
-0.350168643747922
0
ELLIPSE
5
17E
100
AcDbEntity
8
1
62
256
6
ByLayer
370
18
48
1
60
0
100
AcDbEllipse
10
47.377676
20
30.870927
30
0
11
0.830850467896097
21
-0.830850467892291
31
0
210
0
220
0
230
1
40
0.989133
41
1.85661832549506
42
1.98310602889245
0
ELLIPSE
5
17F
100
AcDbEntity
8
1
62
256
6
ByLayer
370
18
48
1
60
0
100
AcDbEllipse
10
63.293514
20
33.035984
30
0
11
-0.561266007568105
21
0.561266007565539
31
0
210
0
220
0
230
1
40
0.989133
41
2.44346095279212
42
-2.443460952792
0
ELLIPSE
5
180
100
AcDbEntity
8
1
62
256
6
ByLayer
370
18
48
1
60
0
100
AcDbEllipse
10
53.035984
20
43.293514
30
0
11
-0.561266007568105
21
0.561266007565539
31
0
210
0
220
0
230
1
40
0.989133
41
-0.698131700797669
42
0.698131700797764
0
POINT
5
6C
100
AcDbEntity
8
2
62
256
6
ByLayer
370
18
48
1
60
0
100
AcDbPoint
10
65
20
45
30
0
39
0
210
0
220
0
230
1
50
360
0
POINT
5
6E
100
AcDbEntity
8
80
62
256
6
ByLayer
370
18
48
1
60
0
100
AcDbPoint
10
0
20
0
30
0
39
0
210
0
220
0
230
1
50
360
0
POINT
5
70
100
AcDbEntity
8
81
62
256
6
ByLayer
370
18
48
1
60
0
100
AcDbPoint
10
65
20
45
30
0
39
0
210
0
220
0
230
1
50
360
0
SPLINE
5
181
100
AcDbEntity
8
SK1
62
256
6
ByLayer
370
18
48
1
60
0
100
AcDbSpline
70
4
71
3
72
13
73
9
40
0
40
0
40
0
40
0
40
0.239456135763718
40
0.368359721933656
40
0.499998984021097
40
0.63163841528373
40
0.760542467778167
40
1
40
1
40
1
40
1
41
1
10
-2.19999999999999
20
-22.0200986606755
30
0
41
1
10
-2.19909198642273
20
-21.9940411845603
30
0
41
1
10
-2.19103284106941
20
-21.9566686002238
30
0
41
1
10
-2.16563592203337
20
-21.9104494263858
30
0
41
1
10
-2.1388637867926
20
-21.8791678725253
30
0
41
1
10
-2.10627712749869
20
-21.8540005023229
30
0
41
1
10
-2.05884064234078
20
-21.8309566998545
30
0
41
1
10
-2.02111030873027
20
-21.8247844448324
30
0
41
1
10
-1.99503997793928
20
-21.825186084775
30
0
0
SPLINE
5
182
100
AcDbEntity
8
SK1
62
256
6
ByLayer
370
18
48
1
60
0
100
AcDbSpline
70
4
71
3
72
13
73
9
40
0
40
0
40
0
40
0
40
0.239457532152995
40
0.368361584623188
40
0.500001015876169
40
0.631640277971204
40
0.760543864164266
40
1
40
1
40
1
40
1
41
1
10
-1.99503997793928
20
21.8251861015554
30
0
41
1
10
-2.02111030873166
20
21.8247844616134
30
0
41
1
10
-2.05884064234343
20
21.8309567166392
30
0
41
1
10
-2.10627712750076
20
21.854000519123
30
0
41
1
10
-2.13886378679456
20
21.8791678893421
30
0
41
1
10
-2.16563592203485
20
21.9104494432231
30
0
41
1
10
-2.19103284107055
20
21.9566686170919
30
0
41
1
10
-2.19909198642387
20
21.9940412014509
30
0
41
1
10
-2.19999999999999
20
22.0200986775813
30
0
0
SPLINE
5
183
100
AcDbEntity
8
SK1
62
256
6
ByLayer
370
18
48
1
60
0
100
AcDbSpline
70
4
71
2
72
6
73
3
40
0
40
0
40
0
40
1
40
1
40
1
41
1
10
-36.5
20
-21.1521177089669
30
0
41
1
10
-19.3499999999701
20
-21.5828554470541
30
0
41
1
10
-2.19999999999999
20
-22.0135928951589
30
0
0
SPLINE
5
184
100
AcDbEntity
8
SK1
62
256
6
ByLayer
370
18
48
1
60
0
100
AcDbSpline
70
4
71
2
72
6
73
3
40
0
40
0
40
0
40
1
40
1
40
1
41
1
10
-2.19999999999999
20
22.0135927638551
30
0
41
1
10
-19.3499999999869
20
21.5828539542124
30
0
41
1
10
-36.5
20
21.1521149580209
30
0
0
SPLINE
5
185
100
AcDbEntity
8
SK1
62
256
6
ByLayer
370
18
48
1
60
0
100
AcDbSpline
70
4
71
2
72
6
73
3
40
0
40
0
40
0
40
1
40
1
40
1
41
1
10
-1.99503997793928
20
-21.8251812553753
30
0
41
1
10
-1.19500843340728
20
-21.8452807024746
30
0
41
1
10
-0.394976888875277
20
-21.8653801495793
30
0
0
SPLINE
5
186
100
AcDbEntity
8
SK1
62
256
6
ByLayer
370
18
48
1
60
0
100
AcDbSpline
70
4
71
2
72
6
73
3
40
0
40
0
40
0
40
1
40
1
40
1
41
1
10
-0.394976888875277
20
21.8653802062992
30
0
41
1
10
-1.19500843340728
20
21.8452807593862
30
0
41
1
10
-1.99503997793928
20
21.8251813124779
30
0
0
SPLINE
5
187
100
AcDbEntity
8
SK1
62
256
6
ByLayer
370
18
48
1
60
0
100
AcDbSpline
70
4
71
2
72
6
73
3
40
0
40
0
40
0
40
1
40
1
40
1
41
1
10
-38
20
-20.289405225553
30
0
41
1
10
-37.2500000000012
20
-20.7223540793632
30
0
41
1
10
-36.5
20
-21.1553029418638
30
0
0
SPLINE
5
188
100
AcDbEntity
8
SK1
62
256
6
ByLayer
370
18
48
1
60
0
100
AcDbSpline
70
4
71
2
72
6
73
3
40
0
40
0
40
0
40
1
40
1
40
1
41
1
10
-36.5
20
21.155302724897
30
0
41
1
10
-37.2500000000012
20
20.7223538609616
30
0
41
1
10
-38
20
20.2894050057151
30
0
0
SPLINE
5
189
100
AcDbEntity
8
SK1
62
256
6
ByLayer
370
18
48
1
60
0
100
AcDbSpline
70
4
71
2
72
6
73
3
40
0
40
0
40
0
40
1
40
1
40
1
41
1
10
-0.394976888875277
20
-21.8653849865467
30
0
41
1
10
-0.265172990617003
20
-21.8689012906761
30
0
41
1
10
-0.240502439654279
20
-21.9465691723769
30
0
0
SPLINE
5
18A
100
AcDbEntity
8
SK1
62
256
6
ByLayer
370
18
48
1
60
0
100
AcDbSpline
70
4
71
2
72
6
73
3
40
0
40
0
40
0
40
1
40
1
40
1
41
1
10
-0.239684768755779
20
21.9481214799356
30
0
41
1
10
-0.264174311740362
20
21.8692639605625
30
0
41
1
10
-0.394976888875277
20
21.865385003355
30
0
0
SPLINE
5
18B
100
AcDbEntity
8
SK1
62
256
6
ByLayer
370
18
48
1
60
0
100
AcDbSpline
70
4
71
3
72
299
73
295
40
0
40
0
40
0
40
0
40
0.003294937059452
40
0.0068176639746187
40
0.0103403908897854
40
0.0138631178049521
40
0.0173858447201188
40
0.0209085716352855
40
0.0244312985504522
40
0.0279540254656189
40
0.0349994792959522
40
0.0420449331262856
40
0.049090386956619
40
0.0526131138717857
40
0.0561358407869524
40
0.0596585677021191
40
0.0631812946172858
40
0.0702267484476192
40
0.0737494753627859
40
0.0772722022779526
40
0.0807949291931193
40
0.084317656108286
40
0.0878403830234526
40
0.0913631099386193
40
0.0984085637689527
40
0.101931290684119
40
0.105454017599286
40
0.108976744514453
40
0.112499471429619
40
0.116022198344786
40
0.119544925259953
40
0.12306765217512
40
0.126590379090286
40
0.130113106005453
40
0.13363583292062
40
0.137158559835786
40
0.140681286750953
40
0.14420401366612
40
0.147726740581286
40
0.15477219441162
40
0.158294921326786
40
0.161817648241953
40
0.163579011699537
40
0.16534037515712
40
0.168863102072287
40
0.17590855590262
40
0.179431282817787
40
0.182954009732953
40
0.18647673664812
40
0.189999463563287
40
0.19704491739362
40
0.200567644308787
40
0.204090371223953
40
0.205851734681537
40
0.20761309813912
40
0.211135825054287
40
0.21818127888462
40
0.221704005799787
40
0.225226732714954
40
0.22874945963012
40
0.232272186545287
40
0.239317640375621
40
0.242840367290787
40
0.246363094205954
40
0.248124457663537
40
0.249885821121121
40
0.253408548036287
40
0.256931274951454
40
0.260454001866621
40
0.262215365324204
40
0.263976728781787
40
0.267499455696954
40
0.271022182612121
40
0.274544909527287
40
0.278067636442454
40
0.281590363357621
40
0.285113090272787
40
0.288635817187954
40
0.292158544103121
40
0.295681271018288
40
0.299203997933454
40
0.302726724848621
40
0.306249451763788
40
0.309772178678954
40
0.313294905594121
40
0.316817632509288
40
0.323863086339621
40
0.327385813254788
40
0.330908540169955
40
0.334431267085121
40
0.337953994000288
40
0.341476720915455
40
0.344999447830621
40
0.348522174745788
40
0.352044901660955
40
0.359090355491288
40
0.366135809321621
40
0.373181263151955
40
0.376703990067122
40
0.380226716982288
40
0.383749443897455
40
0.387272170812622
40
0.390794897727788
40
0.394317624642955
40
0.397840351558122
40
0.401363078473288
40
0.404885805388455
40
0.408408532303622
40
0.411931259218788
40
0.415453986133955
40
0.418976713049122
40
0.422499439964289
40
0.426022166879455
40
0.429544893794622
40
0.433067620709789
40
0.434828984167372
40
0.436590347624955
40
0.438351711082539
40
0.440113074540122
40
0.443635801455289
40
0.447158528370455
40
0.448919891828039
40
0.450681255285622
40
0.452442618743206
40
0.454203982200789
40
0.457726709115955
40
0.459488072573539
40
0.461249436031122
40
0.463010799488705
40
0.464772162946289
40
0.466533526403872
40
0.468294889861456
40
0.470056253319039
40
0.471817616776622
40
0.473578980234206
40
0.475340343691789
40
0.477101707149372
40
0.478863070606956
40
0.480624434064539
40
0.482385797522122
40
0.484147160979706
40
0.485908524437289
40
0.487669887894872
40
0.489431251352456
40
0.491192614810039
40
0.492953978267622
40
0.494715341725206
40
0.496476705182789
40
0.498238068640373
40
0.499999432097956
40
0.501760795555539
40
0.503522159013122
40
0.505283522470706
40
0.507044885928289
40
0.508806249385872
40
0.510567612843456
40
0.512328976301039
40
0.514090339758623
40
0.515851703216206
40
0.517613066673789
40
0.519374430131373
40
0.521135793588956
40
0.522897157046539
40
0.524658520504123
40
0.526419883961706
40
0.528181247419289
40
0.529942610876873
40
0.531703974334456
40
0.533465337792039
40
0.535226701249623
40
0.536988064707206
40
0.538749428164789
40
0.540510791622373
40
0.542272155079956
40
0.545794881995123
40
0.547556245452706
40
0.549317608910289
40
0.551078972367873
40
0.552840335825456
40
0.556363062740623
40
0.55988578965579
40
0.561647153113373
40
0.563408516570956
40
0.56516988002854
40
0.566931243486123
40
0.57045397040129
40
0.573976697316456
40
0.577499424231623
40
0.58102215114679
40
0.584544878061956
40
0.588067604977123
40
0.59159033189229
40
0.595113058807457
40
0.598635785722623
40
0.60215851263779
40
0.605681239552957
40
0.609203966468123
40
0.61272669338329
40
0.616249420298457
40
0.619772147213623
40
0.62329487412879
40
0.626817601043957
40
0.63386305487429
40
0.640908508704624
40
0.647953962534957
40
0.651476689450124
40
0.65499941636529
40
0.658522143280457
40
0.662044870195624
40
0.66556759711079
40
0.669090324025957
40
0.672613050941124
40
0.67613577785629
40
0.683181231686624
40
0.686703958601791
40
0.690226685516957
40
0.693749412432124
40
0.697272139347291
40
0.700794866262457
40
0.704317593177624
40
0.707840320092791
40
0.711363047007957
40
0.714885773923124
40
0.718408500838291
40
0.721931227753458
40
0.725453954668624
40
0.732499408498958
40
0.736022135414124
40
0.739544862329291
40
0.746590316159624
40
0.750113043074791
40
0.753635769989958
40
0.757158496905124
40
0.760681223820291
40
0.767726677650624
40
0.771249404565791
40
0.774772131480958
40
0.778294858396125
40
0.781817585311291
40
0.788863039141625
40
0.792385766056791
40
0.795908492971958
40
0.799431219887125
40
0.802953946802291
40
0.809999400632625
40
0.813522127547792
40
0.817044854462958
40
0.820567581378125
40
0.824090308293292
40
0.831135762123625
40
0.834658489038792
40
0.838181215953958
40
0.841703942869125
40
0.845226669784292
40
0.852272123614625
40
0.855794850529792
40
0.859317577444959
40
0.862840304360125
40
0.866363031275292
40
0.869885758190459
40
0.873408485105625
40
0.876931212020792
40
0.880453938935959
40
0.883976665851125
40
0.887499392766292
40
0.891022119681459
40
0.894544846596625
40
0.898067573511792
40
0.901590300426959
40
0.908635754257292
40
0.912158481172459
40
0.915681208087626
40
0.919203935002792
40
0.922726661917959
40
0.926249388833126
40
0.929772115748292
40
0.936817569578626
40
0.940340296493792
40
0.943863023408959
40
0.947385750324126
40
0.950908477239293
40
0.957953931069626
40
0.961476657984793
40
0.964999384899959
40
0.968522111815126
40
0.972044838730293
40
0.975567565645459
40
0.979090292560626
40
0.982613019475793
40
0.986135746390959
40
0.989658473306126
40
0.993181200221293
40
0.99670392713646
40
1
40
1
40
1
40
1
41
1
10
-1.99503997793931
20
21.8251672717085
30
0
41
1
10
-1.99503997793928
20
21.8252770366149
30
0
41
1
10
-1.99503997793928
20
21.8245105466541
30
0
41
1
10
-1.99503997793928
20
21.8202836860757
30
0
41
1
10
-1.99503997793928
20
21.812783044142
30
0
41
1
10
-1.99503997793928
20
21.8021565364934
30
0
41
1
10
-1.99503997793928
20
21.7884557330328
30
0
41
1
10
-1.99503997793928
20
21.7717308612526
30
0
41
1
10
-1.99503997793928
20
21.7520291985819
30
0
41
1
10
-1.99503997793928
20
21.7218385059106
30
0
41
1
10
-1.99503997793928
20
21.6769140218914
30
0
41
1
10
-1.99503997793928
20
21.6117670092986
30
0
41
1
10
-1.99503997793928
20
21.5484022523455
30
0
41
1
10
-1.99503997793928
20
21.4923512863894
30
0
41
1
10
-1.99503997793928
20
21.4477036012609
30
0
41
1
10
-1.99503997793928
20
21.4004602751572
30
0
41
1
10
-1.99503997793928
20
21.3340243579833
30
0
41
1
10
-1.99503997793928
20
21.2626002065084
30
0
41
1
10
-1.99503997793928
20
21.1861355372814
30
0
41
1
10
-1.99503997793928
20
21.126355615456
30
0
41
1
10
-1.99503997793928
20
21.0641493981766
30
0
41
1
10
-1.99503997793928
20
20.9995415089612
30
0
41
1
10
-1.99503997793928
20
20.9325549476398
30
0
41
1
10
-1.99503997793928
20
20.8400664063016
30
0
41
1
10
-1.99503997793928
20
20.7430171949632
30
0
41
1
10
-1.99503997793928
20
20.6412830606924
30
0
41
1
10
-1.99503997793928
20
20.5627395849404
30
0
41
1
10
-1.99503997793928
20
20.4819464711493
30
0
41
1
10
-1.99503997793928
20
20.3989234016943
30
0
41
1
10
-1.99503997793928
20
20.3136873945745
30
0
41
1
10
-1.99503997793928
20
20.2262576082901
30
0
41
1
10
-1.99503997793928
20
20.136651569995
30
0
41
1
10
-1.99503997793928
20
20.0448848271876
30
0
41
1
10
-1.99503997793928
20
19.9509751576252
30
0
41
1
10
-1.99503997793928
20
19.8549383078336
30
0
41
1
10
-1.99503997793928
20
19.7567886026657
30
0
41
1
10
-1.99503997793928
20
19.6565424313982
30
0
41
1
10
-1.99503997793928
20
19.5542139601407
30
0
41
1
10
-1.99503997793928
20
19.4149698127943
30
0
41
1
10
-1.99503997793928
20
19.2717622924356
30
0
41
1
10
-1.99503997793928
20
19.1243520606764
30
0
41
1
10
-1.99503997793928
20
19.0305969699326
30
0
41
1
10
-1.99503997793928
20
18.9545457436666
30
0
41
1
10
-1.99503997793928
20
18.877828345234
30
0
41
1
10
-1.99503997793928
20
18.7418485706132
30
0
41
1
10
-1.99503997793928
20
18.5826225030747
30
0
41
1
10
-1.99503997793928
20
18.4193199892891
30
0
41
1
10
-1.99503997793928
20
18.2949375082747
30
0
41
1
10
-1.99503997793928
20
18.1686188381619
30
0
41
1
10
-1.99503997793928
20
17.9975681157064
30
0
41
1
10
-1.99503997793928
20
17.8228588844704
30
0
41
1
10
-1.99503997793928
20
17.6441795672679
30
0
41
1
10
-1.99503997793928
20
17.5309981410348
30
0
41
1
10
-1.99503997793928
20
17.4394590341184
30
0
41
1
10
-1.99503997793928
20
17.3472945498449
30
0
41
1
10
-1.99503997793928
20
17.1843913435575
30
0
41
1
10
-1.99503997793928
20
16.9946548235122
30
0
41
1
10
-1.99503997793928
20
16.8010333841432
30
0
41
1
10
-1.99503997793928
20
16.654027023888
30
0
41
1
10
-1.99503997793928
20
16.5051894370887
30
0
41
1
10
-1.99503997793928
20
16.3042392155796
30
0
41
1
10
-1.99503997793928
20
16.0998599858609
30
0
41
1
10
-1.99503997793928
20
15.8916662065006
30
0
41
1
10
-1.99503997793928
20
15.7601264684356
30
0
41
1
10
-1.99503997793928
20
15.6539352235828
30
0
41
1
10
-1.99503997793928
20
15.5471478788445
30
0
41
1
10
-1.99503997793928
20
15.4126292313156
30
0
41
1
10
-1.99503997793928
20
15.2493853238091
30
0
41
1
10
-1.99503997793928
20
15.1119089381336
30
0
41
1
10
-1.99503997793928
20
15.0009760777421
30
0
41
1
10
-1.99503997793928
20
14.8894548819647
30
0
41
1
10
-1.99503997793928
20
14.7490386600655
30
0
41
1
10
-1.99503997793928
20
14.578735707937
30
0
41
1
10
-1.99503997793928
20
14.4066808882548
30
0
41
1
10
-1.99503997793928
20
14.2328806917249
30
0
41
1
10
-1.99503997793928
20
14.0573388809364
30
0
41
1
10
-1.99503997793928
20
13.8800596938692
30
0
41
1
10
-1.99503997793928
20
13.7010488098078
30
0
41
1
10
-1.99503997793928
20
13.5203096364964
30
0
41
1
10
-1.99503997793928
20
13.3378467409434
30
0
41
1
10
-1.99503997793928
20
13.1536651576331
30
0
41
1
10
-1.99503997793928
20
12.967767664355
30
0
41
1
10
-1.99503997793928
20
12.7801589185361
30
0
41
1
10
-1.99503997793928
20
12.5908431445087
30
0
41
1
10
-1.99503997793928
20
12.3998230002593
30
0
41
1
10
-1.99503997793928
20
12.1427688173785
30
0
41
1
10
-1.99503997793928
20
11.8826118718573
30
0
41
1
10
-1.99503997793928
20
11.6187779306707
30
0
41
1
10
-1.99503997793928
20
11.4192921752591
30
0
41
1
10
-1.99503997793928
20
11.2181233733031
30
0
41
1
10
-1.99503997793928
20
11.0152750188843
30
0
41
1
10
-1.99503997793928
20
10.8107494713072
30
0
41
1
10
-1.99503997793928
20
10.6045508021232
30
0
41
1
10
-1.99503997793928
20
10.3966814407573
30
0
41
1
10
-1.99503997793928
20
10.1171870033238
30
0
41
1
10
-1.99503997793928
20
9.76392166117952
30
0
41
1
10
-1.99503997793928
20
9.33322608836653
30
0
41
1
10
-1.99503997793928
20
8.96893242084855
30
0
41
1
10
-1.99503997793928
20
8.67397578579323
30
0
41
1
10
-1.99503997793928
20
8.45121977200662
30
0
41
1
10
-1.99503997793928
20
8.22682776167497
30
0
41
1
10
-1.99503997793928
20
8.00080467620242
30
0
41
1
10
-1.99503997793928
20
7.77315513008728
30
0
41
1
10
-1.99503997793928
20
7.54388372935193
30
0
41
1
10
-1.99503997793928
20
7.31299637479285
30
0
41
1
10
-1.99503997793928
20
7.08049945458953
30
0
41
1
10
-1.99503997793928
20
6.8463997482805
30
0
41
1
10
-1.99503997793928
20
6.61070495432838
30
0
41
1
10
-1.99503997793928
20
6.37342319970753
30
0
41
1
10
-1.99503997793928
20
6.13456384015993
30
0
41
1
10
-1.99503997793928
20
5.89413749968631
30
0
41
1
10
-1.99503997793928
20
5.65215638001948
30
0
41
1
10
-1.99503997793928
20
5.4086336510897
30
0
41
1
10
-1.99503997793928
20
5.16358499073451
30
0
41
1
10
-1.99503997793928
20
4.95821799704331
30
0
41
1
10
-1.99503997793928
20
4.79299516838267
30
0
41
1
10
-1.99503997793928
20
4.66878842905288
30
0
41
1
10
-1.99503997793928
20
4.5442150281373
30
0
41
1
10
-1.99503997793928
20
4.37752561794156
30
0
41
1
10
-1.99503997793928
20
4.16851547631595
30
0
41
1
10
-1.99503997793928
20
3.95832363498766
30
0
41
1
10
-1.99503997793928
20
3.78926935835412
30
0
41
1
10
-1.99503997793928
20
3.66223142121836
30
0
41
1
10
-1.99503997793928
20
3.53485872774326
30
0
41
1
10
-1.99503997793928
20
3.36446603264318
30
0
41
1
10
-1.99503997793928
20
3.19381064862623
30
0
41
1
10
-1.99503997793928
20
3.02213557666008
30
0
41
1
10
-1.99503997793928
20
2.8931784837302
30
0
41
1
10
-1.99503997793928
20
2.76392442628162
30
0
41
1
10
-1.99503997793928
20
2.63438251344519
30
0
41
1
10
-1.99503997793928
20
2.50455988721876
30
0
41
1
10
-1.99503997793928
20
2.37446636334928
30
0
41
1
10
-1.99503997793928
20
2.24411116870439
30
0
41
1
10
-1.99503997793928
20
2.11350398186613
30
0
41
1
10
-1.99503997793928
20
1.98265625862297
30
0
41
1
10
-1.99503997793928
20
1.85157817347522
30
0
41
1
10
-1.99503997793928
20
1.72028262405345
30
0
41
1
10
-1.99503997793928
20
1.58878098022359
30
0
41
1
10
-1.99503997793928
20
1.45708718468359
30
0
41
1
10
-1.99503997793928
20
1.32521409071333
30
0
41
1
10
-1.99503997793928
20
1.19317647053177
30
0
41
1
10
-1.99503997793928
20
1.06098852682439
30
0
41
1
10
-1.99503997793928
20
0.928665923975672
30
0
41
1
10
-1.99503997793928
20
0.796224037396229
30
0
41
1
10
-1.99503997793928
20
0.663679321648374
30
0
41
1
10
-1.99503997793928
20
0.531048033506266
30
0
41
1
10
-1.99503997793928
20
0.398347293868937
30
0
41
1
10
-1.99503997793928
20
0.265594055935196
30
0
41
1
10
-1.99503997793928
20
0.132805828560237
30
0
41
1
10
-1.99503997793928
20
-2.0604887E-09
30
0
41
1
10
-1.99503997793928
20
-0.132805835966792
30
0
41
1
10
-1.99503997793928
20
-0.265594069601519
30
0
41
1
10
-1.99503997793928
20
-0.398347307093388
30
0
41
1
10
-1.99503997793928
20
-0.531048037421954
30
0
41
1
10
-1.99503997793928
20
-0.663679323049081
30
0
41
1
10
-1.99503997793928
20
-0.796224050825089
30
0
41
1
10
-1.99503997793928
20
-0.92866594303203
30
0
41
1
10
-1.99503997793928
20
-1.06098853158755
30
0
41
1
10
-1.99503997793928
20
-1.1931764657121
30
0
41
1
10
-1.99503997793928
20
-1.32521410103647
30
0
41
1
10
-1.99503997793928
20
-1.45708720896539
30
0
41
1
10
-1.99503997793928
20
-1.58878099035152
30
0
41
1
10
-1.99503997793928
20
-1.72028261530932
30
0
41
1
10
-1.99503997793928
20
-1.85157817419835
30
0
41
1
10
-1.99503997793928
20
-1.98265628188182
30
0
41
1
10
-1.99503997793928
20
-2.11350400419804
30
0
41
1
10
-1.99503997793928
20
-2.24411116714702
30
0
41
1
10
-1.99503997793928
20
-2.37446635053539
30
0
41
1
10
-1.99503997793928
20
-2.50455989433328
30
0
41
1
10
-1.99503997793928
20
-2.63438254221708
30
0
41
1
10
-1.99503997793928
20
-2.76392444618182
30
0
41
1
10
-1.99503997793928
20
-2.89317847799558
30
0
41
1
10
-1.99503997793928
20
-3.02213556164864
30
0
41
1
10
-1.99503997793928
20
-3.19381066067948
30
0
41
1
10
-1.99503997793928
20
-3.36446606295527
30
0
41
1
10
-1.99503997793928
20
-3.53485872835634
30
0
41
1
10
-1.99503997793928
20
-3.66223140396673
30
0
41
1
10
-1.99503997793928
20
-3.78926935085312
30
0
41
1
10
-1.99503997793928
20
-3.95832365779984
30
0
41
1
10
-1.99503997793928
20
-4.16851549788919
30
0
41
1
10
-1.99503997793928
20
-4.37752560184694
30
0
41
1
10
-1.99503997793928
20
-4.54421502107886
30
0
41
1
10
-1.99503997793928
20
-4.66878844332788
30
0
41
1
10
-1.99503997793928
20
-4.79299519854527
30
0
41
1
10
-1.99503997793928
20
-4.95821801342223
30
0
41
1
10
-1.99503997793928
20
-5.16358497720142
30
0
41
1
10
-1.99503997793928
20
-5.40863364784667
30
0
41
1
10
-1.99503997793928
20
-5.65215640891225
30
0
41
1
10
-1.99503997793928
20
-5.89413750153935
30
0
41
1
10
-1.99503997793928
20
-6.13456381441384
30
0
41
1
10
-1.99503997793928
20
-6.37342317953835
30
0
41
1
10
-1.99503997793928
20
-6.61070492919379
30
0
41
1
10
-1.99503997793928
20
-6.84639976314463
30
0
41
1
10
-1.99503997793928
20
-7.08049963775395
30
0
41
1
10
-1.99503997793928
20
-7.31299670603016
30
0
41
1
10
-1.99503997793928
20
-7.54388383469134
30
0
41
1
10
-1.99503997793928
20
-7.77315487290267
30
0
41
1
10
-1.99503997793928
20
-8.00080468509063
30
0
41
1
10
-1.99503997793928
20
-8.22682785520686
30
0
41
1
10
-1.99503997793928
20
-8.4512197921853
30
0
41
1
10
-1.99503997793928
20
-8.67397577159846
30
0
41
1
10
-1.99503997793928
20
-8.96893239301764
30
0
41
1
10
-1.99503997793928
20
-9.33322609823665
30
0
41
1
10
-1.99503997793928
20
-9.76392165975841
30
0
41
1
10
-1.99503997793928
20
-10.1171869828061
30
0
41
1
10
-1.99503997793928
20
-10.3966814549587
30
0
41
1
10
-1.99503997793928
20
-10.6045508126063
30
0
41
1
10
-1.99503997793928
20
-10.8107494592904
30
0
41
1
10
-1.99503997793928
20
-11.0152749978462
30
0
41
1
10
-1.99503997793928
20
-11.2181233670389
30
0
41
1
10
-1.99503997793928
20
-11.4192921870092
30
0
41
1
10
-1.99503997793928
20
-11.6187779427602
30
0
41
1
10
-1.99503997793928
20
-11.8826118620781
30
0
41
1
10
-1.99503997793928
20
-12.1427687977971
30
0
41
1
10
-1.99503997793928
20
-12.3998230071702
30
0
41
1
10
-1.99503997793928
20
-12.5908431584255
30
0
41
1
10
-1.99503997793928
20
-12.7801589212449
30
0
41
1
10
-1.99503997793928
20
-12.9677676529033
30
0
41
1
10
-1.99503997793928
20
-13.1536651432542
30
0
41
1
10
-1.99503997793928
20
-13.3378467396349
30
0
41
1
10
-1.99503997793928
20
-13.520309646993
30
0
41
1
10
-1.99503997793928
20
-13.7010488212408
30
0
41
1
10
-1.99503997793928
20
-13.8800597145162
30
0
41
1
10
-1.99503997793928
20
-14.0573389921213
30
0
41
1
10
-1.99503997793928
20
-14.2328810143213
30
0
41
1
10
-1.99503997793928
20
-14.4646959102749
30
0
41
1
10
-1.99503997793928
20
-14.6927797943809
30
0
41
1
10
-1.99503997793928
20
-14.9175842595472
30
0
41
1
10
-1.99503997793928
20
-15.1400402265273
30
0
41
1
10
-1.99503997793928
20
-15.3587351142266
30
0
41
1
10
-1.99503997793928
20
-15.574095422854
30
0
41
1
10
-1.99503997793928
20
-15.733775855726
30
0
41
1
10
-1.99503997793928
20
-15.8916657661057
30
0
41
1
10
-1.99503997793928
20
-16.0998603532658
30
0
41
1
10
-1.99503997793928
20
-16.3042398246232
30
0
41
1
10
-1.99503997793928
20
-16.5051894037979
30
0
41
1
10
-1.99503997793928
20
-16.6540265683948
30
0
41
1
10
-1.99503997793928
20
-16.8010329188422
30
0
41
1
10
-1.99503997793928
20
-16.9946550481209
30
0
41
1
10
-1.99503997793928
20
-17.1843924611907
30
0
41
1
10
-1.99503997793928
20
-17.3705928023913
30
0
41
1
10
-1.99503997793928
20
-17.5083251903719
30
0
41
1
10
-1.99503997793928
20
-17.6441786252734
30
0
41
1
10
-1.99503997793928
20
-17.8228590748675
30
0
41
1
10
-1.99503997793928
20
-17.9975683374733
30
0
41
1
10
-1.99503997793928
20
-18.1686188521771
30
0
41
1
10
-1.99503997793928
20
-18.2949373683468
30
0
41
1
10
-1.99503997793928
20
-18.4193198181252
30
0
41
1
10
-1.99503997793928
20
-18.5826226298873
30
0
41
1
10
-1.99503997793928
20
-18.7418497326446
30
0
41
1
10
-1.99503997793928
20
-18.8972761707097
30
0
41
1
10
-1.99503997793928
20
-19.0118150097952
30
0
41
1
10
-1.99503997793928
20
-19.1243510467918
30
0
41
1
10
-1.99503997793928
20
-19.2717625055688
30
0
41
1
10
-1.99503997793928
20
-19.414970513124
30
0
41
1
10
-1.99503997793928
20
-19.5542140249085
30
0
41
1
10
-1.99503997793928
20
-19.6565420567613
30
0
41
1
10
-1.99503997793928
20
-19.7567881415466
30
0
41
1
10
-1.99503997793928
20
-19.8549381550126
30
0
41
1
10
-1.99503997793928
20
-19.9509751416388
30
0
41
1
10
-1.99503997793928
20
-20.0448848362119
30
0
41
1
10
-1.99503997793928
20
-20.1366515718167
30
0
41
1
10
-1.99503997793928
20
-20.2262576202058
30
0
41
1
10
-1.99503997793928
20
-20.3136874196731
30
0
41
1
10
-1.99503997793928
20
-20.398923430088
30
0
41
1
10
-1.99503997793928
20
-20.4819464863244
30
0
41
1
10
-1.99503997793928
20
-20.5627395868944
30
0
41
1
10
-1.99503997793928
20
-20.6412830627252
30
0
41
1
10
-1.99503997793928
20
-20.7430172190697
30
0
41
1
10
-1.99503997793928
20
-20.8400664428987
30
0
41
1
10
-1.99503997793928
20
-20.9325549572362
30
0
41
1
10
-1.99503997793928
20
-20.9995415068112
30
0
41
1
10
-1.99503997793928
20
-21.064149408511
30
0
41
1
10
-1.99503997793928
20
-21.1263556466612
30
0
41
1
10
-1.99503997793928
20
-21.1861355753666
30
0
41
1
10
-1.99503997793928
20
-21.262600218376
30
0
41
1
10
-1.99503997793928
20
-21.3340243512753
30
0
41
1
10
-1.99503997793928
20
-21.4004603045828
30
0
41
1
10
-1.99503997793928
20
-21.4477036445725
30
0
41
1
10
-1.99503997793928
20
-21.4923513092323
30
0
41
1
10
-1.99503997793928
20
-21.5484022410126
30
0
41
1
10
-1.99503997793928
20
-21.5990695510926
30
0
41
1
10
-1.99503997793928
20
-21.6443396610233
30
0
41
1
10
-1.99503997793928
20
-21.6755105092645
30
0
41
1
10
-1.99503997793928
20
-21.7038764495607
30
0
41
1
10
-1.99503997793928
20
-21.7293964429163
30
0
41
1
10
-1.99503997793928
20
-21.7520292420694
30
0
41
1
10
-1.99503997793928
20
-21.7717309018817
30
0
41
1
10
-1.99503997793928
20
-21.7884557380592
30
0
41
1
10
-1.99503997793928
20
-21.8021565310045
30
0
41
1
10
-1.99503997793928
20
-21.8127830851058
30
0
41
1
10
-1.99503997793928
20
-21.8202838734724
30
0
41
1
10
-1.99503997793928
20
-21.8245113579277
30
0
41
1
10
-1.99503997793926
20
-21.8252773569521
30
0
41
1
10
-1.99503997793926
20
-21.8251670978576
30
0
0
SPLINE
5
18C
100
AcDbEntity
8
SK1
62
256
6
ByLayer
370
18
48
1
60
0
100
AcDbSpline
70
4
71
3
72
295
73
291
40
0
40
0
40
0
40
0
40
0.0029463017523785
40
0.0065222266349789
40
0.0100981515175793
40
0.0136740764001797
40
0.0172500012827801
40
0.0208259261653806
40
0.0279777759305814
40
0.0351296256957822
40
0.042281475460983
40
0.0458574003435835
40
0.0494333252261839
40
0.0530092501087843
40
0.0565851749913847
40
0.0637370247565855
40
0.0673129496391859
40
0.0708888745217863
40
0.0744647994043868
40
0.0780407242869872
40
0.0816166491695876
40
0.085192574052188
40
0.0923444238173888
40
0.0959203486999892
40
0.0994962735825896
40
0.10307219846519
40
0.106648123347791
40
0.110224048230391
40
0.113799973112991
40
0.117375897995592
40
0.120951822878192
40
0.124527747760793
40
0.128103672643393
40
0.131679597525993
40
0.135255522408594
40
0.138831447291194
40
0.142407372173795
40
0.149559221938995
40
0.153135146821596
40
0.156711071704196
40
0.158499034145496
40
0.160286996586797
40
0.163862921469397
40
0.171014771234598
40
0.174590696117198
40
0.178166620999799
40
0.181742545882399
40
0.185318470765
40
0.1924703205302
40
0.196046245412801
40
0.199622170295401
40
0.201410132736701
40
0.203198095178002
40
0.206774020060602
40
0.213925869825803
40
0.217501794708403
40
0.221077719591004
40
0.224653644473604
40
0.228229569356205
40
0.235381419121405
40
0.238957344004006
40
0.242533268886606
40
0.244321231327906
40
0.246109193769207
40
0.249685118651807
40
0.253261043534407
40
0.256836968417008
40
0.258624930858308
40
0.260412893299608
40
0.263988818182209
40
0.267564743064809
40
0.271140667947409
40
0.27471659283001
40
0.27829251771261
40
0.281868442595211
40
0.285444367477811
40
0.289020292360411
40
0.292596217243012
40
0.296172142125612
40
0.299748067008213
40
0.303323991890813
40
0.306899916773414
40
0.310475841656014
40
0.314051766538614
40
0.321203616303815
40
0.324779541186416
40
0.328355466069016
40
0.331931390951617
40
0.335507315834217
40
0.339083240716817
40
0.342659165599418
40
0.346235090482018
40
0.349811015364619
40
0.35696286512982
40
0.36411471489502
40
0.371266564660221
40
0.374842489542822
40
0.378418414425422
40
0.381994339308022
40
0.385570264190623
40
0.389146189073223
40
0.392722113955824
40
0.396298038838424
40
0.399873963721024
40
0.403449888603625
40
0.407025813486225
40
0.410601738368826
40
0.414177663251426
40
0.417753588134027
40
0.421329513016627
40
0.424905437899227
40
0.428481362781828
40
0.432057287664428
40
0.433845250105728
40
0.435633212547029
40
0.437421174988329
40
0.439209137429629
40
0.442785062312229
40
0.44636098719483
40
0.44814894963613
40
0.44993691207743
40
0.45172487451873
40
0.45351283696003
40
0.457088761842631
40
0.458876724283931
40
0.460664686725231
40
0.462452649166532
40
0.464240611607832
40
0.466028574049132
40
0.467816536490432
40
0.469604498931733
40
0.471392461373033
40
0.473180423814333
40
0.474968386255633
40
0.476756348696933
40
0.478544311138233
40
0.480332273579534
40
0.482120236020834
40
0.483908198462134
40
0.485696160903434
40
0.487484123344735
40
0.489272085786035
40
0.491060048227335
40
0.492848010668635
40
0.494635973109935
40
0.496423935551235
40
0.498211897992536
40
0.499999860433836
40
0.501787822875136
40
0.503575785316436
40
0.505363747757737
40
0.507151710199037
40
0.508939672640337
40
0.510727635081637
40
0.512515597522937
40
0.514303559964238
40
0.516091522405538
40
0.517879484846838
40
0.519667447288138
40
0.521455409729438
40
0.523243372170739
40
0.525031334612039
40
0.526819297053339
40
0.528607259494639
40
0.530395221935939
40
0.53218318437724
40
0.53397114681854
40
0.53575910925984
40
0.53754707170114
40
0.53933503414244
40
0.541122996583741
40
0.542910959025041
40
0.546486883907641
40
0.548274846348942
40
0.550062808790242
40
0.551850771231542
40
0.553638733672842
40
0.557214658555443
40
0.560790583438043
40
0.562578545879343
40
0.564366508320643
40
0.566154470761944
40
0.567942433203244
40
0.571518358085844
40
0.575094282968445
40
0.578670207851045
40
0.582246132733645
40
0.585822057616246
40
0.589397982498846
40
0.592973907381447
40
0.596549832264047
40
0.600125757146648
40
0.603701682029248
40
0.607277606911848
40
0.610853531794449
40
0.614429456677049
40
0.61800538155965
40
0.62158130644225
40
0.62515723132485
40
0.628733156207451
40
0.635885005972652
40
0.643036855737853
40
0.650188705503053
40
0.653764630385654
40
0.657340555268254
40
0.660916480150854
40
0.664492405033455
40
0.668068329916055
40
0.671644254798656
40
0.675220179681256
40
0.678796104563857
40
0.685947954329057
40
0.689523879211658
40
0.693099804094258
40
0.696675728976859
40
0.700251653859459
40
0.703827578742059
40
0.70740350362466
40
0.71097942850726
40
0.714555353389861
40
0.718131278272461
40
0.721707203155062
40
0.725283128037662
40
0.728859052920262
40
0.736010902685463
40
0.739586827568064
40
0.743162752450664
40
0.750314602215865
40
0.753890527098465
40
0.757466451981066
40
0.761042376863666
40
0.764618301746266
40
0.771770151511467
40
0.775346076394068
40
0.778922001276668
40
0.782497926159269
40
0.786073851041869
40
0.79322570080707
40
0.79680162568967
40
0.800377550572271
40
0.803953475454871
40
0.807529400337471
40
0.814681250102672
40
0.818257174985273
40
0.821833099867873
40
0.825409024750474
40
0.828984949633074
40
0.836136799398275
40
0.839712724280875
40
0.843288649163476
40
0.846864574046076
40
0.850440498928676
40
0.857592348693877
40
0.861168273576478
40
0.864744198459078
40
0.868320123341679
40
0.871896048224279
40
0.875471973106879
40
0.87904789798948
40
0.88262382287208
40
0.886199747754681
40
0.889775672637281
40
0.893351597519881
40
0.896927522402482
40
0.900503447285082
40
0.904079372167683
40
0.907655297050283
40
0.914807146815484
40
0.918383071698084
40
0.921958996580685
40
0.925534921463285
40
0.929110846345885
40
0.932686771228486
40
0.936262696111086
40
0.943414545876287
40
0.946990470758888
40
0.950566395641488
40
0.954142320524088
40
0.957718245406689
40
0.96487009517189
40
0.96844602005449
40
0.97202194493709
40
0.975597869819691
40
0.979173794702291
40
0.982749719584892
40
0.986325644467492
40
0.989901569350093
40
0.993477494232693
40
0.997053419115293
40
1
40
1
40
1
40
1
41
1
10
-2.19999999999999
20
22.0135196647114
30
0
41
1
10
-2.20000000000002
20
22.0117276001823
30
0
41
1
10
-2.19999999999996
20
22.0069596840673
30
0
41
1
10
-2.19999999999999
20
21.9968726461305
30
0
41
1
10
-2.19999999999999
20
21.9830583750197
30
0
41
1
10
-2.19999999999999
20
21.9661971621578
30
0
41
1
10
-2.19999999999999
20
21.9463373083127
30
0
41
1
10
-2.19999999999999
20
21.9159230944434
30
0
41
1
10
-2.19999999999999
20
21.870633664349
30
0
41
1
10
-2.19999999999999
20
21.8049949078793
30
0
41
1
10
-2.19999999999999
20
21.7411390111089
30
0
41
1
10
-2.19999999999999
20
21.6847072709128
30
0
41
1
10
-2.19999999999999
20
21.6397397481888
30
0
41
1
10
-2.19999999999999
20
21.5921615264852
30
0
41
1
10
-2.19999999999999
20
21.5252891523049
30
0
41
1
10
-2.19999999999999
20
21.453308753177
30
0
41
1
10
-2.19999999999999
20
21.3763547276269
30
0
41
1
10
-2.19999999999999
20
21.3161703964091
30
0
41
1
10
-2.19999999999999
20
21.2535469243879
30
0
41
1
10
-2.19999999999999
20
21.1885090229233
30
0
41
1
10
-2.19999999999999
20
21.121080083473
30
0
41
1
10
-2.19999999999999
20
21.0280237507364
30
0
41
1
10
-2.19999999999999
20
20.9302657445266
30
0
41
1
10
-2.19999999999999
20
20.8279188369072
30
0
41
1
10
-2.19999999999999
20
20.7488739070252
30
0
41
1
10
-2.19999999999999
20
20.6675681841826
30
0
41
1
10
-2.19999999999999
20
20.5840212184218
30
0
41
1
10
-2.19999999999999
20
20.4982502525025
30
0
41
1
10
-2.19999999999999
20
20.4102747128949
30
0
41
1
10
-2.19999999999999
20
20.3201119071544
30
0
41
1
10
-2.19999999999999
20
20.2277776663919
30
0
41
1
10
-2.19999999999999
20
20.1332899477274
30
0
41
1
10
-2.19999999999999
20
20.0366642357895
30
0
41
1
10
-2.19999999999999
20
19.9379151599299
30
0
41
1
10
-2.19999999999999
20
19.8370591957147
30
0
41
1
10
-2.19999999999999
20
19.7341102362335
30
0
41
1
10
-2.19999999999999
20
19.5940778412012
30
0
41
1
10
-2.19999999999999
20
19.4499005336558
30
0
41
1
10
-2.19999999999999
20
19.3016622310533
30
0
41
1
10
-2.19999999999999
20
19.2073184270571
30
0
41
1
10
-2.19999999999999
20
19.1308417758755
30
0
41
1
10
-2.19999999999999
20
19.0536957086557
30
0
41
1
10
-2.19999999999999
20
18.9169360704622
30
0
41
1
10
-2.19999999999999
20
18.756645794641
30
0
41
1
10
-2.19999999999999
20
18.5924362845557
30
0
41
1
10
-2.19999999999999
20
18.4673177976698
30
0
41
1
10
-2.19999999999999
20
18.3402521463352
30
0
41
1
10
-2.19999999999999
20
18.1682545122203
30
0
41
1
10
-2.19999999999999
20
17.9923842356821
30
0
41
1
10
-2.19999999999999
20
17.8127164551587
30
0
41
1
10
-2.19999999999999
20
17.6988333809735
30
0
41
1
10
-2.19999999999999
20
17.606787767091
30
0
41
1
10
-2.19999999999999
20
17.5141131161323
30
0
41
1
10
-2.19999999999999
20
17.3502824417036
30
0
41
1
10
-2.19999999999999
20
17.1592829447589
30
0
41
1
10
-2.19999999999999
20
16.9645867974536
30
0
41
1
10
-2.19999999999999
20
16.8167088060477
30
0
41
1
10
-2.19999999999999
20
16.6669871400996
30
0
41
1
10
-2.19999999999999
20
16.4649164953067
30
0
41
1
10
-2.19999999999999
20
16.2591646002876
30
0
41
1
10
-2.19999999999999
20
16.049802831716
30
0
41
1
10
-2.19999999999999
20
15.9174340084588
30
0
41
1
10
-2.19999999999999
20
15.8106442286412
30
0
41
1
10
-2.19999999999999
20
15.7032538676567
30
0
41
1
10
-2.19999999999999
20
15.567882396309
30
0
41
1
10
-2.19999999999999
20
15.4036502143979
30
0
41
1
10
-2.19999999999999
20
15.2652965264295
30
0
41
1
10
-2.19999999999999
20
15.1537302031574
30
0
41
1
10
-2.19999999999999
20
15.0415708470876
30
0
41
1
10
-2.19999999999999
20
14.90025131083
30
0
41
1
10
-2.19999999999999
20
14.7289012367181
30
0
41
1
10
-2.19999999999999
20
14.5557843226631
30
0
41
1
10
-2.19999999999999
20
14.3809062427341
30
0
41
1
10
-2.19999999999999
20
14.2042700822292
30
0
41
1
10
-2.19999999999999
20
14.0258803741545
30
0
41
1
10
-2.19999999999999
20
13.8457420253844
30
0
41
1
10
-2.19999999999999
20
13.6638579861817
30
0
41
1
10
-2.19999999999999
20
13.4802328481714
30
0
41
1
10
-2.19999999999999
20
13.2948705974071
30
0
41
1
10
-2.19999999999999
20
13.1077737485311
30
0
41
1
10
-2.19999999999999
20
12.9189467805057
30
0
41
1
10
-2.19999999999999
20
12.728392778749
30
0
41
1
10
-2.19999999999999
20
12.5361142588231
30
0
41
1
10
-2.19999999999999
20
12.2774598592137
30
0
41
1
10
-2.19999999999999
20
12.0153352592314
30
0
41
1
10
-2.19999999999999
20
11.7498207258852
30
0
41
1
10
-2.19999999999999
20
11.5489655826483
30
0
41
1
10
-2.19999999999999
20
11.3464032807099
30
0
41
1
10
-2.19999999999999
20
11.1421359853758
30
0
41
1
10
-2.19999999999999
20
10.9361655879759
30
0
41
1
10
-2.19999999999999
20
10.7284950970913
30
0
41
1
10
-2.19999999999999
20
10.5191258614377
30
0
41
1
10
-2.19999999999999
20
10.2377184130835
30
0
41
1
10
-2.19999999999999
20
9.88169304970987
30
0
41
1
10
-2.19999999999999
20
9.44771865839311
30
0
41
1
10
-2.19999999999999
20
9.08043848955603
30
0
41
1
10
-2.19999999999999
20
8.78327689677775
30
0
41
1
10
-2.19999999999999
20
8.55871419535617
30
0
41
1
10
-2.19999999999999
20
8.33247380011301
30
0
41
1
10
-2.19999999999999
20
8.10455852701506
30
0
41
1
10
-2.19999999999999
20
7.87497060194644
30
0
41
1
10
-2.19999999999999
20
7.6437128367312
30
0
41
1
10
-2.19999999999999
20
7.41078884464241
30
0
41
1
10
-2.19999999999999
20
7.17620220160032
30
0
41
1
10
-2.19999999999999
20
6.93995692090419
30
0
41
1
10
-2.19999999999999
20
6.70205758660663
30
0
41
1
10
-2.19999999999999
20
6.46250918569618
30
0
41
1
10
-2.19999999999999
20
6.2213178400012
30
0
41
1
10
-2.19999999999999
20
5.97849049576266
30
0
41
1
10
-2.19999999999999
20
5.73403521575827
30
0
41
1
10
-2.19999999999999
20
5.48796107357256
30
0
41
1
10
-2.19999999999999
20
5.24027911118978
30
0
41
1
10
-2.19999999999999
20
5.03253661023487
30
0
41
1
10
-2.19999999999999
20
4.86557359122418
30
0
41
1
10
-2.19999999999999
20
4.73994908127321
30
0
41
1
10
-2.19999999999999
20
4.61393371339017
30
0
41
1
10
-2.19999999999999
20
4.44540774959788
30
0
41
1
10
-2.19999999999999
20
4.23375652596863
30
0
41
1
10
-2.19999999999999
20
4.02083961713782
30
0
41
1
10
-2.19999999999999
20
3.84978439152417
30
0
41
1
10
-2.19999999999999
20
3.72111342731068
30
0
41
1
10
-2.19999999999999
20
3.59207749308624
30
0
41
1
10
-2.19999999999999
20
3.41956369464535
30
0
41
1
10
-2.19999999999999
20
3.24629481959221
30
0
41
1
10
-2.19999999999999
20
3.0723836150739
30
0
41
1
10
-2.19999999999999
20
2.94160046512801
30
0
41
1
10
-2.19999999999999
20
2.81048647644627
30
0
41
1
10
-2.19999999999999
20
2.67904892732182
30
0
41
1
10
-2.19999999999999
20
2.54729562722176
30
0
41
1
10
-2.19999999999999
20
2.41523551097489
30
0
41
1
10
-2.19999999999999
20
2.28287740252156
30
0
41
1
10
-2.19999999999999
20
2.15023166945255
30
0
41
1
10
-2.19999999999999
20
2.01730873413072
30
0
41
1
10
-2.19999999999999
20
1.88412021099791
30
0
41
1
10
-2.19999999999999
20
1.75067841854351
30
0
41
1
10
-2.19999999999999
20
1.61699634722072
30
0
41
1
10
-2.19999999999999
20
1.48308821885627
30
0
41
1
10
-2.19999999999999
20
1.34896859254377
30
0
41
1
10
-2.19999999999999
20
1.21465350310541
30
0
41
1
10
-2.19999999999999
20
1.0801592162689
30
0
41
1
10
-2.19999999999999
20
0.945503442662783
30
0
41
1
10
-2.19999999999999
20
0.810704113119073
30
0
41
1
10
-2.19999999999999
20
0.675780421912322
30
0
41
1
10
-2.19999999999999
20
0.540751787789588
30
0
41
1
10
-2.19999999999999
20
0.405638599098921
30
0
41
1
10
-2.19999999999999
20
0.270461428271432
30
0
41
1
10
-2.19999999999999
20
0.135241462279822
30
0
41
1
10
-2.19999999999999
20
-5.3654787E-09
30
0
41
1
10
-2.19999999999999
20
-0.135241472589996
30
0
41
1
10
-2.19999999999999
20
-0.270461437853925
30
0
41
1
10
-2.19999999999999
20
-0.405638608907879
30
0
41
1
10
-2.19999999999999
20
-0.540751798686529
30
0
41
1
10
-2.19999999999999
20
-0.675780432522174
30
0
41
1
10
-2.19999999999999
20
-0.810704122044939
30
0
41
1
10
-2.19999999999999
20
-0.945503451789534
30
0
41
1
10
-2.19999999999999
20
-1.08015922751395
30
0
41
1
10
-2.19999999999999
20
-1.21465351395383
30
0
41
1
10
-2.19999999999999
20
-1.34896860046499
30
0
41
1
10
-2.19999999999999
20
-1.48308822685564
30
0
41
1
10
-2.19999999999999
20
-1.61699635855226
30
0
41
1
10
-2.19999999999999
20
-1.75067843002711
30
0
41
1
10
-2.19999999999999
20
-1.88412021847037
30
0
41
1
10
-2.19999999999999
20
-2.01730874020455
30
0
41
1
10
-2.19999999999999
20
-2.15023167925048
30
0
41
1
10
-2.19999999999999
20
-2.28287741514001
30
0
41
1
10
-2.19999999999999
20
-2.41523552035437
30
0
41
1
10
-2.19999999999999
20
-2.54729563151926
30
0
41
1
10
-2.19999999999999
20
-2.67904893291683
30
0
41
1
10
-2.19999999999999
20
-2.81048648769612
30
0
41
1
10
-2.19999999999999
20
-2.94160047796311
30
0
41
1
10
-2.19999999999999
20
-3.072383622975
30
0
41
1
10
-2.19999999999999
20
-3.24629481975686
30
0
41
1
10
-2.19999999999999
20
-3.41956370437865
30
0
41
1
10
-2.19999999999999
20
-3.59207750684843
30
0
41
1
10
-2.19999999999999
20
-3.72111343644576
30
0
41
1
10
-2.19999999999999
20
-3.84978439330678
30
0
41
1
10
-2.19999999999999
20
-4.020839617489
30
0
41
1
10
-2.19999999999999
20
-4.23375654375474
30
0
41
1
10
-2.19999999999999
20
-4.44540775759583
30
0
41
1
10
-2.19999999999999
20
-4.61393371339872
30
0
41
1
10
-2.19999999999999
20
-4.73994907984499
30
0
41
1
10
-2.19999999999999
20
-4.86557359653659
30
0
41
1
10
-2.19999999999999
20
-5.03253662624778
30
0
41
1
10
-2.19999999999999
20
-5.24027911954084
30
0
41
1
10
-2.19999999999999
20
-5.48796106514416
30
0
41
1
10
-2.19999999999999
20
-5.73403522651989
30
0
41
1
10
-2.19999999999999
20
-5.97849051253721
30
0
41
1
10
-2.19999999999999
20
-6.22131783489101
30
0
41
1
10
-2.19999999999999
20
-6.46250917346813
30
0
41
1
10
-2.19999999999999
20
-6.70205756880287
30
0
41
1
10
-2.19999999999999
20
-6.93995689241021
30
0
41
1
10
-2.19999999999999
20
-7.17620223308296
30
0
41
1
10
-2.19999999999999
20
-7.41078904293681
30
0
41
1
10
-2.19999999999999
20
-7.64371312168015
30
0
41
1
10
-2.19999999999999
20
-7.87497052861914
30
0
41
1
10
-2.19999999999999
20
-8.10455846042146
30
0
41
1
10
-2.19999999999999
20
-8.33247384441506
30
0
41
1
10
-2.19999999999999
20
-8.55871423477029
30
0
41
1
10
-2.19999999999999
20
-8.78327691067398
30
0
41
1
10
-2.19999999999999
20
-9.08043846702645
30
0
41
1
10
-2.19999999999999
20
-9.44771866001565
30
0
41
1
10
-2.19999999999999
20
-9.88169305528194
30
0
41
1
10
-2.19999999999999
20
-10.2377183913447
30
0
41
1
10
-2.19999999999999
20
-10.5191258633122
30
0
41
1
10
-2.19999999999999
20
-10.7284951094206
30
0
41
1
10
-2.19999999999999
20
-10.9361655882296
30
0
41
1
10
-2.19999999999999
20
-11.1421359694817
30
0
41
1
10
-2.19999999999999
20
-11.3464032666245
30
0
41
1
10
-2.19999999999999
20
-11.5489655840494
30
0
41
1
10
-2.19999999999999
20
-11.7498207382014
30
0
41
1
10
-2.19999999999999
20
-12.015335258712
30
0
41
1
10
-2.19999999999999
20
-12.277459839655
30
0
41
1
10
-2.19999999999999
20
-12.5361142561418
30
0
41
1
10
-2.19999999999999
20
-12.7283927892775
30
0
41
1
10
-2.19999999999999
20
-12.9189467887917
30
0
41
1
10
-2.19999999999999
20
-13.1077737445537
30
0
41
1
10
-2.19999999999999
20
-13.2948705838035
30
0
41
1
10
-2.19999999999999
20
-13.4802328404438
30
0
41
1
10
-2.19999999999999
20
-13.6638579908946
30
0
41
1
10
-2.19999999999999
20
-13.845742035678
30
0
41
1
10
-2.19999999999999
20
-14.0258803815961
30
0
41
1
10
-2.19999999999999
20
-14.2042701267483
30
0
41
1
10
-2.19999999999999
20
-14.3809064511142
30
0
41
1
10
-2.19999999999999
20
-14.61406817927
30
0
41
1
10
-2.19999999999999
20
-14.8437340716545
30
0
41
1
10
-2.19999999999999
20
-15.069828938707
30
0
41
1
10
-2.19999999999999
20
-15.2935559429894
30
0
41
1
10
-2.19999999999999
20
-15.513744330902
30
0
41
1
10
-2.19999999999999
20
-15.7303232767805
30
0
41
1
10
-2.19999999999999
20
-15.8909649274654
30
0
41
1
10
-2.19999999999999
20
-16.0498023362736
30
0
41
1
10
-2.19999999999999
20
-16.2591647559547
30
0
41
1
10
-2.19999999999999
20
-16.4649171124643
30
0
41
1
10
-2.19999999999999
20
-16.666987304737
30
0
41
1
10
-2.19999999999999
20
-16.8167085043733
30
0
41
1
10
-2.19999999999999
20
-16.9645862898264
30
0
41
1
10
-2.19999999999999
20
-17.1592828976246
30
0
41
1
10
-2.19999999999999
20
-17.3502835148979
30
0
41
1
10
-2.19999999999999
20
-17.5375147595292
30
0
41
1
10
-2.19999999999999
20
-17.676060438985
30
0
41
1
10
-2.19999999999999
20
-17.8127154575359
30
0
41
1
10
-2.19999999999999
20
-17.9923842415008
30
0
41
1
10
-2.19999999999999
20
-18.1682547291306
30
0
41
1
10
-2.19999999999999
20
-18.3402522143585
30
0
41
1
10
-2.19999999999999
20
-18.4673177032107
30
0
41
1
10
-2.19999999999999
20
-18.5924361073221
30
0
41
1
10
-2.19999999999999
20
-18.7566457425986
30
0
41
1
10
-2.19999999999999
20
-18.9169371900015
30
0
41
1
10
-2.19999999999999
20
-19.0732305996174
30
0
41
1
10
-2.19999999999999
20
-19.1884526890887
30
0
41
1
10
-2.19999999999999
20
-19.3016611759423
30
0
41
1
10
-2.19999999999999
20
-19.4499005391959
30
0
41
1
10
-2.19999999999999
20
-19.5940785255289
30
0
41
1
10
-2.19999999999999
20
-19.7341104289282
30
0
41
1
10
-2.19999999999999
20
-19.8370589164793
30
0
41
1
10
-2.19999999999999
20
-19.9379146863563
30
0
41
1
10
-2.19999999999999
20
-20.0366640227898
30
0
41
1
10
-2.19999999999999
20
-20.133289903145
30
0
41
1
10
-2.19999999999999
20
-20.2277776697998
30
0
41
1
10
-2.19999999999999
20
-20.3201119082527
30
0
41
1
10
-2.19999999999999
20
-20.4102747220553
30
0
41
1
10
-2.19999999999999
20
-20.4982502752196
30
0
41
1
10
-2.19999999999999
20
-20.5840212474559
30
0
41
1
10
-2.19999999999999
20
-20.6675682022903
30
0
41
1
10
-2.19999999999999
20
-20.7488739108727
30
0
41
1
10
-2.19999999999999
20
-20.82791883753
30
0
41
1
10
-2.19999999999999
20
-20.9302657657864
30
0
41
1
10
-2.19999999999999
20
-21.0280237880878
30
0
41
1
10
-2.19999999999999
20
-21.1210800961781
30
0
41
1
10
-2.19999999999999
20
-21.1885090211437
30
0
41
1
10
-2.19999999999999
20
-21.2535469320083
30
0
41
1
10
-2.19999999999999
20
-21.3161704250344
30
0
41
1
10
-2.19999999999999
20
-21.3763547664481
30
0
41
1
10
-2.19999999999999
20
-21.4533087676779
30
0
41
1
10
-2.19999999999999
20
-21.5252891448141
30
0
41
1
10
-2.19999999999999
20
-21.5921615531195
30
0
41
1
10
-2.19999999999999
20
-21.6397397916631
30
0
41
1
10
-2.19999999999999
20
-21.6847072964973
30
0
41
1
10
-2.19999999999999
20
-21.7411389990572
30
0
41
1
10
-2.19999999999999
20
-21.7922265879071
30
0
41
1
10
-2.19999999999999
20
-21.8378144981283
30
0
41
1
10
-2.19999999999999
20
-21.8692221254414
30
0
41
1
10
-2.19999999999999
20
-21.8978063777089
30
0
41
1
10
-2.19999999999999
20
-21.9235254752891
30
0
41
1
10
-2.19999999999999
20
-21.9463373508774
30
0
41
1
10
-2.19999999999999
20
-21.9661972037607
30
0
41
1
10
-2.19999999999999
20
-21.9830583809744
30
0
41
1
10
-2.19999999999999
20
-21.9968726399857
30
0
41
1
10
-2.19999999999999
20
-22.0069599986924
30
0
41
1
10
-2.20000000000002
20
-22.0117281276678
30
0
41
1
10
-2.20000000000002
20
-22.0135203352297
30
0
0
SPLINE
5
18D
100
AcDbEntity
8
SK1
62
256
6
ByLayer
370
18
48
1
60
0
100
AcDbSpline
70
4
71
3
72
303
73
299
40
0
40
0
40
0
40
0
40
0.0005133432158484
40
0.0040062596007488
40
0.0074991759856493
40
0.0109920923705498
40
0.0144850087554503
40
0.0179779251403508
40
0.0214708415252512
40
0.0249637579101517
40
0.0284566742950522
40
0.0319495906799526
40
0.0389354234497536
40
0.0459212562195546
40
0.0529070889893555
40
0.056400005374256
40
0.0598929217591565
40
0.063385838144057
40
0.0668787545289574
40
0.0738645872987584
40
0.0773575036836589
40
0.0808504200685594
40
0.0843433364534599
40
0.0878362528383603
40
0.0913291692232608
40
0.0948220856081612
40
0.101807918377962
40
0.105300834762863
40
0.108793751147763
40
0.112286667532664
40
0.115779583917564
40
0.119272500302465
40
0.122765416687365
40
0.126258333072266
40
0.129751249457166
40
0.133244165842066
40
0.136737082226967
40
0.140229998611867
40
0.143722914996768
40
0.147215831381668
40
0.150708747766569
40
0.15769458053637
40
0.16118749692127
40
0.164680413306171
40
0.166426871498621
40
0.168173329691071
40
0.171666246075972
40
0.178652078845773
40
0.182144995230673
40
0.185637911615574
40
0.189130828000474
40
0.192623744385375
40
0.199609577155176
40
0.203102493540076
40
0.206595409924976
40
0.208341868117427
40
0.210088326309877
40
0.213581242694777
40
0.220567075464578
40
0.224059991849479
40
0.227552908234379
40
0.23104582461928
40
0.23453874100418
40
0.241524573773981
40
0.245017490158882
40
0.248510406543782
40
0.250256864736232
40
0.252003322928683
40
0.255496239313583
40
0.258989155698484
40
0.262482072083384
40
0.264228530275834
40
0.265974988468285
40
0.269467904853185
40
0.272960821238086
40
0.276453737622986
40
0.279946654007887
40
0.283439570392787
40
0.286932486777688
40
0.290425403162588
40
0.293918319547488
40
0.297411235932389
40
0.30090415231729
40
0.30439706870219
40
0.30788998508709
40
0.311382901471991
40
0.314875817856891
40
0.318368734241792
40
0.325354567011593
40
0.328847483396493
40
0.332340399781394
40
0.335833316166294
40
0.339326232551195
40
0.342819148936095
40
0.346312065320996
40
0.349804981705896
40
0.353297898090797
40
0.360283730860598
40
0.367269563630399
40
0.374255396400199
40
0.3777483127851
40
0.381241229170001
40
0.384734145554901
40
0.388227061939801
40
0.391719978324702
40
0.395212894709602
40
0.398705811094503
40
0.402198727479403
40
0.405691643864304
40
0.409184560249204
40
0.412677476634105
40
0.416170393019005
40
0.419663309403906
40
0.423156225788806
40
0.426649142173707
40
0.430142058558607
40
0.433634974943508
40
0.435381433135958
40
0.437127891328408
40
0.438874349520858
40
0.440620807713309
40
0.444113724098209
40
0.44760664048311
40
0.44935309867556
40
0.45109955686801
40
0.45284601506046
40
0.454592473252911
40
0.458085389637811
40
0.459831847830261
40
0.461578306022711
40
0.463324764215162
40
0.465071222407612
40
0.466817680600062
40
0.468564138792512
40
0.470310596984963
40
0.472057055177413
40
0.473803513369863
40
0.475549971562313
40
0.477296429754764
40
0.479042887947214
40
0.480789346139664
40
0.482535804332114
40
0.484282262524565
40
0.486028720717015
40
0.487775178909465
40
0.489521637101915
40
0.491268095294365
40
0.493014553486816
40
0.494761011679266
40
0.496507469871716
40
0.498253928064167
40
0.500000386256617
40
0.501746844449067
40
0.503493302641517
40
0.505239760833967
40
0.506986219026418
40
0.508732677218868
40
0.510479135411318
40
0.512225593603768
40
0.513972051796219
40
0.515718509988669
40
0.517464968181119
40
0.519211426373569
40
0.52095788456602
40
0.52270434275847
40
0.52445080095092
40
0.52619725914337
40
0.52794371733582
40
0.529690175528271
40
0.531436633720721
40
0.533183091913171
40
0.534929550105622
40
0.536676008298072
40
0.538422466490522
40
0.540168924682972
40
0.541915382875422
40
0.545408299260323
40
0.547154757452773
40
0.548901215645223
40
0.550647673837674
40
0.552394132030124
40
0.555887048415024
40
0.559379964799925
40
0.561126422992375
40
0.562872881184825
40
0.564619339377276
40
0.566365797569726
40
0.569858713954627
40
0.573351630339527
40
0.576844546724427
40
0.580337463109328
40
0.583830379494228
40
0.587323295879129
40
0.590816212264029
40
0.59430912864893
40
0.59780204503383
40
0.601294961418731
40
0.604787877803631
40
0.608280794188532
40
0.611773710573432
40
0.615266626958333
40
0.618759543343233
40
0.622252459728134
40
0.625745376113034
40
0.632731208882835
40
0.639717041652636
40
0.646702874422437
40
0.650195790807337
40
0.653688707192238
40
0.657181623577138
40
0.660674539962039
40
0.664167456346939
40
0.66766037273184
40
0.67115328911674
40
0.674646205501641
40
0.681632038271442
40
0.685124954656342
40
0.688617871041243
40
0.692110787426143
40
0.695603703811044
40
0.699096620195944
40
0.702589536580845
40
0.706082452965745
40
0.709575369350646
40
0.713068285735546
40
0.716561202120446
40
0.720054118505347
40
0.723547034890248
40
0.730532867660049
40
0.734025784044949
40
0.737518700429849
40
0.74450453319965
40
0.747997449584551
40
0.751490365969451
40
0.754983282354352
40
0.758476198739252
40
0.765462031509053
40
0.768954947893954
40
0.772447864278854
40
0.775940780663755
40
0.779433697048655
40
0.786419529818456
40
0.789912446203357
40
0.793405362588257
40
0.796898278973157
40
0.800391195358058
40
0.807377028127859
40
0.810869944512759
40
0.81436286089766
40
0.81785577728256
40
0.821348693667461
40
0.828334526437262
40
0.831827442822162
40
0.835320359207063
40
0.838813275591963
40
0.842306191976864
40
0.849292024746665
40
0.852784941131565
40
0.856277857516466
40
0.859770773901366
40
0.863263690286267
40
0.866756606671167
40
0.870249523056068
40
0.873742439440968
40
0.877235355825868
40
0.880728272210769
40
0.884221188595669
40
0.88771410498057
40
0.89120702136547
40
0.894699937750371
40
0.898192854135271
40
0.905178686905072
40
0.908671603289973
40
0.912164519674873
40
0.915657436059774
40
0.919150352444674
40
0.922643268829575
40
0.926136185214475
40
0.933122017984276
40
0.936614934369177
40
0.940107850754077
40
0.943600767138978
40
0.947093683523878
40
0.954079516293679
40
0.95757243267858
40
0.96106534906348
40
0.964558265448381
40
0.968051181833281
40
0.971544098218181
40
0.975037014603082
40
0.978529930987983
40
0.982022847372883
40
0.985515763757783
40
0.989008680142684
40
0.992501596527584
40
0.995994512912485
40
0.999487429297385
40
1
40
1
40
1
40
1
41
1
10
-36.5
20
21.1555776071916
30
0
41
1
10
-36.5
20
21.1557858209474
30
0
41
1
10
-36.5
20
21.1573191510879
30
0
41
1
10
-36.5
20
21.1588544331657
30
0
41
1
10
-36.5
20
21.1578038223016
30
0
41
1
10
-36.5
20
21.1536126358382
30
0
41
1
10
-36.5
20
21.1463317213718
30
0
41
1
10
-36.5
20
21.1360112678938
30
0
41
1
10
-36.5
20
21.1226986497682
30
0
41
1
10
-36.5
20
21.1064402158535
30
0
41
1
10
-36.5
20
21.0872797426226
30
0
41
1
10
-36.5
20
21.0578537406018
30
0
41
1
10
-36.5
20
21.0141777773224
30
0
41
1
10
-36.5
20
20.950713074722
30
0
41
1
10
-36.5
20
20.8890285612071
30
0
41
1
10
-36.5
20
20.8342802658871
30
0
41
1
10
-36.5
20
20.7907267804185
30
0
41
1
10
-36.5
20
20.7446291690672
30
0
41
1
10
-36.5
20
20.6796864194097
30
0
41
1
10
-36.5
20
20.6101652524536
30
0
41
1
10
-36.5
20
20.5353747251341
30
0
41
1
10
-36.5
20
20.4769783324059
30
0
41
1
10
-36.5
20
20.4161995895792
30
0
41
1
10
-36.5
20
20.3530628196555
30
0
41
1
10
-36.5
20
20.2875896826626
30
0
41
1
10
-36.5
20
20.1970436182683
30
0
41
1
10
-36.5
20
20.1024192722933
30
0
41
1
10
-36.5
20
20.0027815031752
30
0
41
1
10
-36.5
20
19.9259535572617
30
0
41
1
10
-36.5
20
19.8469141355251
30
0
41
1
10
-36.5
20
19.7656833730651
30
0
41
1
10
-36.5
20
19.6822775189499
30
0
41
1
10
-36.5
20
19.5967148149262
30
0
41
1
10
-36.5
20
19.5090135394173
30
0
41
1
10
-36.5
20
19.4191882696517
30
0
41
1
10
-36.5
20
19.3272561697677
30
0
41
1
10
-36.5
20
19.2332338822713
30
0
41
1
10
-36.5
20
19.1371346902892
30
0
41
1
10
-36.5
20
19.0389746878943
30
0
41
1
10
-36.5
20
18.9387689752275
30
0
41
1
10
-36.5
20
18.8022215100789
30
0
41
1
10
-36.5
20
18.6623317385554
30
0
41
1
10
-36.5
20
18.5177544284038
30
0
41
1
10
-36.5
20
18.4260133905722
30
0
41
1
10
-36.5
20
18.3514175898237
30
0
41
1
10
-36.5
20
18.2761667145512
30
0
41
1
10
-36.5
20
18.1428549391526
30
0
41
1
10
-36.5
20
17.987269645424
30
0
41
1
10
-36.5
20
17.8270700659299
30
0
41
1
10
-36.5
20
17.705205542109
30
0
41
1
10
-36.5
20
17.5814423770725
30
0
41
1
10
-36.5
20
17.4136311437529
30
0
41
1
10
-36.5
20
17.2428939764417
30
0
41
1
10
-36.5
20
17.0675963011876
30
0
41
1
10
-36.5
20
16.9568152899196
30
0
41
1
10
-36.5
20
16.867008999151
30
0
41
1
10
-36.5
20
16.7765898513273
30
0
41
1
10
-36.5
20
16.6168596157572
30
0
41
1
10
-36.5
20
16.4314438788638
30
0
41
1
10
-36.5
20
16.2414991337765
30
0
41
1
10
-36.5
20
16.097474719741
30
0
41
1
10
-36.5
20
15.9516616651348
30
0
41
1
10
-36.5
20
15.7545445351489
30
0
41
1
10
-36.5
20
15.5548613446891
30
0
41
1
10
-36.5
20
15.350663385132
30
0
41
1
10
-36.5
20
15.2219600388738
30
0
41
1
10
-36.5
20
15.1178164480938
30
0
41
1
10
-36.5
20
15.0130920883853
30
0
41
1
10
-36.5
20
14.8814910451208
30
0
41
1
10
-36.5
20
14.7216281332594
30
0
41
1
10
-36.5
20
14.5871530954062
30
0
41
1
10
-36.5
20
14.4783873813363
30
0
41
1
10
-36.5
20
14.3690494022437
30
0
41
1
10
-36.5
20
14.2317235183089
30
0
41
1
10
-36.5
20
14.0650028858775
30
0
41
1
10
-36.5
20
13.8965816080865
30
0
41
1
10
-36.5
20
13.7264689694465
30
0
41
1
10
-36.5
20
13.5546710496343
30
0
41
1
10
-36.5
20
13.3811910773122
30
0
41
1
10
-36.5
20
13.2060373742644
30
0
41
1
10
-36.5
20
13.0292149133303
30
0
41
1
10
-36.5
20
12.850728177302
30
0
41
1
10
-36.5
20
12.6705857874604
30
0
41
1
10
-36.5
20
12.4887914218501
30
0
41
1
10
-36.5
20
12.3053503484466
30
0
41
1
10
-36.5
20
12.1202706879328
30
0
41
1
10
-36.5
20
11.9335555855444
30
0
41
1
10
-36.5
20
11.6819759204348
30
0
41
1
10
-36.5
20
11.4285505376587
30
0
41
1
10
-36.5
20
11.1704660874499
30
0
41
1
10
-36.5
20
10.9756651586938
30
0
41
1
10
-36.5
20
10.7792636737398
30
0
41
1
10
-36.5
20
10.5812696725585
30
0
41
1
10
-36.5
20
10.3816871154457
30
0
41
1
10
-36.5
20
10.180523710493
30
0
41
1
10
-36.5
20
9.9777855843503
30
0
41
1
10
-36.5
20
9.70483576808863
30
0
41
1
10
-36.5
20
9.36101276272154
30
0
41
1
10
-36.5
20
8.94153438933262
30
0
41
1
10
-36.5
20
8.58745787193689
30
0
41
1
10
-36.5
20
8.30004464023602
30
0
41
1
10
-36.5
20
8.08346950394392
30
0
41
1
10
-36.5
20
7.86540102208474
30
0
41
1
10
-36.5
20
7.64585131899614
30
0
41
1
10
-36.5
20
7.42483318088833
30
0
41
1
10
-36.5
20
7.20235735193418
30
0
41
1
10
-36.5
20
6.97843755879967
30
0
41
1
10
-36.5
20
6.75308981071325
30
0
41
1
10
-36.5
20
6.52633035082275
30
0
41
1
10
-36.5
20
6.29817753233076
30
0
41
1
10
-36.5
20
6.06865022444896
30
0
41
1
10
-36.5
20
5.83776884649418
30
0
41
1
10
-36.5
20
5.60555660448861
30
0
41
1
10
-36.5
20
5.37203985998678
30
0
41
1
10
-36.5
20
5.13724579696884
30
0
41
1
10
-36.5
20
4.90120595303733
30
0
41
1
10
-36.5
20
4.70396583147405
30
0
41
1
10
-36.5
20
4.54469638576828
30
0
41
1
10
-36.5
20
4.42533999597057
30
0
41
1
10
-36.5
20
4.30569972295402
30
0
41
1
10
-36.5
20
4.14529336499854
30
0
41
1
10
-36.5
20
3.94531865595207
30
0
41
1
10
-36.5
20
3.74444957084984
30
0
41
1
10
-36.5
20
3.58224076117995
30
0
41
1
10
-36.5
20
3.46078958963511
30
0
41
1
10
-36.5
20
3.33910702605107
30
0
41
1
10
-36.5
20
3.17597085922344
30
0
41
1
10
-36.5
20
3.01425651604552
30
0
41
1
10
-36.5
20
2.85023149996007
30
0
41
1
10
-36.5
20
2.72752154931175
30
0
41
1
10
-36.5
20
2.60463052157442
30
0
41
1
10
-36.5
20
2.48157378937663
30
0
41
1
10
-36.5
20
2.35835621123036
30
0
41
1
10
-36.5
20
2.23499061660055
30
0
41
1
10
-36.5
20
2.11148761081347
30
0
41
1
10
-36.5
20
1.9878545152765
30
0
41
1
10
-36.5
20
1.86410632124097
30
0
41
1
10
-36.5
20
1.74024827700825
30
0
41
1
10
-36.5
20
1.61629526151512
30
0
41
1
10
-36.5
20
1.49225310041959
30
0
41
1
10
-36.5
20
1.3681347814894
30
0
41
1
10
-36.5
20
1.2439473222278
30
0
41
1
10
-36.5
20
1.11970117534864
30
0
41
1
10
-36.5
20
0.995403485642782
30
0
41
1
10
-36.5
20
0.8710629170684
30
0
41
1
10
-36.5
20
0.746686102657719
30
0
41
1
10
-36.5
20
0.622280124115576
30
0
41
1
10
-36.5
20
0.497850420758397
30
0
41
1
10
-36.5
20
0.373402935182185
30
0
41
1
10
-36.5
20
0.248942238793177
30
0
41
1
10
-36.5
20
0.124473257200918
30
0
41
1
10
-36.5
20
9.2462358E-09
30
0
41
1
10
-36.5
20
-0.124473254673973
30
0
41
1
10
-36.5
20
-0.248942266430618
30
0
41
1
10
-36.5
20
-0.373402960091397
30
0
41
1
10
-36.5
20
-0.497850400790554
30
0
41
1
10
-36.5
20
-0.622280094010847
30
0
41
1
10
-36.5
20
-0.746686131491799
30
0
41
1
10
-36.5
20
-0.871062970095124
30
0
41
1
10
-36.5
20
-0.995403468230791
30
0
41
1
10
-36.5
20
-1.11970111692671
30
0
41
1
10
-36.5
20
-1.2439473407681
30
0
41
1
10
-36.5
20
-1.36813486147517
30
0
41
1
10
-36.5
20
-1.49225310642996
30
0
41
1
10
-36.5
20
-1.61629518356963
30
0
41
1
10
-36.5
20
-1.74024825464127
30
0
41
1
10
-36.5
20
-1.86410640329151
30
0
41
1
10
-36.5
20
-1.98785458048855
30
0
41
1
10
-36.5
20
-2.11148756075909
30
0
41
1
10
-36.5
20
-2.2349905278607
30
0
41
1
10
-36.5
20
-2.3583562279822
30
0
41
1
10
-36.5
20
-2.48157389743918
30
0
41
1
10
-36.5
20
-2.60463057106841
30
0
41
1
10
-36.5
20
-2.72752148004804
30
0
41
1
10
-36.5
20
-2.8502314065623
30
0
41
1
10
-36.5
20
-3.01425656877106
30
0
41
1
10
-36.5
20
-3.17597095993784
30
0
41
1
10
-36.5
20
-3.33910698167958
30
0
41
1
10
-36.5
20
-3.46078948211164
30
0
41
1
10
-36.5
20
-3.58224072191865
30
0
41
1
10
-36.5
20
-3.74444967050349
30
0
41
1
10
-36.5
20
-3.94531869048151
30
0
41
1
10
-36.5
20
-4.14529326648051
30
0
41
1
10
-36.5
20
-4.30569969171859
30
0
41
1
10
-36.5
20
-4.42534006396792
30
0
41
1
10
-36.5
20
-4.54469650094606
30
0
41
1
10
-36.5
20
-4.70396584910503
30
0
41
1
10
-36.5
20
-4.90120586463618
30
0
41
1
10
-36.5
20
-5.1372458114655
30
0
41
1
10
-36.5
20
-5.37203995090806
30
0
41
1
10
-36.5
20
-5.6055565552935
30
0
41
1
10
-36.5
20
-5.83776875015036
30
0
41
1
10
-36.5
20
-6.06865017711209
30
0
41
1
10
-36.5
20
-6.29817748211653
30
0
41
1
10
-36.5
20
-6.52633051401983
30
0
41
1
10
-36.5
20
-6.75309051279777
30
0
41
1
10
-36.5
20
-6.97843834484934
30
0
41
1
10
-36.5
20
-7.20235684280951
30
0
41
1
10
-36.5
20
-7.42483229470756
30
0
41
1
10
-36.5
20
-7.64585158611581
30
0
41
1
10
-36.5
20
-7.86540128403743
30
0
41
1
10
-36.5
20
-8.08346945831602
30
0
41
1
10
-36.5
20
-8.3000445299389
30
0
41
1
10
-36.5
20
-8.58745782596952
30
0
41
1
10
-36.5
20
-8.94153442741853
30
0
41
1
10
-36.5
20
-9.36101273737586
30
0
41
1
10
-36.5
20
-9.70483575174822
30
0
41
1
10
-36.5
20
-9.97778564072317
30
0
41
1
10
-36.5
20
-10.18052371466
30
0
41
1
10
-36.5
20
-10.3816870614505
30
0
41
1
10
-36.5
20
-10.5812696339219
30
0
41
1
10
-36.5
20
-10.7792636942327
30
0
41
1
10
-36.5
20
-10.9756652058486
30
0
41
1
10
-36.5
20
-11.1704660987636
30
0
41
1
10
-36.5
20
-11.4285504962004
30
0
41
1
10
-36.5
20
-11.6819759007756
30
0
41
1
10
-36.5
20
-11.9335556252714
30
0
41
1
10
-36.5
20
-12.1202707134412
30
0
41
1
10
-36.5
20
-12.3053503320752
30
0
41
1
10
-36.5
20
-12.4887913848281
30
0
41
1
10
-36.5
20
-12.6705857704289
30
0
41
1
10
-36.5
20
-12.8507281979538
30
0
41
1
10
-36.5
20
-13.0292149436136
30
0
41
1
10
-36.5
20
-13.2060373895955
30
0
41
1
10
-36.5
20
-13.3811911431361
30
0
41
1
10
-36.5
20
-13.5546713888901
30
0
41
1
10
-36.5
20
-13.7264696827894
30
0
41
1
10
-36.5
20
-13.9536769173599
30
0
41
1
10
-36.5
20
-14.176348576809
30
0
41
1
10
-36.5
20
-14.3967384349213
30
0
41
1
10
-36.5
20
-14.6148460432235
30
0
41
1
10
-36.5
20
-14.8284315021107
30
0
41
1
10
-36.5
20
-15.0396227184095
30
0
41
1
10
-36.5
20
-15.1960147192182
30
0
41
1
10
-36.5
20
-15.3506631330603
30
0
41
1
10
-36.5
20
-15.5548624364723
30
0
41
1
10
-36.5
20
-15.7545451164335
30
0
41
1
10
-36.5
20
-15.9516609547094
30
0
41
1
10
-36.5
20
-16.0974737380165
30
0
41
1
10
-36.5
20
-16.241498813278
30
0
41
1
10
-36.5
20
-16.4314450331352
30
0
41
1
10
-36.5
20
-16.6168608854212
30
0
41
1
10
-36.5
20
-16.7995343923805
30
0
41
1
10
-36.5
20
-16.9344844206004
30
0
41
1
10
-36.5
20
-17.0675955495037
30
0
41
1
10
-36.5
20
-17.2428947983014
30
0
41
1
10
-36.5
20
-17.4136313821348
30
0
41
1
10
-36.5
20
-17.5814422063202
30
0
41
1
10
-36.5
20
-17.7052052466277
30
0
41
1
10
-36.5
20
-17.827069915531
30
0
41
1
10
-36.5
20
-17.9872703841193
30
0
41
1
10
-36.5
20
-18.1428562465544
30
0
41
1
10
-36.5
20
-18.2953166794047
30
0
41
1
10
-36.5
20
-18.4075180436267
30
0
41
1
10
-36.5
20
-18.5177535555592
30
0
41
1
10
-36.5
20
-18.6623326618876
30
0
41
1
10
-36.5
20
-18.8022222651529
30
0
41
1
10
-36.5
20
-18.9387686023437
30
0
41
1
10
-36.5
20
-19.0389739868785
30
0
41
1
10
-36.5
20
-19.1371342717784
30
0
41
1
10
-36.5
20
-19.2332339353276
30
0
41
1
10
-36.5
20
-19.3272562516113
30
0
41
1
10
-36.5
20
-19.4191882978898
30
0
41
1
10
-36.5
20
-19.5090135437133
30
0
41
1
10
-36.5
20
-19.5967148362678
30
0
41
1
10
-36.5
20
-19.6822775521962
30
0
41
1
10
-36.5
20
-19.7656833992675
30
0
41
1
10
-36.5
20
-19.8469141406672
30
0
41
1
10
-36.5
20
-19.9259535527381
30
0
41
1
10
-36.5
20
-20.0027815100322
30
0
41
1
10
-36.5
20
-20.1024193061391
30
0
41
1
10
-36.5
20
-20.1970436522849
30
0
41
1
10
-36.5
20
-20.287589681624
30
0
41
1
10
-36.5
20
-20.353062816238
30
0
41
1
10
-36.5
20
-20.4161996091986
30
0
41
1
10
-36.5
20
-20.4769783724375
30
0
41
1
10
-36.5
20
-20.5353747607017
30
0
41
1
10
-36.5
20
-20.6101652553123
30
0
41
1
10
-36.5
20
-20.6796864153796
30
0
41
1
10
-36.5
20
-20.7446292080422
30
0
41
1
10
-36.5
20
-20.7907268231738
30
0
41
1
10
-36.5
20
-20.8342802793506
30
0
41
1
10
-36.5
20
-20.8890285523336
30
0
41
1
10
-36.5
20
-20.9382580424269
30
0
41
1
10
-36.5
20
-20.9824409225429
30
0
41
1
10
-36.5
20
-21.0128017234864
30
0
41
1
10
-36.5
20
-21.0404207944711
30
0
41
1
10
-36.5
20
-21.0652596303332
30
0
41
1
10
-36.5
20
-21.0872797892674
30
0
41
1
10
-36.5
20
-21.1064402531507
30
0
41
1
10
-36.5
20
-21.1226986516191
30
0
41
1
10
-36.5
20
-21.1360112646484
30
0
41
1
10
-36.5
20
-21.1463317710584
30
0
41
1
10
-36.5
20
-21.1536128319466
30
0
41
1
10
-36.5
20
-21.1578041644649
30
0
41
1
10
-36.5
20
-21.1588543296933
30
0
41
1
10
-36.5
20
-21.157318971124
30
0
41
1
10
-36.5
20
-21.1557860284831
30
0
41
1
10
-36.5
20
-21.1555781588825
30
0
0
SPLINE
5
18E
100
AcDbEntity
8
SK1
62
256
6
ByLayer
370
18
48
1
60
0
100
AcDbSpline
70
4
71
3
72
111
73
107
40
0
40
0
40
0
40
0
40
0.0023113641354071
40
0.0108556431224354
40
0.0193999221094637
40
0.0279442010964919
40
0.0364884800835202
40
0.0450327590705485
40
0.0535770380575767
40
0.062121317044605
40
0.0706655960316333
40
0.0792098750186615
40
0.0877541540056898
40
0.0962984329927181
40
0.113386990966775
40
0.130475548940831
40
0.147564106914888
40
0.156108385901916
40
0.164652664888944
40
0.173196943875973
40
0.181741222863001
40
0.190285501850029
40
0.198829780837057
40
0.207374059824086
40
0.215918338811114
40
0.23300689678517
40
0.241551175772199
40
0.250095454759227
40
0.258639733746255
40
0.267184012733283
40
0.275728291720312
40
0.28427257070734
40
0.292816849694368
40
0.301361128681396
40
0.309905407668425
40
0.318449686655453
40
0.326993965642481
40
0.33553824462951
40
0.352626802603566
40
0.361171081590594
40
0.369715360577623
40
0.386803918551679
40
0.395348197538707
40
0.403892476525736
40
0.412436755512764
40
0.420981034499792
40
0.438069592473849
40
0.446613871460877
40
0.455158150447905
40
0.463702429434934
40
0.472246708421962
40
0.489335266396018
40
0.497879545383047
40
0.506423824370075
40
0.514968103357103
40
0.523512382344131
40
0.540600940318188
40
0.549145219305216
40
0.557689498292245
40
0.566233777279273
40
0.574778056266301
40
0.591866614240358
40
0.600410893227386
40
0.608955172214414
40
0.617499451201442
40
0.626043730188471
40
0.643132288162527
40
0.651676567149556
40
0.660220846136584
40
0.668765125123612
40
0.67730940411064
40
0.685853683097669
40
0.694397962084697
40
0.702942241071725
40
0.711486520058753
40
0.720030799045782
40
0.72857507803281
40
0.737119357019838
40
0.745663636006866
40
0.754207914993895
40
0.762752193980923
40
0.77984075195498
40
0.788385030942008
40
0.796929309929036
40
0.805473588916064
40
0.814017867903093
40
0.822562146890121
40
0.831106425877149
40
0.848194983851206
40
0.856739262838234
40
0.865283541825262
40
0.873827820812291
40
0.882372099799319
40
0.899460657773375
40
0.908004936760404
40
0.916549215747432
40
0.92509349473446
40
0.933637773721488
40
0.942182052708517
40
0.950726331695545
40
0.959270610682573
40
0.967814889669601
40
0.97635916865663
40
0.984903447643658
40
0.993447726630686
40
1
40
1
40
1
40
1
41
1
10
-0.394976888875277
20
-6.32694279392976
30
0
41
1
10
-0.394976888875277
20
-6.3484916311391
30
0
41
1
10
-0.394976888875277
20
-6.44960775400912
30
0
41
1
10
-0.394976888875277
20
-6.62954555948866
30
0
41
1
10
-0.394976888875277
20
-6.8656950488801
30
0
41
1
10
-0.394976888875277
20
-7.10023740586411
30
0
41
1
10
-0.394976888875277
20
-7.33316546385933
30
0
41
1
10
-0.394976888875277
20
-7.56447269448574
30
0
41
1
10
-0.394976888875277
20
-7.79415340272945
30
0
41
1
10
-0.394976888875277
20
-8.02220293401996
30
0
41
1
10
-0.394976888875277
20
-8.24861635560848
30
0
41
1
10
-0.394976888875277
20
-8.47338951886385
30
0
41
1
10
-0.394976888875277
20
-8.69651811258549
30
0
41
1
10
-0.394976888875277
20
-8.99192948127941
30
0
41
1
10
-0.394976888875277
20
-9.35683912175983
30
0
41
1
10
-0.394976888875277
20
-9.78821091217483
30
0
41
1
10
-0.394976888875277
20
-10.142045462177
30
0
41
1
10
-0.394976888875277
20
-10.4219344727077
30
0
41
1
10
-0.394976888875277
20
-10.6301131683678
30
0
41
1
10
-0.394976888875277
20
-10.8366153667066
30
0
41
1
10
-0.394976888875277
20
-11.0414388905992
30
0
41
1
10
-0.394976888875277
20
-11.2445799004538
30
0
41
1
10
-0.394976888875277
20
-11.4460361162834
30
0
41
1
10
-0.394976888875277
20
-11.6458042976885
30
0
41
1
10
-0.394976888875277
20
-11.9099848253352
30
0
41
1
10
-0.394976888875277
20
-12.1705475695385
30
0
41
1
10
-0.394976888875277
20
-12.4279318067111
30
0
41
1
10
-0.394976888875277
20
-12.6192114874981
30
0
41
1
10
-0.394976888875277
20
-12.8087826250924
30
0
41
1
10
-0.394976888875277
20
-12.9966426041155
30
0
41
1
10
-0.394976888875277
20
-13.182787448996
30
0
41
1
10
-0.394976888875277
20
-13.3672125455487
30
0
41
1
10
-0.394976888875277
20
-13.5499151547097
30
0
41
1
10
-0.394976888875277
20
-13.7308904478326
30
0
41
1
10
-0.394976888875277
20
-13.910133867705
30
0
41
1
10
-0.394976888875277
20
-14.0876421688895
30
0
41
1
10
-0.394976888875277
20
-14.2634098807097
30
0
41
1
10
-0.394976888875277
20
-14.4955025482493
30
0
41
1
10
-0.394976888875277
20
-14.7239127068147
30
0
41
1
10
-0.394976888875277
20
-14.9489833053404
30
0
41
1
10
-0.394976888875277
20
-15.171701411915
30
0
41
1
10
-0.394976888875277
20
-15.3907043201103
30
0
41
1
10
-0.394976888875277
20
-15.6063159613101
30
0
41
1
10
-0.394976888875277
20
-15.7661946363952
30
0
41
1
10
-0.394976888875277
20
-15.9242799594928
30
0
41
1
10
-0.394976888875277
20
-16.1327154012234
30
0
41
1
10
-0.394976888875277
20
-16.3373780173449
30
0
41
1
10
-0.394976888875277
20
-16.5385587125243
30
0
41
1
10
-0.394976888875277
20
-16.6875782011067
30
0
41
1
10
-0.394976888875277
20
-16.8347642769002
30
0
41
1
10
-0.394976888875277
20
-17.0286080073569
30
0
41
1
10
-0.394976888875277
20
-17.2186059445175
30
0
41
1
10
-0.394976888875277
20
-17.4050188999402
30
0
41
1
10
-0.394976888875277
20
-17.5429190217058
30
0
41
1
10
-0.394976888875277
20
-17.6789377757623
30
0
41
1
10
-0.394976888875277
20
-17.8578220601067
30
0
41
1
10
-0.394976888875277
20
-18.0327708145484
30
0
41
1
10
-0.394976888875277
20
-18.2040166330947
30
0
41
1
10
-0.394976888875277
20
-18.3304892054167
30
0
41
1
10
-0.394976888875277
20
-18.4550234389153
30
0
41
1
10
-0.394976888875277
20
-18.6185132745736
30
0
41
1
10
-0.394976888875277
20
-18.7779598884918
30
0
41
1
10
-0.394976888875277
20
-18.933565131357
30
0
41
1
10
-0.394976888875277
20
-19.048244884465
30
0
41
1
10
-0.394976888875277
20
-19.1609196079758
30
0
41
1
10
-0.394976888875277
20
-19.3085018143331
30
0
41
1
10
-0.394976888875277
20
-19.4519098709686
30
0
41
1
10
-0.394976888875277
20
-19.5913159811741
30
0
41
1
10
-0.394976888875277
20
-19.6937719762305
30
0
41
1
10
-0.394976888875277
20
-19.7941438028822
30
0
41
1
10
-0.394976888875277
20
-19.8924174211231
30
0
41
1
10
-0.394976888875277
20
-19.988575861591
30
0
41
1
10
-0.394976888875277
20
-20.082604778142
30
0
41
1
10
-0.394976888875277
20
-20.1744885559187
30
0
41
1
10
-0.394976888875277
20
-20.264209431984
30
0
41
1
10
-0.394976888875277
20
-20.3517517880635
30
0
41
1
10
-0.394976888875277
20
-20.437098129367
30
0
41
1
10
-0.394976888875277
20
-20.5202292348052
30
0
41
1
10
-0.394976888875277
20
-20.6011280559991
30
0
41
1
10
-0.394976888875277
20
-20.6797749513881
30
0
41
1
10
-0.394976888875277
20
-20.781635486227
30
0
41
1
10
-0.394976888875277
20
-20.8788308931333
30
0
41
1
10
-0.394976888875277
20
-20.9714365096391
30
0
41
1
10
-0.394976888875277
20
-21.0385142950144
30
0
41
1
10
-0.394976888875277
20
-21.1032108820957
30
0
41
1
10
-0.394976888875277
20
-21.1655031751743
30
0
41
1
10
-0.394976888875277
20
-21.2253665102307
30
0
41
1
10
-0.394976888875277
20
-21.301932078811
30
0
41
1
10
-0.394976888875277
20
-21.3734709318986
30
0
41
1
10
-0.394976888875277
20
-21.4399968999807
30
0
41
1
10
-0.394976888875277
20
-21.4873093096751
30
0
41
1
10
-0.394976888875277
20
-21.5320229383892
30
0
41
1
10
-0.394976888875277
20
-21.5881524005931
30
0
41
1
10
-0.394976888875277
20
-21.6389063892513
30
0
41
1
10
-0.394976888875277
20
-21.6842420425293
30
0
41
1
10
-0.394976888875277
20
-21.7154617242468
30
0
41
1
10
-0.394976888875277
20
-21.7438726893518
30
0
41
1
10
-0.394976888875277
20
-21.7694337460976
30
0
41
1
10
-0.394976888875277
20
-21.7921034780961
30
0
41
1
10
-0.394976888875277
20
-21.8118377637545
30
0
41
1
10
-0.394976888875277
20
-21.8285907189997
30
0
41
1
10
-0.394976888875277
20
-21.8423149132633
30
0
41
1
10
-0.394976888875277
20
-21.8529599173647
30
0
41
1
10
-0.394976888875277
20
-21.8604739519412
30
0
41
1
10
-0.394976888875306
20
-21.8644655202077
30
0
41
1
10
-0.394976888875249
20
-21.8653271918389
30
0
41
1
10
-0.394976888875249
20
-21.8653787941089
30
0
0
SPLINE
5
18F
100
AcDbEntity
8
SK1
62
256
6
ByLayer
370
18
48
1
60
0
100
AcDbSpline
70
4
71
3
72
115
73
111
40
0
40
0
40
0
40
0
40
0.0065652188820731
40
0.0151093866146749
40
0.0236535543472767
40
0.0321977220798785
40
0.0407418898124803
40
0.0492860575450821
40
0.057830225277684
40
0.0663743930102858
40
0.0834627284754894
40
0.100551063940693
40
0.117639399405897
40
0.126183567138498
40
0.1347277348711
40
0.143271902603702
40
0.151816070336304
40
0.168904405801508
40
0.177448573534109
40
0.185992741266711
40
0.194536908999313
40
0.203081076731915
40
0.211625244464517
40
0.220169412197118
40
0.237257747662322
40
0.245801915394924
40
0.254346083127526
40
0.262890250860128
40
0.271434418592729
40
0.279978586325331
40
0.288522754057933
40
0.297066921790535
40
0.305611089523137
40
0.314155257255739
40
0.32269942498834
40
0.331243592720942
40
0.339787760453544
40
0.348331928186146
40
0.356876095918748
40
0.373964431383951
40
0.382508599116553
40
0.391052766849155
40
0.395324850715456
40
0.399596934581757
40
0.408141102314359
40
0.425229437779562
40
0.433773605512164
40
0.442317773244766
40
0.450861940977367
40
0.45940610870997
40
0.476494444175173
40
0.485038611907775
40
0.493582779640377
40
0.497854863506678
40
0.502126947372978
40
0.51067111510558
40
0.527759450570784
40
0.536303618303386
40
0.544847786035987
40
0.553391953768589
40
0.561936121501191
40
0.579024456966395
40
0.587568624698997
40
0.596112792431598
40
0.600384876297899
40
0.6046569601642
40
0.613201127896802
40
0.621745295629404
40
0.630289463362006
40
0.634561547228307
40
0.638833631094607
40
0.647377798827209
40
0.655921966559811
40
0.664466134292413
40
0.673010302025015
40
0.681554469757617
40
0.690098637490218
40
0.69864280522282
40
0.707186972955422
40
0.715731140688024
40
0.724275308420626
40
0.732819476153228
40
0.741363643885829
40
0.749907811618431
40
0.758451979351033
40
0.766996147083635
40
0.784084482548838
40
0.79262865028144
40
0.801172818014042
40
0.809716985746644
40
0.818261153479246
40
0.826805321211848
40
0.835349488944449
40
0.843893656677051
40
0.852437824409653
40
0.869526159874857
40
0.88661449534006
40
0.903702830805264
40
0.912246998537866
40
0.920791166270468
40
0.929335334003069
40
0.937879501735671
40
0.946423669468273
40
0.954967837200875
40
0.963512004933477
40
0.972056172666078
40
0.98060034039868
40
0.989144508131282
40
0.997688675863884
40
1
40
1
40
1
40
1
41
1
10
-0.394976888875277
20
21.8653790907057
30
0
41
1
10
-0.394976888875277
20
21.8653285671483
30
0
41
1
10
-0.394976888875306
20
21.8644673820714
30
0
41
1
10
-0.394976888875277
20
21.8604737650697
30
0
41
1
10
-0.394976888875277
20
21.8529598769268
30
0
41
1
10
-0.394976888875277
20
21.8423149188875
30
0
41
1
10
-0.394976888875277
20
21.8285907137819
30
0
41
1
10
-0.394976888875277
20
21.8118377229246
30
0
41
1
10
-0.394976888875277
20
21.7921034347989
30
0
41
1
10
-0.394976888875277
20
21.7618666429643
30
0
41
1
10
-0.394976888875277
20
21.7168668922192
30
0
41
1
10
-0.394976888875277
20
21.651618462036
30
0
41
1
10
-0.394976888875277
20
21.5881524120742
30
0
41
1
10
-0.394976888875277
20
21.5320229149808
30
0
41
1
10
-0.394976888875277
20
21.4873092663299
30
0
41
1
10
-0.394976888875277
20
21.4399968711307
30
0
41
1
10
-0.394976888875277
20
21.3734709387681
30
0
41
1
10
-0.394976888875277
20
21.3019320664004
30
0
41
1
10
-0.394976888875277
20
21.2253664719936
30
0
41
1
10
-0.394976888875277
20
21.1655031445011
30
0
41
1
10
-0.394976888875277
20
21.1032108723211
30
0
41
1
10
-0.394976888875277
20
21.038514297088
30
0
41
1
10
-0.394976888875277
20
20.9714364994015
30
0
41
1
10
-0.394976888875277
20
20.8788308563806
30
0
41
1
10
-0.394976888875277
20
20.7816354627076
30
0
41
1
10
-0.394976888875277
20
20.6797749496461
30
0
41
1
10
-0.394976888875277
20
20.6011280536546
30
0
41
1
10
-0.394976888875277
20
20.5202292190253
30
0
41
1
10
-0.394976888875277
20
20.4370981008412
30
0
41
1
10
-0.394976888875277
20
20.3517517634561
30
0
41
1
10
-0.394976888875277
20
20.2642094206366
30
0
41
1
10
-0.394976888875277
20
20.1744885542463
30
0
41
1
10
-0.394976888875277
20
20.082604770276
30
0
41
1
10
-0.394976888875277
20
19.9885758834751
30
0
41
1
10
-0.394976888875277
20
19.8924175863555
30
0
41
1
10
-0.394976888875277
20
19.79414426657
30
0
41
1
10
-0.394976888875277
20
19.6937723311917
30
0
41
1
10
-0.394976888875277
20
19.5913158900225
30
0
41
1
10
-0.394976888875277
20
19.4519091739392
30
0
41
1
10
-0.394976888875277
20
19.308501644014
30
0
41
1
10
-0.394976888875277
20
19.160920630363
30
0
41
1
10
-0.394976888875277
20
19.0670441229991
30
0
41
1
10
-0.394976888875277
20
18.9909051568102
30
0
41
1
10
-0.394976888875277
20
18.9140993494365
30
0
41
1
10
-0.394976888875277
20
18.777958735224
30
0
41
1
10
-0.394976888875277
20
18.6185131846482
30
0
41
1
10
-0.394976888875277
20
18.4550236113311
30
0
41
1
10
-0.394976888875277
20
18.330489335967
30
0
41
1
10
-0.394976888875277
20
18.2040166079408
30
0
41
1
10
-0.394976888875277
20
18.0327705937831
30
0
41
1
10
-0.394976888875277
20
17.8578219077773
30
0
41
1
10
-0.394976888875277
20
17.6789387292296
30
0
41
1
10
-0.394976888875277
20
17.5656125946474
30
0
41
1
10
-0.394976888875277
20
17.4739690253912
30
0
41
1
10
-0.394976888875277
20
17.3816993239948
30
0
41
1
10
-0.394976888875277
20
17.2186048360495
30
0
41
1
10
-0.394976888875277
20
17.0286078387926
30
0
41
1
10
-0.394976888875277
20
16.8347647509306
30
0
41
1
10
-0.394976888875277
20
16.6875786248762
30
0
41
1
10
-0.394976888875277
20
16.5385587049942
30
0
41
1
10
-0.394976888875277
20
16.3373774066279
30
0
41
1
10
-0.394976888875277
20
16.1327150774874
30
0
41
1
10
-0.394976888875277
20
15.9242804112408
30
0
41
1
10
-0.394976888875277
20
15.7925696820839
30
0
41
1
10
-0.394976888875277
20
15.6862549949744
30
0
41
1
10
-0.394976888875277
20
15.5793432837569
30
0
41
1
10
-0.394976888875277
20
15.4446487492657
30
0
41
1
10
-0.394976888875277
20
15.2812010193763
30
0
41
1
10
-0.394976888875277
20
15.1435436982815
30
0
41
1
10
-0.394976888875277
20
15.0324801920763
30
0
41
1
10
-0.394976888875277
20
14.9208273816877
30
0
41
1
10
-0.394976888875277
20
14.7802248596231
30
0
41
1
10
-0.394976888875277
20
14.6097059483473
30
0
41
1
10
-0.394976888875277
20
14.4374320816019
30
0
41
1
10
-0.394976888875277
20
14.2634095816694
30
0
41
1
10
-0.394976888875277
20
14.0876420714538
30
0
41
1
10
-0.394976888875277
20
13.9101338497815
30
0
41
1
10
-0.394976888875277
20
13.7308904366346
30
0
41
1
10
-0.394976888875277
20
13.549915145406
30
0
41
1
10
-0.394976888875277
20
13.3672125481811
30
0
41
1
10
-0.394976888875277
20
13.182787463215
30
0
41
1
10
-0.394976888875277
20
12.9966426140257
30
0
41
1
10
-0.394976888875277
20
12.8087826212334
30
0
41
1
10
-0.394976888875277
20
12.6192114742801
30
0
41
1
10
-0.394976888875277
20
12.4279318017785
30
0
41
1
10
-0.394976888875277
20
12.1705475891153
30
0
41
1
10
-0.394976888875277
20
11.9099848332047
30
0
41
1
10
-0.394976888875277
20
11.6458042855523
30
0
41
1
10
-0.394976888875277
20
11.4460361066677
30
0
41
1
10
-0.394976888875277
20
11.2445799083311
30
0
41
1
10
-0.394976888875277
20
11.0414389105764
30
0
41
1
10
-0.394976888875277
20
10.8366153761928
30
0
41
1
10
-0.394976888875277
20
10.630113157504
30
0
41
1
10
-0.394976888875277
20
10.4219344610486
30
0
41
1
10
-0.394976888875277
20
10.1420454829465
30
0
41
1
10
-0.394976888875277
20
9.78821091215369
30
0
41
1
10
-0.394976888875277
20
9.3568391135907
30
0
41
1
10
-0.394976888875277
20
8.99192950801697
30
0
41
1
10
-0.394976888875277
20
8.69651812098675
30
0
41
1
10
-0.394976888875277
20
8.47338949471808
30
0
41
1
10
-0.394976888875277
20
8.24861627222975
30
0
41
1
10
-0.394976888875277
20
8.0222029406992
30
0
41
1
10
-0.394976888875277
20
7.79415362199521
30
0
41
1
10
-0.394976888875277
20
7.56447255210352
30
0
41
1
10
-0.394976888875277
20
7.33316516004027
30
0
41
1
10
-0.394976888875277
20
7.10023725398264
30
0
41
1
10
-0.394976888875277
20
6.86569504295815
30
0
41
1
10
-0.394976888875277
20
6.62954558311137
30
0
41
1
10
-0.394976888875277
20
6.44960786563362
30
0
41
1
10
-0.394976888875277
20
6.34849183540922
30
0
41
1
10
-0.394976888875277
20
6.32694309067119
30
0
0
SPLINE
5
190
100
AcDbEntity
8
SK1
62
256
6
ByLayer
370
18
48
1
60
0
100
AcDbSpline
70
4
71
3
72
299
73
295
40
0
40
0
40
0
40
0
40
0.0029480942905805
40
0.0064731653220917
40
0.0099982363536028
40
0.013523307385114
40
0.0170483784166251
40
0.0205734494481363
40
0.0240985204796474
40
0.0276235915111586
40
0.0346737335741809
40
0.0417238756372032
40
0.0487740177002254
40
0.0522990887317366
40
0.0558241597632478
40
0.0593492307947589
40
0.0628743018262701
40
0.0699244438892924
40
0.0734495149208035
40
0.0769745859523146
40
0.0804996569838258
40
0.0840247280153369
40
0.0875497990468481
40
0.0910748700783593
40
0.0981250121413815
40
0.101650083172893
40
0.105175154204404
40
0.108700225235915
40
0.112225296267426
40
0.115750367298937
40
0.119275438330448
40
0.12280050936196
40
0.126325580393471
40
0.129850651424982
40
0.133375722456493
40
0.136900793488004
40
0.140425864519515
40
0.143950935551026
40
0.147476006582538
40
0.15452614864556
40
0.158051219677071
40
0.161576290708582
40
0.163338826224338
40
0.165101361740093
40
0.168626432771604
40
0.175676574834627
40
0.179201645866138
40
0.182726716897649
40
0.18625178792916
40
0.189776858960672
40
0.196827001023694
40
0.200352072055205
40
0.203877143086716
40
0.205639678602472
40
0.207402214118227
40
0.210927285149738
40
0.217977427212761
40
0.221502498244272
40
0.225027569275783
40
0.228552640307294
40
0.232077711338805
40
0.239127853401827
40
0.242652924433339
40
0.24617799546485
40
0.247940530980605
40
0.249703066496361
40
0.253228137527872
40
0.256753208559383
40
0.260278279590894
40
0.26204081510665
40
0.263803350622406
40
0.267328421653917
40
0.270853492685428
40
0.274378563716939
40
0.27790363474845
40
0.281428705779961
40
0.284953776811472
40
0.288478847842984
40
0.292003918874495
40
0.295528989906006
40
0.299054060937517
40
0.302579131969028
40
0.306104203000539
40
0.30962927403205
40
0.313154345063562
40
0.316679416095073
40
0.323729558158095
40
0.327254629189606
40
0.330779700221117
40
0.334304771252628
40
0.33782984228414
40
0.341354913315651
40
0.344879984347162
40
0.348405055378673
40
0.351930126410184
40
0.358980268473207
40
0.366030410536229
40
0.373080552599251
40
0.376605623630762
40
0.380130694662273
40
0.383655765693785
40
0.387180836725296
40
0.390705907756807
40
0.394230978788318
40
0.397756049819829
40
0.40128112085134
40
0.404806191882852
40
0.408331262914363
40
0.411856333945874
40
0.415381404977385
40
0.418906476008896
40
0.422431547040407
40
0.425956618071918
40
0.42948168910343
40
0.433006760134941
40
0.434769295650696
40
0.436531831166452
40
0.438294366682207
40
0.440056902197963
40
0.443581973229474
40
0.447107044260985
40
0.448869579776741
40
0.450632115292497
40
0.452394650808252
40
0.454157186324008
40
0.457682257355519
40
0.459444792871274
40
0.46120732838703
40
0.462969863902785
40
0.464732399418541
40
0.466494934934297
40
0.468257470450052
40
0.470020005965808
40
0.471782541481563
40
0.473545076997319
40
0.475307612513075
40
0.47707014802883
40
0.478832683544586
40
0.480595219060341
40
0.482357754576097
40
0.484120290091852
40
0.485882825607608
40
0.487645361123363
40
0.489407896639119
40
0.491170432154875
40
0.49293296767063
40
0.494695503186386
40
0.496458038702141
40
0.498220574217897
40
0.499983109733653
40
0.501745645249408
40
0.503508180765164
40
0.505270716280919
40
0.507033251796675
40
0.508795787312431
40
0.510558322828186
40
0.512320858343942
40
0.514083393859697
40
0.515845929375453
40
0.517608464891208
40
0.519371000406964
40
0.521133535922719
40
0.522896071438475
40
0.524658606954231
40
0.526421142469986
40
0.528183677985742
40
0.529946213501497
40
0.531708749017253
40
0.533471284533009
40
0.535233820048764
40
0.53699635556452
40
0.538758891080275
40
0.540521426596031
40
0.542283962111786
40
0.545809033143297
40
0.547571568659053
40
0.549334104174809
40
0.551096639690564
40
0.55285917520632
40
0.556384246237831
40
0.559909317269342
40
0.561671852785098
40
0.563434388300853
40
0.565196923816609
40
0.566959459332364
40
0.570484530363875
40
0.574009601395387
40
0.577534672426898
40
0.581059743458409
40
0.58458481448992
40
0.588109885521431
40
0.591634956552942
40
0.595160027584454
40
0.598685098615965
40
0.602210169647476
40
0.605735240678987
40
0.609260311710498
40
0.612785382742009
40
0.61631045377352
40
0.619835524805031
40
0.623360595836543
40
0.626885666868054
40
0.633935808931076
40
0.640985950994099
40
0.648036093057121
40
0.651561164088632
40
0.655086235120143
40
0.658611306151654
40
0.662136377183165
40
0.665661448214677
40
0.669186519246188
40
0.672711590277699
40
0.67623666130921
40
0.683286803372232
40
0.686811874403743
40
0.690336945435254
40
0.693862016466766
40
0.697387087498277
40
0.700912158529788
40
0.704437229561299
40
0.70796230059281
40
0.711487371624321
40
0.715012442655833
40
0.718537513687344
40
0.722062584718855
40
0.725587655750366
40
0.732637797813388
40
0.736162868844899
40
0.739687939876411
40
0.746738081939433
40
0.750263152970944
40
0.753788224002455
40
0.757313295033966
40
0.760838366065478
40
0.7678885081285
40
0.771413579160011
40
0.774938650191522
40
0.778463721223033
40
0.781988792254545
40
0.789038934317567
40
0.792564005349078
40
0.796089076380589
40
0.7996141474121
40
0.803139218443611
40
0.810189360506634
40
0.813714431538145
40
0.817239502569656
40
0.820764573601167
40
0.824289644632678
40
0.831339786695701
40
0.834864857727212
40
0.838389928758723
40
0.841914999790234
40
0.845440070821745
40
0.852490212884767
40
0.856015283916279
40
0.85954035494779
40
0.863065425979301
40
0.866590497010812
40
0.870115568042323
40
0.873640639073834
40
0.877165710105346
40
0.880690781136857
40
0.884215852168368
40
0.887740923199879
40
0.89126599423139
40
0.894791065262901
40
0.898316136294412
40
0.901841207325924
40
0.908891349388946
40
0.912416420420457
40
0.915941491451968
40
0.919466562483479
40
0.92299163351499
40
0.926516704546502
40
0.930041775578013
40
0.937091917641035
40
0.940616988672546
40
0.944142059704057
40
0.947667130735568
40
0.95119220176708
40
0.958242343830102
40
0.961767414861613
40
0.965292485893124
40
0.968817556924635
40
0.972342627956147
40
0.975867698987658
40
0.979392770019169
40
0.98291784105068
40
0.986442912082191
40
0.989967983113702
40
0.993493054145213
40
0.997018125176725
40
1
40
1
40
1
40
1
41
1
10
-38
20
20.2923486447534
30
0
41
1
10
-38
20
20.2923551427096
30
0
41
1
10
-38
20
20.2915871233807
30
0
41
1
10
-38
20
20.2877827415225
30
0
41
1
10
-38
20
20.2807871950942
30
0
41
1
10
-38
20
20.270864225278
30
0
41
1
10
-38
20
20.2580557575388
30
0
41
1
10
-38
20
20.2424031034125
30
0
41
1
10
-38
20
20.2239454925533
30
0
41
1
10
-38
20
20.19551262204
30
0
41
1
10
-38
20
20.153458157969
30
0
41
1
10
-38
20
20.0921783324266
30
0
41
1
10
-38
20
20.0326760120608
30
0
41
1
10
-38
20
19.9796195423852
30
0
41
1
10
-38
20
19.9374871337363
30
0
41
1
10
-38
20
19.8928775037255
30
0
41
1
10
-38
20
19.8298739849263
30
0
41
1
10
-38
20
19.7628242930464
30
0
41
1
10
-38
20
19.6902080345968
30
0
41
1
10
-38
20
19.6336084813315
30
0
41
1
10
-38
20
19.5746836513967
30
0
41
1
10
-38
20
19.5134574775013
30
0
41
1
10
-38
20
19.4499498796239
30
0
41
1
10
-38
20
19.361926580552
30
0
41
1
10
-38
20
19.2704514952516
30
0
41
1
10
-38
20
19.1735363516591
30
0
41
1
10
-38
20
19.0989364266239
30
0
41
1
10
-38
20
19.0221745884206
30
0
41
1
10
-38
20
18.9432715601189
30
0
41
1
10
-38
20
18.8622425921488
30
0
41
1
10
-38
20
18.7791047356355
30
0
41
1
10
-38
20
18.6938772447032
30
0
41
1
10
-38
20
18.6065734364562
30
0
41
1
10
-38
20
18.5172096781029
30
0
41
1
10
-38
20
18.4258037757915
30
0
41
1
10
-38
20
18.3323676597213
30
0
41
1
10
-38
20
18.236917040573
30
0
41
1
10
-38
20
18.1394682315479
30
0
41
1
10
-38
20
18.006423045464
30
0
41
1
10
-38
20
17.870842154793
30
0
41
1
10
-38
20
17.7299440627733
30
0
41
1
10
-38
20
17.6408187485726
30
0
41
1
10
-38
20
17.5681131617785
30
0
41
1
10
-38
20
17.4947669133713
30
0
41
1
10
-38
20
17.3649201654158
30
0
41
1
10
-38
20
17.2140632768009
30
0
41
1
10
-38
20
17.0578935907134
30
0
41
1
10
-38
20
16.9392992293059
30
0
41
1
10
-38
20
16.8188549914818
30
0
41
1
10
-38
20
16.6552510003021
30
0
41
1
10
-38
20
16.489672496603
30
0
41
1
10
-38
20
16.3187666825072
30
0
41
1
10
-38
20
16.2111031772939
30
0
41
1
10
-38
20
16.1235473577608
30
0
41
1
10
-38
20
16.0353949417433
30
0
41
1
10
-38
20
15.8797855584285
30
0
41
1
10
-38
20
15.6999813794666
30
0
41
1
10
-38
20
15.5148116907138
30
0
41
1
10
-38
20
15.3746600384839
30
0
41
1
10
-38
20
15.2327750536327
30
0
41
1
10
-38
20
15.0406360987563
30
0
41
1
10
-38
20
14.8470518249568
30
0
41
1
10
-38
20
14.6480433816337
30
0
41
1
10
-38
20
14.5230237603812
30
0
41
1
10
-38
20
14.4215395322791
30
0
41
1
10
-38
20
14.319494446119
30
0
41
1
10
-38
20
14.1916826014269
30
0
41
1
10
-38
20
14.0362107113462
30
0
41
1
10
-38
20
13.905633632864
30
0
41
1
10
-38
20
13.7996824703933
30
0
41
1
10
-38
20
13.6931799140641
30
0
41
1
10
-38
20
13.5598675642285
30
0
41
1
10
-38
20
13.3977994204325
30
0
41
1
10
-38
20
13.2340971553998
30
0
41
1
10
-38
20
13.0687736820565
30
0
41
1
10
-38
20
12.9018380893652
30
0
41
1
10
-38
20
12.7332922951509
30
0
41
1
10
-38
20
12.5631480531082
30
0
41
1
10
-38
20
12.3914123687224
30
0
41
1
10
-38
20
12.2180896154105
30
0
41
1
10
-38
20
12.0431930727568
30
0
41
1
10
-38
20
11.8667275879997
30
0
41
1
10
-38
20
11.6886992220563
30
0
41
1
10
-38
20
11.5091211559413
30
0
41
1
10
-38
20
11.3279971676986
30
0
41
1
10
-38
20
11.0835274575533
30
0
41
1
10
-38
20
10.8388445996823
30
0
41
1
10
-38
20
10.5882272221232
30
0
41
1
10
-38
20
10.3995106478125
30
0
41
1
10
-38
20
10.2093006505112
30
0
41
1
10
-38
20
10.0176111741013
30
0
41
1
10
-38
20
9.82444825814403
30
0
41
1
10
-38
20
9.62982433363783
30
0
41
1
10
-38
20
9.43375032895256
30
0
41
1
10
-38
20
9.16930024978845
30
0
41
1
10
-38
20
8.83774034996796
30
0
41
1
10
-38
20
8.43283016067576
30
0
41
1
10
-38
20
8.09202302704495
30
0
41
1
10
-38
20
7.81440668711983
30
0
41
1
10
-38
20
7.60585888080689
30
0
41
1
10
-38
20
7.39600299493051
30
0
41
1
10
-38
20
7.18486050853949
30
0
41
1
10
-38
20
6.972454820743
30
0
41
1
10
-38
20
6.75880464755275
30
0
41
1
10
-38
20
6.54393387937549
30
0
41
1
10
-38
20
6.32787102064523
30
0
41
1
10
-38
20
6.11064460524281
30
0
41
1
10
-38
20
5.89228682406826
30
0
41
1
10
-38
20
5.67283049766701
30
0
41
1
10
-38
20
5.45231041402207
30
0
41
1
10
-38
20
5.2307661198837
30
0
41
1
10
-38
20
5.00824236668089
30
0
41
1
10
-38
20
4.78478453894908
30
0
41
1
10
-38
20
4.56044477194351
30
0
41
1
10
-38
20
4.3737593142329
30
0
41
1
10
-38
20
4.22222174308931
30
0
41
1
10
-38
20
4.10916467830541
30
0
41
1
10
-38
20
3.99593123757288
30
0
41
1
10
-38
20
3.84368490764803
30
0
41
1
10
-38
20
3.65544484289478
30
0
41
1
10
-38
20
3.46668355973628
30
0
41
1
10
-38
20
3.31336520651504
30
0
41
1
10
-38
20
3.19916977025284
30
0
41
1
10
-38
20
3.0848771849204
30
0
41
1
10
-38
20
2.93116533478539
30
0
41
1
10
-38
20
2.7810630459212
30
0
41
1
10
-38
20
2.62697343511894
30
0
41
1
10
-38
20
2.51237687493429
30
0
41
1
10
-38
20
2.39774974487253
30
0
41
1
10
-38
20
2.28311555219403
30
0
41
1
10
-38
20
2.16847618976473
30
0
41
1
10
-38
20
2.05384840107453
30
0
41
1
10
-38
20
1.93924458170406
30
0
41
1
10
-38
20
1.82466899171223
30
0
41
1
10
-38
20
1.71014121398446
30
0
41
1
10
-38
20
1.59566009898879
30
0
41
1
10
-38
20
1.48124309885608
30
0
41
1
10
-38
20
1.36688883878045
30
0
41
1
10
-38
20
1.25260906632701
30
0
41
1
10
-38
20
1.13840321986405
30
0
41
1
10
-38
20
1.02427614220741
30
0
41
1
10
-38
20
0.910225811803912
30
0
41
1
10
-38
20
0.796251800903974
30
0
41
1
10
-38
20
0.682349388495624
30
0
41
1
10
-38
20
0.568513483413511
30
0
41
1
10
-38
20
0.454735475948979
30
0
41
1
10
-38
20
0.341006791030111
30
0
41
1
10
-38
20
0.227315919379521
30
0
41
1
10
-38
20
0.113651444289076
30
0
41
1
10
-38
20
2.39307099E-08
30
0
41
1
10
-38
20
-0.113651428861147
30
0
41
1
10
-38
20
-0.227315965161807
30
0
41
1
10
-38
20
-0.341006831114754
30
0
41
1
10
-38
20
-0.454735424962735
30
0
41
1
10
-38
20
-0.568513412391525
30
0
41
1
10
-38
20
-0.682349437337052
30
0
41
1
10
-38
20
-0.796251898049235
30
0
41
1
10
-38
20
-0.910225765592202
30
0
41
1
10
-38
20
-1.02427601417025
30
0
41
1
10
-38
20
-1.13840324907633
30
0
41
1
10
-38
20
-1.25260921865757
30
0
41
1
10
-38
20
-1.36688883944314
30
0
41
1
10
-38
20
-1.48124293103632
30
0
41
1
10
-38
20
-1.59566004663384
30
0
41
1
10
-38
20
-1.71014137238996
30
0
41
1
10
-38
20
-1.82466911261432
30
0
41
1
10
-38
20
-1.93924446866484
30
0
41
1
10
-38
20
-2.05384821372689
30
0
41
1
10
-38
20
-2.16847621903287
30
0
41
1
10
-38
20
-2.28311576323418
30
0
41
1
10
-38
20
-2.39774983280105
30
0
41
1
10
-38
20
-2.51237672316307
30
0
41
1
10
-38
20
-2.62697323991799
30
0
41
1
10
-38
20
-2.78106315146928
30
0
41
1
10
-38
20
-2.93116552693385
30
0
41
1
10
-38
20
-3.08487708212581
30
0
41
1
10
-38
20
-3.19916954549007
30
0
41
1
10
-38
20
-3.31336512600546
30
0
41
1
10
-38
20
-3.46668375918677
30
0
41
1
10
-38
20
-3.65544489425085
30
0
41
1
10
-38
20
-3.84368470208372
30
0
41
1
10
-38
20
-3.99593117493791
30
0
41
1
10
-38
20
-4.10916481607396
30
0
41
1
10
-38
20
-4.22222196867938
30
0
41
1
10
-38
20
-4.37375933349006
30
0
41
1
10
-38
20
-4.56044458630845
30
0
41
1
10
-38
20
-4.78478457648492
30
0
41
1
10
-38
20
-5.00824253816086
30
0
41
1
10
-38
20
-5.23076600439052
30
0
41
1
10
-38
20
-5.45231022599046
30
0
41
1
10
-38
20
-5.67283041504652
30
0
41
1
10
-38
20
-5.89228674128222
30
0
41
1
10
-38
20
-6.11064496108523
30
0
41
1
10
-38
20
-6.32787239667013
30
0
41
1
10
-38
20
-6.54393525610644
30
0
41
1
10
-38
20
-6.75880334040127
30
0
41
1
10
-38
20
-6.97245311766207
30
0
41
1
10
-38
20
-7.18486111103374
30
0
41
1
10
-38
20
-7.39600347561742
30
0
41
1
10
-38
20
-7.60585874971361
30
0
41
1
10
-38
20
-7.8144064520111
30
0
41
1
10
-38
20
-8.09202295752311
30
0
41
1
10
-38
20
-8.43283023540656
30
0
41
1
10
-38
20
-8.83774029355055
30
0
41
1
10
-38
20
-9.16930023887323
30
0
41
1
10
-38
20
-9.43375044009511
30
0
41
1
10
-38
20
-9.62982432960192
30
0
41
1
10
-38
20
-9.82444814962994
30
0
41
1
10
-38
20
-10.0176111126089
30
0
41
1
10
-38
20
-10.2093007057547
30
0
41
1
10
-38
20
-10.3995107409486
30
0
41
1
10
-38
20
-10.5882272324294
30
0
41
1
10
-38
20
-10.8388445170812
30
0
41
1
10
-38
20
-11.0835274377931
30
0
41
1
10
-38
20
-11.327997250045
30
0
41
1
10
-38
20
-11.5091211965041
30
0
41
1
10
-38
20
-11.6886991809046
30
0
41
1
10
-38
20
-11.8667275177687
30
0
41
1
10
-38
20
-12.0431930522803
30
0
41
1
10
-38
20
-12.2180896645831
30
0
41
1
10
-38
20
-12.3914124247035
30
0
41
1
10
-38
20
-12.5631480735019
30
0
41
1
10
-38
20
-12.7332924196477
30
0
41
1
10
-38
20
-12.9018387248249
30
0
41
1
10
-38
20
-13.068774902876
30
0
41
1
10
-38
20
-13.2899980003418
30
0
41
1
10
-38
20
-13.5056406071554
30
0
41
1
10
-38
20
-13.7202970548285
30
0
41
1
10
-38
20
-13.9327572918622
30
0
41
1
10
-38
20
-14.1397069500695
30
0
41
1
10
-38
20
-14.3454836148157
30
0
41
1
10
-38
20
-14.4976048095277
30
0
41
1
10
-38
20
-14.6480433741443
30
0
41
1
10
-38
20
-14.8470538575164
30
0
41
1
10
-38
20
-15.0406366439893
30
0
41
1
10
-38
20
-15.2327734637881
30
0
41
1
10
-38
20
-15.3746583733236
30
0
41
1
10
-38
20
-15.5148115582755
30
0
41
1
10
-38
20
-15.6999837411247
30
0
41
1
10
-38
20
-15.8797870255403
30
0
41
1
10
-38
20
-16.0578801048401
30
0
41
1
10
-38
20
-16.189216581434
30
0
41
1
10
-38
20
-16.3187661779867
30
0
41
1
10
-38
20
-16.4896741385663
30
0
41
1
10
-38
20
-16.6552512602625
30
0
41
1
10
-38
20
-16.8188545807649
30
0
41
1
10
-38
20
-16.9392987318018
30
0
41
1
10
-38
20
-17.0578934672827
30
0
41
1
10
-38
20
-17.2140648101705
30
0
41
1
10
-38
20
-17.3649216616153
30
0
41
1
10
-38
20
-17.513530035822
30
0
41
1
10
-38
20
-17.6226956365842
30
0
41
1
10
-38
20
-17.7299433731025
30
0
41
1
10
-38
20
-17.8708440004863
30
0
41
1
10
-38
20
-18.0064238716364
30
0
41
1
10
-38
20
-18.1394672902698
30
0
41
1
10
-38
20
-18.236915915677
30
0
41
1
10
-38
20
-18.3323672965474
30
0
41
1
10
-38
20
-18.4258040962282
30
0
41
1
10
-38
20
-18.517209887002
30
0
41
1
10
-38
20
-18.6065734896479
30
0
41
1
10
-38
20
-18.6938772522127
30
0
41
1
10
-38
20
-18.7791047692188
30
0
41
1
10
-38
20
-18.8622426359768
30
0
41
1
10
-38
20
-18.9432715834756
30
0
41
1
10
-38
20
-19.0221745805325
30
0
41
1
10
-38
20
-19.0989364136873
30
0
41
1
10
-38
20
-19.1735363647814
30
0
41
1
10
-38
20
-19.2704515417461
30
0
41
1
10
-38
20
-19.3619266112172
30
0
41
1
10
-38
20
-19.4499498647732
30
0
41
1
10
-38
20
-19.5134574724377
30
0
41
1
10
-38
20
-19.5746836830748
30
0
41
1
10
-38
20
-19.6336085328262
30
0
41
1
10
-38
20
-19.6902080668946
30
0
41
1
10
-38
20
-19.7628242842049
30
0
41
1
10
-38
20
-19.829873984374
30
0
41
1
10
-38
20
-19.8928775551026
30
0
41
1
10
-38
20
-19.9374871757691
30
0
41
1
10
-38
20
-19.9796195436673
30
0
41
1
10
-38
20
-20.0326760063813
30
0
41
1
10
-38
20
-20.0800381474625
30
0
41
1
10
-38
20
-20.1228090027496
30
0
41
1
10
-38
20
-20.1521177658612
30
0
41
1
10
-38
20
-20.1787668505585
30
0
41
1
10
-38
20
-20.2027210424566
30
0
41
1
10
-38
20
-20.2239455432986
30
0
41
1
10
-38
20
-20.2424031363825
30
0
41
1
10
-38
20
-20.2580557552655
30
0
41
1
10
-38
20
-20.2708642249464
30
0
41
1
10
-38
20
-20.2807872561095
30
0
41
1
10
-38
20
-20.2877829489451
30
0
41
1
10
-38
20
-20.2916003020397
30
0
41
1
10
-38
20
-20.292363198602
30
0
41
1
10
-38
20
-20.2923482585908
30
0
0
SPLINE
5
191
100
AcDbEntity
8
1
62
256
6
ByLayer
370
18
48
1
60
0
100
AcDbSpline
70
4
71
3
72
8
73
4
40
0
40
0
40
0
40
0
40
1
40
1
40
1
40
1
41
1
10
19.9115068236138
20
28.1821198447845
30
0
41
1
10
19.9174179697513
20
28.1523556667701
30
0
41
1
10
19.9250456421063
20
28.1198558110404
30
0
41
1
10
19.9340875486335
20
28.0847311956739
30
0
0
SPLINE
5
192
100
AcDbEntity
8
1
62
256
6
ByLayer
370
18
48
1
60
0
100
AcDbSpline
70
4
71
3
72
8
73
4
40
0
40
0
40
0
40
0
40
1
40
1
40
1
40
1
41
1
10
25.3848372427062
20
40.678550638645
30
0
41
1
10
25.4233153442893
20
40.8325106320916
30
0
41
1
10
25.4872564484382
20
40.9889968714105
30
0
41
1
10
25.5776838368165
20
41.1481108788425
30
0
0
SPLINE
5
193
100
AcDbEntity
8
1
62
256
6
ByLayer
370
18
48
1
60
0
100
AcDbSpline
70
4
71
3
72
8
73
4
40
0
40
0
40
0
40
0
40
1
40
1
40
1
40
1
41
1
10
44.2443350709564
20
20.0977974706987
30
0
41
1
10
44.4688994813281
20
20.1370305005891
30
0
41
1
10
44.6821958096593
20
20.1972986119561
30
0
41
1
10
44.8833096775239
20
20.2721032886706
30
0
0
SPLINE
5
194
100
AcDbEntity
8
1
62
256
6
ByLayer
370
18
48
1
60
0
100
AcDbSpline
70
4
71
3
72
8
73
4
40
0
40
0
40
0
40
0
40
1
40
1
40
1
40
1
41
1
10
36.4416008320142
20
31.1972835077692
30
0
41
1
10
36.5518066058822
20
31.3991756854042
30
0
41
1
10
36.6775583567506
20
31.5839591271453
30
0
41
1
10
36.8124856233133
20
31.7528977991349
30
0
0
SPLINE
5
195
100
AcDbEntity
8
1
62
256
6
ByLayer
370
18
48
1
60
0
100
AcDbSpline
70
4
71
3
72
13
73
9
40
0
40
0
40
0
40
0
40
0.250649945521668
40
0.250649945521668
40
0.250649945521668
40
0.653057935862512
40
0.653057935862512
40
1
40
1
40
1
40
1
41
1
10
52.283446003799
20
32.2680736723693
30
0
41
1
10
52.2251569185323
20
32.5534121523192
30
0
41
1
10
52.1361723433389
20
32.8348174840842
30
0
41
1
10
52.0196657593336
20
33.1030867420041
30
0
41
1
10
51.8342369021759
20
33.5300571345475
30
0
41
1
10
51.5737542797989
20
33.9329581882119
30
0
41
1
10
50.9883364691781
20
34.5775377505671
30
0
41
1
10
50.671001510597
20
34.840562567702
30
0
41
1
10
50.3272866939053
20
35.0507345040157
30
0
0
SPLINE
5
196
100
AcDbEntity
8
1
62
256
6
ByLayer
370
18
48
1
60
0
100
AcDbSpline
70
4
71
3
72
12
73
8
40
0
40
0
40
0
40
0
40
0.323114842069759
40
0.323114842069759
40
0.710369726849214
40
0.710369726849214
40
1
40
1
40
1
40
1
41
1
10
51.3707837355526
20
28.8298421673876
30
0
41
1
10
51.6197532808069
20
29.1349493234313
30
0
41
1
10
51.8297530267465
20
29.4786189877501
30
0
41
1
10
52.1799182943716
20
30.2711323212067
30
0
41
1
10
52.3037626093562
20
30.739517281248
30
0
41
1
10
52.3721933057894
20
31.5621817175085
30
0
41
1
10
52.3537516696509
20
31.9236748147457
30
0
41
1
10
52.283446003799
20
32.2680736723693
30
0
0
SPLINE
5
197
100
AcDbEntity
8
1
62
256
6
ByLayer
370
18
48
1
60
0
100
AcDbSpline
70
4
71
3
72
8
73
4
40
0
40
0
40
0
40
0
40
1
40
1
40
1
40
1
41
1
10
59.9346782509414
20
41.2508769517958
30
0
41
1
10
60.1068220863313
20
41.2074847294582
30
0
41
1
10
60.2742733996662
20
41.1455232469213
30
0
41
1
10
60.4276134800508
20
41.0711797768906
30
0
0
SPLINE
5
198
100
AcDbEntity
8
1
62
256
6
ByLayer
370
18
48
1
60
0
100
AcDbSpline
70
4
71
3
72
16
73
12
40
0
40
0
40
0
40
0
40
0.125000000000001
40
0.125000000000001
40
0.250000000000001
40
0.250000000000001
40
0.500000000000001
40
0.500000000000001
40
0.75
40
0.75
40
1
40
1
40
1
40
1
41
1
10
53.1234652338803
20
26.0122502819614
30
0
41
1
10
53.2394739653913
20
26.4263452542428
30
0
41
1
10
53.4121205430117
20
26.8999884436473
30
0
41
1
10
53.9155940895865
20
27.9803183415377
30
0
41
1
10
54.2347728486048
20
28.5629501810573
30
0
41
1
10
55.286775944496
20
30.3074433490444
30
0
41
1
10
56.0841940457354
20
31.4291749026712
30
0
41
1
10
57.6400345130109
20
33.4787995950839
30
0
41
1
10
58.4188430136189
20
34.4669552223276
30
0
41
1
10
59.9765624509005
20
36.4390391778262
30
0
41
1
10
60.7370763232711
20
37.311840503509
30
0
41
1
10
61.4769928310576
20
38.1125433029334
30
0
0
SPLINE
5
199
100
AcDbEntity
8
1
62
256
6
ByLayer
370
18
48
1
60
0
100
AcDbSpline
70
4
71
2
72
6
73
3
40
0
40
0
40
0
40
1
40
1
40
1
41
1.02830968163241
10
45.0923721028197
20
37.0737232984305
30
0
41
0.915286811692243
10
45.6786626838186
20
36.7047060015949
30
0
41
0.941103849220746
10
46.782734172745
20
35.3563994598328
30
0
0
SPLINE
5
19A
100
AcDbEntity
8
1
62
256
6
ByLayer
370
18
48
1
60
0
100
AcDbSpline
70
4
71
3
72
8
73
4
40
0
40
0
40
0
40
0
40
1
40
1
40
1
40
1
41
1
10
43.0168579671085
20
22.6509755971734
30
0
41
1
10
43.1545927004279
20
22.5528337386466
30
0
41
1
10
43.3041060726618
20
22.4615342296208
30
0
41
1
10
43.4626484811082
20
22.3792802375428
30
0
0
SPLINE
5
19B
100
AcDbEntity
8
1
62
256
6
ByLayer
370
18
48
1
60
0
100
AcDbSpline
70
4
71
3
72
18
73
14
40
0
40
0
40
0
40
0
40
0.150186459400631
40
0.150186459400631
40
0.339592137529989
40
0.339592137529989
40
0.523539642595957
40
0.523539642595957
40
0.716564624108254
40
0.716564624108254
40
0.935518218901374
40
0.935518218901374
40
1
40
1
40
1
40
1
41
1
10
57.9515240562889
20
32.4952230824998
30
0
41
1
10
57.9487614196145
20
32.5006172353394
30
0
41
1
10
57.9476484182387
20
32.5084831364573
30
0
41
1
10
57.9492462522527
20
32.5312658748024
30
0
41
1
10
57.9530961312215
20
32.5478584425727
30
0
41
1
10
57.9658520296451
20
32.5854050263735
30
0
41
1
10
57.974755395674
20
32.6066762580874
30
0
41
1
10
57.9965902314667
20
32.6523239597335
30
0
41
1
10
58.0099388161567
20
32.6773323011068
30
0
41
1
10
58.0407037621777
20
32.7305022420594
30
0
41
1
10
58.0587717494799
20
32.7592596567659
30
0
41
1
10
58.0827886629598
20
32.7950376789884
30
0
41
1
10
58.0883347658405
20
32.8031410485395
30
0
41
1
10
58.0939174298241
20
32.811147550266
30
0
0
SPLINE
5
19C
100
AcDbEntity
8
1
62
256
6
ByLayer
370
18
48
1
60
0
100
AcDbSpline
70
4
71
3
72
13
73
9
40
0
40
0
40
0
40
0
40
0.287855605153639
40
0.287855605153639
40
0.605649284587146
40
0.605649284587146
40
0.605649284587146
40
1
40
1
40
1
40
1
41
1
10
50.3272866939053
20
35.0507345040157
30
0
41
1
10
50.0279032133131
20
35.2337392423988
30
0
41
1
10
49.6960767146836
20
35.3731743260149
30
0
41
1
10
48.9816044084507
20
35.565996961144
30
0
41
1
10
48.5889376505355
20
35.6121507857696
30
0
41
1
10
48.2007626241673
20
35.6067592327026
30
0
41
1
10
47.7213435264836
20
35.6001003460383
30
0
41
1
10
47.2350599896139
20
35.5142092766239
30
0
41
1
10
46.7827341801244
20
35.3563994508209
30
0
0
SPLINE
5
19D
100
AcDbEntity
8
1
62
256
6
ByLayer
370
18
48
1
60
0
100
AcDbSpline
70
4
71
3
72
10
73
6
40
0
40
0
40
0
40
0
40
0.560712447053337
40
0.560712447053337
40
1
40
1
40
1
40
1
41
1
10
45.2882014342704
20
26.0947626094487
30
0
41
1
10
45.4517811726155
20
26.148109021999
30
0
41
1
10
45.6263032658636
20
26.1887321084902
30
0
41
1
10
45.9369791587812
20
26.2262155040135
30
0
41
1
10
46.0758354047558
20
26.2308297140854
30
0
41
1
10
46.2082267320837
20
26.2227534844514
30
0
0
SPLINE
5
19E
100
AcDbEntity
8
1
62
256
6
ByLayer
370
18
48
1
60
0
100
AcDbSpline
70
4
71
2
72
6
73
3
40
0
40
0
40
0
40
1
40
1
40
1
41
1.02830968163241
10
52.4937702758855
20
26.5451427828035
30
0
41
1.02830968163241
10
52.6033920346883
20
26.1373639682793
30
0
41
1.02830968163241
10
52.7130137934912
20
25.7295851537552
30
0
0
SPLINE
5
19F
100
AcDbEntity
8
1
62
256
6
ByLayer
370
18
48
1
60
0
100
AcDbSpline
70
4
71
3
72
10
73
6
40
0
40
0
40
0
40
0
40
0.354797248100702
40
0.354797248100702
40
1
40
1
40
1
40
1
41
1
10
60.9792997930469
20
36.8941590248562
30
0
41
1
10
61.0196295260004
20
36.9525242563802
30
0
41
1
10
61.0596845521604
20
37.0115032072177
30
0
41
1
10
61.1714712408256
20
37.1790405136417
30
0
41
1
10
61.2424215899434
20
37.2888921297666
30
0
41
1
10
61.3113467735326
20
37.3990985923109
30
0
0
SPLINE
5
1A0
100
AcDbEntity
8
1
62
256
6
ByLayer
370
18
48
1
60
0
100
AcDbSpline
70
4
71
3
72
11
73
7
40
0
40
0
40
0
40
0
40
0.379837525225124
40
0.569756287837686
40
0.759675050450247
40
1
40
1
40
1
40
1
41
1.02830968163241
10
45.0923721028197
20
37.0737232984305
30
0
41
1.02565532568264
10
47.5160355274685
20
37.921240912066
30
0
41
1.02058995167321
10
50.7533380569522
20
38.7263073033005
30
0
41
1.0133636309892
10
56.3017598613595
20
39.3811829604715
30
0
41
1.01212905948733
10
57.949608990039
20
40.3946121475237
30
0
41
1.0095816818588
10
59.7077400890453
20
40.8206107548789
30
0
41
1.00899450091457
10
60.4276134713535
20
41.0711797738633
30
0
0
SPLINE
5
1A1
100
AcDbEntity
8
1
62
256
6
ByLayer
370
18
48
1
60
0
100
AcDbSpline
70
4
71
3
72
10
73
6
40
0
40
0
40
0
40
0
40
0.56071244705334
40
0.56071244705334
40
1
40
1
40
1
40
1
41
1
10
42.1148215095157
20
30.6089348324808
30
0
41
1
10
42.2194248155595
20
30.7461759499894
30
0
41
1
10
42.31633253984
20
30.897206437047
30
0
41
1
10
42.4573688596302
20
31.1760042251412
30
0
41
1
10
42.5094364195774
20
31.3040764153568
30
0
41
1
10
42.5478263314973
20
31.4297183626893
30
0
0
SPLINE
5
1A2
100
AcDbEntity
8
1
62
256
6
ByLayer
370
18
48
1
60
0
100
AcDbSpline
70
4
71
3
72
8
73
4
40
0
40
0
40
0
40
0
40
1
40
1
40
1
40
1
41
1
10
61.5558286464976
20
39.4662797375828
30
0
41
1
10
61.57527926039
20
39.2948263062027
30
0
41
1
10
61.5778127564725
20
39.1149822932727
30
0
41
1
10
61.5606785654269
20
38.9378713778226
30
0
0
SPLINE
5
1A3
100
AcDbEntity
8
1
62
256
6
ByLayer
370
18
48
1
60
0
100
AcDbSpline
70
4
71
3
72
8
73
4
40
0
40
0
40
0
40
0
40
1
40
1
40
1
40
1
41
1
10
59.1323772563694
20
41.447787979561
30
0
41
1
10
59.3985101795536
20
41.3840114297507
30
0
41
1
10
59.6663295219299
20
41.3185195001734
30
0
41
1
10
59.9346782509414
20
41.2508769517958
30
0
0
SPLINE
5
1A4
100
AcDbEntity
8
1
62
256
6
ByLayer
370
18
48
1
60
0
100
AcDbSpline
70
4
71
3
72
12
73
8
40
0
40
0
40
0
40
0
40
0.402184145094033
40
0.402184145094033
40
0.696777465474665
40
0.696777465474665
40
1
40
1
40
1
40
1
41
1
10
61.4904325136425
20
39.7604947207122
30
0
41
1
10
61.5027543701681
20
39.7233800645766
30
0
41
1
10
61.5139401903045
20
39.6845062526585
30
0
41
1
10
61.5306153227495
20
39.6160559523298
30
0
41
1
10
61.5368831324529
20
39.5865530789259
30
0
41
1
10
61.5477337013753
20
39.5267460161947
30
0
41
1
10
61.5523033983221
20
39.4962040708085
30
0
41
1
10
61.5558286464976
20
39.4662797375828
30
0
0
SPLINE
5
1A5
100
AcDbEntity
8
1
62
256
6
ByLayer
370
18
48
1
60
0
100
AcDbSpline
70
4
71
3
72
8
73
4
40
0
40
0
40
0
40
0
40
1
40
1
40
1
40
1
41
1
10
38.2106038468259
20
29.4879315750463
30
0
41
1
10
38.1588579897622
20
29.6593282017307
30
0
41
1
10
38.1176030987376
20
29.8393989085159
30
0
41
1
10
38.0880832389426
20
30.0246658208443
30
0
0
SPLINE
5
1A6
100
AcDbEntity
8
1
62
256
6
ByLayer
370
18
48
1
60
0
100
AcDbSpline
70
4
71
1
72
4
73
2
40
0
40
0
40
1
40
1
41
1
10
45.0923721028197
20
37.0737232984305
30
0
41
1
10
44.45729499358
20
37.473447335843
30
0
0
SPLINE
5
1A7
100
AcDbEntity
8
1
62
256
6
ByLayer
370
18
48
1
60
0
100
AcDbSpline
70
4
71
3
72
8
73
4
40
0
40
0
40
0
40
0
40
1
40
1
40
1
40
1
41
1
10
53.1234652338802
20
26.0122502819614
30
0
41
1
10
52.9861696698834
20
25.91764071933
30
0
41
1
10
52.8492286246472
20
25.8233207937556
30
0
41
1
10
52.7130137934912
20
25.7295851537552
30
0
0
SPLINE
5
1A8
100
AcDbEntity
8
1
62
256
6
ByLayer
370
18
48
1
60
0
100
AcDbSpline
70
4
71
3
72
16
73
12
40
0
40
0
40
0
40
0
40
0.25
40
0.25
40
0.500000000000001
40
0.500000000000001
40
0.750000000000001
40
0.750000000000001
40
0.875
40
0.875
40
1
40
1
40
1
40
1
41
1
10
59.1323772563694
20
41.447787979561
30
0
41
1
10
58.1043527636722
20
41.0545642197634
30
0
41
1
10
57.0139339230913
20
40.6657290605051
30
0
41
1
10
54.5917359264253
20
39.9050351837134
30
0
41
1
10
53.3788040005758
20
39.5251468012243
30
0
41
1
10
50.8858549032173
20
38.7843771258665
30
0
41
1
10
49.5400936318826
20
38.4222156280505
30
0
41
1
10
47.5794526544258
20
38.0178353114626
30
0
41
1
10
46.9272704470004
20
37.9059803911637
30
0
41
1
10
45.7787691770524
20
37.7707783575075
30
0
41
1
10
45.2805975992646
20
37.7477204195362
30
0
41
1
10
44.8677464339715
20
37.7561124640508
30
0
0
SPLINE
5
1A9
100
AcDbEntity
8
1
62
256
6
ByLayer
370
18
48
1
60
0
100
AcDbSpline
70
4
71
3
72
8
73
4
40
0
40
0
40
0
40
0
40
1
40
1
40
1
40
1
41
1
10
42.1148215095157
20
30.6089348324808
30
0
41
1
10
41.8819204688906
20
30.3033651493303
30
0
41
1
10
41.6040533541191
20
30.0484790246304
30
0
41
1
10
41.3173391383532
20
29.841888204019
30
0
0
SPLINE
5
1AA
100
AcDbEntity
8
1
62
256
6
ByLayer
370
18
48
1
60
0
100
AcDbSpline
70
4
71
3
72
18
73
14
40
0
40
0
40
0
40
0
40
0.0739908643221353
40
0.0739908643221353
40
0.163840977644154
40
0.163840977644154
40
0.28512684831332
40
0.28512684831332
40
0.443670962440908
40
0.443670962440908
40
0.655194408808952
40
0.655194408808952
40
1
40
1
40
1
40
1
41
1
10
38.0880832389443
20
30.0246658208434
30
0
41
1
10
38.0780844517348
20
30.0874183015864
30
0
41
1
10
38.0611137305894
20
30.1623052593954
30
0
41
1
10
38.0185332646988
20
30.3385429218881
30
0
41
1
10
37.991502372175
20
30.444834548424
30
0
41
1
10
37.9333549589196
20
30.6957700946985
30
0
41
1
10
37.9030970299831
20
30.8454951658963
30
0
41
1
10
37.8520584314464
20
31.1786720427713
30
0
41
1
10
37.8358055887953
20
31.3644218003431
30
0
41
1
10
37.8276502790232
20
31.7627280273713
30
0
41
1
10
37.8445710764419
20
31.9702337700972
30
0
41
1
10
37.9285106785686
20
32.4472467172588
30
0
41
1
10
38.0173726013231
20
32.6868293045737
30
0
41
1
10
38.1598511370377
20
32.9073773681602
30
0
0
SPLINE
5
1AB
100
AcDbEntity
8
1
62
256
6
ByLayer
370
18
48
1
60
0
100
AcDbSpline
70
4
71
3
72
8
73
4
40
0
40
0
40
0
40
0
40
1
40
1
40
1
40
1
41
1
10
46.2082267320837
20
26.2227534844514
30
0
41
1
10
46.2435001552343
20
26.2206017100785
30
0
41
1
10
46.2786702892271
20
26.2177226040793
30
0
41
1
10
46.3136831766228
20
26.2141201424998
30
0
0
SPLINE
5
1AC
100
AcDbEntity
8
1
62
256
6
ByLayer
370
18
48
1
60
0
100
AcDbSpline
70
4
71
3
72
12
73
8
40
0
40
0
40
0
40
0
40
0.412488217320858
40
0.412488217320858
40
0.702829232095117
40
0.702829232095117
40
1
40
1
40
1
40
1
41
1
10
60.4276134800508
20
41.0711797768906
30
0
41
1
10
60.4638999874882
20
41.053351077753
30
0
41
1
10
60.5007869869392
20
41.033082973145
30
0
41
1
10
60.5617612619082
20
40.9959869535247
30
0
41
1
10
60.5866616128404
20
40.9797651273563
30
0
41
1
10
60.635502849762
20
40.9457962961167
30
0
41
1
10
60.6595529294227
20
40.927921138466
30
0
41
1
10
60.6825707440208
20
40.9096880877048
30
0
0
SPLINE
5
1AD
100
AcDbEntity
8
1
62
256
6
ByLayer
370
18
48
1
60
0
100
AcDbSpline
70
4
71
3
72
11
73
7
40
0
40
0
40
0
40
0
40
0.379837525225127
40
0.56975628783769
40
0.759675050450253
40
1
40
1
40
1
40
1
41
1.02830968163241
10
52.4937702758855
20
26.5451427828035
30
0
41
1.02565532568264
10
54.1090013669386
20
28.5426653977653
30
0
41
1.02058995167321
10
55.9572215889514
20
31.323718565431
30
0
41
1.0133636309892
10
58.4759220616715
20
36.288410318766
30
0
41
1.01212905948733
10
60.0301601706
20
37.4350023401261
30
0
41
1.0095816818588
10
61.0564976192404
20
38.9019864732686
30
0
41
1.00899450091457
10
61.5558286404648
20
39.4662797307652
30
0
0
SPLINE
5
1AE
100
AcDbEntity
8
1
62
256
6
ByLayer
370
18
48
1
60
0
100
AcDbSpline
70
4
71
3
72
8
73
4
40
0
40
0
40
0
40
0
40
1
40
1
40
1
40
1
41
1
10
45.7464352578791
20
34.825764181508
30
0
41
1
10
46.0672745448228
20
35.049521411473
30
0
41
1
10
46.4135825146183
20
35.22503040475
30
0
41
1
10
46.782734177876
20
35.3563994500208
30
0
0
SPLINE
5
1AF
100
AcDbEntity
8
1
62
256
6
ByLayer
370
18
48
1
60
0
100
AcDbSpline
70
4
71
3
72
12
73
8
40
0
40
0
40
0
40
0
40
0.5
40
0.5
40
0.75
40
0.75
40
1
40
1
40
1
40
1
41
1
10
46.238998805757
20
21.4146898057887
30
0
41
1
10
45.8512097084163
20
21.3477911300837
30
0
41
1
10
45.467448891678
20
21.3923855471249
30
0
41
1
10
44.7218387086236
20
21.6510047710525
30
0
41
1
10
44.4532273279564
20
21.774260064687
30
0
41
1
10
43.9152548930469
20
22.0852649600444
30
0
41
1
10
43.6474666936126
20
22.2833939952687
30
0
41
1
10
43.4626484811079
20
22.3792802375448
30
0
0
SPLINE
5
1B0
100
AcDbEntity
8
1
62
256
6
ByLayer
370
18
48
1
60
0
100
AcDbSpline
70
4
71
3
72
8
73
4
40
0
40
0
40
0
40
0
40
1
40
1
40
1
40
1
41
1
10
48.851134463134
20
26.8752491120072
30
0
41
1
10
48.1061326824252
20
26.3556757880593
30
0
41
1
10
47.1944532479296
20
26.1234980722212
30
0
41
1
10
46.3136831766229
20
26.2141201424998
30
0
0
SPLINE
5
1B1
100
AcDbEntity
8
1
62
256
6
ByLayer
370
18
48
1
60
0
100
AcDbSpline
70
4
71
2
72
6
73
3
40
0
40
0
40
0
40
1
40
1
40
1
41
0.941103849192081
10
51.3707837426998
20
28.8298421554952
30
0
41
0.915286811754989
10
52.2913690125317
20
27.2980493966902
30
0
41
1.02830968163241
10
52.4937702758855
20
26.5451427828035
30
0
0
SPLINE
5
1B2
100
AcDbEntity
8
1
62
256
6
ByLayer
370
18
48
1
60
0
100
AcDbSpline
70
4
71
3
72
10
73
6
40
0
40
0
40
0
40
0
40
0.701991234620361
40
0.701991234620361
40
1
40
1
40
1
40
1
41
1
10
52.7782663648348
20
38.3004425165378
30
0
41
1
10
52.7456372439135
20
38.3042174648933
30
0
41
1
10
52.7118479828998
20
38.3062082268378
30
0
41
1
10
52.6660020605548
20
38.3065079763491
30
0
41
1
10
52.6524751902738
20
38.306285251409
30
0
41
1
10
52.6393388396181
20
38.3057788162762
30
0
0
SPLINE
5
1B3
100
AcDbEntity
8
1
62
256
6
ByLayer
370
18
48
1
60
0
100
AcDbSpline
70
4
71
3
72
8
73
4
40
0
40
0
40
0
40
0
40
1
40
1
40
1
40
1
41
1
10
45.2882014342704
20
26.0947626094487
30
0
41
1
10
44.9239883637028
20
25.9759859142706
30
0
41
1
10
44.5935894097973
20
25.7958269809775
30
0
41
1
10
44.3068751940314
20
25.5892361603661
30
0
0
SPLINE
5
1B4
100
AcDbEntity
8
1
62
256
6
ByLayer
370
18
48
1
60
0
100
AcDbSpline
70
4
71
3
72
8
73
4
40
0
40
0
40
0
40
0
40
1
40
1
40
1
40
1
41
1
10
42.5763610715147
20
31.5305070975561
30
0
41
1
10
42.5675710040572
20
31.4968072731876
30
0
41
1
10
42.5580546722443
20
31.4631935280433
30
0
41
1
10
42.5478263314973
20
31.4297183626893
30
0
0
SPLINE
5
1B5
100
AcDbEntity
8
1
62
256
6
ByLayer
370
18
48
1
60
0
100
AcDbSpline
70
4
71
3
72
18
73
14
40
0
40
0
40
0
40
0
40
0.0367931396620214
40
0.0367931396620214
40
0.291979817817011
40
0.291979817817011
40
0.505668143229398
40
0.505668143229398
40
0.721016338466067
40
0.721016338466067
40
0.911566759950592
40
0.911566759950592
40
1
40
1
40
1
40
1
41
1
10
53.0051924833174
20
40.0499217748639
30
0
41
1
10
52.9997864644523
20
40.0485012549509
30
0
41
1
10
52.9943591522732
20
40.0470981234338
30
0
41
1
10
52.9515099462337
20
40.036204901398
30
0
41
1
10
52.9127644959427
20
40.0274850879205
30
0
41
1
10
52.8447411059768
20
40.0146062632905
30
0
41
1
10
52.8142018362766
20
40.0098096724126
30
0
41
1
10
52.7594591822569
20
40.0035660974273
30
0
41
1
10
52.7345189667944
20
40.0020743357263
30
0
41
1
10
52.6977103299397
20
40.0029306255803
30
0
41
1
10
52.6841812762174
20
40.0048705422579
30
0
41
1
10
52.6714161959297
20
40.0096692575521
30
0
41
1
10
52.6683323292517
20
40.011500904363
30
0
41
1
10
52.6662539580366
20
40.0135852182856
30
0
0
SPLINE
5
1B6
100
AcDbEntity
8
1
62
256
6
ByLayer
370
18
48
1
60
0
100
AcDbSpline
70
4
71
3
72
8
73
4
40
0
40
0
40
0
40
0
40
1
40
1
40
1
40
1
41
1
10
44.8677464339715
20
37.7561124640508
30
0
41
1
10
44.7304508699739
20
37.6615029014189
30
0
41
1
10
44.5935098247368
20
37.5671829758439
30
0
41
1
10
44.45729499358
20
37.473447335843
30
0
0
SPLINE
5
1B7
100
AcDbEntity
8
1
62
256
6
ByLayer
370
18
48
1
60
0
100
AcDbSpline
70
4
71
3
72
8
73
4
40
0
40
0
40
0
40
0
40
1
40
1
40
1
40
1
41
1
10
50.5181947313653
20
28.0378772656773
30
0
41
1
10
50.8390340182038
20
28.261634495569
30
0
41
1
10
51.1221402537573
20
28.5270487379002
30
0
41
1
10
51.3707837337935
20
28.8298421652453
30
0
0
SPLINE
5
1B8
100
AcDbEntity
8
1
62
256
6
ByLayer
370
18
48
1
60
0
100
AcDbSpline
70
4
71
3
72
8
73
4
40
0
40
0
40
0
40
0
40
1
40
1
40
1
40
1
41
1
10
61.4769928310576
20
38.1125433029334
30
0
41
1
10
61.5058608129887
20
38.3862790689199
30
0
41
1
10
61.5339687016706
20
38.6617796493702
30
0
41
1
10
61.5606785654269
20
38.9378713778226
30
0
0
SPLINE
5
1B9
100
AcDbEntity
8
1
62
256
6
ByLayer
370
18
48
1
60
0
100
AcDbSpline
70
4
71
3
72
11
73
7
40
0
40
0
40
0
40
0
40
0.267973217480478
40
0.487581252236334
40
0.707189286992191
40
1
40
1
40
1
40
1
41
1.02490899992583
10
52.2834459591339
20
32.2680736397583
30
0
41
1.02299818101095
10
53.3550003649719
20
33.0504377075877
30
0
41
1.01918124210004
10
55.2024386487115
20
34.4375674210482
30
0
41
1.0133636309892
10
58.093118474391
20
36.8945246682609
30
0
41
1.01210337903089
10
59.6776062071824
20
38.096721997661
30
0
41
1.00942740489664
10
60.9608338573242
20
39.2368441543178
30
0
41
1.00890738029382
10
61.5001437610147
20
39.7700888301411
30
0
0
SPLINE
5
1BA
100
AcDbEntity
8
1
62
256
6
ByLayer
370
18
48
1
60
0
100
AcDbSpline
70
4
71
2
72
6
73
3
40
0
40
0
40
0
40
1
40
1
40
1
41
1.00890738029382
10
61.5001437610147
20
39.7700888301411
30
0
41
1.00890738029382
10
61.097706215058
20
40.3425612206329
30
0
41
1.00890738029382
10
60.6952686691013
20
40.9150336111246
30
0
0
SPLINE
5
1BB
100
AcDbEntity
8
1
62
256
6
ByLayer
370
18
48
1
60
0
100
AcDbSpline
70
4
71
3
72
8
73
4
40
0
40
0
40
0
40
0
40
1
40
1
40
1
40
1
41
1
10
42.5763610715147
20
31.530507097556
30
0
41
1
10
42.7998255168233
20
32.3872368775995
30
0
41
1
10
43.3193741100629
20
33.1331021494846
30
0
41
1
10
44.0793749896477
20
33.6631360278379
30
0
0
SPLINE
5
1BC
100
AcDbEntity
8
1
62
256
6
ByLayer
370
18
48
1
60
0
100
AcDbSpline
70
4
71
3
72
11
73
7
40
0
40
0
40
0
40
0
40
0.267973217054011
40
0.487581251937808
40
0.707189286821604
40
1
40
1
40
1
40
1
41
1.02490899991337
10
50.3272866549225
20
35.0507344783358
30
0
41
1.02299818100183
10
51.4355871255401
20
35.7808268087163
30
0
41
1.01918124209525
10
53.3877347904408
20
37.0190061272064
30
0
41
1.0133636309892
10
56.7355756692342
20
38.8256461122489
30
0
41
1.01210337903089
10
58.4430822201822
20
39.8528476500973
30
0
41
1.00942740489664
10
59.9896422272903
20
40.6183762694398
30
0
41
1.00890738029382
10
60.6952686691013
20
40.9150336111246
30
0
0
SPLINE
5
1BD
100
AcDbEntity
8
1
62
256
6
ByLayer
370
18
48
1
60
0
100
AcDbSpline
70
4
71
3
72
8
73
4
40
0
40
0
40
0
40
0
40
1
40
1
40
1
40
1
41
1
10
31.6036219161947
20
34.4478201993454
30
0
41
1
10
32.4173232517136
20
35.7620133616782
30
0
41
1
10
33.940709230515
20
36.5867845058198
30
0
41
1
10
35.4904148842672
20
36.4269959511668
30
0
0
SPLINE
5
1BE
100
AcDbEntity
8
1
62
256
6
ByLayer
370
18
48
1
60
0
100
AcDbSpline
70
4
71
3
72
8
73
4
40
0
40
0
40
0
40
0
40
1
40
1
40
1
40
1
41
1
10
22.92079238
20
30.8996141556632
30
0
41
1
10
22.9876698367429
20
31.1573850932431
30
0
41
1
10
23.0547179109423
20
31.4152349416224
30
0
41
1
10
23.121914163947
20
31.6731305073564
30
0
0
SPLINE
5
1BF
100
AcDbEntity
8
1
62
256
6
ByLayer
370
18
48
1
60
0
100
AcDbSpline
70
4
71
3
72
12
73
8
40
0
40
0
40
0
40
0
40
0.323508446938435
40
0.323508446938435
40
0.661742905177771
40
0.661742905177771
40
1
40
1
40
1
40
1
41
1
10
31.4852216790223
20
34.2512732257493
30
0
41
1
10
31.4977304043991
20
34.2726244846963
30
0
41
1
10
31.5103235902931
20
34.293925881028
30
0
41
1
10
31.5362544795371
20
34.3373944567009
30
0
41
1
10
31.5496001967519
20
34.3595572750073
30
0
41
1
10
31.5764743345205
20
34.403772135692
30
0
41
1
10
31.5900029919365
20
34.4258245402861
30
0
41
1
10
31.6036219145061
20
34.4478201966182
30
0
0
SPLINE
5
1C0
100
AcDbEntity
8
1
62
256
6
ByLayer
370
18
48
1
60
0
100
AcDbSpline
70
4
71
2
72
11
73
8
40
0
40
0
40
0
40
0.0079111861631862
40
0.30553783031423
40
0.503955593081593
40
0.702373355848956
40
0.801582237232637
40
1
40
1
40
1
41
1.02613459695995
10
45.1132074776488
20
14.5003219732958
30
0
41
1.02613459695995
10
45.0916417056055
20
14.5021365415843
30
0
41
1.02613459695995
10
44.2562702837497
20
14.5797761793382
30
0
41
1.02613459695995
10
42.8825099411022
20
15.1546667799841
30
0
41
1.02613459695995
10
41.6459987094328
20
16.0695035509884
30
0
41
1.02613459695995
10
41.2585523859491
20
16.4714719200211
30
0
41
1.02613459695995
10
40.8282311015515
20
16.9498892240549
30
0
41
1.02613459695995
10
40.5737738391822
20
17.3117844975401
30
0
0
SPLINE
5
1C1
100
AcDbEntity
8
1
62
256
6
ByLayer
370
18
48
1
60
0
100
AcDbSpline
70
4
71
3
72
8
73
4
40
0
40
0
40
0
40
0
40
1
40
1
40
1
40
1
41
1
10
23.1219141639471
20
31.6731305073564
30
0
41
1
10
23.366872042097
20
31.2771209679198
30
0
41
1
10
23.6291197467588
20
30.887011030072
30
0
41
1
10
23.8962856159808
20
30.5006323764651
30
0
0
SPLINE
5
1C2
100
AcDbEntity
8
1
62
256
6
ByLayer
370
18
48
1
60
0
100
AcDbSpline
70
4
71
2
72
11
73
8
40
0
40
0
40
0
40
0.0353878362392788
40
0.324771485367495
40
0.517693918119639
40
0.710616350871784
40
0.807077567247856
40
1
40
1
40
1
41
1
10
45.3427272594344
20
14.5388000101173
30
0
41
1
10
45.2445764066614
20
14.5439058814797
30
0
41
1
10
44.3313250332941
20
14.6287837022329
30
0
41
1
10
42.9575646906466
20
15.2036743028787
30
0
41
1
10
41.7210534589771
20
16.118511073883
30
0
41
1
10
41.3336071354935
20
16.5204794429158
30
0
41
1
10
40.9032858510959
20
16.9988967469496
30
0
41
1
10
40.6488285887266
20
17.3607920204348
30
0
0
SPLINE
5
1C3
100
AcDbEntity
8
1
62
256
6
ByLayer
370
18
48
1
60
0
100
AcDbSpline
70
4
71
3
72
15
73
11
40
0
40
0
40
0
40
0
40
0.28103962914102
40
0.28103962914102
40
0.562712048900373
40
0.562712048900373
40
0.835250831097508
40
0.835250831097508
40
0.835250831097508
40
1
40
1
40
1
40
1
41
1
10
19.9115068236138
20
-29.9850116132027
30
0
41
1
10
19.9505361776874
20
-30.1286017607468
30
0
41
1
10
20.0674973665296
20
-30.2617723075542
30
0
41
1
10
20.4463314652044
20
-30.489895050164
30
0
41
1
10
20.7141452574929
20
-30.5880850478212
30
0
41
1
10
21.3538238361363
20
-30.741378992888
30
0
41
1
10
21.7310620960588
20
-30.8001569918553
30
0
41
1
10
22.1388781334302
20
-30.8415901871074
30
0
41
1
10
22.3877509516846
20
-30.8668751075782
30
0
41
1
10
22.6513106929054
20
-30.88619079412
30
0
41
1
10
22.92079238
20
-30.8996141556632
30
0
0
SPLINE
5
1C4
100
AcDbEntity
8
1
62
256
6
ByLayer
370
18
48
1
60
0
100
AcDbSpline
70
4
71
3
72
12
73
8
40
0
40
0
40
0
40
0
40
0.319932024559219
40
0.319932024559219
40
0.659954131885612
40
0.659954131885612
40
1
40
1
40
1
40
1
41
1
10
31.3704152775707
20
34.0496139842636
30
0
41
1
10
31.3823917297869
20
34.0712721734853
30
0
41
1
10
31.3944541741194
20
34.09288238284
30
0
41
1
10
31.4195125385601
20
34.1373588508062
30
0
41
1
10
31.4325197315633
20
34.1602191605634
30
0
41
1
10
31.4587266174013
20
34.2058293666309
30
0
41
1
10
31.4719265524371
20
34.2285796533774
30
0
41
1
10
31.4852216782177
20
34.2512732264337
30
0
0
SPLINE
5
1C5
100
AcDbEntity
8
1
62
256
6
ByLayer
370
18
48
1
60
0
100
AcDbSpline
70
4
71
3
72
16
73
12
40
0
40
0
40
0
40
0
40
0.113316224833593
40
0.113316224833593
40
0.252990411571579
40
0.252990411571579
40
0.473309013928354
40
0.473309013928354
40
0.896716357718913
40
0.896716357718913
40
1
40
1
40
1
40
1
41
1
10
10.5386751345948
20
-9.34922131452512
30
0
41
1
10
10.5105874404281
20
-9.34922131452512
30
0
41
1
10
10.482150642237
20
-9.35431657338984
30
0
41
1
10
10.4232029654275
20
-9.37467777536568
30
0
41
1
10
10.3927526278712
20
-9.39213979793414
30
0
41
1
10
10.3230856363398
20
-9.44503542604386
30
0
41
1
10
10.2871733492349
20
-9.48569380431883
30
0
41
1
10
10.1985362549164
20
-9.6110592336681
30
0
41
1
10
10.1576291602469
20
-9.70465429390072
30
0
41
1
10
10.1190965262402
20
-9.82244573862477
30
0
41
1
10
10.112102816203
20
-9.84586944318031
30
0
41
1
10
10.1056624327025
20
-9.86941261896618
30
0
0
SPLINE
5
1C6
100
AcDbEntity
8
1
62
256
6
ByLayer
370
18
48
1
60
0
100
AcDbSpline
70
4
71
3
72
15
73
11
40
0
40
0
40
0
40
0
40
0.287801217906052
40
0.287801217906052
40
0.580633313242744
40
0.580633313242744
40
0.871071532394761
40
0.871071532394761
40
0.871071532394761
40
1
40
1
40
1
40
1
41
1
10
48.7653074305205
20
17.5432969876193
30
0
41
1
10
48.6578408672349
20
17.1168707976617
30
0
41
1
10
48.4768707834916
20
16.7035534130225
30
0
41
1
10
47.9909775006234
20
15.9641369391289
30
0
41
1
10
47.6766923414218
20
15.6300801468645
30
0
41
1
10
46.9672270035284
20
15.0943247288842
30
0
41
1
10
46.5648452655463
20
14.8835518860551
30
0
41
1
10
46.1450384881725
20
14.739308728546
30
0
41
1
10
45.9568332910282
20
14.6746425217126
30
0
41
1
10
45.7638154318809
20
14.6225086693238
30
0
41
1
10
45.5686532132206
20
14.5823903202928
30
0
0
SPLINE
5
1C7
100
AcDbEntity
8
1
62
256
6
ByLayer
370
18
48
1
60
0
100
AcDbSpline
70
4
71
2
72
6
73
3
40
0
40
0
40
0
40
1
40
1
40
1
41
1
10
40.723883338271
20
17.4097995433294
30
0
41
1
10
40.6863559634988
20
17.3852957818821
30
0
41
1
10
40.6488285887266
20
17.3607920204348
30
0
0
SPLINE
5
1C8
100
AcDbEntity
8
1
62
256
6
ByLayer
370
18
48
1
60
0
100
AcDbSpline
70
4
71
2
72
9
73
6
40
0
40
0
40
0
40
0.464691154464053
40
0.464691154464053
40
0.929382308928107
40
1
40
1
40
1
41
1
10
40.723883338271
20
17.4097995433294
30
0
41
1
10
41.1056489612266
20
17.6590760730754
30
0
41
1
10
41.2991483208105
20
18.1205319549128
30
0
41
1
10
41.5092473011363
20
18.621574492975
30
0
41
1
10
41.4589433141947
20
19.3939139500201
30
0
41
1
10
41.4466126649149
20
19.4971656885624
30
0
0
SPLINE
5
1C9
100
AcDbEntity
8
1
62
256
6
ByLayer
370
18
48
1
60
0
100
AcDbSpline
70
4
71
3
72
8
73
4
40
0
40
0
40
0
40
0
40
1
40
1
40
1
40
1
41
1
10
23.8962856159808
20
-31.0760760071151
30
0
41
1
10
23.5776018829067
20
-31.0760760071151
30
0
41
1
10
23.2659394678548
20
-31.0688931604307
30
0
41
1
10
22.9609847588647
20
-31.0544615075761
30
0
0
SPLINE
5
1CA
100
AcDbEntity
8
1
62
256
6
ByLayer
370
18
48
1
60
0
100
AcDbSpline
70
4
71
2
72
11
73
8
40
0
40
0
40
0
40
0.0353878362392728
40
0.324771485367491
40
0.517693918119636
40
0.710616350871782
40
0.807077567247855
40
1
40
1
40
1
41
1
10
31.4852216790677
20
34.2512732262701
30
0
41
1
10
31.4584911884151
20
34.1547827484757
30
0
41
1
10
31.2444690565918
20
33.2449983180792
30
0
41
1
10
31.3377106029027
20
31.7330605731452
30
0
41
1
10
31.7905593144036
20
30.2447619141073
30
0
41
1
10
32.0395105915066
20
29.7414468189818
30
0
41
1
10
32.3456884873
20
29.1721849228134
30
0
41
1
10
32.6000776695932
20
28.8102398302696
30
0
0
SPLINE
5
1CB
100
AcDbEntity
8
1
62
256
6
ByLayer
370
18
48
1
60
0
100
AcDbSpline
70
4
71
3
72
14
73
10
40
0
40
0
40
0
40
0
40
0.264682281129105
40
0.264682281129105
40
0.529206797196864
40
0.529206797196864
40
0.796215005013496
40
0.796215005013496
40
1
40
1
40
1
40
1
41
1
10
22.92079238
20
30.8996141556632
30
0
41
1
10
22.4918347090298
20
30.8782470120691
30
0
41
1
10
22.0760939855286
20
30.8416690423415
30
0
41
1
10
21.3399746287024
20
30.7377355602684
30
0
41
1
10
21.0095242838747
20
30.6687823920308
30
0
41
1
10
20.4724242383792
20
30.4990243000185
30
0
41
1
10
20.2597267854547
20
30.3955004707743
30
0
41
1
10
20.0093210835962
20
30.1888506958789
30
0
41
1
10
19.9399854717531
20
30.0897854016817
30
0
41
1
10
19.9115068236138
20
29.9850116132027
30
0
0
SPLINE
5
1CC
100
AcDbEntity
8
1
62
256
6
ByLayer
370
18
48
1
60
0
100
AcDbSpline
70
4
71
3
72
16
73
12
40
0
40
0
40
0
40
0
40
0.463423600832209
40
0.463423600832209
40
0.646243952932815
40
0.646243952932815
40
0.831657283224495
40
0.831657283224495
40
0.947504344290837
40
0.947504344290837
40
1
40
1
40
1
40
1
41
1
10
13.8943375672974
20
-9.86941261896621
30
0
41
1
10
13.8656609252734
20
-9.76458357826289
30
0
41
1
10
13.8263500123909
20
-9.66039292789938
30
0
41
1
10
13.7453819366532
20
-9.52957658281042
30
0
41
1
10
13.7190869808859
20
-9.49380155568073
30
0
41
1
10
13.6579862203325
20
-9.42941539787637
30
0
41
1
10
13.6222599905468
20
-9.40014891155712
30
0
41
1
10
13.556648346355
20
-9.36662118733784
30
0
41
1
10
13.5289597975987
20
-9.35698328824239
30
0
41
1
10
13.4876776374751
20
-9.35029954873104
30
0
41
1
10
13.4744789968601
20
-9.34922131452501
30
0
41
1
10
13.4613248654052
20
-9.34922131452501
30
0
0
SPLINE
5
1CD
100
AcDbEntity
8
1
62
256
6
ByLayer
370
18
48
1
60
0
100
AcDbSpline
70
4
71
2
72
11
73
8
40
0
40
0
40
0
40
0.0079111859457818
40
0.305537830162047
40
0.503955592972891
40
0.702373355783735
40
0.801582237189156
40
1
40
1
40
1
41
1.02613459695995
10
31.3704152775793
20
34.0496139844557
30
0
41
1.02613459695995
10
31.3651851294689
20
34.0281909262999
30
0
41
1.02613459695995
10
31.1694143070474
20
33.1959907951846
30
0
41
1.02613459695995
10
31.2626558533584
20
31.6840530502506
30
0
41
1.02613459695995
10
31.7155045648593
20
30.1957543912127
30
0
41
1.02613459695995
10
31.9644558419622
20
29.6924392960872
30
0
41
1.02613459695995
10
32.2706337377556
20
29.1231773999188
30
0
41
1.02613459695995
10
32.5250229200488
20
28.761232307375
30
0
0
SPLINE
5
1CE
100
AcDbEntity
8
1
62
256
6
ByLayer
370
18
48
1
60
0
100
AcDbSpline
70
4
71
2
72
8
73
5
40
0
40
0
40
0
40
0.451218356373187
40
0.451218356373187
40
1
40
1
40
1
41
1
10
38.7067551103774
20
17.2526986373937
30
0
41
1
10
39.2145466248557
20
17.0585465853534
30
0
41
1
10
39.6755851558669
20
17.0604150474571
30
0
41
1
10
40.1920082162267
20
17.0625079677942
30
0
41
1
10
40.5737738391823
20
17.3117844975401
30
0
0
SPLINE
5
1CF
100
AcDbEntity
8
1
62
256
6
ByLayer
370
18
48
1
60
0
100
AcDbSpline
70
4
71
3
72
10
73
6
40
0
40
0
40
0
40
0
40
0.5
40
0.5
40
1
40
1
40
1
40
1
41
1
10
45.1132074776488
20
14.5003219732958
30
0
41
1
10
43.9095345096297
20
14.3137827221674
30
0
41
1
10
42.680541691581
20
14.5322695517066
30
0
41
1
10
40.4721418359059
20
15.5510517216859
30
0
41
1
10
39.4163937044902
20
16.2436884017815
30
0
41
1
10
38.7066246016709
20
17.252986950924
30
0
0
SPLINE
5
1D0
100
AcDbEntity
8
1
62
256
6
ByLayer
370
18
48
1
60
0
100
AcDbSpline
70
4
71
3
72
42
73
38
40
0
40
0
40
0
40
0
40
0.0001456802576638
40
0.0001456802576638
40
0.0001937815699206
40
0.0001937815699206
40
0.0002315127292614
40
0.0002315127292614
40
0.0002608509618718
40
0.0002608509618718
40
0.0002901053053442
40
0.0002901053053442
40
0.0003386247186349
40
0.0003386247186349
40
0.0004943089344873
40
0.0004943089344873
40
0.0012382892711162
40
0.0012382892711162
40
0.0042003671442422
40
0.0042003671442422
40
0.0160477457898784
40
0.0160477457898784
40
0.0634548948040144
40
0.0634548948040144
40
0.254713506915144
40
0.254713506915144
40
0.445726490753138
40
0.445726490753138
40
0.588325143689825
40
0.588325143689825
40
0.775840224355502
40
0.775840224355502
40
0.886031978321602
40
0.886031978321602
40
0.994826734431044
40
0.994826734431044
40
1
40
1
40
1
40
1
41
1
10
41.4464893751853
20
19.4971927380862
30
0
41
1
10
41.4464593449633
20
19.4972727626133
30
0
41
1
10
41.4464307177943
20
19.4973537073096
30
0
41
1
10
41.4464086885775
20
19.4974574128986
30
0
41
1
10
41.4464046539555
20
19.4974830573655
30
0
41
1
10
41.4464033134216
20
19.497525811887
30
0
41
1
10
41.4464048313693
20
19.4975438668625
30
0
41
1
10
41.446413664628
20
19.4975707478359
30
0
41
1
10
41.4464197931962
20
19.4975808771269
30
0
41
1
10
41.446435984381
20
19.4975957353073
30
0
41
1
10
41.4464461636702
20
19.4976006744186
30
0
41
1
10
41.4464757231574
20
19.4976080148594
30
0
41
1
10
41.4464970757856
20
19.4976071185515
30
0
41
1
10
41.4465879029341
20
19.4975929577119
30
0
41
1
10
41.4466628216477
20
19.4975606817363
30
0
41
1
10
41.4470868615342
20
19.497367474736
30
0
41
1
10
41.4474396235793
20
19.4971515712499
30
0
41
1
10
41.4491895411335
20
19.4961292490338
30
0
41
1
10
41.450587475667
20
19.4952805298551
30
0
41
1
10
41.457584966142
20
19.4910866627654
30
0
41
1
10
41.463201872883
20
19.4877475895117
30
0
41
1
10
41.491391673036
20
19.4712109465202
30
0
41
1
10
41.5142691883433
20
19.4584366679624
30
0
41
1
10
41.6306830303483
20
19.3969002050208
30
0
41
1
10
41.7297980449569
20
19.3554164372576
30
0
41
1
10
41.9383356951101
20
19.2971423505931
30
0
41
1
10
42.0485066019961
20
19.2491586316057
30
0
41
1
10
42.2457065997984
20
19.2591992362918
30
0
41
1
10
42.3288394577542
20
19.2935094751551
30
0
41
1
10
42.5188382825671
20
19.3669954643379
30
0
41
1
10
42.6323731117177
20
19.4066975345748
30
0
41
1
10
42.7884878000297
20
19.4960145107911
30
0
41
1
10
42.8412054097009
20
19.5370360428198
30
0
41
1
10
42.9259018020647
20
19.6283024808743
30
0
41
1
10
42.9592550247608
20
19.6793264703066
30
0
41
1
10
42.9846994657817
20
19.7341964530426
30
0
41
1
10
42.9858220461937
20
19.7366980464166
30
0
41
1
10
42.9869506312605
20
19.7391867809657
30
0
0
SPLINE
5
1D1
100
AcDbEntity
8
1
62
256
6
ByLayer
370
18
48
1
60
0
100
AcDbSpline
70
4
71
2
72
11
73
8
40
0
40
0
40
0
40
0.0610623745696055
40
0.342743662198724
40
0.530531187284803
40
0.718318712370882
40
0.812212474913921
40
1
40
1
40
1
41
1
10
45.5686532132161
20
14.5823903202929
30
0
41
1
10
45.396522657906
20
14.5857670881584
30
0
41
1
10
44.4063797828385
20
14.6777912251275
30
0
41
1
10
43.032619440191
20
15.2526818257733
30
0
41
1
10
41.7961082085215
20
16.1675185967777
30
0
41
1
10
41.4086618850379
20
16.5694869658104
30
0
41
1
10
40.9783406006403
20
17.0479042698442
30
0
41
1
10
40.723883338271
20
17.4097995433294
30
0
0
SPLINE
5
1D2
100
AcDbEntity
8
1
62
256
6
ByLayer
370
18
48
1
60
0
100
AcDbSpline
70
4
71
3
72
8
73
4
40
0
40
0
40
0
40
0
40
1
40
1
40
1
40
1
41
1
10
47.7594986431973
20
19.9234761103282
30
0
41
1
10
48.2881749494752
20
19.1714275206972
30
0
41
1
10
48.6502370175641
20
18.3146318887131
30
0
41
1
10
48.7653074305205
20
17.5432969876192
30
0
0
SPLINE
5
1D3
100
AcDbEntity
8
1
62
256
6
ByLayer
370
18
48
1
60
0
100
AcDbSpline
70
4
71
3
72
8
73
4
40
0
40
0
40
0
40
0
40
1
40
1
40
1
40
1
41
1
10
35.4904147877876
20
36.4269960047339
30
0
41
1
10
36.1910354954822
20
36.0380002412991
30
0
41
1
10
36.8824282737662
20
35.3962433471245
30
0
41
1
10
37.4111046043114
20
34.644194722973
30
0
0
SPLINE
5
1D4
100
AcDbEntity
8
1
62
256
6
ByLayer
370
18
48
1
60
0
100
AcDbSpline
70
4
71
3
72
10
73
6
40
0
40
0
40
0
40
0
40
0.380409167241274
40
0.380409167241274
40
1
40
1
40
1
40
1
41
1
10
10.5386751345948
20
23.9979013266023
30
0
41
1
10
10.4562351620401
20
24.0624877434437
30
0
41
1
10
10.3844110470353
20
24.1483900669021
30
0
41
1
10
10.2264153584242
20
24.3932272932951
30
0
41
1
10
10.1549704016743
20
24.5688883983991
30
0
41
1
10
10.1056624327026
20
24.7520548830776
30
0
0
SPLINE
5
1D5
100
AcDbEntity
8
1
62
256
6
ByLayer
370
18
48
1
60
0
100
AcDbSpline
70
4
71
3
72
10
73
6
40
0
40
0
40
0
40
0
40
0.5
40
0.5
40
1
40
1
40
1
40
1
41
1
10
31.7760502351665
20
27.1118147738645
30
0
41
1
10
31.073231078203
20
28.11193718331
30
0
41
1
10
30.7799427107027
20
29.3263472458719
30
0
41
1
10
30.5669576765032
20
31.7341506613803
30
0
41
1
10
30.7805389465479
20
32.9828829567174
30
0
41
1
10
31.370415277869
20
34.0496139856425
30
0
0
SPLINE
5
1D6
100
AcDbEntity
8
1
62
256
6
ByLayer
370
18
48
1
60
0
100
AcDbSpline
70
4
71
3
72
12
73
8
40
0
40
0
40
0
40
0
40
0.45150534291289
40
0.45150534291289
40
0.920730471123023
40
0.920730471123023
40
1
40
1
40
1
40
1
41
1
10
13.4613248654052
20
25.997099587303
30
0
41
1
10
13.547661047609
20
25.929460740764
30
0
41
1
10
13.6282992629309
20
25.8729427445377
30
0
41
1
10
13.7673195883123
20
25.7763694015603
30
0
41
1
10
13.8267012384145
20
25.7351243777348
30
0
41
1
10
13.8799694443486
20
25.7002149875781
30
0
41
1
10
13.8873502204194
20
25.6954884708364
30
0
41
1
10
13.8943375672974
20
25.6912337669114
30
0
0
SPLINE
5
1D7
100
AcDbEntity
8
1
62
256
6
ByLayer
370
18
48
1
60
0
100
AcDbSpline
70
4
71
2
72
9
73
6
40
0
40
0
40
0
40
0.419655468653538
40
0.629483202980307
40
0.944224804470461
40
1
40
1
40
1
41
1.02613459695995
10
37.4111046043114
20
34.644194722973
30
0
41
1.02613459695995
10
36.6239222698686
20
34.0664558793273
30
0
41
1.02613459695995
10
35.9384632401596
20
32.6806894142838
30
0
41
1.02613459695995
10
35.6206269137387
20
31.3296023153539
30
0
41
1.02613459695995
10
35.6864858130862
20
30.2616818474644
30
0
41
1.02613459695995
10
35.7097630209151
20
30.091076233646
30
0
0
SPLINE
5
1D8
100
AcDbEntity
8
1
62
256
6
ByLayer
370
18
48
1
60
0
100
AcDbSpline
70
4
71
3
72
16
73
12
40
0
40
0
40
0
40
0
40
0.463423600832262
40
0.463423600832262
40
0.646243952932856
40
0.646243952932856
40
0.831657283224518
40
0.831657283224518
40
0.94750434429086
40
0.94750434429086
40
1
40
1
40
1
40
1
41
1
10
10.1056624327026
20
-29.9139548464691
30
0
41
1
10
10.1343390747265
20
-29.9485407466772
30
0
41
1
10
10.1736499876091
20
-29.982269090612
30
0
41
1
10
10.2546180633468
20
-30.0239686896252
30
0
41
1
10
10.2809130191141
20
-30.0352936109065
30
0
41
1
10
10.3420137796675
20
-30.0555697561518
30
0
41
1
10
10.3777400094532
20
-30.0647246060481
30
0
41
1
10
10.4433516536449
20
-30.0751823136668
30
0
41
1
10
10.4710402024013
20
-30.0781795790239
30
0
41
1
10
10.5123223625249
20
-30.0802576981002
30
0
41
1
10
10.5255210031399
20
-30.0805927603169
30
0
41
1
10
10.5386751345948
20
-30.0805927603169
30
0
0
SPLINE
5
1D9
100
AcDbEntity
8
1
62
256
6
ByLayer
370
18
48
1
60
0
100
AcDbSpline
70
4
71
3
72
8
73
4
40
0
40
0
40
0
40
0
40
1
40
1
40
1
40
1
41
1
10
24.078325225452
20
35.401156117534
30
0
41
1
10
23.7545313349606
20
34.1529547577217
30
0
41
1
10
23.435105202763
20
32.9102917649814
30
0
41
1
10
23.1219141639471
20
31.6731305073564
30
0
0
SPLINE
5
1DA
100
AcDbEntity
8
1
62
256
6
ByLayer
370
18
48
1
60
0
100
AcDbSpline
70
4
71
3
72
16
73
12
40
0
40
0
40
0
40
0
40
0.463423600832241
40
0.463423600832241
40
0.646243952932837
40
0.646243952932837
40
0.831657283224505
40
0.831657283224505
40
0.947504344290848
40
0.947504344290848
40
1
40
1
40
1
40
1
41
1
10
10.1056624327026
20
9.86941261896621
30
0
41
1
10
10.1343390747265
20
9.76458357826289
30
0
41
1
10
10.1736499876091
20
9.66039292789938
30
0
41
1
10
10.2546180633468
20
9.52957658281042
30
0
41
1
10
10.2809130191141
20
9.49380155568073
30
0
41
1
10
10.3420137796675
20
9.42941539787637
30
0
41
1
10
10.3777400094532
20
9.40014891155712
30
0
41
1
10
10.4433516536449
20
9.36662118733787
30
0
41
1
10
10.4710402024013
20
9.35698328824239
30
0
41
1
10
10.5123223625249
20
9.35029954873107
30
0
41
1
10
10.5255210031399
20
9.34922131452504
30
0
41
1
10
10.5386751345948
20
9.34922131452504
30
0
0
SPLINE
5
1DB
100
AcDbEntity
8
1
62
256
6
ByLayer
370
18
48
1
60
0
100
AcDbSpline
70
4
71
2
72
9
73
6
40
0
40
0
40
0
40
0.419655468653538
40
0.629483202980308
40
0.944224804470462
40
1
40
1
40
1
41
1.02613459695995
10
47.7594986431972
20
19.9234761103282
30
0
41
1.02613459695995
10
46.9707368921209
20
19.3479840063936
30
0
41
1.02613459695995
10
45.464432378227
20
19.1298804030213
30
0
41
1.02613459695995
10
44.1081966509363
20
19.2559293051275
30
0
41
1.02613459695995
10
43.1378744317815
20
19.661989304148
30
0
41
1.02613459695995
10
42.9869506312606
20
19.7391867809658
30
0
0
SPLINE
5
1DC
100
AcDbEntity
8
1
62
256
6
ByLayer
370
18
48
1
60
0
100
AcDbSpline
70
4
71
2
72
8
73
5
40
0
40
0
40
0
40
0.0733047478966405
40
0.53665237394832
40
1
40
1
40
1
41
1
10
34.9545949120889
20
28.7321433156448
30
0
41
1
10
34.8596370095888
20
28.7814968328559
30
0
41
1
10
34.1589682491878
20
29.1015068741847
30
0
41
1
10
33.0732475635364
20
29.1191994171211
30
0
41
1
10
32.6751324191374
20
28.8592473531642
30
0
0
SPLINE
5
1DD
100
AcDbEntity
8
1
62
256
6
ByLayer
370
18
48
1
60
0
100
AcDbSpline
70
4
71
3
72
16
73
12
40
0
40
0
40
0
40
0
40
0.113316224833596
40
0.113316224833596
40
0.252990411571581
40
0.252990411571581
40
0.473309013928343
40
0.473309013928343
40
0.896716357718895
40
0.896716357718895
40
1
40
1
40
1
40
1
41
1
10
13.4613248654052
20
-30.0805927603169
30
0
41
1
10
13.4894125595718
20
-30.0805927603169
30
0
41
1
10
13.517849357763
20
-30.0790101689567
30
0
41
1
10
13.5767970345725
20
-30.0726712338969
30
0
41
1
10
13.6072473721288
20
-30.0672275748685
30
0
41
1
10
13.6769143636602
20
-30.0506647867053
30
0
41
1
10
13.7128266507651
20
-30.0378702684276
30
0
41
1
10
13.8014637450836
20
-29.9980833386355
30
0
41
1
10
13.842370839753
20
-29.967975934908
30
0
41
1
10
13.8809034737598
20
-29.9294196064672
30
0
41
1
10
13.8878971837969
20
-29.9217223689309
30
0
41
1
10
13.8943375672975
20
-29.9139548464691
30
0
0
SPLINE
5
1DE
100
AcDbEntity
8
1
62
256
6
ByLayer
370
18
48
1
60
0
100
AcDbSpline
70
4
71
2
72
7
73
4
40
0
40
0
40
0
40
0.550978341125014
40
1
40
1
40
1
41
1
10
32.5250229200488
20
28.761232307375
30
0
41
1
10
32.1269077756498
20
28.5012802434181
30
0
41
1
10
31.7770564116804
20
27.6134503277864
30
0
41
1
10
31.7758417832371
20
27.1120180608357
30
0
0
SPLINE
5
1DF
100
AcDbEntity
8
1
62
256
6
ByLayer
370
18
48
1
60
0
100
AcDbSpline
70
4
71
2
72
11
73
8
40
0
40
0
40
0
40
0.0610623745695799
40
0.342743662198706
40
0.53053118728479
40
0.718318712370874
40
0.812212474913916
40
1
40
1
40
1
41
1
10
31.6036219161934
20
34.447820199341
30
0
41
1
10
31.5515656021975
20
34.2803898726593
30
0
41
1
10
31.3195238061362
20
33.2940058409738
30
0
41
1
10
31.4127653524471
20
31.7820680960399
30
0
41
1
10
31.865614063948
20
30.2937694370019
30
0
41
1
10
32.114565341051
20
29.7904543418764
30
0
41
1
10
32.4207432368444
20
29.2211924457081
30
0
41
1
10
32.6751324191375
20
28.8592473531643
30
0
0
SPLINE
5
1E0
100
AcDbEntity
8
1
62
256
6
ByLayer
370
18
48
1
60
0
100
AcDbSpline
70
4
71
3
72
10
73
6
40
0
40
0
40
0
40
0
40
0.690272108908799
40
0.690272108908799
40
1
40
1
40
1
40
1
41
1
10
13.8943375672974
20
24.7520548830776
30
0
41
1
10
13.8395431206921
20
24.5485075382183
30
0
41
1
10
13.7572550106766
20
24.3530769032313
30
0
41
1
10
13.5891377804999
20
24.1179667125787
30
0
41
1
10
13.5287708184857
20
24.0507408934402
30
0
41
1
10
13.4613248654052
20
23.9979013266023
30
0
0
SPLINE
5
1E1
100
AcDbEntity
8
1
62
256
6
ByLayer
370
18
48
1
60
0
100
AcDbSpline
70
4
71
3
72
8
73
4
40
0
40
0
40
0
40
0
40
1
40
1
40
1
40
1
41
1
10
25.5776838368165
20
41.1481108788425
30
0
41
1
10
25.0755939806554
20
39.2330851708562
30
0
41
1
10
24.5754480545561
20
37.3175276412209
30
0
41
1
10
24.078325225452
20
35.401156117534
30
0
0
SPLINE
5
1E2
100
AcDbEntity
8
1
62
256
6
ByLayer
370
18
48
1
60
0
100
AcDbSpline
70
4
71
3
72
12
73
8
40
0
40
0
40
0
40
0
40
0.323508413868193
40
0.323508413868193
40
0.661742854657647
40
0.661742854657647
40
1
40
1
40
1
40
1
41
1
10
45.5686532097312
20
14.5823903204978
30
0
41
1
10
45.5443515191498
20
14.5773947649589
30
0
41
1
10
45.5200291070667
20
14.572494242065
30
0
41
1
10
45.4702369563253
20
14.5626653868936
30
0
41
1
10
45.4447649720519
20
14.5577458597504
30
0
41
1
10
45.393777977755
20
14.5481159120519
30
0
41
1
10
45.3682625370018
20
14.5434054247525
30
0
41
1
10
45.3427272592514
20
14.5388000093602
30
0
0
SPLINE
5
1E3
100
AcDbEntity
8
1
62
256
6
ByLayer
370
18
48
1
60
0
100
AcDbSpline
70
4
71
1
72
4
73
2
40
0
40
0
40
1
40
1
41
1
10
32.6751324191375
20
28.8592473531643
30
0
41
1
10
32.600077669593
20
28.8102398302695
30
0
0
SPLINE
5
1E4
100
AcDbEntity
8
1
62
256
6
ByLayer
370
18
48
1
60
0
100
AcDbSpline
70
4
71
3
72
16
73
12
40
0
40
0
40
0
40
0
40
0.113316224833592
40
0.113316224833592
40
0.252990411571568
40
0.252990411571568
40
0.473309013928318
40
0.473309013928318
40
0.896716357718825
40
0.896716357718825
40
1
40
1
40
1
40
1
41
1
10
13.4613248654052
20
9.3492213145251
30
0
41
1
10
13.4894125595718
20
9.3492213145251
30
0
41
1
10
13.517849357763
20
9.35431657338981
30
0
41
1
10
13.5767970345725
20
9.37467777536565
30
0
41
1
10
13.6072473721288
20
9.39213979793414
30
0
41
1
10
13.6769143636602
20
9.44503542604383
30
0
41
1
10
13.7128266507651
20
9.4856938043188
30
0
41
1
10
13.8014637450836
20
9.61105923366804
30
0
41
1
10
13.842370839753
20
9.70465429390066
30
0
41
1
10
13.8809034737598
20
9.82244573862474
30
0
41
1
10
13.8878971837969
20
9.84586944318031
30
0
41
1
10
13.8943375672975
20
9.86941261896621
30
0
0
SPLINE
5
1E5
100
AcDbEntity
8
1
62
256
6
ByLayer
370
18
48
1
60
0
100
AcDbSpline
70
4
71
3
72
10
73
6
40
0
40
0
40
0
40
0
40
0.546460146737551
40
0.546460146737551
40
1
40
1
40
1
40
1
41
1
10
10.1056624327026
20
25.6912337669117
30
0
41
1
10
10.1532894702054
20
25.7202346089961
30
0
41
1
10
10.2200330642683
20
25.76759902668
30
0
41
1
10
10.3706988494232
20
25.8722342073356
30
0
41
1
10
10.4518011249023
20
25.9290393875139
30
0
41
1
10
10.5386751345948
20
25.997099587303
30
0
0
SPLINE
5
1E6
100
AcDbEntity
8
1
62
256
6
ByLayer
370
18
48
1
60
0
100
AcDbSpline
70
4
71
2
72
6
73
3
40
0
40
0
40
0
40
1
40
1
40
1
41
1
10
40.6488285887266
20
17.3607920204348
30
0
41
1
10
40.6113012139544
20
17.3362882589875
30
0
41
1
10
40.5737738391823
20
17.3117844975401
30
0
0
SPLINE
5
1E7
100
AcDbEntity
8
1
62
256
6
ByLayer
370
18
48
1
60
0
100
AcDbSpline
70
4
71
3
72
44
73
40
40
0
40
0
40
0
40
0
40
0.0051940132847399
40
0.0051940132847399
40
0.0199009435499603
40
0.0199009435499603
40
0.129752252750132
40
0.129752252750132
40
0.239839633867552
40
0.239839633867552
40
0.428838297973709
40
0.428838297973709
40
0.549631023271192
40
0.549631023271192
40
0.669783037434566
40
0.669783037434566
40
0.866798417330307
40
0.866798417330307
40
0.966549486061784
40
0.966549486061784
40
0.991441200137511
40
0.991441200137511
40
0.997663556574556
40
0.997663556574556
40
0.999220061995043
40
0.999220061995043
40
0.999613367549629
40
0.999613367549629
40
0.999703345479653
40
0.999703345479653
40
0.999741176147511
40
0.999741176147511
40
0.999773455167557
40
0.999773455167557
40
0.999805393920467
40
0.999805393920467
40
0.999853555624796
40
0.999853555624796
40
1
40
1
40
1
40
1
41
1
10
35.7097630209151
20
30.091076233646
30
0
41
1
10
35.7070906577037
20
30.0907835426131
30
0
41
1
10
35.7044078107201
20
30.0905014477399
30
0
41
1
10
35.6940131095251
20
30.0892765542366
30
0
41
1
10
35.6862786606856
20
30.0882091160355
30
0
41
1
10
35.6213306463845
20
30.077887000255
30
0
41
1
10
35.562462520956
20
30.0593332616058
30
0
41
1
10
35.450198581797
20
30.0021843493078
30
0
41
1
10
35.3955802891629
20
29.9627486448235
30
0
41
1
10
35.2625219129567
20
29.8380254948657
30
0
41
1
10
35.1853229319241
20
29.7445024552989
30
0
41
1
10
35.0607842827201
20
29.6000874994039
30
0
41
1
10
35.0112205705976
20
29.5434250783058
30
0
41
1
10
34.9515974209773
20
29.414891355266
30
0
41
1
10
34.9537299172595
20
29.340051257435
30
0
41
1
10
34.9337494972068
20
29.1596984431851
30
0
41
1
10
34.9224676587023
20
29.0518224126658
30
0
41
1
10
34.9315537521066
20
28.8910810062745
30
0
41
1
10
34.9375219312527
20
28.8374165439323
30
0
41
1
10
34.9480232180014
20
28.771236779916
30
0
41
1
10
34.9502766475804
20
28.7580499314268
30
0
41
1
10
34.9532690418751
20
28.7416210755462
30
0
41
1
10
34.9538818226936
20
28.7383363813559
30
0
41
1
10
34.9546345653755
20
28.7342409156279
30
0
41
1
10
34.9547941296475
20
28.7334184182859
30
0
41
1
10
34.9549442016591
20
28.7324059190433
30
0
41
1
10
34.9549787264827
20
28.7321975237522
30
0
41
1
10
34.9549703880776
20
28.7319677822153
30
0
41
1
10
34.9549661847904
20
28.731925343957
30
0
41
1
10
34.9549458419625
20
28.7318774861133
30
0
41
1
10
34.9549376435455
20
28.7318648088469
30
0
41
1
10
34.9549172010091
20
28.7318485430718
30
0
41
1
10
34.9549054001105
20
28.7318438843304
30
0
41
1
10
34.9548791701669
20
28.7318416293619
30
0
41
1
10
34.954864521884
20
28.7318438283334
30
0
41
1
10
34.9548272959851
20
28.7318548257867
30
0
41
1
10
34.9548039340178
20
28.7318662519512
30
0
41
1
10
34.9547117273733
20
28.7319194176483
30
0
41
1
10
34.9546436157863
20
28.7319747837701
30
0
41
1
10
34.9545773160031
20
28.7320307497947
30
0
0
SPLINE
5
1E8
100
AcDbEntity
8
1
62
256
6
ByLayer
370
18
48
1
60
0
100
AcDbSpline
70
4
71
3
72
8
73
4
40
0
40
0
40
0
40
0
40
1
40
1
40
1
40
1
41
1
10
22.9609847588646
20
-31.0544615075762
30
0
41
1
10
22.9475806244986
20
-31.0028429217618
30
0
41
1
10
22.9341831017393
20
-30.9512270468484
30
0
41
1
10
22.92079238
20
-30.8996141556632
30
0
0
SPLINE
5
1E9
100
AcDbEntity
8
1
62
256
6
ByLayer
370
18
48
1
60
0
100
AcDbSpline
70
4
71
1
72
4
73
2
40
0
40
0
40
1
40
1
41
1
10
32.6000776695932
20
28.8102398302696
30
0
41
1
10
32.5250229200487
20
28.7612323073749
30
0
0
SPLINE
5
1EA
100
AcDbEntity
8
1
62
256
6
ByLayer
370
18
48
1
60
0
100
AcDbSpline
70
4
71
3
72
12
73
8
40
0
40
0
40
0
40
0
40
0.319932000007855
40
0.319932000007855
40
0.659954096648772
40
0.659954096648772
40
1
40
1
40
1
40
1
41
1
10
45.3427272589024
20
14.5388000102887
30
0
41
1
10
45.3183053532249
20
14.5343953971366
30
0
41
1
10
45.2938649182134
20
14.530086822492
30
0
41
1
10
45.2434133952493
20
14.5213979441475
30
0
41
1
10
45.2173996100015
20
14.5170300488241
30
0
41
1
10
45.1653326461168
20
14.50851231117
30
0
41
1
10
45.1392790090177
20
14.5043624095789
30
0
41
1
10
45.113207476384
20
14.5003219730998
30
0
0
SPLINE
5
1EB
100
AcDbEntity
8
1
62
256
6
ByLayer
370
18
48
1
60
0
100
AcDbSpline
70
4
71
3
72
16
73
12
40
0
40
0
40
0
40
0
40
0.113316224833594
40
0.113316224833594
40
0.252990411571577
40
0.252990411571577
40
0.473309013928351
40
0.473309013928351
40
0.896716357718897
40
0.896716357718897
40
1
40
1
40
1
40
1
41
1
10
10.5386751345948
20
30.0805927603169
30
0
41
1
10
10.5105874404281
20
30.0805927603169
30
0
41
1
10
10.482150642237
20
30.0790101689566
30
0
41
1
10
10.4232029654275
20
30.0726712338969
30
0
41
1
10
10.3927526278712
20
30.0672275748685
30
0
41
1
10
10.3230856363398
20
30.0506647867052
30
0
41
1
10
10.2871733492349
20
30.0378702684275
30
0
41
1
10
10.1985362549164
20
29.9980833386355
30
0
41
1
10
10.1576291602469
20
29.967975934908
30
0
41
1
10
10.1190965262402
20
29.9294196064672
30
0
41
1
10
10.112102816203
20
29.9217223689309
30
0
41
1
10
10.1056624327025
20
29.9139548464691
30
0
0
SPLINE
5
1EC
100
AcDbEntity
8
1
62
256
6
ByLayer
370
18
48
1
60
0
100
AcDbSpline
70
4
71
3
72
16
73
12
40
0
40
0
40
0
40
0
40
0.463423600832241
40
0.463423600832241
40
0.646243952932834
40
0.646243952932834
40
0.831657283224497
40
0.831657283224497
40
0.947504344290847
40
0.947504344290847
40
1
40
1
40
1
40
1
41
1
10
13.8943375672974
20
29.9139548464691
30
0
41
1
10
13.8656609252734
20
29.9485407466772
30
0
41
1
10
13.8263500123909
20
29.982269090612
30
0
41
1
10
13.7453819366532
20
30.0239686896252
30
0
41
1
10
13.7190869808859
20
30.0352936109065
30
0
41
1
10
13.6579862203325
20
30.0555697561518
30
0
41
1
10
13.6222599905467
20
30.0647246060481
30
0
41
1
10
13.556648346355
20
30.0751823136668
30
0
41
1
10
13.5289597975987
20
30.0781795790239
30
0
41
1
10
13.4876776374751
20
30.0802576981002
30
0
41
1
10
13.47447899686
20
30.0805927603169
30
0
41
1
10
13.4613248654052
20
30.0805927603169
30
0
0
SPLINE
5
1ED
100
AcDbEntity
8
SK1
62
256
6
ByLayer
370
18
48
1
60
0
100
AcDbSpline
70
4
71
3
72
10
73
6
40
0
40
0
40
0
40
0
40
0.5
40
0.5
40
1
40
1
40
1
40
1
41
1
10
-1.30710678118655
20
4.81101329740289
30
0
41
1
10
-1.57713284158248
20
3.28321078789992
30
0
41
1
10
-1.79449339715788
20
1.64680798700616
30
0
41
1
10
-1.79438545511854
20
-1.6481258022005
30
0
41
1
10
-1.57704898370505
20
-3.28368386467716
30
0
41
1
10
-1.30710678118663
20
-4.81101321788435
30
0
0
SPLINE
5
1EE
100
AcDbEntity
8
SK1
62
256
6
ByLayer
370
18
48
1
60
0
100
AcDbSpline
70
4
71
3
72
22
73
18
40
0
40
0
40
0
40
0
40
0.038427246458711
40
0.038427246458711
40
0.0775026456766427
40
0.0775026456766427
40
0.106475059033524
40
0.106475059033524
40
0.135305917881828
40
0.135305917881828
40
0.182167074412018
40
0.182167074412018
40
0.275660663800869
40
0.275660663800869
40
0.616530102228659
40
0.616530102228659
40
1
40
1
40
1
40
1
41
1
10
-0.394976888875306
20
-6.32694279392757
30
0
41
1
10
-0.414867561016194
20
-6.34445862132063
30
0
41
1
10
-0.436644357284194
20
-6.36058691921457
30
0
41
1
10
-0.484524151203374
20
-6.3868168818706
30
0
41
1
10
-0.511419954277358
20
-6.39702622866628
30
0
41
1
10
-0.560078773491597
20
-6.40490957850619
30
0
41
1
10
-0.58185248496946
20
-6.40512642059926
30
0
41
1
10
-0.623683911276856
20
-6.39912423041605
30
0
41
1
10
-0.644207278837683
20
-6.39293597600829
30
0
41
1
10
-0.694134540330907
20
-6.37121870092642
30
0
41
1
10
-0.722113964046542
20
-6.35215911803172
30
0
41
1
10
-0.796598131612939
20
-6.28903777408343
30
0
41
1
10
-0.836555557792792
20
-6.23798237717094
30
0
41
1
10
-0.997773060879837
20
-5.995390913813
30
0
41
1
10
-1.07178904300878
20
-5.77805690787602
30
0
41
1
10
-1.20827315239353
20
-5.31693201445015
30
0
41
1
10
-1.26212533694985
20
-5.06551762472202
30
0
41
1
10
-1.30710678118655
20
-4.81101321788441
30
0
0
SPLINE
5
1EF
100
AcDbEntity
8
SK1
62
256
6
ByLayer
370
18
48
1
60
0
100
AcDbSpline
70
4
71
3
72
22
73
18
40
0
40
0
40
0
40
0
40
0.025518692999354
40
0.025518692999354
40
0.0515625307794633
40
0.0515625307794633
40
0.0689220502117165
40
0.0689220502117165
40
0.0862030429090035
40
0.0862030429090035
40
0.113761926258803
40
0.113761926258803
40
0.167639902693809
40
0.167639902693809
40
0.357269752158031
40
0.357269752158031
40
1
40
1
40
1
40
1
41
1
10
-0.394976888875277
20
6.326943090669
30
0
41
1
10
-0.389699799773268
20
6.32229605774103
30
0
41
1
10
-0.38394554029108
20
6.31808234313019
30
0
41
1
10
-0.371336208800898
20
6.31155719556298
30
0
41
1
10
-0.364237316839024
20
6.30923328231674
30
0
41
1
10
-0.35209572007625
20
6.30844589498398
30
0
41
1
10
-0.347038791108759
20
6.3089739150856
30
0
41
1
10
-0.337436838154161
20
6.31166640764118
30
0
41
1
10
-0.332782752688161
20
6.31383711710231
30
0
41
1
10
-0.321723955926899
20
6.32078578121266
30
0
41
1
10
-0.315689795621665
20
6.32640446307903
30
0
41
1
10
-0.300083216036057
20
6.3442802085479
30
0
41
1
10
-0.292057158925616
20
6.35806878925098
30
0
41
1
10
-0.261294067338724
20
6.42092251611513
30
0
41
1
10
-0.248999237994838
20
6.47445017323312
30
0
41
1
10
-0.204624309665832
20
6.70435570668306
30
0
41
1
10
-0.200000000000955
20
6.88379158154922
30
0
41
1
10
-0.200000000000955
20
7.05951756777668
30
0
0
SPLINE
5
1F0
100
AcDbEntity
8
SK1
62
256
6
ByLayer
370
18
48
1
60
0
100
AcDbSpline
70
4
71
3
72
26
73
22
40
0
40
0
40
0
40
0
40
0.462420532187944
40
0.462420532187944
40
0.662465761698283
40
0.662465761698283
40
0.830433309169693
40
0.830433309169693
40
0.87601894963741
40
0.87601894963741
40
0.905535493032455
40
0.905535493032455
40
0.92577818311669
40
0.92577818311669
40
0.946307111163799
40
0.946307111163799
40
0.963675313617857
40
0.963675313617857
40
0.991859972782862
40
0.991859972782862
40
1
40
1
40
1
40
1
41
1
10
-0.199999999999989
20
-7.05951749342083
30
0
41
1
10
-0.199999999999989
20
-6.93273416480454
30
0
41
1
10
-0.203968014086513
20
-6.80463429773329
30
0
41
1
10
-0.223222206303944
20
-6.62063667774228
30
0
41
1
10
-0.230822389897867
20
-6.56482953243432
30
0
41
1
10
-0.252035566714568
20
-6.46316921019911
30
0
41
1
10
-0.263798801619998
20
-6.41617607028249
30
0
41
1
10
-0.290531391619595
20
-6.36108887379029
30
0
41
1
10
-0.29710300077241
20
-6.34947181616241
30
0
41
1
10
-0.310313928765424
20
-6.33213067856883
30
0
41
1
10
-0.316208846631128
20
-6.32567949173321
30
0
41
1
10
-0.327595492701022
20
-6.31681373578161
30
0
41
1
10
-0.332739264568545
20
-6.31372817209197
30
0
41
1
10
-0.343644708736434
20
-6.30958040401461
30
0
41
1
10
-0.349575964479982
20
-6.30853210514005
30
0
41
1
10
-0.360183897281416
20
-6.30881607347521
30
0
41
1
10
-0.365032052617437
20
-6.30978620719449
30
0
41
1
10
-0.376922909163994
20
-6.31387292952667
30
0
41
1
10
-0.383695246431131
20
-6.3179475897727
30
0
41
1
10
-0.39156461480826
20
-6.32402624429125
30
0
41
1
10
-0.393293161608796
20
-6.32546009510432
30
0
41
1
10
-0.394976888875277
20
-6.32694279392757
30
0
0
SPLINE
5
1F1
100
AcDbEntity
8
SK1
62
256
6
ByLayer
370
18
48
1
60
0
100
AcDbSpline
70
4
71
3
72
22
73
18
40
0
40
0
40
0
40
0
40
0.366862607601256
40
0.366862607601256
40
0.737339621375052
40
0.737339621375052
40
0.838459586400285
40
0.838459586400285
40
0.872990642836393
40
0.872990642836393
40
0.908114554314301
40
0.908114554314301
40
0.93841147631739
40
0.93841147631739
40
0.978567405872927
40
0.978567405872927
40
1
40
1
40
1
40
1
41
1
10
-1.30710678118655
20
4.81101329740289
30
0
41
1
10
-1.26411319574365
20
5.05427021725674
30
0
41
1
10
-1.21291926611929
20
5.29463858107241
30
0
41
1
10
-1.07751639291712
20
5.76447191425098
30
0
41
1
10
-0.99999394263088
20
6.0024064332149
30
0
41
1
10
-0.818580317119483
20
6.26150782359156
30
0
41
1
10
-0.772786229091963
20
6.31609141287933
30
0
41
1
10
-0.693958175551444
20
6.37002132562083
30
0
41
1
10
-0.67174289599555
20
6.38213989760789
30
0
41
1
10
-0.624176343099663
20
6.39933264200099
30
0
41
1
10
-0.598041368844491
20
6.40433410743103
30
0
41
1
10
-0.550095873812666
20
6.4042038836908
30
0
41
1
10
-0.52764508925199
20
6.40038614973912
30
0
41
1
10
-0.479150674129698
20
6.38487542657816
30
0
41
1
10
-0.453444961156862
20
6.37100758594852
30
0
41
1
10
-0.417985764291785
20
6.34622757774423
30
0
41
1
10
-0.406197231050186
20
6.33682378409867
30
0
41
1
10
-0.394976888874737
20
6.32694309068151
30
0
0
SPLINE
5
1F2
100
AcDbEntity
8
1
62
256
6
ByLayer
370
18
48
1
60
0
100
AcDbSpline
70
4
71
3
72
12
73
8
40
0
40
0
40
0
40
0
40
0.392678099449944
40
0.392678099449944
40
0.79127933596611
40
0.79127933596611
40
1
40
1
40
1
40
1
41
1
10
48.1121156264509
20
29.9539448588638
30
0
41
1
10
48.0947047599496
20
29.9454995063538
30
0
41
1
10
48.0768998218578
20
29.9356193729985
30
0
41
1
10
48.0431581007946
20
29.9138659275282
30
0
41
1
10
48.0268571998316
20
29.9016851900901
30
0
41
1
10
48.0051344372263
20
29.8829729637897
30
0
41
1
10
47.9980850313121
20
29.8764036082018
30
0
41
1
10
47.9915758388448
20
29.8698789415249
30
0
0
SPLINE
5
1F3
100
AcDbEntity
8
1
62
256
6
ByLayer
370
18
48
1
60
0
100
AcDbSpline
70
4
71
3
72
14
73
10
40
0
40
0
40
0
40
0
40
0.164525200330973
40
0.164525200330973
40
0.540804984924847
40
0.540804984924847
40
0.917041398719691
40
0.917041398719691
40
1
40
1
40
1
40
1
41
1
10
47.7976832798602
20
31.9568214314868
30
0
41
1
10
47.8037121151588
20
31.9520081508344
30
0
41
1
10
47.8100601388464
20
31.947303042562
30
0
41
1
10
47.831771503086
20
31.9324861848836
30
0
41
1
10
47.8486720895802
20
31.9229755239033
30
0
41
1
10
47.8836193275266
20
31.9073476842461
30
0
41
1
10
47.9020523100534
20
31.9010477318206
30
0
41
1
10
47.9239700273144
20
31.8954617968473
30
0
41
1
10
47.9279453349183
20
31.8945242173708
30
0
41
1
10
47.9319013903138
20
31.8936621366433
30
0
0
SPLINE
5
1F4
100
AcDbEntity
8
1
62
256
6
ByLayer
370
18
48
1
60
0
100
AcDbSpline
70
4
71
3
72
12
73
8
40
0
40
0
40
0
40
0
40
0.392678099452574
40
0.392678099452574
40
0.791279335968779
40
0.791279335968779
40
1
40
1
40
1
40
1
41
1
10
46.6432365407924
20
31.7879082827363
30
0
41
1
10
46.6590727016754
20
31.7947789296278
30
0
41
1
10
46.6757882327923
20
31.8035696560083
30
0
41
1
10
46.7087666387289
20
31.824559786352
30
0
41
1
10
46.7254174364355
20
31.8370904205337
30
0
41
1
10
46.7486655202531
20
31.8573279680465
30
0
41
1
10
46.7564216548174
20
31.8646040522845
30
0
41
1
10
46.7637763283985
20
31.8719742000753
30
0
0
SPLINE
5
1F5
100
AcDbEntity
8
1
62
256
6
ByLayer
370
18
48
1
60
0
100
AcDbSpline
70
4
71
3
72
14
73
10
40
0
40
0
40
0
40
0
40
0.0829586012803273
40
0.0829586012803273
40
0.45919501507516
40
0.45919501507516
40
0.83547479966902
40
0.83547479966902
40
1
40
1
40
1
40
1
41
1
10
46.2232293445526
20
30.7020134220478
30
0
41
1
10
46.2233858442817
20
30.7057436488541
30
0
41
1
10
46.2235028373593
20
30.7095352487138
30
0
41
1
10
46.2239134555903
20
30.7306932370569
30
0
41
1
10
46.2233582494219
20
30.7494613686571
30
0
41
1
10
46.2202526139144
20
30.7872959300261
30
0
41
1
10
46.2176624711609
20
30.8067868689252
30
0
41
1
10
46.2128795074495
20
30.8334097995008
30
0
41
1
10
46.2112720051129
20
30.8414210051536
30
0
41
1
10
46.2095510217075
20
30.8492386342319
30
0
0
SPLINE
5
1F6
100
AcDbEntity
8
1
62
256
6
ByLayer
370
18
48
1
60
0
100
AcDbSpline
70
4
71
3
72
14
73
10
40
0
40
0
40
0
40
0
40
0.0829586012802525
40
0.0829586012802525
40
0.459195015075158
40
0.459195015075158
40
0.835474799669106
40
0.835474799669106
40
1
40
1
40
1
40
1
41
1
10
48.5321228226904
20
31.039839719552
30
0
41
1
10
48.5316308830106
20
31.0357740527951
30
0
41
1
10
48.5312004464013
20
31.0316690094035
30
0
41
1
10
48.5292004900502
20
31.0089216829405
30
0
41
1
10
48.5289536984884
20
30.9893515536099
30
0
41
1
10
48.5317834706045
20
30.9512411288496
30
0
41
1
10
48.5349002551536
20
30.932276831746
30
0
41
1
10
48.5412317264521
20
30.9072024087576
30
0
41
1
10
48.5434169264281
20
30.8997689007442
30
0
41
1
10
48.5458011455353
20
30.8926145073677
30
0
0
SPLINE
5
1F7
100
AcDbEntity
8
1
62
256
6
ByLayer
370
18
48
1
60
0
100
AcDbSpline
70
4
71
3
72
14
73
10
40
0
40
0
40
0
40
0
40
0.164525200330966
40
0.164525200330966
40
0.54080498492486
40
0.54080498492486
40
0.917041398719709
40
0.917041398719709
40
1
40
1
40
1
40
1
41
1
10
46.9576688873826
20
29.7850317101128
30
0
41
1
10
46.9509768163822
20
29.7891817550634
30
0
41
1
10
46.9440510950552
20
29.7933091656963
30
0
41
1
10
46.9207912232285
20
29.8065775157876
30
0
41
1
10
46.9033639949387
20
29.8155615349724
30
0
41
1
10
46.8686926203836
20
29.8314652380209
30
0
41
1
10
46.8510616355871
20
29.8385671881767
30
0
41
1
10
46.8307332564461
20
29.84574246127
30
0
41
1
10
46.827071392374
20
29.8469934842784
30
0
41
1
10
46.8234507769292
20
29.8481910049565
30
0
0
INSERT
5
209
100
AcDbEntity
8
2
62
256
6
ByLayer
370
25
48
1
60
0
100
AcDbBlockReference
2
DimnDraft3D11
10
0
20
0
30
0
41
1
42
1
43
1
50
0
210
0
220
0
230
1
0
LINE
5
72
100
AcDbEntity
8
1
62
256
6
ByLayer
370
18
48
1
60
0
100
AcDbLine
10
47.991888
20
29.870191
30
0
11
47.75799
21
29.636293
31
0
39
0
210
0
220
0
230
1
0
LINE
5
74
100
AcDbEntity
8
1
62
256
6
ByLayer
370
18
48
1
60
0
100
AcDbLine
10
46.529535
20
31.637733
30
0
11
46.763433
21
31.87163
31
0
39
0
210
0
220
0
230
1
0
LINE
5
75
100
AcDbEntity
8
1
62
256
6
ByLayer
370
18
48
1
60
0
100
AcDbLine
10
48.652848
20
31.300756
30
0
11
48.418934
21
31.066842
31
0
39
0
210
0
220
0
230
1
0
LINE
5
76
100
AcDbEntity
8
1
62
256
6
ByLayer
370
18
48
1
60
0
100
AcDbLine
10
0.3
20
-31.5
30
0
11
22.920792
21
-31.5
31
0
39
0
210
0
220
0
230
1
0
LINE
5
77
100
AcDbEntity
8
1
62
256
6
ByLayer
370
18
48
1
60
0
100
AcDbLine
10
22.920792
20
31.5
30
0
11
0.3
21
31.5
31
0
39
0
210
0
220
0
230
1
0
LINE
5
78
100
AcDbEntity
8
1
62
256
6
ByLayer
370
18
48
1
60
0
100
AcDbLine
10
0.3
20
31.5
30
0
11
0
21
31.2
31
0
39
0
210
0
220
0
230
1
0
LINE
5
79
100
AcDbEntity
8
1
62
256
6
ByLayer
370
18
48
1
60
0
100
AcDbLine
10
0
20
-31.2
30
0
11
0.3
21
-31.5
31
0
39
0
210
0
220
0
230
1
0
LINE
5
7A
100
AcDbEntity
8
1
62
256
6
ByLayer
370
18
48
1
60
0
100
AcDbLine
10
22.960985
20
-31.65
30
0
11
23.48285
21
-31.65
31
0
39
0
210
0
220
0
230
1
0
LINE
5
7B
100
AcDbEntity
8
1
62
256
6
ByLayer
370
18
48
1
60
0
100
AcDbLine
10
22.920792
20
-31.5
30
0
11
22.960985
21
-31.65
31
0
39
0
210
0
220
0
230
1
0
LINE
5
7C
100
AcDbEntity
8
1
62
256
6
ByLayer
370
18
48
1
60
0
100
AcDbLine
10
52.474718
20
43.85478
30
0
11
51.930707
21
43.310769
31
0
39
0
210
0
220
0
230
1
0
LINE
5
7D
100
AcDbEntity
8
1
62
256
6
ByLayer
370
18
48
1
60
0
100
AcDbLine
10
27.014539
20
27.049607
30
0
11
27.103638
21
27.383903
31
0
39
0
210
0
220
0
230
1
0
LINE
5
7E
100
AcDbEntity
8
1
62
256
6
ByLayer
370
18
48
1
60
0
100
AcDbLine
10
38.541892
20
33.332205
30
0
11
37.444327
21
32.397178
31
0
39
0
210
0
220
0
230
1
0
LINE
5
7F
100
AcDbEntity
8
1
62
256
6
ByLayer
370
18
48
1
60
0
100
AcDbLine
10
25.381839
20
40.684752
30
0
11
22.920792
21
31.5
31
0
39
0
210
0
220
0
230
1
0
LINE
5
80
100
AcDbEntity
8
1
62
256
6
ByLayer
370
18
48
1
60
0
100
AcDbLine
10
24.821602
20
30.836784
30
0
11
19.716657
21
27.953889
31
0
39
0
210
0
220
0
230
1
0
LINE
5
81
100
AcDbEntity
8
1
62
256
6
ByLayer
370
18
48
1
60
0
100
AcDbLine
10
12.411064
20
23.828231
30
0
11
11.892762
21
23.535533
31
0
39
0
210
0
220
0
230
1
0
LINE
5
82
100
AcDbEntity
8
1
62
256
6
ByLayer
370
18
48
1
60
0
100
AcDbLine
10
25.206793
20
30.74278
30
0
11
24.874508
21
30.839109
31
0
39
0
210
0
220
0
230
1
0
LINE
5
83
100
AcDbEntity
8
1
62
256
6
ByLayer
370
18
48
1
60
0
100
AcDbLine
10
41.173101
20
29.700944
30
0
11
41.579072
21
30.046795
31
0
39
0
210
0
220
0
230
1
0
LINE
5
84
100
AcDbEntity
8
1
62
256
6
ByLayer
370
18
48
1
60
0
100
AcDbLine
10
63.310769
20
31.930707
30
0
11
63.85478
21
32.474718
31
0
39
0
210
0
220
0
230
1
0
LINE
5
85
100
AcDbEntity
8
1
62
256
6
ByLayer
370
18
48
1
60
0
100
AcDbLine
10
46.082359
20
30.420952
30
0
11
46.102505
21
30.441098
31
0
39
0
210
0
220
0
230
1
0
LINE
5
86
100
AcDbEntity
8
1
62
256
6
ByLayer
370
18
48
1
60
0
100
AcDbLine
10
49.86303
20
27.699426
30
0
11
50.11599
21
27.952386
31
0
39
0
210
0
220
0
230
1
0
LINE
5
87
100
AcDbEntity
8
1
62
256
6
ByLayer
370
18
48
1
60
0
100
AcDbLine
10
44.459136
20
33.609241
30
0
11
44.206176
21
33.35628
31
0
39
0
210
0
220
0
230
1
0
LINE
5
88
100
AcDbEntity
8
80
62
256
6
ByLayer
370
18
48
1
60
0
100
AcDbLine
10
0
20
0
30
0
11
-5
21
0
31
0
39
0
210
0
220
0
230
1
0
LINE
5
89
100
AcDbEntity
8
4
62
256
6
ByLayer
370
18
48
0.05
60
0
100
AcDbLine
10
0
20
0
30
0
11
65
21
0
31
0
39
0
210
0
220
0
230
1
0
LINE
5
8B
100
AcDbEntity
8
81
62
256
6
ByLayer
370
18
48
1
60
0
100
AcDbLine
10
65
20
45
30
0
11
75
21
45
31
0
39
0
210
0
220
0
230
1
0
LINE
5
8C
100
AcDbEntity
8
SK4
62
256
6
ByLayer
370
18
48
0.05
60
0
100
AcDbLine
10
-43
20
0
30
0
11
65
21
0
31
0
39
0
210
0
220
0
230
1
0
LINE
5
8E
100
AcDbEntity
8
1
62
256
6
ByLayer
370
18
48
1
60
0
100
AcDbLine
10
46.084858
20
30.423586
30
0
11
46.096133
21
30.434862
31
0
39
0
210
0
220
0
230
1
0
LINE
5
8F
100
AcDbEntity
8
1
62
256
6
ByLayer
370
18
48
1
60
0
100
AcDbLine
10
47.141194
20
29.493344
30
0
11
47.143762
21
29.493313
31
0
39
0
210
0
220
0
230
1
0
LINE
5
90
100
AcDbEntity
8
1
62
256
6
ByLayer
370
18
48
1
60
0
100
AcDbLine
10
49.86303
20
27.699426
30
0
11
49.863162
21
27.699559
31
0
39
0
210
0
220
0
230
1
0
LINE
5
91
100
AcDbEntity
8
1
62
256
6
ByLayer
370
18
48
1
60
0
100
AcDbLine
10
59.132377
20
41.447788
30
0
11
58.480078
21
41.486762
31
0
39
0
210
0
220
0
230
1
0
LINE
5
92
100
AcDbEntity
8
1
62
256
6
ByLayer
370
18
48
1
60
0
100
AcDbLine
10
22.920792
20
31.5
30
0
11
22.920792
21
30.899614
31
0
39
0
210
0
220
0
230
1
0
LINE
5
93
100
AcDbEntity
8
1
62
256
6
ByLayer
370
18
48
1
60
0
100
AcDbLine
10
22.920792
20
-30.899614
30
0
11
22.920792
21
-31.5
31
0
39
0
210
0
220
0
230
1
0
LINE
5
94
100
AcDbEntity
8
1
62
256
6
ByLayer
370
18
48
1
60
0
100
AcDbLine
10
0.3
20
-31.5
30
0
11
0.3
21
31.5
31
0
39
0
210
0
220
0
230
1
0
LINE
5
95
100
AcDbEntity
8
1
62
256
6
ByLayer
370
18
48
1
60
0
100
AcDbLine
10
0
20
-31.2
30
0
11
0
21
31.2
31
0
39
0
210
0
220
0
230
1
0
LINE
5
96
100
AcDbEntity
8
1
62
256
6
ByLayer
370
18
48
1
60
0
100
AcDbLine
10
19.911507
20
23.023701
30
0
11
19.911507
21
-29.985012
31
0
39
0
210
0
220
0
230
1
0
LINE
5
97
100
AcDbEntity
8
SK1
62
256
6
ByLayer
370
18
48
1
60
0
100
AcDbLine
10
-0.2
20
7.059518
30
0
11
-0.2
21
22.533485
31
0
39
0
210
0
220
0
230
1
0
LINE
5
99
100
AcDbEntity
8
SK1
62
256
6
ByLayer
370
18
48
1
60
0
100
AcDbLine
10
-0.2
20
-22.533485
30
0
11
-0.2
21
-7.059517
31
0
39
0
210
0
220
0
230
1
0
LINE
5
9A
100
AcDbEntity
8
1
62
256
6
ByLayer
370
18
48
1
60
0
100
AcDbLine
10
23.896286
20
30.500632
30
0
11
23.896286
21
30.313978
31
0
39
0
210
0
220
0
230
1
0
LINE
5
9B
100
AcDbEntity
8
1
62
256
6
ByLayer
370
18
48
1
60
0
100
AcDbLine
10
23.896286
20
25.274309
30
0
11
23.896286
21
-31.076076
31
0
39
0
210
0
220
0
230
1
0
LINE
5
9C
100
AcDbEntity
8
1
62
256
6
ByLayer
370
18
48
1
60
0
100
AcDbLine
10
22.960985
20
-31.65
30
0
11
22.960985
21
-31.054462
31
0
39
0
210
0
220
0
230
1
0
LINE
5
9D
100
AcDbEntity
8
1
62
256
6
ByLayer
370
18
48
1
60
0
100
AcDbLine
10
48.35135
20
20.356576
30
0
11
47.300126
21
21.851956
31
0
39
0
210
0
220
0
230
1
0
LINE
5
9E
100
AcDbEntity
8
1
62
256
6
ByLayer
370
18
48
1
60
0
100
AcDbLine
10
38.996025
20
33.664643
30
0
11
38.002956
21
35.077295
31
0
39
0
210
0
220
0
230
1
0
LINE
5
9F
100
AcDbEntity
8
1
62
256
6
ByLayer
370
18
48
1
60
0
100
AcDbLine
10
57.850309
20
31.634793
30
0
11
63.325329
21
32.108203
31
0
39
0
210
0
220
0
230
1
0
LINE
5
A0
100
AcDbEntity
8
1
62
256
6
ByLayer
370
18
48
1
60
0
100
AcDbLine
10
27.076227
20
27.280196
30
0
11
49.008903
21
5.34752
31
0
39
0
210
0
220
0
230
1
0
LINE
5
A1
100
AcDbEntity
8
1
62
256
6
ByLayer
370
18
48
1
60
0
100
AcDbLine
10
24.078325
20
30.417061
30
0
11
24.078325
21
35.401156
31
0
39
0
210
0
220
0
230
1
0
LINE
5
A2
100
AcDbEntity
8
1
62
256
6
ByLayer
370
18
48
1
60
0
100
AcDbLine
10
51.826062
20
40.13034
30
0
11
52.088123
21
43.323681
31
0
39
0
210
0
220
0
230
1
0
LINE
5
A3
100
AcDbEntity
8
1
62
256
6
ByLayer
370
18
48
1
60
0
100
AcDbLine
10
42.986951
20
19.739187
30
0
11
42.454693
21
20.49633
31
0
39
0
210
0
220
0
230
1
0
LINE
5
A4
100
AcDbEntity
8
1
62
256
6
ByLayer
370
18
48
1
60
0
100
AcDbLine
10
36.205521
20
29.385854
30
0
11
35.709763
21
30.091076
31
0
39
0
210
0
220
0
230
1
0
LINE
5
A5
100
AcDbEntity
8
1
62
256
6
ByLayer
370
18
48
1
60
0
100
AcDbLine
10
52.198754
20
43.275502
30
0
11
51.943179
21
40.161196
31
0
39
0
210
0
220
0
230
1
0
LINE
5
A6
100
AcDbEntity
8
1
62
256
6
ByLayer
370
18
48
1
60
0
100
AcDbLine
10
57.935612
20
31.7571
30
0
11
58.716598
21
31.82463
31
0
39
0
210
0
220
0
230
1
0
LINE
5
A7
100
AcDbEntity
8
1
62
256
6
ByLayer
370
18
48
1
60
0
100
AcDbLine
10
63.325329
20
32.108203
30
0
11
63.282785
21
32.206035
31
0
39
0
210
0
220
0
230
1
0
LINE
5
A8
100
AcDbEntity
8
1
62
256
6
ByLayer
370
18
48
1
60
0
100
AcDbLine
10
51.98706
20
40.172609
30
0
11
52.249175
21
43.366614
31
0
39
0
210
0
220
0
230
1
0
LINE
5
A9
100
AcDbEntity
8
1
62
256
6
ByLayer
370
18
48
1
60
0
100
AcDbLine
10
63.366614
20
32.249175
30
0
11
57.969647
21
31.806274
31
0
39
0
210
0
220
0
230
1
0
LINE
5
AA
100
AcDbEntity
8
1
62
256
6
ByLayer
370
18
48
1
60
0
100
AcDbLine
10
52.170395
20
43.287835
30
0
11
52.249175
21
43.366614
31
0
39
0
210
0
220
0
230
1
0
LINE
5
AB
100
AcDbEntity
8
1
62
256
6
ByLayer
370
18
48
1
60
0
100
AcDbLine
10
63.295111
20
32.177671
30
0
11
63.366614
21
32.249175
31
0
39
0
210
0
220
0
230
1
0
LINE
5
AC
100
AcDbEntity
8
1
62
256
6
ByLayer
370
18
48
1
60
0
100
AcDbLine
10
54.576776
20
40.492902
30
0
11
56.908205
21
41.105523
31
0
39
0
210
0
220
0
230
1
0
LINE
5
AD
100
AcDbEntity
8
1
62
256
6
ByLayer
370
18
48
1
60
0
100
AcDbLine
10
60.429252
20
36.096814
30
0
11
58.855714
21
33.708339
31
0
39
0
210
0
220
0
230
1
0
LINE
5
AE
100
AcDbEntity
8
1
62
256
6
ByLayer
370
18
48
1
60
0
100
AcDbLine
10
61.310054
20
36.661803
30
0
11
60.916508
21
36.806951
31
0
39
0
210
0
220
0
230
1
0
LINE
5
AF
100
AcDbEntity
8
1
62
256
6
ByLayer
370
18
48
1
60
0
100
AcDbLine
10
57.721742
20
41.766221
30
0
11
57.744052
21
41.319809
31
0
39
0
210
0
220
0
230
1
0
LINE
5
B0
100
AcDbEntity
8
1
62
256
6
ByLayer
370
18
48
1
60
0
100
AcDbLine
10
56.908219
20
41.105527
30
0
11
54.116647
21
40.449721
31
0
39
0
210
0
220
0
230
1
0
LINE
5
B1
100
AcDbEntity
8
1
62
256
6
ByLayer
370
18
48
1
60
0
100
AcDbLine
10
19.682579
20
22.895022
30
0
11
27.008272
21
27.03203
31
0
39
0
210
0
220
0
230
1
0
LINE
5
B2
100
AcDbEntity
8
1
62
256
6
ByLayer
370
18
48
1
60
0
100
AcDbLine
10
45.995409
20
20.886674
30
0
11
47.017893
21
21.757738
31
0
39
0
210
0
220
0
230
1
0
LINE
5
B3
100
AcDbEntity
8
1
62
256
6
ByLayer
370
18
48
1
60
0
100
AcDbLine
10
61.476993
20
38.112543
30
0
11
61.321845
21
37.444313
31
0
39
0
210
0
220
0
230
1
0
LINE
5
B4
100
AcDbEntity
8
1
62
256
6
ByLayer
370
18
48
1
60
0
100
AcDbLine
10
45.746435
20
34.825764
30
0
11
45.316648
21
34.459624
31
0
39
0
210
0
220
0
230
1
0
LINE
5
B5
100
AcDbEntity
8
1
62
256
6
ByLayer
370
18
48
1
60
0
100
AcDbLine
10
41.009521
20
23.156606
30
0
11
41.454128
21
23.535371
31
0
39
0
210
0
220
0
230
1
0
LINE
5
B6
100
AcDbEntity
8
1
62
256
6
ByLayer
370
18
48
1
60
0
100
AcDbLine
10
44.079375
20
33.663136
30
0
11
45.746435
21
34.825764
31
0
39
0
210
0
220
0
230
1
0
LINE
5
B7
100
AcDbEntity
8
1
62
256
6
ByLayer
370
18
48
1
60
0
100
AcDbLine
10
46.055718
20
20.930961
30
0
11
47.612712
21
22.083191
31
0
39
0
210
0
220
0
230
1
0
LINE
5
B8
100
AcDbEntity
8
1
62
256
6
ByLayer
370
18
48
1
60
0
100
AcDbLine
10
38.210604
20
29.487932
30
0
11
43.016858
21
22.650976
31
0
39
0
210
0
220
0
230
1
0
LINE
5
B9
100
AcDbEntity
8
1
62
256
6
ByLayer
370
18
48
1
60
0
100
AcDbLine
10
38.137346
20
27.42491
30
0
11
38.134967
21
27.245694
31
0
39
0
210
0
220
0
230
1
0
LINE
5
BA
100
AcDbEntity
8
1
62
256
6
ByLayer
370
18
48
1
60
0
100
AcDbLine
10
58.726942
20
33.719013
30
0
11
58.093917
21
32.811148
31
0
39
0
210
0
220
0
230
1
0
LINE
5
BB
100
AcDbEntity
8
1
62
256
6
ByLayer
370
18
48
1
60
0
100
AcDbLine
10
38.776049
20
32.668642
30
0
11
45.092372
21
37.073723
31
0
39
0
210
0
220
0
230
1
0
LINE
5
BC
100
AcDbEntity
8
1
62
256
6
ByLayer
370
18
48
1
60
0
100
AcDbLine
10
41.317339
20
29.841888
30
0
11
40.948698
21
29.527839
31
0
39
0
210
0
220
0
230
1
0
LINE
5
BD
100
AcDbEntity
8
1
62
256
6
ByLayer
370
18
48
1
60
0
100
AcDbLine
10
46.177447
20
22.140062
30
0
11
52.49377
21
26.545143
31
0
39
0
210
0
220
0
230
1
0
LINE
5
BE
100
AcDbEntity
8
1
62
256
6
ByLayer
370
18
48
1
60
0
100
AcDbLine
10
50.518195
20
28.037877
30
0
11
48.851134
21
26.875249
31
0
39
0
210
0
220
0
230
1
0
LINE
5
BF
100
AcDbEntity
8
1
62
256
6
ByLayer
370
18
48
1
60
0
100
AcDbLine
10
41.184373
20
23.090476
30
0
11
41.689608
21
23.520891
31
0
39
0
210
0
220
0
230
1
0
LINE
5
C0
100
AcDbEntity
8
1
62
256
6
ByLayer
370
18
48
1
60
0
100
AcDbLine
10
46.320954
20
38.683805
30
0
11
52.414991
21
40.285112
31
0
39
0
210
0
220
0
230
1
0
LINE
5
C1
100
AcDbEntity
8
1
62
256
6
ByLayer
370
18
48
1
60
0
100
AcDbLine
10
41.508228
20
21.365759
30
0
11
36.701974
21
28.202715
31
0
39
0
210
0
220
0
230
1
0
LINE
5
C2
100
AcDbEntity
8
1
62
256
6
ByLayer
370
18
48
1
60
0
100
AcDbLine
10
54.576673
20
26.939942
30
0
11
47.612712
21
22.083191
31
0
39
0
210
0
220
0
230
1
0
LINE
5
C3
100
AcDbEntity
8
1
62
256
6
ByLayer
370
18
48
1
60
0
100
AcDbLine
10
41.184373
20
23.090476
30
0
11
41.009521
21
23.156606
31
0
39
0
210
0
220
0
230
1
0
LINE
5
C4
100
AcDbEntity
8
1
62
256
6
ByLayer
370
18
48
1
60
0
100
AcDbLine
10
38.579574
20
27.624459
30
0
11
41.454128
21
23.535371
31
0
39
0
210
0
220
0
230
1
0
LINE
5
C5
100
AcDbEntity
8
1
62
256
6
ByLayer
370
18
48
1
60
0
100
AcDbLine
10
38.642581
20
27.855325
30
0
11
41.689608
21
23.520891
31
0
39
0
210
0
220
0
230
1
0
LINE
5
C6
100
AcDbEntity
8
1
62
256
6
ByLayer
370
18
48
1
60
0
100
AcDbLine
10
38.134967
20
27.245694
30
0
11
41.009521
21
23.156606
31
0
39
0
210
0
220
0
230
1
0
LINE
5
C7
100
AcDbEntity
8
1
62
256
6
ByLayer
370
18
48
1
60
0
100
AcDbLine
10
41.689608
20
23.520891
30
0
11
41.454128
21
23.535371
31
0
39
0
210
0
220
0
230
1
0
LINE
5
C8
100
AcDbEntity
8
1
62
256
6
ByLayer
370
18
48
1
60
0
100
AcDbLine
10
38.134967
20
27.245694
30
0
11
38.579574
21
27.624459
31
0
39
0
210
0
220
0
230
1
0
LINE
5
C9
100
AcDbEntity
8
1
62
256
6
ByLayer
370
18
48
1
60
0
100
AcDbLine
10
38.137346
20
27.42491
30
0
11
38.642581
21
27.855325
31
0
39
0
210
0
220
0
230
1
0
LINE
5
CA
100
AcDbEntity
8
1
62
256
6
ByLayer
370
18
48
1
60
0
100
AcDbLine
10
52.713014
20
25.729585
30
0
11
47.017893
21
21.757738
31
0
39
0
210
0
220
0
230
1
0
LINE
5
CB
100
AcDbEntity
8
1
62
256
6
ByLayer
370
18
48
1
60
0
100
AcDbLine
10
42.770178
20
24.461363
30
0
11
39.780642
21
28.714015
31
0
39
0
210
0
220
0
230
1
0
LINE
5
CC
100
AcDbEntity
8
1
62
256
6
ByLayer
370
18
48
1
60
0
100
AcDbLine
10
40.948698
20
29.527839
30
0
11
39.780642
21
28.714015
31
0
39
0
210
0
220
0
230
1
0
LINE
5
CD
100
AcDbEntity
8
1
62
256
6
ByLayer
370
18
48
1
60
0
100
AcDbLine
10
43.656873
20
33.303202
30
0
11
45.316648
21
34.459624
31
0
39
0
210
0
220
0
230
1
0
LINE
5
CE
100
AcDbEntity
8
1
62
256
6
ByLayer
370
18
48
1
60
0
100
AcDbLine
10
38.642581
20
27.855325
30
0
11
38.579574
21
27.624459
31
0
39
0
210
0
220
0
230
1
0
LINE
5
CF
100
AcDbEntity
8
1
62
256
6
ByLayer
370
18
48
1
60
0
100
AcDbLine
10
54.07822
20
40.331877
30
0
11
54.102259
21
40.341401
31
0
39
0
210
0
220
0
230
1
0
LINE
5
D0
100
AcDbEntity
8
1
62
256
6
ByLayer
370
18
48
1
60
0
100
AcDbLine
10
38.762174
20
33.501601
30
0
11
44.457295
21
37.473447
31
0
39
0
210
0
220
0
230
1
0
LINE
5
D1
100
AcDbEntity
8
1
62
256
6
ByLayer
370
18
48
1
60
0
100
AcDbLine
10
36.701974
20
28.202715
30
0
11
38.210604
21
29.487932
31
0
39
0
210
0
220
0
230
1
0
LINE
5
D2
100
AcDbEntity
8
1
62
256
6
ByLayer
370
18
48
1
60
0
100
AcDbLine
10
53.005192
20
40.049922
30
0
11
54.07822
21
40.331877
31
0
39
0
210
0
220
0
230
1
0
LINE
5
D3
100
AcDbEntity
8
1
62
256
6
ByLayer
370
18
48
1
60
0
100
AcDbLine
10
44.867746
20
37.756112
30
0
11
46.320954
21
38.683805
31
0
39
0
210
0
220
0
230
1
0
LINE
5
D4
100
AcDbEntity
8
1
62
256
6
ByLayer
370
18
48
1
60
0
100
AcDbLine
10
44.079375
20
33.663136
30
0
11
43.656873
21
33.303202
31
0
39
0
210
0
220
0
230
1
0
LINE
5
D5
100
AcDbEntity
8
1
62
256
6
ByLayer
370
18
48
1
60
0
100
AcDbLine
10
58.744625
20
33.737579
30
0
11
58.726942
21
33.719013
31
0
39
0
210
0
220
0
230
1
0
LINE
5
D6
100
AcDbEntity
8
1
62
256
6
ByLayer
370
18
48
1
60
0
100
AcDbLine
10
41.508228
20
21.365759
30
0
11
43.016858
21
22.650976
31
0
39
0
210
0
220
0
230
1
0
LINE
5
D7
100
AcDbEntity
8
1
62
256
6
ByLayer
370
18
48
1
60
0
100
AcDbLine
10
58.171802
20
32.095976
30
0
11
54.576673
21
26.939942
31
0
39
0
210
0
220
0
230
1
0
LINE
5
D8
100
AcDbEntity
8
1
62
256
6
ByLayer
370
18
48
1
60
0
100
AcDbLine
10
53.123465
20
26.01225
30
0
11
54.576673
21
26.939942
31
0
39
0
210
0
220
0
230
1
0
LINE
5
D9
100
AcDbEntity
8
1
62
256
6
ByLayer
370
18
48
1
60
0
100
AcDbLine
10
60.860649
20
36.715511
30
0
11
59.053836
21
34.12423
31
0
39
0
210
0
220
0
230
1
0
LINE
5
DA
100
AcDbEntity
8
1
62
256
6
ByLayer
370
18
48
1
60
0
100
AcDbLine
10
10.538675
20
9.349221
30
0
11
10.538675
21
23.997901
31
0
39
0
210
0
220
0
230
1
0
LINE
5
DB
100
AcDbEntity
8
1
62
256
6
ByLayer
370
18
48
1
60
0
100
AcDbLine
10
52.088123
20
43.323681
30
0
11
52.198754
21
43.275502
31
0
39
0
210
0
220
0
230
1
0
LINE
5
DC
100
AcDbEntity
8
1
62
256
6
ByLayer
370
18
48
1
60
0
100
AcDbLine
10
10.105662
20
25.691234
30
0
11
10.105662
21
29.913955
31
0
39
0
210
0
220
0
230
1
0
LINE
5
DD
100
AcDbEntity
8
1
62
256
6
ByLayer
370
18
48
1
60
0
100
AcDbLine
10
13.461325
20
9.349221
30
0
11
13.461325
21
23.997901
31
0
39
0
210
0
220
0
230
1
0
LINE
5
DE
100
AcDbEntity
8
1
62
256
6
ByLayer
370
18
48
1
60
0
100
AcDbLine
10
10.538675
20
-30.080593
30
0
11
13.461325
21
-30.080593
31
0
39
0
210
0
220
0
230
1
0
LINE
5
DF
100
AcDbEntity
8
1
62
256
6
ByLayer
370
18
48
1
60
0
100
AcDbLine
10
13.461325
20
-9.349221
30
0
11
10.538675
21
-9.349221
31
0
39
0
210
0
220
0
230
1
0
LINE
5
E0
100
AcDbEntity
8
1
62
256
6
ByLayer
370
18
48
1
60
0
100
AcDbLine
10
24.074659
20
-31.076076
30
0
11
23.896286
21
-31.076076
31
0
39
0
210
0
220
0
230
1
0
LINE
5
E1
100
AcDbEntity
8
1
62
256
6
ByLayer
370
18
48
1
60
0
100
AcDbLine
10
13.461325
20
-30.080593
30
0
11
13.461325
21
-9.349221
31
0
39
0
210
0
220
0
230
1
0
LINE
5
E2
100
AcDbEntity
8
1
62
256
6
ByLayer
370
18
48
1
60
0
100
AcDbLine
10
19.911507
20
29.985012
30
0
11
19.911507
21
28.18212
31
0
39
0
210
0
220
0
230
1
0
LINE
5
E3
100
AcDbEntity
8
1
62
256
6
ByLayer
370
18
48
1
60
0
100
AcDbLine
10
10.538675
20
9.349221
30
0
11
13.461325
21
9.349221
31
0
39
0
210
0
220
0
230
1
0
LINE
5
E4
100
AcDbEntity
8
1
62
256
6
ByLayer
370
18
48
1
60
0
100
AcDbLine
10
62.796284
20
25.661517
30
0
11
49.008903
21
5.34752
31
0
39
0
210
0
220
0
230
1
0
LINE
5
E5
100
AcDbEntity
8
1
62
256
6
ByLayer
370
18
48
1
60
0
100
AcDbLine
10
38.706854
20
17.252661
30
0
11
31.775842
21
27.112111
31
0
39
0
210
0
220
0
230
1
0
LINE
5
E6
100
AcDbEntity
8
1
62
256
6
ByLayer
370
18
48
1
60
0
100
AcDbLine
10
62.796284
20
25.661517
30
0
11
63.325329
21
32.108203
31
0
39
0
210
0
220
0
230
1
0
LINE
5
E7
100
AcDbEntity
8
1
62
256
6
ByLayer
370
18
48
1
60
0
100
AcDbLine
10
10.105662
20
9.869413
30
0
11
10.105662
21
24.752055
31
0
39
0
210
0
220
0
230
1
0
LINE
5
E8
100
AcDbEntity
8
1
62
256
6
ByLayer
370
18
48
1
60
0
100
AcDbLine
10
10.105662
20
-29.913955
30
0
11
10.105662
21
-9.869413
31
0
39
0
210
0
220
0
230
1
0
LINE
5
E9
100
AcDbEntity
8
1
62
256
6
ByLayer
370
18
48
1
60
0
100
AcDbLine
10
13.894338
20
-29.913955
30
0
11
13.894338
21
-9.869413
31
0
39
0
210
0
220
0
230
1
0
LINE
5
EA
100
AcDbEntity
8
1
62
256
6
ByLayer
370
18
48
1
60
0
100
AcDbLine
10
48.35135
20
20.356576
30
0
11
47.759499
21
19.923476
31
0
39
0
210
0
220
0
230
1
0
LINE
5
EB
100
AcDbEntity
8
1
62
256
6
ByLayer
370
18
48
1
60
0
100
AcDbLine
10
13.894338
20
25.691234
30
0
11
13.894338
21
29.913955
31
0
39
0
210
0
220
0
230
1
0
LINE
5
EC
100
AcDbEntity
8
1
62
256
6
ByLayer
370
18
48
1
60
0
100
AcDbLine
10
13.894338
20
9.869413
30
0
11
13.894338
21
24.752055
31
0
39
0
210
0
220
0
230
1
0
LINE
5
ED
100
AcDbEntity
8
1
62
256
6
ByLayer
370
18
48
1
60
0
100
AcDbLine
10
13.461325
20
30.080593
30
0
11
10.538675
21
30.080593
31
0
39
0
210
0
220
0
230
1
0
LINE
5
EE
100
AcDbEntity
8
1
62
256
6
ByLayer
370
18
48
1
60
0
100
AcDbLine
10
34.954614
20
28.732133
30
0
11
41.44661
21
19.497189
31
0
39
0
210
0
220
0
230
1
0
LINE
5
EF
100
AcDbEntity
8
1
62
256
6
ByLayer
370
18
48
1
60
0
100
AcDbLine
10
52.088123
20
43.323681
30
0
11
25.577684
21
41.148111
31
0
39
0
210
0
220
0
230
1
0
LINE
5
F0
100
AcDbEntity
8
1
62
256
6
ByLayer
370
18
48
1
60
0
100
AcDbLine
10
38.002956
20
35.077295
30
0
11
37.411105
21
34.644195
31
0
39
0
210
0
220
0
230
1
0
LINE
5
F1
100
AcDbEntity
8
1
62
256
6
ByLayer
370
18
48
1
60
0
100
AcDbLine
10
13.461325
20
25.9971
30
0
11
13.461325
21
30.080593
31
0
39
0
210
0
220
0
230
1
0
LINE
5
F2
100
AcDbEntity
8
1
62
256
6
ByLayer
370
18
48
1
60
0
100
AcDbLine
10
24.074659
20
-31.076076
30
0
11
49.008903
21
5.34752
31
0
39
0
210
0
220
0
230
1
0
LINE
5
F3
100
AcDbEntity
8
1
62
256
6
ByLayer
370
18
48
1
60
0
100
AcDbLine
10
10.538675
20
-30.080593
30
0
11
10.538675
21
-9.349221
31
0
39
0
210
0
220
0
230
1
0
LINE
5
F4
100
AcDbEntity
8
1
62
256
6
ByLayer
370
18
48
1
60
0
100
AcDbLine
10
10.538675
20
25.9971
30
0
11
10.538675
21
30.080593
31
0
39
0
210
0
220
0
230
1
0
LINE
5
F5
100
AcDbEntity
8
SK1
62
256
6
ByLayer
370
18
48
1
60
0
100
AcDbLine
10
-1.307107
20
-4.811013
30
0
11
-1.307107
21
4.811013
31
0
39
0
210
0
220
0
230
1
0
LINE
5
F6
100
AcDbEntity
8
1
62
256
6
ByLayer
370
18
48
1
60
0
100
AcDbLine
10
52.962883
20
44.080323
30
0
11
64.137451
21
44.99736
31
0
39
0
210
0
220
0
230
1
0
LINE
5
F7
100
AcDbEntity
8
1
62
256
6
ByLayer
370
18
48
1
60
0
100
AcDbLine
10
59.751962
20
34.090447
30
0
11
59.598772
21
34.064248
31
0
39
0
210
0
220
0
230
1
0
LINE
5
F8
100
AcDbEntity
8
1
62
256
6
ByLayer
370
18
48
1
60
0
100
AcDbLine
10
62.106173
20
37.0562
30
0
11
62.539864
21
36.245404
31
0
39
0
210
0
220
0
230
1
0
LINE
5
F9
100
AcDbEntity
8
1
62
256
6
ByLayer
370
18
48
1
60
0
100
AcDbLine
10
54.467169
20
40.829662
30
0
11
53.412547
21
40.925687
31
0
39
0
210
0
220
0
230
1
0
LINE
5
FA
100
AcDbEntity
8
1
62
256
6
ByLayer
370
18
48
1
60
0
100
AcDbLine
10
57.850449
20
42.916155
30
0
11
55.137739
21
42.452205
31
0
39
0
210
0
220
0
230
1
0
LINE
5
FB
100
AcDbEntity
8
1
62
256
6
ByLayer
370
18
48
1
60
0
100
AcDbLine
10
53.412547
20
40.925687
30
0
11
53.721773
21
41.464693
31
0
39
0
210
0
220
0
230
1
0
LINE
5
FC
100
AcDbEntity
8
1
62
256
6
ByLayer
370
18
48
1
60
0
100
AcDbLine
10
61.174302
20
33.865119
30
0
11
59.758336
21
32.877607
31
0
39
0
210
0
220
0
230
1
0
LINE
5
FD
100
AcDbEntity
8
1
62
256
6
ByLayer
370
18
48
1
60
0
100
AcDbLine
10
54.685803
20
41.053008
30
0
11
54.467169
21
40.829662
31
0
39
0
210
0
220
0
230
1
0
LINE
5
FE
100
AcDbEntity
8
1
62
256
6
ByLayer
370
18
48
1
60
0
100
AcDbLine
10
58.366132
20
42.376454
30
0
11
55.851053
21
41.946303
31
0
39
0
210
0
220
0
230
1
0
LINE
5
FF
100
AcDbEntity
8
1
62
256
6
ByLayer
370
18
48
1
60
0
100
AcDbLine
10
60.840097
20
34.849326
30
0
11
61.174302
21
33.865119
31
0
39
0
210
0
220
0
230
1
0
LINE
5
100
100
AcDbEntity
8
1
62
256
6
ByLayer
370
18
48
1
60
0
100
AcDbLine
10
60.098289
20
41.900851
30
0
11
60.159451
21
42.701632
31
0
39
0
210
0
220
0
230
1
0
LINE
5
101
100
AcDbEntity
8
1
62
256
6
ByLayer
370
18
48
1
60
0
100
AcDbLine
10
59.758336
20
32.877607
30
0
11
59.751962
21
34.090447
31
0
39
0
210
0
220
0
230
1
0
LINE
5
102
100
AcDbEntity
8
1
62
256
6
ByLayer
370
18
48
1
60
0
100
AcDbLine
10
58.697745
20
42.417233
30
0
11
60.098289
21
41.900851
31
0
39
0
210
0
220
0
230
1
0
LINE
5
103
100
AcDbEntity
8
1
62
256
6
ByLayer
370
18
48
1
60
0
100
AcDbLine
10
60.840097
20
34.849326
30
0
11
59.751962
21
34.090447
31
0
39
0
210
0
220
0
230
1
0
LINE
5
104
100
AcDbEntity
8
1
62
256
6
ByLayer
370
18
48
1
60
0
100
AcDbLine
10
59.144055
20
32.772547
30
0
11
59.758336
21
32.877607
31
0
39
0
210
0
220
0
230
1
0
LINE
5
105
100
AcDbEntity
8
1
62
256
6
ByLayer
370
18
48
1
60
0
100
AcDbLine
10
58.366132
20
42.376454
30
0
11
57.850449
21
42.916155
31
0
39
0
210
0
220
0
230
1
0
LINE
5
106
100
AcDbEntity
8
1
62
256
6
ByLayer
370
18
48
1
60
0
100
AcDbLine
10
59.320889
20
33.925186
30
0
11
59.144055
21
32.772547
31
0
39
0
210
0
220
0
230
1
0
LINE
5
107
100
AcDbEntity
8
1
62
256
6
ByLayer
370
18
48
1
60
0
100
AcDbLine
10
62.106173
20
37.0562
30
0
11
60.840097
21
34.849326
31
0
39
0
210
0
220
0
230
1
0
LINE
5
108
100
AcDbEntity
8
1
62
256
6
ByLayer
370
18
48
1
60
0
100
AcDbLine
10
62.249943
20
38.840097
30
0
11
63.127249
21
38.479903
31
0
39
0
210
0
220
0
230
1
0
LINE
5
109
100
AcDbEntity
8
1
62
256
6
ByLayer
370
18
48
1
60
0
100
AcDbLine
10
59.320889
20
33.925186
30
0
11
59.598772
21
34.064248
31
0
39
0
210
0
220
0
230
1
0
LINE
5
10A
100
AcDbEntity
8
1
62
256
6
ByLayer
370
18
48
1
60
0
100
AcDbLine
10
55.851053
20
41.946303
30
0
11
55.137739
21
42.452205
31
0
39
0
210
0
220
0
230
1
0
LINE
5
10B
100
AcDbEntity
8
1
62
256
6
ByLayer
370
18
48
1
60
0
100
AcDbLine
10
62.25807
20
37.352626
30
0
11
62.249943
21
38.840097
31
0
39
0
210
0
220
0
230
1
0
LINE
5
10C
100
AcDbEntity
8
1
62
256
6
ByLayer
370
18
48
1
60
0
100
AcDbLine
10
59.598772
20
34.064248
30
0
11
61.310054
21
36.661803
31
0
39
0
210
0
220
0
230
1
0
LINE
5
10D
100
AcDbEntity
8
1
62
256
6
ByLayer
370
18
48
1
60
0
100
AcDbLine
10
54.762918
20
41.187425
30
0
11
54.685803
21
41.053008
31
0
39
0
210
0
220
0
230
1
0
LINE
5
10E
100
AcDbEntity
8
1
62
256
6
ByLayer
370
18
48
1
60
0
100
AcDbLine
10
62.539864
20
36.245404
30
0
11
61.174302
21
33.865119
31
0
39
0
210
0
220
0
230
1
0
LINE
5
10F
100
AcDbEntity
8
1
62
256
6
ByLayer
370
18
48
1
60
0
100
AcDbLine
10
55.137739
20
42.452205
30
0
11
53.721773
21
41.464693
31
0
39
0
210
0
220
0
230
1
0
LINE
5
110
100
AcDbEntity
8
1
62
256
6
ByLayer
370
18
48
1
60
0
100
AcDbLine
10
54.762918
20
41.187425
30
0
11
53.721773
21
41.464693
31
0
39
0
210
0
220
0
230
1
0
LINE
5
111
100
AcDbEntity
8
1
62
256
6
ByLayer
370
18
48
1
60
0
100
AcDbLine
10
54.685803
20
41.053008
30
0
11
57.721742
21
41.766221
31
0
39
0
210
0
220
0
230
1
0
LINE
5
112
100
AcDbEntity
8
1
62
256
6
ByLayer
370
18
48
1
60
0
100
AcDbLine
10
55.851053
20
41.946303
30
0
11
54.762918
21
41.187425
31
0
39
0
210
0
220
0
230
1
0
LINE
5
113
100
AcDbEntity
8
1
62
256
6
ByLayer
370
18
48
1
60
0
100
AcDbLine
10
47.394741
20
31.969087
30
0
11
47.628654
21
32.203
31
0
39
0
210
0
220
0
230
1
0
LINE
5
114
100
AcDbEntity
8
1
62
256
6
ByLayer
370
18
48
1
60
0
100
AcDbLine
10
47.993499
20
31.687328
30
0
11
48.227412
21
31.921242
31
0
39
0
210
0
220
0
230
1
0
LINE
5
115
100
AcDbEntity
8
1
62
256
6
ByLayer
370
18
48
1
60
0
100
AcDbLine
10
48.486325
20
30.416294
30
0
11
48.720239
21
30.650208
31
0
39
0
210
0
220
0
230
1
0
LINE
5
116
100
AcDbEntity
8
1
62
256
6
ByLayer
370
18
48
1
60
0
100
AcDbLine
10
46.113198
20
31.533022
30
0
11
46.347112
21
31.766935
31
0
39
0
210
0
220
0
230
1
0
LINE
5
117
100
AcDbEntity
8
1
62
256
6
ByLayer
370
18
48
1
60
0
100
AcDbLine
10
47.636589
20
29.365979
30
0
11
47.870503
21
29.599893
31
0
39
0
210
0
220
0
230
1
0
LINE
5
118
100
AcDbEntity
8
1
62
256
6
ByLayer
370
18
48
1
60
0
100
AcDbLine
10
64.99736
20
44.137451
30
0
11
64.080323
21
32.962883
31
0
39
0
210
0
220
0
230
1
0
MTEXT
5
1F8
100
AcDbEntity
8
SK6
62
256
6
ByLayer
370
18
48
1
60
0
100
AcDbMText
10
-8.125
20
-42.45
30
0
210
0
220
0
230
1
1
\W0.7310;C6-DCLNR-45065-12-2
40
3.5
41
0
44
1.084337
50
0
71
7
72
5
7
iso_b_vert
0
DIMENSION
5
217
100
AcDbEntity
8
2
62
256
6
ByLayer
370
13
48
1
60
0
100
AcDbDimension
2
DimnDraft3D2
10
63.14468
20
44.915551
30
0
11
52.554118
21
56.53416
31
0
70
34
71
5
72
1
41
1
210
0
220
0
230
1
3
Standard
100
AcDb2LineAngularDimension
13
65
23
45
33
0
14
65
24
43.4125
34
0
15
64.141329
25
44.997341
35
0
16
55.863668
26
53.485082
36
0
40
0
0
DIMENSION
5
22D
100
AcDbEntity
8
SK2
62
256
6
ByLayer
370
13
48
1
60
0
100
AcDbDimension
2
DimnDraft3D3
10
-45.75
20
31.5
30
0
11
-45.75
21
-2.688158
31
0
70
32
71
5
72
1
41
1
210
0
220
0
230
1
3
Standard
100
AcDbAlignedDimension
13
-2
23
-31.5
33
0
14
-2
24
31.5
34
0
50
90
100
AcDbRotatedDimension
1001
ACAD
1000
DSTYLE
1002
{
1070
    74
1070
     0
1070
   279
1070
     0
1070
   172
1070
     1
1070
   173
1070
     1
1070
   340
1005
1F9
1070
    77
1070
     1
1070
    73
1070
     0
1070
   171
1070
     3
1070
   274
1070
     4
1070
   177
1070
     2
1070
   176
1070
     2
1070
   178
1070
     7
1070
    78
1070
     8
1070
    41
1041
3.175
1070
   147
1041
2.25
1070
    42
1041
2.0
1070
    44
1041
2.0
1070
   140
1041
4.5
1070
   343
1005
218
1070
   344
1005
218
1002
}
0
DIMENSION
5
23B
100
AcDbEntity
8
2
62
256
6
ByLayer
370
13
48
1
60
0
100
AcDbDimension
2
DimnDraft3D4
10
87.25
20
45
30
0
11
87.25
21
16.981579
31
0
70
32
71
5
72
1
41
1
210
0
220
0
230
1
3
Standard
100
AcDbAlignedDimension
13
67
23
0
33
0
14
67
24
45
34
0
50
90
100
AcDbRotatedDimension
1001
ACAD
1000
DSTYLE
1002
{
1070
    74
1070
     0
1070
   279
1070
     0
1070
   172
1070
     1
1070
   173
1070
     1
1070
   340
1005
1F9
1070
    77
1070
     1
1070
    73
1070
     0
1070
   171
1070
     3
1070
   274
1070
     4
1070
   177
1070
     2
1070
   176
1070
     2
1070
   178
1070
     7
1070
    78
1070
     8
1070
    41
1041
3.175
1070
   147
1041
2.25
1070
    42
1041
2.0
1070
    44
1041
2.0
1070
   140
1041
4.5
1070
   343
1005
218
1070
   344
1005
218
1002
}
0
ENDSEC
0
SECTION
2
OBJECTS
0
DICTIONARY
5
2a6
330
0
100
AcDbDictionary
280
0
281
1
3
ACAD_GROUP
350
2a7
3
ACAD_MLINESTYLE
350
2a8
0
DICTIONARY
5
2a7
330
0
100
AcDbDictionary
280
0
281
1
0
DICTIONARY
5
2a8
330
0
100
AcDbDictionary
280
0
281
1
3
Standard
350
18
0
MLINESTYLE
5
18
330
2a8
100
AcDbMlineStyle
2
Standard
70
0
3

62
256
51
90
52
90
71
2
49
-0.5
62
256
6
ByLayer
49
0.5
62
256
6
ByLayer
0
RASTERVARIABLES
5
294
330

100
AcDbRasterVariables
90
0
70
1
71
1
72
1
0
ENDSEC
0
EOF
