0
SECTION
2
HEADER
9
$ACADVER
1
AC1015
9
$DWGCODEPAGE
3
ANSI_1252
9
$HANDSEED
5
2ce
9
$ANGBASE
50
0
9
$ANGDIR
70
0
9
$ATTMODE
70
1
9
$AUNITS
70
0
9
$AUPREC
70
0
9
$CECOLOR
62
256
9
$CELTSCALE
40
1
9
$CELTYPE
6
ByLayer
9
$CELWEIGHT
370
18
9
$CLAYER
8
0
9
$CMLJUST
70
0
9
$CMLSCALE
40
1
9
$CMLSTYLE
2
Standard
9
$DIMSTYLE
2
Standard
9
$TEXTSIZE
40
0.2
9
$TEXTSTYLE
7
Standard
9
$LUNITS
70
2
9
$LUPREC
70
4
9
$EXTNAMES
290
1
9
$INSUNITS
70
4
9
$LTSCALE
40
1
9
$LWDISPLAY
290
1
9
$PDMODE
70
0
9
$PDSIZE
40
0
9
$PLINEGEN
70
0
0
ENDSEC
0
SECTION
2
CLASSES
0
CLASS
1
RASTERVARIABLES
2
AcDbRasterVariables
3
ISM
90
0
280
0
281
0
0
ENDSEC
0
SECTION
2
TABLES
0
TABLE
2
VPORT
5
2c4
100
AcDbSymbolTable
0
VPORT
5
1
100
AcDbSymbolTableRecord
100
AcDbViewportTableRecord
2
*Active
70
0
10
0
20
0
11
1
21
1
12
-1
22
1
13
0
23
0
14
0.5
24
0.5
15
10
25
10
16
0
26
0
36
1
17
0
27
0
37
0
0
ENDTAB
0
TABLE
2
LTYPE
5
2c5
100
AcDbSymbolTable
0
LTYPE
5
14
100
AcDbSymbolTableRecord
100
AcDbLinetypeTableRecord
70
0
2
ByBlock
3

72
65
73
0
40
0
0
LTYPE
5
15
100
AcDbSymbolTableRecord
100
AcDbLinetypeTableRecord
70
0
2
ByLayer
3

72
65
73
0
40
0
0
LTYPE
5
16
100
AcDbSymbolTableRecord
100
AcDbLinetypeTableRecord
70
0
2
CONTINUOUS
3
Solid line
72
65
73
0
40
0
0
LTYPE
5
6A
100
AcDbSymbolTableRecord
100
AcDbLinetypeTableRecord
70
0
2
CENTER
3
____ _ ____ _ ____ _ ____
72
65
73
4
40
47.5
49
22
74
0
49
-8.5
74
0
49
8.5
74
0
49
-8.5
74
0
0
LTYPE
5
6B
100
AcDbSymbolTableRecord
100
AcDbLinetypeTableRecord
70
0
2
DASHED
3
__ __ __ __ __ __ __ __ __
72
65
73
2
40
25.72
49
12.86
74
0
49
-12.86
74
0
0
ENDTAB
0
TABLE
2
LAYER
5
2c6
100
AcDbSymbolTable
0
LAYER
5
10
100
AcDbSymbolTableRecord
100
AcDbLayerTableRecord
2
0
70
0
62
7
6
CONTINUOUS
290
1
370
-3
390
0
0
LAYER
5
6D
100
AcDbSymbolTableRecord
100
AcDbLayerTableRecord
2
2
70
0
62
7
6
CONTINUOUS
290
1
370
-3
390
0
0
LAYER
5
6F
100
AcDbSymbolTableRecord
100
AcDbLayerTableRecord
2
80
70
0
62
-6
6
CONTINUOUS
290
1
370
-3
390
0
0
LAYER
5
71
100
AcDbSymbolTableRecord
100
AcDbLayerTableRecord
2
81
70
0
62
-3
6
CONTINUOUS
290
1
370
-3
390
0
0
LAYER
5
73
100
AcDbSymbolTableRecord
100
AcDbLayerTableRecord
2
1
70
0
62
4
6
CONTINUOUS
290
1
370
-3
390
0
0
LAYER
5
8A
100
AcDbSymbolTableRecord
100
AcDbLayerTableRecord
2
4
70
0
62
-2
6
CENTER
290
1
370
-3
390
0
0
LAYER
5
2b0
100
AcDbSymbolTableRecord
100
AcDbLayerTableRecord
2
SK4
70
0
62
2
6
CENTER
290
1
370
-3
390
0
0
LAYER
5
2b1
100
AcDbSymbolTableRecord
100
AcDbLayerTableRecord
2
SK1
70
0
62
4
6
CONTINUOUS
290
1
370
-3
390
0
0
LAYER
5
2b2
100
AcDbSymbolTableRecord
100
AcDbLayerTableRecord
2
SK6
70
0
62
5
6
CONTINUOUS
290
1
370
-3
390
0
0
LAYER
5
2b3
100
AcDbSymbolTableRecord
100
AcDbLayerTableRecord
2
SK2
70
0
62
7
6
CONTINUOUS
290
1
370
-3
390
0
0
ENDTAB
0
TABLE
2
STYLE
5
2c7
100
AcDbSymbolTable
0
STYLE
5
11
100
AcDbSymbolTableRecord
100
AcDbTextStyleTableRecord
2
Standard
3
txt
70
0
71
0
40
0
41
1
42
0
50
0
0
STYLE
5
1F8
100
AcDbSymbolTableRecord
100
AcDbTextStyleTableRecord
2
iso_b_vert
3
simplex.shx
70
0
71
0
40
0
41
1
42
0
50
0
0
STYLE
5
1F9
100
AcDbSymbolTableRecord
100
AcDbTextStyleTableRecord
2
DWGDirectTextStyle
3
simplex
70
0
71
0
40
0
41
1
42
0
50
0
0
ENDTAB
0
TABLE
2
DIMSTYLE
5
2c8
100
AcDbSymbolTable
100
AcDbDimStyleTable
0
DIMSTYLE
105
27
100
AcDbSymbolTableRecord
100
AcDbDimStyleTableRecord
2
Standard
70
0
3
<>
41
0.18
42
0.0625
44
0.18
140
0.18
147
0.09
73
0
74
0
77
1
271
2
275
0
278
52
280
0
340
11
0
ENDTAB
0
TABLE
2
VIEW
5
2c9
100
AcDbSymbolTable
0
ENDTAB
0
TABLE
2
UCS
5
2ca
100
AcDbSymbolTable
0
ENDTAB
0
TABLE
2
APPID
5
2cb
100
AcDbSymbolTable
0
APPID
5
12
100
AcDbSymbolTableRecord
100
AcDbRegAppTableRecord
2
ACAD
70
0
0
ENDTAB
0
TABLE
2
BLOCK_RECORD
5
2cc
100
AcDbSymbolTable
0
BLOCK_RECORD
5
1F
100
AcDbSymbolTableRecord
100
AcDbBlockTableRecord
2
*Model_Space
340
0
70
0
0
BLOCK_RECORD
5
1B
100
AcDbSymbolTableRecord
100
AcDbBlockTableRecord
2
*Paper_Space
340
0
70
0
0
BLOCK_RECORD
5
23
100
AcDbSymbolTableRecord
100
AcDbBlockTableRecord
2
*Paper_Space0
340
0
70
0
0
BLOCK_RECORD
5
1FB
100
AcDbSymbolTableRecord
100
AcDbBlockTableRecord
2
DimnDraft3D11
340
0
70
0
0
BLOCK_RECORD
5
209
100
AcDbSymbolTableRecord
100
AcDbBlockTableRecord
2
DimnDraft3D2
340
0
70
0
0
BLOCK_RECORD
5
218
100
AcDbSymbolTableRecord
100
AcDbBlockTableRecord
2
_CLOSED
340
0
70
0
0
BLOCK_RECORD
5
21F
100
AcDbSymbolTableRecord
100
AcDbBlockTableRecord
2
DimnDraft3D3
340
0
70
0
0
BLOCK_RECORD
5
22D
100
AcDbSymbolTableRecord
100
AcDbBlockTableRecord
2
DimnDraft3D4
340
0
70
0
0
BLOCK_RECORD
5
23B
100
AcDbSymbolTableRecord
100
AcDbBlockTableRecord
2
DimnDraft3D5
340
0
70
0
0
BLOCK_RECORD
5
249
100
AcDbSymbolTableRecord
100
AcDbBlockTableRecord
2
DimnDraft3D6
340
0
70
0
0
ENDTAB
0
ENDSEC
0
SECTION
2
BLOCKS
0
BLOCK
5
20
100
AcDbEntity
8
0
100
AcDbBlockBegin
2
*Model_Space
70
0
10
0
20
0
30
0
3
*Model_Space
0
ENDBLK
5
21
100
AcDbEntity
8
0
100
AcDbBlockEnd
0
BLOCK
5
1C
100
AcDbEntity
8
0
100
AcDbBlockBegin
2
*Paper_Space
70
0
10
0
20
0
30
0
3
*Paper_Space
0
ENDBLK
5
1D
100
AcDbEntity
8
0
100
AcDbBlockEnd
0
BLOCK
5
24
100
AcDbEntity
8
0
100
AcDbBlockBegin
2
*Paper_Space0
70
0
10
0
20
0
30
0
3
*Paper_Space0
0
ENDBLK
5
25
100
AcDbEntity
8
0
100
AcDbBlockEnd
0
BLOCK
5
1FC
100
AcDbEntity
8
0
100
AcDbBlockBegin
2
DimnDraft3D11
70
0
10
0
20
0
30
0
3
DimnDraft3D11
0
LINE
5
1FE
100
AcDbEntity
8
2
62
256
6
ByLayer
370
25
48
1
60
0
100
AcDbLine
10
56
20
-47
30
0
11
56
21
-62.25
31
0
39
0
210
0
220
0
230
1
0
LINE
5
1FF
100
AcDbEntity
8
2
62
256
6
ByLayer
370
25
48
1
60
0
100
AcDbLine
10
0
20
-33.5
30
0
11
0
21
-62.25
31
0
39
0
210
0
220
0
230
1
0
LINE
5
200
100
AcDbEntity
8
2
62
256
6
ByLayer
370
25
48
1
60
0
100
AcDbLine
10
56
20
-60.25
30
0
11
0
21
-60.25
31
0
39
0
210
0
220
0
230
1
0
LINE
5
201
100
AcDbEntity
8
2
62
256
6
ByLayer
370
25
48
1
60
0
100
AcDbLine
10
56
20
-60.25
30
0
11
52.825002
21
-60.667997
31
0
39
0
210
0
220
0
230
1
0
LINE
5
202
100
AcDbEntity
8
2
62
256
6
ByLayer
370
25
48
1
60
0
100
AcDbLine
10
56
20
-60.25
30
0
11
52.824998
21
-59.832003
31
0
39
0
210
0
220
0
230
1
0
LINE
5
203
100
AcDbEntity
8
2
62
256
6
ByLayer
370
25
48
1
60
0
100
AcDbLine
10
52.825002
20
-60.667997
30
0
11
52.824998
21
-59.832003
31
0
39
0
210
0
220
0
230
1
0
LINE
5
204
100
AcDbEntity
8
2
62
256
6
ByLayer
370
25
48
1
60
0
100
AcDbLine
10
0
20
-60.25
30
0
11
3.174998
21
-59.832003
31
0
39
0
210
0
220
0
230
1
0
LINE
5
205
100
AcDbEntity
8
2
62
256
6
ByLayer
370
25
48
1
60
0
100
AcDbLine
10
0
20
-60.25
30
0
11
3.175002
21
-60.667997
31
0
39
0
210
0
220
0
230
1
0
LINE
5
206
100
AcDbEntity
8
2
62
256
6
ByLayer
370
25
48
1
60
0
100
AcDbLine
10
3.174998
20
-59.832003
30
0
11
3.175002
21
-60.667997
31
0
39
0
210
0
220
0
230
1
0
MTEXT
5
207
100
AcDbEntity
8
2
62
256
6
ByLayer
370
18
48
1
60
0
100
AcDbMText
10
23.843421
20
-59.125
30
0
210
0
220
0
230
1
1
\W0.7346;56.0
40
4.5
41
0
44
1.084337
50
0
71
7
72
5
7
iso_b_vert
0
ENDBLK
5
1FD
100
AcDbEntity
8
0
100
AcDbBlockEnd
0
BLOCK
5
215
100
AcDbEntity
8
0
100
AcDbBlockBegin
2
DimnDraft3D2
70
0
10
0
20
0
30
0
3
DimnDraft3D2
0
MTEXT
5
20A
100
AcDbEntity
8
SK2
62
256
6
ByLayer
370
18
48
1
60
0
100
AcDbMText
10
-46.875
20
-1.563158
30
0
210
0
220
0
230
1
1
\W0.6740;63
40
4.5
41
0
44
1.084337
50
90
71
7
72
5
7
iso_b_vert
0
LINE
5
20C
100
AcDbEntity
8
SK2
62
256
6
ByLayer
370
13
48
1
60
0
100
AcDbLine
10
-2
20
-31.5
30
0
11
-47.75
21
-31.5
31
0
39
0
210
0
220
0
230
1
0
LINE
5
20D
100
AcDbEntity
8
SK2
62
256
6
ByLayer
370
13
48
1
60
0
100
AcDbLine
10
-2
20
31.5
30
0
11
-47.75
21
31.5
31
0
39
0
210
0
220
0
230
1
0
LINE
5
20E
100
AcDbEntity
8
SK2
62
256
6
ByLayer
370
13
48
1
60
0
100
AcDbLine
10
-45.75
20
-31.5
30
0
11
-45.75
21
31.5
31
0
39
0
210
0
220
0
230
1
0
LINE
5
20F
100
AcDbEntity
8
SK2
62
256
6
ByLayer
370
13
48
1
60
0
100
AcDbLine
10
-45.75
20
-31.5
30
0
11
-46.167997
21
-28.325002
31
0
39
0
210
0
220
0
230
1
0
LINE
5
210
100
AcDbEntity
8
SK2
62
256
6
ByLayer
370
13
48
1
60
0
100
AcDbLine
10
-45.75
20
-31.5
30
0
11
-45.332003
21
-28.324998
31
0
39
0
210
0
220
0
230
1
0
LINE
5
211
100
AcDbEntity
8
SK2
62
256
6
ByLayer
370
13
48
1
60
0
100
AcDbLine
10
-46.167997
20
-28.325002
30
0
11
-45.332003
21
-28.324998
31
0
39
0
210
0
220
0
230
1
0
LINE
5
212
100
AcDbEntity
8
SK2
62
256
6
ByLayer
370
13
48
1
60
0
100
AcDbLine
10
-45.75
20
31.5
30
0
11
-45.332003
21
28.325002
31
0
39
0
210
0
220
0
230
1
0
LINE
5
213
100
AcDbEntity
8
SK2
62
256
6
ByLayer
370
13
48
1
60
0
100
AcDbLine
10
-45.75
20
31.5
30
0
11
-46.167997
21
28.324998
31
0
39
0
210
0
220
0
230
1
0
LINE
5
214
100
AcDbEntity
8
SK2
62
256
6
ByLayer
370
13
48
1
60
0
100
AcDbLine
10
-45.332003
20
28.325002
30
0
11
-46.167997
21
28.324998
31
0
39
0
210
0
220
0
230
1
0
ENDBLK
5
216
100
AcDbEntity
8
0
100
AcDbBlockEnd
0
BLOCK
5
219
100
AcDbEntity
8
0
100
AcDbBlockBegin
2
_CLOSED
70
0
10
0
20
0
30
0
3
_CLOSED
0
LINE
5
21B
100
AcDbEntity
8
0
62
256
6
ByLayer
370
-2
48
1
60
0
100
AcDbLine
10
-1
20
0.166667
30
0
11
0
21
0
31
0
39
0
210
0
220
0
230
1
0
LINE
5
21C
100
AcDbEntity
8
0
62
256
6
ByLayer
370
-2
48
1
60
0
100
AcDbLine
10
0
20
0
30
0
11
-1
21
-0.166667
31
0
39
0
210
0
220
0
230
1
0
LINE
5
21D
100
AcDbEntity
8
0
62
256
6
ByLayer
370
-2
48
1
60
0
100
AcDbLine
10
-1
20
0.166667
30
0
11
-1
21
-0.166667
31
0
39
0
210
0
220
0
230
1
0
LINE
5
21E
100
AcDbEntity
8
0
62
256
6
ByLayer
370
-2
48
1
60
0
100
AcDbLine
10
0
20
0
30
0
11
-1
21
0
31
0
39
0
210
0
220
0
230
1
0
ENDBLK
5
21A
100
AcDbEntity
8
0
100
AcDbBlockEnd
0
BLOCK
5
22A
100
AcDbEntity
8
0
100
AcDbBlockBegin
2
DimnDraft3D3
70
0
10
0
20
0
30
0
3
DimnDraft3D3
0
MTEXT
5
220
100
AcDbEntity
8
2
62
256
6
ByLayer
370
18
48
1
60
0
100
AcDbMText
10
118.125
20
-22.495233
30
0
210
0
220
0
230
1
1
\W0.7346;36.7
40
4.5
41
0
44
1.084337
50
90
71
7
72
5
7
iso_b_vert
0
LINE
5
221
100
AcDbEntity
8
2
62
256
6
ByLayer
370
13
48
1
60
0
100
AcDbLine
10
58
20
0
30
0
11
121.25
21
0
31
0
39
0
210
0
220
0
230
1
0
LINE
5
222
100
AcDbEntity
8
2
62
256
6
ByLayer
370
13
48
1
60
0
100
AcDbLine
10
66.322692
20
-36.677308
30
0
11
121.25
21
-36.677308
31
0
39
0
210
0
220
0
230
1
0
LINE
5
223
100
AcDbEntity
8
2
62
256
6
ByLayer
370
13
48
1
60
0
100
AcDbLine
10
119.25
20
0
30
0
11
119.25
21
-36.677308
31
0
39
0
210
0
220
0
230
1
0
LINE
5
224
100
AcDbEntity
8
2
62
256
6
ByLayer
370
13
48
1
60
0
100
AcDbLine
10
119.25
20
0
30
0
11
119.667997
21
-3.174998
31
0
39
0
210
0
220
0
230
1
0
LINE
5
225
100
AcDbEntity
8
2
62
256
6
ByLayer
370
13
48
1
60
0
100
AcDbLine
10
119.25
20
0
30
0
11
118.832003
21
-3.175002
31
0
39
0
210
0
220
0
230
1
0
LINE
5
226
100
AcDbEntity
8
2
62
256
6
ByLayer
370
13
48
1
60
0
100
AcDbLine
10
119.667997
20
-3.174998
30
0
11
118.832003
21
-3.175002
31
0
39
0
210
0
220
0
230
1
0
LINE
5
227
100
AcDbEntity
8
2
62
256
6
ByLayer
370
13
48
1
60
0
100
AcDbLine
10
119.25
20
-36.677308
30
0
11
118.832003
21
-33.502309
31
0
39
0
210
0
220
0
230
1
0
LINE
5
228
100
AcDbEntity
8
2
62
256
6
ByLayer
370
13
48
1
60
0
100
AcDbLine
10
119.25
20
-36.677308
30
0
11
119.667997
21
-33.502306
31
0
39
0
210
0
220
0
230
1
0
LINE
5
229
100
AcDbEntity
8
2
62
256
6
ByLayer
370
13
48
1
60
0
100
AcDbLine
10
118.832003
20
-33.502309
30
0
11
119.667997
21
-33.502306
31
0
39
0
210
0
220
0
230
1
0
ENDBLK
5
22B
100
AcDbEntity
8
0
100
AcDbBlockEnd
0
BLOCK
5
238
100
AcDbEntity
8
0
100
AcDbBlockBegin
2
DimnDraft3D4
70
0
10
0
20
0
30
0
3
DimnDraft3D4
0
MTEXT
5
22E
100
AcDbEntity
8
2
62
256
6
ByLayer
370
18
48
1
60
0
100
AcDbMText
10
128.125
20
-26.893421
30
0
210
0
220
0
230
1
1
\W0.7640;45.0
40
4.5
41
0
44
1.084337
50
90
71
7
72
5
7
iso_b_vert
0
LINE
5
22F
100
AcDbEntity
8
2
62
256
6
ByLayer
370
13
48
1
60
0
100
AcDbLine
10
58
20
0
30
0
11
131.25
21
0
31
0
39
0
210
0
220
0
230
1
0
LINE
5
230
100
AcDbEntity
8
2
62
256
6
ByLayer
370
13
48
1
60
0
100
AcDbLine
10
58
20
-45
30
0
11
131.25
21
-45
31
0
39
0
210
0
220
0
230
1
0
LINE
5
231
100
AcDbEntity
8
2
62
256
6
ByLayer
370
13
48
1
60
0
100
AcDbLine
10
129.25
20
0
30
0
11
129.25
21
-45
31
0
39
0
210
0
220
0
230
1
0
LINE
5
232
100
AcDbEntity
8
2
62
256
6
ByLayer
370
13
48
1
60
0
100
AcDbLine
10
129.25
20
0
30
0
11
129.667997
21
-3.174998
31
0
39
0
210
0
220
0
230
1
0
LINE
5
233
100
AcDbEntity
8
2
62
256
6
ByLayer
370
13
48
1
60
0
100
AcDbLine
10
129.25
20
0
30
0
11
128.832003
21
-3.175002
31
0
39
0
210
0
220
0
230
1
0
LINE
5
234
100
AcDbEntity
8
2
62
256
6
ByLayer
370
13
48
1
60
0
100
AcDbLine
10
129.667997
20
-3.174998
30
0
11
128.832003
21
-3.175002
31
0
39
0
210
0
220
0
230
1
0
LINE
5
235
100
AcDbEntity
8
2
62
256
6
ByLayer
370
13
48
1
60
0
100
AcDbLine
10
129.25
20
-45
30
0
11
128.832003
21
-41.825002
31
0
39
0
210
0
220
0
230
1
0
LINE
5
236
100
AcDbEntity
8
2
62
256
6
ByLayer
370
13
48
1
60
0
100
AcDbLine
10
129.25
20
-45
30
0
11
129.667997
21
-41.824998
31
0
39
0
210
0
220
0
230
1
0
LINE
5
237
100
AcDbEntity
8
2
62
256
6
ByLayer
370
13
48
1
60
0
100
AcDbLine
10
128.832003
20
-41.825002
30
0
11
129.667997
21
-41.824998
31
0
39
0
210
0
220
0
230
1
0
ENDBLK
5
239
100
AcDbEntity
8
0
100
AcDbBlockEnd
0
BLOCK
5
246
100
AcDbEntity
8
0
100
AcDbBlockBegin
2
DimnDraft3D5
70
0
10
0
20
0
30
0
3
DimnDraft3D5
0
MTEXT
5
23C
100
AcDbEntity
8
2
62
256
6
ByLayer
370
18
48
1
60
0
100
AcDbMText
10
27.767925
20
-69.125
30
0
210
0
220
0
230
1
1
\W0.7640;64.3
40
4.5
41
0
44
1.084337
50
0
71
7
72
5
7
iso_b_vert
0
LINE
5
23D
100
AcDbEntity
8
2
62
256
6
ByLayer
370
13
48
1
60
0
100
AcDbLine
10
0
20
-33.5
30
0
11
0
21
-72.25
31
0
39
0
210
0
220
0
230
1
0
LINE
5
23E
100
AcDbEntity
8
2
62
256
6
ByLayer
370
13
48
1
60
0
100
AcDbLine
10
64.322692
20
-38.677308
30
0
11
64.322692
21
-72.25
31
0
39
0
210
0
220
0
230
1
0
LINE
5
23F
100
AcDbEntity
8
2
62
256
6
ByLayer
370
13
48
1
60
0
100
AcDbLine
10
0
20
-70.25
30
0
11
64.322692
21
-70.25
31
0
39
0
210
0
220
0
230
1
0
LINE
5
240
100
AcDbEntity
8
2
62
256
6
ByLayer
370
13
48
1
60
0
100
AcDbLine
10
0
20
-70.25
30
0
11
3.174998
21
-69.832003
31
0
39
0
210
0
220
0
230
1
0
LINE
5
241
100
AcDbEntity
8
2
62
256
6
ByLayer
370
13
48
1
60
0
100
AcDbLine
10
0
20
-70.25
30
0
11
3.175002
21
-70.667997
31
0
39
0
210
0
220
0
230
1
0
LINE
5
242
100
AcDbEntity
8
2
62
256
6
ByLayer
370
13
48
1
60
0
100
AcDbLine
10
3.174998
20
-69.832003
30
0
11
3.175002
21
-70.667997
31
0
39
0
210
0
220
0
230
1
0
LINE
5
243
100
AcDbEntity
8
2
62
256
6
ByLayer
370
13
48
1
60
0
100
AcDbLine
10
64.322692
20
-70.25
30
0
11
61.147694
21
-70.667997
31
0
39
0
210
0
220
0
230
1
0
LINE
5
244
100
AcDbEntity
8
2
62
256
6
ByLayer
370
13
48
1
60
0
100
AcDbLine
10
64.322692
20
-70.25
30
0
11
61.147691
21
-69.832003
31
0
39
0
210
0
220
0
230
1
0
LINE
5
245
100
AcDbEntity
8
2
62
256
6
ByLayer
370
13
48
1
60
0
100
AcDbLine
10
61.147694
20
-70.667997
30
0
11
61.147691
21
-69.832003
31
0
39
0
210
0
220
0
230
1
0
ENDBLK
5
247
100
AcDbEntity
8
0
100
AcDbBlockEnd
0
BLOCK
5
254
100
AcDbEntity
8
0
100
AcDbBlockBegin
2
DimnDraft3D6
70
0
10
0
20
0
30
0
3
DimnDraft3D6
0
MTEXT
5
24A
100
AcDbEntity
8
2
62
256
6
ByLayer
370
18
48
1
60
0
100
AcDbMText
10
79.965061
20
9.33353
30
0
210
0
220
0
230
1
1
\W0.7785;45%%d
40
4.5
41
0
44
1.084337
50
337.5
71
7
72
5
7
iso_b_vert
0
LINE
5
24B
100
AcDbEntity
8
2
62
256
6
ByLayer
370
13
48
1
60
0
100
AcDbLine
10
66.065688
20
-34.934312
30
0
11
99.232233
21
-1.767767
31
0
39
0
210
0
220
0
230
1
0
LINE
5
24C
100
AcDbEntity
8
2
62
256
6
ByLayer
370
13
48
1
60
0
100
AcDbLine
10
64.322692
20
-34.348526
30
0
11
64.322692
21
12.692238
31
0
39
0
210
0
220
0
230
1
0
ARC
5
24D
100
AcDbEntity
8
2
62
256
6
ByLayer
370
13
48
1
60
0
100
AcDbCircle
39
0
10
64.322692
20
-36.677308
30
0
40
47.369546276522
210
0
220
0
230
1
100
AcDbArc
50
45
51
90
0
LINE
5
24E
100
AcDbEntity
8
2
62
256
6
ByLayer
370
13
48
1
60
0
100
AcDbLine
10
97.818019
20
-3.181981
30
0
11
95.245092
21
-1.275314
31
0
39
0
210
0
220
0
230
1
0
LINE
5
24F
100
AcDbEntity
8
2
62
256
6
ByLayer
370
13
48
1
60
0
100
AcDbLine
10
97.818019
20
-3.181981
30
0
11
95.826242
21
-0.674357
31
0
39
0
210
0
220
0
230
1
0
LINE
5
250
100
AcDbEntity
8
2
62
256
6
ByLayer
370
13
48
1
60
0
100
AcDbLine
10
95.245092
20
-1.275314
30
0
11
95.826242
21
-0.674357
31
0
39
0
210
0
220
0
230
1
0
LINE
5
251
100
AcDbEntity
8
2
62
256
6
ByLayer
370
13
48
1
60
0
100
AcDbLine
10
64.322692
20
10.692238
30
0
11
67.504246
21
11.056997
31
0
39
0
210
0
220
0
230
1
0
LINE
5
252
100
AcDbEntity
8
2
62
256
6
ByLayer
370
13
48
1
60
0
100
AcDbLine
10
64.322692
20
10.692238
30
0
11
67.490247
21
10.221121
31
0
39
0
210
0
220
0
230
1
0
LINE
5
253
100
AcDbEntity
8
2
62
256
6
ByLayer
370
13
48
1
60
0
100
AcDbLine
10
67.504246
20
11.056997
30
0
11
67.490247
21
10.221121
31
0
39
0
210
0
220
0
230
1
0
ENDBLK
5
255
100
AcDbEntity
8
0
100
AcDbBlockEnd
0
ENDSEC
0
SECTION
2
ENTITIES
0
ARC
5
11B
100
AcDbEntity
8
SK1
62
256
6
ByLayer
370
18
48
1
60
0
100
AcDbCircle
39
0
10
0.6
20
-23.45
30
0
40
0.999999999999999
210
0
220
0
230
-1
100
AcDbArc
50
113.578178
51
126.869898
0
ARC
5
11C
100
AcDbEntity
8
SK1
62
256
6
ByLayer
370
18
48
1
60
0
100
AcDbCircle
39
0
10
0.6
20
23.45
30
0
40
0.999999999999999
210
0
220
0
230
-1
100
AcDbArc
50
233.130102
51
246.421822
0
ARC
5
11D
100
AcDbEntity
8
1
62
256
6
ByLayer
370
18
48
1
60
0
100
AcDbCircle
39
0
10
-34.2
20
7.541196
30
0
40
10.2
210
0
220
0
230
-1
100
AcDbArc
50
315
51
348.470155
0
ARC
5
11E
100
AcDbEntity
8
1
62
256
6
ByLayer
370
18
48
1
60
0
100
AcDbCircle
39
0
10
-34.2
20
7.541196
30
0
40
10.2
210
0
220
0
230
-1
100
AcDbArc
50
357.854065
51
0
0
ELLIPSE
5
11F
100
AcDbEntity
8
1
62
256
6
ByLayer
370
18
48
1
60
0
100
AcDbEllipse
10
54.973383
20
-27.789748
30
0
11
-0.561266007566826
21
-0.561266007566818
31
0
210
0
220
0
230
1
40
0.990268
41
3.14159265358979
42
-1.68919539560949
0
ELLIPSE
5
120
100
AcDbEntity
8
1
62
256
6
ByLayer
370
18
48
1
60
0
100
AcDbEllipse
10
35.826177
20
-40.920065
30
0
11
1.95985733071548
21
2.27133424295959
31
0
210
0
220
0
230
1
40
0.988257
41
0.25115740613415
42
0.625434656542337
0
ELLIPSE
5
121
100
AcDbEntity
8
1
62
256
6
ByLayer
370
18
48
1
60
0
100
AcDbEllipse
10
40.735866
20
-35.722472
30
0
11
2.71113597415641
21
3.14201236942743
31
0
210
0
220
0
230
1
40
0.988257
41
-2.86027306847416
42
-2.51615799704746
0
ELLIPSE
5
122
100
AcDbEntity
8
1
62
256
6
ByLayer
370
18
48
1
60
0
100
AcDbEllipse
10
42.763428
20
-35.886788
30
0
11
2.71113597415641
21
3.14201236942743
31
0
210
0
220
0
230
1
40
0.988257
41
-2.51615799704746
42
0.169069312201361
0
ELLIPSE
5
123
100
AcDbEntity
8
1
62
256
6
ByLayer
370
18
48
1
60
0
100
AcDbEllipse
10
34.072769
20
-39.05226
30
0
11
-0.927402318147951
21
-2.85970971936774
31
0
210
0
220
0
230
1
40
0.892529
41
-1.32362126116269
42
0.128972526796658
0
ELLIPSE
5
124
100
AcDbEntity
8
1
62
256
6
ByLayer
370
18
48
1
60
0
100
AcDbEllipse
10
12
20
19.981782
30
0
11
-1.99999999999999
21
2.02127811016472E-15
31
0
210
0
220
0
230
1
40
0.681998
41
-1.57079637267776
42
-0.241510339410133
0
ELLIPSE
5
125
100
AcDbEntity
8
1
62
256
6
ByLayer
370
18
48
1
60
0
100
AcDbEllipse
10
12
20
19.981782
30
0
11
-1.99999999999999
21
2.02127811016472E-15
31
0
210
0
220
0
230
1
40
0.681998
41
-2.89998444442311
42
-1.57079637267779
0
ELLIPSE
5
126
100
AcDbEntity
8
1
62
256
6
ByLayer
370
18
48
1
60
0
100
AcDbEllipse
10
12
20
19.981782
30
0
11
-1.64999999999999
21
1.66755444088589E-15
31
0
210
0
220
0
230
1
40
0.681998
41
-1.57079606964746
42
0
0
ELLIPSE
5
127
100
AcDbEntity
8
1
62
256
6
ByLayer
370
18
48
1
60
0
100
AcDbEllipse
10
12
20
19.981782
30
0
11
-1.64999999999999
21
1.66755444088589E-15
31
0
210
0
220
0
230
1
40
0.681998
41
0
42
0.53927364821774
0
ELLIPSE
5
128
100
AcDbEntity
8
1
62
256
6
ByLayer
370
18
48
1
60
0
100
AcDbEllipse
10
12
20
19.981782
30
0
11
-1.64999999999999
21
1.66755444088589E-15
31
0
210
0
220
0
230
1
40
0.681998
41
2.60222080710129
42
-1.57079606964749
0
ELLIPSE
5
129
100
AcDbEntity
8
1
62
256
6
ByLayer
370
18
48
1
60
0
100
AcDbEllipse
10
23.896286
20
13.851497
30
0
11
-0.482301752987331
21
-32.1949883573941
31
0
210
0
220
0
230
1
40
0.123336
41
-1.29172327434998
42
-1.28694239625021
0
ELLIPSE
5
12A
100
AcDbEntity
8
1
62
256
6
ByLayer
370
18
48
1
60
0
100
AcDbEllipse
10
41.919376
20
-35.793751
30
0
11
0.813172798364521
21
0.813172798364539
31
0
210
0
220
0
230
1
40
0.990268
41
-3.04622376307405
42
-0.0518932620060979
0
ELLIPSE
5
12B
100
AcDbEntity
8
1
62
256
6
ByLayer
370
18
48
1
60
0
100
AcDbEllipse
10
55.716525
20
-36.390614
30
0
11
-3.88908729652604
21
-3.88908729652598
31
0
210
0
220
0
230
1
40
0.990268
41
-2.00712863979349
42
-1.7691038877942
0
ELLIPSE
5
12C
100
AcDbEntity
8
1
62
256
6
ByLayer
370
18
48
1
60
0
100
AcDbEllipse
10
55.982233
20
-36.656322
30
0
11
3.37752183087591
21
3.37752183087598
31
0
210
0
220
0
230
1
40
0.990268
41
1.22799189686218
42
1.2484202548335
0
ELLIPSE
5
12D
100
AcDbEntity
8
1
62
256
6
ByLayer
370
18
48
1
60
0
100
AcDbEllipse
10
55.982233
20
-36.656322
30
0
11
3.37752183087591
21
3.37752183087598
31
0
210
0
220
0
230
1
40
0.990268
41
-2.98688582168118
42
-2.97332114885654
0
ELLIPSE
5
12E
100
AcDbEntity
8
1
62
256
6
ByLayer
370
18
48
1
60
0
100
AcDbEllipse
10
55.716525
20
-36.390614
30
0
11
-3.88908729652604
21
-3.88908729652598
31
0
210
0
220
0
230
1
40
0.990268
41
0.124769193572803
42
0.261799387799137
0
ELLIPSE
5
12F
100
AcDbEntity
8
1
62
256
6
ByLayer
370
18
48
1
60
0
100
AcDbEllipse
10
54.685483
20
-28.624381
30
0
11
1.12253201513363
21
1.12253201513365
31
0
210
0
220
0
230
1
40
0.990268
41
0.769493819711891
42
0.977526286597411
0
ELLIPSE
5
130
100
AcDbEntity
8
1
62
256
6
ByLayer
370
18
48
1
60
0
100
AcDbEllipse
10
41.899694
20
-35.774069
30
0
11
2.82842712474616
21
2.82842712474622
31
0
210
0
220
0
230
1
40
0.990268
41
0.914833695725088
42
3.1415355569659
0
ELLIPSE
5
131
100
AcDbEntity
8
1
62
256
6
ByLayer
370
18
48
1
60
0
100
AcDbEllipse
10
41.899694
20
-35.774069
30
0
11
2.82842712474616
21
2.82842712474622
31
0
210
0
220
0
230
1
40
0.990268
41
-0.770729019682509
42
0
0
ELLIPSE
5
132
100
AcDbEntity
8
1
62
256
6
ByLayer
370
18
48
1
60
0
100
AcDbEllipse
10
41.899694
20
-35.774069
30
0
11
2.82842712474616
21
2.82842712474622
31
0
210
0
220
0
230
1
40
0.990268
41
4.10677414807151E-05
42
0.495234537356959
0
ELLIPSE
5
133
100
AcDbEntity
8
1
62
256
6
ByLayer
370
18
48
1
60
0
100
AcDbEllipse
10
9.576015
20
19.074965
30
0
11
-1.59045019640988
21
-1.52002242507793
31
0
210
0
220
0
230
1
40
0.170548
41
2.0264584111026
42
2.6501641926075
0
ELLIPSE
5
134
100
AcDbEntity
8
1
62
256
6
ByLayer
370
18
48
1
60
0
100
AcDbEllipse
10
12
20
16.538669
30
0
11
-1.04396511559009
21
3.7294861877388
31
0
210
0
220
0
230
1
40
0.360772
41
-0.134192727879109
42
-0.103464860303133
0
ELLIPSE
5
135
100
AcDbEntity
8
1
62
256
6
ByLayer
370
18
48
1
60
0
100
AcDbEllipse
10
22.987713
20
5.041858
30
0
11
1.59045019640988
21
1.52002242507793
31
0
210
0
220
0
230
1
40
0.170548
41
-3.14156514976237
42
-5.45351186510876E-05
0
ELLIPSE
5
136
100
AcDbEntity
8
1
62
256
6
ByLayer
370
18
48
1
60
0
100
AcDbEllipse
10
23.157912
20
4.863773
30
0
11
-1.40971721954513
21
-1.34729260404635
31
0
210
0
220
0
230
1
40
0.170548
41
0.174017516797017
42
2.9675587833331
0
ELLIPSE
5
137
100
AcDbEntity
8
1
62
256
6
ByLayer
370
18
48
1
60
0
100
AcDbEllipse
10
40.759416
20
-35.774635
30
0
11
-0.26870057685089
21
-0.268700576850886
31
0
210
0
220
0
230
1
40
0.990268
41
0.429104837925029
42
0.544806318595293
0
ELLIPSE
5
138
100
AcDbEntity
8
1
62
256
6
ByLayer
370
18
48
1
60
0
100
AcDbEllipse
10
40.564731
20
-36.553578
30
0
11
0.300520382004279
21
0.300520382004286
31
0
210
0
220
0
230
1
40
0.990268
41
-8.87311462958667E-06
42
0.544806318595325
0
ELLIPSE
5
139
100
AcDbEntity
8
1
62
256
6
ByLayer
370
18
48
1
60
0
100
AcDbEllipse
10
42.724362
20
-34.850864
30
0
11
-0.26870057685089
21
-0.268700576850886
31
0
210
0
220
0
230
1
40
0.990268
41
1.89865463419673
42
2.71250485419728
0
ELLIPSE
5
13A
100
AcDbEntity
8
1
62
256
6
ByLayer
370
18
48
1
60
0
100
AcDbEllipse
10
41.281686
20
-36.903936
30
0
11
-0.26870057685089
21
-0.268700576850886
31
0
210
0
220
0
230
1
40
0.990268
41
0.429102886325621
42
1.59200386979192
0
ELLIPSE
5
13B
100
AcDbEntity
8
1
62
256
6
ByLayer
370
18
48
1
60
0
100
AcDbEllipse
10
43.441317
20
-35.201222
30
0
11
0.300520382004279
21
0.300520382004286
31
0
210
0
220
0
230
1
40
0.990268
41
1.89865463419674
42
3.14158432898253
0
ELLIPSE
5
13C
100
AcDbEntity
8
1
62
256
6
ByLayer
370
18
48
1
60
0
100
AcDbEllipse
10
41.857312
20
-37.45542
30
0
11
0.300520382004279
21
0.300520382004286
31
0
210
0
220
0
230
1
40
0.990268
41
1.69656586835885E-05
42
1.5920038697919
0
ELLIPSE
5
13D
100
AcDbEntity
8
1
62
256
6
ByLayer
370
18
48
1
60
0
100
AcDbEllipse
10
43.246633
20
-35.980164
30
0
11
-0.26870057685089
21
-0.268700576850886
31
0
210
0
220
0
230
1
40
0.990268
41
0.851457083000143
42
2.71246349637746
0
ELLIPSE
5
13E
100
AcDbEntity
8
1
62
256
6
ByLayer
370
18
48
1
60
0
100
AcDbEllipse
10
42.525295
20
-37.006701
30
0
11
-0.26870057685089
21
-0.268700576850886
31
0
210
0
220
0
230
1
40
0.990268
41
0.285446270348192
42
2.63920142098849
0
ELLIPSE
5
13F
100
AcDbEntity
8
1
62
256
6
ByLayer
370
18
48
1
60
0
100
AcDbEllipse
10
55.913345
20
-36.587435
30
0
11
1.73241161390702
21
1.73241161390706
31
0
210
0
220
0
230
1
40
0.990268
41
0.120206996090533
42
0.21867636305923
0
ELLIPSE
5
140
100
AcDbEntity
8
1
62
256
6
ByLayer
370
18
48
1
60
0
100
AcDbEllipse
10
42.003024
20
-35.8774
30
0
11
0.813172798364521
21
0.813172798364539
31
0
210
0
220
0
230
1
40
0.990268
41
0.80890339161629
42
1.42534268770768
0
ELLIPSE
5
141
100
AcDbEntity
8
1
62
256
6
ByLayer
370
18
48
1
60
0
100
AcDbEllipse
10
42.003024
20
-35.8774
30
0
11
0.813172798364521
21
0.813172798364539
31
0
210
0
220
0
230
1
40
0.990268
41
2.13377187642986
42
2.76670434671561
0
ELLIPSE
5
142
100
AcDbEntity
8
1
62
256
6
ByLayer
370
18
48
1
60
0
100
AcDbEllipse
10
42.003024
20
-35.8774
30
0
11
0.813172798364521
21
0.813172798364539
31
0
210
0
220
0
230
1
40
0.990268
41
3.14153568868254
42
0
0
ELLIPSE
5
143
100
AcDbEntity
8
1
62
256
6
ByLayer
370
18
48
1
60
0
100
AcDbEllipse
10
42.003024
20
-35.8774
30
0
11
0.813172798364521
21
0.813172798364539
31
0
210
0
220
0
230
1
40
0.990268
41
0
42
0.259811201569484
0
ELLIPSE
5
144
100
AcDbEntity
8
1
62
256
6
ByLayer
370
18
48
1
60
0
100
AcDbEllipse
10
42.224447
20
-36.098823
30
0
11
0.830850467894184
21
0.830850467894203
31
0
210
0
220
0
230
1
40
0.990268
41
-1.45950725329418
42
-1.33301954989678
0
ELLIPSE
5
145
100
AcDbEntity
8
1
62
256
6
ByLayer
370
18
48
1
60
0
100
AcDbEllipse
10
43.295604
20
-36.779242
30
0
11
0.300520382004279
21
0.300520382004286
31
0
210
0
220
0
230
1
40
0.990268
41
0.851457083000163
42
2.63920142098846
0
ELLIPSE
5
146
100
AcDbEntity
8
1
62
256
6
ByLayer
370
18
48
1
60
0
100
AcDbEllipse
10
42.746718
20
-37.228124
30
0
11
-0.26870057685089
21
-0.268700576850886
31
0
210
0
220
0
230
1
40
0.990268
41
-0.195740468196476
42
2.6392014209885
0
ELLIPSE
5
147
100
AcDbEntity
8
1
62
256
6
ByLayer
370
18
48
1
60
0
100
AcDbEllipse
10
41.503109
20
-37.125359
30
0
11
-0.26870057685089
21
-0.268700576850886
31
0
210
0
220
0
230
1
40
0.990268
41
-1.24293801939308
42
1.5920038697919
0
ELLIPSE
5
148
100
AcDbEntity
8
1
62
256
6
ByLayer
370
18
48
1
60
0
100
AcDbEllipse
10
42.224447
20
-36.098823
30
0
11
0.830850467894184
21
0.830850467894203
31
0
210
0
220
0
230
1
40
0.990268
41
0.634887849099023
42
0.761375552496413
0
ELLIPSE
5
149
100
AcDbEntity
8
1
62
256
6
ByLayer
370
18
48
1
60
0
100
AcDbEllipse
10
40.931867
20
-35.196981
30
0
11
0.300520382004279
21
0.300520382004286
31
0
210
0
220
0
230
1
40
0.990268
41
-2.29013557058968
42
-1.57189912014394
0
ELLIPSE
5
14A
100
AcDbEntity
8
1
62
256
6
ByLayer
370
18
48
1
60
0
100
AcDbEllipse
10
42.078735
20
-37.676843
30
0
11
0.300520382004279
21
0.300520382004286
31
0
210
0
220
0
230
1
40
0.990268
41
0.873767419346178
42
1.5920038697919
0
ELLIPSE
5
14B
100
AcDbEntity
8
1
62
256
6
ByLayer
370
18
48
1
60
0
100
AcDbEllipse
10
42.224447
20
-36.098823
30
0
11
-1.62634559672907
21
-1.62634559672904
31
0
210
0
220
0
230
1
40
0.990268
41
0
42
6.28318530717959
0
ELLIPSE
5
14C
100
AcDbEntity
8
1
62
256
6
ByLayer
370
18
48
1
60
0
100
AcDbEllipse
10
40.980839
20
-35.996058
30
0
11
-0.26870057685089
21
-0.268700576850886
31
0
210
0
220
0
230
1
40
0.990268
41
-2.29013557058965
42
0.544806318595319
0
ELLIPSE
5
14D
100
AcDbEntity
8
1
62
256
6
ByLayer
370
18
48
1
60
0
100
AcDbEllipse
10
42.224447
20
-36.098823
30
0
11
0.830850467894184
21
0.830850467894203
31
0
210
0
220
0
230
1
40
0.990268
41
2.72928295149221
42
2.85577065488961
0
ELLIPSE
5
14E
100
AcDbEntity
8
1
62
256
6
ByLayer
370
18
48
1
60
0
100
AcDbEllipse
10
43.66274
20
-35.422645
30
0
11
0.300520382004279
21
0.300520382004286
31
0
210
0
220
0
230
1
40
0.990268
41
1.89865463419674
42
2.6168910846425
0
ELLIPSE
5
14F
100
AcDbEntity
8
1
62
256
6
ByLayer
370
18
48
1
60
0
100
AcDbEllipse
10
42.945785
20
-35.072287
30
0
11
-0.26870057685089
21
-0.268700576850886
31
0
210
0
220
0
230
1
40
0.990268
41
1.89865463419676
42
-1.54958878379789
0
ELLIPSE
5
150
100
AcDbEntity
8
1
62
256
6
ByLayer
370
18
48
1
60
0
100
AcDbEllipse
10
42.224447
20
-36.098823
30
0
11
0.830850467894184
21
0.830850467894203
31
0
210
0
220
0
230
1
40
0.990268
41
1.68208540029562
42
1.80857310369302
0
ELLIPSE
5
151
100
AcDbEntity
8
1
62
256
6
ByLayer
370
18
48
1
60
0
100
AcDbEllipse
10
43.517028
20
-37.000665
30
0
11
0.300520382004279
21
0.300520382004286
31
0
210
0
220
0
230
1
40
0.990268
41
0.851457083000163
42
1.56969353344585
0
ELLIPSE
5
152
100
AcDbEntity
8
1
62
256
6
ByLayer
370
18
48
1
60
0
100
AcDbEllipse
10
41.702177
20
-34.969522
30
0
11
-0.26870057685089
21
-0.268700576850886
31
0
210
0
220
0
230
1
40
0.990268
41
2.9458521853933
42
-0.502391232601323
0
ELLIPSE
5
153
100
AcDbEntity
8
1
62
256
6
ByLayer
370
18
48
1
60
0
100
AcDbEllipse
10
42.37016
20
-34.520803
30
0
11
0.300520382004279
21
0.300520382004286
31
0
210
0
220
0
230
1
40
0.990268
41
2.94585218539331
42
-2.61909667134054
0
ELLIPSE
5
154
100
AcDbEntity
8
1
62
256
6
ByLayer
370
18
48
1
60
0
100
AcDbEllipse
10
40.931867
20
-35.196981
30
0
11
0.300520382004279
21
0.300520382004286
31
0
210
0
220
0
230
1
40
0.990268
41
-1.22062768304702
42
-0.502391232601288
0
ELLIPSE
5
155
100
AcDbEntity
8
1
62
256
6
ByLayer
370
18
48
1
60
0
100
AcDbEllipse
10
42.37016
20
-34.520803
30
0
11
0.300520382004279
21
0.300520382004286
31
0
210
0
220
0
230
1
40
0.990268
41
-2.26782523424365
42
-1.54958878379787
0
ELLIPSE
5
156
100
AcDbEntity
8
1
62
256
6
ByLayer
370
18
48
1
60
0
100
AcDbEllipse
10
43.468056
20
-36.201587
30
0
11
-0.26870057685089
21
-0.268700576850886
31
0
210
0
220
0
230
1
40
0.990268
41
0.851457083000143
42
-2.5967863349945
0
ELLIPSE
5
157
100
AcDbEntity
8
1
62
256
6
ByLayer
370
18
48
1
60
0
100
AcDbEllipse
10
43.66274
20
-35.422645
30
0
11
0.300520382004279
21
0.300520382004286
31
0
210
0
220
0
230
1
40
0.990268
41
2.96816252173933
42
-2.59678633499451
0
ELLIPSE
5
158
100
AcDbEntity
8
1
62
256
6
ByLayer
370
18
48
1
60
0
100
AcDbEllipse
10
42.139146
20
-36.013522
30
0
11
-2.82842712474621
21
-2.82842712474617
31
0
210
0
220
0
230
1
40
0.990268
41
0
42
6.28318530717959
0
ELLIPSE
5
159
100
AcDbEntity
8
1
62
256
6
ByLayer
370
18
48
1
60
0
100
AcDbEllipse
10
40.786154
20
-36.775001
30
0
11
0.300520382004279
21
0.300520382004286
31
0
210
0
220
0
230
1
40
0.990268
41
-0.173430131850413
42
0.544806318595302
0
ELLIPSE
5
15A
100
AcDbEntity
8
1
62
256
6
ByLayer
370
18
48
1
60
0
100
AcDbEllipse
10
42.078735
20
-37.676843
30
0
11
0.300520382004279
21
0.300520382004286
31
0
210
0
220
0
230
1
40
0.990268
41
-0.195740468196488
42
0.522495982249294
0
ELLIPSE
5
15B
100
AcDbEntity
8
1
62
256
6
ByLayer
370
18
48
1
60
0
100
AcDbEllipse
10
42.224447
20
-36.098823
30
0
11
0.830850467894184
21
0.830850467894203
31
0
210
0
220
0
230
1
40
0.990268
41
-0.412309702097566
42
-0.28582199870019
0
ELLIPSE
5
15C
100
AcDbEntity
8
1
62
256
6
ByLayer
370
18
48
1
60
0
100
AcDbEllipse
10
42.224447
20
-36.098823
30
0
11
0.830850467894184
21
0.830850467894203
31
0
210
0
220
0
230
1
40
0.990268
41
-2.50670480449077
42
-2.38021710109338
0
ELLIPSE
5
15D
100
AcDbEntity
8
1
62
256
6
ByLayer
370
18
48
1
60
0
100
AcDbEllipse
10
43.517028
20
-37.000665
30
0
11
0.300520382004279
21
0.300520382004286
31
0
210
0
220
0
230
1
40
0.990268
41
1.92096497054275
42
2.63920142098847
0
ELLIPSE
5
15E
100
AcDbEntity
8
1
62
256
6
ByLayer
370
18
48
1
60
0
100
AcDbEllipse
10
40.786154
20
-36.775001
30
0
11
0.300520382004279
21
0.300520382004286
31
0
210
0
220
0
230
1
40
0.990268
41
-1.24293801939304
42
-0.524701568947311
0
ELLIPSE
5
15F
100
AcDbEntity
8
1
62
256
6
ByLayer
370
18
48
1
60
0
100
AcDbEllipse
10
58.46049
20
-38.353968
30
0
11
-1.40819469433599
21
-1.06491119977861
31
0
210
0
220
0
230
1
40
0.888799
41
0.80114846761276
42
1.82210602805904
0
ELLIPSE
5
160
100
AcDbEntity
8
1
62
256
6
ByLayer
370
18
48
1
60
0
100
AcDbEllipse
10
58.660947
20
-36.183087
30
0
11
-1.08917214736759
21
-2.42666868037797
31
0
210
0
220
0
230
1
40
0.572768
41
2.74765992363708
42
-2.51456782309519
0
ELLIPSE
5
161
100
AcDbEntity
8
1
62
256
6
ByLayer
370
18
48
1
60
0
100
AcDbEllipse
10
53.849314
20
-32.070366
30
0
11
-4.36754831300345
21
8.4522304533416
31
0
210
0
220
0
230
1
40
0.721729
41
2.43525933983082
42
2.49883000029766
0
ELLIPSE
5
162
100
AcDbEntity
8
1
62
256
6
ByLayer
370
18
48
1
60
0
100
AcDbEllipse
10
56.311079
20
-36.439745
30
0
11
-3.18198051533949
21
-3.18198051533944
31
0
210
0
220
0
230
1
40
0.990268
41
1.1344640137963
42
1.6580627893946
0
ELLIPSE
5
163
100
AcDbEntity
8
1
62
256
6
ByLayer
370
18
48
1
60
0
100
AcDbEllipse
10
56.645674
20
-36.77434
30
0
11
-2.53778696600236
21
-2.53778696600232
31
0
210
0
220
0
230
1
40
0.990268
41
1.1344640137963
42
1.22822851335425
0
ELLIPSE
5
164
100
AcDbEntity
8
1
62
256
6
ByLayer
370
18
48
1
60
0
100
AcDbEllipse
10
56.311079
20
-36.439745
30
0
11
-3.18198051533949
21
-3.18198051533944
31
0
210
0
220
0
230
1
40
0.990268
41
2.87979326579063
42
-2.87979326579065
0
ELLIPSE
5
165
100
AcDbEntity
8
1
62
256
6
ByLayer
370
18
48
1
60
0
100
AcDbEllipse
10
56.645674
20
-36.77434
30
0
11
-2.53778696600236
21
-2.53778696600232
31
0
210
0
220
0
230
1
40
0.990268
41
-2.97355776534862
42
-2.87979326579066
0
ELLIPSE
5
166
100
AcDbEntity
8
1
62
256
6
ByLayer
370
18
48
1
60
0
100
AcDbEllipse
10
56.645674
20
-36.77434
30
0
11
2.3069367246205
21
2.30693672462055
31
0
210
0
220
0
230
1
40
0.990268
41
-1.48352986419519
42
-0.261799387799159
0
ELLIPSE
5
167
100
AcDbEntity
8
1
62
256
6
ByLayer
370
18
48
1
60
0
100
AcDbEllipse
10
56.311079
20
-36.439745
30
0
11
-3.18198051533949
21
-3.18198051533944
31
0
210
0
220
0
230
1
40
0.990268
41
1.6580627893946
42
2.87979326579063
0
ELLIPSE
5
168
100
AcDbEntity
8
1
62
256
6
ByLayer
370
18
48
1
60
0
100
AcDbEllipse
10
53.22983
20
-38.77918
30
0
11
-7.54429230076219
21
-2.78448425412623
31
0
210
0
220
0
230
1
40
0.767882
41
-2.00474735623715
42
-1.94117669693234
0
ELLIPSE
5
169
100
AcDbEntity
8
1
62
256
6
ByLayer
370
18
48
1
60
0
100
AcDbEllipse
10
56.05112
20
-36.725209
30
0
11
2.37173880782499
21
2.37173880782505
31
0
210
0
220
0
230
1
40
0.990268
41
-2.06821516361329
42
0.322885911618939
0
ELLIPSE
5
16A
100
AcDbEntity
8
1
62
256
6
ByLayer
370
18
48
1
60
0
100
AcDbEllipse
10
26.347154
20
0
30
0
11
-14.7536831606553
21
31.09325491558
31
0
210
0
220
0
230
1
40
0.341999
41
0.157806186645436
42
1.09123958575285
0
ELLIPSE
5
16B
100
AcDbEntity
8
1
62
256
6
ByLayer
370
18
48
1
60
0
100
AcDbEllipse
10
-2.347154
20
0
30
0
11
-14.7536831606548
21
-31.0932549155792
31
0
210
0
220
0
230
1
40
0.341999
41
2.05035306783692
42
2.98378646694436
0
ELLIPSE
5
16C
100
AcDbEntity
8
1
62
256
6
ByLayer
370
18
48
1
60
0
100
AcDbEllipse
10
32.631496
20
-25.502492
30
0
11
-5.60999618791239
21
0.408870916689092
31
0
210
0
220
0
230
1
40
0.70821
41
3.1279064437344
42
-2.46559405748057
0
ELLIPSE
5
16D
100
AcDbEntity
8
1
62
256
6
ByLayer
370
18
48
1
60
0
100
AcDbEllipse
10
26.347154
20
0
30
0
11
-14.7536831606555
21
-31.0932549155802
31
0
210
0
220
0
230
1
40
0.341999
41
-1.09123958575285
42
-0.157806186645435
0
ELLIPSE
5
16E
100
AcDbEntity
8
1
62
256
6
ByLayer
370
18
48
1
60
0
100
AcDbEllipse
10
-2.347154
20
0
30
0
11
-14.7536831606537
21
31.093254915578
31
0
210
0
220
0
230
1
40
0.341999
41
-2.98378646694435
42
-2.05035306783689
0
ELLIPSE
5
16F
100
AcDbEntity
8
1
62
256
6
ByLayer
370
18
48
1
60
0
100
AcDbEllipse
10
12
20
18.185217
30
0
11
-1.87686272355921
21
-2.86780973811241
31
0
210
0
220
0
230
1
40
0.240927
41
2.46235164835305
42
3.11536358140552
0
ELLIPSE
5
170
100
AcDbEntity
8
1
62
256
6
ByLayer
370
18
48
1
60
0
100
AcDbEllipse
10
12
20
20.403367
30
0
11
-2.00000000000004
21
4.6858133692652E-15
31
0
210
0
220
0
230
1
40
0.707538
41
-2.39008803209745
42
-0.751504621492326
0
ELLIPSE
5
171
100
AcDbEntity
8
1
62
256
6
ByLayer
370
18
48
1
60
0
100
AcDbEllipse
10
12
20
20.403367
30
0
11
-1.99999999999995
21
4.68581336926498E-15
31
0
210
0
220
0
230
1
40
0.707538
41
0.751504621492281
42
2.3900880320975
0
ELLIPSE
5
172
100
AcDbEntity
8
1
62
256
6
ByLayer
370
18
48
1
60
0
100
AcDbEllipse
10
19.656168
20
13.223973
30
0
11
-0.0111827713115805
21
-2.92399779288113
31
0
210
0
220
0
230
1
40
0.063017
41
1.80279751516701
42
-2.90959146521745
0
ELLIPSE
5
173
100
AcDbEntity
8
1
62
256
6
ByLayer
370
18
48
1
60
0
100
AcDbEllipse
10
53.725002
20
-31.085948
30
0
11
-1.7701799898523
21
-1.77017998985229
31
0
210
0
220
0
230
1
40
0.50533
41
-1.91312681181313
42
-1.5707963267949
0
ELLIPSE
5
174
100
AcDbEntity
8
1
62
256
6
ByLayer
370
18
48
1
60
0
100
AcDbEllipse
10
19.397547
20
12.269069
30
0
11
-0.011182771311622
21
-2.92399779288179
31
0
210
0
220
0
230
1
40
0.063017
41
-2.90959146521752
42
-1.33879513842255
0
ELLIPSE
5
175
100
AcDbEntity
8
1
62
256
6
ByLayer
370
18
48
1
60
0
100
AcDbEllipse
10
20.755893
20
0
30
0
11
3.69007802829627E-14
21
31.5
31
0
210
0
220
0
230
1
40
0.087489
41
0.311401384074102
42
2.8301912695157
0
ELLIPSE
5
176
100
AcDbEntity
8
1
62
256
6
ByLayer
370
18
48
1
60
0
100
AcDbEllipse
10
24.474225
20
-58.320268
30
0
11
-2.4766975212919E-15
21
40.448875894876
31
0
210
0
220
0
230
-1
40
0.09889
41
-0.144992258454301
42
-0.0985697832949692
0
ELLIPSE
5
177
100
AcDbEntity
8
1
62
256
6
ByLayer
370
18
48
1
60
0
100
AcDbEllipse
10
12
20
18.185217
30
0
11
-1.87686272356697
21
2.86780973812226
31
0
210
0
220
0
230
1
40
0.240927
41
0.0262290721842244
42
0.679241005235345
0
ELLIPSE
5
178
100
AcDbEntity
8
1
62
256
6
ByLayer
370
18
48
1
60
0
100
AcDbEllipse
10
63.536014
20
-36.352379
30
0
11
-0.561266007566826
21
-0.561266007566818
31
0
210
0
220
0
230
1
40
0.990268
41
1.57079632679493
42
3.14159265358979
0
ELLIPSE
5
179
100
AcDbEntity
8
1
62
256
6
ByLayer
370
18
48
1
60
0
100
AcDbEllipse
10
55.75476
20
-28.571126
30
0
11
-0.561266007566826
21
-0.561266007566818
31
0
210
0
220
0
230
1
40
0.990268
41
3.14159265358978
42
-1.57079632679493
0
ELLIPSE
5
17A
100
AcDbEntity
8
1
62
256
6
ByLayer
370
18
48
1
60
0
100
AcDbEllipse
10
55.678289
20
-44.210103
30
0
11
-0.561266007566826
21
-0.561266007566818
31
0
210
0
220
0
230
1
40
0.990268
41
0
42
1.57079632679488
0
ELLIPSE
5
17B
100
AcDbEntity
8
1
62
256
6
ByLayer
370
18
48
1
60
0
100
AcDbEllipse
10
30.956279
20
-27.408554
30
0
11
6.97034682705625
21
-0.643634298765073
31
0
210
0
220
0
230
1
40
0.089459
41
0.770472553435584
42
1.17773393699328
0
ELLIPSE
5
17C
100
AcDbEntity
8
1
62
256
6
ByLayer
370
18
48
1
60
0
100
AcDbEllipse
10
37.925664
20
-37.879874
30
0
11
-4.97881916218304
21
0.459738784832197
31
0
210
0
220
0
230
1
40
0.089459
41
0.868909860835141
42
1.30994096619142
0
ELLIPSE
5
17D
100
AcDbEntity
8
1
62
256
6
ByLayer
370
18
48
1
60
0
100
AcDbEllipse
10
43.829156
20
-32.29784
30
0
11
-8.93349008485654
21
4.17340011171424
31
0
210
0
220
0
230
1
40
0.155819
41
-0.398361051280319
42
0.320839848664849
0
ELLIPSE
5
17E
100
AcDbEntity
8
1
62
256
6
ByLayer
370
18
48
1
60
0
100
AcDbEllipse
10
38.324033
20
-33.565668
30
0
11
-4.52332049300502
21
5.3906386862197
31
0
210
0
220
0
230
1
40
0.00866
41
-1.47613314729552
42
-1.01206961881674
0
ELLIPSE
5
17F
100
AcDbEntity
8
1
62
256
6
ByLayer
370
18
48
1
60
0
100
AcDbEllipse
10
53.755699
20
-40.213732
30
0
11
-1.03100520231961
21
-0.305175916409484
31
0
210
0
220
0
230
1
40
0.133742
41
0.886604320123054
42
1.41020309573845
0
ELLIPSE
5
180
100
AcDbEntity
8
1
62
256
6
ByLayer
370
18
48
1
60
0
100
AcDbEllipse
10
34.83837
20
-30.761051
30
0
11
-0.927402318147559
21
-2.85970971936764
31
0
210
0
220
0
230
1
40
0.892529
41
-2.89441758795775
42
-1.32362126116282
0
ELLIPSE
5
181
100
AcDbEntity
8
1
62
256
6
ByLayer
370
18
48
1
60
0
100
AcDbEllipse
10
56.703357
20
-39.318385
30
0
11
-4.73551489850734
21
-2.60362364127675
31
0
210
0
220
0
230
1
40
0.5394
41
-0.339437585049554
42
-0.259699317072298
0
ELLIPSE
5
182
100
AcDbEntity
8
1
62
256
6
ByLayer
370
18
48
1
60
0
100
AcDbEllipse
10
33.326125
20
-30.017068
30
0
11
-2.73778371220907
21
-1.26103867913448
31
0
210
0
220
0
230
1
40
0.989073
41
-1.7445306603462
42
-1.7384217331575
0
ELLIPSE
5
183
100
AcDbEntity
8
1
62
256
6
ByLayer
370
18
48
1
60
0
100
AcDbEllipse
10
38.401875
20
-32.722663
30
0
11
-4.97881916218304
21
0.459738784832197
31
0
210
0
220
0
230
1
40
0.089459
41
0.868909860835123
42
1.30994096619142
0
ELLIPSE
5
184
100
AcDbEntity
8
1
62
256
6
ByLayer
370
18
48
1
60
0
100
AcDbEllipse
10
57.153722
20
-34.441078
30
0
11
-1.45137292931203
21
7.52397529637233
31
0
210
0
220
0
230
1
40
0.578723
41
1.01551135162374
42
1.09524961983924
0
ELLIPSE
5
185
100
AcDbEntity
8
1
62
256
6
ByLayer
370
18
48
1
60
0
100
AcDbEllipse
10
54.424874
20
-32.966789
30
0
11
-0.948846714878127
21
0.518309738880144
31
0
210
0
220
0
230
1
40
0.285329
41
-1.34087229642704
42
-0.817273520828812
0
ELLIPSE
5
186
100
AcDbEntity
8
1
62
256
6
ByLayer
370
18
48
1
60
0
100
AcDbEllipse
10
43.063554
20
-40.589048
30
0
11
-9.44916306478117
21
-1.28078877127035
31
0
210
0
220
0
230
1
40
0.101433
41
-0.28831234310128
42
0.430888556844604
0
ELLIPSE
5
187
100
AcDbEntity
8
1
62
256
6
ByLayer
370
18
48
1
60
0
100
AcDbEllipse
10
38.003506
20
-37.036868
30
0
11
-5.41653244115674
21
-4.54504811362528
31
0
210
0
220
0
230
1
40
0.098043
41
0.921976262592168
42
1.38603979091247
0
POINT
5
6C
100
AcDbEntity
8
2
62
256
6
ByLayer
370
18
48
1
60
0
100
AcDbPoint
10
56
20
45
30
0
39
0
210
0
220
0
230
1
50
360
0
POINT
5
6E
100
AcDbEntity
8
80
62
256
6
ByLayer
370
18
48
1
60
0
100
AcDbPoint
10
0
20
0
30
0
39
0
210
0
220
0
230
1
50
360
0
POINT
5
70
100
AcDbEntity
8
81
62
256
6
ByLayer
370
18
48
1
60
0
100
AcDbPoint
10
56
20
-45
30
0
39
0
210
0
220
0
230
1
50
360
0
SPLINE
5
188
100
AcDbEntity
8
SK1
62
256
6
ByLayer
370
18
48
1
60
0
100
AcDbSpline
70
4
71
3
72
13
73
9
40
0
40
0
40
0
40
0
40
0.239456135835734
40
0.368359722028796
40
0.499998984123831
40
0.631638415376812
40
0.760542467847005
40
1
40
1
40
1
40
1
41
1
10
-2.20000000000002
20
-22.0200986775813
30
0
41
1
10
-2.1990919864239
20
-21.9940412014509
30
0
41
1
10
-2.19103284107058
20
-21.9566686170919
30
0
41
1
10
-2.16563592203488
20
-21.9104494432231
30
0
41
1
10
-2.13886378679459
20
-21.8791678893421
30
0
41
1
10
-2.10627712750079
20
-21.854000519123
30
0
41
1
10
-2.05884064234345
20
-21.8309567166392
30
0
41
1
10
-2.02111030873169
20
-21.8247844616134
30
0
41
1
10
-1.99503997793931
20
-21.8251861015554
30
0
0
SPLINE
5
189
100
AcDbEntity
8
SK1
62
256
6
ByLayer
370
18
48
1
60
0
100
AcDbSpline
70
4
71
3
72
13
73
9
40
0
40
0
40
0
40
0
40
0.239457532221833
40
0.36836158471627
40
0.500001015978903
40
0.631640278066344
40
0.760543864236282
40
1
40
1
40
1
40
1
41
1
10
-1.99503997793926
20
21.825186084775
30
0
41
1
10
-2.02111030873024
20
21.8247844448325
30
0
41
1
10
-2.05884064234075
20
21.8309566998545
30
0
41
1
10
-2.10627712749866
20
21.8540005023229
30
0
41
1
10
-2.13886378679257
20
21.8791678725253
30
0
41
1
10
-2.16563592203335
20
21.9104494263859
30
0
41
1
10
-2.19103284106939
20
21.9566686002238
30
0
41
1
10
-2.1990919864227
20
21.9940411845603
30
0
41
1
10
-2.19999999999996
20
22.0200986606755
30
0
0
SPLINE
5
18A
100
AcDbEntity
8
SK1
62
256
6
ByLayer
370
18
48
1
60
0
100
AcDbSpline
70
4
71
2
72
6
73
3
40
0
40
0
40
0
40
1
40
1
40
1
41
1
10
-36.5
20
-21.1521149580209
30
0
41
1
10
-19.349999999987
20
-21.5828539542123
30
0
41
1
10
-2.20000000000002
20
-22.0135927638551
30
0
0
SPLINE
5
18B
100
AcDbEntity
8
SK1
62
256
6
ByLayer
370
18
48
1
60
0
100
AcDbSpline
70
4
71
2
72
6
73
3
40
0
40
0
40
0
40
1
40
1
40
1
41
1
10
-2.19999999999996
20
22.0135928951589
30
0
41
1
10
-19.34999999997
20
21.5828554470541
30
0
41
1
10
-36.5
20
21.152117708967
30
0
0
SPLINE
5
18C
100
AcDbEntity
8
SK1
62
256
6
ByLayer
370
18
48
1
60
0
100
AcDbSpline
70
4
71
2
72
6
73
3
40
0
40
0
40
0
40
1
40
1
40
1
41
1
10
-1.99503997793931
20
-21.8251813124779
30
0
41
1
10
-1.19500843340731
20
-21.8452807593862
30
0
41
1
10
-0.394976888875306
20
-21.8653802062992
30
0
0
SPLINE
5
18D
100
AcDbEntity
8
SK1
62
256
6
ByLayer
370
18
48
1
60
0
100
AcDbSpline
70
4
71
2
72
6
73
3
40
0
40
0
40
0
40
1
40
1
40
1
41
1
10
-0.394976888875249
20
21.8653801495793
30
0
41
1
10
-1.19500843340725
20
21.8452807024746
30
0
41
1
10
-1.99503997793926
20
21.8251812553753
30
0
0
SPLINE
5
18E
100
AcDbEntity
8
SK1
62
256
6
ByLayer
370
18
48
1
60
0
100
AcDbSpline
70
4
71
2
72
6
73
3
40
0
40
0
40
0
40
1
40
1
40
1
41
1
10
-36.5
20
21.1553029418638
30
0
41
1
10
-37.2500000000011
20
20.7223540793632
30
0
41
1
10
-38
20
20.2894052255531
30
0
0
SPLINE
5
18F
100
AcDbEntity
8
SK1
62
256
6
ByLayer
370
18
48
1
60
0
100
AcDbSpline
70
4
71
2
72
6
73
3
40
0
40
0
40
0
40
1
40
1
40
1
41
1
10
-38
20
-20.2894050057151
30
0
41
1
10
-37.2500000000012
20
-20.7223538609616
30
0
41
1
10
-36.5
20
-21.1553027248969
30
0
0
SPLINE
5
190
100
AcDbEntity
8
SK1
62
256
6
ByLayer
370
18
48
1
60
0
100
AcDbSpline
70
4
71
2
72
6
73
3
40
0
40
0
40
0
40
1
40
1
40
1
41
1
10
-0.24050243965425
20
21.9465691723769
30
0
41
1
10
-0.265172990616975
20
21.8689012906761
30
0
41
1
10
-0.394976888875249
20
21.8653849865467
30
0
0
SPLINE
5
191
100
AcDbEntity
8
SK1
62
256
6
ByLayer
370
18
48
1
60
0
100
AcDbSpline
70
4
71
2
72
6
73
3
40
0
40
0
40
0
40
1
40
1
40
1
41
1
10
-0.394976888875306
20
-21.865385003355
30
0
41
1
10
-0.264174311740391
20
-21.8692639605625
30
0
41
1
10
-0.239684768755808
20
-21.9481214799355
30
0
0
SPLINE
5
192
100
AcDbEntity
8
1
62
256
6
ByLayer
370
18
48
1
60
0
100
AcDbSpline
70
4
71
3
72
12
73
8
40
0
40
0
40
0
40
0
40
0.266204607786946
40
0.266204607786946
40
0.710629091250026
40
0.710629091250026
40
1
40
1
40
1
40
1
41
1
10
30.2843802147937
20
-40.1989971851915
30
0
41
1
10
30.3341412030362
20
-40.2755297225312
30
0
41
1
10
30.3922943883867
20
-40.3523800393218
30
0
41
1
10
30.5698053097198
20
-40.552755314422
30
0
41
1
10
30.7069362039652
20
-40.6755041795756
30
0
41
1
10
30.9691277244913
20
-40.8565130609624
30
0
41
1
10
31.083811834115
20
-40.9235946138782
30
0
41
1
10
31.2044481013624
20
-40.9831569609153
30
0
0
SPLINE
5
193
100
AcDbEntity
8
1
62
256
6
ByLayer
370
18
48
1
60
0
100
AcDbSpline
70
4
71
2
72
6
73
3
40
0
40
0
40
0
40
1
40
1
40
1
41
0.885266336006555
10
30.3622346206037
20
-40.3274032371659
30
0
41
0.900382635377673
10
29.9874205763314
20
-40.6853578657222
30
0
41
0.939793054000773
10
29.5768198131397
20
-40.8564484236033
30
0
0
SPLINE
5
194
100
AcDbEntity
8
SK1
62
256
6
ByLayer
370
18
48
1
60
0
100
AcDbSpline
70
4
71
3
72
299
73
295
40
0
40
0
40
0
40
0
40
0.0032949416443709
40
0.0068176686554569
40
0.0103403956665429
40
0.0138631226776289
40
0.0173858496887149
40
0.0209085766998009
40
0.0244313037108869
40
0.0279540307219729
40
0.0349994847441449
40
0.0420449387663168
40
0.0490903927884888
40
0.0526131197995748
40
0.0561358468106608
40
0.0596585738217468
40
0.0631813008328328
40
0.0702267548550048
40
0.0737494818660908
40
0.0772722088771768
40
0.0807949358882628
40
0.0843176628993488
40
0.0878403899104348
40
0.0913631169215207
40
0.0984085709436927
40
0.101931297954779
40
0.105454024965865
40
0.108976751976951
40
0.112499478988037
40
0.116022205999123
40
0.119544933010209
40
0.123067660021295
40
0.126590387032381
40
0.130113114043467
40
0.133635841054553
40
0.137158568065639
40
0.140681295076725
40
0.144204022087811
40
0.147726749098897
40
0.154772203121069
40
0.158294930132155
40
0.161817657143241
40
0.163579020648784
40
0.165340384154327
40
0.168863111165413
40
0.175908565187585
40
0.179431292198671
40
0.182954019209757
40
0.186476746220843
40
0.189999473231929
40
0.1970449272541
40
0.200567654265186
40
0.204090381276272
40
0.205851744781816
40
0.207613108287358
40
0.211135835298445
40
0.218181289320617
40
0.221704016331703
40
0.225226743342788
40
0.228749470353874
40
0.23227219736496
40
0.239317651387133
40
0.242840378398219
40
0.246363105409305
40
0.248124468914847
40
0.24988583242039
40
0.253408559431476
40
0.256931286442562
40
0.260454013453648
40
0.262215376959191
40
0.263976740464734
40
0.26749946747582
40
0.271022194486906
40
0.274544921497992
40
0.278067648509078
40
0.281590375520164
40
0.28511310253125
40
0.288635829542336
40
0.292158556553422
40
0.295681283564508
40
0.299204010575594
40
0.30272673758668
40
0.306249464597766
40
0.309772191608852
40
0.313294918619938
40
0.316817645631024
40
0.323863099653196
40
0.327385826664282
40
0.330908553675368
40
0.334431280686454
40
0.33795400769754
40
0.341476734708626
40
0.344999461719712
40
0.348522188730798
40
0.352044915741884
40
0.359090369764056
40
0.366135823786228
40
0.3731812778084
40
0.376704004819486
40
0.380226731830572
40
0.383749458841658
40
0.387272185852744
40
0.39079491286383
40
0.394317639874916
40
0.397840366886002
40
0.401363093897088
40
0.404885820908174
40
0.40840854791926
40
0.411931274930346
40
0.415454001941432
40
0.418976728952518
40
0.422499455963604
40
0.42602218297469
40
0.429544909985776
40
0.433067636996862
40
0.434829000502405
40
0.436590364007948
40
0.438351727513491
40
0.440113091019034
40
0.44363581803012
40
0.447158545041206
40
0.448919908546749
40
0.450681272052292
40
0.452442635557835
40
0.454203999063378
40
0.457726726074464
40
0.459488089580007
40
0.46124945308555
40
0.463010816591093
40
0.464772180096636
40
0.466533543602179
40
0.468294907107722
40
0.470056270613265
40
0.471817634118808
40
0.473578997624351
40
0.475340361129894
40
0.477101724635437
40
0.47886308814098
40
0.480624451646523
40
0.482385815152066
40
0.484147178657609
40
0.485908542163152
40
0.487669905668695
40
0.489431269174238
40
0.491192632679781
40
0.492953996185324
40
0.494715359690867
40
0.49647672319641
40
0.498238086701953
40
0.499999450207496
40
0.501760813713039
40
0.503522177218582
40
0.505283540724125
40
0.507044904229668
40
0.508806267735211
40
0.510567631240754
40
0.512328994746297
40
0.51409035825184
40
0.515851721757383
40
0.517613085262926
40
0.519374448768469
40
0.521135812274012
40
0.522897175779555
40
0.524658539285098
40
0.526419902790641
40
0.528181266296184
40
0.529942629801727
40
0.53170399330727
40
0.533465356812813
40
0.535226720318356
40
0.536988083823899
40
0.538749447329442
40
0.540510810834985
40
0.542272174340528
40
0.545794901351614
40
0.547556264857157
40
0.5493176283627
40
0.551078991868243
40
0.552840355373786
40
0.556363082384872
40
0.559885809395958
40
0.561647172901501
40
0.563408536407044
40
0.565169899912587
40
0.56693126341813
40
0.570453990429216
40
0.573976717440302
40
0.577499444451388
40
0.581022171462474
40
0.58454489847356
40
0.588067625484646
40
0.591590352495732
40
0.595113079506818
40
0.598635806517904
40
0.60215853352899
40
0.605681260540076
40
0.609203987551162
40
0.612726714562248
40
0.616249441573334
40
0.61977216858442
40
0.623294895595506
40
0.626817622606592
40
0.633863076628764
40
0.640908530650936
40
0.647953984673108
40
0.651476711684194
40
0.65499943869528
40
0.658522165706366
40
0.662044892717452
40
0.665567619728538
40
0.669090346739624
40
0.67261307375071
40
0.676135800761796
40
0.683181254783968
40
0.686703981795054
40
0.69022670880614
40
0.693749435817226
40
0.697272162828312
40
0.700794889839398
40
0.704317616850484
40
0.70784034386157
40
0.711363070872656
40
0.714885797883742
40
0.718408524894828
40
0.721931251905914
40
0.725453978917
40
0.732499432939172
40
0.736022159950258
40
0.739544886961344
40
0.746590340983516
40
0.750113067994601
40
0.753635795005687
40
0.757158522016773
40
0.76068124902786
40
0.767726703050031
40
0.771249430061117
40
0.774772157072203
40
0.77829488408329
40
0.781817611094375
40
0.788863065116547
40
0.792385792127633
40
0.79590851913872
40
0.799431246149805
40
0.802953973160891
40
0.809999427183063
40
0.813522154194149
40
0.817044881205235
40
0.820567608216321
40
0.824090335227407
40
0.831135789249579
40
0.834658516260665
40
0.838181243271751
40
0.841703970282837
40
0.845226697293923
40
0.852272151316095
40
0.855794878327181
40
0.859317605338267
40
0.862840332349353
40
0.866363059360439
40
0.869885786371525
40
0.873408513382611
40
0.876931240393697
40
0.880453967404783
40
0.883976694415869
40
0.887499421426955
40
0.891022148438041
40
0.894544875449127
40
0.898067602460213
40
0.901590329471299
40
0.908635783493471
40
0.912158510504557
40
0.915681237515643
40
0.919203964526729
40
0.922726691537815
40
0.926249418548901
40
0.929772145559987
40
0.936817599582159
40
0.940340326593245
40
0.943863053604331
40
0.947385780615417
40
0.950908507626503
40
0.957953961648675
40
0.961476688659761
40
0.964999415670847
40
0.968522142681933
40
0.972044869693019
40
0.975567596704105
40
0.979090323715191
40
0.982613050726277
40
0.986135777737363
40
0.989658504748449
40
0.993181231759535
40
0.996703958770621
40
1
40
1
40
1
40
1
41
1
10
-1.99503997793931
20
-21.8251672712592
30
0
41
1
10
-1.99503997793934
20
-21.8252770376257
30
0
41
1
10
-1.99503997793928
20
-21.8245105484915
30
0
41
1
10
-1.99503997793931
20
-21.8202836860757
30
0
41
1
10
-1.99503997793931
20
-21.812783044142
30
0
41
1
10
-1.99503997793931
20
-21.8021565364934
30
0
41
1
10
-1.99503997793931
20
-21.7884557330328
30
0
41
1
10
-1.99503997793931
20
-21.7717308612526
30
0
41
1
10
-1.99503997793931
20
-21.7520291985819
30
0
41
1
10
-1.99503997793931
20
-21.7218385059106
30
0
41
1
10
-1.99503997793931
20
-21.6769140218914
30
0
41
1
10
-1.99503997793931
20
-21.6117670092986
30
0
41
1
10
-1.99503997793931
20
-21.5484022523455
30
0
41
1
10
-1.99503997793931
20
-21.4923512863894
30
0
41
1
10
-1.99503997793931
20
-21.4477036012609
30
0
41
1
10
-1.99503997793931
20
-21.4004602751572
30
0
41
1
10
-1.99503997793931
20
-21.3340243579833
30
0
41
1
10
-1.99503997793931
20
-21.2626002065084
30
0
41
1
10
-1.99503997793931
20
-21.1861355372814
30
0
41
1
10
-1.99503997793931
20
-21.126355615456
30
0
41
1
10
-1.99503997793931
20
-21.0641493981766
30
0
41
1
10
-1.99503997793931
20
-20.9995415089612
30
0
41
1
10
-1.99503997793931
20
-20.9325549476398
30
0
41
1
10
-1.99503997793931
20
-20.8400664063016
30
0
41
1
10
-1.99503997793931
20
-20.7430171949632
30
0
41
1
10
-1.99503997793931
20
-20.6412830606924
30
0
41
1
10
-1.99503997793931
20
-20.5627395849404
30
0
41
1
10
-1.99503997793931
20
-20.4819464711493
30
0
41
1
10
-1.99503997793931
20
-20.3989234016943
30
0
41
1
10
-1.99503997793931
20
-20.3136873945745
30
0
41
1
10
-1.99503997793931
20
-20.2262576082901
30
0
41
1
10
-1.99503997793931
20
-20.136651569995
30
0
41
1
10
-1.99503997793931
20
-20.0448848271876
30
0
41
1
10
-1.99503997793931
20
-19.9509751576252
30
0
41
1
10
-1.99503997793931
20
-19.8549383078336
30
0
41
1
10
-1.99503997793931
20
-19.7567886026657
30
0
41
1
10
-1.99503997793931
20
-19.6565424313982
30
0
41
1
10
-1.99503997793931
20
-19.5542139601407
30
0
41
1
10
-1.99503997793931
20
-19.4149698127943
30
0
41
1
10
-1.99503997793931
20
-19.2717622924356
30
0
41
1
10
-1.99503997793931
20
-19.1243520606764
30
0
41
1
10
-1.99503997793931
20
-19.0305969699326
30
0
41
1
10
-1.99503997793931
20
-18.9545457436666
30
0
41
1
10
-1.99503997793931
20
-18.877828345234
30
0
41
1
10
-1.99503997793931
20
-18.7418485706132
30
0
41
1
10
-1.99503997793931
20
-18.5826225030747
30
0
41
1
10
-1.99503997793931
20
-18.4193199892891
30
0
41
1
10
-1.99503997793931
20
-18.2949375082747
30
0
41
1
10
-1.99503997793931
20
-18.1686188381619
30
0
41
1
10
-1.99503997793931
20
-17.9975681157064
30
0
41
1
10
-1.99503997793931
20
-17.8228588844704
30
0
41
1
10
-1.99503997793931
20
-17.6441795672679
30
0
41
1
10
-1.99503997793931
20
-17.5309981410348
30
0
41
1
10
-1.99503997793931
20
-17.4394590341184
30
0
41
1
10
-1.99503997793931
20
-17.3472945498449
30
0
41
1
10
-1.99503997793931
20
-17.1843913435575
30
0
41
1
10
-1.99503997793931
20
-16.9946548235122
30
0
41
1
10
-1.99503997793931
20
-16.8010333841432
30
0
41
1
10
-1.99503997793931
20
-16.654027023888
30
0
41
1
10
-1.99503997793931
20
-16.5051894370887
30
0
41
1
10
-1.99503997793931
20
-16.3042392155796
30
0
41
1
10
-1.99503997793931
20
-16.0998599858609
30
0
41
1
10
-1.99503997793931
20
-15.8916662065006
30
0
41
1
10
-1.99503997793931
20
-15.7601264684356
30
0
41
1
10
-1.99503997793931
20
-15.6539352235828
30
0
41
1
10
-1.99503997793931
20
-15.5471478788444
30
0
41
1
10
-1.99503997793931
20
-15.4126292313156
30
0
41
1
10
-1.99503997793931
20
-15.2493853238091
30
0
41
1
10
-1.99503997793931
20
-15.1119089381336
30
0
41
1
10
-1.99503997793931
20
-15.0009760777421
30
0
41
1
10
-1.99503997793931
20
-14.8894548819647
30
0
41
1
10
-1.99503997793931
20
-14.7490386600655
30
0
41
1
10
-1.99503997793931
20
-14.578735707937
30
0
41
1
10
-1.99503997793931
20
-14.4066808882548
30
0
41
1
10
-1.99503997793931
20
-14.2328806917249
30
0
41
1
10
-1.99503997793931
20
-14.0573388809364
30
0
41
1
10
-1.99503997793931
20
-13.8800596938692
30
0
41
1
10
-1.99503997793931
20
-13.7010488098078
30
0
41
1
10
-1.99503997793931
20
-13.5203096364964
30
0
41
1
10
-1.99503997793931
20
-13.3378467409434
30
0
41
1
10
-1.99503997793931
20
-13.1536651576331
30
0
41
1
10
-1.99503997793931
20
-12.967767664355
30
0
41
1
10
-1.99503997793931
20
-12.7801589185361
30
0
41
1
10
-1.99503997793931
20
-12.5908431445087
30
0
41
1
10
-1.99503997793931
20
-12.3998230002593
30
0
41
1
10
-1.99503997793931
20
-12.1427688173785
30
0
41
1
10
-1.99503997793931
20
-11.8826118718573
30
0
41
1
10
-1.99503997793931
20
-11.6187779306707
30
0
41
1
10
-1.99503997793931
20
-11.4192921752591
30
0
41
1
10
-1.99503997793931
20
-11.2181233733031
30
0
41
1
10
-1.99503997793931
20
-11.0152750188843
30
0
41
1
10
-1.99503997793931
20
-10.8107494713071
30
0
41
1
10
-1.99503997793931
20
-10.6045508021232
30
0
41
1
10
-1.99503997793931
20
-10.3966814407573
30
0
41
1
10
-1.99503997793931
20
-10.1171870033238
30
0
41
1
10
-1.99503997793931
20
-9.76392166117952
30
0
41
1
10
-1.99503997793931
20
-9.33322608836653
30
0
41
1
10
-1.99503997793931
20
-8.96893242084855
30
0
41
1
10
-1.99503997793931
20
-8.67397578579323
30
0
41
1
10
-1.99503997793931
20
-8.45121977200662
30
0
41
1
10
-1.99503997793931
20
-8.22682776167494
30
0
41
1
10
-1.99503997793931
20
-8.00080467620242
30
0
41
1
10
-1.99503997793931
20
-7.77315513008728
30
0
41
1
10
-1.99503997793931
20
-7.54388372935193
30
0
41
1
10
-1.99503997793931
20
-7.31299637479282
30
0
41
1
10
-1.99503997793931
20
-7.0804994545895
30
0
41
1
10
-1.99503997793931
20
-6.8463997482805
30
0
41
1
10
-1.99503997793931
20
-6.61070495432838
30
0
41
1
10
-1.99503997793931
20
-6.37342319970753
30
0
41
1
10
-1.99503997793931
20
-6.13456384015993
30
0
41
1
10
-1.99503997793931
20
-5.89413749968628
30
0
41
1
10
-1.99503997793931
20
-5.65215638001948
30
0
41
1
10
-1.99503997793931
20
-5.4086336510897
30
0
41
1
10
-1.99503997793931
20
-5.16358499073451
30
0
41
1
10
-1.99503997793931
20
-4.95821799704331
30
0
41
1
10
-1.99503997793931
20
-4.79299516838267
30
0
41
1
10
-1.99503997793931
20
-4.66878842905288
30
0
41
1
10
-1.99503997793931
20
-4.5442150281373
30
0
41
1
10
-1.99503997793931
20
-4.37752561794156
30
0
41
1
10
-1.99503997793931
20
-4.16851547631595
30
0
41
1
10
-1.99503997793931
20
-3.95832363498766
30
0
41
1
10
-1.99503997793931
20
-3.78926935835412
30
0
41
1
10
-1.99503997793931
20
-3.66223142121836
30
0
41
1
10
-1.99503997793931
20
-3.53485872774326
30
0
41
1
10
-1.99503997793931
20
-3.36446603264318
30
0
41
1
10
-1.99503997793931
20
-3.19381064862623
30
0
41
1
10
-1.99503997793931
20
-3.02213557666008
30
0
41
1
10
-1.99503997793928
20
-2.8931784837302
30
0
41
1
10
-1.99503997793928
20
-2.76392442628162
30
0
41
1
10
-1.99503997793928
20
-2.63438251344519
30
0
41
1
10
-1.99503997793928
20
-2.50455988721876
30
0
41
1
10
-1.99503997793928
20
-2.37446636334928
30
0
41
1
10
-1.99503997793928
20
-2.24411116870439
30
0
41
1
10
-1.99503997793928
20
-2.11350398186613
30
0
41
1
10
-1.99503997793928
20
-1.98265625862297
30
0
41
1
10
-1.99503997793928
20
-1.85157817347522
30
0
41
1
10
-1.99503997793928
20
-1.72028262405345
30
0
41
1
10
-1.99503997793928
20
-1.58878098022359
30
0
41
1
10
-1.99503997793928
20
-1.45708718468356
30
0
41
1
10
-1.99503997793928
20
-1.32521409071333
30
0
41
1
10
-1.99503997793928
20
-1.19317647053177
30
0
41
1
10
-1.99503997793928
20
-1.06098852682439
30
0
41
1
10
-1.99503997793928
20
-0.928665923975672
30
0
41
1
10
-1.99503997793928
20
-0.796224037396229
30
0
41
1
10
-1.99503997793928
20
-0.663679321648374
30
0
41
1
10
-1.99503997793928
20
-0.531048033506266
30
0
41
1
10
-1.99503997793928
20
-0.398347293868937
30
0
41
1
10
-1.99503997793928
20
-0.265594055935196
30
0
41
1
10
-1.99503997793928
20
-0.132805828560237
30
0
41
1
10
-1.99503997793928
20
2.0605171E-09
30
0
41
1
10
-1.99503997793928
20
0.132805835966792
30
0
41
1
10
-1.99503997793928
20
0.265594069601519
30
0
41
1
10
-1.99503997793928
20
0.398347307093388
30
0
41
1
10
-1.99503997793928
20
0.531048037421954
30
0
41
1
10
-1.99503997793928
20
0.663679323049081
30
0
41
1
10
-1.99503997793928
20
0.796224050825089
30
0
41
1
10
-1.99503997793928
20
0.928665943032058
30
0
41
1
10
-1.99503997793928
20
1.06098853158755
30
0
41
1
10
-1.99503997793928
20
1.1931764657121
30
0
41
1
10
-1.99503997793928
20
1.32521410103647
30
0
41
1
10
-1.99503997793928
20
1.45708720896539
30
0
41
1
10
-1.99503997793928
20
1.58878099035152
30
0
41
1
10
-1.99503997793928
20
1.72028261530932
30
0
41
1
10
-1.99503997793928
20
1.85157817419838
30
0
41
1
10
-1.99503997793928
20
1.98265628188182
30
0
41
1
10
-1.99503997793928
20
2.11350400419804
30
0
41
1
10
-1.99503997793928
20
2.24411116714702
30
0
41
1
10
-1.99503997793928
20
2.37446635053541
30
0
41
1
10
-1.99503997793928
20
2.50455989433328
30
0
41
1
10
-1.99503997793928
20
2.63438254221708
30
0
41
1
10
-1.99503997793928
20
2.76392444618182
30
0
41
1
10
-1.99503997793928
20
2.89317847799558
30
0
41
1
10
-1.99503997793928
20
3.02213556164864
30
0
41
1
10
-1.99503997793928
20
3.19381066067948
30
0
41
1
10
-1.99503997793928
20
3.36446606295527
30
0
41
1
10
-1.99503997793928
20
3.53485872835634
30
0
41
1
10
-1.99503997793928
20
3.66223140396673
30
0
41
1
10
-1.99503997793928
20
3.78926935085312
30
0
41
1
10
-1.99503997793928
20
3.95832365779984
30
0
41
1
10
-1.99503997793928
20
4.16851549788919
30
0
41
1
10
-1.99503997793928
20
4.37752560184694
30
0
41
1
10
-1.99503997793928
20
4.54421502107886
30
0
41
1
10
-1.99503997793928
20
4.66878844332788
30
0
41
1
10
-1.99503997793928
20
4.7929951985453
30
0
41
1
10
-1.99503997793928
20
4.95821801342223
30
0
41
1
10
-1.99503997793928
20
5.16358497720142
30
0
41
1
10
-1.99503997793928
20
5.40863364784667
30
0
41
1
10
-1.99503997793928
20
5.65215640891225
30
0
41
1
10
-1.99503997793928
20
5.89413750153935
30
0
41
1
10
-1.99503997793928
20
6.13456381441384
30
0
41
1
10
-1.99503997793928
20
6.37342317953835
30
0
41
1
10
-1.99503997793928
20
6.61070492919379
30
0
41
1
10
-1.99503997793928
20
6.84639976314466
30
0
41
1
10
-1.99503997793928
20
7.08049963775395
30
0
41
1
10
-1.99503997793928
20
7.31299670603016
30
0
41
1
10
-1.99503997793928
20
7.54388383469134
30
0
41
1
10
-1.99503997793928
20
7.77315487290267
30
0
41
1
10
-1.99503997793928
20
8.00080468509063
30
0
41
1
10
-1.99503997793928
20
8.22682785520686
30
0
41
1
10
-1.99503997793928
20
8.4512197921853
30
0
41
1
10
-1.99503997793928
20
8.67397577159846
30
0
41
1
10
-1.99503997793928
20
8.96893239301764
30
0
41
1
10
-1.99503997793928
20
9.33322609823665
30
0
41
1
10
-1.99503997793928
20
9.76392165975841
30
0
41
1
10
-1.99503997793928
20
10.1171869828061
30
0
41
1
10
-1.99503997793928
20
10.3966814549587
30
0
41
1
10
-1.99503997793928
20
10.6045508126063
30
0
41
1
10
-1.99503997793928
20
10.8107494592904
30
0
41
1
10
-1.99503997793928
20
11.0152749978462
30
0
41
1
10
-1.99503997793928
20
11.2181233670389
30
0
41
1
10
-1.99503997793928
20
11.4192921870092
30
0
41
1
10
-1.99503997793928
20
11.6187779427602
30
0
41
1
10
-1.99503997793928
20
11.8826118620781
30
0
41
1
10
-1.99503997793928
20
12.1427687977971
30
0
41
1
10
-1.99503997793928
20
12.3998230071702
30
0
41
1
10
-1.99503997793928
20
12.5908431584255
30
0
41
1
10
-1.99503997793928
20
12.7801589212449
30
0
41
1
10
-1.99503997793928
20
12.9677676529033
30
0
41
1
10
-1.99503997793928
20
13.1536651432542
30
0
41
1
10
-1.99503997793928
20
13.3378467396349
30
0
41
1
10
-1.99503997793928
20
13.520309646993
30
0
41
1
10
-1.99503997793928
20
13.7010488212408
30
0
41
1
10
-1.99503997793928
20
13.8800597145162
30
0
41
1
10
-1.99503997793928
20
14.0573389921213
30
0
41
1
10
-1.99503997793928
20
14.2328810143213
30
0
41
1
10
-1.99503997793928
20
14.4646959102749
30
0
41
1
10
-1.99503997793928
20
14.6927797943809
30
0
41
1
10
-1.99503997793928
20
14.9175842595472
30
0
41
1
10
-1.99503997793928
20
15.1400402265273
30
0
41
1
10
-1.99503997793928
20
15.3587351142266
30
0
41
1
10
-1.99503997793928
20
15.574095422854
30
0
41
1
10
-1.99503997793928
20
15.733775855726
30
0
41
1
10
-1.99503997793928
20
15.8916657661057
30
0
41
1
10
-1.99503997793928
20
16.0998603532658
30
0
41
1
10
-1.99503997793928
20
16.3042398246232
30
0
41
1
10
-1.99503997793928
20
16.5051894037979
30
0
41
1
10
-1.99503997793928
20
16.6540265683948
30
0
41
1
10
-1.99503997793928
20
16.8010329188422
30
0
41
1
10
-1.99503997793928
20
16.9946550481209
30
0
41
1
10
-1.99503997793928
20
17.1843924611907
30
0
41
1
10
-1.99503997793928
20
17.3705928023913
30
0
41
1
10
-1.99503997793928
20
17.5083251903719
30
0
41
1
10
-1.99503997793928
20
17.6441786252734
30
0
41
1
10
-1.99503997793928
20
17.8228590748675
30
0
41
1
10
-1.99503997793928
20
17.9975683374734
30
0
41
1
10
-1.99503997793928
20
18.1686188521771
30
0
41
1
10
-1.99503997793928
20
18.2949373683468
30
0
41
1
10
-1.99503997793928
20
18.4193198181252
30
0
41
1
10
-1.99503997793928
20
18.5826226298873
30
0
41
1
10
-1.99503997793928
20
18.7418497326446
30
0
41
1
10
-1.99503997793928
20
18.8972761707097
30
0
41
1
10
-1.99503997793928
20
19.0118150097952
30
0
41
1
10
-1.99503997793928
20
19.1243510467918
30
0
41
1
10
-1.99503997793928
20
19.2717625055688
30
0
41
1
10
-1.99503997793928
20
19.414970513124
30
0
41
1
10
-1.99503997793928
20
19.5542140249085
30
0
41
1
10
-1.99503997793928
20
19.6565420567613
30
0
41
1
10
-1.99503997793928
20
19.7567881415466
30
0
41
1
10
-1.99503997793928
20
19.8549381550126
30
0
41
1
10
-1.99503997793928
20
19.9509751416388
30
0
41
1
10
-1.99503997793928
20
20.0448848362119
30
0
41
1
10
-1.99503997793928
20
20.1366515718167
30
0
41
1
10
-1.99503997793928
20
20.2262576202058
30
0
41
1
10
-1.99503997793928
20
20.3136874196731
30
0
41
1
10
-1.99503997793928
20
20.398923430088
30
0
41
1
10
-1.99503997793928
20
20.4819464863244
30
0
41
1
10
-1.99503997793928
20
20.5627395868944
30
0
41
1
10
-1.99503997793928
20
20.6412830627252
30
0
41
1
10
-1.99503997793928
20
20.7430172190698
30
0
41
1
10
-1.99503997793928
20
20.8400664428987
30
0
41
1
10
-1.99503997793928
20
20.9325549572362
30
0
41
1
10
-1.99503997793928
20
20.9995415068112
30
0
41
1
10
-1.99503997793928
20
21.064149408511
30
0
41
1
10
-1.99503997793928
20
21.1263556466612
30
0
41
1
10
-1.99503997793926
20
21.1861355753666
30
0
41
1
10
-1.99503997793926
20
21.262600218376
30
0
41
1
10
-1.99503997793926
20
21.3340243512753
30
0
41
1
10
-1.99503997793926
20
21.4004603045828
30
0
41
1
10
-1.99503997793926
20
21.4477036445725
30
0
41
1
10
-1.99503997793926
20
21.4923513092323
30
0
41
1
10
-1.99503997793926
20
21.5484022410126
30
0
41
1
10
-1.99503997793926
20
21.5990695510926
30
0
41
1
10
-1.99503997793926
20
21.6443396610233
30
0
41
1
10
-1.99503997793926
20
21.6755105092645
30
0
41
1
10
-1.99503997793926
20
21.7038764495607
30
0
41
1
10
-1.99503997793926
20
21.7293964429163
30
0
41
1
10
-1.99503997793926
20
21.7520292420694
30
0
41
1
10
-1.99503997793926
20
21.7717309018817
30
0
41
1
10
-1.99503997793926
20
21.7884557380592
30
0
41
1
10
-1.99503997793926
20
21.8021565310045
30
0
41
1
10
-1.99503997793926
20
21.8127830851058
30
0
41
1
10
-1.99503997793926
20
21.8202838734724
30
0
41
1
10
-1.99503997793926
20
21.8245113449594
30
0
41
1
10
-1.99503997793926
20
21.8252773498246
30
0
41
1
10
-1.99503997793926
20
21.8251671010411
30
0
0
SPLINE
5
195
100
AcDbEntity
8
SK1
62
256
6
ByLayer
370
18
48
1
60
0
100
AcDbSpline
70
4
71
3
72
295
73
291
40
0
40
0
40
0
40
0
40
0.002946297854254
40
0.0065222227369004
40
0.0100981476195469
40
0.0136740725021934
40
0.0172499973848398
40
0.0208259222674863
40
0.0279777720327792
40
0.0351296217980721
40
0.0422814715633651
40
0.0458573964460115
40
0.049433321328658
40
0.0530092462113045
40
0.0565851710939509
40
0.0637370208592438
40
0.0673129457418903
40
0.0708888706245368
40
0.0744647955071832
40
0.0780407203898297
40
0.0816166452724762
40
0.0851925701551226
40
0.0923444199204155
40
0.095920344803062
40
0.0994962696857085
40
0.103072194568355
40
0.106648119451001
40
0.110224044333648
40
0.113799969216294
40
0.117375894098941
40
0.120951818981587
40
0.124527743864234
40
0.12810366874688
40
0.131679593629527
40
0.135255518512173
40
0.13883144339482
40
0.142407368277466
40
0.149559218042759
40
0.153135142925405
40
0.156711067808052
40
0.158499030249375
40
0.160286992690698
40
0.163862917573345
40
0.171014767338638
40
0.174590692221284
40
0.178166617103931
40
0.181742541986577
40
0.185318466869224
40
0.192470316634516
40
0.196046241517163
40
0.199622166399809
40
0.201410128841133
40
0.203198091282456
40
0.206774016165102
40
0.213925865930395
40
0.217501790813042
40
0.221077715695688
40
0.224653640578335
40
0.228229565460981
40
0.235381415226274
40
0.238957340108921
40
0.242533264991567
40
0.24432122743289
40
0.246109189874214
40
0.24968511475686
40
0.253261039639506
40
0.256836964522153
40
0.258624926963476
40
0.260412889404799
40
0.263988814287446
40
0.267564739170092
40
0.271140664052739
40
0.274716588935385
40
0.278292513818032
40
0.281868438700678
40
0.285444363583324
40
0.289020288465971
40
0.292596213348618
40
0.296172138231264
40
0.29974806311391
40
0.303323987996557
40
0.306899912879203
40
0.31047583776185
40
0.314051762644496
40
0.321203612409789
40
0.324779537292436
40
0.328355462175082
40
0.331931387057729
40
0.335507311940375
40
0.339083236823021
40
0.342659161705668
40
0.346235086588314
40
0.349811011470961
40
0.356962861236254
40
0.364114711001547
40
0.37126656076684
40
0.374842485649486
40
0.378418410532133
40
0.381994335414779
40
0.385570260297426
40
0.389146185180072
40
0.392722110062719
40
0.396298034945365
40
0.399873959828011
40
0.403449884710658
40
0.407025809593304
40
0.410601734475951
40
0.414177659358597
40
0.417753584241244
40
0.42132950912389
40
0.424905434006537
40
0.428481358889183
40
0.43205728377183
40
0.433845246213153
40
0.435633208654476
40
0.437421171095799
40
0.439209133537122
40
0.442785058419769
40
0.446360983302415
40
0.448148945743739
40
0.449936908185062
40
0.451724870626385
40
0.453512833067708
40
0.457088757950355
40
0.458876720391678
40
0.460664682833001
40
0.462452645274325
40
0.464240607715648
40
0.466028570156971
40
0.467816532598294
40
0.469604495039617
40
0.471392457480941
40
0.473180419922264
40
0.474968382363587
40
0.47675634480491
40
0.478544307246233
40
0.480332269687557
40
0.48212023212888
40
0.483908194570203
40
0.485696157011527
40
0.48748411945285
40
0.489272081894173
40
0.491060044335496
40
0.492848006776819
40
0.494635969218143
40
0.496423931659466
40
0.498211894100789
40
0.499999856542112
40
0.501787818983436
40
0.503575781424759
40
0.505363743866082
40
0.507151706307405
40
0.508939668748728
40
0.510727631190052
40
0.512515593631375
40
0.514303556072698
40
0.516091518514021
40
0.517879480955345
40
0.519667443396668
40
0.521455405837991
40
0.523243368279314
40
0.525031330720638
40
0.526819293161961
40
0.528607255603284
40
0.530395218044607
40
0.532183180485931
40
0.533971142927254
40
0.535759105368577
40
0.5375470678099
40
0.539335030251223
40
0.541122992692547
40
0.54291095513387
40
0.546486880016516
40
0.54827484245784
40
0.550062804899163
40
0.551850767340486
40
0.553638729781809
40
0.557214654664456
40
0.560790579547102
40
0.562578541988425
40
0.564366504429749
40
0.566154466871072
40
0.567942429312395
40
0.571518354195042
40
0.575094279077688
40
0.578670203960335
40
0.582246128842981
40
0.585822053725627
40
0.589397978608274
40
0.59297390349092
40
0.596549828373567
40
0.600125753256213
40
0.60370167813886
40
0.607277603021506
40
0.610853527904153
40
0.614429452786799
40
0.618005377669446
40
0.621581302552092
40
0.625157227434739
40
0.628733152317385
40
0.635885002082678
40
0.643036851847971
40
0.650188701613264
40
0.65376462649591
40
0.657340551378557
40
0.660916476261203
40
0.66449240114385
40
0.668068326026496
40
0.671644250909143
40
0.675220175791789
40
0.678796100674435
40
0.685947950439728
40
0.689523875322375
40
0.693099800205021
40
0.696675725087668
40
0.700251649970314
40
0.703827574852961
40
0.707403499735607
40
0.710979424618254
40
0.7145553495009
40
0.718131274383547
40
0.721707199266193
40
0.72528312414884
40
0.728859049031486
40
0.736010898796779
40
0.739586823679425
40
0.743162748562072
40
0.750314598327365
40
0.753890523210011
40
0.757466448092658
40
0.761042372975304
40
0.764618297857951
40
0.771770147623244
40
0.77534607250589
40
0.778921997388536
40
0.782497922271183
40
0.786073847153829
40
0.793225696919122
40
0.796801621801769
40
0.800377546684415
40
0.803953471567062
40
0.807529396449708
40
0.814681246215001
40
0.818257171097648
40
0.821833095980294
40
0.82540902086294
40
0.828984945745587
40
0.83613679551088
40
0.839712720393526
40
0.843288645276173
40
0.846864570158819
40
0.850440495041466
40
0.857592344806759
40
0.861168269689405
40
0.864744194572052
40
0.868320119454698
40
0.871896044337345
40
0.875471969219991
40
0.879047894102637
40
0.882623818985284
40
0.88619974386793
40
0.889775668750577
40
0.893351593633223
40
0.89692751851587
40
0.900503443398516
40
0.904079368281163
40
0.907655293163809
40
0.914807142929102
40
0.918383067811749
40
0.921958992694395
40
0.925534917577041
40
0.929110842459688
40
0.932686767342334
40
0.936262692224981
40
0.943414541990274
40
0.94699046687292
40
0.950566391755567
40
0.954142316638213
40
0.95771824152086
40
0.964870091286153
40
0.968446016168799
40
0.972021941051445
40
0.975597865934092
40
0.979173790816738
40
0.982749715699385
40
0.986325640582031
40
0.989901565464678
40
0.993477490347324
40
0.997053415229971
40
1
40
1
40
1
40
1
41
1
10
-2.20000000000002
20
-22.0135196575983
30
0
41
1
10
-2.20000000000002
20
-22.011727594483
30
0
41
1
10
-2.19999999999999
20
-22.0069596801734
30
0
41
1
10
-2.20000000000002
20
-21.9968726461305
30
0
41
1
10
-2.20000000000002
20
-21.9830583750197
30
0
41
1
10
-2.20000000000002
20
-21.9661971621578
30
0
41
1
10
-2.20000000000002
20
-21.9463373083127
30
0
41
1
10
-2.20000000000002
20
-21.9159230944434
30
0
41
1
10
-2.20000000000002
20
-21.870633664349
30
0
41
1
10
-2.20000000000002
20
-21.8049949078793
30
0
41
1
10
-2.20000000000002
20
-21.7411390111089
30
0
41
1
10
-2.20000000000002
20
-21.6847072709128
30
0
41
1
10
-2.20000000000002
20
-21.6397397481888
30
0
41
1
10
-2.20000000000002
20
-21.5921615264852
30
0
41
1
10
-2.20000000000002
20
-21.5252891523049
30
0
41
1
10
-2.20000000000002
20
-21.453308753177
30
0
41
1
10
-2.20000000000002
20
-21.3763547276269
30
0
41
1
10
-2.20000000000002
20
-21.3161703964091
30
0
41
1
10
-2.20000000000002
20
-21.2535469243879
30
0
41
1
10
-2.20000000000002
20
-21.1885090229233
30
0
41
1
10
-2.20000000000002
20
-21.121080083473
30
0
41
1
10
-2.20000000000002
20
-21.0280237507364
30
0
41
1
10
-2.20000000000002
20
-20.9302657445266
30
0
41
1
10
-2.20000000000002
20
-20.8279188369072
30
0
41
1
10
-2.20000000000002
20
-20.7488739070252
30
0
41
1
10
-2.20000000000002
20
-20.6675681841826
30
0
41
1
10
-2.20000000000002
20
-20.5840212184218
30
0
41
1
10
-2.20000000000002
20
-20.4982502525025
30
0
41
1
10
-2.20000000000002
20
-20.4102747128949
30
0
41
1
10
-2.20000000000002
20
-20.3201119071544
30
0
41
1
10
-2.20000000000002
20
-20.2277776663918
30
0
41
1
10
-2.20000000000002
20
-20.1332899477274
30
0
41
1
10
-2.20000000000002
20
-20.0366642357894
30
0
41
1
10
-2.20000000000002
20
-19.9379151599299
30
0
41
1
10
-2.20000000000002
20
-19.8370591957147
30
0
41
1
10
-2.20000000000002
20
-19.7341102362335
30
0
41
1
10
-2.20000000000002
20
-19.5940778412012
30
0
41
1
10
-2.20000000000002
20
-19.4499005336558
30
0
41
1
10
-2.20000000000002
20
-19.3016622310533
30
0
41
1
10
-2.20000000000002
20
-19.2073184270571
30
0
41
1
10
-2.20000000000002
20
-19.1308417758755
30
0
41
1
10
-2.20000000000002
20
-19.0536957086557
30
0
41
1
10
-2.20000000000002
20
-18.9169360704622
30
0
41
1
10
-2.20000000000002
20
-18.756645794641
30
0
41
1
10
-2.20000000000002
20
-18.5924362845557
30
0
41
1
10
-2.20000000000002
20
-18.4673177976698
30
0
41
1
10
-2.20000000000002
20
-18.3402521463352
30
0
41
1
10
-2.20000000000002
20
-18.1682545122203
30
0
41
1
10
-2.20000000000002
20
-17.9923842356821
30
0
41
1
10
-2.20000000000002
20
-17.8127164551587
30
0
41
1
10
-2.20000000000002
20
-17.6988333809735
30
0
41
1
10
-2.20000000000002
20
-17.606787767091
30
0
41
1
10
-2.20000000000002
20
-17.5141131161323
30
0
41
1
10
-2.20000000000002
20
-17.3502824417036
30
0
41
1
10
-2.20000000000002
20
-17.1592829447589
30
0
41
1
10
-2.20000000000002
20
-16.9645867974536
30
0
41
1
10
-2.20000000000002
20
-16.8167088060477
30
0
41
1
10
-2.20000000000002
20
-16.6669871400996
30
0
41
1
10
-2.20000000000002
20
-16.4649164953067
30
0
41
1
10
-2.20000000000002
20
-16.2591646002876
30
0
41
1
10
-2.20000000000002
20
-16.049802831716
30
0
41
1
10
-2.20000000000002
20
-15.9174340084588
30
0
41
1
10
-2.20000000000002
20
-15.8106442286412
30
0
41
1
10
-2.20000000000002
20
-15.7032538676567
30
0
41
1
10
-2.20000000000002
20
-15.567882396309
30
0
41
1
10
-2.20000000000002
20
-15.4036502143979
30
0
41
1
10
-2.20000000000002
20
-15.2652965264295
30
0
41
1
10
-2.20000000000002
20
-15.1537302031574
30
0
41
1
10
-2.20000000000002
20
-15.0415708470876
30
0
41
1
10
-2.20000000000002
20
-14.90025131083
30
0
41
1
10
-2.20000000000002
20
-14.7289012367181
30
0
41
1
10
-2.20000000000002
20
-14.5557843226631
30
0
41
1
10
-2.20000000000002
20
-14.3809062427341
30
0
41
1
10
-2.20000000000002
20
-14.2042700822291
30
0
41
1
10
-2.20000000000002
20
-14.0258803741545
30
0
41
1
10
-2.20000000000002
20
-13.8457420253844
30
0
41
1
10
-2.20000000000002
20
-13.6638579861817
30
0
41
1
10
-2.20000000000002
20
-13.4802328481714
30
0
41
1
10
-2.20000000000002
20
-13.2948705974071
30
0
41
1
10
-2.20000000000002
20
-13.1077737485311
30
0
41
1
10
-2.20000000000002
20
-12.9189467805057
30
0
41
1
10
-2.20000000000002
20
-12.728392778749
30
0
41
1
10
-2.20000000000002
20
-12.5361142588231
30
0
41
1
10
-2.20000000000002
20
-12.2774598592137
30
0
41
1
10
-2.20000000000002
20
-12.0153352592314
30
0
41
1
10
-2.20000000000002
20
-11.7498207258852
30
0
41
1
10
-2.20000000000002
20
-11.5489655826483
30
0
41
1
10
-2.20000000000002
20
-11.3464032807099
30
0
41
1
10
-2.20000000000002
20
-11.1421359853757
30
0
41
1
10
-2.20000000000002
20
-10.9361655879759
30
0
41
1
10
-2.20000000000002
20
-10.7284950970913
30
0
41
1
10
-2.20000000000002
20
-10.5191258614377
30
0
41
1
10
-2.20000000000002
20
-10.2377184130835
30
0
41
1
10
-2.20000000000002
20
-9.88169304970987
30
0
41
1
10
-2.20000000000002
20
-9.44771865839311
30
0
41
1
10
-2.20000000000002
20
-9.08043848955603
30
0
41
1
10
-2.20000000000002
20
-8.78327689677775
30
0
41
1
10
-2.20000000000002
20
-8.55871419535617
30
0
41
1
10
-2.20000000000002
20
-8.33247380011301
30
0
41
1
10
-2.20000000000002
20
-8.10455852701506
30
0
41
1
10
-2.20000000000002
20
-7.87497060194644
30
0
41
1
10
-2.20000000000002
20
-7.6437128367312
30
0
41
1
10
-2.20000000000002
20
-7.41078884464241
30
0
41
1
10
-2.20000000000002
20
-7.17620220160032
30
0
41
1
10
-2.20000000000002
20
-6.93995692090419
30
0
41
1
10
-2.20000000000002
20
-6.70205758660663
30
0
41
1
10
-2.20000000000002
20
-6.46250918569618
30
0
41
1
10
-2.19999999999999
20
-6.2213178400012
30
0
41
1
10
-2.19999999999999
20
-5.97849049576266
30
0
41
1
10
-2.19999999999999
20
-5.73403521575827
30
0
41
1
10
-2.19999999999999
20
-5.48796107357256
30
0
41
1
10
-2.19999999999999
20
-5.24027911118978
30
0
41
1
10
-2.19999999999999
20
-5.03253661023487
30
0
41
1
10
-2.19999999999999
20
-4.86557359122418
30
0
41
1
10
-2.19999999999999
20
-4.73994908127321
30
0
41
1
10
-2.19999999999999
20
-4.61393371339017
30
0
41
1
10
-2.19999999999999
20
-4.44540774959788
30
0
41
1
10
-2.19999999999999
20
-4.23375652596863
30
0
41
1
10
-2.19999999999999
20
-4.02083961713782
30
0
41
1
10
-2.19999999999999
20
-3.84978439152417
30
0
41
1
10
-2.19999999999999
20
-3.72111342731068
30
0
41
1
10
-2.19999999999999
20
-3.59207749308621
30
0
41
1
10
-2.19999999999999
20
-3.41956369464535
30
0
41
1
10
-2.19999999999999
20
-3.24629481959221
30
0
41
1
10
-2.19999999999999
20
-3.0723836150739
30
0
41
1
10
-2.19999999999999
20
-2.94160046512798
30
0
41
1
10
-2.19999999999999
20
-2.81048647644627
30
0
41
1
10
-2.19999999999999
20
-2.67904892732182
30
0
41
1
10
-2.19999999999999
20
-2.54729562722176
30
0
41
1
10
-2.19999999999999
20
-2.41523551097489
30
0
41
1
10
-2.19999999999999
20
-2.28287740252156
30
0
41
1
10
-2.19999999999999
20
-2.15023166945255
30
0
41
1
10
-2.19999999999999
20
-2.01730873413072
30
0
41
1
10
-2.19999999999999
20
-1.88412021099791
30
0
41
1
10
-2.19999999999999
20
-1.75067841854351
30
0
41
1
10
-2.19999999999999
20
-1.61699634722072
30
0
41
1
10
-2.19999999999999
20
-1.48308821885627
30
0
41
1
10
-2.19999999999999
20
-1.34896859254377
30
0
41
1
10
-2.19999999999999
20
-1.21465350310538
30
0
41
1
10
-2.19999999999999
20
-1.0801592162689
30
0
41
1
10
-2.19999999999999
20
-0.945503442662783
30
0
41
1
10
-2.19999999999999
20
-0.810704113119073
30
0
41
1
10
-2.19999999999999
20
-0.675780421912322
30
0
41
1
10
-2.19999999999999
20
-0.540751787789588
30
0
41
1
10
-2.19999999999999
20
-0.405638599098921
30
0
41
1
10
-2.19999999999999
20
-0.270461428271432
30
0
41
1
10
-2.19999999999999
20
-0.135241462279822
30
0
41
1
10
-2.19999999999999
20
5.3655071E-09
30
0
41
1
10
-2.19999999999999
20
0.135241472589996
30
0
41
1
10
-2.19999999999999
20
0.270461437853925
30
0
41
1
10
-2.19999999999999
20
0.405638608907907
30
0
41
1
10
-2.19999999999999
20
0.540751798686529
30
0
41
1
10
-2.19999999999999
20
0.675780432522174
30
0
41
1
10
-2.19999999999999
20
0.810704122044939
30
0
41
1
10
-2.19999999999999
20
0.945503451789534
30
0
41
1
10
-2.19999999999999
20
1.08015922751395
30
0
41
1
10
-2.19999999999999
20
1.21465351395383
30
0
41
1
10
-2.19999999999999
20
1.34896860046499
30
0
41
1
10
-2.19999999999999
20
1.48308822685567
30
0
41
1
10
-2.19999999999999
20
1.61699635855226
30
0
41
1
10
-2.19999999999999
20
1.75067843002711
30
0
41
1
10
-2.19999999999999
20
1.88412021847037
30
0
41
1
10
-2.19999999999999
20
2.01730874020455
30
0
41
1
10
-2.19999999999999
20
2.15023167925048
30
0
41
1
10
-2.19999999999999
20
2.28287741514001
30
0
41
1
10
-2.19999999999999
20
2.41523552035437
30
0
41
1
10
-2.19999999999999
20
2.54729563151926
30
0
41
1
10
-2.19999999999999
20
2.67904893291683
30
0
41
1
10
-2.19999999999999
20
2.81048648769612
30
0
41
1
10
-2.19999999999999
20
2.94160047796311
30
0
41
1
10
-2.19999999999999
20
3.072383622975
30
0
41
1
10
-2.19999999999999
20
3.24629481975686
30
0
41
1
10
-2.19999999999999
20
3.41956370437865
30
0
41
1
10
-2.19999999999999
20
3.59207750684843
30
0
41
1
10
-2.19999999999999
20
3.72111343644576
30
0
41
1
10
-2.19999999999999
20
3.84978439330678
30
0
41
1
10
-2.19999999999999
20
4.020839617489
30
0
41
1
10
-2.19999999999999
20
4.23375654375474
30
0
41
1
10
-2.19999999999999
20
4.44540775759583
30
0
41
1
10
-2.19999999999999
20
4.61393371339872
30
0
41
1
10
-2.19999999999999
20
4.73994907984499
30
0
41
1
10
-2.19999999999999
20
4.86557359653662
30
0
41
1
10
-2.19999999999999
20
5.03253662624778
30
0
41
1
10
-2.19999999999999
20
5.24027911954084
30
0
41
1
10
-2.19999999999999
20
5.48796106514416
30
0
41
1
10
-2.19999999999999
20
5.73403522651992
30
0
41
1
10
-2.19999999999999
20
5.97849051253721
30
0
41
1
10
-2.19999999999999
20
6.22131783489101
30
0
41
1
10
-2.19999999999999
20
6.46250917346816
30
0
41
1
10
-2.19999999999999
20
6.70205756880287
30
0
41
1
10
-2.19999999999999
20
6.93995689241024
30
0
41
1
10
-2.19999999999999
20
7.17620223308296
30
0
41
1
10
-2.19999999999999
20
7.41078904293681
30
0
41
1
10
-2.19999999999999
20
7.64371312168015
30
0
41
1
10
-2.19999999999999
20
7.87497052861914
30
0
41
1
10
-2.19999999999999
20
8.10455846042146
30
0
41
1
10
-2.19999999999999
20
8.33247384441506
30
0
41
1
10
-2.19999999999999
20
8.55871423477029
30
0
41
1
10
-2.19999999999999
20
8.78327691067398
30
0
41
1
10
-2.19999999999999
20
9.08043846702645
30
0
41
1
10
-2.19999999999999
20
9.44771866001565
30
0
41
1
10
-2.19999999999999
20
9.88169305528194
30
0
41
1
10
-2.19999999999999
20
10.2377183913447
30
0
41
1
10
-2.19999999999999
20
10.5191258633122
30
0
41
1
10
-2.19999999999999
20
10.7284951094206
30
0
41
1
10
-2.19999999999999
20
10.9361655882296
30
0
41
1
10
-2.19999999999999
20
11.1421359694817
30
0
41
1
10
-2.19999999999999
20
11.3464032666245
30
0
41
1
10
-2.19999999999999
20
11.5489655840494
30
0
41
1
10
-2.19999999999999
20
11.7498207382014
30
0
41
1
10
-2.19999999999999
20
12.015335258712
30
0
41
1
10
-2.19999999999999
20
12.277459839655
30
0
41
1
10
-2.19999999999999
20
12.5361142561418
30
0
41
1
10
-2.19999999999999
20
12.7283927892775
30
0
41
1
10
-2.19999999999999
20
12.9189467887917
30
0
41
1
10
-2.19999999999999
20
13.1077737445537
30
0
41
1
10
-2.19999999999999
20
13.2948705838035
30
0
41
1
10
-2.19999999999999
20
13.4802328404438
30
0
41
1
10
-2.19999999999999
20
13.6638579908946
30
0
41
1
10
-2.19999999999999
20
13.845742035678
30
0
41
1
10
-2.19999999999999
20
14.0258803815961
30
0
41
1
10
-2.19999999999999
20
14.2042701267483
30
0
41
1
10
-2.19999999999999
20
14.3809064511142
30
0
41
1
10
-2.19999999999999
20
14.61406817927
30
0
41
1
10
-2.19999999999999
20
14.8437340716545
30
0
41
1
10
-2.19999999999999
20
15.069828938707
30
0
41
1
10
-2.19999999999999
20
15.2935559429894
30
0
41
1
10
-2.19999999999999
20
15.513744330902
30
0
41
1
10
-2.19999999999999
20
15.7303232767805
30
0
41
1
10
-2.19999999999999
20
15.8909649274654
30
0
41
1
10
-2.19999999999999
20
16.0498023362736
30
0
41
1
10
-2.19999999999999
20
16.2591647559547
30
0
41
1
10
-2.19999999999999
20
16.4649171124643
30
0
41
1
10
-2.19999999999999
20
16.666987304737
30
0
41
1
10
-2.19999999999999
20
16.8167085043733
30
0
41
1
10
-2.19999999999999
20
16.9645862898264
30
0
41
1
10
-2.19999999999999
20
17.1592828976246
30
0
41
1
10
-2.19999999999999
20
17.3502835148979
30
0
41
1
10
-2.19999999999999
20
17.5375147595292
30
0
41
1
10
-2.19999999999999
20
17.676060438985
30
0
41
1
10
-2.19999999999999
20
17.8127154575359
30
0
41
1
10
-2.19999999999999
20
17.9923842415009
30
0
41
1
10
-2.19999999999999
20
18.1682547291306
30
0
41
1
10
-2.19999999999999
20
18.3402522143585
30
0
41
1
10
-2.19999999999996
20
18.4673177032107
30
0
41
1
10
-2.19999999999996
20
18.5924361073221
30
0
41
1
10
-2.19999999999996
20
18.7566457425986
30
0
41
1
10
-2.19999999999996
20
18.9169371900015
30
0
41
1
10
-2.19999999999996
20
19.0732305996174
30
0
41
1
10
-2.19999999999996
20
19.1884526890887
30
0
41
1
10
-2.19999999999996
20
19.3016611759423
30
0
41
1
10
-2.19999999999996
20
19.4499005391959
30
0
41
1
10
-2.19999999999996
20
19.5940785255289
30
0
41
1
10
-2.19999999999996
20
19.7341104289282
30
0
41
1
10
-2.19999999999996
20
19.8370589164793
30
0
41
1
10
-2.19999999999996
20
19.9379146863563
30
0
41
1
10
-2.19999999999996
20
20.0366640227898
30
0
41
1
10
-2.19999999999996
20
20.133289903145
30
0
41
1
10
-2.19999999999996
20
20.2277776697998
30
0
41
1
10
-2.19999999999996
20
20.3201119082527
30
0
41
1
10
-2.19999999999996
20
20.4102747220553
30
0
41
1
10
-2.19999999999996
20
20.4982502752196
30
0
41
1
10
-2.19999999999996
20
20.5840212474559
30
0
41
1
10
-2.19999999999996
20
20.6675682022903
30
0
41
1
10
-2.19999999999996
20
20.7488739108727
30
0
41
1
10
-2.19999999999996
20
20.82791883753
30
0
41
1
10
-2.19999999999996
20
20.9302657657864
30
0
41
1
10
-2.19999999999996
20
21.0280237880879
30
0
41
1
10
-2.19999999999996
20
21.1210800961781
30
0
41
1
10
-2.19999999999996
20
21.1885090211438
30
0
41
1
10
-2.19999999999996
20
21.2535469320083
30
0
41
1
10
-2.19999999999996
20
21.3161704250344
30
0
41
1
10
-2.19999999999996
20
21.3763547664481
30
0
41
1
10
-2.19999999999996
20
21.4533087676779
30
0
41
1
10
-2.19999999999996
20
21.5252891448141
30
0
41
1
10
-2.19999999999996
20
21.5921615531195
30
0
41
1
10
-2.19999999999996
20
21.6397397916631
30
0
41
1
10
-2.19999999999996
20
21.6847072964973
30
0
41
1
10
-2.19999999999996
20
21.7411389990572
30
0
41
1
10
-2.19999999999996
20
21.7922265879071
30
0
41
1
10
-2.19999999999996
20
21.8378144981283
30
0
41
1
10
-2.19999999999996
20
21.8692221254414
30
0
41
1
10
-2.19999999999996
20
21.8978063777089
30
0
41
1
10
-2.19999999999996
20
21.9235254752891
30
0
41
1
10
-2.19999999999996
20
21.9463373508774
30
0
41
1
10
-2.19999999999996
20
21.9661972037607
30
0
41
1
10
-2.19999999999996
20
21.9830583809744
30
0
41
1
10
-2.19999999999996
20
21.9968726399857
30
0
41
1
10
-2.19999999999996
20
22.0069600025734
30
0
41
1
10
-2.19999999999993
20
22.0117281333483
30
0
41
1
10
-2.19999999999996
20
22.0135203423192
30
0
0
SPLINE
5
196
100
AcDbEntity
8
SK1
62
256
6
ByLayer
370
18
48
1
60
0
100
AcDbSpline
70
4
71
3
72
303
73
299
40
0
40
0
40
0
40
0
40
0.0005133402045749
40
0.0040062565959688
40
0.0074991729873626
40
0.0109920893787564
40
0.0144850057701503
40
0.0179779221615442
40
0.021470838552938
40
0.0249637549443319
40
0.0284566713357258
40
0.0319495877271196
40
0.0389354205099074
40
0.0459212532926951
40
0.0529070860754828
40
0.0564000024668767
40
0.0598929188582705
40
0.0633858352496644
40
0.0668787516410582
40
0.073864584423846
40
0.0773575008152398
40
0.0808504172066337
40
0.0843433335980276
40
0.0878362499894214
40
0.0913291663808152
40
0.0948220827722091
40
0.101807915554997
40
0.105300831946391
40
0.108793748337785
40
0.112286664729178
40
0.115779581120572
40
0.119272497511966
40
0.12276541390336
40
0.126258330294754
40
0.129751246686148
40
0.133244163077542
40
0.136737079468935
40
0.140229995860329
40
0.143722912251723
40
0.147215828643117
40
0.150708745034511
40
0.157694577817299
40
0.161187494208692
40
0.164680410600086
40
0.166426868795783
40
0.16817332699148
40
0.171666243382874
40
0.178652076165662
40
0.182144992557055
40
0.185637908948449
40
0.189130825339843
40
0.192623741731237
40
0.199609574514025
40
0.203102490905419
40
0.206595407296813
40
0.208341865492509
40
0.210088323688206
40
0.2135812400796
40
0.220567072862388
40
0.224059989253782
40
0.227552905645176
40
0.23104582203657
40
0.234538738427963
40
0.241524571210751
40
0.245017487602145
40
0.248510403993539
40
0.250256862189236
40
0.252003320384933
40
0.255496236776327
40
0.25898915316772
40
0.262482069559114
40
0.264228527754811
40
0.265974985950508
40
0.269467902341902
40
0.272960818733296
40
0.27645373512469
40
0.279946651516084
40
0.283439567907477
40
0.286932484298871
40
0.290425400690265
40
0.293918317081659
40
0.297411233473053
40
0.300904149864447
40
0.304397066255841
40
0.307889982647234
40
0.311382899038628
40
0.314875815430022
40
0.318368731821416
40
0.325354564604204
40
0.328847480995598
40
0.332340397386992
40
0.335833313778385
40
0.339326230169779
40
0.342819146561173
40
0.346312062952567
40
0.349804979343961
40
0.353297895735355
40
0.360283728518142
40
0.36726956130093
40
0.374255394083718
40
0.377748310475112
40
0.381241226866506
40
0.384734143257899
40
0.388227059649293
40
0.391719976040687
40
0.395212892432081
40
0.398705808823475
40
0.402198725214869
40
0.405691641606263
40
0.409184557997657
40
0.41267747438905
40
0.416170390780444
40
0.419663307171838
40
0.423156223563232
40
0.426649139954626
40
0.43014205634602
40
0.433634972737414
40
0.43538143093311
40
0.437127889128807
40
0.438874347324504
40
0.440620805520201
40
0.444113721911595
40
0.447606638302989
40
0.449353096498686
40
0.451099554694383
40
0.45284601289008
40
0.454592471085777
40
0.45808538747717
40
0.459831845672867
40
0.461578303868564
40
0.463324762064261
40
0.465071220259958
40
0.466817678455655
40
0.468564136651352
40
0.470310594847049
40
0.472057053042746
40
0.473803511238443
40
0.47554996943414
40
0.477296427629837
40
0.479042885825534
40
0.480789344021231
40
0.482535802216927
40
0.484282260412625
40
0.486028718608321
40
0.487775176804018
40
0.489521634999715
40
0.491268093195412
40
0.493014551391109
40
0.494761009586806
40
0.496507467782503
40
0.4982539259782
40
0.500000384173897
40
0.501746842369594
40
0.503493300565291
40
0.505239758760987
40
0.506986216956684
40
0.508732675152381
40
0.510479133348078
40
0.512225591543775
40
0.513972049739472
40
0.515718507935169
40
0.517464966130866
40
0.519211424326563
40
0.52095788252226
40
0.522704340717957
40
0.524450798913654
40
0.526197257109351
40
0.527943715305048
40
0.529690173500745
40
0.531436631696442
40
0.533183089892138
40
0.534929548087835
40
0.536676006283532
40
0.538422464479229
40
0.540168922674926
40
0.541915380870623
40
0.545408297262017
40
0.547154755457714
40
0.548901213653411
40
0.550647671849108
40
0.552394130044805
40
0.555887046436199
40
0.559379962827593
40
0.561126421023289
40
0.562872879218986
40
0.564619337414683
40
0.56636579561038
40
0.569858712001774
40
0.573351628393168
40
0.576844544784562
40
0.580337461175956
40
0.58383037756735
40
0.587323293958743
40
0.590816210350137
40
0.594309126741531
40
0.597802043132925
40
0.601294959524319
40
0.604787875915713
40
0.608280792307107
40
0.6117737086985
40
0.615266625089894
40
0.618759541481288
40
0.622252457872682
40
0.625745374264076
40
0.632731207046864
40
0.639717039829651
40
0.646702872612439
40
0.650195789003833
40
0.653688705395227
40
0.657181621786621
40
0.660674538178014
40
0.664167454569408
40
0.667660370960802
40
0.671153287352196
40
0.67464620374359
40
0.681632036526378
40
0.685124952917772
40
0.688617869309165
40
0.692110785700559
40
0.695603702091953
40
0.699096618483347
40
0.702589534874741
40
0.706082451266134
40
0.709575367657529
40
0.713068284048922
40
0.716561200440316
40
0.72005411683171
40
0.723547033223104
40
0.730532866005892
40
0.734025782397286
40
0.737518698788679
40
0.744504531571467
40
0.747997447962861
40
0.751490364354255
40
0.754983280745649
40
0.758476197137043
40
0.76546202991983
40
0.768954946311224
40
0.772447862702618
40
0.775940779094012
40
0.779433695485406
40
0.786419528268193
40
0.789912444659587
40
0.793405361050981
40
0.796898277442375
40
0.800391193833769
40
0.807377026616557
40
0.81086994300795
40
0.814362859399345
40
0.817855775790738
40
0.821348692182132
40
0.82833452496492
40
0.831827441356314
40
0.835320357747708
40
0.838813274139101
40
0.842306190530495
40
0.849292023313283
40
0.852784939704677
40
0.856277856096071
40
0.859770772487465
40
0.863263688878858
40
0.866756605270252
40
0.870249521661646
40
0.87374243805304
40
0.877235354444434
40
0.880728270835828
40
0.884221187227222
40
0.887714103618615
40
0.891207020010009
40
0.894699936401403
40
0.898192852792797
40
0.905178685575585
40
0.908671601966979
40
0.912164518358373
40
0.915657434749766
40
0.91915035114116
40
0.922643267532554
40
0.926136183923948
40
0.933122016706736
40
0.936614933098129
40
0.940107849489523
40
0.943600765880917
40
0.947093682272311
40
0.954079515055099
40
0.957572431446493
40
0.961065347837886
40
0.96455826422928
40
0.968051180620674
40
0.971544097012068
40
0.975037013403462
40
0.978529929794856
40
0.982022846186249
40
0.985515762577644
40
0.989008678969037
40
0.992501595360431
40
0.995994511751825
40
0.999487428143219
40
1
40
1
40
1
40
1
41
1
10
-36.5000000000001
20
-21.1555776108568
30
0
41
1
10
-36.5000000000001
20
-21.1557858232531
30
0
41
1
10
-36.5
20
-21.1573191517045
30
0
41
1
10
-36.5
20
-21.1588544331656
30
0
41
1
10
-36.5
20
-21.1578038223016
30
0
41
1
10
-36.5
20
-21.1536126358382
30
0
41
1
10
-36.5
20
-21.1463317213717
30
0
41
1
10
-36.5
20
-21.1360112678938
30
0
41
1
10
-36.5
20
-21.1226986497682
30
0
41
1
10
-36.5
20
-21.1064402158534
30
0
41
1
10
-36.5
20
-21.0872797426225
30
0
41
1
10
-36.5
20
-21.0578537406018
30
0
41
1
10
-36.5
20
-21.0141777773224
30
0
41
1
10
-36.5
20
-20.950713074722
30
0
41
1
10
-36.5
20
-20.8890285612071
30
0
41
1
10
-36.5
20
-20.8342802658871
30
0
41
1
10
-36.5
20
-20.7907267804184
30
0
41
1
10
-36.5
20
-20.7446291690671
30
0
41
1
10
-36.5
20
-20.6796864194097
30
0
41
1
10
-36.5
20
-20.6101652524535
30
0
41
1
10
-36.5
20
-20.5353747251341
30
0
41
1
10
-36.5
20
-20.4769783324058
30
0
41
1
10
-36.5
20
-20.4161995895792
30
0
41
1
10
-36.5
20
-20.3530628196555
30
0
41
1
10
-36.5
20
-20.2875896826625
30
0
41
1
10
-36.5
20
-20.1970436182682
30
0
41
1
10
-36.5
20
-20.1024192722932
30
0
41
1
10
-36.5
20
-20.0027815031752
30
0
41
1
10
-36.5
20
-19.9259535572617
30
0
41
1
10
-36.5
20
-19.8469141355251
30
0
41
1
10
-36.5
20
-19.765683373065
30
0
41
1
10
-36.5
20
-19.6822775189498
30
0
41
1
10
-36.5
20
-19.5967148149262
30
0
41
1
10
-36.5
20
-19.5090135394172
30
0
41
1
10
-36.5
20
-19.4191882696517
30
0
41
1
10
-36.5
20
-19.3272561697676
30
0
41
1
10
-36.5
20
-19.2332338822713
30
0
41
1
10
-36.5
20
-19.1371346902892
30
0
41
1
10
-36.5
20
-19.0389746878943
30
0
41
1
10
-36.5
20
-18.9387689752275
30
0
41
1
10
-36.5
20
-18.8022215100789
30
0
41
1
10
-36.5
20
-18.6623317385553
30
0
41
1
10
-36.5
20
-18.5177544284037
30
0
41
1
10
-36.5
20
-18.4260133905721
30
0
41
1
10
-36.5
20
-18.3514175898237
30
0
41
1
10
-36.5
20
-18.2761667145511
30
0
41
1
10
-36.5
20
-18.1428549391525
30
0
41
1
10
-36.5
20
-17.987269645424
30
0
41
1
10
-36.5
20
-17.8270700659299
30
0
41
1
10
-36.5
20
-17.7052055421089
30
0
41
1
10
-36.5
20
-17.5814423770725
30
0
41
1
10
-36.5
20
-17.4136311437528
30
0
41
1
10
-36.5
20
-17.2428939764416
30
0
41
1
10
-36.5
20
-17.0675963011875
30
0
41
1
10
-36.5
20
-16.9568152899196
30
0
41
1
10
-36.5
20
-16.867008999151
30
0
41
1
10
-36.5
20
-16.7765898513272
30
0
41
1
10
-36.5
20
-16.6168596157572
30
0
41
1
10
-36.5
20
-16.4314438788637
30
0
41
1
10
-36.5
20
-16.2414991337765
30
0
41
1
10
-36.5
20
-16.097474719741
30
0
41
1
10
-36.5
20
-15.9516616651347
30
0
41
1
10
-36.5
20
-15.7545445351489
30
0
41
1
10
-36.5
20
-15.554861344689
30
0
41
1
10
-36.5
20
-15.350663385132
30
0
41
1
10
-36.5
20
-15.2219600388738
30
0
41
1
10
-36.5
20
-15.1178164480938
30
0
41
1
10
-36.5
20
-15.0130920883853
30
0
41
1
10
-36.5
20
-14.8814910451207
30
0
41
1
10
-36.5
20
-14.7216281332594
30
0
41
1
10
-36.5
20
-14.5871530954061
30
0
41
1
10
-36.5
20
-14.4783873813362
30
0
41
1
10
-36.5
20
-14.3690494022436
30
0
41
1
10
-36.5
20
-14.2317235183089
30
0
41
1
10
-36.5
20
-14.0650028858775
30
0
41
1
10
-36.5
20
-13.8965816080865
30
0
41
1
10
-36.5
20
-13.7264689694464
30
0
41
1
10
-36.5
20
-13.5546710496342
30
0
41
1
10
-36.5
20
-13.3811910773121
30
0
41
1
10
-36.5
20
-13.2060373742643
30
0
41
1
10
-36.5
20
-13.0292149133303
30
0
41
1
10
-36.5
20
-12.8507281773019
30
0
41
1
10
-36.5
20
-12.6705857874603
30
0
41
1
10
-36.5
20
-12.48879142185
30
0
41
1
10
-36.5
20
-12.3053503484466
30
0
41
1
10
-36.5
20
-12.1202706879328
30
0
41
1
10
-36.5
20
-11.9335555855443
30
0
41
1
10
-36.5
20
-11.6819759204348
30
0
41
1
10
-36.5
20
-11.4285505376587
30
0
41
1
10
-36.5
20
-11.1704660874498
30
0
41
1
10
-36.5
20
-10.9756651586938
30
0
41
1
10
-36.5
20
-10.7792636737397
30
0
41
1
10
-36.5
20
-10.5812696725585
30
0
41
1
10
-36.5
20
-10.3816871154456
30
0
41
1
10
-36.5
20
-10.180523710493
30
0
41
1
10
-36.5
20
-9.97778558435024
30
0
41
1
10
-36.5
20
-9.7048357680886
30
0
41
1
10
-36.5
20
-9.36101276272151
30
0
41
1
10
-36.5
20
-8.94153438933256
30
0
41
1
10
-36.5
20
-8.58745787193683
30
0
41
1
10
-36.5
20
-8.30004464023597
30
0
41
1
10
-36.5
20
-8.08346950394386
30
0
41
1
10
-36.5
20
-7.86540102208468
30
0
41
1
10
-36.5
20
-7.64585131899608
30
0
41
1
10
-36.5
20
-7.42483318088827
30
0
41
1
10
-36.5
20
-7.20235735193415
30
0
41
1
10
-36.5
20
-6.97843755879961
30
0
41
1
10
-36.5
20
-6.75308981071319
30
0
41
1
10
-36.5
20
-6.52633035082272
30
0
41
1
10
-36.5
20
-6.29817753233073
30
0
41
1
10
-36.5
20
-6.0686502244489
30
0
41
1
10
-36.5
20
-5.83776884649413
30
0
41
1
10
-36.5
20
-5.60555660448856
30
0
41
1
10
-36.5
20
-5.37203985998676
30
0
41
1
10
-36.5
20
-5.13724579696878
30
0
41
1
10
-36.5
20
-4.90120595303731
30
0
41
1
10
-36.5
20
-4.70396583147399
30
0
41
1
10
-36.5
20
-4.54469638576825
30
0
41
1
10
-36.5
20
-4.42533999597052
30
0
41
1
10
-36.5
20
-4.30569972295399
30
0
41
1
10
-36.5
20
-4.14529336499848
30
0
41
1
10
-36.5
20
-3.94531865595204
30
0
41
1
10
-36.5
20
-3.74444957084978
30
0
41
1
10
-36.5
20
-3.58224076117992
30
0
41
1
10
-36.5
20
-3.46078958963506
30
0
41
1
10
-36.5
20
-3.33910702605101
30
0
41
1
10
-36.5
20
-3.17597085922338
30
0
41
1
10
-36.5
20
-3.01425651604549
30
0
41
1
10
-36.5
20
-2.85023149996002
30
0
41
1
10
-36.5
20
-2.72752154931169
30
0
41
1
10
-36.5
20
-2.60463052157436
30
0
41
1
10
-36.5
20
-2.4815737893766
30
0
41
1
10
-36.5
20
-2.35835621123033
30
0
41
1
10
-36.5
20
-2.2349906166005
30
0
41
1
10
-36.5
20
-2.11148761081344
30
0
41
1
10
-36.5
20
-1.98785451527644
30
0
41
1
10
-36.5
20
-1.86410632124091
30
0
41
1
10
-36.5
20
-1.74024827700822
30
0
41
1
10
-36.5
20
-1.61629526151506
30
0
41
1
10
-36.5
20
-1.49225310041953
30
0
41
1
10
-36.5
20
-1.36813478148935
30
0
41
1
10
-36.5
20
-1.24394732222774
30
0
41
1
10
-36.5
20
-1.11970117534861
30
0
41
1
10
-36.5
20
-0.995403485642754
30
0
41
1
10
-36.5
20
-0.871062917068372
30
0
41
1
10
-36.5
20
-0.746686102657662
30
0
41
1
10
-36.5
20
-0.62228012411552
30
0
41
1
10
-36.5
20
-0.49785042075834
30
0
41
1
10
-36.5
20
-0.373402935182156
30
0
41
1
10
-36.5
20
-0.24894223879312
30
0
41
1
10
-36.5
20
-0.124473257200862
30
0
41
1
10
-36.5
20
-9.2461789E-09
30
0
41
1
10
-36.5
20
0.12447325467403
30
0
41
1
10
-36.5
20
0.248942266430674
30
0
41
1
10
-36.5
20
0.373402960091454
30
0
41
1
10
-36.5
20
0.497850400790611
30
0
41
1
10
-36.5
20
0.622280094010875
30
0
41
1
10
-36.5
20
0.746686131491856
30
0
41
1
10
-36.5
20
0.871062970095181
30
0
41
1
10
-36.5
20
0.995403468230819
30
0
41
1
10
-36.5
20
1.11970111692676
30
0
41
1
10
-36.5
20
1.24394734076816
30
0
41
1
10
-36.5
20
1.36813486147523
30
0
41
1
10
-36.5
20
1.49225310642999
30
0
41
1
10
-36.5
20
1.61629518356966
30
0
41
1
10
-36.5
20
1.74024825464133
30
0
41
1
10
-36.5
20
1.86410640329154
30
0
41
1
10
-36.5
20
1.9878545804886
30
0
41
1
10
-36.5
20
2.11148756075914
30
0
41
1
10
-36.5
20
2.23499052786076
30
0
41
1
10
-36.5
20
2.35835622798223
30
0
41
1
10
-36.5
20
2.48157389743921
30
0
41
1
10
-36.5
20
2.60463057106844
30
0
41
1
10
-36.5
20
2.72752148004807
30
0
41
1
10
-36.5
20
2.85023140656233
30
0
41
1
10
-36.5
20
3.01425656877109
30
0
41
1
10
-36.5
20
3.17597095993787
30
0
41
1
10
-36.5
20
3.33910698167961
30
0
41
1
10
-36.5
20
3.46078948211166
30
0
41
1
10
-36.5
20
3.58224072191868
30
0
41
1
10
-36.5
20
3.74444967050351
30
0
41
1
10
-36.5
20
3.94531869048154
30
0
41
1
10
-36.5
20
4.14529326648054
30
0
41
1
10
-36.5
20
4.30569969171864
30
0
41
1
10
-36.5
20
4.42534006396798
30
0
41
1
10
-36.5
20
4.54469650094612
30
0
41
1
10
-36.5
20
4.70396584910509
30
0
41
1
10
-36.5
20
4.90120586463621
30
0
41
1
10
-36.5
20
5.13724581146553
30
0
41
1
10
-36.5
20
5.37203995090812
30
0
41
1
10
-36.5
20
5.60555655529356
30
0
41
1
10
-36.5
20
5.83776875015042
30
0
41
1
10
-36.5
20
6.06865017711215
30
0
41
1
10
-36.5
20
6.29817748211656
30
0
41
1
10
-36.5
20
6.52633051401986
30
0
41
1
10
-36.5
20
6.75309051279783
30
0
41
1
10
-36.5
20
6.97843834484937
30
0
41
1
10
-36.5
20
7.20235684280956
30
0
41
1
10
-36.5
20
7.42483229470758
30
0
41
1
10
-36.5
20
7.64585158611584
30
0
41
1
10
-36.5
20
7.86540128403746
30
0
41
1
10
-36.5
20
8.08346945831605
30
0
41
1
10
-36.5
20
8.30004452993896
30
0
41
1
10
-36.5
20
8.58745782596955
30
0
41
1
10
-36.5
20
8.94153442741856
30
0
41
1
10
-36.5
20
9.36101273737592
30
0
41
1
10
-36.5
20
9.70483575174828
30
0
41
1
10
-36.5
20
9.9777856407232
30
0
41
1
10
-36.5
20
10.18052371466
30
0
41
1
10
-36.5
20
10.3816870614505
30
0
41
1
10
-36.5
20
10.5812696339219
30
0
41
1
10
-36.5
20
10.7792636942328
30
0
41
1
10
-36.5
20
10.9756652058486
30
0
41
1
10
-36.5
20
11.1704660987636
30
0
41
1
10
-36.5
20
11.4285504962004
30
0
41
1
10
-36.5
20
11.6819759007756
30
0
41
1
10
-36.5
20
11.9335556252715
30
0
41
1
10
-36.5
20
12.1202707134413
30
0
41
1
10
-36.5
20
12.3053503320752
30
0
41
1
10
-36.5
20
12.4887913848282
30
0
41
1
10
-36.5
20
12.6705857704289
30
0
41
1
10
-36.5
20
12.8507281979539
30
0
41
1
10
-36.5
20
13.0292149436137
30
0
41
1
10
-36.5
20
13.2060373895955
30
0
41
1
10
-36.5
20
13.3811911431361
30
0
41
1
10
-36.5
20
13.5546713888901
30
0
41
1
10
-36.5
20
13.7264696827894
30
0
41
1
10
-36.5
20
13.95367691736
30
0
41
1
10
-36.5
20
14.176348576809
30
0
41
1
10
-36.5
20
14.3967384349214
30
0
41
1
10
-36.5
20
14.6148460432235
30
0
41
1
10
-36.5
20
14.8284315021107
30
0
41
1
10
-36.5
20
15.0396227184096
30
0
41
1
10
-36.5
20
15.1960147192182
30
0
41
1
10
-36.5
20
15.3506631330604
30
0
41
1
10
-36.5
20
15.5548624364723
30
0
41
1
10
-36.5
20
15.7545451164335
30
0
41
1
10
-36.5
20
15.9516609547094
30
0
41
1
10
-36.5
20
16.0974737380165
30
0
41
1
10
-36.5
20
16.241498813278
30
0
41
1
10
-36.5
20
16.4314450331352
30
0
41
1
10
-36.5
20
16.6168608854213
30
0
41
1
10
-36.5
20
16.7995343923806
30
0
41
1
10
-36.5
20
16.9344844206004
30
0
41
1
10
-36.5
20
17.0675955495038
30
0
41
1
10
-36.5
20
17.2428947983014
30
0
41
1
10
-36.5
20
17.4136313821348
30
0
41
1
10
-36.5
20
17.5814422063202
30
0
41
1
10
-36.5
20
17.7052052466277
30
0
41
1
10
-36.5
20
17.827069915531
30
0
41
1
10
-36.5
20
17.9872703841194
30
0
41
1
10
-36.5
20
18.1428562465544
30
0
41
1
10
-36.5
20
18.2953166794048
30
0
41
1
10
-36.5
20
18.4075180436268
30
0
41
1
10
-36.5
20
18.5177535555592
30
0
41
1
10
-36.5
20
18.6623326618876
30
0
41
1
10
-36.5
20
18.8022222651529
30
0
41
1
10
-36.5
20
18.9387686023437
30
0
41
1
10
-36.5
20
19.0389739868786
30
0
41
1
10
-36.5
20
19.1371342717785
30
0
41
1
10
-36.5
20
19.2332339353277
30
0
41
1
10
-36.5
20
19.3272562516114
30
0
41
1
10
-36.5
20
19.4191882978898
30
0
41
1
10
-36.5
20
19.5090135437133
30
0
41
1
10
-36.5
20
19.5967148362678
30
0
41
1
10
-36.5
20
19.6822775521963
30
0
41
1
10
-36.5
20
19.7656833992676
30
0
41
1
10
-36.5
20
19.8469141406673
30
0
41
1
10
-36.5
20
19.9259535527381
30
0
41
1
10
-36.5
20
20.0027815100322
30
0
41
1
10
-36.5
20
20.1024193061392
30
0
41
1
10
-36.5
20
20.197043652285
30
0
41
1
10
-36.5
20
20.287589681624
30
0
41
1
10
-36.5
20
20.3530628162381
30
0
41
1
10
-36.5
20
20.4161996091987
30
0
41
1
10
-36.5
20
20.4769783724375
30
0
41
1
10
-36.5
20
20.5353747607018
30
0
41
1
10
-36.5
20
20.6101652553123
30
0
41
1
10
-36.5
20
20.6796864153796
30
0
41
1
10
-36.5
20
20.7446292080423
30
0
41
1
10
-36.5
20
20.7907268231739
30
0
41
1
10
-36.5
20
20.8342802793507
30
0
41
1
10
-36.5
20
20.8890285523336
30
0
41
1
10
-36.5
20
20.9382580424269
30
0
41
1
10
-36.5
20
20.9824409225429
30
0
41
1
10
-36.5
20
21.0128017234864
30
0
41
1
10
-36.5
20
21.0404207944711
30
0
41
1
10
-36.5
20
21.0652596303333
30
0
41
1
10
-36.5
20
21.0872797892675
30
0
41
1
10
-36.5
20
21.1064402531507
30
0
41
1
10
-36.5
20
21.1226986516191
30
0
41
1
10
-36.5
20
21.1360112646485
30
0
41
1
10
-36.5
20
21.1463317710584
30
0
41
1
10
-36.5
20
21.1536128319467
30
0
41
1
10
-36.5
20
21.1578041644649
30
0
41
1
10
-36.5
20
21.1588543296934
30
0
41
1
10
-36.5
20
21.1573189708879
30
0
41
1
10
-36.5
20
21.1557860276004
30
0
41
1
10
-36.5
20
21.1555781574795
30
0
0
SPLINE
5
197
100
AcDbEntity
8
SK1
62
256
6
ByLayer
370
18
48
1
60
0
100
AcDbSpline
70
4
71
3
72
115
73
111
40
0
40
0
40
0
40
0
40
0.0065652109265836
40
0.0151093787276076
40
0.0236535465286317
40
0.0321977143296557
40
0.0407418821306798
40
0.0492860499317039
40
0.0578302177327279
40
0.066374385533752
40
0.0834627211358001
40
0.100551056737848
40
0.117639392339896
40
0.12618356014092
40
0.134727727941944
40
0.143271895742969
40
0.151816063543993
40
0.168904399146041
40
0.177448566947065
40
0.185992734748089
40
0.194536902549113
40
0.203081070350137
40
0.211625238151161
40
0.220169405952185
40
0.237257741554233
40
0.245801909355257
40
0.254346077156281
40
0.262890244957305
40
0.271434412758329
40
0.279978580559353
40
0.288522748360378
40
0.297066916161402
40
0.305611083962426
40
0.31415525176345
40
0.322699419564474
40
0.331243587365498
40
0.339787755166522
40
0.348331922967546
40
0.35687609076857
40
0.373964426370618
40
0.382508594171642
40
0.391052761972666
40
0.395324845873178
40
0.39959692977369
40
0.408141097574714
40
0.425229433176762
40
0.433773600977787
40
0.442317768778811
40
0.450861936579835
40
0.459406104380859
40
0.476494439982907
40
0.485038607783931
40
0.493582775584955
40
0.497854859485467
40
0.502126943385979
40
0.510671111187003
40
0.527759446789051
40
0.536303614590075
40
0.544847782391099
40
0.553391950192123
40
0.561936117993147
40
0.579024453595196
40
0.58756862139622
40
0.596112789197244
40
0.600384873097756
40
0.604656956998268
40
0.613201124799292
40
0.621745292600316
40
0.63028946040134
40
0.634561544301852
40
0.638833628202364
40
0.647377796003388
40
0.655921963804412
40
0.664466131605436
40
0.67301029940646
40
0.681554467207484
40
0.690098635008508
40
0.698642802809532
40
0.707186970610556
40
0.71573113841158
40
0.724275306212605
40
0.732819474013629
40
0.741363641814653
40
0.749907809615677
40
0.758451977416701
40
0.766996145217725
40
0.784084480819773
40
0.792628648620797
40
0.801172816421821
40
0.809716984222845
40
0.818261152023869
40
0.826805319824893
40
0.835349487625917
40
0.843893655426941
40
0.852437823227965
40
0.869526158830014
40
0.886614494432062
40
0.90370283003411
40
0.912246997835134
40
0.920791165636158
40
0.929335333437182
40
0.937879501238206
40
0.94642366903923
40
0.954967836840254
40
0.963512004641278
40
0.972056172442302
40
0.980600340243326
40
0.989144508044351
40
0.997688675845374
40
1
40
1
40
1
40
1
41
1
10
-0.394976888875306
20
-21.8653790905208
30
0
41
1
10
-0.394976888875306
20
-21.8653285662355
30
0
41
1
10
-0.394976888875306
20
-21.8644673807193
30
0
41
1
10
-0.394976888875306
20
-21.8604737650697
30
0
41
1
10
-0.394976888875306
20
-21.8529598769268
30
0
41
1
10
-0.394976888875306
20
-21.8423149188875
30
0
41
1
10
-0.394976888875306
20
-21.8285907137819
30
0
41
1
10
-0.394976888875306
20
-21.8118377229246
30
0
41
1
10
-0.394976888875306
20
-21.7921034347989
30
0
41
1
10
-0.394976888875306
20
-21.7618666429643
30
0
41
1
10
-0.394976888875306
20
-21.7168668922192
30
0
41
1
10
-0.394976888875306
20
-21.651618462036
30
0
41
1
10
-0.394976888875306
20
-21.5881524120742
30
0
41
1
10
-0.394976888875306
20
-21.5320229149808
30
0
41
1
10
-0.394976888875306
20
-21.4873092663299
30
0
41
1
10
-0.394976888875306
20
-21.4399968711307
30
0
41
1
10
-0.394976888875306
20
-21.3734709387681
30
0
41
1
10
-0.394976888875306
20
-21.3019320664004
30
0
41
1
10
-0.394976888875306
20
-21.2253664719936
30
0
41
1
10
-0.394976888875306
20
-21.1655031445011
30
0
41
1
10
-0.394976888875306
20
-21.1032108723211
30
0
41
1
10
-0.394976888875306
20
-21.038514297088
30
0
41
1
10
-0.394976888875306
20
-20.9714364994015
30
0
41
1
10
-0.394976888875306
20
-20.8788308563806
30
0
41
1
10
-0.394976888875306
20
-20.7816354627076
30
0
41
1
10
-0.394976888875306
20
-20.6797749496461
30
0
41
1
10
-0.394976888875306
20
-20.6011280536546
30
0
41
1
10
-0.394976888875306
20
-20.5202292190253
30
0
41
1
10
-0.394976888875306
20
-20.4370981008412
30
0
41
1
10
-0.394976888875306
20
-20.3517517634561
30
0
41
1
10
-0.394976888875306
20
-20.2642094206366
30
0
41
1
10
-0.394976888875306
20
-20.1744885542463
30
0
41
1
10
-0.394976888875306
20
-20.082604770276
30
0
41
1
10
-0.394976888875306
20
-19.9885758834751
30
0
41
1
10
-0.394976888875306
20
-19.8924175863555
30
0
41
1
10
-0.394976888875306
20
-19.79414426657
30
0
41
1
10
-0.394976888875306
20
-19.6937723311917
30
0
41
1
10
-0.394976888875306
20
-19.5913158900225
30
0
41
1
10
-0.394976888875306
20
-19.4519091739392
30
0
41
1
10
-0.394976888875306
20
-19.308501644014
30
0
41
1
10
-0.394976888875306
20
-19.160920630363
30
0
41
1
10
-0.394976888875306
20
-19.0670441229991
30
0
41
1
10
-0.394976888875306
20
-18.9909051568102
30
0
41
1
10
-0.394976888875306
20
-18.9140993494365
30
0
41
1
10
-0.394976888875306
20
-18.777958735224
30
0
41
1
10
-0.394976888875306
20
-18.6185131846482
30
0
41
1
10
-0.394976888875306
20
-18.4550236113311
30
0
41
1
10
-0.394976888875306
20
-18.330489335967
30
0
41
1
10
-0.394976888875306
20
-18.2040166079408
30
0
41
1
10
-0.394976888875306
20
-18.0327705937831
30
0
41
1
10
-0.394976888875306
20
-17.8578219077773
30
0
41
1
10
-0.394976888875306
20
-17.6789387292296
30
0
41
1
10
-0.394976888875306
20
-17.5656125946474
30
0
41
1
10
-0.394976888875306
20
-17.4739690253912
30
0
41
1
10
-0.394976888875306
20
-17.3816993239948
30
0
41
1
10
-0.394976888875306
20
-17.2186048360495
30
0
41
1
10
-0.394976888875306
20
-17.0286078387926
30
0
41
1
10
-0.394976888875306
20
-16.8347647509306
30
0
41
1
10
-0.394976888875306
20
-16.6875786248762
30
0
41
1
10
-0.394976888875306
20
-16.5385587049943
30
0
41
1
10
-0.394976888875306
20
-16.3373774066279
30
0
41
1
10
-0.394976888875306
20
-16.1327150774874
30
0
41
1
10
-0.394976888875306
20
-15.9242804112408
30
0
41
1
10
-0.394976888875306
20
-15.7925696820839
30
0
41
1
10
-0.394976888875306
20
-15.6862549949744
30
0
41
1
10
-0.394976888875306
20
-15.5793432837569
30
0
41
1
10
-0.394976888875306
20
-15.4446487492657
30
0
41
1
10
-0.394976888875306
20
-15.2812010193763
30
0
41
1
10
-0.394976888875306
20
-15.1435436982815
30
0
41
1
10
-0.394976888875306
20
-15.0324801920763
30
0
41
1
10
-0.394976888875306
20
-14.9208273816877
30
0
41
1
10
-0.394976888875306
20
-14.7802248596231
30
0
41
1
10
-0.394976888875306
20
-14.6097059483473
30
0
41
1
10
-0.394976888875306
20
-14.4374320816019
30
0
41
1
10
-0.394976888875306
20
-14.2634095816694
30
0
41
1
10
-0.394976888875306
20
-14.0876420714538
30
0
41
1
10
-0.394976888875306
20
-13.9101338497815
30
0
41
1
10
-0.394976888875306
20
-13.7308904366346
30
0
41
1
10
-0.394976888875306
20
-13.549915145406
30
0
41
1
10
-0.394976888875306
20
-13.3672125481811
30
0
41
1
10
-0.394976888875306
20
-13.182787463215
30
0
41
1
10
-0.394976888875306
20
-12.9966426140257
30
0
41
1
10
-0.394976888875306
20
-12.8087826212334
30
0
41
1
10
-0.394976888875306
20
-12.6192114742801
30
0
41
1
10
-0.394976888875306
20
-12.4279318017785
30
0
41
1
10
-0.394976888875306
20
-12.1705475891153
30
0
41
1
10
-0.394976888875306
20
-11.9099848332047
30
0
41
1
10
-0.394976888875306
20
-11.6458042855523
30
0
41
1
10
-0.394976888875306
20
-11.4460361066677
30
0
41
1
10
-0.394976888875306
20
-11.2445799083311
30
0
41
1
10
-0.394976888875306
20
-11.0414389105764
30
0
41
1
10
-0.394976888875306
20
-10.8366153761928
30
0
41
1
10
-0.394976888875306
20
-10.630113157504
30
0
41
1
10
-0.394976888875306
20
-10.4219344610486
30
0
41
1
10
-0.394976888875306
20
-10.1420454829465
30
0
41
1
10
-0.394976888875306
20
-9.78821091215369
30
0
41
1
10
-0.394976888875306
20
-9.3568391135907
30
0
41
1
10
-0.394976888875306
20
-8.99192950801697
30
0
41
1
10
-0.394976888875306
20
-8.69651812098675
30
0
41
1
10
-0.394976888875306
20
-8.47338949471808
30
0
41
1
10
-0.394976888875306
20
-8.24861627222975
30
0
41
1
10
-0.394976888875306
20
-8.0222029406992
30
0
41
1
10
-0.394976888875306
20
-7.79415362199521
30
0
41
1
10
-0.394976888875306
20
-7.56447255210352
30
0
41
1
10
-0.394976888875306
20
-7.33316516004027
30
0
41
1
10
-0.394976888875306
20
-7.10023725398264
30
0
41
1
10
-0.394976888875306
20
-6.86569504295815
30
0
41
1
10
-0.394976888875306
20
-6.62954558311137
30
0
41
1
10
-0.394976888875306
20
-6.44960786563362
30
0
41
1
10
-0.394976888875306
20
-6.34849183540922
30
0
41
1
10
-0.394976888875306
20
-6.32694309067119
30
0
0
SPLINE
5
198
100
AcDbEntity
8
SK1
62
256
6
ByLayer
370
18
48
1
60
0
100
AcDbSpline
70
4
71
3
72
111
73
107
40
0
40
0
40
0
40
0
40
0.0023113641624071
40
0.0108556432492446
40
0.0193999223360821
40
0.0279442014229197
40
0.0364884805097572
40
0.0450327595965947
40
0.0535770386834322
40
0.0621213177702697
40
0.0706655968571072
40
0.0792098759439447
40
0.0877541550307823
40
0.0962984341176198
40
0.113386992291295
40
0.13047555046497
40
0.147564108638645
40
0.156108387725482
40
0.16465266681232
40
0.173196945899157
40
0.181741224985995
40
0.190285504072832
40
0.19882978315967
40
0.207374062246508
40
0.215918341333345
40
0.23300689950702
40
0.241551178593857
40
0.250095457680695
40
0.258639736767532
40
0.26718401585437
40
0.275728294941207
40
0.284272574028045
40
0.292816853114882
40
0.30136113220172
40
0.309905411288558
40
0.318449690375395
40
0.326993969462233
40
0.33553824854907
40
0.352626806722745
40
0.361171085809583
40
0.36971536489642
40
0.386803923070095
40
0.395348202156933
40
0.40389248124377
40
0.412436760330608
40
0.420981039417445
40
0.43806959759112
40
0.446613876677958
40
0.455158155764795
40
0.463702434851633
40
0.47224671393847
40
0.489335272112145
40
0.497879551198983
40
0.50642383028582
40
0.514968109372658
40
0.523512388459495
40
0.54060094663317
40
0.549145225720008
40
0.557689504806845
40
0.566233783893683
40
0.57477806298052
40
0.591866621154195
40
0.600410900241033
40
0.608955179327871
40
0.617499458414708
40
0.626043737501546
40
0.64313229567522
40
0.651676574762058
40
0.660220853848896
40
0.668765132935733
40
0.677309412022571
40
0.685853691109408
40
0.694397970196246
40
0.702942249283083
40
0.711486528369921
40
0.720030807456758
40
0.728575086543596
40
0.737119365630433
40
0.745663644717271
40
0.754207923804108
40
0.762752202890946
40
0.779840761064621
40
0.788385040151458
40
0.796929319238296
40
0.805473598325133
40
0.814017877411971
40
0.822562156498808
40
0.831106435585646
40
0.848194993759321
40
0.856739272846158
40
0.865283551932996
40
0.873827831019834
40
0.882372110106671
40
0.899460668280346
40
0.908004947367184
40
0.916549226454021
40
0.925093505540859
40
0.933637784627696
40
0.942182063714534
40
0.950726342801371
40
0.959270621888209
40
0.967814900975046
40
0.976359180061883
40
0.984903459148721
40
0.993447738235559
40
1
40
1
40
1
40
1
41
1
10
-0.394976888875277
20
6.32694279392976
30
0
41
1
10
-0.394976888875277
20
6.3484916311391
30
0
41
1
10
-0.394976888875277
20
6.44960775400912
30
0
41
1
10
-0.394976888875277
20
6.62954555948869
30
0
41
1
10
-0.394976888875277
20
6.8656950488801
30
0
41
1
10
-0.394976888875277
20
7.10023740586411
30
0
41
1
10
-0.394976888875277
20
7.33316546385933
30
0
41
1
10
-0.394976888875277
20
7.56447269448574
30
0
41
1
10
-0.394976888875277
20
7.79415340272945
30
0
41
1
10
-0.394976888875277
20
8.02220293401996
30
0
41
1
10
-0.394976888875277
20
8.24861635560848
30
0
41
1
10
-0.394976888875277
20
8.47338951886385
30
0
41
1
10
-0.394976888875277
20
8.69651811258549
30
0
41
1
10
-0.394976888875277
20
8.99192948127941
30
0
41
1
10
-0.394976888875277
20
9.35683912175983
30
0
41
1
10
-0.394976888875277
20
9.78821091217483
30
0
41
1
10
-0.394976888875277
20
10.142045462177
30
0
41
1
10
-0.394976888875277
20
10.4219344727077
30
0
41
1
10
-0.394976888875277
20
10.6301131683678
30
0
41
1
10
-0.394976888875277
20
10.8366153667066
30
0
41
1
10
-0.394976888875277
20
11.0414388905992
30
0
41
1
10
-0.394976888875277
20
11.2445799004538
30
0
41
1
10
-0.394976888875277
20
11.4460361162834
30
0
41
1
10
-0.394976888875277
20
11.6458042976885
30
0
41
1
10
-0.394976888875277
20
11.9099848253352
30
0
41
1
10
-0.394976888875277
20
12.1705475695385
30
0
41
1
10
-0.394976888875277
20
12.4279318067111
30
0
41
1
10
-0.394976888875277
20
12.6192114874981
30
0
41
1
10
-0.394976888875277
20
12.8087826250924
30
0
41
1
10
-0.394976888875277
20
12.9966426041155
30
0
41
1
10
-0.394976888875277
20
13.182787448996
30
0
41
1
10
-0.394976888875277
20
13.3672125455487
30
0
41
1
10
-0.394976888875277
20
13.5499151547097
30
0
41
1
10
-0.394976888875277
20
13.7308904478326
30
0
41
1
10
-0.394976888875277
20
13.910133867705
30
0
41
1
10
-0.394976888875277
20
14.0876421688895
30
0
41
1
10
-0.394976888875277
20
14.2634098807097
30
0
41
1
10
-0.394976888875277
20
14.4955025482493
30
0
41
1
10
-0.394976888875277
20
14.7239127068147
30
0
41
1
10
-0.394976888875277
20
14.9489833053404
30
0
41
1
10
-0.394976888875277
20
15.171701411915
30
0
41
1
10
-0.394976888875277
20
15.3907043201103
30
0
41
1
10
-0.394976888875277
20
15.6063159613101
30
0
41
1
10
-0.394976888875277
20
15.7661946363952
30
0
41
1
10
-0.394976888875277
20
15.9242799594928
30
0
41
1
10
-0.394976888875277
20
16.1327154012234
30
0
41
1
10
-0.394976888875277
20
16.3373780173449
30
0
41
1
10
-0.394976888875277
20
16.5385587125243
30
0
41
1
10
-0.394976888875277
20
16.6875782011067
30
0
41
1
10
-0.394976888875277
20
16.8347642769002
30
0
41
1
10
-0.394976888875277
20
17.0286080073569
30
0
41
1
10
-0.394976888875277
20
17.2186059445175
30
0
41
1
10
-0.394976888875277
20
17.4050188999402
30
0
41
1
10
-0.394976888875277
20
17.5429190217058
30
0
41
1
10
-0.394976888875277
20
17.6789377757623
30
0
41
1
10
-0.394976888875277
20
17.8578220601067
30
0
41
1
10
-0.394976888875277
20
18.0327708145484
30
0
41
1
10
-0.394976888875277
20
18.2040166330947
30
0
41
1
10
-0.394976888875277
20
18.3304892054167
30
0
41
1
10
-0.394976888875277
20
18.4550234389153
30
0
41
1
10
-0.394976888875277
20
18.6185132745736
30
0
41
1
10
-0.394976888875277
20
18.7779598884918
30
0
41
1
10
-0.394976888875277
20
18.933565131357
30
0
41
1
10
-0.394976888875277
20
19.048244884465
30
0
41
1
10
-0.394976888875277
20
19.1609196079758
30
0
41
1
10
-0.394976888875277
20
19.3085018143331
30
0
41
1
10
-0.394976888875277
20
19.4519098709686
30
0
41
1
10
-0.394976888875277
20
19.5913159811741
30
0
41
1
10
-0.394976888875277
20
19.6937719762305
30
0
41
1
10
-0.394976888875277
20
19.7941438028822
30
0
41
1
10
-0.394976888875277
20
19.8924174211231
30
0
41
1
10
-0.394976888875277
20
19.988575861591
30
0
41
1
10
-0.394976888875277
20
20.082604778142
30
0
41
1
10
-0.394976888875277
20
20.1744885559187
30
0
41
1
10
-0.394976888875277
20
20.264209431984
30
0
41
1
10
-0.394976888875277
20
20.3517517880635
30
0
41
1
10
-0.394976888875277
20
20.437098129367
30
0
41
1
10
-0.394976888875277
20
20.5202292348052
30
0
41
1
10
-0.394976888875277
20
20.6011280559991
30
0
41
1
10
-0.394976888875277
20
20.6797749513881
30
0
41
1
10
-0.394976888875277
20
20.781635486227
30
0
41
1
10
-0.394976888875277
20
20.8788308931333
30
0
41
1
10
-0.394976888875277
20
20.9714365096391
30
0
41
1
10
-0.394976888875277
20
21.0385142950144
30
0
41
1
10
-0.394976888875277
20
21.1032108820957
30
0
41
1
10
-0.394976888875277
20
21.1655031751743
30
0
41
1
10
-0.394976888875249
20
21.2253665102307
30
0
41
1
10
-0.394976888875249
20
21.301932078811
30
0
41
1
10
-0.394976888875249
20
21.3734709318986
30
0
41
1
10
-0.394976888875249
20
21.4399968999807
30
0
41
1
10
-0.394976888875249
20
21.4873093096751
30
0
41
1
10
-0.394976888875249
20
21.5320229383892
30
0
41
1
10
-0.394976888875249
20
21.5881524005931
30
0
41
1
10
-0.394976888875249
20
21.6389063892513
30
0
41
1
10
-0.394976888875249
20
21.6842420425293
30
0
41
1
10
-0.394976888875249
20
21.7154617242468
30
0
41
1
10
-0.394976888875249
20
21.7438726893518
30
0
41
1
10
-0.394976888875249
20
21.7694337460976
30
0
41
1
10
-0.394976888875249
20
21.7921034780961
30
0
41
1
10
-0.394976888875249
20
21.8118377637545
30
0
41
1
10
-0.394976888875249
20
21.8285907189997
30
0
41
1
10
-0.394976888875249
20
21.8423149132633
30
0
41
1
10
-0.394976888875249
20
21.8529599173647
30
0
41
1
10
-0.394976888875249
20
21.8604739519412
30
0
41
1
10
-0.394976888875249
20
21.8644655182354
30
0
41
1
10
-0.394976888875249
20
21.8653271905054
30
0
41
1
10
-0.39497688887522
20
21.8653787938329
30
0
0
SPLINE
5
199
100
AcDbEntity
8
SK1
62
256
6
ByLayer
370
18
48
1
60
0
100
AcDbSpline
70
4
71
3
72
299
73
295
40
0
40
0
40
0
40
0
40
0.0029473698951109
40
0.0064724446872823
40
0.0099975194794537
40
0.0135225942716251
40
0.0170476690637964
40
0.0205727438559678
40
0.0240978186481392
40
0.0276228934403106
40
0.0346730430246534
40
0.0417231926089961
40
0.0487733421933389
40
0.0522984169855103
40
0.0558234917776817
40
0.0593485665698531
40
0.0628736413620245
40
0.0699237909463672
40
0.0734488657385386
40
0.0769739405307099
40
0.0804990153228814
40
0.0840240901150528
40
0.0875491649072242
40
0.0910742396993956
40
0.0981243892837383
40
0.10164946407591
40
0.105174538868081
40
0.108699613660253
40
0.112224688452424
40
0.115749763244595
40
0.119274838036767
40
0.122799912828938
40
0.126324987621109
40
0.129850062413281
40
0.133375137205452
40
0.136900211997624
40
0.140425286789795
40
0.143950361581966
40
0.147475436374138
40
0.154525585958481
40
0.158050660750652
40
0.161575735542823
40
0.163338272938909
40
0.165100810334995
40
0.168625885127166
40
0.175676034711509
40
0.17920110950368
40
0.182726184295852
40
0.186251259088023
40
0.189776333880194
40
0.196826483464537
40
0.200351558256709
40
0.20387663304888
40
0.205639170444966
40
0.207401707841051
40
0.210926782633223
40
0.217976932217566
40
0.221502007009737
40
0.225027081801908
40
0.22855215659408
40
0.232077231386251
40
0.239127380970594
40
0.242652455762765
40
0.246177530554936
40
0.247940067951022
40
0.249702605347108
40
0.253227680139279
40
0.256752754931451
40
0.260277829723622
40
0.262040367119708
40
0.263802904515794
40
0.267327979307965
40
0.270853054100136
40
0.274378128892308
40
0.277903203684479
40
0.28142827847665
40
0.284953353268822
40
0.288478428060993
40
0.292003502853165
40
0.295528577645336
40
0.299053652437507
40
0.302578727229679
40
0.30610380202185
40
0.309628876814022
40
0.313153951606193
40
0.316679026398364
40
0.323729175982707
40
0.327254250774878
40
0.33077932556705
40
0.334304400359221
40
0.337829475151393
40
0.341354549943564
40
0.344879624735735
40
0.348404699527907
40
0.351929774320078
40
0.358979923904421
40
0.366030073488764
40
0.373080223073107
40
0.376605297865278
40
0.380130372657449
40
0.383655447449621
40
0.387180522241792
40
0.390705597033963
40
0.394230671826135
40
0.397755746618306
40
0.401280821410478
40
0.404805896202649
40
0.40833097099482
40
0.411856045786992
40
0.415381120579163
40
0.418906195371335
40
0.422431270163506
40
0.425956344955677
40
0.429481419747849
40
0.43300649454002
40
0.434769031936106
40
0.436531569332191
40
0.438294106728277
40
0.440056644124363
40
0.443581718916534
40
0.447106793708706
40
0.448869331104791
40
0.450631868500877
40
0.452394405896963
40
0.454156943293049
40
0.45768201808522
40
0.459444555481306
40
0.461207092877391
40
0.462969630273477
40
0.464732167669562
40
0.466494705065648
40
0.468257242461734
40
0.47001977985782
40
0.471782317253905
40
0.473544854649991
40
0.475307392046077
40
0.477069929442162
40
0.478832466838248
40
0.480595004234334
40
0.48235754163042
40
0.484120079026505
40
0.485882616422591
40
0.487645153818677
40
0.489407691214762
40
0.491170228610848
40
0.492932766006934
40
0.494695303403019
40
0.496457840799105
40
0.498220378195191
40
0.499982915591276
40
0.501745452987362
40
0.503507990383448
40
0.505270527779533
40
0.507033065175619
40
0.508795602571705
40
0.510558139967791
40
0.512320677363876
40
0.514083214759962
40
0.515845752156048
40
0.517608289552133
40
0.519370826948219
40
0.521133364344305
40
0.52289590174039
40
0.524658439136476
40
0.526420976532562
40
0.528183513928647
40
0.529946051324733
40
0.531708588720819
40
0.533471126116905
40
0.53523366351299
40
0.536996200909076
40
0.538758738305162
40
0.540521275701248
40
0.542283813097333
40
0.545808887889504
40
0.54757142528559
40
0.549333962681676
40
0.551096500077762
40
0.552859037473847
40
0.556384112266019
40
0.55990918705819
40
0.561671724454276
40
0.563434261850361
40
0.565196799246447
40
0.566959336642533
40
0.570484411434704
40
0.574009486226875
40
0.577534561019047
40
0.581059635811218
40
0.58458471060339
40
0.588109785395561
40
0.591634860187732
40
0.595159934979904
40
0.598685009772075
40
0.602210084564247
40
0.605735159356418
40
0.609260234148589
40
0.612785308940761
40
0.616310383732932
40
0.619835458525103
40
0.623360533317275
40
0.626885608109446
40
0.633935757693789
40
0.640985907278132
40
0.648036056862475
40
0.651561131654646
40
0.655086206446817
40
0.658611281238989
40
0.66213635603116
40
0.665661430823332
40
0.669186505615503
40
0.672711580407674
40
0.676236655199846
40
0.683286804784189
40
0.68681187957636
40
0.690336954368531
40
0.693862029160703
40
0.697387103952874
40
0.700912178745045
40
0.704437253537217
40
0.707962328329388
40
0.71148740312156
40
0.715012477913731
40
0.718537552705902
40
0.722062627498074
40
0.725587702290245
40
0.732637851874588
40
0.736162926666759
40
0.739688001458931
40
0.746738151043274
40
0.750263225835445
40
0.753788300627616
40
0.757313375419788
40
0.760838450211959
40
0.767888599796302
40
0.771413674588473
40
0.774938749380645
40
0.778463824172816
40
0.781988898964987
40
0.78903904854933
40
0.792564123341502
40
0.796089198133673
40
0.799614272925844
40
0.803139347718016
40
0.810189497302359
40
0.81371457209453
40
0.817239646886701
40
0.820764721678873
40
0.824289796471044
40
0.831339946055387
40
0.834865020847558
40
0.83839009563973
40
0.841915170431901
40
0.845440245224072
40
0.852490394808415
40
0.856015469600587
40
0.859540544392758
40
0.863065619184929
40
0.866590693977101
40
0.870115768769272
40
0.873640843561443
40
0.877165918353615
40
0.880690993145786
40
0.884216067937957
40
0.887741142730129
40
0.891266217522301
40
0.894791292314472
40
0.898316367106643
40
0.901841441898815
40
0.908891591483157
40
0.912416666275329
40
0.9159417410675
40
0.919466815859671
40
0.922991890651843
40
0.926516965444014
40
0.930042040236186
40
0.937092189820528
40
0.9406172646127
40
0.944142339404871
40
0.947667414197042
40
0.951192488989214
40
0.958242638573557
40
0.961767713365728
40
0.9652927881579
40
0.968817862950071
40
0.972342937742242
40
0.975868012534414
40
0.979393087326585
40
0.982918162118756
40
0.986443236910928
40
0.989968311703099
40
0.993493386495271
40
0.997018461287442
40
1
40
1
40
1
40
1
41
1
10
-38
20
-20.2923486494991
30
0
41
1
10
-38
20
-20.2923549700479
30
0
41
1
10
-38
20
-20.2915868465479
30
0
41
1
10
-38
20
-20.2877827415224
30
0
41
1
10
-38
20
-20.2807871950941
30
0
41
1
10
-38
20
-20.270864225278
30
0
41
1
10
-38
20
-20.2580557575388
30
0
41
1
10
-38
20
-20.2424031034125
30
0
41
1
10
-38
20
-20.2239454925533
30
0
41
1
10
-38
20
-20.19551262204
30
0
41
1
10
-38
20
-20.1534581579689
30
0
41
1
10
-38
20
-20.0921783324266
30
0
41
1
10
-38
20
-20.0326760120608
30
0
41
1
10
-38
20
-19.9796195423852
30
0
41
1
10
-38
20
-19.9374871337362
30
0
41
1
10
-38
20
-19.8928775037254
30
0
41
1
10
-38
20
-19.8298739849262
30
0
41
1
10
-38
20
-19.7628242930463
30
0
41
1
10
-38
20
-19.6902080345967
30
0
41
1
10
-38
20
-19.6336084813315
30
0
41
1
10
-38
20
-19.5746836513966
30
0
41
1
10
-38
20
-19.5134574775013
30
0
41
1
10
-38
20
-19.4499498796238
30
0
41
1
10
-38
20
-19.3619265805519
30
0
41
1
10
-38
20
-19.2704514952515
30
0
41
1
10
-38
20
-19.1735363516591
30
0
41
1
10
-38
20
-19.0989364266238
30
0
41
1
10
-38
20
-19.0221745884206
30
0
41
1
10
-38
20
-18.9432715601189
30
0
41
1
10
-38
20
-18.8622425921487
30
0
41
1
10
-38
20
-18.7791047356355
30
0
41
1
10
-38
20
-18.6938772447031
30
0
41
1
10
-38
20
-18.6065734364562
30
0
41
1
10
-38
20
-18.5172096781028
30
0
41
1
10
-38
20
-18.4258037757914
30
0
41
1
10
-38
20
-18.3323676597213
30
0
41
1
10
-38
20
-18.2369170405729
30
0
41
1
10
-38
20
-18.1394682315478
30
0
41
1
10
-38
20
-18.006423045464
30
0
41
1
10
-38
20
-17.870842154793
30
0
41
1
10
-38
20
-17.7299440627733
30
0
41
1
10
-38
20
-17.6408187485725
30
0
41
1
10
-38
20
-17.5681131617785
30
0
41
1
10
-38
20
-17.4947669133712
30
0
41
1
10
-38
20
-17.3649201654157
30
0
41
1
10
-38
20
-17.2140632768009
30
0
41
1
10
-38
20
-17.0578935907134
30
0
41
1
10
-38
20
-16.9392992293059
30
0
41
1
10
-38
20
-16.8188549914817
30
0
41
1
10
-38
20
-16.6552510003021
30
0
41
1
10
-38
20
-16.489672496603
30
0
41
1
10
-38
20
-16.3187666825072
30
0
41
1
10
-38
20
-16.2111031772939
30
0
41
1
10
-38
20
-16.1235473577607
30
0
41
1
10
-38
20
-16.0353949417432
30
0
41
1
10
-38
20
-15.8797855584285
30
0
41
1
10
-38
20
-15.6999813794666
30
0
41
1
10
-38
20
-15.5148116907138
30
0
41
1
10
-38
20
-15.3746600384838
30
0
41
1
10
-38
20
-15.2327750536327
30
0
41
1
10
-38
20
-15.0406360987562
30
0
41
1
10
-38
20
-14.8470518249568
30
0
41
1
10
-38
20
-14.6480433816336
30
0
41
1
10
-38
20
-14.5230237603811
30
0
41
1
10
-38
20
-14.421539532279
30
0
41
1
10
-38
20
-14.3194944461189
30
0
41
1
10
-38
20
-14.1916826014268
30
0
41
1
10
-38
20
-14.0362107113461
30
0
41
1
10
-38
20
-13.9056336328639
30
0
41
1
10
-38
20
-13.7996824703933
30
0
41
1
10
-38
20
-13.693179914064
30
0
41
1
10
-38
20
-13.5598675642285
30
0
41
1
10
-38
20
-13.3977994204324
30
0
41
1
10
-38
20
-13.2340971553997
30
0
41
1
10
-38
20
-13.0687736820565
30
0
41
1
10
-38
20
-12.9018380893651
30
0
41
1
10
-38
20
-12.7332922951509
30
0
41
1
10
-38
20
-12.5631480531082
30
0
41
1
10
-38
20
-12.3914123687224
30
0
41
1
10
-38
20
-12.2180896154104
30
0
41
1
10
-38
20
-12.0431930727567
30
0
41
1
10
-38
20
-11.8667275879997
30
0
41
1
10
-38
20
-11.6886992220563
30
0
41
1
10
-38
20
-11.5091211559413
30
0
41
1
10
-38
20
-11.3279971676985
30
0
41
1
10
-38
20
-11.0835274575533
30
0
41
1
10
-38
20
-10.8388445996822
30
0
41
1
10
-38
20
-10.5882272221232
30
0
41
1
10
-38
20
-10.3995106478124
30
0
41
1
10
-38
20
-10.2093006505111
30
0
41
1
10
-38
20
-10.0176111741013
30
0
41
1
10
-38
20
-9.82444825814397
30
0
41
1
10
-38
20
-9.6298243336378
30
0
41
1
10
-38
20
-9.4337503289525
30
0
41
1
10
-38
20
-9.16930024978842
30
0
41
1
10
-38
20
-8.8377403499679
30
0
41
1
10
-38
20
-8.43283016067571
30
0
41
1
10
-38
20
-8.09202302704492
30
0
41
1
10
-38
20
-7.81440668711977
30
0
41
1
10
-38
20
-7.60585888080684
30
0
41
1
10
-38
20
-7.39600299493048
30
0
41
1
10
-38
20
-7.18486050853946
30
0
41
1
10
-38
20
-6.97245482074294
30
0
41
1
10
-38
20
-6.75880464755269
30
0
41
1
10
-38
20
-6.54393387937543
30
0
41
1
10
-38
20
-6.32787102064518
30
0
41
1
10
-38
20
-6.11064460524275
30
0
41
1
10
-38
20
-5.89228682406821
30
0
41
1
10
-38
20
-5.67283049766695
30
0
41
1
10
-38
20
-5.45231041402204
30
0
41
1
10
-38
20
-5.23076611988364
30
0
41
1
10
-38
20
-5.00824236668086
30
0
41
1
10
-38
20
-4.78478453894903
30
0
41
1
10
-38
20
-4.56044477194345
30
0
41
1
10
-38
20
-4.37375931423287
30
0
41
1
10
-38
20
-4.22222174308925
30
0
41
1
10
-38
20
-4.10916467830535
30
0
41
1
10
-38
20
-3.99593123757282
30
0
41
1
10
-38
20
-3.84368490764797
30
0
41
1
10
-38
20
-3.65544484289472
30
0
41
1
10
-38
20
-3.46668355973623
30
0
41
1
10
-38
20
-3.31336520651499
30
0
41
1
10
-38
20
-3.19916977025278
30
0
41
1
10
-38
20
-3.08487718492034
30
0
41
1
10
-38
20
-2.93116533478533
30
0
41
1
10
-38
20
-2.78106304592117
30
0
41
1
10
-38
20
-2.62697343511891
30
0
41
1
10
-38
20
-2.51237687493426
30
0
41
1
10
-38
20
-2.3977497448725
30
0
41
1
10
-38
20
-2.28311555219401
30
0
41
1
10
-38
20
-2.1684761897647
30
0
41
1
10
-38
20
-2.05384840107447
30
0
41
1
10
-38
20
-1.939244581704
30
0
41
1
10
-38
20
-1.8246689917122
30
0
41
1
10
-38
20
-1.7101412139844
30
0
41
1
10
-38
20
-1.59566009898873
30
0
41
1
10
-38
20
-1.48124309885603
30
0
41
1
10
-38
20
-1.3668888387804
30
0
41
1
10
-38
20
-1.25260906632695
30
0
41
1
10
-38
20
-1.13840321986399
30
0
41
1
10
-38
20
-1.02427614220736
30
0
41
1
10
-38
20
-0.910225811803855
30
0
41
1
10
-38
20
-0.796251800903917
30
0
41
1
10
-38
20
-0.682349388495567
30
0
41
1
10
-38
20
-0.568513483413483
30
0
41
1
10
-38
20
-0.454735475948922
30
0
41
1
10
-38
20
-0.341006791030054
30
0
41
1
10
-38
20
-0.227315919379492
30
0
41
1
10
-38
20
-0.113651444289019
30
0
41
1
10
-38
20
-2.3930653E-08
30
0
41
1
10
-38
20
0.113651428861175
30
0
41
1
10
-38
20
0.227315965161864
30
0
41
1
10
-38
20
0.341006831114783
30
0
41
1
10
-38
20
0.454735424962792
30
0
41
1
10
-38
20
0.568513412391582
30
0
41
1
10
-38
20
0.682349437337109
30
0
41
1
10
-38
20
0.796251898049263
30
0
41
1
10
-38
20
0.910225765592259
30
0
41
1
10
-38
20
1.02427601417031
30
0
41
1
10
-38
20
1.13840324907636
30
0
41
1
10
-38
20
1.2526092186576
30
0
41
1
10
-38
20
1.36688883944319
30
0
41
1
10
-38
20
1.48124293103635
30
0
41
1
10
-38
20
1.59566004663387
30
0
41
1
10
-38
20
1.71014137239001
30
0
41
1
10
-38
20
1.82466911261435
30
0
41
1
10
-38
20
1.93924446866487
30
0
41
1
10
-38
20
2.05384821372695
30
0
41
1
10
-38
20
2.16847621903293
30
0
41
1
10
-38
20
2.28311576323423
30
0
41
1
10
-38
20
2.39774983280108
30
0
41
1
10
-38
20
2.5123767231631
30
0
41
1
10
-38
20
2.62697323991804
30
0
41
1
10
-38
20
2.78106315146934
30
0
41
1
10
-38
20
2.93116552693391
30
0
41
1
10
-38
20
3.08487708212587
30
0
41
1
10
-38
20
3.19916954549009
30
0
41
1
10
-38
20
3.31336512600552
30
0
41
1
10
-38
20
3.46668375918682
30
0
41
1
10
-38
20
3.65544489425091
30
0
41
1
10
-38
20
3.84368470208378
30
0
41
1
10
-38
20
3.99593117493797
30
0
41
1
10
-38
20
4.10916481607399
30
0
41
1
10
-38
20
4.22222196867943
30
0
41
1
10
-38
20
4.37375933349009
30
0
41
1
10
-38
20
4.56044458630851
30
0
41
1
10
-38
20
4.78478457648498
30
0
41
1
10
-38
20
5.00824253816091
30
0
41
1
10
-38
20
5.23076600439057
30
0
41
1
10
-38
20
5.45231022599052
30
0
41
1
10
-38
20
5.67283041504655
30
0
41
1
10
-38
20
5.89228674128228
30
0
41
1
10
-38
20
6.11064496108526
30
0
41
1
10
-38
20
6.32787239667019
30
0
41
1
10
-38
20
6.54393525610649
30
0
41
1
10
-38
20
6.7588033404013
30
0
41
1
10
-38
20
6.97245311766213
30
0
41
1
10
-38
20
7.1848611110338
30
0
41
1
10
-38
20
7.39600347561745
30
0
41
1
10
-38
20
7.60585874971366
30
0
41
1
10
-38
20
7.81440645201113
30
0
41
1
10
-38
20
8.09202295752317
30
0
41
1
10
-38
20
8.43283023540661
30
0
41
1
10
-38
20
8.83774029355061
30
0
41
1
10
-38
20
9.16930023887329
30
0
41
1
10
-38
20
9.43375044009517
30
0
41
1
10
-38
20
9.62982432960195
30
0
41
1
10
-38
20
9.82444814962997
30
0
41
1
10
-38
20
10.0176111126089
30
0
41
1
10
-38
20
10.2093007057547
30
0
41
1
10
-38
20
10.3995107409486
30
0
41
1
10
-38
20
10.5882272324294
30
0
41
1
10
-38
20
10.8388445170812
30
0
41
1
10
-38
20
11.0835274377931
30
0
41
1
10
-38
20
11.327997250045
30
0
41
1
10
-38
20
11.5091211965042
30
0
41
1
10
-38
20
11.6886991809047
30
0
41
1
10
-38
20
11.8667275177688
30
0
41
1
10
-38
20
12.0431930522804
30
0
41
1
10
-38
20
12.2180896645831
30
0
41
1
10
-38
20
12.3914124247035
30
0
41
1
10
-38
20
12.5631480735019
30
0
41
1
10
-38
20
12.7332924196477
30
0
41
1
10
-38
20
12.9018387248249
30
0
41
1
10
-38
20
13.068774902876
30
0
41
1
10
-38
20
13.2899980003419
30
0
41
1
10
-38
20
13.5056406071554
30
0
41
1
10
-38
20
13.7202970548286
30
0
41
1
10
-38
20
13.9327572918623
30
0
41
1
10
-38
20
14.1397069500696
30
0
41
1
10
-38
20
14.3454836148158
30
0
41
1
10
-38
20
14.4976048095277
30
0
41
1
10
-38
20
14.6480433741444
30
0
41
1
10
-38
20
14.8470538575165
30
0
41
1
10
-38
20
15.0406366439894
30
0
41
1
10
-38
20
15.2327734637882
30
0
41
1
10
-38
20
15.3746583733237
30
0
41
1
10
-38
20
15.5148115582755
30
0
41
1
10
-38
20
15.6999837411247
30
0
41
1
10
-38
20
15.8797870255404
30
0
41
1
10
-38
20
16.0578801048402
30
0
41
1
10
-38
20
16.189216581434
30
0
41
1
10
-38
20
16.3187661779868
30
0
41
1
10
-38
20
16.4896741385664
30
0
41
1
10
-38
20
16.6552512602625
30
0
41
1
10
-38
20
16.818854580765
30
0
41
1
10
-38
20
16.9392987318018
30
0
41
1
10
-38
20
17.0578934672827
30
0
41
1
10
-38
20
17.2140648101706
30
0
41
1
10
-38
20
17.3649216616154
30
0
41
1
10
-38
20
17.513530035822
30
0
41
1
10
-38
20
17.6226956365842
30
0
41
1
10
-38
20
17.7299433731026
30
0
41
1
10
-38
20
17.8708440004863
30
0
41
1
10
-38
20
18.0064238716365
30
0
41
1
10
-38
20
18.1394672902699
30
0
41
1
10
-38
20
18.236915915677
30
0
41
1
10
-38
20
18.3323672965474
30
0
41
1
10
-38
20
18.4258040962283
30
0
41
1
10
-38
20
18.517209887002
30
0
41
1
10
-38
20
18.606573489648
30
0
41
1
10
-38
20
18.6938772522128
30
0
41
1
10
-38
20
18.7791047692189
30
0
41
1
10
-38
20
18.8622426359769
30
0
41
1
10
-38
20
18.9432715834756
30
0
41
1
10
-38
20
19.0221745805326
30
0
41
1
10
-38
20
19.0989364136874
30
0
41
1
10
-38
20
19.1735363647814
30
0
41
1
10
-38
20
19.2704515417461
30
0
41
1
10
-38
20
19.3619266112173
30
0
41
1
10
-38
20
19.4499498647732
30
0
41
1
10
-38
20
19.5134574724378
30
0
41
1
10
-38
20
19.5746836830748
30
0
41
1
10
-38
20
19.6336085328263
30
0
41
1
10
-38
20
19.6902080668946
30
0
41
1
10
-38
20
19.762824284205
30
0
41
1
10
-38
20
19.829873984374
30
0
41
1
10
-38
20
19.8928775551026
30
0
41
1
10
-38
20
19.9374871757692
30
0
41
1
10
-38
20
19.9796195436674
30
0
41
1
10
-38
20
20.0326760063813
30
0
41
1
10
-38
20
20.0800381474626
30
0
41
1
10
-38
20
20.1228090027497
30
0
41
1
10
-38
20
20.1521177658613
30
0
41
1
10
-38
20
20.1787668505585
30
0
41
1
10
-38
20
20.2027210424567
30
0
41
1
10
-38
20
20.2239455432986
30
0
41
1
10
-38
20
20.2424031363826
30
0
41
1
10
-38
20
20.2580557552655
30
0
41
1
10
-38
20
20.2708642249464
30
0
41
1
10
-38
20
20.2807872561095
30
0
41
1
10
-38
20
20.2877829489452
30
0
41
1
10
-38
20
20.2916001729335
30
0
41
1
10
-38
20
20.292363119038
30
0
41
1
10
-38
20
20.2923482636766
30
0
0
SPLINE
5
19A
100
AcDbEntity
8
1
62
256
6
ByLayer
370
18
48
1
60
0
100
AcDbSpline
70
4
71
3
72
10
73
6
40
0
40
0
40
0
40
0
40
0.504137084757151
40
0.504137084757151
40
1
40
1
40
1
40
1
41
1
10
11.0316314233666
20
20.2254318412345
30
0
41
1
10
10.9044854808909
20
20.2526695099264
30
0
41
1
10
10.77978000086
20
20.2408108413659
30
0
41
1
10
10.5479510482558
20
20.0956951124699
30
0
41
1
10
10.4617001341447
20
19.9495378992959
30
0
41
1
10
10.4104338806023
20
19.774238399723
30
0
0
SPLINE
5
19B
100
AcDbEntity
8
1
62
256
6
ByLayer
370
18
48
1
60
0
100
AcDbSpline
70
4
71
2
72
8
73
5
40
0
40
0
40
0
40
0.513016418672537
40
0.769524628008806
40
1
40
1
40
1
41
1.02613459695995
10
37.5328081549334
20
-25.8491477914788
30
0
41
1.02613459695995
10
36.5951390476119
20
-25.6953382863273
30
0
41
1.02613459695995
10
35.2258618499203
20
-26.1875462785823
30
0
41
1.02613459695995
10
34.4067492165439
20
-26.7425425388901
30
0
41
1.02613459695995
10
34.06214205241
20
-27.093137390772
30
0
0
SPLINE
5
19C
100
AcDbEntity
8
1
62
256
6
ByLayer
370
18
48
1
60
0
100
AcDbSpline
70
4
71
2
72
6
73
3
40
0
40
0
40
0
40
1
40
1
40
1
41
1.02613459695995
10
30.2035920591325
20
-27.1145086742221
30
0
41
0.914702385190857
10
30.9460402000847
20
-27.1007612734416
30
0
41
0.885900191892349
10
31.5119443003766
20
-27.7208655980997
30
0
0
SPLINE
5
19D
100
AcDbEntity
8
1
62
256
6
ByLayer
370
18
48
1
60
0
100
AcDbSpline
70
4
71
3
72
12
73
8
40
0
40
0
40
0
40
0
40
0.761200494859866
40
0.761200494859866
40
0.993628357091717
40
0.993628357091717
40
1
40
1
40
1
40
1
41
1
10
29.576244861087
20
-40.8566878951278
30
0
41
1
10
29.9481686819289
20
-40.8892270131315
30
0
41
1
10
30.3232246391136
20
-40.9220401575576
30
0
41
1
10
30.9088726066439
20
-40.9732777155094
30
0
41
1
10
31.0615103545408
20
-40.9866317880703
30
0
41
1
10
31.2322435162612
20
-41.0015690042017
30
0
41
1
10
31.2368251140115
20
-41.0019698420655
30
0
41
1
10
31.2414171733784
20
-41.0023715952022
30
0
0
SPLINE
5
19E
100
AcDbEntity
8
1
62
256
6
ByLayer
370
18
48
1
60
0
100
AcDbSpline
70
4
71
3
72
10
73
6
40
0
40
0
40
0
40
0
40
0.415331753330655
40
0.415331753330655
40
1
40
1
40
1
40
1
41
1
10
10.4875814992361
20
19.5767275625545
30
0
41
1
10
10.5603265669401
20
19.7046095133764
30
0
41
1
10
10.6388657684224
20
19.8223302157003
30
0
41
1
10
10.839759150902
20
20.0727218938639
30
0
41
1
10
10.9682195433289
20
20.193507401989
30
0
41
1
10
11.1005809447904
20
20.2871093846958
30
0
0
SPLINE
5
19F
100
AcDbEntity
8
1
62
256
6
ByLayer
370
18
48
1
60
0
100
AcDbSpline
70
4
71
3
72
14
73
10
40
0
40
0
40
0
40
0
40
0.164525200330919
40
0.164525200330919
40
0.540804984924828
40
0.540804984924828
40
0.917041398719704
40
0.917041398719704
40
1
40
1
40
1
40
1
41
1
10
43.1343960255184
20
-36.8242238403013
30
0
41
1
10
43.1373820707971
20
-36.8168706219342
30
0
41
1
10
43.1406823112799
20
-36.8094760644827
30
0
41
1
10
43.1525174738123
20
-36.7854089723863
30
0
41
1
10
43.1625988594971
20
-36.7686157756328
30
0
41
1
10
43.185177100515
20
-36.7377683366814
30
0
41
1
10
43.1979192944338
20
-36.7233634204688
30
0
41
1
10
43.2138890573603
20
-36.7080621161432
30
0
41
1
10
43.2168180414452
20
-36.7053593077908
30
0
41
1
10
43.2197633696552
20
-36.7027375870951
30
0
0
SPLINE
5
1A0
100
AcDbEntity
8
1
62
256
6
ByLayer
370
18
48
1
60
0
100
AcDbSpline
70
4
71
3
72
14
73
10
40
0
40
0
40
0
40
0
40
0.0829586012803256
40
0.0829586012803256
40
0.459195015075139
40
0.459195015075139
40
0.83547479966902
40
0.83547479966902
40
1
40
1
40
1
40
1
41
1
10
41.1335203859676
20
-36.53034245175
30
0
41
1
10
41.1355963778495
20
-36.5333791054921
30
0
41
1
10
41.1376639837218
20
-36.5364948033347
30
0
41
1
10
41.1489565227525
20
-36.5540489076805
30
0
41
1
10
41.1580426168216
20
-36.5702575882155
30
0
41
1
10
41.174342122907
20
-36.6043176608468
30
0
41
1
10
41.1817334072536
20
-36.6225546986766
30
0
41
1
10
41.1905673701479
20
-36.6483297685604
30
0
41
1
10
41.1930551797664
20
-36.6562026172217
30
0
41
1
10
41.1953289067239
20
-36.6639904729507
30
0
0
SPLINE
5
1A1
100
AcDbEntity
8
1
62
256
6
ByLayer
370
18
48
1
60
0
100
AcDbSpline
70
4
71
3
72
14
73
10
40
0
40
0
40
0
40
0
40
0.164525200330957
40
0.164525200330957
40
0.540804984924841
40
0.540804984924841
40
0.917041398719701
40
0.917041398719701
40
1
40
1
40
1
40
1
41
1
10
41.3144986275354
20
-35.3734217650165
30
0
41
1
10
41.310884762358
20
-35.380147163485
30
0
41
1
10
41.3070376724332
20
-35.3869948714944
30
0
41
1
10
41.2937366903229
20
-35.4095961440129
30
0
41
1
10
41.2831567847335
20
-35.4258908208619
30
0
41
1
10
41.2608396764109
20
-35.4569993925085
30
0
41
1
10
41.2488566547327
20
-35.4721634809617
30
0
41
1
10
41.234391361627
20
-35.4889692551082
30
0
41
1
10
41.2317590836541
20
-35.4919687695726
30
0
41
1
10
41.2291312833987
20
-35.4949080182229
30
0
0
SPLINE
5
1A2
100
AcDbEntity
8
1
62
256
6
ByLayer
370
18
48
1
60
0
100
AcDbSpline
70
4
71
3
72
14
73
10
40
0
40
0
40
0
40
0
40
0.0829586012802574
40
0.0829586012802574
40
0.459195015075195
40
0.459195015075195
40
0.83547479966914
40
0.83547479966914
40
1
40
1
40
1
40
1
41
1
10
43.3153742670863
20
-35.667303153568
30
0
41
1
10
43.3129807472498
20
-35.6639489718712
30
0
41
1
10
43.3106164352656
20
-35.6605365679167
30
0
41
1
10
43.2978194264139
20
-35.64147799375
30
0
41
1
10
43.2879741601042
20
-35.6245101409743
30
0
41
1
10
43.2714135213236
20
-35.5901889356479
30
0
41
1
10
43.2645207568816
20
-35.5724504177226
30
0
41
1
10
43.2571526135652
20
-35.5481411674167
30
0
41
1
10
43.2552116533887
20
-35.5408151681974
30
0
41
1
10
43.2535657463298
20
-35.5336551323671
30
0
0
SPLINE
5
1A3
100
AcDbEntity
8
1
62
256
6
ByLayer
370
18
48
1
60
0
100
AcDbSpline
70
4
71
3
72
12
73
8
40
0
40
0
40
0
40
0
40
0.3926780994499
40
0.3926780994499
40
0.791279335966112
40
0.791279335966112
40
1
40
1
40
1
40
1
41
1
10
42.4054255680934
20
-34.941902115925
30
0
41
1
10
42.3863543026408
20
-34.9428693539812
30
0
41
1
10
42.3661176238033
20
-34.9429396857036
30
0
41
1
10
42.3259730973135
20
-34.9408438907765
30
0
41
1
10
42.3055888160725
20
-34.9386019216422
30
0
41
1
10
42.276956935852
20
-34.9337878950344
30
0
41
1
10
42.2673714506865
20
-34.9318595839351
30
0
41
1
10
42.2582497032034
20
-34.9297403479307
30
0
0
SPLINE
5
1A4
100
AcDbEntity
8
1
62
256
6
ByLayer
370
18
48
1
60
0
100
AcDbSpline
70
4
71
3
72
12
73
8
40
0
40
0
40
0
40
0
40
0.392678099452532
40
0.392678099452532
40
0.791279335968761
40
0.791279335968761
40
1
40
1
40
1
40
1
41
1
10
42.0434690849608
20
-37.2557434893933
30
0
41
1
10
42.0610497317403
20
-37.2532856326638
30
0
41
1
10
42.0802551763203
20
-37.2521840666836
30
0
41
1
10
42.1196771475795
20
-37.2535573063802
30
0
41
1
10
42.1403926415968
20
-37.2561304882908
30
0
41
1
10
42.1704683931384
20
-37.2623883862197
30
0
41
1
10
42.1807228686919
20
-37.2649856877073
30
0
41
1
10
42.1906449498508
20
-37.2679052573875
30
0
0
SPLINE
5
1A5
100
AcDbEntity
8
1
62
256
6
ByLayer
370
18
48
1
60
0
100
AcDbSpline
70
4
71
2
72
6
73
3
40
0
40
0
40
0
40
1
40
1
40
1
41
1.02613459695995
10
37.5328081549334
20
-25.8491477914788
30
0
41
0.893236016722495
10
37.6643870210571
20
-24.4241921392512
30
0
41
0.877869681319409
10
37.1889311475585
20
-23.3355981396479
30
0
0
SPLINE
5
1A6
100
AcDbEntity
8
1
62
256
6
ByLayer
370
18
48
1
60
0
100
AcDbSpline
70
4
71
3
72
10
73
6
40
0
40
0
40
0
40
0
40
0.5
40
0.5
40
1
40
1
40
1
40
1
41
1
10
32.4814345406603
20
-22.539934273906
30
0
41
1
10
31.3387696630399
20
-22.9808758992074
30
0
41
1
10
30.3768747621707
20
-23.7833390806804
30
0
41
1
10
28.9620252142523
20
-25.7646548360259
30
0
41
1
10
28.3886072941868
20
-26.8889329586996
30
0
41
1
10
28.2753675699005
20
-28.1130393845276
30
0
0
SPLINE
5
1A7
100
AcDbEntity
8
1
62
256
6
ByLayer
370
18
48
1
60
0
100
AcDbSpline
70
4
71
3
72
10
73
6
40
0
40
0
40
0
40
0
40
0.563253738015378
40
0.563253738015378
40
1
40
1
40
1
40
1
41
1
10
10.1056624327026
20
20.1324515831236
30
0
41
1
10
10.1522667730003
20
19.9760029585275
30
0
41
1
10
10.2181997150427
20
19.8269086326717
30
0
41
1
10
10.3695745193899
20
19.5962808154733
30
0
41
1
10
10.4493853955874
20
19.5048499791108
30
0
41
1
10
10.5386751345948
20
19.4372396071259
30
0
0
SPLINE
5
1A8
100
AcDbEntity
8
1
62
256
6
ByLayer
370
18
48
1
60
0
100
AcDbSpline
70
4
71
3
72
16
73
12
40
0
40
0
40
0
40
0
40
0.463423600832262
40
0.463423600832262
40
0.646243952932856
40
0.646243952932856
40
0.831657283224518
40
0.831657283224518
40
0.94750434429086
40
0.94750434429086
40
1
40
1
40
1
40
1
41
1
10
10.1056624327026
20
29.9139548464691
30
0
41
1
10
10.1343390747266
20
29.9485407466772
30
0
41
1
10
10.1736499876091
20
29.982269090612
30
0
41
1
10
10.2546180633469
20
30.0239686896252
30
0
41
1
10
10.2809130191141
20
30.0352936109065
30
0
41
1
10
10.3420137796675
20
30.0555697561518
30
0
41
1
10
10.3777400094533
20
30.0647246060481
30
0
41
1
10
10.443351653645
20
30.0751823136668
30
0
41
1
10
10.4710402024013
20
30.0781795790239
30
0
41
1
10
10.5123223625249
20
30.0802576981002
30
0
41
1
10
10.52552100314
20
30.0805927603169
30
0
41
1
10
10.5386751345948
20
30.0805927603169
30
0
0
SPLINE
5
1A9
100
AcDbEntity
8
1
62
256
6
ByLayer
370
18
48
1
60
0
100
AcDbSpline
70
4
71
3
72
8
73
4
40
0
40
0
40
0
40
0
40
1
40
1
40
1
40
1
41
1
10
27.1546342170679
20
-40.6448244164019
30
0
41
1
10
27.3449649391651
20
-40.6614761968983
30
0
41
1
10
27.5541494082576
20
-40.679777466521
30
0
41
1
10
27.7640349598864
20
-40.6981400729178
30
0
0
SPLINE
5
1AA
100
AcDbEntity
8
1
62
256
6
ByLayer
370
18
48
1
60
0
100
AcDbSpline
70
4
71
1
72
4
73
2
40
0
40
0
40
1
40
1
41
1
10
30.1089267696337
20
-27.1162615261763
30
0
41
1
10
30.0142614801348
20
-27.1180143781304
30
0
0
SPLINE
5
1AB
100
AcDbEntity
8
1
62
256
6
ByLayer
370
18
48
1
60
0
100
AcDbSpline
70
4
71
3
72
12
73
8
40
0
40
0
40
0
40
0
40
0.319932000007827
40
0.319932000007827
40
0.659954096648636
40
0.659954096648636
40
1
40
1
40
1
40
1
41
1
10
32.7007775845532
20
-22.4583592311681
30
0
41
1
10
32.6772830854293
20
-22.4667718259991
30
0
41
1
10
32.6538205312899
20
-22.4752764042516
30
0
41
1
10
32.6054903592574
20
-22.49300881587
30
0
41
1
10
32.5806266043147
20
-22.5022486853343
30
0
41
1
10
32.5309739583775
20
-22.5209359320976
30
0
41
1
10
32.5061846380625
20
-22.5303834875004
30
0
41
1
10
32.4814345394596
20
-22.5399342743693
30
0
0
SPLINE
5
1AC
100
AcDbEntity
8
1
62
256
6
ByLayer
370
18
48
1
60
0
100
AcDbSpline
70
4
71
3
72
10
73
6
40
0
40
0
40
0
40
0
40
0.415665307772108
40
0.415665307772108
40
1
40
1
40
1
40
1
41
1
10
10.5386751345948
20
21.3694939161261
30
0
41
1
10
10.4549244770343
20
21.3060777478789
30
0
41
1
10
10.3787459731138
20
21.2515288076611
30
0
41
1
10
10.2245337544042
20
21.1373152812055
30
0
41
1
10
10.1545345289016
20
21.0803509409494
30
0
41
1
10
10.1056624327025
20
21.0401816871769
30
0
0
SPLINE
5
1AD
100
AcDbEntity
8
1
62
256
6
ByLayer
370
18
48
1
60
0
100
AcDbSpline
70
4
71
3
72
8
73
4
40
0
40
0
40
0
40
0
40
1
40
1
40
1
40
1
41
1
10
25.3732144007963
20
-40.4889703775709
30
0
41
1
10
24.9410463766049
20
-38.8510692122435
30
0
41
1
10
24.5099957833403
20
-37.2128622229316
30
0
41
1
10
24.0805837197943
20
-35.5742113452877
30
0
0
SPLINE
5
1AE
100
AcDbEntity
8
1
62
256
6
ByLayer
370
18
48
1
60
0
100
AcDbSpline
70
4
71
3
72
12
73
8
40
0
40
0
40
0
40
0
40
0.323508413868209
40
0.323508413868209
40
0.661742854657684
40
0.661742854657684
40
1
40
1
40
1
40
1
41
1
10
32.9195481598862
20
-22.3829838643809
30
0
41
1
10
32.8958625023051
20
-22.3908273697671
30
0
41
1
10
32.8722063750463
20
-22.3987630878629
30
0
41
1
10
32.8238800666186
20
-22.4151840234728
30
0
41
1
10
32.79921233759
20
-22.4236779476998
30
0
41
1
10
32.749944096691
20
-22.4408674135827
30
0
41
1
10
32.7253431759266
20
-22.4495631130351
30
0
41
1
10
32.7007775843343
20
-22.4583592302738
30
0
0
SPLINE
5
1AF
100
AcDbEntity
8
1
62
256
6
ByLayer
370
18
48
1
60
0
100
AcDbSpline
70
4
71
3
72
16
73
12
40
0
40
0
40
0
40
0
40
0.113316224833593
40
0.113316224833593
40
0.252990411571579
40
0.252990411571579
40
0.473309013928354
40
0.473309013928354
40
0.896716357718913
40
0.896716357718913
40
1
40
1
40
1
40
1
41
1
10
10.5386751345948
20
9.3492213145251
30
0
41
1
10
10.5105874404282
20
9.3492213145251
30
0
41
1
10
10.482150642237
20
9.35431657338981
30
0
41
1
10
10.4232029654275
20
9.37467777536568
30
0
41
1
10
10.3927526278712
20
9.39213979793414
30
0
41
1
10
10.3230856363398
20
9.44503542604386
30
0
41
1
10
10.2871733492349
20
9.48569380431883
30
0
41
1
10
10.1985362549164
20
9.61105923366807
30
0
41
1
10
10.1576291602469
20
9.70465429390069
30
0
41
1
10
10.1190965262402
20
9.82244573862477
30
0
41
1
10
10.1121028162031
20
9.84586944318031
30
0
41
1
10
10.1056624327025
20
9.86941261896618
30
0
0
SPLINE
5
1B0
100
AcDbEntity
8
1
62
256
6
ByLayer
370
18
48
1
60
0
100
AcDbSpline
70
4
71
3
72
16
73
12
40
0
40
0
40
0
40
0
40
0.463423600832241
40
0.463423600832241
40
0.646243952932837
40
0.646243952932837
40
0.831657283224505
40
0.831657283224505
40
0.947504344290848
40
0.947504344290848
40
1
40
1
40
1
40
1
41
1
10
10.1056624327026
20
-9.86941261896621
30
0
41
1
10
10.1343390747265
20
-9.76458357826289
30
0
41
1
10
10.1736499876091
20
-9.66039292789941
30
0
41
1
10
10.2546180633468
20
-9.52957658281045
30
0
41
1
10
10.2809130191141
20
-9.49380155568076
30
0
41
1
10
10.3420137796675
20
-9.4294153978764
30
0
41
1
10
10.3777400094532
20
-9.40014891155712
30
0
41
1
10
10.4433516536449
20
-9.36662118733787
30
0
41
1
10
10.4710402024013
20
-9.35698328824242
30
0
41
1
10
10.5123223625249
20
-9.35029954873107
30
0
41
1
10
10.5255210031399
20
-9.34922131452507
30
0
41
1
10
10.5386751345948
20
-9.34922131452507
30
0
0
SPLINE
5
1B1
100
AcDbEntity
8
1
62
256
6
ByLayer
370
18
48
1
60
0
100
AcDbSpline
70
4
71
1
72
4
73
2
40
0
40
0
40
1
40
1
41
1
10
30.2035920591325
20
-27.1145086742221
30
0
41
1
10
30.1089267696337
20
-27.1162615261763
30
0
0
SPLINE
5
1B2
100
AcDbEntity
8
1
62
256
6
ByLayer
370
18
48
1
60
0
100
AcDbSpline
70
4
71
3
72
8
73
4
40
0
40
0
40
0
40
0
40
1
40
1
40
1
40
1
41
1
10
24.0805837197943
20
-35.5742113452877
30
0
41
1
10
23.6876746090942
20
-34.0748569634705
30
0
41
1
10
23.300021415432
20
-32.5835131249552
30
0
41
1
10
22.9207923799999
20
-31.1005084326864
30
0
0
SPLINE
5
1B3
100
AcDbEntity
8
1
62
256
6
ByLayer
370
18
48
1
60
0
100
AcDbSpline
70
4
71
3
72
15
73
11
40
0
40
0
40
0
40
0
40
0.287801217906041
40
0.287801217906041
40
0.580633313242726
40
0.580633313242726
40
0.871071532394742
40
0.871071532394742
40
0.871071532394742
40
1
40
1
40
1
40
1
41
1
10
37.1889311475585
20
-23.335598139648
30
0
41
1
10
36.8816935971595
20
-23.0220126220832
30
0
41
1
10
36.5169479141959
20
-22.7564565659876
30
0
41
1
10
35.72308622173
20
-22.3624231363481
30
0
41
1
10
35.2818240718375
20
-22.2317707171435
30
0
41
1
10
34.3950697950745
20
-22.1249043058706
30
0
41
1
10
33.938755591296
20
-22.1444737624323
30
0
41
1
10
33.5005707160991
20
-22.230057405865
30
0
41
1
10
33.304126362966
20
-22.2684257394716
30
0
41
1
10
33.109763138539
20
-22.3199941743899
30
0
41
1
10
32.9195481627681
20
-22.3829838625387
30
0
0
SPLINE
5
1B4
100
AcDbEntity
8
1
62
256
6
ByLayer
370
18
48
1
60
0
100
AcDbSpline
70
4
71
3
72
10
73
6
40
0
40
0
40
0
40
0
40
0.521988134510018
40
0.521988134510018
40
1
40
1
40
1
40
1
41
1
10
20.6111891197092
20
-30.5398847856862
30
0
41
1
10
20.4030156625332
20
-30.4641558433259
30
0
41
1
10
20.2361763126266
20
-30.3760652108243
30
0
41
1
10
20.0093210835962
20
-30.1888506958789
30
0
41
1
10
19.9399854717531
20
-30.0897854016818
30
0
41
1
10
19.9115068236137
20
-29.9850116132028
30
0
0
SPLINE
5
1B5
100
AcDbEntity
8
1
62
256
6
ByLayer
370
18
48
1
60
0
100
AcDbSpline
70
4
71
3
72
8
73
4
40
0
40
0
40
0
40
0
40
1
40
1
40
1
40
1
41
1
10
23.8962856159808
20
31.0760760071151
30
0
41
1
10
23.5776018829067
20
31.0760760071151
30
0
41
1
10
23.2659394678548
20
31.0688931604306
30
0
41
1
10
22.9609847588647
20
31.0544615075761
30
0
0
SPLINE
5
1B6
100
AcDbEntity
8
1
62
256
6
ByLayer
370
18
48
1
60
0
100
AcDbSpline
70
4
71
3
72
8
73
4
40
0
40
0
40
0
40
0
40
1
40
1
40
1
40
1
41
1
10
20.6111891197094
20
-30.5398847856862
30
0
41
1
10
20.9186808862195
20
-30.8380611117737
30
0
41
1
10
21.7670588637124
20
-31.0206641951864
30
0
41
1
10
22.92079238
20
-31.1005084326864
30
0
0
SPLINE
5
1B7
100
AcDbEntity
8
1
62
256
6
ByLayer
370
18
48
1
60
0
100
AcDbSpline
70
4
71
2
72
6
73
3
40
0
40
0
40
0
40
1
40
1
40
1
41
0.90807692450062
10
27.7640246433122
20
-40.69813283391
30
0
41
0.882007910191015
10
27.4289956130186
20
-40.4630580221725
30
0
41
0.877033632073645
10
27.1714270526109
20
-40.0689615898917
30
0
0
SPLINE
5
1B8
100
AcDbEntity
8
1
62
256
6
ByLayer
370
18
48
1
60
0
100
AcDbSpline
70
4
71
3
72
16
73
12
40
0
40
0
40
0
40
0
40
0.113316224833594
40
0.113316224833594
40
0.252990411571577
40
0.252990411571577
40
0.473309013928351
40
0.473309013928351
40
0.896716357718897
40
0.896716357718897
40
1
40
1
40
1
40
1
41
1
10
10.5386751345948
20
-30.0805927603169
30
0
41
1
10
10.5105874404281
20
-30.0805927603169
30
0
41
1
10
10.482150642237
20
-30.0790101689567
30
0
41
1
10
10.4232029654275
20
-30.0726712338969
30
0
41
1
10
10.3927526278711
20
-30.0672275748685
30
0
41
1
10
10.3230856363397
20
-30.0506647867053
30
0
41
1
10
10.2871733492349
20
-30.0378702684276
30
0
41
1
10
10.1985362549164
20
-29.9980833386355
30
0
41
1
10
10.1576291602469
20
-29.967975934908
30
0
41
1
10
10.1190965262401
20
-29.9294196064672
30
0
41
1
10
10.112102816203
20
-29.9217223689309
30
0
41
1
10
10.1056624327025
20
-29.9139548464691
30
0
0
SPLINE
5
1B9
100
AcDbEntity
8
1
62
256
6
ByLayer
370
18
48
1
60
0
100
AcDbSpline
70
4
71
3
72
16
73
12
40
0
40
0
40
0
40
0
40
0.463423600832241
40
0.463423600832241
40
0.646243952932834
40
0.646243952932834
40
0.831657283224497
40
0.831657283224497
40
0.947504344290847
40
0.947504344290847
40
1
40
1
40
1
40
1
41
1
10
13.8943375672974
20
-29.9139548464691
30
0
41
1
10
13.8656609252734
20
-29.9485407466773
30
0
41
1
10
13.8263500123908
20
-29.982269090612
30
0
41
1
10
13.7453819366531
20
-30.0239686896252
30
0
41
1
10
13.7190869808859
20
-30.0352936109065
30
0
41
1
10
13.6579862203325
20
-30.0555697561518
30
0
41
1
10
13.6222599905467
20
-30.0647246060481
30
0
41
1
10
13.556648346355
20
-30.0751823136669
30
0
41
1
10
13.5289597975987
20
-30.0781795790239
30
0
41
1
10
13.4876776374751
20
-30.0802576981002
30
0
41
1
10
13.47447899686
20
-30.080592760317
30
0
41
1
10
13.4613248654052
20
-30.080592760317
30
0
0
SPLINE
5
1BA
100
AcDbEntity
8
1
62
256
6
ByLayer
370
18
48
1
60
0
100
AcDbSpline
70
4
71
3
72
15
73
11
40
0
40
0
40
0
40
0
40
0.281039629141019
40
0.281039629141019
40
0.562712048900373
40
0.562712048900373
40
0.835250831097508
40
0.835250831097508
40
0.835250831097508
40
1
40
1
40
1
40
1
41
1
10
19.9115068236138
20
29.9850116132027
30
0
41
1
10
19.9505361776874
20
30.1286017607468
30
0
41
1
10
20.0674973665297
20
30.2617723075542
30
0
41
1
10
20.4463314652044
20
30.489895050164
30
0
41
1
10
20.714145257493
20
30.5880850478212
30
0
41
1
10
21.3538238361364
20
30.741378992888
30
0
41
1
10
21.7310620960588
20
30.8001569918553
30
0
41
1
10
22.1388781334302
20
30.8415901871073
30
0
41
1
10
22.3877509516847
20
30.8668751075781
30
0
41
1
10
22.6513106929054
20
30.88619079412
30
0
41
1
10
22.92079238
20
30.8996141556631
30
0
0
SPLINE
5
1BB
100
AcDbEntity
8
1
62
256
6
ByLayer
370
18
48
1
60
0
100
AcDbSpline
70
4
71
3
72
10
73
6
40
0
40
0
40
0
40
0
40
0.406434782913203
40
0.406434782913203
40
1
40
1
40
1
40
1
41
1
10
13.4613248654052
20
19.4372396071259
30
0
41
1
10
13.5445600082496
20
19.5002654265815
30
0
41
1
10
13.6195895752656
20
19.5840144784503
30
0
41
1
10
13.774738412907
20
19.8110073784322
30
0
41
1
10
13.8452864320335
20
19.9677891804822
30
0
41
1
10
13.8943375672975
20
20.1324515831234
30
0
0
SPLINE
5
1BC
100
AcDbEntity
8
1
62
256
6
ByLayer
370
18
48
1
60
0
100
AcDbSpline
70
4
71
3
72
12
73
8
40
0
40
0
40
0
40
0
40
0.5
40
0.5
40
0.75
40
0.75
40
1
40
1
40
1
40
1
41
1
10
20.6111891197094
20
-30.5398847856862
30
0
41
1
10
20.7045668050726
20
-28.3775119165699
30
0
41
1
10
20.8440322032127
20
-26.2023819690206
30
0
41
1
10
21.5114632871245
20
-23.0899163623349
30
0
41
1
10
21.8231056876232
20
-22.0743156589005
30
0
41
1
10
22.7119450618633
20
-20.1167415875803
30
0
41
1
10
23.2817844338866
20
-19.2031659509171
30
0
41
1
10
23.8962856159807
20
-18.2958211070157
30
0
0
SPLINE
5
1BD
100
AcDbEntity
8
1
62
256
6
ByLayer
370
18
48
1
60
0
100
AcDbSpline
70
4
71
2
72
6
73
3
40
0
40
0
40
0
40
1
40
1
40
1
41
0.877033727687691
10
28.2754375821039
20
-28.112953809923
30
0
41
0.889137743459745
10
29.0752373958535
20
-27.1354016402395
30
0
41
1.02613459695995
10
30.0142614801348
20
-27.1180143781304
30
0
0
SPLINE
5
1BE
100
AcDbEntity
8
1
62
256
6
ByLayer
370
18
48
1
60
0
100
AcDbSpline
70
4
71
3
72
8
73
4
40
0
40
0
40
0
40
0
40
1
40
1
40
1
40
1
41
1
10
22.9609847588647
20
31.0544615075761
30
0
41
1
10
22.9475806244987
20
31.0028429217617
30
0
41
1
10
22.9341831017394
20
30.9512270468484
30
0
41
1
10
22.92079238
20
30.8996141556631
30
0
0
SPLINE
5
1BF
100
AcDbEntity
8
1
62
256
6
ByLayer
370
18
48
1
60
0
100
AcDbSpline
70
4
71
3
72
16
73
12
40
0
40
0
40
0
40
0
40
0.113316224833596
40
0.113316224833596
40
0.252990411571581
40
0.252990411571581
40
0.473309013928343
40
0.473309013928343
40
0.896716357718895
40
0.896716357718895
40
1
40
1
40
1
40
1
41
1
10
13.4613248654052
20
30.0805927603169
30
0
41
1
10
13.4894125595719
20
30.0805927603169
30
0
41
1
10
13.517849357763
20
30.0790101689566
30
0
41
1
10
13.5767970345725
20
30.0726712338969
30
0
41
1
10
13.6072473721288
20
30.0672275748685
30
0
41
1
10
13.6769143636602
20
30.0506647867052
30
0
41
1
10
13.7128266507651
20
30.0378702684275
30
0
41
1
10
13.8014637450836
20
29.9980833386355
30
0
41
1
10
13.8423708397531
20
29.967975934908
30
0
41
1
10
13.8809034737598
20
29.9294196064672
30
0
41
1
10
13.887897183797
20
29.9217223689309
30
0
41
1
10
13.8943375672975
20
29.9139548464691
30
0
0
SPLINE
5
1C0
100
AcDbEntity
8
1
62
256
6
ByLayer
370
18
48
1
60
0
100
AcDbSpline
70
4
71
3
72
8
73
4
40
0
40
0
40
0
40
0
40
1
40
1
40
1
40
1
41
1
10
27.171377610278
20
-40.0688859373309
30
0
41
1
10
27.1535960524633
20
-40.2618077280993
30
0
41
1
10
27.1488724838238
20
-40.4537209874406
30
0
41
1
10
27.1546342170676
20
-40.6448244163914
30
0
0
SPLINE
5
1C1
100
AcDbEntity
8
1
62
256
6
ByLayer
370
18
48
1
60
0
100
AcDbSpline
70
4
71
3
72
10
73
6
40
0
40
0
40
0
40
0
40
0.573565230694857
40
0.573565230694857
40
1
40
1
40
1
40
1
41
1
10
13.8943375672974
20
21.0401816871777
30
0
41
1
10
13.8463445787263
20
21.0796283794037
30
0
41
1
10
13.7780102352029
20
21.1353313584606
30
0
41
1
10
13.6250883068771
20
21.2487586970678
30
0
41
1
10
13.5471921982104
20
21.3044749970785
30
0
41
1
10
13.4613248654052
20
21.3694939161261
30
0
0
SPLINE
5
1C2
100
AcDbEntity
8
1
62
256
6
ByLayer
370
18
48
1
60
0
100
AcDbSpline
70
4
71
2
72
11
73
8
40
0
40
0
40
0
40
0.007911186163186
40
0.30553783031423
40
0.503955593081593
40
0.702373355848956
40
0.801582237232637
40
1
40
1
40
1
41
1.02613459695995
10
32.4814345406603
20
-22.539934273906
30
0
41
1.02613459695995
10
32.4641923337594
20
-22.5513860627766
30
0
41
1.02613459695995
10
31.7998146813483
20
-23.0015404096829
30
0
41
1.02613459695995
10
30.9211811789234
20
-24.1408102224197
30
0
41
1.02613459695995
10
30.3204219362425
20
-25.5207954201349
30
0
41
1.02613459695995
10
30.1873432387307
20
-26.0560795569926
30
0
41
1.02613459695995
10
30.0548297456767
20
-26.6791187849633
30
0
41
1.02613459695995
10
30.0142614801348
20
-27.1180143781304
30
0
0
SPLINE
5
1C3
100
AcDbEntity
8
1
62
256
6
ByLayer
370
18
48
1
60
0
100
AcDbSpline
70
4
71
3
72
16
73
12
40
0
40
0
40
0
40
0
40
0.463423600832209
40
0.463423600832209
40
0.646243952932815
40
0.646243952932815
40
0.831657283224495
40
0.831657283224495
40
0.947504344290837
40
0.947504344290837
40
1
40
1
40
1
40
1
41
1
10
13.8943375672974
20
9.86941261896618
30
0
41
1
10
13.8656609252735
20
9.76458357826286
30
0
41
1
10
13.8263500123909
20
9.66039292789938
30
0
41
1
10
13.7453819366532
20
9.52957658281042
30
0
41
1
10
13.7190869808859
20
9.49380155568073
30
0
41
1
10
13.6579862203325
20
9.42941539787634
30
0
41
1
10
13.6222599905468
20
9.4001489115571
30
0
41
1
10
13.5566483463551
20
9.36662118733784
30
0
41
1
10
13.5289597975987
20
9.35698328824236
30
0
41
1
10
13.4876776374751
20
9.35029954873104
30
0
41
1
10
13.4744789968601
20
9.34922131452501
30
0
41
1
10
13.4613248654052
20
9.34922131452501
30
0
0
SPLINE
5
1C4
100
AcDbEntity
8
1
62
256
6
ByLayer
370
18
48
1
60
0
100
AcDbSpline
70
4
71
3
72
16
73
12
40
0
40
0
40
0
40
0
40
0.113316224833592
40
0.113316224833592
40
0.252990411571568
40
0.252990411571568
40
0.473309013928318
40
0.473309013928318
40
0.896716357718825
40
0.896716357718825
40
1
40
1
40
1
40
1
41
1
10
13.4613248654052
20
-9.34922131452512
30
0
41
1
10
13.4894125595718
20
-9.34922131452512
30
0
41
1
10
13.517849357763
20
-9.35431657338984
30
0
41
1
10
13.5767970345725
20
-9.37467777536568
30
0
41
1
10
13.6072473721288
20
-9.39213979793414
30
0
41
1
10
13.6769143636602
20
-9.44503542604386
30
0
41
1
10
13.7128266507651
20
-9.48569380431883
30
0
41
1
10
13.8014637450836
20
-9.61105923366807
30
0
41
1
10
13.842370839753
20
-9.70465429390069
30
0
41
1
10
13.8809034737598
20
-9.82244573862474
30
0
41
1
10
13.8878971837969
20
-9.84586944318031
30
0
41
1
10
13.8943375672974
20
-9.86941261896621
30
0
0
SPLINE
5
1C5
100
AcDbEntity
8
1
62
256
6
ByLayer
370
18
48
1
60
0
100
AcDbSpline
70
4
71
2
72
11
73
8
40
0
40
0
40
0
40
0.0610623745695864
40
0.34274366219871
40
0.530531187284793
40
0.718318712370876
40
0.812212474913917
40
1
40
1
40
1
41
1
10
32.9195481627642
20
-22.3829838625408
30
0
41
1
10
32.776613902052
20
-22.4644790829598
30
0
41
1
10
31.9891452603459
20
-22.9980347057746
30
0
41
1
10
31.1105117579209
20
-24.1373045185113
30
0
41
1
10
30.50975251524
20
-25.5172897162265
30
0
41
1
10
30.3766738177283
20
-26.0525738530843
30
0
41
1
10
30.2441603246743
20
-26.675613081055
30
0
41
1
10
30.2035920591325
20
-27.1145086742221
30
0
0
SPLINE
5
1C6
100
AcDbEntity
8
1
62
256
6
ByLayer
370
18
48
1
60
0
100
AcDbSpline
70
4
71
2
72
11
73
8
40
0
40
0
40
0
40
0.0353878362392799
40
0.324771485367496
40
0.51769391811964
40
0.710616350871784
40
0.807077567247856
40
1
40
1
40
1
41
1
10
32.7007775849688
20
-22.4583592307027
30
0
41
1
10
32.620796178973
20
-22.5076662512251
30
0
41
1
10
31.8944799708471
20
-22.9997875577288
30
0
41
1
10
31.0158464684221
20
-24.1390573704655
30
0
41
1
10
30.4150872257413
20
-25.5190425681807
30
0
41
1
10
30.2820085282295
20
-26.0543267050384
30
0
41
1
10
30.1494950351754
20
-26.6773659330092
30
0
41
1
10
30.1089267696337
20
-27.1162615261763
30
0
0
SPLINE
5
1C7
100
AcDbEntity
8
SK1
62
256
6
ByLayer
370
18
48
1
60
0
100
AcDbSpline
70
4
71
3
72
22
73
18
40
0
40
0
40
0
40
0
40
0.366862607601256
40
0.366862607601256
40
0.737339621375052
40
0.737339621375052
40
0.838459586400285
40
0.838459586400285
40
0.872990642836393
40
0.872990642836393
40
0.908114554314301
40
0.908114554314301
40
0.93841147631739
40
0.93841147631739
40
0.978567405872927
40
0.978567405872927
40
1
40
1
40
1
40
1
41
1
10
-1.30710678118655
20
-4.81101329740289
30
0
41
1
10
-1.26411319574365
20
-5.05427021725674
30
0
41
1
10
-1.21291926611929
20
-5.29463858107241
30
0
41
1
10
-1.07751639291712
20
-5.76447191425098
30
0
41
1
10
-0.99999394263088
20
-6.0024064332149
30
0
41
1
10
-0.818580317119483
20
-6.26150782359156
30
0
41
1
10
-0.772786229091963
20
-6.31609141287933
30
0
41
1
10
-0.693958175551444
20
-6.37002132562083
30
0
41
1
10
-0.671742895995578
20
-6.38213989760789
30
0
41
1
10
-0.624176343099663
20
-6.39933264200099
30
0
41
1
10
-0.598041368844491
20
-6.404334107431
30
0
41
1
10
-0.550095873812694
20
-6.4042038836908
30
0
41
1
10
-0.527645089252019
20
-6.40038614973912
30
0
41
1
10
-0.479150674129698
20
-6.38487542657816
30
0
41
1
10
-0.453444961156862
20
-6.37100758594852
30
0
41
1
10
-0.417985764291785
20
-6.34622757774423
30
0
41
1
10
-0.406197231050186
20
-6.33682378409867
30
0
41
1
10
-0.394976888874737
20
-6.32694309068151
30
0
0
SPLINE
5
1C8
100
AcDbEntity
8
SK1
62
256
6
ByLayer
370
18
48
1
60
0
100
AcDbSpline
70
4
71
3
72
22
73
18
40
0
40
0
40
0
40
0
40
0.038427246458711
40
0.038427246458711
40
0.0775026456766427
40
0.0775026456766427
40
0.106475059033524
40
0.106475059033524
40
0.135305917881828
40
0.135305917881828
40
0.182167074412018
40
0.182167074412018
40
0.275660663800869
40
0.275660663800869
40
0.616530102228659
40
0.616530102228659
40
1
40
1
40
1
40
1
41
1
10
-0.394976888875277
20
6.32694279392757
30
0
41
1
10
-0.414867561016194
20
6.34445862132063
30
0
41
1
10
-0.436644357284194
20
6.36058691921457
30
0
41
1
10
-0.484524151203374
20
6.3868168818706
30
0
41
1
10
-0.511419954277329
20
6.39702622866628
30
0
41
1
10
-0.560078773491568
20
6.40490957850619
30
0
41
1
10
-0.58185248496946
20
6.40512642059926
30
0
41
1
10
-0.623683911276828
20
6.39912423041605
30
0
41
1
10
-0.644207278837655
20
6.39293597600829
30
0
41
1
10
-0.694134540330907
20
6.37121870092642
30
0
41
1
10
-0.722113964046514
20
6.35215911803172
30
0
41
1
10
-0.796598131612939
20
6.28903777408343
30
0
41
1
10
-0.836555557792792
20
6.23798237717094
30
0
41
1
10
-0.997773060879837
20
5.995390913813
30
0
41
1
10
-1.07178904300878
20
5.77805690787602
30
0
41
1
10
-1.2082731523935
20
5.31693201445015
30
0
41
1
10
-1.26212533694985
20
5.06551762472202
30
0
41
1
10
-1.30710678118655
20
4.81101321788441
30
0
0
SPLINE
5
1C9
100
AcDbEntity
8
SK1
62
256
6
ByLayer
370
18
48
1
60
0
100
AcDbSpline
70
4
71
3
72
26
73
22
40
0
40
0
40
0
40
0
40
0.462420532187944
40
0.462420532187944
40
0.662465761698283
40
0.662465761698283
40
0.830433309169693
40
0.830433309169693
40
0.87601894963741
40
0.87601894963741
40
0.905535493032455
40
0.905535493032455
40
0.92577818311669
40
0.92577818311669
40
0.946307111163799
40
0.946307111163799
40
0.963675313617857
40
0.963675313617857
40
0.991859972782862
40
0.991859972782862
40
1
40
1
40
1
40
1
41
1
10
-0.199999999999989
20
7.05951749342083
30
0
41
1
10
-0.199999999999989
20
6.93273416480454
30
0
41
1
10
-0.203968014086513
20
6.80463429773329
30
0
41
1
10
-0.223222206303916
20
6.62063667774228
30
0
41
1
10
-0.230822389897867
20
6.56482953243432
30
0
41
1
10
-0.25203556671454
20
6.46316921019911
30
0
41
1
10
-0.263798801619998
20
6.41617607028249
30
0
41
1
10
-0.290531391619595
20
6.36108887379029
30
0
41
1
10
-0.29710300077241
20
6.34947181616241
30
0
41
1
10
-0.310313928765396
20
6.33213067856883
30
0
41
1
10
-0.316208846631099
20
6.32567949173321
30
0
41
1
10
-0.327595492701022
20
6.31681373578161
30
0
41
1
10
-0.332739264568516
20
6.31372817209197
30
0
41
1
10
-0.343644708736434
20
6.30958040401461
30
0
41
1
10
-0.349575964479982
20
6.30853210514005
30
0
41
1
10
-0.360183897281416
20
6.30881607347521
30
0
41
1
10
-0.365032052617437
20
6.30978620719449
30
0
41
1
10
-0.376922909163966
20
6.31387292952667
30
0
41
1
10
-0.383695246431131
20
6.3179475897727
30
0
41
1
10
-0.39156461480826
20
6.32402624429125
30
0
41
1
10
-0.393293161608796
20
6.32546009510432
30
0
41
1
10
-0.394976888875277
20
6.32694279392757
30
0
0
SPLINE
5
1CA
100
AcDbEntity
8
1
62
256
6
ByLayer
370
18
48
1
60
0
100
AcDbSpline
70
4
71
3
72
12
73
8
40
0
40
0
40
0
40
0
40
0.5
40
0.5
40
0.75
40
0.75
40
1
40
1
40
1
40
1
41
1
10
35.965774240378
20
-30.6748370351444
30
0
41
1
10
35.8459365471937
20
-30.7573957611353
30
0
41
1
10
35.72928245727
20
-30.8404087714724
30
0
41
1
10
35.5592032441546
20
-30.9660720234341
30
0
41
1
10
35.5032998122207
20
-31.0080721277894
30
0
41
1
10
35.39379587619
20
-31.0935687073904
30
0
41
1
10
35.3081767875415
20
-31.1162714699323
30
0
41
1
10
35.3005426006857
20
-31.198947191592
30
0
0
SPLINE
5
1CB
100
AcDbEntity
8
1
62
256
6
ByLayer
370
18
48
1
60
0
100
AcDbSpline
70
4
71
3
72
8
73
4
40
0
40
0
40
0
40
0
40
1
40
1
40
1
40
1
41
1
10
45.2182255441084
20
-28.6727730661051
30
0
41
1
10
45.0017834071338
20
-28.6589649208373
30
0
41
1
10
44.7857584845041
20
-28.6453254338585
30
0
41
1
10
44.5709150450548
20
-28.6321132738271
30
0
0
SPLINE
5
1CC
100
AcDbEntity
8
1
62
256
6
ByLayer
370
18
48
1
60
0
100
AcDbSpline
70
4
71
3
72
8
73
4
40
0
40
0
40
0
40
0
40
1
40
1
40
1
40
1
41
1
10
38.417295663058
20
-39.0010085203242
30
0
41
1
10
39.049224865192
20
-39.6161618994102
30
0
41
1
10
39.8845475074391
20
-39.9867108526328
30
0
41
1
10
40.8124883060045
20
-40.0633905494906
30
0
0
SPLINE
5
1CD
100
AcDbEntity
8
1
62
256
6
ByLayer
370
18
48
1
60
0
100
AcDbSpline
70
4
71
3
72
18
73
14
40
0
40
0
40
0
40
0
40
0.0384430513828756
40
0.0384430513828756
40
0.294505767099356
40
0.294505767099356
40
0.50793167570871
40
0.50793167570871
40
0.72307914709595
40
0.72307914709595
40
0.912685296049717
40
0.912685296049717
40
1
40
1
40
1
40
1
41
1
10
52.0733997037197
20
-40.800615889083
30
0
41
1
10
52.067721131119
20
-40.8021637872814
30
0
41
1
10
52.0620373374004
20
-40.8037318992804
30
0
41
1
10
52.0188458475153
20
-40.8157944984542
30
0
41
1
10
51.9808219485478
20
-40.8272725726544
30
0
41
1
10
51.9159748282916
20
-40.848739835291
30
0
41
1
10
51.8876447862746
20
-40.8589011727108
30
0
41
1
10
51.8385712381416
20
-40.8784297989455
30
0
41
1
10
51.817196919633
20
-40.8880827279527
30
0
41
1
10
51.7880023737472
20
-40.9039858457364
30
0
41
1
10
51.7784916485719
20
-40.9107155759136
30
0
41
1
10
51.7717311559206
20
-40.9186786166562
30
0
41
1
10
51.7705919197549
20
-40.9209614623734
30
0
41
1
10
51.770437340889
20
-40.9229670260282
30
0
0
SPLINE
5
1CE
100
AcDbEntity
8
1
62
256
6
ByLayer
370
18
48
1
60
0
100
AcDbSpline
70
4
71
3
72
11
73
7
40
0
40
0
40
0
40
0
40
0.268536746558077
40
0.487975722590654
40
0.707414698623231
40
1
40
1
40
1
40
1
41
1.02490909094425
10
47.2448956816293
20
-34.7897352254837
30
0
41
1.02297680709541
10
48.5903487980545
20
-34.9216903623537
30
0
41
1.019109996622
10
50.9399257072495
20
-35.1716195874797
30
0
41
1.01332460673153
10
54.7433795829383
20
-35.7650188024578
30
0
41
1.01203732298747
10
56.8164511013945
20
-35.925326203457
30
0
41
1.00929221524307
10
58.5839818126912
20
-36.2064328130533
30
0
41
1.0087712828333
10
59.357007351796
20
-36.3638267254374
30
0
0
SPLINE
5
1CF
100
AcDbEntity
8
1
62
256
6
ByLayer
370
18
48
1
60
0
100
AcDbSpline
70
4
71
3
72
8
73
4
40
0
40
0
40
0
40
0
40
1
40
1
40
1
40
1
41
1
10
33.6792424745925
20
-27.0790715432593
30
0
41
1
10
33.5268678705901
20
-27.0592816058919
30
0
41
1
10
33.3727959740354
20
-27.0489628539229
30
0
41
1
10
33.2171512213444
20
-27.0492047925546
30
0
0
SPLINE
5
1D0
100
AcDbEntity
8
1
62
256
6
ByLayer
370
18
48
1
60
0
100
AcDbSpline
70
4
71
3
72
8
73
4
40
0
40
0
40
0
40
0
40
1
40
1
40
1
40
1
41
1
10
58.492154678761
20
-34.8900761380425
30
0
41
1
10
58.6608008115663
20
-35.1287364741978
30
0
41
1
10
58.8302185043561
20
-35.3689557323937
30
0
41
1
10
58.9992806400261
20
-35.6094244710696
30
0
0
SPLINE
5
1D1
100
AcDbEntity
8
1
62
256
6
ByLayer
370
18
48
1
60
0
100
AcDbSpline
70
4
71
3
72
11
73
7
40
0
40
0
40
0
40
0
40
0.379738014043162
40
0.569607021064743
40
0.759476028086324
40
1
40
1
40
1
40
1
41
1.02830968163241
10
43.5206971103131
20
-42.3338752695843
30
0
41
1.02566133279165
10
46.038780125305
20
-41.8819717195928
30
0
41
1.02050308371814
10
49.2875379762573
20
-40.9760235972901
30
0
41
1.01332460673153
10
54.4415079614822
20
-38.7580891537967
30
0
41
1.0120630214142
10
56.4730458285484
20
-38.7753539419003
30
0
41
1.00944729087556
10
58.2869190906342
20
-38.2002255230651
30
0
41
1.00885690313847
10
59.0749271732787
20
-38.0190983715742
30
0
0
SPLINE
5
1D2
100
AcDbEntity
8
1
62
256
6
ByLayer
370
18
48
1
60
0
100
AcDbSpline
70
4
71
3
72
12
73
8
40
0
40
0
40
0
40
0
40
0.407174084711927
40
0.407174084711927
40
0.699511272430937
40
0.699511272430937
40
1
40
1
40
1
40
1
41
1
10
59.3432524670218
20
-36.3610308672324
30
0
41
1
10
59.3349836333154
20
-36.3233354051078
30
0
41
1
10
59.3250024869959
20
-36.2844461357224
30
0
41
1
10
59.3052589283456
20
-36.2175833401308
30
0
41
1
10
59.2961683486201
20
-36.1894148139085
30
0
41
1
10
59.2763820635661
20
-36.1329291250912
30
0
41
1
10
59.2655718028818
20
-36.1044161014165
30
0
41
1
10
59.2542847927801
20
-36.0767146858881
30
0
0
SPLINE
5
1D3
100
AcDbEntity
8
1
62
256
6
ByLayer
370
18
48
1
60
0
100
AcDbSpline
70
4
71
3
72
13
73
9
40
0
40
0
40
0
40
0
40
0.287856992129663
40
0.287856992129663
40
0.605626331970862
40
0.605626331970862
40
0.605626331970862
40
1
40
1
40
1
40
1
41
1
10
46.9333071589406
20
-38.1641366841152
30
0
41
1
10
46.76343620207
20
-38.4722303323776
30
0
41
1
10
46.5449297321927
20
-38.7569978920472
30
0
41
1
10
46.02214717866
20
-39.2755235260301
30
0
41
1
10
45.705682155706
20
-39.5078313362611
30
0
41
1
10
45.3672109243253
20
-39.6936039546343
30
0
41
1
10
44.949109740378
20
-39.9230821036928
30
0
41
1
10
44.4852413582655
20
-40.0878281352179
30
0
41
1
10
44.0133093326676
20
-40.1757783980158
30
0
0
SPLINE
5
1D4
100
AcDbEntity
8
1
62
256
6
ByLayer
370
18
48
1
60
0
100
AcDbSpline
70
4
71
3
72
10
73
6
40
0
40
0
40
0
40
0
40
0.494168352806881
40
0.494168352806881
40
1
40
1
40
1
40
1
41
1
10
33.2171512213444
20
-27.0492047925546
30
0
41
1
10
33.1141578153992
20
-27.0493648884349
30
0
41
1
10
33.0067054559566
20
-27.0554805732101
30
0
41
1
10
32.7896019254926
20
-27.0822098136807
30
0
41
1
10
32.6784685532456
20
-27.1033906491989
30
0
41
1
10
32.5708996912633
20
-27.1319792418977
30
0
0
SPLINE
5
1D5
100
AcDbEntity
8
1
62
256
6
ByLayer
370
18
48
1
60
0
100
AcDbSpline
70
4
71
3
72
18
73
14
40
0
40
0
40
0
40
0
40
0.148865436690716
40
0.148865436690716
40
0.33686855641037
40
0.33686855641037
40
0.51949110802786
40
0.51949110802786
40
0.711563055534807
40
0.711563055534807
40
0.930180979444748
40
0.930180979444748
40
1
40
1
40
1
40
1
41
1
10
52.6180905642335
20
-31.7431626447185
30
0
41
1
10
52.6173650060381
20
-31.750461515563
30
0
41
1
10
52.6192818551378
20
-31.7590712155412
30
0
41
1
10
52.6297651734448
20
-31.780665859033
30
0
41
1
10
52.6401578441975
20
-31.7945304577114
30
0
41
1
10
52.6678129566192
20
-31.823086449063
30
0
41
1
10
52.6851956530469
20
-31.8380951561472
30
0
41
1
10
52.7253282223158
20
-31.8684416609754
30
0
41
1
10
52.7487594284717
20
-31.8841173574103
30
0
41
1
10
52.8011199217705
20
-31.915853326038
30
0
41
1
10
52.8309580667899
20
-31.9320486394381
30
0
41
1
10
52.8704217645985
20
-31.9515051984587
30
0
41
1
10
52.8800523968478
20
-31.9561029745545
30
0
41
1
10
52.8896811799659
20
-31.9605571649694
30
0
0
SPLINE
5
1D6
100
AcDbEntity
8
1
62
256
6
ByLayer
370
18
48
1
60
0
100
AcDbSpline
70
4
71
3
72
8
73
4
40
0
40
0
40
0
40
0
40
1
40
1
40
1
40
1
41
1
10
43.5206971103131
20
-42.3338752695843
30
0
41
1
10
43.6759806433511
20
-42.0172349486289
30
0
41
1
10
43.8557464042983
20
-41.2296947536801
30
0
41
1
10
44.0133093310093
20
-40.1757784091077
30
0
0
SPLINE
5
1D7
100
AcDbEntity
8
1
62
256
6
ByLayer
370
18
48
1
60
0
100
AcDbSpline
70
4
71
3
72
10
73
6
40
0
40
0
40
0
40
0
40
0.325288492889666
40
0.325288492889666
40
1
40
1
40
1
40
1
41
1
10
29.9580696308422
20
-39.3441735475863
30
0
41
1
10
29.9757635898012
20
-39.4467460275037
30
0
41
1
10
29.9988722264536
20
-39.545649190309
30
0
41
1
10
30.0872665994649
20
-39.8393643007092
30
0
41
1
10
30.1718262858909
20
-40.0258889316971
30
0
41
1
10
30.2843802148099
20
-40.1989971852078
30
0
0
SPLINE
5
1D8
100
AcDbEntity
8
1
62
256
6
ByLayer
370
18
48
1
60
0
100
AcDbSpline
70
4
71
3
72
10
73
6
40
0
40
0
40
0
40
0
40
0.465995854460557
40
0.465995854460557
40
1
40
1
40
1
40
1
41
1
10
38.417295663058
20
-39.0010085203243
30
0
41
1
10
38.2922746278662
20
-38.8793064182607
30
0
41
1
10
38.1520472105207
20
-38.7678217182404
30
0
41
1
10
37.8294566249462
20
-38.5596320810457
30
0
41
1
10
37.641809980814
20
-38.4660665137369
30
0
41
1
10
37.4464764416479
20
-38.3938414409082
30
0
0
SPLINE
5
1D9
100
AcDbEntity
8
1
62
256
6
ByLayer
370
18
48
1
60
0
100
AcDbSpline
70
4
71
3
72
11
73
7
40
0
40
0
40
0
40
0
40
0.268536746003808
40
0.487975722202665
40
0.707414698401523
40
1
40
1
40
1
40
1
41
1.0249090909279
10
46.933307106656
20
-38.1641366814823
30
0
41
1.0229768070834
10
48.2846610335278
20
-38.2321879458589
30
0
41
1.0191099966158
10
50.6510820049448
20
-38.2997015066503
30
0
41
1.01332460673153
10
54.5286568256387
20
-38.0903953290237
30
0
41
1.01203732298747
10
56.6176591969636
20
-38.0781768562969
30
0
41
1.00929221524307
10
58.4282800999462
20
-37.8926309250884
30
0
41
1.0087712828333
10
59.228796618712
20
-37.7523066095286
30
0
0
SPLINE
5
1DA
100
AcDbEntity
8
1
62
256
6
ByLayer
370
18
48
1
60
0
100
AcDbSpline
70
4
71
1
72
4
73
2
40
0
40
0
40
1
40
1
41
1
10
44.6996858691271
20
-29.5658164978544
30
0
41
1
10
44.5709150450548
20
-28.6321132738271
30
0
0
SPLINE
5
1DB
100
AcDbEntity
8
1
62
256
6
ByLayer
370
18
48
1
60
0
100
AcDbSpline
70
4
71
3
72
16
73
12
40
0
40
0
40
0
40
0
40
0.125
40
0.125
40
0.25
40
0.25
40
0.5
40
0.5
40
0.75
40
0.75
40
1
40
1
40
1
40
1
41
1
10
45.2182255441189
20
-28.6727730661057
30
0
41
1
10
45.5118148906409
20
-29.0069349390741
30
0
41
1
10
45.8870402726295
20
-29.3601740327671
30
0
41
1
10
46.8346710107553
20
-30.081577058001
30
0
41
1
10
47.3886318736862
20
-30.4367012113349
30
0
41
1
10
49.1422752748789
20
-31.4342691049683
30
0
41
1
10
50.3856908566494
20
-31.9905143065547
30
0
41
1
10
52.763180319473
20
-32.9440727881927
30
0
41
1
10
53.9381785371999
20
-33.3860829461294
30
0
41
1
10
56.2854648447184
20
-34.2632485303265
30
0
41
1
10
57.4175059885557
20
-34.6070224304947
30
0
41
1
10
58.492154678761
20
-34.8900761380426
30
0
0
SPLINE
5
1DC
100
AcDbEntity
8
1
62
256
6
ByLayer
370
18
48
1
60
0
100
AcDbSpline
70
4
71
3
72
11
73
7
40
0
40
0
40
0
40
0
40
0.379738014043156
40
0.569607021064734
40
0.759476028086312
40
1
40
1
40
1
40
1
41
1.02830968163241
10
44.699685869127
20
-29.5658164978544
30
0
41
1.02566133279165
10
47.089320310056
20
-30.5049685709932
30
0
41
1.02050308371814
10
50.1124488628195
20
-32.0425112099866
30
0
41
1.01332460673153
10
54.7837086420512
20
-35.0521688313618
30
0
41
1.0120630214142
10
56.8076159418012
20
-35.1520701427275
30
0
41
1.00944729087556
10
58.5017934212663
20
-35.8732075073708
30
0
41
1.00885690313847
10
59.2542847854274
20
-36.0767146838996
30
0
0
SPLINE
5
1DD
100
AcDbEntity
8
1
62
256
6
ByLayer
370
18
48
1
60
0
100
AcDbSpline
70
4
71
3
72
16
73
12
40
0
40
0
40
0
40
0
40
0.25
40
0.25
40
0.5
40
0.5
40
0.75
40
0.75
40
0.875
40
0.875
40
1
40
1
40
1
40
1
41
1
10
58.1118934292916
20
-39.0081798481131
30
0
41
1
10
56.9979240598439
20
-39.2195897008625
30
0
41
1
10
55.8399366517845
20
-39.4582492016312
30
0
41
1
10
53.3433930037467
20
-40.0473504921621
30
0
41
1
10
52.0861995587596
20
-40.3456462801113
30
0
41
1
10
49.5436985868305
20
-40.974898518423
30
0
41
1
10
48.2012782905088
20
-41.3335182023161
30
0
41
1
10
46.3178510008544
20
-41.9277592718714
30
0
41
1
10
45.7128242200219
20
-42.135735094126
30
0
41
1
10
44.6702539875888
20
-42.5417820721859
30
0
41
1
10
44.2437040574968
20
-42.7359191433801
30
0
41
1
10
43.9031497390512
20
-42.9146095914983
30
0
0
SPLINE
5
1DE
100
AcDbEntity
8
1
62
256
6
ByLayer
370
18
48
1
60
0
100
AcDbSpline
70
4
71
3
72
8
73
4
40
0
40
0
40
0
40
0
40
1
40
1
40
1
40
1
41
1
10
42.8479244194528
20
-40.2315872969491
30
0
41
1
10
43.2396606294166
20
-40.263958126936
30
0
41
1
10
43.6280538274096
20
-40.2439379429059
30
0
41
1
10
44.0133093303211
20
-40.175778398431
30
0
0
SPLINE
5
1DF
100
AcDbEntity
8
1
62
256
6
ByLayer
370
18
48
1
60
0
100
AcDbSpline
70
4
71
3
72
8
73
4
40
0
40
0
40
0
40
0
40
1
40
1
40
1
40
1
41
1
10
35.1464543471662
20
-28.7763923252679
30
0
41
1
10
35.5012325872879
20
-29.2016240934426
30
0
41
1
10
35.6678208116189
20
-29.8713490349039
30
0
41
1
10
35.965774240386
20
-30.6748370351388
30
0
0
SPLINE
5
1E0
100
AcDbEntity
8
1
62
256
6
ByLayer
370
18
48
1
60
0
100
AcDbSpline
70
4
71
3
72
13
73
9
40
0
40
0
40
0
40
0
40
0.250661764437227
40
0.250661764437227
40
0.250661764437227
40
0.653096502165465
40
0.653096502165465
40
1
40
1
40
1
40
1
41
1
10
47.2448957450557
20
-34.7897352317042
30
0
41
1
10
47.3374398809191
20
-35.0639733672253
30
0
41
1
10
47.4011786743705
20
-35.3502789162698
30
0
41
1
10
47.4342238911231
20
-35.6392067922957
30
0
41
1
10
47.4868188022155
20
-36.0990656597819
30
0
41
1
10
47.461610730739
20
-36.5761738412162
30
0
41
1
10
47.2736201627186
20
-37.4246281106968
30
0
41
1
10
47.1282640646095
20
-37.8104350123358
30
0
41
1
10
46.9333071589406
20
-38.1641366841152
30
0
0
SPLINE
5
1E1
100
AcDbEntity
8
1
62
256
6
ByLayer
370
18
48
1
60
0
100
AcDbSpline
70
4
71
3
72
12
73
8
40
0
40
0
40
0
40
0
40
0.2527496201422
40
0.2527496201422
40
0.674711209428768
40
0.674711209428768
40
1
40
1
40
1
40
1
41
1
10
31.4229814259987
20
-27.8683222117897
30
0
41
1
10
31.4872125464905
20
-27.7881479971678
30
0
41
1
10
31.5596788132305
20
-27.7099923709252
30
0
41
1
10
31.7738796497805
20
-27.5130279849669
30
0
41
1
10
31.9328030952007
20
-27.3997707202009
30
0
41
1
10
32.2469278321609
20
-27.2378640022808
30
0
41
1
10
32.3978057502534
20
-27.1790470296799
30
0
41
1
10
32.553123642747
20
-27.1367611643946
30
0
0
SPLINE
5
1E2
100
AcDbEntity
8
1
62
256
6
ByLayer
370
18
48
1
60
0
100
AcDbSpline
70
4
71
3
72
8
73
4
40
0
40
0
40
0
40
0
40
1
40
1
40
1
40
1
41
1
10
30.9327426158305
20
-28.788787109409
30
0
41
1
10
31.0478528212356
20
-28.4455097206177
30
0
41
1
10
31.2070297534552
20
-28.1378762163083
30
0
41
1
10
31.4229814260173
20
-27.868322211781
30
0
0
SPLINE
5
1E3
100
AcDbEntity
8
1
62
256
6
ByLayer
370
18
48
1
60
0
100
AcDbSpline
70
4
71
3
72
8
73
4
40
0
40
0
40
0
40
0
40
1
40
1
40
1
40
1
41
1
10
43.6080309084507
20
-31.9998851269799
30
0
41
1
10
43.999767118286
20
-32.0322559569561
30
0
41
1
10
44.378092740767
20
-32.1212642884883
30
0
41
1
10
44.7441521687209
20
-32.2609918929725
30
0
0
SPLINE
5
1E4
100
AcDbEntity
8
1
62
256
6
ByLayer
370
18
48
1
60
0
100
AcDbSpline
70
4
71
3
72
12
73
8
40
0
40
0
40
0
40
0
40
0.418782075282789
40
0.418782075282789
40
0.70618212081119
40
0.70618212081119
40
1
40
1
40
1
40
1
41
1
10
59.0749271809784
20
-38.0190983698044
30
0
41
1
10
59.0972257085377
20
-37.9859493480285
30
0
41
1
10
59.1190035214029
20
-37.9501135516849
30
0
41
1
10
59.1531083180197
20
-37.8880168133648
30
0
41
1
10
59.1663981681348
20
-37.8620289163402
30
0
41
1
10
59.1916026109512
20
-37.809039478852
30
0
41
1
10
59.2035511735892
20
-37.7818783356925
30
0
41
1
10
59.2145537607147
20
-37.7547953401248
30
0
0
SPLINE
5
1E5
100
AcDbEntity
8
1
62
256
6
ByLayer
370
18
48
1
60
0
100
AcDbSpline
70
4
71
3
72
8
73
4
40
0
40
0
40
0
40
0
40
1
40
1
40
1
40
1
41
1
10
35.0856455535071
20
-40.2063399580852
30
0
41
1
10
34.6575444406479
20
-40.8431068999536
30
0
41
1
10
34.3772539587544
20
-41.3392404336478
30
0
41
1
10
33.9674655883523
20
-41.5444510969979
30
0
0
SPLINE
5
1E6
100
AcDbEntity
8
1
62
256
6
ByLayer
370
18
48
1
60
0
100
AcDbSpline
70
4
71
3
72
8
73
4
40
0
40
0
40
0
40
0
40
1
40
1
40
1
40
1
41
1
10
44.7441521718884
20
-32.2609918797286
30
0
41
1
10
44.7914097189852
20
-31.0967701564869
30
0
41
1
10
44.7751829214845
20
-30.1132374039377
30
0
41
1
10
44.6996858691271
20
-29.5658164978544
30
0
0
SPLINE
5
1E7
100
AcDbEntity
8
1
62
256
6
ByLayer
370
18
48
1
60
0
100
AcDbSpline
70
4
71
3
72
8
73
4
40
0
40
0
40
0
40
0
40
1
40
1
40
1
40
1
41
1
10
41.5725947950024
20
-31.8316883795214
30
0
41
1
10
40.6629674960165
20
-31.7565220050633
30
0
41
1
10
39.7429990507976
20
-32.0245440549517
30
0
41
1
10
39.0126238222732
20
-32.5538012263623
30
0
0
SPLINE
5
1E8
100
AcDbEntity
8
1
62
256
6
ByLayer
370
18
48
1
60
0
100
AcDbSpline
70
4
71
3
72
16
73
12
40
0
40
0
40
0
40
0
40
0.007643698679899
40
0.007643698679899
40
0.0409116539642736
40
0.0409116539642736
40
0.18516159106636
40
0.18516159106636
40
0.761039897349151
40
0.761039897349151
40
1
40
1
40
1
40
1
41
1
10
30.7714768014951
20
-29.9853287802229
30
0
41
1
10
30.771804189153
20
-29.9817832800421
30
0
41
1
10
30.7720947047829
20
-29.9782118352159
30
0
41
1
10
30.773442206078
20
-29.9592440458176
30
0
41
1
10
30.7738444369096
20
-29.9438616322701
30
0
41
1
10
30.7748095616948
20
-29.8656828372314
30
0
41
1
10
30.7736434574603
20
-29.8074544883611
30
0
41
1
10
30.7785011736326
20
-29.5154408872936
30
0
41
1
10
30.8041008135673
20
-29.2868978799838
30
0
41
1
10
30.8766463919731
20
-28.9712025789107
30
0
41
1
10
30.9023880869069
20
-28.8793092606831
30
0
41
1
10
30.9327426158304
20
-28.7887871094092
30
0
0
SPLINE
5
1E9
100
AcDbEntity
8
1
62
256
6
ByLayer
370
18
48
1
60
0
100
AcDbSpline
70
4
71
3
72
8
73
4
40
0
40
0
40
0
40
0
40
1
40
1
40
1
40
1
41
1
10
58.7402706465382
20
-38.4144171349899
30
0
41
1
10
58.8677041610668
20
-38.292148139476
30
0
41
1
10
58.9809207548016
20
-38.1571302848931
30
0
41
1
10
59.0749271809784
20
-38.0190983698044
30
0
0
SPLINE
5
1EA
100
AcDbEntity
8
1
62
256
6
ByLayer
370
18
48
1
60
0
100
AcDbSpline
70
4
71
3
72
8
73
4
40
0
40
0
40
0
40
0
40
1
40
1
40
1
40
1
41
1
10
36.6018548452822
20
-38.1916346606852
30
0
41
1
10
36.8849551222272
20
-38.2246089524681
30
0
41
1
10
37.1729527026947
20
-38.2908323480251
30
0
41
1
10
37.4464764416479
20
-38.3938414409082
30
0
0
SPLINE
5
1EB
100
AcDbEntity
8
1
62
256
6
ByLayer
370
18
48
1
60
0
100
AcDbSpline
70
4
71
1
72
4
73
2
40
0
40
0
40
1
40
1
41
1
10
59.357007351796
20
-36.3638267254374
30
0
41
1
10
59.228796618712
20
-37.7523066095286
30
0
0
SPLINE
5
1EC
100
AcDbEntity
8
1
62
256
6
ByLayer
370
18
48
1
60
0
100
AcDbSpline
70
4
71
3
72
8
73
4
40
0
40
0
40
0
40
0
40
1
40
1
40
1
40
1
41
1
10
37.0780661395942
20
-33.0344236626322
30
0
41
1
10
37.3611664165391
20
-33.0673979544151
30
0
41
1
10
37.6555941727008
20
-33.0639846714531
30
0
41
1
10
37.9429554955201
20
-33.0171373023975
30
0
0
SPLINE
5
1ED
100
AcDbEntity
8
1
62
256
6
ByLayer
370
18
48
1
60
0
100
AcDbSpline
70
4
71
3
72
12
73
8
40
0
40
0
40
0
40
0
40
0.32296159576427
40
0.32296159576427
40
0.710971356423585
40
0.710971356423585
40
1
40
1
40
1
40
1
41
1
10
44.7441521713107
20
-32.260991893961
30
0
41
1
10
45.1126466162199
20
-32.4010409333299
30
0
41
1
10
45.4654008954936
20
-32.5951034010674
30
0
41
1
10
46.1626269929981
20
-33.11079489619
30
0
41
1
10
46.5022862653163
20
-33.4579711230488
30
0
41
1
10
46.9698029470073
20
-34.1381401264624
30
0
41
1
10
47.1333831412184
20
-34.4593903117258
30
0
41
1
10
47.2448957450557
20
-34.7897352317042
30
0
0
SPLINE
5
1EE
100
AcDbEntity
8
1
62
256
6
ByLayer
370
18
48
1
60
0
100
AcDbSpline
70
4
71
3
72
14
73
10
40
0
40
0
40
0
40
0
40
0.0151857536690315
40
0.0151857536690315
40
0.0655730315774986
40
0.0655730315774986
40
0.287642754348334
40
0.287642754348334
40
1
40
1
40
1
40
1
41
1
10
30.0058755667936
20
-38.2765372309389
30
0
41
1
10
30.0052256204275
20
-38.2835759353699
30
0
41
1
10
30.0044216299577
20
-38.2905586608266
30
0
41
1
10
30.0005314777017
20
-38.3195395137235
30
0
41
1
10
29.9965823172314
20
-38.3396530035599
30
0
41
1
10
29.976108928684
20
-38.4434332617574
30
0
41
1
10
29.9610129290764
20
-38.5200206166985
30
0
41
1
10
29.9150303975653
20
-38.8478975802483
30
0
41
1
10
29.9155970392606
20
-39.0979584943503
30
0
41
1
10
29.9580696308421
20
-39.3441735475861
30
0
0
SPLINE
5
1EF
100
AcDbEntity
8
1
62
256
6
ByLayer
370
18
48
1
60
0
100
AcDbSpline
70
4
71
1
72
4
73
2
40
0
40
0
40
1
40
1
41
1
10
43.2558392399934
20
-42.8739497992196
30
0
41
1
10
43.5206971103131
20
-42.3338752695843
30
0
0
SPLINE
5
1F0
100
AcDbEntity
8
1
62
256
6
ByLayer
370
18
48
1
60
0
100
AcDbSpline
70
4
71
3
72
8
73
4
40
0
40
0
40
0
40
0
40
1
40
1
40
1
40
1
41
1
10
58.1118934292916
20
-39.0081798481131
30
0
41
1
10
58.3205415186401
20
-38.8136322098074
30
0
41
1
10
58.5304110198781
20
-38.6157717460241
30
0
41
1
10
58.7402706465382
20
-38.4144171349899
30
0
0
SPLINE
5
1F1
100
AcDbEntity
8
1
62
256
6
ByLayer
370
18
48
1
60
0
100
AcDbSpline
70
4
71
3
72
8
73
4
40
0
40
0
40
0
40
0
40
1
40
1
40
1
40
1
41
1
10
43.9031497390557
20
-42.9146095914989
30
0
41
1
10
43.6867076020782
20
-42.9008014462307
30
0
41
1
10
43.4706826794456
20
-42.8871619592514
30
0
41
1
10
43.2558392399934
20
-42.8739497992196
30
0
0
SPLINE
5
1F2
100
AcDbEntity
8
1
62
256
6
ByLayer
370
18
48
1
60
0
100
AcDbSpline
70
4
71
3
72
8
73
4
40
0
40
0
40
0
40
0
40
1
40
1
40
1
40
1
41
1
10
59.2542847927801
20
-36.0767146858881
30
0
41
1
10
59.187961755895
20
-35.9149446403261
30
0
41
1
10
59.1019406059524
20
-35.7554448228236
30
0
41
1
10
58.9992806400261
20
-35.6094244710696
30
0
0
SPLINE
5
1F3
100
AcDbEntity
8
1
62
256
6
ByLayer
370
18
48
1
60
0
100
AcDbSpline
70
4
71
3
72
10
73
6
40
0
40
0
40
0
40
0
40
0.474805431212335
40
0.474805431212335
40
1
40
1
40
1
40
1
41
1
10
37.9429554955201
20
-33.0171373023975
30
0
41
1
10
38.1261210779198
20
-32.9805594393353
30
0
41
1
10
38.3063395395024
20
-32.9256562584628
30
0
41
1
10
38.6672068151286
20
-32.7742777804058
30
0
41
1
10
38.8482044095603
20
-32.6729456741733
30
0
41
1
10
39.0126238222731
20
-32.5538012263623
30
0
0
SPLINE
5
1F4
100
AcDbEntity
8
1
62
256
6
ByLayer
370
18
48
1
60
0
100
AcDbSpline
70
4
71
3
72
12
73
8
40
0
40
0
40
0
40
0
40
0.500000000000001
40
0.500000000000001
40
0.750000000000001
40
0.750000000000001
40
1
40
1
40
1
40
1
41
1
10
35.0856455535003
20
-40.2063399580774
30
0
41
1
10
34.9840794381329
20
-40.0910235324377
30
0
41
1
10
34.8857933074841
20
-39.9751176117955
30
0
41
1
10
34.7434876854598
20
-39.8000020474178
30
0
41
1
10
34.6968657478948
20
-39.7414866339564
30
0
41
1
10
34.6061807700422
20
-39.6231801134451
30
0
41
1
10
34.5273071791256
20
-39.5728313639659
30
0
41
1
10
34.5349413659836
20
-39.4901556423068
30
0
0
SPLINE
5
1F5
100
AcDbEntity
8
SK1
62
256
6
ByLayer
370
18
48
1
60
0
100
AcDbSpline
70
4
71
3
72
22
73
18
40
0
40
0
40
0
40
0
40
0.025518692999354
40
0.025518692999354
40
0.0515625307794633
40
0.0515625307794633
40
0.0689220502117165
40
0.0689220502117165
40
0.0862030429090035
40
0.0862030429090035
40
0.113761926258803
40
0.113761926258803
40
0.167639902693809
40
0.167639902693809
40
0.357269752158031
40
0.357269752158031
40
1
40
1
40
1
40
1
41
1
10
-0.394976888875306
20
-6.326943090669
30
0
41
1
10
-0.389699799773268
20
-6.32229605774103
30
0
41
1
10
-0.38394554029108
20
-6.31808234313019
30
0
41
1
10
-0.371336208800926
20
-6.31155719556298
30
0
41
1
10
-0.364237316839024
20
-6.30923328231674
30
0
41
1
10
-0.35209572007625
20
-6.30844589498398
30
0
41
1
10
-0.347038791108787
20
-6.3089739150856
30
0
41
1
10
-0.337436838154161
20
-6.31166640764118
30
0
41
1
10
-0.332782752688161
20
-6.31383711710231
30
0
41
1
10
-0.321723955926899
20
-6.32078578121266
30
0
41
1
10
-0.315689795621665
20
-6.32640446307903
30
0
41
1
10
-0.300083216036086
20
-6.3442802085479
30
0
41
1
10
-0.292057158925644
20
-6.35806878925098
30
0
41
1
10
-0.261294067338753
20
-6.42092251611513
30
0
41
1
10
-0.248999237994838
20
-6.47445017323312
30
0
41
1
10
-0.204624309665832
20
-6.70435570668306
30
0
41
1
10
-0.200000000000983
20
-6.88379158154922
30
0
41
1
10
-0.200000000000983
20
-7.05951756777665
30
0
0
SPLINE
5
1F6
100
AcDbEntity
8
SK1
62
256
6
ByLayer
370
18
48
1
60
0
100
AcDbSpline
70
4
71
3
72
10
73
6
40
0
40
0
40
0
40
0
40
0.5
40
0.5
40
1
40
1
40
1
40
1
41
1
10
-1.30710678118655
20
-4.81101329740289
30
0
41
1
10
-1.57713284158248
20
-3.28321078789992
30
0
41
1
10
-1.79449339715788
20
-1.64680798700616
30
0
41
1
10
-1.79438545511851
20
1.6481258022005
30
0
41
1
10
-1.57704898370505
20
3.28368386467716
30
0
41
1
10
-1.30710678118663
20
4.81101321788435
30
0
0
INSERT
5
208
100
AcDbEntity
8
2
62
256
6
ByLayer
370
25
48
1
60
0
100
AcDbBlockReference
2
DimnDraft3D11
10
0
20
0
30
0
41
1
42
1
43
1
50
0
210
0
220
0
230
1
0
LINE
5
72
100
AcDbEntity
8
1
62
256
6
ByLayer
370
18
48
1
60
0
100
AcDbLine
10
33.481358
20
-41.99468
30
0
11
34.112554
21
-42.10257
31
0
39
0
210
0
220
0
230
1
0
LINE
5
74
100
AcDbEntity
8
1
62
256
6
ByLayer
370
18
48
1
60
0
100
AcDbLine
10
0.3
20
31.5
30
0
11
0
21
31.2
31
0
39
0
210
0
220
0
230
1
0
LINE
5
75
100
AcDbEntity
8
1
62
256
6
ByLayer
370
18
48
1
60
0
100
AcDbLine
10
0
20
-31.2
30
0
11
0.3
21
-31.5
31
0
39
0
210
0
220
0
230
1
0
LINE
5
76
100
AcDbEntity
8
1
62
256
6
ByLayer
370
18
48
1
60
0
100
AcDbLine
10
0.3
20
-31.5
30
0
11
22.920792
21
-31.5
31
0
39
0
210
0
220
0
230
1
0
LINE
5
77
100
AcDbEntity
8
1
62
256
6
ByLayer
370
18
48
1
60
0
100
AcDbLine
10
22.920792
20
31.5
30
0
11
0.3
21
31.5
31
0
39
0
210
0
220
0
230
1
0
LINE
5
78
100
AcDbEntity
8
1
62
256
6
ByLayer
370
18
48
1
60
0
100
AcDbLine
10
24
20
31.65
30
0
11
22.960985
21
31.65
31
0
39
0
210
0
220
0
230
1
0
LINE
5
79
100
AcDbEntity
8
1
62
256
6
ByLayer
370
18
48
1
60
0
100
AcDbLine
10
22.960985
20
31.65
30
0
11
22.920792
21
31.5
31
0
39
0
210
0
220
0
230
1
0
LINE
5
7A
100
AcDbEntity
8
1
62
256
6
ByLayer
370
18
48
1
60
0
100
AcDbLine
10
22.920792
20
-31.5
30
0
11
25.330489
21
-40.49311
31
0
39
0
210
0
220
0
230
1
0
LINE
5
7B
100
AcDbEntity
8
1
62
256
6
ByLayer
370
18
48
1
60
0
100
AcDbLine
10
21.466137
20
3.497828
30
0
11
21.809243
21
3.495201
31
0
39
0
210
0
220
0
230
1
0
LINE
5
7C
100
AcDbEntity
8
1
62
256
6
ByLayer
370
18
48
1
60
0
100
AcDbLine
10
24.586123
20
6.149117
30
0
11
24.599028
21
6.49199
31
0
39
0
210
0
220
0
230
1
0
LINE
5
7D
100
AcDbEntity
8
1
62
256
6
ByLayer
370
18
48
1
60
0
100
AcDbLine
10
41.885094
20
-34.636778
30
0
11
42.06964
21
-34.821323
31
0
39
0
210
0
220
0
230
1
0
LINE
5
7E
100
AcDbEntity
8
1
62
256
6
ByLayer
370
18
48
1
60
0
100
AcDbLine
10
41.086675
20
-36.474481
30
0
11
40.865252
21
-36.253057
31
0
39
0
210
0
220
0
230
1
0
LINE
5
7F
100
AcDbEntity
8
1
62
256
6
ByLayer
370
18
48
1
60
0
100
AcDbLine
10
43.140797
20
-35.501742
30
0
11
43.36222
21
-35.723165
31
0
39
0
210
0
220
0
230
1
0
LINE
5
80
100
AcDbEntity
8
1
62
256
6
ByLayer
370
18
48
1
60
0
100
AcDbLine
10
42.379255
20
-37.376322
30
0
11
42.157832
21
-37.154899
31
0
39
0
210
0
220
0
230
1
0
LINE
5
81
100
AcDbEntity
8
1
62
256
6
ByLayer
370
18
48
1
60
0
100
AcDbLine
10
39.071266
20
-38.602496
30
0
11
39.310719
21
-38.841949
31
0
39
0
210
0
220
0
230
1
0
LINE
5
82
100
AcDbEntity
8
1
62
256
6
ByLayer
370
18
48
1
60
0
100
AcDbLine
10
44.967573
20
-33.185095
30
0
11
44.728121
21
-32.945642
31
0
39
0
210
0
220
0
230
1
0
LINE
5
83
100
AcDbEntity
8
1
62
256
6
ByLayer
370
18
48
1
60
0
100
AcDbLine
10
37.71941
20
-38.511041
30
0
11
37.166697
21
-38.238642
31
0
39
0
210
0
220
0
230
1
0
LINE
5
84
100
AcDbEntity
8
1
62
256
6
ByLayer
370
18
48
1
60
0
100
AcDbLine
10
31.206601
20
-40.984249
30
0
11
32.824781
21
-41.781753
31
0
39
0
210
0
220
0
230
1
0
LINE
5
85
100
AcDbEntity
8
1
62
256
6
ByLayer
370
18
48
1
60
0
100
AcDbLine
10
30.78828
20
-29.487739
30
0
11
29.936086
21
-38.716712
31
0
39
0
210
0
220
0
230
1
0
LINE
5
86
100
AcDbEntity
8
1
62
256
6
ByLayer
370
18
48
1
60
0
100
AcDbLine
10
24.578163
20
6.56188
30
0
11
19.213007
21
12.175623
31
0
39
0
210
0
220
0
230
1
0
LINE
5
87
100
AcDbEntity
8
1
62
256
6
ByLayer
370
18
48
1
60
0
100
AcDbLine
10
19.280479
20
5.736697
30
0
11
21.397263
21
3.521836
31
0
39
0
210
0
220
0
230
1
0
LINE
5
88
100
AcDbEntity
8
80
62
256
6
ByLayer
370
18
48
1
60
0
100
AcDbLine
10
0
20
0
30
0
11
-5
21
0
31
0
39
0
210
0
220
0
230
1
0
LINE
5
89
100
AcDbEntity
8
4
62
256
6
ByLayer
370
18
48
0.05
60
0
100
AcDbLine
10
0
20
0
30
0
11
56
21
0
31
0
39
0
210
0
220
0
230
1
0
LINE
5
8B
100
AcDbEntity
8
81
62
256
6
ByLayer
370
18
48
1
60
0
100
AcDbLine
10
56
20
-45
30
0
11
66
21
-45
31
0
39
0
210
0
220
0
230
1
0
LINE
5
8C
100
AcDbEntity
8
SK4
62
256
6
ByLayer
370
18
48
0.05
60
0
100
AcDbLine
10
-43
20
0
30
0
11
56
21
0
31
0
39
0
210
0
220
0
230
1
0
LINE
5
8E
100
AcDbEntity
8
1
62
256
6
ByLayer
370
18
48
1
60
0
100
AcDbLine
10
51.576067
20
-41.230412
30
0
11
55.117023
21
-44.771369
31
0
39
0
210
0
220
0
230
1
0
LINE
5
8F
100
AcDbEntity
8
1
62
256
6
ByLayer
370
18
48
1
60
0
100
AcDbLine
10
55.198956
20
-28.015322
30
0
11
52.23549
21
-30.978789
31
0
39
0
210
0
220
0
230
1
0
LINE
5
90
100
AcDbEntity
8
1
62
256
6
ByLayer
370
18
48
1
60
0
100
AcDbLine
10
55.154662
20
-27.971027
30
0
11
55.198956
21
-28.015322
31
0
39
0
210
0
220
0
230
1
0
LINE
5
91
100
AcDbEntity
8
1
62
256
6
ByLayer
370
18
48
1
60
0
100
AcDbLine
10
40.355813
20
-39.838323
30
0
11
41.317733
21
-39.916278
31
0
39
0
210
0
220
0
230
1
0
LINE
5
92
100
AcDbEntity
8
1
62
256
6
ByLayer
370
18
48
1
60
0
100
AcDbLine
10
42.245374
20
-39.991455
30
0
11
42.383375
21
-40.002639
31
0
39
0
210
0
220
0
230
1
0
LINE
5
93
100
AcDbEntity
8
1
62
256
6
ByLayer
370
18
48
1
60
0
100
AcDbLine
10
55.078577
20
-32.920874
30
0
11
54.352625
21
-32.585055
31
0
39
0
210
0
220
0
230
1
0
LINE
5
94
100
AcDbEntity
8
1
62
256
6
ByLayer
370
18
48
1
60
0
100
AcDbLine
10
58.492155
20
-34.890076
30
0
11
58.148638
21
-34.434091
31
0
39
0
210
0
220
0
230
1
0
LINE
5
95
100
AcDbEntity
8
1
62
256
6
ByLayer
370
18
48
1
60
0
100
AcDbLine
10
58.111893
20
-39.00818
30
0
11
57.704119
21
-39.248085
31
0
39
0
210
0
220
0
230
1
0
LINE
5
96
100
AcDbEntity
8
1
62
256
6
ByLayer
370
18
48
1
60
0
100
AcDbLine
10
53.631127
20
-40.398645
30
0
11
54.407632
21
-40.186981
31
0
39
0
210
0
220
0
230
1
0
LINE
5
97
100
AcDbEntity
8
1
62
256
6
ByLayer
370
18
48
1
60
0
100
AcDbLine
10
19.911507
20
11.445024
30
0
11
19.911507
21
29.985012
31
0
39
0
210
0
220
0
230
1
0
LINE
5
98
100
AcDbEntity
8
1
62
256
6
ByLayer
370
18
48
1
60
0
100
AcDbLine
10
19.838064
20
13.895589
30
0
11
19.864636
21
11.493783
31
0
39
0
210
0
220
0
230
1
0
LINE
5
99
100
AcDbEntity
8
1
62
256
6
ByLayer
370
18
48
1
60
0
100
AcDbLine
10
0.3
20
0
30
0
11
0.3
21
-31.5
31
0
39
0
210
0
220
0
230
1
0
LINE
5
9A
100
AcDbEntity
8
1
62
256
6
ByLayer
370
18
48
1
60
0
100
AcDbLine
10
0.3
20
31.5
30
0
11
0.3
21
0
31
0
39
0
210
0
220
0
230
1
0
LINE
5
9B
100
AcDbEntity
8
1
62
256
6
ByLayer
370
18
48
1
60
0
100
AcDbLine
10
0
20
0
30
0
11
0
21
-31.2
31
0
39
0
210
0
220
0
230
1
0
LINE
5
9C
100
AcDbEntity
8
1
62
256
6
ByLayer
370
18
48
1
60
0
100
AcDbLine
10
0
20
31.2
30
0
11
0
21
0
31
0
39
0
210
0
220
0
230
1
0
LINE
5
9D
100
AcDbEntity
8
1
62
256
6
ByLayer
370
18
48
1
60
0
100
AcDbLine
10
22.920792
20
-31.100508
30
0
11
22.920792
21
-31.5
31
0
39
0
210
0
220
0
230
1
0
LINE
5
9E
100
AcDbEntity
8
1
62
256
6
ByLayer
370
18
48
1
60
0
100
AcDbLine
10
22.920792
20
31.5
30
0
11
22.920792
21
30.899614
31
0
39
0
210
0
220
0
230
1
0
LINE
5
9F
100
AcDbEntity
8
SK1
62
256
6
ByLayer
370
18
48
1
60
0
100
AcDbLine
10
-0.2
20
22.533485
30
0
11
-0.2
21
7.059517
31
0
39
0
210
0
220
0
230
1
0
LINE
5
A1
100
AcDbEntity
8
SK1
62
256
6
ByLayer
370
18
48
1
60
0
100
AcDbLine
10
-0.2
20
-7.059518
30
0
11
-0.2
21
-22.533485
31
0
39
0
210
0
220
0
230
1
0
LINE
5
A2
100
AcDbEntity
8
1
62
256
6
ByLayer
370
18
48
1
60
0
100
AcDbLine
10
19.838064
20
13.895589
30
0
11
19.229371
21
13.313849
31
0
39
0
210
0
220
0
230
1
0
LINE
5
A3
100
AcDbEntity
8
1
62
256
6
ByLayer
370
18
48
1
60
0
100
AcDbLine
10
23.896286
20
-18.295821
30
0
11
23.896286
21
5.142716
31
0
39
0
210
0
220
0
230
1
0
LINE
5
A4
100
AcDbEntity
8
1
62
256
6
ByLayer
370
18
48
1
60
0
100
AcDbLine
10
23.896286
20
7.274964
30
0
11
23.896286
21
31.076076
31
0
39
0
210
0
220
0
230
1
0
LINE
5
A5
100
AcDbEntity
8
1
62
256
6
ByLayer
370
18
48
1
60
0
100
AcDbLine
10
24
20
31.076076
30
0
11
24
21
31.65
31
0
39
0
210
0
220
0
230
1
0
LINE
5
A6
100
AcDbEntity
8
1
62
256
6
ByLayer
370
18
48
1
60
0
100
AcDbLine
10
22.960985
20
31.65
30
0
11
22.960985
21
31.054462
31
0
39
0
210
0
220
0
230
1
0
LINE
5
A7
100
AcDbEntity
8
1
62
256
6
ByLayer
370
18
48
1
60
0
100
AcDbLine
10
55.159537
20
-27.84332
30
0
11
52.090964
21
-30.911894
31
0
39
0
210
0
220
0
230
1
0
LINE
5
A8
100
AcDbEntity
8
1
62
256
6
ByLayer
370
18
48
1
60
0
100
AcDbLine
10
53.027393
20
-42.908397
30
0
11
51.386736
21
-41.282136
31
0
39
0
210
0
220
0
230
1
0
LINE
5
A9
100
AcDbEntity
8
1
62
256
6
ByLayer
370
18
48
1
60
0
100
AcDbLine
10
53.027393
20
-42.908397
30
0
11
47.26896
21
-42.4046
31
0
39
0
210
0
220
0
230
1
0
LINE
5
AA
100
AcDbEntity
8
1
62
256
6
ByLayer
370
18
48
1
60
0
100
AcDbLine
10
52.104013
20
-30.917887
30
0
11
52.830476
21
-30.191423
31
0
39
0
210
0
220
0
230
1
0
LINE
5
AB
100
AcDbEntity
8
1
62
256
6
ByLayer
370
18
48
1
60
0
100
AcDbLine
10
53.27578
20
-42.930129
30
0
11
53.027393
21
-42.908397
31
0
39
0
210
0
220
0
230
1
0
LINE
5
AC
100
AcDbEntity
8
1
62
256
6
ByLayer
370
18
48
1
60
0
100
AcDbLine
10
57.555056
20
-33.730793
30
0
11
57.332574
21
-33.990473
31
0
39
0
210
0
220
0
230
1
0
LINE
5
AD
100
AcDbEntity
8
1
62
256
6
ByLayer
370
18
48
1
60
0
100
AcDbLine
10
55.078594
20
-32.920883
30
0
11
53.967472
21
-32.370991
31
0
39
0
210
0
220
0
230
1
0
LINE
5
AE
100
AcDbEntity
8
1
62
256
6
ByLayer
370
18
48
1
60
0
100
AcDbLine
10
38.237004
20
-25.965699
30
0
11
38.065697
21
-27.8209
31
0
39
0
210
0
220
0
230
1
0
LINE
5
AF
100
AcDbEntity
8
1
62
256
6
ByLayer
370
18
48
1
60
0
100
AcDbLine
10
56.983464
20
-39.920945
30
0
11
56.822249
21
-39.517125
31
0
39
0
210
0
220
0
230
1
0
LINE
5
B0
100
AcDbEntity
8
1
62
256
6
ByLayer
370
18
48
1
60
0
100
AcDbLine
10
54.407651
20
-40.186975
30
0
11
53.212573
21
-40.546296
31
0
39
0
210
0
220
0
230
1
0
LINE
5
B1
100
AcDbEntity
8
1
62
256
6
ByLayer
370
18
48
1
60
0
100
AcDbLine
10
44.728121
20
-32.945642
30
0
11
44.728005
21
-32.945527
31
0
39
0
210
0
220
0
230
1
0
LINE
5
B2
100
AcDbEntity
8
1
62
256
6
ByLayer
370
18
48
1
60
0
100
AcDbLine
10
41.913993
20
-34.654199
30
0
11
42.017498
21
-34.757704
31
0
39
0
210
0
220
0
230
1
0
LINE
5
B3
100
AcDbEntity
8
1
62
256
6
ByLayer
370
18
48
1
60
0
100
AcDbLine
10
43.26975
20
-36.357369
30
0
11
43.491173
21
-36.578792
31
0
39
0
210
0
220
0
230
1
0
LINE
5
B4
100
AcDbEntity
8
1
62
256
6
ByLayer
370
18
48
1
60
0
100
AcDbLine
10
40.667515
20
-36.142335
30
0
11
40.888938
21
-36.363758
31
0
39
0
210
0
220
0
230
1
0
LINE
5
B5
100
AcDbEntity
8
1
62
256
6
ByLayer
370
18
48
1
60
0
100
AcDbLine
10
41.55341
20
-37.164264
30
0
11
41.774833
21
-37.385687
31
0
39
0
210
0
220
0
230
1
0
LINE
5
B6
100
AcDbEntity
8
1
62
256
6
ByLayer
370
18
48
1
60
0
100
AcDbLine
10
43.062801
20
-35.01625
30
0
11
43.284224
21
-35.237673
31
0
39
0
210
0
220
0
230
1
0
LINE
5
B7
100
AcDbEntity
8
1
62
256
6
ByLayer
370
18
48
1
60
0
100
AcDbLine
10
42.888919
20
-36.899329
30
0
11
43.110342
21
-37.120752
31
0
39
0
210
0
220
0
230
1
0
LINE
5
B8
100
AcDbEntity
8
1
62
256
6
ByLayer
370
18
48
1
60
0
100
AcDbLine
10
57.822104
20
-40.640296
30
0
11
55.225078
21
-41.596533
31
0
39
0
210
0
220
0
230
1
0
LINE
5
B9
100
AcDbEntity
8
1
62
256
6
ByLayer
370
18
48
1
60
0
100
AcDbLine
10
52.956729
20
-41.143958
30
0
11
53.496221
21
-41.45367
31
0
39
0
210
0
220
0
230
1
0
LINE
5
BA
100
AcDbEntity
8
1
62
256
6
ByLayer
370
18
48
1
60
0
100
AcDbLine
10
54.114384
20
-40.901273
30
0
11
53.496221
21
-41.45367
31
0
39
0
210
0
220
0
230
1
0
LINE
5
BB
100
AcDbEntity
8
1
62
256
6
ByLayer
370
18
48
1
60
0
100
AcDbLine
10
59.465272
20
-35.137278
30
0
11
60.200178
21
-34.18173
31
0
39
0
210
0
220
0
230
1
0
LINE
5
BC
100
AcDbEntity
8
1
62
256
6
ByLayer
370
18
48
1
60
0
100
AcDbLine
10
54.909102
20
-32.294735
30
0
11
54.762445
21
-32.348735
31
0
39
0
210
0
220
0
230
1
0
LINE
5
BD
100
AcDbEntity
8
1
62
256
6
ByLayer
370
18
48
1
60
0
100
AcDbLine
10
54.762445
20
-32.348735
30
0
11
57.555056
21
-33.730793
31
0
39
0
210
0
220
0
230
1
0
LINE
5
BE
100
AcDbEntity
8
1
62
256
6
ByLayer
370
18
48
1
60
0
100
AcDbLine
10
57.850791
20
-40.124487
30
0
11
57.822104
21
-40.640296
31
0
39
0
210
0
220
0
230
1
0
LINE
5
BF
100
AcDbEntity
8
1
62
256
6
ByLayer
370
18
48
1
60
0
100
AcDbLine
10
56.237686
20
-32.404521
30
0
11
56.186659
21
-31.182934
31
0
39
0
210
0
220
0
230
1
0
LINE
5
C0
100
AcDbEntity
8
1
62
256
6
ByLayer
370
18
48
1
60
0
100
AcDbLine
10
53.68876
20
-40.725342
30
0
11
52.956729
21
-41.143958
31
0
39
0
210
0
220
0
230
1
0
LINE
5
C1
100
AcDbEntity
8
1
62
256
6
ByLayer
370
18
48
1
60
0
100
AcDbLine
10
54.461922
20
-32.352252
30
0
11
53.869716
21
-31.256607
31
0
39
0
210
0
220
0
230
1
0
LINE
5
C2
100
AcDbEntity
8
1
62
256
6
ByLayer
370
18
48
1
60
0
100
AcDbLine
10
57.850791
20
-40.124487
30
0
11
55.442967
21
-41.011059
31
0
39
0
210
0
220
0
230
1
0
LINE
5
C3
100
AcDbEntity
8
1
62
256
6
ByLayer
370
18
48
1
60
0
100
AcDbLine
10
53.979845
20
-40.824037
30
0
11
56.983464
21
-39.920945
31
0
39
0
210
0
220
0
230
1
0
LINE
5
C4
100
AcDbEntity
8
1
62
256
6
ByLayer
370
18
48
1
60
0
100
AcDbLine
10
55.442967
20
-41.011059
30
0
11
54.114384
21
-40.901273
31
0
39
0
210
0
220
0
230
1
0
LINE
5
C5
100
AcDbEntity
8
1
62
256
6
ByLayer
370
18
48
1
60
0
100
AcDbLine
10
58.446552
20
-33.67259
30
0
11
56.237686
21
-32.404521
31
0
39
0
210
0
220
0
230
1
0
LINE
5
C6
100
AcDbEntity
8
1
62
256
6
ByLayer
370
18
48
1
60
0
100
AcDbLine
10
58.569094
20
-32.550645
30
0
11
56.186659
21
-31.182934
31
0
39
0
210
0
220
0
230
1
0
LINE
5
C7
100
AcDbEntity
8
1
62
256
6
ByLayer
370
18
48
1
60
0
100
AcDbLine
10
53.979845
20
-40.824037
30
0
11
53.68876
21
-40.725342
31
0
39
0
210
0
220
0
230
1
0
LINE
5
C8
100
AcDbEntity
8
1
62
256
6
ByLayer
370
18
48
1
60
0
100
AcDbLine
10
55.442967
20
-41.011059
30
0
11
55.225078
21
-41.596533
31
0
39
0
210
0
220
0
230
1
0
LINE
5
C9
100
AcDbEntity
8
1
62
256
6
ByLayer
370
18
48
1
60
0
100
AcDbLine
10
53.869716
20
-31.256607
30
0
11
54.457802
21
-31.040071
31
0
39
0
210
0
220
0
230
1
0
LINE
5
CA
100
AcDbEntity
8
1
62
256
6
ByLayer
370
18
48
1
60
0
100
AcDbLine
10
54.457802
20
-31.040071
30
0
11
54.909102
21
-32.294735
31
0
39
0
210
0
220
0
230
1
0
LINE
5
CB
100
AcDbEntity
8
1
62
256
6
ByLayer
370
18
48
1
60
0
100
AcDbLine
10
58.160281
20
-39.993866
30
0
11
59.122529
21
-38.849069
31
0
39
0
210
0
220
0
230
1
0
LINE
5
CC
100
AcDbEntity
8
1
62
256
6
ByLayer
370
18
48
1
60
0
100
AcDbLine
10
56.237686
20
-32.404521
30
0
11
54.909102
21
-32.294735
31
0
39
0
210
0
220
0
230
1
0
LINE
5
CD
100
AcDbEntity
8
1
62
256
6
ByLayer
370
18
48
1
60
0
100
AcDbLine
10
55.225078
20
-41.596533
30
0
11
53.496221
21
-41.45367
31
0
39
0
210
0
220
0
230
1
0
LINE
5
CE
100
AcDbEntity
8
1
62
256
6
ByLayer
370
18
48
1
60
0
100
AcDbLine
10
54.114384
20
-40.901273
30
0
11
53.979845
21
-40.824037
31
0
39
0
210
0
220
0
230
1
0
LINE
5
CF
100
AcDbEntity
8
1
62
256
6
ByLayer
370
18
48
1
60
0
100
AcDbLine
10
58.727414
20
-33.851994
30
0
11
59.465272
21
-35.137278
31
0
39
0
210
0
220
0
230
1
0
LINE
5
D0
100
AcDbEntity
8
1
62
256
6
ByLayer
370
18
48
1
60
0
100
AcDbLine
10
58.446552
20
-33.67259
30
0
11
58.569094
21
-32.550645
31
0
39
0
210
0
220
0
230
1
0
LINE
5
D1
100
AcDbEntity
8
1
62
256
6
ByLayer
370
18
48
1
60
0
100
AcDbLine
10
59.122529
20
-38.849069
30
0
11
59.72743
21
-39.30144
31
0
39
0
210
0
220
0
230
1
0
LINE
5
D2
100
AcDbEntity
8
1
62
256
6
ByLayer
370
18
48
1
60
0
100
AcDbLine
10
56.186659
20
-31.182934
30
0
11
54.457802
21
-31.040071
31
0
39
0
210
0
220
0
230
1
0
LINE
5
D3
100
AcDbEntity
8
1
62
256
6
ByLayer
370
18
48
1
60
0
100
AcDbLine
10
54.461922
20
-32.352252
30
0
11
54.762445
21
-32.348735
31
0
39
0
210
0
220
0
230
1
0
LINE
5
D4
100
AcDbEntity
8
1
62
256
6
ByLayer
370
18
48
1
60
0
100
AcDbLine
10
19.911507
20
4.931697
30
0
11
19.282108
21
5.590257
31
0
39
0
210
0
220
0
230
1
0
LINE
5
D5
100
AcDbEntity
8
1
62
256
6
ByLayer
370
18
48
1
60
0
100
AcDbLine
10
55.220963
20
-27.904746
30
0
11
53.476601
21
-29.649108
31
0
39
0
210
0
220
0
230
1
0
LINE
5
D6
100
AcDbEntity
8
1
62
256
6
ByLayer
370
18
48
1
60
0
100
AcDbLine
10
19.911507
20
-29.985012
30
0
11
19.911507
21
4.931697
31
0
39
0
210
0
220
0
230
1
0
LINE
5
D7
100
AcDbEntity
8
1
62
256
6
ByLayer
370
18
48
1
60
0
100
AcDbLine
10
13.894338
20
-9.869413
30
0
11
13.894338
21
-29.913955
31
0
39
0
210
0
220
0
230
1
0
LINE
5
D8
100
AcDbEntity
8
1
62
256
6
ByLayer
370
18
48
1
60
0
100
AcDbLine
10
13.894338
20
29.913955
30
0
11
13.894338
21
21.040182
31
0
39
0
210
0
220
0
230
1
0
LINE
5
D9
100
AcDbEntity
8
1
62
256
6
ByLayer
370
18
48
1
60
0
100
AcDbLine
10
50.873948
20
-32.251761
30
0
11
49.197426
21
-33.928283
31
0
39
0
210
0
220
0
230
1
0
LINE
5
DA
100
AcDbEntity
8
1
62
256
6
ByLayer
370
18
48
1
60
0
100
AcDbLine
10
10.105662
20
29.913955
30
0
11
10.105662
21
21.040182
31
0
39
0
210
0
220
0
230
1
0
LINE
5
DB
100
AcDbEntity
8
1
62
256
6
ByLayer
370
18
48
1
60
0
100
AcDbLine
10
13.894338
20
20.132452
30
0
11
13.894338
21
9.869413
31
0
39
0
210
0
220
0
230
1
0
LINE
5
DC
100
AcDbEntity
8
1
62
256
6
ByLayer
370
18
48
1
60
0
100
AcDbLine
10
55.220963
20
-27.904746
30
0
11
55.159537
21
-27.84332
31
0
39
0
210
0
220
0
230
1
0
LINE
5
DD
100
AcDbEntity
8
1
62
256
6
ByLayer
370
18
48
1
60
0
100
AcDbLine
10
19.949296
20
4.892157
30
0
11
19.911507
21
4.931697
31
0
39
0
210
0
220
0
230
1
0
LINE
5
DE
100
AcDbEntity
8
1
62
256
6
ByLayer
370
18
48
1
60
0
100
AcDbLine
10
10.105662
20
20.132452
30
0
11
10.105662
21
9.869413
31
0
39
0
210
0
220
0
230
1
0
LINE
5
DF
100
AcDbEntity
8
1
62
256
6
ByLayer
370
18
48
1
60
0
100
AcDbLine
10
13.461325
20
9.349221
30
0
11
10.538675
21
9.349221
31
0
39
0
210
0
220
0
230
1
0
LINE
5
E0
100
AcDbEntity
8
1
62
256
6
ByLayer
370
18
48
1
60
0
100
AcDbLine
10
10.538675
20
-9.349221
30
0
11
10.538675
21
-30.080593
31
0
39
0
210
0
220
0
230
1
0
LINE
5
E1
100
AcDbEntity
8
1
62
256
6
ByLayer
370
18
48
1
60
0
100
AcDbLine
10
24
20
31.076076
30
0
11
24
21
7.541196
31
0
39
0
210
0
220
0
230
1
0
LINE
5
E2
100
AcDbEntity
8
1
62
256
6
ByLayer
370
18
48
1
60
0
100
AcDbLine
10
38.237004
20
-25.965699
30
0
11
37.532808
21
-25.849148
31
0
39
0
210
0
220
0
230
1
0
LINE
5
E3
100
AcDbEntity
8
1
62
256
6
ByLayer
370
18
48
1
60
0
100
AcDbLine
10
10.538675
20
30.080593
30
0
11
10.538675
21
21.369494
31
0
39
0
210
0
220
0
230
1
0
LINE
5
E4
100
AcDbEntity
8
1
62
256
6
ByLayer
370
18
48
1
60
0
100
AcDbLine
10
10.538675
20
30.080593
30
0
11
13.461325
21
30.080593
31
0
39
0
210
0
220
0
230
1
0
LINE
5
E5
100
AcDbEntity
8
1
62
256
6
ByLayer
370
18
48
1
60
0
100
AcDbLine
10
24
20
31.076076
30
0
11
23.896286
21
31.076076
31
0
39
0
210
0
220
0
230
1
0
LINE
5
E6
100
AcDbEntity
8
1
62
256
6
ByLayer
370
18
48
1
60
0
100
AcDbLine
10
13.461325
20
-30.080593
30
0
11
10.538675
21
-30.080593
31
0
39
0
210
0
220
0
230
1
0
LINE
5
E7
100
AcDbEntity
8
1
62
256
6
ByLayer
370
18
48
1
60
0
100
AcDbLine
10
34.732267
20
-7.41605
30
0
11
55.159537
21
-27.84332
31
0
39
0
210
0
220
0
230
1
0
LINE
5
E8
100
AcDbEntity
8
1
62
256
6
ByLayer
370
18
48
1
60
0
100
AcDbLine
10
19.366064
20
15.114889
30
0
11
19.624684
21
16.069794
31
0
39
0
210
0
220
0
230
1
0
LINE
5
E9
100
AcDbEntity
8
1
62
256
6
ByLayer
370
18
48
1
60
0
100
AcDbLine
10
10.105662
20
-9.869413
30
0
11
10.105662
21
-29.913955
31
0
39
0
210
0
220
0
230
1
0
LINE
5
EA
100
AcDbEntity
8
1
62
256
6
ByLayer
370
18
48
1
60
0
100
AcDbLine
10
10.538675
20
19.43724
30
0
11
10.538675
21
9.349221
31
0
39
0
210
0
220
0
230
1
0
LINE
5
EB
100
AcDbEntity
8
1
62
256
6
ByLayer
370
18
48
1
60
0
100
AcDbLine
10
10.538675
20
-9.349221
30
0
11
13.461325
21
-9.349221
31
0
39
0
210
0
220
0
230
1
0
LINE
5
EC
100
AcDbEntity
8
1
62
256
6
ByLayer
370
18
48
1
60
0
100
AcDbLine
10
24.080584
20
-18.067734
30
0
11
34.732267
21
-7.41605
31
0
39
0
210
0
220
0
230
1
0
LINE
5
ED
100
AcDbEntity
8
1
62
256
6
ByLayer
370
18
48
1
60
0
100
AcDbLine
10
27.154634
20
-40.644824
30
0
11
25.373214
21
-40.48897
31
0
39
0
210
0
220
0
230
1
0
LINE
5
EE
100
AcDbEntity
8
1
62
256
6
ByLayer
370
18
48
1
60
0
100
AcDbLine
10
24.080584
20
-18.067734
30
0
11
24.080584
21
-35.574211
31
0
39
0
210
0
220
0
230
1
0
LINE
5
EF
100
AcDbEntity
8
1
62
256
6
ByLayer
370
18
48
1
60
0
100
AcDbLine
10
27.76401
20
-40.698138
30
0
11
29.577439
21
-40.856792
31
0
39
0
210
0
220
0
230
1
0
LINE
5
F0
100
AcDbEntity
8
1
62
256
6
ByLayer
370
18
48
1
60
0
100
AcDbLine
10
13.461325
20
30.080593
30
0
11
13.461325
21
21.369494
31
0
39
0
210
0
220
0
230
1
0
LINE
5
F1
100
AcDbEntity
8
1
62
256
6
ByLayer
370
18
48
1
60
0
100
AcDbLine
10
13.461325
20
-9.349221
30
0
11
13.461325
21
-30.080593
31
0
39
0
210
0
220
0
230
1
0
LINE
5
F2
100
AcDbEntity
8
1
62
256
6
ByLayer
370
18
48
1
60
0
100
AcDbLine
10
28.275404
20
-28.112644
30
0
11
27.171344
21
-40.069245
31
0
39
0
210
0
220
0
230
1
0
LINE
5
F3
100
AcDbEntity
8
1
62
256
6
ByLayer
370
18
48
1
60
0
100
AcDbLine
10
34.732267
20
-7.41605
30
0
11
26.987511
21
0.328706
31
0
39
0
210
0
220
0
230
1
0
LINE
5
F4
100
AcDbEntity
8
1
62
256
6
ByLayer
370
18
48
1
60
0
100
AcDbLine
10
19.282108
20
5.590257
30
0
11
19.215651
21
11.597453
31
0
39
0
210
0
220
0
230
1
0
LINE
5
F5
100
AcDbEntity
8
1
62
256
6
ByLayer
370
18
48
1
60
0
100
AcDbLine
10
13.461325
20
19.43724
30
0
11
13.461325
21
9.349221
31
0
39
0
210
0
220
0
230
1
0
LINE
5
F6
100
AcDbEntity
8
SK1
62
256
6
ByLayer
370
18
48
1
60
0
100
AcDbLine
10
-1.307107
20
4.811013
30
0
11
-1.307107
21
-4.811013
31
0
39
0
210
0
220
0
230
1
0
LINE
5
F7
100
AcDbEntity
8
1
62
256
6
ByLayer
370
18
48
1
60
0
100
AcDbLine
10
55.534649
20
-27.228482
30
0
11
56.316026
21
-28.00986
31
0
39
0
210
0
220
0
230
1
0
LINE
5
F8
100
AcDbEntity
8
1
62
256
6
ByLayer
370
18
48
1
60
0
100
AcDbLine
10
56.234093
20
-44.765907
30
0
11
64.091817
21
-36.908183
31
0
39
0
210
0
220
0
230
1
0
LINE
5
F9
100
AcDbEntity
8
1
62
256
6
ByLayer
370
18
48
1
60
0
100
AcDbLine
10
64.09728
20
-35.791113
30
0
11
56.316026
21
-28.00986
31
0
39
0
210
0
220
0
230
1
0
LINE
5
FA
100
AcDbEntity
8
1
62
256
6
ByLayer
370
18
48
1
60
0
100
AcDbLine
10
35.146454
20
-28.776392
30
0
11
44.699686
21
-29.565816
31
0
39
0
210
0
220
0
230
1
0
LINE
5
FB
100
AcDbEntity
8
1
62
256
6
ByLayer
370
18
48
1
60
0
100
AcDbLine
10
38.231718
20
-27.851767
30
0
11
47.051306
21
-28.580567
31
0
39
0
210
0
220
0
230
1
0
LINE
5
FC
100
AcDbEntity
8
1
62
256
6
ByLayer
370
18
48
1
60
0
100
AcDbLine
10
34.114687
20
-32.587981
30
0
11
35.155848
21
-32.765946
31
0
39
0
210
0
220
0
230
1
0
LINE
5
FD
100
AcDbEntity
8
1
62
256
6
ByLayer
370
18
48
1
60
0
100
AcDbLine
10
52.0734
20
-40.800616
30
0
11
53.10925
21
-40.518258
31
0
39
0
210
0
220
0
230
1
0
LINE
5
FE
100
AcDbEntity
8
1
62
256
6
ByLayer
370
18
48
1
60
0
100
AcDbLine
10
33.679242
20
-27.079072
30
0
11
35.113107
21
-27.785737
31
0
39
0
210
0
220
0
230
1
0
LINE
5
FF
100
AcDbEntity
8
1
62
256
6
ByLayer
370
18
48
1
60
0
100
AcDbLine
10
36.100914
20
-37.944751
30
0
11
33.638476
21
-37.745192
31
0
39
0
210
0
220
0
230
1
0
LINE
5
100
100
AcDbEntity
8
1
62
256
6
ByLayer
370
18
48
1
60
0
100
AcDbLine
10
35.84743
20
-27.911255
30
0
11
35.113107
21
-27.785737
31
0
39
0
210
0
220
0
230
1
0
LINE
5
101
100
AcDbEntity
8
1
62
256
6
ByLayer
370
18
48
1
60
0
100
AcDbLine
10
35.998174
20
-27.436121
30
0
11
38.231718
21
-27.851767
31
0
39
0
210
0
220
0
230
1
0
LINE
5
102
100
AcDbEntity
8
1
62
256
6
ByLayer
370
18
48
1
60
0
100
AcDbLine
10
34.534941
20
-39.490156
30
0
11
31.371064
21
-38.949356
31
0
39
0
210
0
220
0
230
1
0
LINE
5
103
100
AcDbEntity
8
1
62
256
6
ByLayer
370
18
48
1
60
0
100
AcDbLine
10
43.90315
20
-42.91461
30
0
11
45.73623
21
-42.822404
31
0
39
0
210
0
220
0
230
1
0
LINE
5
104
100
AcDbEntity
8
1
62
256
6
ByLayer
370
18
48
1
60
0
100
AcDbLine
10
47.051306
20
-28.580567
30
0
11
52.688513
21
-31.188289
31
0
39
0
210
0
220
0
230
1
0
LINE
5
105
100
AcDbEntity
8
1
62
256
6
ByLayer
370
18
48
1
60
0
100
AcDbLine
10
30.771477
20
-29.985329
30
0
11
32.136665
21
-30.658148
31
0
39
0
210
0
220
0
230
1
0
LINE
5
106
100
AcDbEntity
8
1
62
256
6
ByLayer
370
18
48
1
60
0
100
AcDbLine
10
34.532354
20
-42.153091
30
0
11
43.255839
21
-42.87395
31
0
39
0
210
0
220
0
230
1
0
LINE
5
107
100
AcDbEntity
8
1
62
256
6
ByLayer
370
18
48
1
60
0
100
AcDbLine
10
30.771477
20
-29.985329
30
0
11
30.005876
21
-38.276537
31
0
39
0
210
0
220
0
230
1
0
LINE
5
108
100
AcDbEntity
8
1
62
256
6
ByLayer
370
18
48
1
60
0
100
AcDbLine
10
42.847924
20
-40.231587
30
0
11
42.383375
21
-40.002639
31
0
39
0
210
0
220
0
230
1
0
LINE
5
109
100
AcDbEntity
8
1
62
256
6
ByLayer
370
18
48
1
60
0
100
AcDbLine
10
33.967466
20
-41.544451
30
0
11
43.520697
21
-42.333875
31
0
39
0
210
0
220
0
230
1
0
LINE
5
10A
100
AcDbEntity
8
1
62
256
6
ByLayer
370
18
48
1
60
0
100
AcDbLine
10
32.136665
20
-30.658148
30
0
11
31.371064
21
-38.949356
31
0
39
0
210
0
220
0
230
1
0
LINE
5
10B
100
AcDbEntity
8
1
62
256
6
ByLayer
370
18
48
1
60
0
100
AcDbLine
10
53.883514
20
-32.414714
30
0
11
53.858093
21
-32.408536
31
0
39
0
210
0
220
0
230
1
0
LINE
5
10C
100
AcDbEntity
8
1
62
256
6
ByLayer
370
18
48
1
60
0
100
AcDbLine
10
45.218226
20
-28.672773
30
0
11
47.051306
21
-28.580567
31
0
39
0
210
0
220
0
230
1
0
LINE
5
10D
100
AcDbEntity
8
1
62
256
6
ByLayer
370
18
48
1
60
0
100
AcDbLine
10
43.608031
20
-31.999885
30
0
11
41.572595
21
-31.831688
31
0
39
0
210
0
220
0
230
1
0
LINE
5
10E
100
AcDbEntity
8
1
62
256
6
ByLayer
370
18
48
1
60
0
100
AcDbLine
10
51.766002
20
-41.178774
30
0
11
45.73623
21
-42.822404
31
0
39
0
210
0
220
0
230
1
0
LINE
5
10F
100
AcDbEntity
8
1
62
256
6
ByLayer
370
18
48
1
60
0
100
AcDbLine
10
34.679636
20
-37.923157
30
0
11
34.534941
21
-39.490156
31
0
39
0
210
0
220
0
230
1
0
LINE
5
110
100
AcDbEntity
8
1
62
256
6
ByLayer
370
18
48
1
60
0
100
AcDbLine
10
40.812488
20
-40.063391
30
0
11
40.355813
21
-39.838323
31
0
39
0
210
0
220
0
230
1
0
LINE
5
111
100
AcDbEntity
8
1
62
256
6
ByLayer
370
18
48
1
60
0
100
AcDbLine
10
53.10925
20
-40.518258
30
0
11
53.135684
21
-40.513471
31
0
39
0
210
0
220
0
230
1
0
LINE
5
112
100
AcDbEntity
8
1
62
256
6
ByLayer
370
18
48
1
60
0
100
AcDbLine
10
44.570915
20
-28.632113
30
0
11
35.84743
21
-27.911255
31
0
39
0
210
0
220
0
230
1
0
LINE
5
113
100
AcDbEntity
8
1
62
256
6
ByLayer
370
18
48
1
60
0
100
AcDbLine
10
33.638476
20
-37.745192
30
0
11
34.679636
21
-37.923157
31
0
39
0
210
0
220
0
230
1
0
LINE
5
114
100
AcDbEntity
8
1
62
256
6
ByLayer
370
18
48
1
60
0
100
AcDbLine
10
36.601855
20
-38.191635
30
0
11
36.100914
21
-37.944751
31
0
39
0
210
0
220
0
230
1
0
LINE
5
115
100
AcDbEntity
8
1
62
256
6
ByLayer
370
18
48
1
60
0
100
AcDbLine
10
33.638476
20
-37.745192
30
0
11
34.114687
21
-32.587981
31
0
39
0
210
0
220
0
230
1
0
LINE
5
116
100
AcDbEntity
8
1
62
256
6
ByLayer
370
18
48
1
60
0
100
AcDbLine
10
35.300543
20
-31.198947
30
0
11
35.155848
21
-32.765946
31
0
39
0
210
0
220
0
230
1
0
LINE
5
117
100
AcDbEntity
8
1
62
256
6
ByLayer
370
18
48
1
60
0
100
AcDbLine
10
40.812488
20
-40.063391
30
0
11
42.847924
21
-40.231587
31
0
39
0
210
0
220
0
230
1
0
LINE
5
118
100
AcDbEntity
8
1
62
256
6
ByLayer
370
18
48
1
60
0
100
AcDbLine
10
53.858093
20
-32.408536
30
0
11
52.889681
21
-31.960557
31
0
39
0
210
0
220
0
230
1
0
LINE
5
119
100
AcDbEntity
8
1
62
256
6
ByLayer
370
18
48
1
60
0
100
AcDbLine
10
30.005876
20
-38.276537
30
0
11
31.371064
21
-38.949356
31
0
39
0
210
0
220
0
230
1
0
LINE
5
11A
100
AcDbEntity
8
1
62
256
6
ByLayer
370
18
48
1
60
0
100
AcDbLine
10
35.300543
20
-31.198947
30
0
11
32.136665
21
-30.658148
31
0
39
0
210
0
220
0
230
1
0
MTEXT
5
1F7
100
AcDbEntity
8
SK6
62
256
6
ByLayer
370
18
48
1
60
0
100
AcDbMText
10
-7.625
20
40.685502
30
0
210
0
220
0
230
1
1
\W0.7385;C6-CSSNL-45056-12-4
40
3.5
41
0
44
1.084337
50
0
71
7
72
5
7
iso_b_vert
0
DIMENSION
5
217
100
AcDbEntity
8
SK2
62
256
6
ByLayer
370
13
48
1
60
0
100
AcDbDimension
2
DimnDraft3D2
10
-45.75
20
31.5
30
0
11
-45.75
21
-2.688158
31
0
70
32
71
5
72
1
41
1
210
0
220
0
230
1
3
Standard
100
AcDbAlignedDimension
13
-2
23
-31.5
33
0
14
-2
24
31.5
34
0
50
90
100
AcDbRotatedDimension
1001
ACAD
1000
DSTYLE
1002
{
1070
    74
1070
     0
1070
   279
1070
     0
1070
   172
1070
     1
1070
   173
1070
     1
1070
   340
1005
1F8
1070
    77
1070
     1
1070
    73
1070
     0
1070
   171
1070
     3
1070
   274
1070
     4
1070
   177
1070
     2
1070
   176
1070
     2
1070
   178
1070
     7
1070
    78
1070
     8
1070
    41
1041
3.175
1070
   147
1041
2.25
1070
    42
1041
2.0
1070
    44
1041
2.0
1070
   140
1041
4.5
1070
   343
1005
218
1070
   344
1005
218
1002
}
0
DIMENSION
5
22C
100
AcDbEntity
8
2
62
256
6
ByLayer
370
13
48
1
60
0
100
AcDbDimension
2
DimnDraft3D3
10
119.25
20
-36.677308
30
0
11
119.25
21
-23.620233
31
0
70
32
71
5
72
1
41
1
210
0
220
0
230
1
3
Standard
100
AcDbAlignedDimension
13
58
23
0
33
0
14
66.322692
24
-36.677308
34
0
50
90
100
AcDbRotatedDimension
1001
ACAD
1000
DSTYLE
1002
{
1070
    74
1070
     0
1070
   279
1070
     0
1070
   172
1070
     1
1070
   173
1070
     1
1070
   340
1005
1F8
1070
    77
1070
     1
1070
    73
1070
     0
1070
   171
1070
     3
1070
   274
1070
     4
1070
   177
1070
     2
1070
   176
1070
     2
1070
   178
1070
     7
1070
    78
1070
     8
1070
    41
1041
3.175
1070
   147
1041
2.25
1070
    42
1041
2.0
1070
    44
1041
2.0
1070
   140
1041
4.5
1070
   343
1005
218
1070
   344
1005
218
1002
}
0
DIMENSION
5
23A
100
AcDbEntity
8
2
62
256
6
ByLayer
370
13
48
1
60
0
100
AcDbDimension
2
DimnDraft3D4
10
129.25
20
-45
30
0
11
129.25
21
-28.018421
31
0
70
32
71
5
72
1
41
1
210
0
220
0
230
1
3
Standard
100
AcDbAlignedDimension
13
58
23
0
33
0
14
58
24
-45
34
0
50
90
100
AcDbRotatedDimension
1001
ACAD
1000
DSTYLE
1002
{
1070
    74
1070
     0
1070
   279
1070
     0
1070
   172
1070
     1
1070
   173
1070
     1
1070
   340
1005
1F8
1070
    77
1070
     1
1070
    73
1070
     0
1070
   171
1070
     3
1070
   274
1070
     4
1070
   177
1070
     2
1070
   176
1070
     2
1070
   178
1070
     7
1070
    78
1070
     8
1070
    41
1041
3.175
1070
   147
1041
2.25
1070
    42
1041
2.0
1070
    44
1041
2.0
1070
   140
1041
4.5
1070
   343
1005
218
1070
   344
1005
218
1002
}
0
DIMENSION
5
248
100
AcDbEntity
8
2
62
256
6
ByLayer
370
13
48
1
60
0
100
AcDbDimension
2
DimnDraft3D5
10
64.322692
20
-70.25
30
0
11
26.642925
21
-70.25
31
0
70
32
71
5
72
1
41
1
210
0
220
0
230
1
3
Standard
100
AcDbAlignedDimension
13
0
23
-33.5
33
0
14
64.322692
24
-38.677308
34
0
50
0
100
AcDbRotatedDimension
1001
ACAD
1000
DSTYLE
1002
{
1070
   279
1070
     0
1070
   172
1070
     1
1070
   173
1070
     1
1070
   340
1005
1F8
1070
    77
1070
     1
1070
    73
1070
     0
1070
   171
1070
     3
1070
   274
1070
     4
1070
   177
1070
     2
1070
   176
1070
     2
1070
   178
1070
     7
1070
    78
1070
     8
1070
    41
1041
3.175
1070
   147
1041
2.25
1070
    42
1041
2.0
1070
    44
1041
2.0
1070
   140
1041
4.5
1070
   343
1005
218
1070
   344
1005
218
1002
}
0
DIMENSION
5
256
100
AcDbEntity
8
2
62
256
6
ByLayer
370
13
48
1
60
0
100
AcDbDimension
2
DimnDraft3D6
10
64.322692
20
-36.348526
30
0
11
84.172308
21
11.243904
31
0
70
34
71
5
72
1
41
1
210
0
220
0
230
1
3
Standard
100
AcDb2LineAngularDimension
13
64.651474
23
-36.348526
33
0
14
64.322692
24
-36.677308
34
0
15
64.322692
25
-36.677308
35
0
16
82.450233
26
7.086446
36
0
40
0
0
ENDSEC
0
SECTION
2
OBJECTS
0
DICTIONARY
5
2c1
330
0
100
AcDbDictionary
280
0
281
1
3
ACAD_GROUP
350
2c2
3
ACAD_MLINESTYLE
350
2c3
0
DICTIONARY
5
2c2
330
0
100
AcDbDictionary
280
0
281
1
0
DICTIONARY
5
2c3
330
0
100
AcDbDictionary
280
0
281
1
3
Standard
350
18
0
MLINESTYLE
5
18
330
2c3
100
AcDbMlineStyle
2
Standard
70
0
3

62
256
51
90
52
90
71
2
49
-0.5
62
256
6
ByLayer
49
0.5
62
256
6
ByLayer
0
RASTERVARIABLES
5
2af
330

100
AcDbRasterVariables
90
0
70
1
71
1
72
1
0
ENDSEC
0
EOF
