0
SECTION
2
HEADER
9
$ACADVER
1
AC1015
9
$DWGCODEPAGE
3
ANSI_1252
9
$HANDSEED
5
2e1
9
$ANGBASE
50
0
9
$ANGDIR
70
0
9
$ATTMODE
70
1
9
$AUNITS
70
0
9
$AUPREC
70
0
9
$CECOLOR
62
256
9
$CELTSCALE
40
1
9
$CELTYPE
6
ByLayer
9
$CELWEIGHT
370
18
9
$CLAYER
8
0
9
$CMLJUST
70
0
9
$CMLSCALE
40
1
9
$CMLSTYLE
2
Standard
9
$DIMSTYLE
2
Standard
9
$TEXTSIZE
40
0.2
9
$TEXTSTYLE
7
Standard
9
$LUNITS
70
2
9
$LUPREC
70
4
9
$EXTNAMES
290
1
9
$INSUNITS
70
4
9
$LTSCALE
40
1
9
$LWDISPLAY
290
1
9
$PDMODE
70
0
9
$PDSIZE
40
0
9
$PLINEGEN
70
0
0
ENDSEC
0
SECTION
2
CLASSES
0
CLASS
1
RASTERVARIABLES
2
AcDbRasterVariables
3
ISM
90
0
280
0
281
0
0
ENDSEC
0
SECTION
2
TABLES
0
TABLE
2
VPORT
5
2d7
100
AcDbSymbolTable
0
VPORT
5
1
100
AcDbSymbolTableRecord
100
AcDbViewportTableRecord
2
*Active
70
0
10
0
20
0
11
1
21
1
12
-1
22
1
13
0
23
0
14
0.5
24
0.5
15
10
25
10
16
0
26
0
36
1
17
0
27
0
37
0
0
ENDTAB
0
TABLE
2
LTYPE
5
2d8
100
AcDbSymbolTable
0
LTYPE
5
14
100
AcDbSymbolTableRecord
100
AcDbLinetypeTableRecord
70
0
2
ByBlock
3

72
65
73
0
40
0
0
LTYPE
5
15
100
AcDbSymbolTableRecord
100
AcDbLinetypeTableRecord
70
0
2
ByLayer
3

72
65
73
0
40
0
0
LTYPE
5
16
100
AcDbSymbolTableRecord
100
AcDbLinetypeTableRecord
70
0
2
CONTINUOUS
3
Solid line
72
65
73
0
40
0
0
LTYPE
5
6A
100
AcDbSymbolTableRecord
100
AcDbLinetypeTableRecord
70
0
2
CENTER
3
____ _ ____ _ ____ _ ____
72
65
73
4
40
47.5
49
22
74
0
49
-8.5
74
0
49
8.5
74
0
49
-8.5
74
0
0
LTYPE
5
6B
100
AcDbSymbolTableRecord
100
AcDbLinetypeTableRecord
70
0
2
DASHED
3
__ __ __ __ __ __ __ __ __
72
65
73
2
40
25.72
49
12.86
74
0
49
-12.86
74
0
0
ENDTAB
0
TABLE
2
LAYER
5
2d9
100
AcDbSymbolTable
0
LAYER
5
10
100
AcDbSymbolTableRecord
100
AcDbLayerTableRecord
2
0
70
0
62
7
6
CONTINUOUS
290
1
370
-3
390
0
0
LAYER
5
6D
100
AcDbSymbolTableRecord
100
AcDbLayerTableRecord
2
2
70
0
62
7
6
CONTINUOUS
290
1
370
-3
390
0
0
LAYER
5
6F
100
AcDbSymbolTableRecord
100
AcDbLayerTableRecord
2
80
70
0
62
-6
6
CONTINUOUS
290
1
370
-3
390
0
0
LAYER
5
71
100
AcDbSymbolTableRecord
100
AcDbLayerTableRecord
2
81
70
0
62
-3
6
CONTINUOUS
290
1
370
-3
390
0
0
LAYER
5
73
100
AcDbSymbolTableRecord
100
AcDbLayerTableRecord
2
1
70
0
62
4
6
CONTINUOUS
290
1
370
-3
390
0
0
LAYER
5
7C
100
AcDbSymbolTableRecord
100
AcDbLayerTableRecord
2
4
70
0
62
-2
6
CENTER
290
1
370
-3
390
0
0
LAYER
5
2c3
100
AcDbSymbolTableRecord
100
AcDbLayerTableRecord
2
SK4
70
0
62
2
6
CENTER
290
1
370
-3
390
0
0
LAYER
5
2c4
100
AcDbSymbolTableRecord
100
AcDbLayerTableRecord
2
SK1
70
0
62
4
6
CONTINUOUS
290
1
370
-3
390
0
0
LAYER
5
2c5
100
AcDbSymbolTableRecord
100
AcDbLayerTableRecord
2
SK6
70
0
62
5
6
CONTINUOUS
290
1
370
-3
390
0
0
LAYER
5
2c6
100
AcDbSymbolTableRecord
100
AcDbLayerTableRecord
2
SK2
70
0
62
7
6
CONTINUOUS
290
1
370
-3
390
0
0
ENDTAB
0
TABLE
2
STYLE
5
2da
100
AcDbSymbolTable
0
STYLE
5
11
100
AcDbSymbolTableRecord
100
AcDbTextStyleTableRecord
2
Standard
3
txt
70
0
71
0
40
0
41
1
42
0
50
0
0
STYLE
5
20B
100
AcDbSymbolTableRecord
100
AcDbTextStyleTableRecord
2
iso_b_vert
3
simplex.shx
70
0
71
0
40
0
41
1
42
0
50
0
0
STYLE
5
20C
100
AcDbSymbolTableRecord
100
AcDbTextStyleTableRecord
2
DWGDirectTextStyle
3
simplex
70
0
71
0
40
0
41
1
42
0
50
0
0
ENDTAB
0
TABLE
2
DIMSTYLE
5
2db
100
AcDbSymbolTable
100
AcDbDimStyleTable
0
DIMSTYLE
105
27
100
AcDbSymbolTableRecord
100
AcDbDimStyleTableRecord
2
Standard
70
0
3
<>
41
0.18
42
0.0625
44
0.18
140
0.18
147
0.09
73
0
74
0
77
1
271
2
275
0
278
52
280
0
340
11
0
ENDTAB
0
TABLE
2
VIEW
5
2dc
100
AcDbSymbolTable
0
ENDTAB
0
TABLE
2
UCS
5
2dd
100
AcDbSymbolTable
0
ENDTAB
0
TABLE
2
APPID
5
2de
100
AcDbSymbolTable
0
APPID
5
12
100
AcDbSymbolTableRecord
100
AcDbRegAppTableRecord
2
ACAD
70
0
0
ENDTAB
0
TABLE
2
BLOCK_RECORD
5
2df
100
AcDbSymbolTable
0
BLOCK_RECORD
5
1F
100
AcDbSymbolTableRecord
100
AcDbBlockTableRecord
2
*Model_Space
340
0
70
0
0
BLOCK_RECORD
5
1B
100
AcDbSymbolTableRecord
100
AcDbBlockTableRecord
2
*Paper_Space
340
0
70
0
0
BLOCK_RECORD
5
23
100
AcDbSymbolTableRecord
100
AcDbBlockTableRecord
2
*Paper_Space0
340
0
70
0
0
BLOCK_RECORD
5
20E
100
AcDbSymbolTableRecord
100
AcDbBlockTableRecord
2
DimnDraft3D11
340
0
70
0
0
BLOCK_RECORD
5
21C
100
AcDbSymbolTableRecord
100
AcDbBlockTableRecord
2
DimnDraft3D2
340
0
70
0
0
BLOCK_RECORD
5
22B
100
AcDbSymbolTableRecord
100
AcDbBlockTableRecord
2
_CLOSED
340
0
70
0
0
BLOCK_RECORD
5
232
100
AcDbSymbolTableRecord
100
AcDbBlockTableRecord
2
DimnDraft3D3
340
0
70
0
0
BLOCK_RECORD
5
240
100
AcDbSymbolTableRecord
100
AcDbBlockTableRecord
2
DimnDraft3D4
340
0
70
0
0
BLOCK_RECORD
5
24E
100
AcDbSymbolTableRecord
100
AcDbBlockTableRecord
2
DimnDraft3D5
340
0
70
0
0
BLOCK_RECORD
5
25C
100
AcDbSymbolTableRecord
100
AcDbBlockTableRecord
2
DimnDraft3D6
340
0
70
0
0
ENDTAB
0
ENDSEC
0
SECTION
2
BLOCKS
0
BLOCK
5
20
100
AcDbEntity
8
0
100
AcDbBlockBegin
2
*Model_Space
70
0
10
0
20
0
30
0
3
*Model_Space
0
ENDBLK
5
21
100
AcDbEntity
8
0
100
AcDbBlockEnd
0
BLOCK
5
1C
100
AcDbEntity
8
0
100
AcDbBlockBegin
2
*Paper_Space
70
0
10
0
20
0
30
0
3
*Paper_Space
0
ENDBLK
5
1D
100
AcDbEntity
8
0
100
AcDbBlockEnd
0
BLOCK
5
24
100
AcDbEntity
8
0
100
AcDbBlockBegin
2
*Paper_Space0
70
0
10
0
20
0
30
0
3
*Paper_Space0
0
ENDBLK
5
25
100
AcDbEntity
8
0
100
AcDbBlockEnd
0
BLOCK
5
20F
100
AcDbEntity
8
0
100
AcDbBlockBegin
2
DimnDraft3D11
70
0
10
0
20
0
30
0
3
DimnDraft3D11
0
LINE
5
211
100
AcDbEntity
8
2
62
256
6
ByLayer
370
25
48
1
60
0
100
AcDbLine
10
54
20
-47
30
0
11
54
21
-62.25
31
0
39
0
210
0
220
0
230
1
0
LINE
5
212
100
AcDbEntity
8
2
62
256
6
ByLayer
370
25
48
1
60
0
100
AcDbLine
10
0
20
-33.5
30
0
11
0
21
-62.25
31
0
39
0
210
0
220
0
230
1
0
LINE
5
213
100
AcDbEntity
8
2
62
256
6
ByLayer
370
25
48
1
60
0
100
AcDbLine
10
54
20
-60.25
30
0
11
0
21
-60.25
31
0
39
0
210
0
220
0
230
1
0
LINE
5
214
100
AcDbEntity
8
2
62
256
6
ByLayer
370
25
48
1
60
0
100
AcDbLine
10
54
20
-60.25
30
0
11
50.825002
21
-60.667997
31
0
39
0
210
0
220
0
230
1
0
LINE
5
215
100
AcDbEntity
8
2
62
256
6
ByLayer
370
25
48
1
60
0
100
AcDbLine
10
54
20
-60.25
30
0
11
50.824998
21
-59.832003
31
0
39
0
210
0
220
0
230
1
0
LINE
5
216
100
AcDbEntity
8
2
62
256
6
ByLayer
370
25
48
1
60
0
100
AcDbLine
10
50.825002
20
-60.667997
30
0
11
50.824998
21
-59.832003
31
0
39
0
210
0
220
0
230
1
0
LINE
5
217
100
AcDbEntity
8
2
62
256
6
ByLayer
370
25
48
1
60
0
100
AcDbLine
10
0
20
-60.25
30
0
11
3.174998
21
-59.832003
31
0
39
0
210
0
220
0
230
1
0
LINE
5
218
100
AcDbEntity
8
2
62
256
6
ByLayer
370
25
48
1
60
0
100
AcDbLine
10
0
20
-60.25
30
0
11
3.175002
21
-60.667997
31
0
39
0
210
0
220
0
230
1
0
LINE
5
219
100
AcDbEntity
8
2
62
256
6
ByLayer
370
25
48
1
60
0
100
AcDbLine
10
3.174998
20
-59.832003
30
0
11
3.175002
21
-60.667997
31
0
39
0
210
0
220
0
230
1
0
MTEXT
5
21A
100
AcDbEntity
8
2
62
256
6
ByLayer
370
18
48
1
60
0
100
AcDbMText
10
22.606579
20
-59.125
30
0
210
0
220
0
230
1
1
\W0.7640;54.0
40
4.5
41
0
44
1.084337
50
0
71
7
72
5
7
iso_b_vert
0
ENDBLK
5
210
100
AcDbEntity
8
0
100
AcDbBlockEnd
0
BLOCK
5
228
100
AcDbEntity
8
0
100
AcDbBlockBegin
2
DimnDraft3D2
70
0
10
0
20
0
30
0
3
DimnDraft3D2
0
MTEXT
5
21D
100
AcDbEntity
8
SK2
62
256
6
ByLayer
370
18
48
1
60
0
100
AcDbMText
10
-46.875
20
-1.563158
30
0
210
0
220
0
230
1
1
\W0.6740;63
40
4.5
41
0
44
1.084337
50
90
71
7
72
5
7
iso_b_vert
0
LINE
5
21F
100
AcDbEntity
8
SK2
62
256
6
ByLayer
370
13
48
1
60
0
100
AcDbLine
10
-2
20
-31.5
30
0
11
-47.75
21
-31.5
31
0
39
0
210
0
220
0
230
1
0
LINE
5
220
100
AcDbEntity
8
SK2
62
256
6
ByLayer
370
13
48
1
60
0
100
AcDbLine
10
-2
20
31.5
30
0
11
-47.75
21
31.5
31
0
39
0
210
0
220
0
230
1
0
LINE
5
221
100
AcDbEntity
8
SK2
62
256
6
ByLayer
370
13
48
1
60
0
100
AcDbLine
10
-45.75
20
-31.5
30
0
11
-45.75
21
31.5
31
0
39
0
210
0
220
0
230
1
0
LINE
5
222
100
AcDbEntity
8
SK2
62
256
6
ByLayer
370
13
48
1
60
0
100
AcDbLine
10
-45.75
20
-31.5
30
0
11
-46.167997
21
-28.325002
31
0
39
0
210
0
220
0
230
1
0
LINE
5
223
100
AcDbEntity
8
SK2
62
256
6
ByLayer
370
13
48
1
60
0
100
AcDbLine
10
-45.75
20
-31.5
30
0
11
-45.332003
21
-28.324998
31
0
39
0
210
0
220
0
230
1
0
LINE
5
224
100
AcDbEntity
8
SK2
62
256
6
ByLayer
370
13
48
1
60
0
100
AcDbLine
10
-46.167997
20
-28.325002
30
0
11
-45.332003
21
-28.324998
31
0
39
0
210
0
220
0
230
1
0
LINE
5
225
100
AcDbEntity
8
SK2
62
256
6
ByLayer
370
13
48
1
60
0
100
AcDbLine
10
-45.75
20
31.5
30
0
11
-45.332003
21
28.325002
31
0
39
0
210
0
220
0
230
1
0
LINE
5
226
100
AcDbEntity
8
SK2
62
256
6
ByLayer
370
13
48
1
60
0
100
AcDbLine
10
-45.75
20
31.5
30
0
11
-46.167997
21
28.324998
31
0
39
0
210
0
220
0
230
1
0
LINE
5
227
100
AcDbEntity
8
SK2
62
256
6
ByLayer
370
13
48
1
60
0
100
AcDbLine
10
-45.332003
20
28.325002
30
0
11
-46.167997
21
28.324998
31
0
39
0
210
0
220
0
230
1
0
ENDBLK
5
229
100
AcDbEntity
8
0
100
AcDbBlockEnd
0
BLOCK
5
22C
100
AcDbEntity
8
0
100
AcDbBlockBegin
2
_CLOSED
70
0
10
0
20
0
30
0
3
_CLOSED
0
LINE
5
22E
100
AcDbEntity
8
0
62
256
6
ByLayer
370
-2
48
1
60
0
100
AcDbLine
10
-1
20
0.166667
30
0
11
0
21
0
31
0
39
0
210
0
220
0
230
1
0
LINE
5
22F
100
AcDbEntity
8
0
62
256
6
ByLayer
370
-2
48
1
60
0
100
AcDbLine
10
0
20
0
30
0
11
-1
21
-0.166667
31
0
39
0
210
0
220
0
230
1
0
LINE
5
230
100
AcDbEntity
8
0
62
256
6
ByLayer
370
-2
48
1
60
0
100
AcDbLine
10
-1
20
0.166667
30
0
11
-1
21
-0.166667
31
0
39
0
210
0
220
0
230
1
0
LINE
5
231
100
AcDbEntity
8
0
62
256
6
ByLayer
370
-2
48
1
60
0
100
AcDbLine
10
0
20
0
30
0
11
-1
21
0
31
0
39
0
210
0
220
0
230
1
0
ENDBLK
5
22D
100
AcDbEntity
8
0
100
AcDbBlockEnd
0
BLOCK
5
23D
100
AcDbEntity
8
0
100
AcDbBlockBegin
2
DimnDraft3D3
70
0
10
0
20
0
30
0
3
DimnDraft3D3
0
MTEXT
5
233
100
AcDbEntity
8
2
62
256
6
ByLayer
370
18
48
1
60
0
100
AcDbMText
10
117.625
20
-21.773934
30
0
210
0
220
0
230
1
1
\W0.7640;34.8
40
4.5
41
0
44
1.084337
50
90
71
7
72
5
7
iso_b_vert
0
LINE
5
234
100
AcDbEntity
8
2
62
256
6
ByLayer
370
13
48
1
60
0
100
AcDbLine
10
56
20
0
30
0
11
120.75
21
0
31
0
39
0
210
0
220
0
230
1
0
LINE
5
235
100
AcDbEntity
8
2
62
256
6
ByLayer
370
13
48
1
60
0
100
AcDbLine
10
66.238974
20
-34.761026
30
0
11
120.75
21
-34.761026
31
0
39
0
210
0
220
0
230
1
0
LINE
5
236
100
AcDbEntity
8
2
62
256
6
ByLayer
370
13
48
1
60
0
100
AcDbLine
10
118.75
20
0
30
0
11
118.75
21
-34.761026
31
0
39
0
210
0
220
0
230
1
0
LINE
5
237
100
AcDbEntity
8
2
62
256
6
ByLayer
370
13
48
1
60
0
100
AcDbLine
10
118.75
20
0
30
0
11
119.167997
21
-3.174998
31
0
39
0
210
0
220
0
230
1
0
LINE
5
238
100
AcDbEntity
8
2
62
256
6
ByLayer
370
13
48
1
60
0
100
AcDbLine
10
118.75
20
0
30
0
11
118.332003
21
-3.175002
31
0
39
0
210
0
220
0
230
1
0
LINE
5
239
100
AcDbEntity
8
2
62
256
6
ByLayer
370
13
48
1
60
0
100
AcDbLine
10
119.167997
20
-3.174998
30
0
11
118.332003
21
-3.175002
31
0
39
0
210
0
220
0
230
1
0
LINE
5
23A
100
AcDbEntity
8
2
62
256
6
ByLayer
370
13
48
1
60
0
100
AcDbLine
10
118.75
20
-34.761026
30
0
11
118.332003
21
-31.586027
31
0
39
0
210
0
220
0
230
1
0
LINE
5
23B
100
AcDbEntity
8
2
62
256
6
ByLayer
370
13
48
1
60
0
100
AcDbLine
10
118.75
20
-34.761026
30
0
11
119.167997
21
-31.586024
31
0
39
0
210
0
220
0
230
1
0
LINE
5
23C
100
AcDbEntity
8
2
62
256
6
ByLayer
370
13
48
1
60
0
100
AcDbLine
10
118.332003
20
-31.586027
30
0
11
119.167997
21
-31.586024
31
0
39
0
210
0
220
0
230
1
0
ENDBLK
5
23E
100
AcDbEntity
8
0
100
AcDbBlockEnd
0
BLOCK
5
24B
100
AcDbEntity
8
0
100
AcDbBlockBegin
2
DimnDraft3D4
70
0
10
0
20
0
30
0
3
DimnDraft3D4
0
MTEXT
5
241
100
AcDbEntity
8
2
62
256
6
ByLayer
370
18
48
1
60
0
100
AcDbMText
10
127.625
20
-26.893421
30
0
210
0
220
0
230
1
1
\W0.7640;45.0
40
4.5
41
0
44
1.084337
50
90
71
7
72
5
7
iso_b_vert
0
LINE
5
242
100
AcDbEntity
8
2
62
256
6
ByLayer
370
13
48
1
60
0
100
AcDbLine
10
56
20
0
30
0
11
130.75
21
0
31
0
39
0
210
0
220
0
230
1
0
LINE
5
243
100
AcDbEntity
8
2
62
256
6
ByLayer
370
13
48
1
60
0
100
AcDbLine
10
56
20
-45
30
0
11
130.75
21
-45
31
0
39
0
210
0
220
0
230
1
0
LINE
5
244
100
AcDbEntity
8
2
62
256
6
ByLayer
370
13
48
1
60
0
100
AcDbLine
10
128.75
20
0
30
0
11
128.75
21
-45
31
0
39
0
210
0
220
0
230
1
0
LINE
5
245
100
AcDbEntity
8
2
62
256
6
ByLayer
370
13
48
1
60
0
100
AcDbLine
10
128.75
20
0
30
0
11
129.167997
21
-3.174998
31
0
39
0
210
0
220
0
230
1
0
LINE
5
246
100
AcDbEntity
8
2
62
256
6
ByLayer
370
13
48
1
60
0
100
AcDbLine
10
128.75
20
0
30
0
11
128.332003
21
-3.175002
31
0
39
0
210
0
220
0
230
1
0
LINE
5
247
100
AcDbEntity
8
2
62
256
6
ByLayer
370
13
48
1
60
0
100
AcDbLine
10
129.167997
20
-3.174998
30
0
11
128.332003
21
-3.175002
31
0
39
0
210
0
220
0
230
1
0
LINE
5
248
100
AcDbEntity
8
2
62
256
6
ByLayer
370
13
48
1
60
0
100
AcDbLine
10
128.75
20
-45
30
0
11
128.332003
21
-41.825002
31
0
39
0
210
0
220
0
230
1
0
LINE
5
249
100
AcDbEntity
8
2
62
256
6
ByLayer
370
13
48
1
60
0
100
AcDbLine
10
128.75
20
-45
30
0
11
129.167997
21
-41.824998
31
0
39
0
210
0
220
0
230
1
0
LINE
5
24A
100
AcDbEntity
8
2
62
256
6
ByLayer
370
13
48
1
60
0
100
AcDbLine
10
128.332003
20
-41.825002
30
0
11
129.167997
21
-41.824998
31
0
39
0
210
0
220
0
230
1
0
ENDBLK
5
24C
100
AcDbEntity
8
0
100
AcDbBlockEnd
0
BLOCK
5
259
100
AcDbEntity
8
0
100
AcDbBlockBegin
2
DimnDraft3D5
70
0
10
0
20
0
30
0
3
DimnDraft3D5
0
MTEXT
5
24F
100
AcDbEntity
8
2
62
256
6
ByLayer
370
18
48
1
60
0
100
AcDbMText
10
27.726066
20
-69.125
30
0
210
0
220
0
230
1
1
\W0.7640;64.2
40
4.5
41
0
44
1.084337
50
0
71
7
72
5
7
iso_b_vert
0
LINE
5
250
100
AcDbEntity
8
2
62
256
6
ByLayer
370
13
48
1
60
0
100
AcDbLine
10
0
20
-33.5
30
0
11
0
21
-72.25
31
0
39
0
210
0
220
0
230
1
0
LINE
5
251
100
AcDbEntity
8
2
62
256
6
ByLayer
370
13
48
1
60
0
100
AcDbLine
10
64.238974
20
-36.761026
30
0
11
64.238974
21
-72.25
31
0
39
0
210
0
220
0
230
1
0
LINE
5
252
100
AcDbEntity
8
2
62
256
6
ByLayer
370
13
48
1
60
0
100
AcDbLine
10
0
20
-70.25
30
0
11
64.238974
21
-70.25
31
0
39
0
210
0
220
0
230
1
0
LINE
5
253
100
AcDbEntity
8
2
62
256
6
ByLayer
370
13
48
1
60
0
100
AcDbLine
10
0
20
-70.25
30
0
11
3.174998
21
-69.832003
31
0
39
0
210
0
220
0
230
1
0
LINE
5
254
100
AcDbEntity
8
2
62
256
6
ByLayer
370
13
48
1
60
0
100
AcDbLine
10
0
20
-70.25
30
0
11
3.175002
21
-70.667997
31
0
39
0
210
0
220
0
230
1
0
LINE
5
255
100
AcDbEntity
8
2
62
256
6
ByLayer
370
13
48
1
60
0
100
AcDbLine
10
3.174998
20
-69.832003
30
0
11
3.175002
21
-70.667997
31
0
39
0
210
0
220
0
230
1
0
LINE
5
256
100
AcDbEntity
8
2
62
256
6
ByLayer
370
13
48
1
60
0
100
AcDbLine
10
64.238974
20
-70.25
30
0
11
61.063976
21
-70.667997
31
0
39
0
210
0
220
0
230
1
0
LINE
5
257
100
AcDbEntity
8
2
62
256
6
ByLayer
370
13
48
1
60
0
100
AcDbLine
10
64.238974
20
-70.25
30
0
11
61.063973
21
-69.832003
31
0
39
0
210
0
220
0
230
1
0
LINE
5
258
100
AcDbEntity
8
2
62
256
6
ByLayer
370
13
48
1
60
0
100
AcDbLine
10
61.063976
20
-70.667997
30
0
11
61.063973
21
-69.832003
31
0
39
0
210
0
220
0
230
1
0
ENDBLK
5
25A
100
AcDbEntity
8
0
100
AcDbBlockEnd
0
BLOCK
5
267
100
AcDbEntity
8
0
100
AcDbBlockBegin
2
DimnDraft3D6
70
0
10
0
20
0
30
0
3
DimnDraft3D6
0
MTEXT
5
25D
100
AcDbEntity
8
2
62
256
6
ByLayer
370
18
48
1
60
0
100
AcDbMText
10
78.844258
20
8.746068
30
0
210
0
220
0
230
1
1
\W0.7785;45%%d
40
4.5
41
0
44
1.084337
50
337.500000000001
71
7
72
5
7
iso_b_vert
0
LINE
5
25E
100
AcDbEntity
8
2
62
256
6
ByLayer
370
13
48
1
60
0
100
AcDbLine
10
66.146361
20
-32.853639
30
0
11
97.232233
21
-1.767767
31
0
39
0
210
0
220
0
230
1
0
LINE
5
25F
100
AcDbEntity
8
2
62
256
6
ByLayer
370
13
48
1
60
0
100
AcDbLine
10
64.238974
20
-32.267853
30
0
11
64.238974
21
11.898488
31
0
39
0
210
0
220
0
230
1
0
ARC
5
260
100
AcDbEntity
8
2
62
256
6
ByLayer
370
13
48
1
60
0
100
AcDbCircle
39
0
10
64.238974
20
-34.761026
30
0
40
44.6595142613883
210
0
220
0
230
1
100
AcDbArc
50
45
51
90
0
LINE
5
261
100
AcDbEntity
8
2
62
256
6
ByLayer
370
13
48
1
60
0
100
AcDbLine
10
95.818019
20
-3.181981
30
0
11
93.243157
21
-1.277928
31
0
39
0
210
0
220
0
230
1
0
LINE
5
262
100
AcDbEntity
8
2
62
256
6
ByLayer
370
13
48
1
60
0
100
AcDbLine
10
95.818019
20
-3.181981
30
0
11
93.823696
21
-0.676381
31
0
39
0
210
0
220
0
230
1
0
LINE
5
263
100
AcDbEntity
8
2
62
256
6
ByLayer
370
13
48
1
60
0
100
AcDbLine
10
93.243157
20
-1.277928
30
0
11
93.823696
21
-0.676381
31
0
39
0
210
0
220
0
230
1
0
LINE
5
264
100
AcDbEntity
8
2
62
256
6
ByLayer
370
13
48
1
60
0
100
AcDbLine
10
64.238974
20
9.898488
30
0
11
67.420897
21
10.260015
31
0
39
0
210
0
220
0
230
1
0
LINE
5
265
100
AcDbEntity
8
2
62
256
6
ByLayer
370
13
48
1
60
0
100
AcDbLine
10
64.238974
20
9.898488
30
0
11
67.406049
21
9.424154
31
0
39
0
210
0
220
0
230
1
0
LINE
5
266
100
AcDbEntity
8
2
62
256
6
ByLayer
370
13
48
1
60
0
100
AcDbLine
10
67.420897
20
10.260015
30
0
11
67.406049
21
9.424154
31
0
39
0
210
0
220
0
230
1
0
ENDBLK
5
268
100
AcDbEntity
8
0
100
AcDbBlockEnd
0
ENDSEC
0
SECTION
2
ENTITIES
0
ARC
5
10F
100
AcDbEntity
8
SK1
62
256
6
ByLayer
370
18
48
1
60
0
100
AcDbCircle
39
0
10
0.6
20
-23.45
30
0
40
0.999999999999999
210
0
220
0
230
-1
100
AcDbArc
50
113.578178
51
126.869898
0
ARC
5
110
100
AcDbEntity
8
SK1
62
256
6
ByLayer
370
18
48
1
60
0
100
AcDbCircle
39
0
10
0.6
20
23.45
30
0
40
0.999999999999999
210
0
220
0
230
-1
100
AcDbArc
50
233.130102
51
246.421822
0
ARC
5
111
100
AcDbEntity
8
1
62
256
6
ByLayer
370
18
48
1
60
0
100
AcDbCircle
39
0
10
-34.2
20
9.704151
30
0
40
10.2
210
0
220
0
230
-1
100
AcDbArc
50
315
51
340.633828
0
ARC
5
112
100
AcDbEntity
8
1
62
256
6
ByLayer
370
18
48
1
60
0
100
AcDbCircle
39
0
10
-34.2
20
9.704151
30
0
40
10.2
210
0
220
0
230
-1
100
AcDbArc
50
342.603985
51
0
0
ELLIPSE
5
113
100
AcDbEntity
8
1
62
256
6
ByLayer
370
18
48
1
60
0
100
AcDbEllipse
10
28.666217
20
0
30
0
11
-12.8576879895661
21
-29.9569150786651
31
0
210
0
220
0
230
1
40
0.757386
41
0.194928893496209
42
0.270834648786335
0
ELLIPSE
5
114
100
AcDbEntity
8
1
62
256
6
ByLayer
370
18
48
1
60
0
100
AcDbEllipse
10
12
20
19.981782
30
0
11
-1.99999999999999
21
2.02127811016472E-15
31
0
210
0
220
0
230
1
40
0.681998
41
-1.57079637267776
42
-0.241510339410133
0
ELLIPSE
5
115
100
AcDbEntity
8
1
62
256
6
ByLayer
370
18
48
1
60
0
100
AcDbEllipse
10
12
20
19.981782
30
0
11
-1.99999999999999
21
2.02127811016472E-15
31
0
210
0
220
0
230
1
40
0.681998
41
-2.89998444442311
42
-1.57079637267779
0
ELLIPSE
5
116
100
AcDbEntity
8
1
62
256
6
ByLayer
370
18
48
1
60
0
100
AcDbEllipse
10
12
20
19.981782
30
0
11
-1.64999999999999
21
1.66755444088589E-15
31
0
210
0
220
0
230
1
40
0.681998
41
-1.57079606964746
42
0
0
ELLIPSE
5
117
100
AcDbEntity
8
1
62
256
6
ByLayer
370
18
48
1
60
0
100
AcDbEllipse
10
12
20
19.981782
30
0
11
-1.64999999999999
21
1.66755444088589E-15
31
0
210
0
220
0
230
1
40
0.681998
41
0
42
0.53927364821774
0
ELLIPSE
5
118
100
AcDbEntity
8
1
62
256
6
ByLayer
370
18
48
1
60
0
100
AcDbEllipse
10
12
20
19.981782
30
0
11
-1.64999999999999
21
1.66755444088589E-15
31
0
210
0
220
0
230
1
40
0.681998
41
2.60222080710129
42
-1.57079606964749
0
ELLIPSE
5
119
100
AcDbEntity
8
1
62
256
6
ByLayer
370
18
48
1
60
0
100
AcDbEllipse
10
23.896286
20
14.104922
30
0
11
-0.490600122078583
21
-31.6020500822263
31
0
210
0
220
0
230
1
40
0.125618
41
-1.27693373229594
42
-1.27202500611738
0
ELLIPSE
5
11A
100
AcDbEntity
8
1
62
256
6
ByLayer
370
18
48
1
60
0
100
AcDbEllipse
10
53.722168
20
-34.816546
30
0
11
2.63043722601393
21
2.63043722601398
31
0
210
0
220
0
230
1
40
0.990268
41
-2.42282043122834
42
-2.0682151636133
0
ELLIPSE
5
11B
100
AcDbEntity
8
1
62
256
6
ByLayer
370
18
48
1
60
0
100
AcDbEllipse
10
53.722168
20
-34.816546
30
0
11
3.87594587052671
21
3.87594587052679
31
0
210
0
220
0
230
1
40
0.990268
41
-2.93431756464373
42
-2.89307917051998
0
ELLIPSE
5
11C
100
AcDbEntity
8
1
62
256
6
ByLayer
370
18
48
1
60
0
100
AcDbEllipse
10
53.421524
20
-34.515903
30
0
11
-4.4547727214752
21
-4.45477272147529
31
0
210
0
220
0
230
1
40
0.990268
41
-2.00712863979349
42
-1.95606010954834
0
ELLIPSE
5
11D
100
AcDbEntity
8
1
62
256
6
ByLayer
370
18
48
1
60
0
100
AcDbEllipse
10
53.421524
20
-34.515903
30
0
11
-4.4547727214752
21
-4.45477272147529
31
0
210
0
220
0
230
1
40
0.990268
41
0.225703776739192
42
0.26179938779913
0
ELLIPSE
5
11E
100
AcDbEntity
8
1
62
256
6
ByLayer
370
18
48
1
60
0
100
AcDbEllipse
10
52.392194
20
-24.168136
30
0
11
1.12253201513362
21
1.12253201513365
31
0
210
0
220
0
230
1
40
0.990268
41
0
42
0.977526261728177
0
ELLIPSE
5
11F
100
AcDbEntity
8
1
62
256
6
ByLayer
370
18
48
1
60
0
100
AcDbEllipse
10
9.579961
20
19.076175
30
0
11
-1.59204850849114
21
-1.5183482955538
31
0
210
0
220
0
230
1
40
0.173524
41
2.02407179004954
42
2.65134042406577
0
ELLIPSE
5
120
100
AcDbEntity
8
1
62
256
6
ByLayer
370
18
48
1
60
0
100
AcDbEllipse
10
22.969823
20
5.036374
30
0
11
1.59204850849113
21
1.51834829555381
31
0
210
0
220
0
230
1
40
0.173524
41
-3.14158864121183
42
-1.90159006916841E-06
0
ELLIPSE
5
121
100
AcDbEntity
8
1
62
256
6
ByLayer
370
18
48
1
60
0
100
AcDbEllipse
10
12
20
16.538669
30
0
11
-1.03309131658423
21
3.72845712902327
31
0
210
0
220
0
230
1
40
0.359894
41
-0.149923684760592
42
-0.101745635953074
0
ELLIPSE
5
122
100
AcDbEntity
8
1
62
256
6
ByLayer
370
18
48
1
60
0
100
AcDbEllipse
10
23.139745
20
4.858203
30
0
11
-1.41113390525352
21
-1.34580871651361
31
0
210
0
220
0
230
1
40
0.173524
41
0.177161797619204
42
2.96439946571772
0
ELLIPSE
5
123
100
AcDbEntity
8
1
62
256
6
ByLayer
370
18
48
1
60
0
100
AcDbEllipse
10
35.301558
20
-33.674931
30
0
11
-0.318198051533943
21
-0.31819805153395
31
0
210
0
220
0
230
1
40
0.990268
41
0.418065582095434
42
0.543919613210347
0
ELLIPSE
5
124
100
AcDbEntity
8
1
62
256
6
ByLayer
370
18
48
1
60
0
100
AcDbEllipse
10
36.684476
20
-33.712471
30
0
11
0.989949493661157
21
0.989949493661176
31
0
210
0
220
0
230
1
40
0.990268
41
-3.0372896732078
42
-0.0426649593703895
0
ELLIPSE
5
125
100
AcDbEntity
8
1
62
256
6
ByLayer
370
18
48
1
60
0
100
AcDbEllipse
10
36.768125
20
-33.79612
30
0
11
0.989949493661157
21
0.989949493661176
31
0
210
0
220
0
230
1
40
0.990268
41
-3.09567321519195
42
-2.5350621119672
0
ELLIPSE
5
126
100
AcDbEntity
8
1
62
256
6
ByLayer
370
18
48
1
60
0
100
AcDbEllipse
10
36.768125
20
-33.79612
30
0
11
0.989949493661157
21
0.989949493661176
31
0
210
0
220
0
230
1
40
0.990268
41
2.14472874213731
42
2.70092564401581
0
ELLIPSE
5
127
100
AcDbEntity
8
1
62
256
6
ByLayer
370
18
48
1
60
0
100
AcDbEllipse
10
36.768125
20
-33.79612
30
0
11
0.989949493661157
21
0.989949493661176
31
0
210
0
220
0
230
1
40
0.990268
41
0.836388479227073
42
1.40547817548096
0
ELLIPSE
5
128
100
AcDbEntity
8
1
62
256
6
ByLayer
370
18
48
1
60
0
100
AcDbEllipse
10
36.768125
20
-33.79612
30
0
11
0.989949493661157
21
0.989949493661176
31
0
210
0
220
0
230
1
40
0.990268
41
-0.257464691223762
42
0.251347464596527
0
ELLIPSE
5
129
100
AcDbEntity
8
1
62
256
6
ByLayer
370
18
48
1
60
0
100
AcDbEllipse
10
35.070994
20
-34.593984
30
0
11
0.35355339059327
21
0.353553390593277
31
0
210
0
220
0
230
1
40
0.990268
41
8.30718773995725E-06
42
0.543919613210338
0
ELLIPSE
5
12A
100
AcDbEntity
8
1
62
256
6
ByLayer
370
18
48
1
60
0
100
AcDbEllipse
10
37.618786
20
-32.585543
30
0
11
-0.318198051533943
21
-0.31819805153395
31
0
210
0
220
0
230
1
40
0.990268
41
1.89954133958166
42
2.72355133798031
0
ELLIPSE
5
12B
100
AcDbEntity
8
1
62
256
6
ByLayer
370
18
48
1
60
0
100
AcDbEllipse
10
35.917463
20
-35.006696
30
0
11
-0.318198051533943
21
-0.31819805153395
31
0
210
0
220
0
230
1
40
0.990268
41
0.418052735913691
42
1.59111716440695
0
ELLIPSE
5
12C
100
AcDbEntity
8
1
62
256
6
ByLayer
370
18
48
1
60
0
100
AcDbEllipse
10
38.465255
20
-32.998255
30
0
11
0.35355339059327
21
0.353553390593277
31
0
210
0
220
0
230
1
40
0.990268
41
3.05153785224868
42
-3.14158333400507
0
ELLIPSE
5
12D
100
AcDbEntity
8
1
62
256
6
ByLayer
370
18
48
1
60
0
100
AcDbEllipse
10
38.234691
20
-33.917308
30
0
11
-0.318198051533943
21
-0.31819805153395
31
0
210
0
220
0
230
1
40
0.990268
41
0.852343788385098
42
2.723475218184
0
ELLIPSE
5
12E
100
AcDbEntity
8
1
62
256
6
ByLayer
370
18
48
1
60
0
100
AcDbEllipse
10
36.596189
20
-35.658123
30
0
11
0.35355339059327
21
0.353553390593277
31
0
210
0
220
0
230
1
40
0.990268
41
4.64060095368564E-06
42
0.439120651739931
0
ELLIPSE
5
12F
100
AcDbEntity
8
1
62
256
6
ByLayer
370
18
48
1
60
0
100
AcDbEllipse
10
37.384029
20
-35.127885
30
0
11
-0.318198051533943
21
-0.31819805153395
31
0
210
0
220
0
230
1
40
0.990268
41
0.283641293870371
42
2.63831471560351
0
ELLIPSE
5
130
100
AcDbEntity
8
1
62
256
6
ByLayer
370
18
48
1
60
0
100
AcDbEllipse
10
36.650032
20
-33.678028
30
0
11
3.5355339059327
21
3.53553390593277
31
0
210
0
220
0
230
1
40
0.990268
41
4.11182328519983E-05
42
0.579075888748331
0
ELLIPSE
5
131
100
AcDbEntity
8
1
62
256
6
ByLayer
370
18
48
1
60
0
100
AcDbEllipse
10
52.828914
20
-24.04359
30
0
11
-0.841899011350224
21
-0.841899011350241
31
0
210
0
220
0
230
1
40
0.990268
41
3.14159265358978
42
-1.99552469687238
0
ELLIPSE
5
132
100
AcDbEntity
8
1
62
256
6
ByLayer
370
18
48
1
60
0
100
AcDbEllipse
10
29.487727
20
-39.093682
30
0
11
1.95985733071549
21
2.27133424295958
31
0
210
0
220
0
230
1
40
0.988257
41
0.250976749617688
42
0.625434656542336
0
ELLIPSE
5
133
100
AcDbEntity
8
1
62
256
6
ByLayer
370
18
48
1
60
0
100
AcDbEllipse
10
35.49249
20
-33.585157
30
0
11
3.36442175106159
21
3.89912378374727
31
0
210
0
220
0
230
1
40
0.988257
41
-2.89034876093077
42
-2.51615799704746
0
ELLIPSE
5
134
100
AcDbEntity
8
1
62
256
6
ByLayer
370
18
48
1
60
0
100
AcDbEllipse
10
37.65852
20
-33.760695
30
0
11
-3.36442175106159
21
-3.89912378374728
31
0
210
0
220
0
230
1
40
0.988257
41
0.625434656542337
42
-2.91425675545284
0
ELLIPSE
5
135
100
AcDbEntity
8
1
62
256
6
ByLayer
370
18
48
1
60
0
100
AcDbEllipse
10
30.347481
20
-35.634333
30
0
11
7.96611065949286
21
-0.735582055731562
31
0
210
0
220
0
230
1
40
0.089459
41
-2.19202602733141
42
-1.58644860420521
0
ELLIPSE
5
136
100
AcDbEntity
8
1
62
256
6
ByLayer
370
18
48
1
60
0
100
AcDbEllipse
10
25.370144
20
-23.351853
30
0
11
6.97034682705625
21
-0.643634298765117
31
0
210
0
220
0
230
1
40
0.089459
41
0.770472553435584
42
0.923481470764369
0
ELLIPSE
5
137
100
AcDbEntity
8
1
62
256
6
ByLayer
370
18
48
1
60
0
100
AcDbEllipse
10
26.174379
20
-23.251296
30
0
11
4.97881916218304
21
-0.459738784832227
31
0
210
0
220
0
230
1
40
0.089459
41
0.814831874403096
42
1.51777169360711
0
ELLIPSE
5
138
100
AcDbEntity
8
1
62
256
6
ByLayer
370
18
48
1
60
0
100
AcDbEllipse
10
31.741602
20
-29.260898
30
0
11
-4.80052760429736
21
5.3561432563195
31
0
210
0
220
0
230
1
40
0.381896
41
-0.383726542449308
42
0.188376997164679
0
ELLIPSE
5
139
100
AcDbEntity
8
1
62
256
6
ByLayer
370
18
48
1
60
0
100
AcDbEllipse
10
30.794674
20
-39.515814
30
0
11
-5.71124908521048
21
-1.14771932428015
31
0
210
0
220
0
230
1
40
0.222786
41
0.085668741246142
42
0.657772280858561
0
ELLIPSE
5
13A
100
AcDbEntity
8
1
62
256
6
ByLayer
370
18
48
1
60
0
100
AcDbEllipse
10
30.896956
20
-29.683705
30
0
11
7.96611065949286
21
-0.735582055731562
31
0
210
0
220
0
230
1
40
0.089459
41
-2.19202602733141
42
-1.58644860420521
0
ELLIPSE
5
13B
100
AcDbEntity
8
1
62
256
6
ByLayer
370
18
48
1
60
0
100
AcDbEllipse
10
51.469521
20
-30.341203
30
0
11
-1.84411540793975
21
1.28392210151146
31
0
210
0
220
0
230
1
40
0.38311
41
-1.24949859033278
42
-1.16631066144391
0
ELLIPSE
5
13C
100
AcDbEntity
8
1
62
256
6
ByLayer
370
18
48
1
60
0
100
AcDbEllipse
10
26.12638
20
-26.493493
30
0
11
-3.38172508248381
21
-1.54169485533207
31
0
210
0
220
0
230
1
40
0.988829
41
-1.87222675614763
42
-1.70366098573261
0
ELLIPSE
5
13D
100
AcDbEntity
8
1
62
256
6
ByLayer
370
18
48
1
60
0
100
AcDbEllipse
10
25.564593
20
-36.938221
30
0
11
-3.3817248631111
21
-1.54169528017822
31
0
210
0
220
0
230
1
40
0.988829
41
-0.514989871526376
42
-0.440330816138042
0
ELLIPSE
5
13E
100
AcDbEntity
8
1
62
256
6
ByLayer
370
18
48
1
60
0
100
AcDbEllipse
10
50.686785
20
-38.817975
30
0
11
-2.06770360140548
21
-0.805693639533291
31
0
210
0
220
0
230
1
40
0.247482
41
1.2572492642533
42
1.34043719103194
0
ELLIPSE
5
13F
100
AcDbEntity
8
1
62
256
6
ByLayer
370
18
48
1
60
0
100
AcDbEllipse
10
26.511521
20
-26.683305
30
0
11
-3.38172541311287
21
-1.54169420608159
31
0
210
0
220
0
230
1
40
0.988829
41
-0.589648601976955
42
-0.514989547218819
0
ELLIPSE
5
140
100
AcDbEntity
8
1
62
256
6
ByLayer
370
18
48
1
60
0
100
AcDbEllipse
10
37.195927
20
-32.189983
30
0
11
0.35355339059327
21
0.353553390593277
31
0
210
0
220
0
230
1
40
0.990268
41
-2.06443714120955
42
-1.55047548918284
0
ELLIPSE
5
141
100
AcDbEntity
8
1
62
256
6
ByLayer
370
18
48
1
60
0
100
AcDbEllipse
10
36.768125
20
-33.79612
30
0
11
0.989949493661157
21
0.989949493661176
31
0
210
0
220
0
230
1
40
0.990268
41
-2.35185979361696
42
-1.48786456077059
0
ELLIPSE
5
142
100
AcDbEntity
8
1
62
256
6
ByLayer
370
18
48
1
60
0
100
AcDbEllipse
10
36.173329
20
-35.262563
30
0
11
-0.318198051533943
21
-0.31819805153395
31
0
210
0
220
0
230
1
40
0.990268
41
-1.24205131400808
42
1.59111716440695
0
ELLIPSE
5
143
100
AcDbEntity
8
1
62
256
6
ByLayer
370
18
48
1
60
0
100
AcDbEllipse
10
36.852056
20
-35.91399
30
0
11
0.35355339059327
21
0.353553390593277
31
0
210
0
220
0
230
1
40
0.990268
41
-0.194853762811516
42
0.319107889215182
0
ELLIPSE
5
144
100
AcDbEntity
8
1
62
256
6
ByLayer
370
18
48
1
60
0
100
AcDbEllipse
10
37.023991
20
-34.051987
30
0
11
1.00762716319082
21
1.00762716319084
31
0
210
0
220
0
230
1
40
0.990268
41
0.567934796539908
42
0.828328605055531
0
ELLIPSE
5
145
100
AcDbEntity
8
1
62
256
6
ByLayer
370
18
48
1
60
0
100
AcDbEllipse
10
37.023991
20
-34.051987
30
0
11
-1.76776695296635
21
-1.76776695296639
31
0
210
0
220
0
230
1
40
0.990268
41
0
42
6.28318530717959
0
ELLIPSE
5
146
100
AcDbEntity
8
1
62
256
6
ByLayer
370
18
48
1
60
0
100
AcDbEllipse
10
37.01973
20
-34.047725
30
0
11
0.989949493661157
21
0.989949493661176
31
0
210
0
220
0
230
1
40
0.990268
41
2.70092564401581
42
2.88412796236603
0
ELLIPSE
5
147
100
AcDbEntity
8
1
62
256
6
ByLayer
370
18
48
1
60
0
100
AcDbEllipse
10
37.01973
20
-34.047725
30
0
11
0.989949493661157
21
0.989949493661176
31
0
210
0
220
0
230
1
40
0.990268
41
-2.53506211196762
42
-2.35185979361655
0
ELLIPSE
5
148
100
AcDbEntity
8
1
62
256
6
ByLayer
370
18
48
1
60
0
100
AcDbEllipse
10
38.465255
20
-32.998255
30
0
11
0.35355339059327
21
0.353553390593277
31
0
210
0
220
0
230
1
40
0.990268
41
1.8995413395817
42
2.53351575413313
0
ELLIPSE
5
149
100
AcDbEntity
8
1
62
256
6
ByLayer
370
18
48
1
60
0
100
AcDbEllipse
10
37.023991
20
-34.051987
30
0
11
1.00762716319082
21
1.00762716319084
31
0
210
0
220
0
230
1
40
0.990268
41
-1.52646030585329
42
-1.26606649733767
0
ELLIPSE
5
14A
100
AcDbEntity
8
1
62
256
6
ByLayer
370
18
48
1
60
0
100
AcDbEllipse
10
38.721122
20
-33.254122
30
0
11
0.35355339059327
21
0.353553390593277
31
0
210
0
220
0
230
1
40
0.990268
41
-3.11163469240616
42
-2.59767304037946
0
ELLIPSE
5
14B
100
AcDbEntity
8
1
62
256
6
ByLayer
370
18
48
1
60
0
100
AcDbEllipse
10
38.721122
20
-33.254122
30
0
11
0.35355339059327
21
0.353553390593277
31
0
210
0
220
0
230
1
40
0.990268
41
1.8995413395817
42
2.41350299160838
0
ELLIPSE
5
14C
100
AcDbEntity
8
1
62
256
6
ByLayer
370
18
48
1
60
0
100
AcDbEllipse
10
35.498796
20
-32.987847
30
0
11
0.35355339059327
21
0.353553390593277
31
0
210
0
220
0
230
1
40
0.990268
41
-2.2892488652047
42
-1.77528721317801
0
ELLIPSE
5
14D
100
AcDbEntity
8
1
62
256
6
ByLayer
370
18
48
1
60
0
100
AcDbEllipse
10
35.32686
20
-34.849851
30
0
11
0.35355339059327
21
0.353553390593277
31
0
210
0
220
0
230
1
40
0.990268
41
0.0299579611836218
42
0.543919613210338
0
ELLIPSE
5
14E
100
AcDbEntity
8
1
62
256
6
ByLayer
370
18
48
1
60
0
100
AcDbEllipse
10
37.01973
20
-34.047725
30
0
11
0.989949493661157
21
0.989949493661176
31
0
210
0
220
0
230
1
40
0.990268
41
-0.440667009574018
42
-0.257464691223762
0
ELLIPSE
5
14F
100
AcDbEntity
8
1
62
256
6
ByLayer
370
18
48
1
60
0
100
AcDbEllipse
10
36.86266
20
-33.890656
30
0
11
-3.5355339059327
21
-3.53553390593277
31
0
210
0
220
0
230
1
40
0.990268
41
0
42
6.28318530717959
0
ELLIPSE
5
150
100
AcDbEntity
8
1
62
256
6
ByLayer
370
18
48
1
60
0
100
AcDbEllipse
10
36.852056
20
-35.91399
30
0
11
0.35355339059327
21
0.353553390593277
31
0
210
0
220
0
230
1
40
0.990268
41
1.07715551238025
42
1.59111716440696
0
ELLIPSE
5
151
100
AcDbEntity
8
1
62
256
6
ByLayer
370
18
48
1
60
0
100
AcDbEllipse
10
37.023991
20
-34.051987
30
0
11
1.00762716319082
21
1.00762716319084
31
0
210
0
220
0
230
1
40
0.990268
41
-0.479262754656702
42
-0.218868946141064
0
ELLIPSE
5
152
100
AcDbEntity
8
1
62
256
6
ByLayer
370
18
48
1
60
0
100
AcDbEllipse
10
38.549187
20
-35.116126
30
0
11
0.35355339059327
21
0.353553390593277
31
0
210
0
220
0
230
1
40
0.990268
41
2.12435306357683
42
2.63831471560352
0
ELLIPSE
5
153
100
AcDbEntity
8
1
62
256
6
ByLayer
370
18
48
1
60
0
100
AcDbEllipse
10
37.874653
20
-32.84141
30
0
11
-0.318198051533943
21
-0.31819805153395
31
0
210
0
220
0
230
1
40
0.990268
41
1.89954133958166
42
-1.55047548918285
0
ELLIPSE
5
154
100
AcDbEntity
8
1
62
256
6
ByLayer
370
18
48
1
60
0
100
AcDbEllipse
10
38.549187
20
-35.116126
30
0
11
0.35355339059327
21
0.353553390593277
31
0
210
0
220
0
230
1
40
0.990268
41
0.85234378838509
42
1.36630544041182
0
ELLIPSE
5
155
100
AcDbEntity
8
1
62
256
6
ByLayer
370
18
48
1
60
0
100
AcDbEllipse
10
37.01973
20
-34.047725
30
0
11
0.989949493661157
21
0.989949493661176
31
0
210
0
220
0
230
1
40
0.990268
41
1.65372809281919
42
1.8369304111701
0
ELLIPSE
5
156
100
AcDbEntity
8
1
62
256
6
ByLayer
370
18
48
1
60
0
100
AcDbEllipse
10
38.29332
20
-34.860259
30
0
11
0.35355339059327
21
0.353553390593277
31
0
210
0
220
0
230
1
40
0.990268
41
0.85234378838509
42
1.48631820293657
0
ELLIPSE
5
157
100
AcDbEntity
8
1
62
256
6
ByLayer
370
18
48
1
60
0
100
AcDbEllipse
10
35.557425
20
-33.930798
30
0
11
-0.318198051533943
21
-0.31819805153395
31
0
210
0
220
0
230
1
40
0.990268
41
-2.28924886520472
42
0.543919613210347
0
ELLIPSE
5
158
100
AcDbEntity
8
1
62
256
6
ByLayer
370
18
48
1
60
0
100
AcDbEllipse
10
37.023991
20
-34.051987
30
0
11
1.00762716319082
21
1.00762716319084
31
0
210
0
220
0
230
1
40
0.990268
41
-2.57365785704989
42
-2.31326404853427
0
ELLIPSE
5
159
100
AcDbEntity
8
1
62
256
6
ByLayer
370
18
48
1
60
0
100
AcDbEllipse
10
36.596189
20
-35.658123
30
0
11
0.35355339059327
21
0.353553390593277
31
0
210
0
220
0
230
1
40
0.990268
41
0.957142749855477
42
1.59111716440691
0
ELLIPSE
5
15A
100
AcDbEntity
8
1
62
256
6
ByLayer
370
18
48
1
60
0
100
AcDbEllipse
10
37.195927
20
-32.189983
30
0
11
0.35355339059327
21
0.353553390593277
31
0
210
0
220
0
230
1
40
0.990268
41
2.94673889077831
42
-2.82248476437459
0
ELLIPSE
5
15B
100
AcDbEntity
8
1
62
256
6
ByLayer
370
18
48
1
60
0
100
AcDbEllipse
10
37.01973
20
-34.047725
30
0
11
0.989949493661157
21
0.989949493661176
31
0
210
0
220
0
230
1
40
0.990268
41
0.606530541622611
42
0.789732859973257
0
ELLIPSE
5
15C
100
AcDbEntity
8
1
62
256
6
ByLayer
370
18
48
1
60
0
100
AcDbEllipse
10
37.639896
20
-35.383752
30
0
11
-0.318198051533943
21
-0.31819805153395
31
0
210
0
220
0
230
1
40
0.990268
41
-0.194853762811495
42
2.63831471560353
0
ELLIPSE
5
15D
100
AcDbEntity
8
1
62
256
6
ByLayer
370
18
48
1
60
0
100
AcDbEllipse
10
36.408087
20
-32.720221
30
0
11
-0.318198051533943
21
-0.31819805153395
31
0
210
0
220
0
230
1
40
0.990268
41
2.94673889077828
42
-0.503277937986288
0
ELLIPSE
5
15E
100
AcDbEntity
8
1
62
256
6
ByLayer
370
18
48
1
60
0
100
AcDbEllipse
10
37.023991
20
-34.051987
30
0
11
1.00762716319082
21
1.00762716319084
31
0
210
0
220
0
230
1
40
0.990268
41
1.6151323477365
42
1.87552615625213
0
ELLIPSE
5
15F
100
AcDbEntity
8
1
62
256
6
ByLayer
370
18
48
1
60
0
100
AcDbEllipse
10
38.29332
20
-34.860259
30
0
11
0.35355339059327
21
0.353553390593277
31
0
210
0
220
0
230
1
40
0.990268
41
2.00434030105203
42
2.63831471560351
0
ELLIPSE
5
160
100
AcDbEntity
8
1
62
256
6
ByLayer
370
18
48
1
60
0
100
AcDbEllipse
10
35.32686
20
-34.849851
30
0
11
0.35355339059327
21
0.353553390593277
31
0
210
0
220
0
230
1
40
0.990268
41
-1.2420513140081
42
-0.728089661981383
0
ELLIPSE
5
161
100
AcDbEntity
8
1
62
256
6
ByLayer
370
18
48
1
60
0
100
AcDbEllipse
10
36.768125
20
-33.79612
30
0
11
0.989949493661157
21
0.989949493661176
31
0
210
0
220
0
230
1
40
0.990268
41
-1.30466224242038
42
-0.440667009574006
0
ELLIPSE
5
162
100
AcDbEntity
8
1
62
256
6
ByLayer
370
18
48
1
60
0
100
AcDbEllipse
10
35.498796
20
-32.987847
30
0
11
0.35355339059327
21
0.353553390593277
31
0
210
0
220
0
230
1
40
0.990268
41
-1.01723959001294
42
-0.503277937986249
0
ELLIPSE
5
163
100
AcDbEntity
8
1
62
256
6
ByLayer
370
18
48
1
60
0
100
AcDbEllipse
10
37.01973
20
-34.047725
30
0
11
0.989949493661157
21
0.989949493661176
31
0
210
0
220
0
230
1
40
0.990268
41
-1.48786456077059
42
-1.30466224242037
0
ELLIPSE
5
164
100
AcDbEntity
8
1
62
256
6
ByLayer
370
18
48
1
60
0
100
AcDbEllipse
10
38.490557
20
-34.173175
30
0
11
-0.318198051533943
21
-0.31819805153395
31
0
210
0
220
0
230
1
40
0.990268
41
0.852343788385053
42
-2.59767304037945
0
ELLIPSE
5
165
100
AcDbEntity
8
1
62
256
6
ByLayer
370
18
48
1
60
0
100
AcDbEllipse
10
37.023991
20
-34.051987
30
0
11
1.00762716319082
21
1.00762716319084
31
0
210
0
220
0
230
1
40
0.990268
41
2.66232989893311
42
2.92272370744872
0
ELLIPSE
5
166
100
AcDbEntity
8
1
62
256
6
ByLayer
370
18
48
1
60
0
100
AcDbEllipse
10
54.610632
20
-34.614164
30
0
11
-3.74766594028866
21
-3.74766594028874
31
0
210
0
220
0
230
1
40
0.990268
41
1.65806278939459
42
2.87979326579063
0
ELLIPSE
5
167
100
AcDbEntity
8
1
62
256
6
ByLayer
370
18
48
1
60
0
100
AcDbEllipse
10
55.014114
20
-35.017646
30
0
11
-2.69246607500996
21
-2.69246607501001
31
0
210
0
220
0
230
1
40
0.990268
41
1.65806278939459
42
2.87979326579063
0
ELLIPSE
5
168
100
AcDbEntity
8
1
62
256
6
ByLayer
370
18
48
1
60
0
100
AcDbEllipse
10
51.176252
20
-29.39356
30
0
11
-5.12244104506774
21
9.91319315879863
31
0
210
0
220
0
230
1
40
0.721729
41
2.48989867286511
42
2.49883294105753
0
ELLIPSE
5
169
100
AcDbEntity
8
1
62
256
6
ByLayer
370
18
48
1
60
0
100
AcDbEllipse
10
57.378254
20
-34.311878
30
0
11
-1.28280275134452
21
-2.85807644578021
31
0
210
0
220
0
230
1
40
0.572768
41
2.74765992363713
42
-2.50125907622249
0
ELLIPSE
5
16A
100
AcDbEntity
8
1
62
256
6
ByLayer
370
18
48
1
60
0
100
AcDbEllipse
10
53.825006
20
-34.919385
30
0
11
3.05705668954866
21
3.05705668954872
31
0
210
0
220
0
230
1
40
0.990268
41
-2.0682151636133
42
0.322885911618933
0
ELLIPSE
5
16B
100
AcDbEntity
8
1
62
256
6
ByLayer
370
18
48
1
60
0
100
AcDbEllipse
10
57.142161
20
-36.868694
30
0
11
-1.65854041777378
21
-1.25422874640442
31
0
210
0
220
0
230
1
40
0.888799
41
0.787839720740293
42
1.82210602805985
0
ELLIPSE
5
16C
100
AcDbEntity
8
1
62
256
6
ByLayer
370
18
48
1
60
0
100
AcDbEllipse
10
55.014114
20
-35.017646
30
0
11
-2.9708443072645
21
-2.97084430726456
31
0
210
0
220
0
230
1
40
0.990268
41
1.13446401379629
42
1.22170399059957
0
ELLIPSE
5
16D
100
AcDbEntity
8
1
62
256
6
ByLayer
370
18
48
1
60
0
100
AcDbEllipse
10
54.610632
20
-34.614164
30
0
11
-3.74766594028866
21
-3.74766594028874
31
0
210
0
220
0
230
1
40
0.990268
41
2.87979326579063
42
-2.87979326579066
0
ELLIPSE
5
16E
100
AcDbEntity
8
1
62
256
6
ByLayer
370
18
48
1
60
0
100
AcDbEllipse
10
55.014114
20
-35.017646
30
0
11
-2.9708443072645
21
-2.97084430726456
31
0
210
0
220
0
230
1
40
0.990268
41
-2.96703324259394
42
-2.87979326579066
0
ELLIPSE
5
16F
100
AcDbEntity
8
1
62
256
6
ByLayer
370
18
48
1
60
0
100
AcDbEllipse
10
54.610632
20
-34.614164
30
0
11
-3.74766594028866
21
-3.74766594028874
31
0
210
0
220
0
230
1
40
0.990268
41
1.13446401379629
42
1.65806278939459
0
ELLIPSE
5
170
100
AcDbEntity
8
1
62
256
6
ByLayer
370
18
48
1
60
0
100
AcDbEllipse
10
24.474225
20
-56.320268
30
0
11
-2.47669752129184E-15
21
40.4488758948751
31
0
210
0
220
0
230
-1
40
0.09889
41
-0.144992258761003
42
-0.0985697832949696
0
ELLIPSE
5
171
100
AcDbEntity
8
1
62
256
6
ByLayer
370
18
48
1
60
0
100
AcDbEllipse
10
26.347154
20
0
30
0
11
-14.7536831606553
21
31.09325491558
31
0
210
0
220
0
230
1
40
0.341999
41
0.157806186645436
42
1.09123958575285
0
ELLIPSE
5
172
100
AcDbEntity
8
1
62
256
6
ByLayer
370
18
48
1
60
0
100
AcDbEllipse
10
-2.347154
20
0
30
0
11
-14.7536831606548
21
-31.0932549155792
31
0
210
0
220
0
230
1
40
0.341999
41
2.05035306783692
42
2.98378646694436
0
ELLIPSE
5
173
100
AcDbEntity
8
1
62
256
6
ByLayer
370
18
48
1
60
0
100
AcDbEllipse
10
12
20
20.403367
30
0
11
-1.99999999999995
21
4.68581336926498E-15
31
0
210
0
220
0
230
1
40
0.707538
41
0.751504621492281
42
2.3900880320975
0
ELLIPSE
5
174
100
AcDbEntity
8
1
62
256
6
ByLayer
370
18
48
1
60
0
100
AcDbEllipse
10
20.755893
20
0
30
0
11
3.69007802829627E-14
21
31.5
31
0
210
0
220
0
230
1
40
0.087489
41
0.311401384074102
42
2.8301912695157
0
ELLIPSE
5
175
100
AcDbEntity
8
1
62
256
6
ByLayer
370
18
48
1
60
0
100
AcDbEllipse
10
26.347154
20
0
30
0
11
-14.7536831606555
21
-31.0932549155802
31
0
210
0
220
0
230
1
40
0.341999
41
-1.09123958575285
42
-0.157806186645435
0
ELLIPSE
5
176
100
AcDbEntity
8
1
62
256
6
ByLayer
370
18
48
1
60
0
100
AcDbEllipse
10
-2.347154
20
0
30
0
11
-14.7536831606537
21
31.093254915578
31
0
210
0
220
0
230
1
40
0.341999
41
-2.98378646694435
42
-2.05035306783689
0
ELLIPSE
5
177
100
AcDbEntity
8
1
62
256
6
ByLayer
370
18
48
1
60
0
100
AcDbEllipse
10
27.151728
20
-22.157666
30
0
11
-5.60999618791581
21
0.408870916687518
31
0
210
0
220
0
230
1
40
0.70821
41
3.12790644373418
42
-1.87912027565215
0
ELLIPSE
5
178
100
AcDbEntity
8
1
62
256
6
ByLayer
370
18
48
1
60
0
100
AcDbEllipse
10
12
20
18.185217
30
0
11
-1.87686272355921
21
-2.86780973811241
31
0
210
0
220
0
230
1
40
0.240927
41
2.46235164835305
42
3.11536358140552
0
ELLIPSE
5
179
100
AcDbEntity
8
1
62
256
6
ByLayer
370
18
48
1
60
0
100
AcDbEllipse
10
19.658198
20
13.233141
30
0
11
-0.0111705898193491
21
-2.92105058489409
31
0
210
0
220
0
230
1
40
0.063081
41
1.80575196386947
42
-2.90663701651479
0
ELLIPSE
5
17A
100
AcDbEntity
8
1
62
256
6
ByLayer
370
18
48
1
60
0
100
AcDbEllipse
10
24.474225
20
-33.307128
30
0
11
-2.52357704946281
21
-61.3461433921231
31
0
210
0
220
0
230
1
40
0.05059
41
-1.72653713785412
42
-1.6071882361769
0
ELLIPSE
5
17B
100
AcDbEntity
8
1
62
256
6
ByLayer
370
18
48
1
60
0
100
AcDbEllipse
10
12
20
18.185217
30
0
11
-1.87686272356697
21
2.86780973812226
31
0
210
0
220
0
230
1
40
0.240927
41
0.0262290721842244
42
0.679241005235345
0
ELLIPSE
5
17C
100
AcDbEntity
8
1
62
256
6
ByLayer
370
18
48
1
60
0
100
AcDbEllipse
10
13.672956
20
5E-06
30
0
11
-38.7005096715081
21
1.4012196322565
31
0
210
0
220
0
230
1
40
0.813137
41
1.78057764537228
42
1.80285782600833
0
ELLIPSE
5
17D
100
AcDbEntity
8
1
62
256
6
ByLayer
370
18
48
1
60
0
100
AcDbEllipse
10
19.399714
20
12.267262
30
0
11
-0.0111705898194352
21
-2.92105058489488
31
0
210
0
220
0
230
1
40
0.063081
41
-2.90663701651486
42
-1.3358406897197
0
ELLIPSE
5
17E
100
AcDbEntity
8
1
62
256
6
ByLayer
370
18
48
1
60
0
100
AcDbEllipse
10
51.385425
20
-27.722489
30
0
11
-2.50581301710374
21
-2.50581301710373
31
0
210
0
220
0
230
1
40
0.50533
41
-1.85821842232355
42
-1.5707963267949
0
ELLIPSE
5
17F
100
AcDbEntity
8
1
62
256
6
ByLayer
370
18
48
1
60
0
100
AcDbEllipse
10
12
20
20.403367
30
0
11
-2.00000000000004
21
4.6858133692652E-15
31
0
210
0
220
0
230
1
40
0.707538
41
-2.39008803209745
42
-0.751504621492326
0
ELLIPSE
5
180
100
AcDbEntity
8
1
62
256
6
ByLayer
370
18
48
1
60
0
100
AcDbEllipse
10
63.058956
20
-34.273632
30
0
11
-0.841899011350224
21
-0.841899011350241
31
0
210
0
220
0
230
1
40
0.990268
41
1.5707963267949
42
3.14159265358977
0
ELLIPSE
5
181
100
AcDbEntity
8
1
62
256
6
ByLayer
370
18
48
1
60
0
100
AcDbEllipse
10
53.610292
20
-24.824968
30
0
11
-0.841899011350224
21
-0.841899011350241
31
0
210
0
220
0
230
1
40
0.990268
41
3.14159265358978
42
-1.5707963267949
0
ELLIPSE
5
182
100
AcDbEntity
8
1
62
256
6
ByLayer
370
18
48
1
60
0
100
AcDbEllipse
10
53.517434
20
-43.815154
30
0
11
-0.841899011350224
21
-0.841899011350241
31
0
210
0
220
0
230
1
40
0.990268
41
0
42
1.57079632679491
0
POINT
5
6C
100
AcDbEntity
8
2
62
256
6
ByLayer
370
18
48
1
60
0
100
AcDbPoint
10
54
20
45
30
0
39
0
210
0
220
0
230
1
50
360
0
POINT
5
6E
100
AcDbEntity
8
80
62
256
6
ByLayer
370
18
48
1
60
0
100
AcDbPoint
10
0
20
0
30
0
39
0
210
0
220
0
230
1
50
360
0
POINT
5
70
100
AcDbEntity
8
81
62
256
6
ByLayer
370
18
48
1
60
0
100
AcDbPoint
10
54
20
-45
30
0
39
0
210
0
220
0
230
1
50
360
0
SPLINE
5
183
100
AcDbEntity
8
1
62
256
6
ByLayer
370
18
48
1
60
0
100
AcDbSpline
70
4
71
3
72
9
73
5
40
0
40
0
40
0
40
0
40
0.912133231747732
40
1
40
1
40
1
40
1
41
1
10
50.9111127638271
20
-28.9585351192502
30
0
41
1
10
50.9844378061702
20
-28.795504468524
30
0
41
1
10
51.0721973834613
20
-28.6213618264114
30
0
41
1
10
51.1676773890718
20
-28.4523242694212
30
0
41
1
10
51.1761279854968
20
-28.4375106154422
30
0
0
SPLINE
5
184
100
AcDbEntity
8
1
62
256
6
ByLayer
370
18
48
1
60
0
100
AcDbSpline
70
4
71
3
72
9
73
5
40
0
40
0
40
0
40
0
40
0.555294679899228
40
1
40
1
40
1
40
1
41
1
10
50.0789837647297
20
-39.822368670975
30
0
41
1
10
50.0596166087544
20
-39.7937458945516
30
0
41
1
10
50.0259814687913
20
-39.74174944372
30
0
41
1
10
49.9946086050857
20
-39.6889525041474
30
0
41
1
10
49.9811017829291
20
-39.6653139053396
30
0
0
SPLINE
5
185
100
AcDbEntity
8
SK1
62
256
6
ByLayer
370
18
48
1
60
0
100
AcDbSpline
70
4
71
3
72
13
73
9
40
0
40
0
40
0
40
0
40
0.239456135835734
40
0.368359722028796
40
0.499998984123831
40
0.631638415376812
40
0.760542467847005
40
1
40
1
40
1
40
1
41
1
10
-2.20000000000002
20
-22.0200986775813
30
0
41
1
10
-2.1990919864239
20
-21.9940412014509
30
0
41
1
10
-2.19103284107058
20
-21.9566686170919
30
0
41
1
10
-2.16563592203488
20
-21.9104494432231
30
0
41
1
10
-2.13886378679459
20
-21.8791678893421
30
0
41
1
10
-2.10627712750079
20
-21.854000519123
30
0
41
1
10
-2.05884064234345
20
-21.8309567166392
30
0
41
1
10
-2.02111030873169
20
-21.8247844616134
30
0
41
1
10
-1.99503997793931
20
-21.8251861015554
30
0
0
SPLINE
5
186
100
AcDbEntity
8
SK1
62
256
6
ByLayer
370
18
48
1
60
0
100
AcDbSpline
70
4
71
3
72
13
73
9
40
0
40
0
40
0
40
0
40
0.239457532221833
40
0.36836158471627
40
0.500001015978903
40
0.631640278066344
40
0.760543864236282
40
1
40
1
40
1
40
1
41
1
10
-1.99503997793926
20
21.825186084775
30
0
41
1
10
-2.02111030873024
20
21.8247844448325
30
0
41
1
10
-2.05884064234075
20
21.8309566998545
30
0
41
1
10
-2.10627712749866
20
21.8540005023229
30
0
41
1
10
-2.13886378679257
20
21.8791678725253
30
0
41
1
10
-2.16563592203335
20
21.9104494263859
30
0
41
1
10
-2.19103284106939
20
21.9566686002238
30
0
41
1
10
-2.1990919864227
20
21.9940411845603
30
0
41
1
10
-2.19999999999996
20
22.0200986606755
30
0
0
SPLINE
5
187
100
AcDbEntity
8
SK1
62
256
6
ByLayer
370
18
48
1
60
0
100
AcDbSpline
70
4
71
2
72
6
73
3
40
0
40
0
40
0
40
1
40
1
40
1
41
1
10
-36.5
20
-21.1521149580209
30
0
41
1
10
-19.349999999987
20
-21.5828539542123
30
0
41
1
10
-2.20000000000002
20
-22.0135927638551
30
0
0
SPLINE
5
188
100
AcDbEntity
8
SK1
62
256
6
ByLayer
370
18
48
1
60
0
100
AcDbSpline
70
4
71
2
72
6
73
3
40
0
40
0
40
0
40
1
40
1
40
1
41
1
10
-2.19999999999996
20
22.0135928951589
30
0
41
1
10
-19.34999999997
20
21.5828554470541
30
0
41
1
10
-36.5
20
21.152117708967
30
0
0
SPLINE
5
189
100
AcDbEntity
8
SK1
62
256
6
ByLayer
370
18
48
1
60
0
100
AcDbSpline
70
4
71
2
72
6
73
3
40
0
40
0
40
0
40
1
40
1
40
1
41
1
10
-1.99503997793931
20
-21.8251813124779
30
0
41
1
10
-1.19500843340731
20
-21.8452807593862
30
0
41
1
10
-0.394976888875306
20
-21.8653802062992
30
0
0
SPLINE
5
18A
100
AcDbEntity
8
SK1
62
256
6
ByLayer
370
18
48
1
60
0
100
AcDbSpline
70
4
71
2
72
6
73
3
40
0
40
0
40
0
40
1
40
1
40
1
41
1
10
-0.394976888875249
20
21.8653801495793
30
0
41
1
10
-1.19500843340725
20
21.8452807024746
30
0
41
1
10
-1.99503997793926
20
21.8251812553753
30
0
0
SPLINE
5
18B
100
AcDbEntity
8
SK1
62
256
6
ByLayer
370
18
48
1
60
0
100
AcDbSpline
70
4
71
2
72
6
73
3
40
0
40
0
40
0
40
1
40
1
40
1
41
1
10
-36.5
20
21.1553029418638
30
0
41
1
10
-37.2500000000012
20
20.7223540793632
30
0
41
1
10
-38
20
20.2894052255531
30
0
0
SPLINE
5
18C
100
AcDbEntity
8
SK1
62
256
6
ByLayer
370
18
48
1
60
0
100
AcDbSpline
70
4
71
2
72
6
73
3
40
0
40
0
40
0
40
1
40
1
40
1
41
1
10
-38
20
-20.2894050057151
30
0
41
1
10
-37.2500000000012
20
-20.7223538609616
30
0
41
1
10
-36.5
20
-21.1553027248969
30
0
0
SPLINE
5
18D
100
AcDbEntity
8
SK1
62
256
6
ByLayer
370
18
48
1
60
0
100
AcDbSpline
70
4
71
2
72
6
73
3
40
0
40
0
40
0
40
1
40
1
40
1
41
1
10
-0.24050243965425
20
21.9465691723769
30
0
41
1
10
-0.265172990616975
20
21.8689012906761
30
0
41
1
10
-0.394976888875249
20
21.8653849865467
30
0
0
SPLINE
5
18E
100
AcDbEntity
8
SK1
62
256
6
ByLayer
370
18
48
1
60
0
100
AcDbSpline
70
4
71
2
72
6
73
3
40
0
40
0
40
0
40
1
40
1
40
1
41
1
10
-0.394976888875306
20
-21.865385003355
30
0
41
1
10
-0.264174311740391
20
-21.8692639605625
30
0
41
1
10
-0.239684768755808
20
-21.9481214799355
30
0
0
SPLINE
5
18F
100
AcDbEntity
8
1
62
256
6
ByLayer
370
18
48
1
60
0
100
AcDbSpline
70
4
71
3
72
18
73
14
40
0
40
0
40
0
40
0
40
0.165404615441384
40
0.165404615441384
40
0.330871785297118
40
0.330871785297118
40
0.496029463583652
40
0.496029463583652
40
0.668888976461475
40
0.668888976461475
40
0.85537607609625
40
0.85537607609625
40
1
40
1
40
1
40
1
41
1
10
49.9400726396829
20
-40.2885599231794
30
0
41
1
10
49.9695161908582
20
-40.27901190198
30
0
41
1
10
49.9978031678272
20
-40.2643453810355
30
0
41
1
10
50.0472816197758
20
-40.2269330294654
30
0
41
1
10
50.0691316767526
20
-40.2036824815394
30
0
41
1
10
50.1035891269555
20
-40.1521403810335
30
0
41
1
10
50.1166760998725
20
-40.1232055500236
30
0
41
1
10
50.1335650681986
20
-40.0622095555566
30
0
41
1
10
50.1371501260525
20
-40.0292975181113
30
0
41
1
10
50.1343860799898
20
-39.9622818641214
30
0
41
1
10
50.1272262761608
20
-39.9274215077208
30
0
41
1
10
50.1058730162297
20
-39.8696581469964
30
0
41
1
10
50.0934588239589
20
-39.8453615838832
30
0
41
1
10
50.0785236437453
20
-39.822883917997
30
0
0
SPLINE
5
190
100
AcDbEntity
8
SK1
62
256
6
ByLayer
370
18
48
1
60
0
100
AcDbSpline
70
4
71
3
72
295
73
291
40
0
40
0
40
0
40
0
40
0.0029463063370583
40
0.0065222312212522
40
0.0100981561054462
40
0.0136740809896402
40
0.0172500058738341
40
0.0208259307580281
40
0.027977780526416
40
0.0351296302948039
40
0.0422814800631918
40
0.0458574049473858
40
0.0494333298315798
40
0.0530092547157737
40
0.0565851795999677
40
0.0637370293683556
40
0.0673129542525496
40
0.0708888791367435
40
0.0744648040209375
40
0.0780407289051314
40
0.0816166537893254
40
0.0851925786735194
40
0.0923444284419073
40
0.0959203533261012
40
0.0994962782102952
40
0.103072203094489
40
0.106648127978683
40
0.110224052862877
40
0.113799977747071
40
0.117375902631265
40
0.120951827515459
40
0.124527752399653
40
0.128103677283847
40
0.131679602168041
40
0.135255527052235
40
0.138831451936429
40
0.142407376820623
40
0.149559226589011
40
0.153135151473205
40
0.156711076357399
40
0.158499038799496
40
0.160287001241593
40
0.163862926125787
40
0.171014775894174
40
0.174590700778368
40
0.178166625662562
40
0.181742550546756
40
0.18531847543095
40
0.192470325199338
40
0.196046250083532
40
0.199622174967726
40
0.201410137409823
40
0.20319809985192
40
0.206774024736114
40
0.213925874504502
40
0.217501799388696
40
0.22107772427289
40
0.224653649157084
40
0.228229574041278
40
0.235381423809666
40
0.23895734869386
40
0.242533273578054
40
0.24432123602015
40
0.246109198462247
40
0.249685123346441
40
0.253261048230636
40
0.256836973114829
40
0.258624935556926
40
0.260412897999023
40
0.263988822883217
40
0.267564747767411
40
0.271140672651605
40
0.274716597535799
40
0.278292522419993
40
0.281868447304187
40
0.285444372188381
40
0.289020297072575
40
0.292596221956769
40
0.296172146840963
40
0.299748071725157
40
0.303323996609351
40
0.306899921493545
40
0.310475846377739
40
0.314051771261933
40
0.321203621030321
40
0.324779545914515
40
0.328355470798709
40
0.331931395682903
40
0.335507320567096
40
0.33908324545129
40
0.342659170335484
40
0.346235095219678
40
0.349811020103872
40
0.35696286987226
40
0.364114719640648
40
0.371266569409036
40
0.37484249429323
40
0.378418419177424
40
0.381994344061618
40
0.385570268945812
40
0.389146193830006
40
0.3927221187142
40
0.396298043598394
40
0.399873968482588
40
0.403449893366782
40
0.407025818250976
40
0.41060174313517
40
0.414177668019364
40
0.417753592903558
40
0.421329517787752
40
0.424905442671946
40
0.42848136755614
40
0.432057292440333
40
0.43384525488243
40
0.435633217324527
40
0.437421179766624
40
0.439209142208721
40
0.442785067092915
40
0.446360991977109
40
0.448148954419206
40
0.449936916861303
40
0.4517248793034
40
0.453512841745497
40
0.457088766629691
40
0.458876729071788
40
0.460664691513885
40
0.462452653955982
40
0.464240616398079
40
0.466028578840176
40
0.467816541282273
40
0.46960450372437
40
0.471392466166467
40
0.473180428608564
40
0.474968391050661
40
0.476756353492758
40
0.478544315934855
40
0.480332278376952
40
0.482120240819049
40
0.483908203261146
40
0.485696165703243
40
0.48748412814534
40
0.489272090587437
40
0.491060053029534
40
0.492848015471631
40
0.494635977913728
40
0.496423940355825
40
0.498211902797922
40
0.499999865240019
40
0.501787827682116
40
0.503575790124213
40
0.50536375256631
40
0.507151715008407
40
0.508939677450504
40
0.510727639892601
40
0.512515602334698
40
0.514303564776795
40
0.516091527218892
40
0.517879489660989
40
0.519667452103085
40
0.521455414545183
40
0.523243376987279
40
0.525031339429376
40
0.526819301871473
40
0.52860726431357
40
0.530395226755667
40
0.532183189197764
40
0.533971151639861
40
0.535759114081958
40
0.537547076524055
40
0.539335038966152
40
0.541123001408249
40
0.542910963850346
40
0.54648688873454
40
0.548274851176637
40
0.550062813618734
40
0.551850776060831
40
0.553638738502928
40
0.557214663387122
40
0.560790588271316
40
0.562578550713413
40
0.56436651315551
40
0.566154475597607
40
0.567942438039704
40
0.571518362923898
40
0.575094287808092
40
0.578670212692286
40
0.58224613757648
40
0.585822062460674
40
0.589397987344868
40
0.592973912229062
40
0.596549837113256
40
0.600125761997449
40
0.603701686881644
40
0.607277611765838
40
0.610853536650031
40
0.614429461534225
40
0.618005386418419
40
0.621581311302613
40
0.625157236186807
40
0.628733161071001
40
0.635885010839389
40
0.643036860607777
40
0.650188710376165
40
0.653764635260359
40
0.657340560144553
40
0.660916485028747
40
0.664492409912941
40
0.668068334797135
40
0.671644259681329
40
0.675220184565523
40
0.678796109449717
40
0.685947959218105
40
0.689523884102298
40
0.693099808986492
40
0.696675733870686
40
0.70025165875488
40
0.703827583639074
40
0.707403508523268
40
0.710979433407462
40
0.714555358291656
40
0.71813128317585
40
0.721707208060044
40
0.725283132944238
40
0.728859057828432
40
0.73601090759682
40
0.739586832481014
40
0.743162757365208
40
0.750314607133596
40
0.75389053201779
40
0.757466456901984
40
0.761042381786178
40
0.764618306670372
40
0.77177015643876
40
0.775346081322954
40
0.778922006207148
40
0.782497931091341
40
0.786073855975535
40
0.793225705743923
40
0.796801630628117
40
0.800377555512311
40
0.803953480396505
40
0.807529405280699
40
0.814681255049087
40
0.818257179933281
40
0.821833104817475
40
0.825409029701669
40
0.828984954585863
40
0.836136804354251
40
0.839712729238445
40
0.843288654122639
40
0.846864579006833
40
0.850440503891027
40
0.857592353659415
40
0.861168278543609
40
0.864744203427803
40
0.868320128311997
40
0.87189605319619
40
0.875471978080384
40
0.879047902964578
40
0.882623827848772
40
0.886199752732966
40
0.88977567761716
40
0.893351602501354
40
0.896927527385548
40
0.900503452269742
40
0.904079377153936
40
0.90765530203813
40
0.914807151806518
40
0.918383076690712
40
0.921959001574906
40
0.9255349264591
40
0.929110851343294
40
0.932686776227488
40
0.936262701111682
40
0.94341455088007
40
0.946990475764264
40
0.950566400648458
40
0.954142325532652
40
0.957718250416846
40
0.964870100185233
40
0.968446025069427
40
0.972021949953621
40
0.975597874837815
40
0.979173799722009
40
0.982749724606203
40
0.986325649490397
40
0.989901574374591
40
0.993477499258785
40
0.997053424142979
40
1
40
1
40
1
40
1
41
1
10
-2.20000000000002
20
-22.0135196730748
30
0
41
1
10
-2.19999999999999
20
-22.0117276068835
30
0
41
1
10
-2.20000000000005
20
-22.0069596886456
30
0
41
1
10
-2.20000000000002
20
-21.9968726461305
30
0
41
1
10
-2.20000000000002
20
-21.9830583750197
30
0
41
1
10
-2.20000000000002
20
-21.9661971621578
30
0
41
1
10
-2.20000000000002
20
-21.9463373083127
30
0
41
1
10
-2.20000000000002
20
-21.9159230944434
30
0
41
1
10
-2.20000000000002
20
-21.870633664349
30
0
41
1
10
-2.20000000000002
20
-21.8049949078793
30
0
41
1
10
-2.20000000000002
20
-21.7411390111089
30
0
41
1
10
-2.20000000000002
20
-21.6847072709128
30
0
41
1
10
-2.20000000000002
20
-21.6397397481888
30
0
41
1
10
-2.20000000000002
20
-21.5921615264852
30
0
41
1
10
-2.20000000000002
20
-21.5252891523049
30
0
41
1
10
-2.20000000000002
20
-21.453308753177
30
0
41
1
10
-2.20000000000002
20
-21.3763547276269
30
0
41
1
10
-2.20000000000002
20
-21.3161703964091
30
0
41
1
10
-2.20000000000002
20
-21.2535469243879
30
0
41
1
10
-2.20000000000002
20
-21.1885090229233
30
0
41
1
10
-2.20000000000002
20
-21.121080083473
30
0
41
1
10
-2.20000000000002
20
-21.0280237507364
30
0
41
1
10
-2.20000000000002
20
-20.9302657445266
30
0
41
1
10
-2.20000000000002
20
-20.8279188369072
30
0
41
1
10
-2.20000000000002
20
-20.7488739070252
30
0
41
1
10
-2.20000000000002
20
-20.6675681841826
30
0
41
1
10
-2.20000000000002
20
-20.5840212184218
30
0
41
1
10
-2.20000000000002
20
-20.4982502525025
30
0
41
1
10
-2.20000000000002
20
-20.4102747128949
30
0
41
1
10
-2.20000000000002
20
-20.3201119071544
30
0
41
1
10
-2.20000000000002
20
-20.2277776663918
30
0
41
1
10
-2.20000000000002
20
-20.1332899477274
30
0
41
1
10
-2.20000000000002
20
-20.0366642357894
30
0
41
1
10
-2.20000000000002
20
-19.9379151599299
30
0
41
1
10
-2.20000000000002
20
-19.8370591957147
30
0
41
1
10
-2.20000000000002
20
-19.7341102362335
30
0
41
1
10
-2.20000000000002
20
-19.5940778412012
30
0
41
1
10
-2.20000000000002
20
-19.4499005336558
30
0
41
1
10
-2.20000000000002
20
-19.3016622310533
30
0
41
1
10
-2.20000000000002
20
-19.2073184270571
30
0
41
1
10
-2.20000000000002
20
-19.1308417758755
30
0
41
1
10
-2.20000000000002
20
-19.0536957086557
30
0
41
1
10
-2.20000000000002
20
-18.9169360704622
30
0
41
1
10
-2.20000000000002
20
-18.756645794641
30
0
41
1
10
-2.20000000000002
20
-18.5924362845557
30
0
41
1
10
-2.20000000000002
20
-18.4673177976698
30
0
41
1
10
-2.20000000000002
20
-18.3402521463352
30
0
41
1
10
-2.20000000000002
20
-18.1682545122203
30
0
41
1
10
-2.20000000000002
20
-17.9923842356821
30
0
41
1
10
-2.20000000000002
20
-17.8127164551587
30
0
41
1
10
-2.20000000000002
20
-17.6988333809735
30
0
41
1
10
-2.20000000000002
20
-17.606787767091
30
0
41
1
10
-2.20000000000002
20
-17.5141131161323
30
0
41
1
10
-2.20000000000002
20
-17.3502824417036
30
0
41
1
10
-2.20000000000002
20
-17.1592829447589
30
0
41
1
10
-2.20000000000002
20
-16.9645867974536
30
0
41
1
10
-2.20000000000002
20
-16.8167088060477
30
0
41
1
10
-2.20000000000002
20
-16.6669871400996
30
0
41
1
10
-2.20000000000002
20
-16.4649164953067
30
0
41
1
10
-2.20000000000002
20
-16.2591646002876
30
0
41
1
10
-2.20000000000002
20
-16.049802831716
30
0
41
1
10
-2.20000000000002
20
-15.9174340084588
30
0
41
1
10
-2.20000000000002
20
-15.8106442286412
30
0
41
1
10
-2.20000000000002
20
-15.7032538676567
30
0
41
1
10
-2.20000000000002
20
-15.567882396309
30
0
41
1
10
-2.20000000000002
20
-15.4036502143979
30
0
41
1
10
-2.20000000000002
20
-15.2652965264295
30
0
41
1
10
-2.20000000000002
20
-15.1537302031574
30
0
41
1
10
-2.20000000000002
20
-15.0415708470876
30
0
41
1
10
-2.20000000000002
20
-14.90025131083
30
0
41
1
10
-2.20000000000002
20
-14.7289012367181
30
0
41
1
10
-2.20000000000002
20
-14.5557843226631
30
0
41
1
10
-2.20000000000002
20
-14.3809062427341
30
0
41
1
10
-2.20000000000002
20
-14.2042700822291
30
0
41
1
10
-2.20000000000002
20
-14.0258803741545
30
0
41
1
10
-2.20000000000002
20
-13.8457420253844
30
0
41
1
10
-2.20000000000002
20
-13.6638579861817
30
0
41
1
10
-2.20000000000002
20
-13.4802328481714
30
0
41
1
10
-2.20000000000002
20
-13.2948705974071
30
0
41
1
10
-2.20000000000002
20
-13.1077737485311
30
0
41
1
10
-2.20000000000002
20
-12.9189467805057
30
0
41
1
10
-2.20000000000002
20
-12.728392778749
30
0
41
1
10
-2.20000000000002
20
-12.5361142588231
30
0
41
1
10
-2.20000000000002
20
-12.2774598592137
30
0
41
1
10
-2.20000000000002
20
-12.0153352592314
30
0
41
1
10
-2.20000000000002
20
-11.7498207258852
30
0
41
1
10
-2.20000000000002
20
-11.5489655826483
30
0
41
1
10
-2.20000000000002
20
-11.3464032807099
30
0
41
1
10
-2.20000000000002
20
-11.1421359853757
30
0
41
1
10
-2.20000000000002
20
-10.9361655879759
30
0
41
1
10
-2.20000000000002
20
-10.7284950970913
30
0
41
1
10
-2.20000000000002
20
-10.5191258614377
30
0
41
1
10
-2.20000000000002
20
-10.2377184130835
30
0
41
1
10
-2.20000000000002
20
-9.88169304970987
30
0
41
1
10
-2.20000000000002
20
-9.44771865839311
30
0
41
1
10
-2.20000000000002
20
-9.08043848955603
30
0
41
1
10
-2.20000000000002
20
-8.78327689677775
30
0
41
1
10
-2.20000000000002
20
-8.55871419535617
30
0
41
1
10
-2.20000000000002
20
-8.33247380011301
30
0
41
1
10
-2.20000000000002
20
-8.10455852701506
30
0
41
1
10
-2.20000000000002
20
-7.87497060194644
30
0
41
1
10
-2.20000000000002
20
-7.6437128367312
30
0
41
1
10
-2.20000000000002
20
-7.41078884464241
30
0
41
1
10
-2.20000000000002
20
-7.17620220160032
30
0
41
1
10
-2.20000000000002
20
-6.93995692090419
30
0
41
1
10
-2.20000000000002
20
-6.70205758660663
30
0
41
1
10
-2.20000000000002
20
-6.46250918569618
30
0
41
1
10
-2.20000000000002
20
-6.2213178400012
30
0
41
1
10
-2.20000000000002
20
-5.97849049576266
30
0
41
1
10
-2.19999999999999
20
-5.73403521575827
30
0
41
1
10
-2.19999999999999
20
-5.48796107357256
30
0
41
1
10
-2.19999999999999
20
-5.24027911118978
30
0
41
1
10
-2.19999999999999
20
-5.03253661023487
30
0
41
1
10
-2.19999999999999
20
-4.86557359122418
30
0
41
1
10
-2.19999999999999
20
-4.73994908127321
30
0
41
1
10
-2.19999999999999
20
-4.61393371339017
30
0
41
1
10
-2.19999999999999
20
-4.44540774959788
30
0
41
1
10
-2.19999999999999
20
-4.23375652596863
30
0
41
1
10
-2.19999999999999
20
-4.02083961713782
30
0
41
1
10
-2.19999999999999
20
-3.84978439152417
30
0
41
1
10
-2.19999999999999
20
-3.72111342731068
30
0
41
1
10
-2.19999999999999
20
-3.59207749308621
30
0
41
1
10
-2.19999999999999
20
-3.41956369464535
30
0
41
1
10
-2.19999999999999
20
-3.24629481959221
30
0
41
1
10
-2.19999999999999
20
-3.0723836150739
30
0
41
1
10
-2.19999999999999
20
-2.94160046512798
30
0
41
1
10
-2.19999999999999
20
-2.81048647644627
30
0
41
1
10
-2.19999999999999
20
-2.67904892732182
30
0
41
1
10
-2.19999999999999
20
-2.54729562722176
30
0
41
1
10
-2.19999999999999
20
-2.41523551097489
30
0
41
1
10
-2.19999999999999
20
-2.28287740252156
30
0
41
1
10
-2.19999999999999
20
-2.15023166945255
30
0
41
1
10
-2.19999999999999
20
-2.01730873413072
30
0
41
1
10
-2.19999999999999
20
-1.88412021099791
30
0
41
1
10
-2.19999999999999
20
-1.75067841854351
30
0
41
1
10
-2.19999999999999
20
-1.61699634722072
30
0
41
1
10
-2.19999999999999
20
-1.48308821885627
30
0
41
1
10
-2.19999999999999
20
-1.34896859254377
30
0
41
1
10
-2.19999999999999
20
-1.21465350310538
30
0
41
1
10
-2.19999999999999
20
-1.0801592162689
30
0
41
1
10
-2.19999999999999
20
-0.945503442662783
30
0
41
1
10
-2.19999999999999
20
-0.810704113119073
30
0
41
1
10
-2.19999999999999
20
-0.675780421912322
30
0
41
1
10
-2.19999999999999
20
-0.540751787789588
30
0
41
1
10
-2.19999999999999
20
-0.405638599098921
30
0
41
1
10
-2.19999999999999
20
-0.270461428271432
30
0
41
1
10
-2.19999999999999
20
-0.135241462279822
30
0
41
1
10
-2.19999999999999
20
5.3655071E-09
30
0
41
1
10
-2.19999999999999
20
0.135241472589996
30
0
41
1
10
-2.19999999999999
20
0.270461437853925
30
0
41
1
10
-2.19999999999999
20
0.405638608907907
30
0
41
1
10
-2.19999999999999
20
0.540751798686529
30
0
41
1
10
-2.19999999999999
20
0.675780432522174
30
0
41
1
10
-2.19999999999999
20
0.810704122044939
30
0
41
1
10
-2.19999999999999
20
0.945503451789534
30
0
41
1
10
-2.19999999999999
20
1.08015922751395
30
0
41
1
10
-2.19999999999999
20
1.21465351395383
30
0
41
1
10
-2.19999999999999
20
1.34896860046499
30
0
41
1
10
-2.19999999999999
20
1.48308822685567
30
0
41
1
10
-2.19999999999999
20
1.61699635855226
30
0
41
1
10
-2.19999999999999
20
1.75067843002711
30
0
41
1
10
-2.19999999999999
20
1.88412021847037
30
0
41
1
10
-2.19999999999999
20
2.01730874020455
30
0
41
1
10
-2.19999999999999
20
2.15023167925048
30
0
41
1
10
-2.19999999999999
20
2.28287741514001
30
0
41
1
10
-2.19999999999999
20
2.41523552035437
30
0
41
1
10
-2.19999999999999
20
2.54729563151926
30
0
41
1
10
-2.19999999999999
20
2.67904893291683
30
0
41
1
10
-2.19999999999999
20
2.81048648769612
30
0
41
1
10
-2.19999999999999
20
2.94160047796311
30
0
41
1
10
-2.19999999999999
20
3.072383622975
30
0
41
1
10
-2.19999999999999
20
3.24629481975686
30
0
41
1
10
-2.19999999999999
20
3.41956370437865
30
0
41
1
10
-2.19999999999999
20
3.59207750684843
30
0
41
1
10
-2.19999999999999
20
3.72111343644576
30
0
41
1
10
-2.19999999999999
20
3.84978439330678
30
0
41
1
10
-2.19999999999999
20
4.020839617489
30
0
41
1
10
-2.19999999999999
20
4.23375654375474
30
0
41
1
10
-2.19999999999999
20
4.44540775759583
30
0
41
1
10
-2.19999999999999
20
4.61393371339872
30
0
41
1
10
-2.19999999999999
20
4.73994907984499
30
0
41
1
10
-2.19999999999999
20
4.86557359653662
30
0
41
1
10
-2.19999999999999
20
5.03253662624778
30
0
41
1
10
-2.19999999999999
20
5.24027911954084
30
0
41
1
10
-2.19999999999999
20
5.48796106514416
30
0
41
1
10
-2.19999999999999
20
5.73403522651992
30
0
41
1
10
-2.19999999999999
20
5.97849051253721
30
0
41
1
10
-2.19999999999999
20
6.22131783489101
30
0
41
1
10
-2.19999999999999
20
6.46250917346816
30
0
41
1
10
-2.19999999999999
20
6.70205756880287
30
0
41
1
10
-2.19999999999999
20
6.93995689241024
30
0
41
1
10
-2.19999999999999
20
7.17620223308296
30
0
41
1
10
-2.19999999999999
20
7.41078904293681
30
0
41
1
10
-2.19999999999999
20
7.64371312168015
30
0
41
1
10
-2.19999999999999
20
7.87497052861914
30
0
41
1
10
-2.19999999999999
20
8.10455846042146
30
0
41
1
10
-2.19999999999999
20
8.33247384441506
30
0
41
1
10
-2.19999999999999
20
8.55871423477029
30
0
41
1
10
-2.19999999999999
20
8.78327691067398
30
0
41
1
10
-2.19999999999999
20
9.08043846702645
30
0
41
1
10
-2.19999999999999
20
9.44771866001565
30
0
41
1
10
-2.19999999999999
20
9.88169305528194
30
0
41
1
10
-2.19999999999999
20
10.2377183913447
30
0
41
1
10
-2.19999999999999
20
10.5191258633122
30
0
41
1
10
-2.19999999999999
20
10.7284951094206
30
0
41
1
10
-2.19999999999999
20
10.9361655882296
30
0
41
1
10
-2.19999999999999
20
11.1421359694817
30
0
41
1
10
-2.19999999999999
20
11.3464032666245
30
0
41
1
10
-2.19999999999999
20
11.5489655840494
30
0
41
1
10
-2.19999999999999
20
11.7498207382014
30
0
41
1
10
-2.19999999999999
20
12.015335258712
30
0
41
1
10
-2.19999999999999
20
12.277459839655
30
0
41
1
10
-2.19999999999999
20
12.5361142561418
30
0
41
1
10
-2.19999999999999
20
12.7283927892775
30
0
41
1
10
-2.19999999999999
20
12.9189467887917
30
0
41
1
10
-2.19999999999999
20
13.1077737445537
30
0
41
1
10
-2.19999999999999
20
13.2948705838035
30
0
41
1
10
-2.19999999999999
20
13.4802328404438
30
0
41
1
10
-2.19999999999999
20
13.6638579908946
30
0
41
1
10
-2.19999999999999
20
13.845742035678
30
0
41
1
10
-2.19999999999999
20
14.0258803815961
30
0
41
1
10
-2.19999999999999
20
14.2042701267483
30
0
41
1
10
-2.19999999999999
20
14.3809064511142
30
0
41
1
10
-2.19999999999999
20
14.61406817927
30
0
41
1
10
-2.19999999999999
20
14.8437340716545
30
0
41
1
10
-2.19999999999999
20
15.069828938707
30
0
41
1
10
-2.19999999999999
20
15.2935559429894
30
0
41
1
10
-2.19999999999999
20
15.513744330902
30
0
41
1
10
-2.19999999999999
20
15.7303232767805
30
0
41
1
10
-2.19999999999999
20
15.8909649274654
30
0
41
1
10
-2.19999999999999
20
16.0498023362736
30
0
41
1
10
-2.19999999999999
20
16.2591647559547
30
0
41
1
10
-2.19999999999999
20
16.4649171124643
30
0
41
1
10
-2.19999999999999
20
16.666987304737
30
0
41
1
10
-2.19999999999999
20
16.8167085043733
30
0
41
1
10
-2.19999999999999
20
16.9645862898264
30
0
41
1
10
-2.19999999999999
20
17.1592828976246
30
0
41
1
10
-2.19999999999999
20
17.3502835148979
30
0
41
1
10
-2.19999999999999
20
17.5375147595292
30
0
41
1
10
-2.19999999999999
20
17.676060438985
30
0
41
1
10
-2.19999999999999
20
17.8127154575359
30
0
41
1
10
-2.19999999999999
20
17.9923842415009
30
0
41
1
10
-2.19999999999996
20
18.1682547291306
30
0
41
1
10
-2.19999999999996
20
18.3402522143585
30
0
41
1
10
-2.19999999999996
20
18.4673177032107
30
0
41
1
10
-2.19999999999996
20
18.5924361073221
30
0
41
1
10
-2.19999999999996
20
18.7566457425986
30
0
41
1
10
-2.19999999999996
20
18.9169371900015
30
0
41
1
10
-2.19999999999996
20
19.0732305996174
30
0
41
1
10
-2.19999999999996
20
19.1884526890887
30
0
41
1
10
-2.19999999999996
20
19.3016611759423
30
0
41
1
10
-2.19999999999996
20
19.4499005391959
30
0
41
1
10
-2.19999999999996
20
19.5940785255289
30
0
41
1
10
-2.19999999999996
20
19.7341104289282
30
0
41
1
10
-2.19999999999996
20
19.8370589164793
30
0
41
1
10
-2.19999999999996
20
19.9379146863563
30
0
41
1
10
-2.19999999999996
20
20.0366640227898
30
0
41
1
10
-2.19999999999996
20
20.133289903145
30
0
41
1
10
-2.19999999999996
20
20.2277776697998
30
0
41
1
10
-2.19999999999996
20
20.3201119082527
30
0
41
1
10
-2.19999999999996
20
20.4102747220553
30
0
41
1
10
-2.19999999999996
20
20.4982502752196
30
0
41
1
10
-2.19999999999996
20
20.5840212474559
30
0
41
1
10
-2.19999999999996
20
20.6675682022903
30
0
41
1
10
-2.19999999999996
20
20.7488739108727
30
0
41
1
10
-2.19999999999996
20
20.82791883753
30
0
41
1
10
-2.19999999999996
20
20.9302657657864
30
0
41
1
10
-2.19999999999996
20
21.0280237880879
30
0
41
1
10
-2.19999999999996
20
21.1210800961781
30
0
41
1
10
-2.19999999999996
20
21.1885090211438
30
0
41
1
10
-2.19999999999996
20
21.2535469320083
30
0
41
1
10
-2.19999999999996
20
21.3161704250344
30
0
41
1
10
-2.19999999999996
20
21.3763547664481
30
0
41
1
10
-2.19999999999996
20
21.4533087676779
30
0
41
1
10
-2.19999999999996
20
21.5252891448141
30
0
41
1
10
-2.19999999999996
20
21.5921615531195
30
0
41
1
10
-2.19999999999996
20
21.6397397916631
30
0
41
1
10
-2.19999999999996
20
21.6847072964973
30
0
41
1
10
-2.19999999999996
20
21.7411389990572
30
0
41
1
10
-2.19999999999996
20
21.7922265879071
30
0
41
1
10
-2.19999999999996
20
21.8378144981283
30
0
41
1
10
-2.19999999999996
20
21.8692221254414
30
0
41
1
10
-2.19999999999996
20
21.8978063777089
30
0
41
1
10
-2.19999999999996
20
21.9235254752891
30
0
41
1
10
-2.19999999999996
20
21.9463373508774
30
0
41
1
10
-2.19999999999996
20
21.9661972037607
30
0
41
1
10
-2.19999999999996
20
21.9830583809744
30
0
41
1
10
-2.19999999999996
20
21.9968726399857
30
0
41
1
10
-2.19999999999993
20
22.0069599936689
30
0
41
1
10
-2.19999999999993
20
22.0117281203151
30
0
41
1
10
-2.19999999999996
20
22.0135203260533
30
0
0
SPLINE
5
191
100
AcDbEntity
8
SK1
62
256
6
ByLayer
370
18
48
1
60
0
100
AcDbSpline
70
4
71
3
72
303
73
299
40
0
40
0
40
0
40
0
40
0.0005133458460906
40
0.004006262229801
40
0.0074991786135113
40
0.0109920949972217
40
0.0144850113809321
40
0.0179779277646425
40
0.0214708441483529
40
0.0249637605320633
40
0.0284566769157736
40
0.031949593299484
40
0.0389354260669048
40
0.0459212588343256
40
0.0529070916017463
40
0.0564000079854567
40
0.0598929243691671
40
0.0633858407528775
40
0.0668787571365878
40
0.0738645899040086
40
0.077357506287719
40
0.0808504226714294
40
0.0843433390551398
40
0.0878362554388502
40
0.0913291718225605
40
0.0948220882062709
40
0.101807920973692
40
0.105300837357402
40
0.108793753741112
40
0.112286670124823
40
0.115779586508533
40
0.119272502892244
40
0.122765419275954
40
0.126258335659664
40
0.129751252043375
40
0.133244168427085
40
0.136737084810795
40
0.140230001194506
40
0.143722917578216
40
0.147215833961927
40
0.150708750345637
40
0.157694583113058
40
0.161187499496768
40
0.164680415880479
40
0.166426874072334
40
0.168173332264189
40
0.171666248647899
40
0.17865208141532
40
0.182144997799031
40
0.185637914182741
40
0.189130830566451
40
0.192623746950161
40
0.199609579717582
40
0.203102496101293
40
0.206595412485003
40
0.208341870676858
40
0.210088328868714
40
0.213581245252424
40
0.220567078019845
40
0.224059994403555
40
0.227552910787265
40
0.231045827170976
40
0.234538743554686
40
0.241524576322107
40
0.245017492705817
40
0.248510409089528
40
0.250256867281383
40
0.252003325473238
40
0.255496241856949
40
0.258989158240659
40
0.262482074624369
40
0.264228532816224
40
0.26597499100808
40
0.26946790739179
40
0.2729608237755
40
0.276453740159211
40
0.279946656542921
40
0.283439572926632
40
0.286932489310342
40
0.290425405694052
40
0.293918322077763
40
0.297411238461473
40
0.300904154845184
40
0.304397071228894
40
0.307889987612604
40
0.311382903996315
40
0.314875820380025
40
0.318368736763735
40
0.325354569531156
40
0.328847485914867
40
0.332340402298577
40
0.335833318682287
40
0.339326235065998
40
0.342819151449708
40
0.346312067833419
40
0.349804984217129
40
0.353297900600839
40
0.36028373336826
40
0.367269566135681
40
0.374255398903102
40
0.377748315286812
40
0.381241231670522
40
0.384734148054233
40
0.388227064437943
40
0.391719980821653
40
0.395212897205364
40
0.398705813589074
40
0.402198729972785
40
0.405691646356495
40
0.409184562740205
40
0.412677479123916
40
0.416170395507626
40
0.419663311891336
40
0.423156228275047
40
0.426649144658757
40
0.430142061042468
40
0.433634977426178
40
0.435381435618033
40
0.437127893809888
40
0.438874352001744
40
0.440620810193599
40
0.444113726577309
40
0.44760664296102
40
0.449353101152875
40
0.45109955934473
40
0.452846017536585
40
0.45459247572844
40
0.458085392112151
40
0.459831850304006
40
0.461578308495861
40
0.463324766687716
40
0.465071224879572
40
0.466817683071427
40
0.468564141263282
40
0.470310599455137
40
0.472057057646992
40
0.473803515838847
40
0.475549974030703
40
0.477296432222558
40
0.479042890414413
40
0.480789348606268
40
0.482535806798124
40
0.484282264989979
40
0.486028723181834
40
0.487775181373689
40
0.489521639565544
40
0.491268097757399
40
0.493014555949255
40
0.49476101414111
40
0.496507472332965
40
0.49825393052482
40
0.500000388716675
40
0.501746846908531
40
0.503493305100386
40
0.505239763292241
40
0.506986221484096
40
0.508732679675951
40
0.510479137867807
40
0.512225596059662
40
0.513972054251517
40
0.515718512443372
40
0.517464970635227
40
0.519211428827082
40
0.520957887018938
40
0.522704345210793
40
0.524450803402648
40
0.526197261594503
40
0.527943719786358
40
0.529690177978214
40
0.531436636170069
40
0.533183094361924
40
0.534929552553779
40
0.536676010745634
40
0.53842246893749
40
0.540168927129345
40
0.5419153853212
40
0.54540830170491
40
0.547154759896765
40
0.548901218088621
40
0.550647676280476
40
0.552394134472331
40
0.555887050856042
40
0.559379967239752
40
0.561126425431607
40
0.562872883623462
40
0.564619341815318
40
0.566365800007173
40
0.569858716390883
40
0.573351632774594
40
0.576844549158304
40
0.580337465542014
40
0.583830381925725
40
0.587323298309435
40
0.590816214693146
40
0.594309131076856
40
0.597802047460566
40
0.601294963844277
40
0.604787880227987
40
0.608280796611697
40
0.611773712995408
40
0.615266629379118
40
0.618759545762828
40
0.622252462146539
40
0.625745378530249
40
0.63273121129767
40
0.639717044065091
40
0.646702876832511
40
0.650195793216222
40
0.653688709599932
40
0.657181625983643
40
0.660674542367353
40
0.664167458751063
40
0.667660375134774
40
0.671153291518484
40
0.674646207902195
40
0.681632040669615
40
0.685124957053326
40
0.688617873437036
40
0.692110789820747
40
0.695603706204457
40
0.699096622588167
40
0.702589538971878
40
0.706082455355588
40
0.709575371739299
40
0.713068288123009
40
0.716561204506719
40
0.72005412089043
40
0.72354703727414
40
0.730532870041561
40
0.734025786425271
40
0.737518702808981
40
0.744504535576403
40
0.747997451960113
40
0.751490368343823
40
0.754983284727534
40
0.758476201111244
40
0.765462033878665
40
0.768954950262375
40
0.772447866646085
40
0.775940783029796
40
0.779433699413506
40
0.786419532180927
40
0.789912448564637
40
0.793405364948348
40
0.796898281332058
40
0.800391197715768
40
0.807377030483189
40
0.8108699468669
40
0.81436286325061
40
0.817855779634321
40
0.821348696018031
40
0.828334528785452
40
0.831827445169162
40
0.835320361552872
40
0.838813277936583
40
0.842306194320293
40
0.849292027087714
40
0.852784943471424
40
0.856277859855135
40
0.859770776238845
40
0.863263692622555
40
0.866756609006266
40
0.870249525389976
40
0.873742441773687
40
0.877235358157397
40
0.880728274541107
40
0.884221190924818
40
0.887714107308528
40
0.891207023692238
40
0.894699940075949
40
0.898192856459659
40
0.90517868922708
40
0.90867160561079
40
0.912164521994501
40
0.915657438378211
40
0.919150354761922
40
0.922643271145632
40
0.926136187529342
40
0.933122020296763
40
0.936614936680473
40
0.940107853064184
40
0.943600769447894
40
0.947093685831605
40
0.954079518599026
40
0.957572434982736
40
0.961065351366446
40
0.964558267750156
40
0.968051184133867
40
0.971544100517577
40
0.975037016901288
40
0.978529933284998
40
0.982022849668708
40
0.985515766052419
40
0.989008682436129
40
0.99250159881984
40
0.99599451520355
40
0.99948743158726
40
1
40
1
40
1
40
1
41
1
10
-36.5
20
-21.1555776039908
30
0
41
1
10
-36.5
20
-21.1557858189339
30
0
41
1
10
-36.5
20
-21.1573191505494
30
0
41
1
10
-36.5
20
-21.1588544331656
30
0
41
1
10
-36.5
20
-21.1578038223016
30
0
41
1
10
-36.5
20
-21.1536126358382
30
0
41
1
10
-36.5
20
-21.1463317213717
30
0
41
1
10
-36.5
20
-21.1360112678938
30
0
41
1
10
-36.5
20
-21.1226986497682
30
0
41
1
10
-36.5
20
-21.1064402158534
30
0
41
1
10
-36.5
20
-21.0872797426225
30
0
41
1
10
-36.5
20
-21.0578537406018
30
0
41
1
10
-36.5
20
-21.0141777773224
30
0
41
1
10
-36.5
20
-20.950713074722
30
0
41
1
10
-36.5
20
-20.8890285612071
30
0
41
1
10
-36.5
20
-20.8342802658871
30
0
41
1
10
-36.5
20
-20.7907267804184
30
0
41
1
10
-36.5
20
-20.7446291690671
30
0
41
1
10
-36.5
20
-20.6796864194097
30
0
41
1
10
-36.5
20
-20.6101652524535
30
0
41
1
10
-36.5
20
-20.5353747251341
30
0
41
1
10
-36.5
20
-20.4769783324058
30
0
41
1
10
-36.5
20
-20.4161995895792
30
0
41
1
10
-36.5
20
-20.3530628196555
30
0
41
1
10
-36.5
20
-20.2875896826625
30
0
41
1
10
-36.5
20
-20.1970436182682
30
0
41
1
10
-36.5
20
-20.1024192722932
30
0
41
1
10
-36.5
20
-20.0027815031752
30
0
41
1
10
-36.5
20
-19.9259535572617
30
0
41
1
10
-36.5
20
-19.8469141355251
30
0
41
1
10
-36.5
20
-19.765683373065
30
0
41
1
10
-36.5
20
-19.6822775189498
30
0
41
1
10
-36.5
20
-19.5967148149262
30
0
41
1
10
-36.5
20
-19.5090135394172
30
0
41
1
10
-36.5
20
-19.4191882696517
30
0
41
1
10
-36.5
20
-19.3272561697676
30
0
41
1
10
-36.5
20
-19.2332338822713
30
0
41
1
10
-36.5
20
-19.1371346902892
30
0
41
1
10
-36.5
20
-19.0389746878943
30
0
41
1
10
-36.5
20
-18.9387689752275
30
0
41
1
10
-36.5
20
-18.8022215100789
30
0
41
1
10
-36.5
20
-18.6623317385553
30
0
41
1
10
-36.5
20
-18.5177544284037
30
0
41
1
10
-36.5
20
-18.4260133905721
30
0
41
1
10
-36.5
20
-18.3514175898237
30
0
41
1
10
-36.5
20
-18.2761667145511
30
0
41
1
10
-36.5
20
-18.1428549391525
30
0
41
1
10
-36.5
20
-17.987269645424
30
0
41
1
10
-36.5
20
-17.8270700659299
30
0
41
1
10
-36.5
20
-17.7052055421089
30
0
41
1
10
-36.5
20
-17.5814423770725
30
0
41
1
10
-36.5
20
-17.4136311437528
30
0
41
1
10
-36.5
20
-17.2428939764416
30
0
41
1
10
-36.5
20
-17.0675963011875
30
0
41
1
10
-36.5
20
-16.9568152899196
30
0
41
1
10
-36.5
20
-16.867008999151
30
0
41
1
10
-36.5
20
-16.7765898513272
30
0
41
1
10
-36.5
20
-16.6168596157572
30
0
41
1
10
-36.5
20
-16.4314438788637
30
0
41
1
10
-36.5
20
-16.2414991337765
30
0
41
1
10
-36.5
20
-16.097474719741
30
0
41
1
10
-36.5
20
-15.9516616651347
30
0
41
1
10
-36.5
20
-15.7545445351489
30
0
41
1
10
-36.5
20
-15.554861344689
30
0
41
1
10
-36.5
20
-15.350663385132
30
0
41
1
10
-36.5
20
-15.2219600388738
30
0
41
1
10
-36.5
20
-15.1178164480938
30
0
41
1
10
-36.5
20
-15.0130920883853
30
0
41
1
10
-36.5
20
-14.8814910451207
30
0
41
1
10
-36.5
20
-14.7216281332594
30
0
41
1
10
-36.5
20
-14.5871530954061
30
0
41
1
10
-36.5
20
-14.4783873813362
30
0
41
1
10
-36.5
20
-14.3690494022436
30
0
41
1
10
-36.5
20
-14.2317235183089
30
0
41
1
10
-36.5
20
-14.0650028858775
30
0
41
1
10
-36.5
20
-13.8965816080865
30
0
41
1
10
-36.5
20
-13.7264689694464
30
0
41
1
10
-36.5
20
-13.5546710496342
30
0
41
1
10
-36.5
20
-13.3811910773121
30
0
41
1
10
-36.5
20
-13.2060373742643
30
0
41
1
10
-36.5
20
-13.0292149133303
30
0
41
1
10
-36.5
20
-12.8507281773019
30
0
41
1
10
-36.5
20
-12.6705857874603
30
0
41
1
10
-36.5
20
-12.48879142185
30
0
41
1
10
-36.5
20
-12.3053503484466
30
0
41
1
10
-36.5
20
-12.1202706879328
30
0
41
1
10
-36.5
20
-11.9335555855443
30
0
41
1
10
-36.5
20
-11.6819759204348
30
0
41
1
10
-36.5
20
-11.4285505376587
30
0
41
1
10
-36.5
20
-11.1704660874498
30
0
41
1
10
-36.5
20
-10.9756651586938
30
0
41
1
10
-36.5
20
-10.7792636737397
30
0
41
1
10
-36.5
20
-10.5812696725585
30
0
41
1
10
-36.5
20
-10.3816871154456
30
0
41
1
10
-36.5
20
-10.180523710493
30
0
41
1
10
-36.5
20
-9.97778558435024
30
0
41
1
10
-36.5
20
-9.7048357680886
30
0
41
1
10
-36.5
20
-9.36101276272151
30
0
41
1
10
-36.5
20
-8.94153438933256
30
0
41
1
10
-36.5
20
-8.58745787193683
30
0
41
1
10
-36.5
20
-8.30004464023597
30
0
41
1
10
-36.5
20
-8.08346950394386
30
0
41
1
10
-36.5
20
-7.86540102208468
30
0
41
1
10
-36.5
20
-7.64585131899608
30
0
41
1
10
-36.5
20
-7.42483318088827
30
0
41
1
10
-36.5
20
-7.20235735193415
30
0
41
1
10
-36.5
20
-6.97843755879961
30
0
41
1
10
-36.5
20
-6.75308981071319
30
0
41
1
10
-36.5
20
-6.52633035082272
30
0
41
1
10
-36.5
20
-6.29817753233073
30
0
41
1
10
-36.5
20
-6.0686502244489
30
0
41
1
10
-36.5
20
-5.83776884649413
30
0
41
1
10
-36.5
20
-5.60555660448856
30
0
41
1
10
-36.5
20
-5.37203985998676
30
0
41
1
10
-36.5
20
-5.13724579696878
30
0
41
1
10
-36.5
20
-4.90120595303731
30
0
41
1
10
-36.5
20
-4.70396583147399
30
0
41
1
10
-36.5
20
-4.54469638576825
30
0
41
1
10
-36.5
20
-4.42533999597052
30
0
41
1
10
-36.5
20
-4.30569972295399
30
0
41
1
10
-36.5
20
-4.14529336499848
30
0
41
1
10
-36.5
20
-3.94531865595204
30
0
41
1
10
-36.5
20
-3.74444957084978
30
0
41
1
10
-36.5
20
-3.58224076117992
30
0
41
1
10
-36.5
20
-3.46078958963506
30
0
41
1
10
-36.5
20
-3.33910702605101
30
0
41
1
10
-36.5
20
-3.17597085922338
30
0
41
1
10
-36.5
20
-3.01425651604549
30
0
41
1
10
-36.5
20
-2.85023149996002
30
0
41
1
10
-36.5
20
-2.72752154931169
30
0
41
1
10
-36.5
20
-2.60463052157436
30
0
41
1
10
-36.5
20
-2.4815737893766
30
0
41
1
10
-36.5
20
-2.35835621123033
30
0
41
1
10
-36.5
20
-2.2349906166005
30
0
41
1
10
-36.5
20
-2.11148761081344
30
0
41
1
10
-36.5
20
-1.98785451527644
30
0
41
1
10
-36.5
20
-1.86410632124091
30
0
41
1
10
-36.5
20
-1.74024827700822
30
0
41
1
10
-36.5
20
-1.61629526151506
30
0
41
1
10
-36.5
20
-1.49225310041953
30
0
41
1
10
-36.5
20
-1.36813478148935
30
0
41
1
10
-36.5
20
-1.24394732222774
30
0
41
1
10
-36.5
20
-1.11970117534861
30
0
41
1
10
-36.5
20
-0.995403485642754
30
0
41
1
10
-36.5
20
-0.871062917068372
30
0
41
1
10
-36.5
20
-0.746686102657662
30
0
41
1
10
-36.5
20
-0.62228012411552
30
0
41
1
10
-36.5
20
-0.49785042075834
30
0
41
1
10
-36.5
20
-0.373402935182156
30
0
41
1
10
-36.5
20
-0.24894223879312
30
0
41
1
10
-36.5
20
-0.124473257200862
30
0
41
1
10
-36.5
20
-9.2461789E-09
30
0
41
1
10
-36.5
20
0.12447325467403
30
0
41
1
10
-36.5
20
0.248942266430674
30
0
41
1
10
-36.5
20
0.373402960091454
30
0
41
1
10
-36.5
20
0.497850400790611
30
0
41
1
10
-36.5
20
0.622280094010875
30
0
41
1
10
-36.5
20
0.746686131491856
30
0
41
1
10
-36.5
20
0.871062970095181
30
0
41
1
10
-36.5
20
0.995403468230819
30
0
41
1
10
-36.5
20
1.11970111692676
30
0
41
1
10
-36.5
20
1.24394734076816
30
0
41
1
10
-36.5
20
1.36813486147523
30
0
41
1
10
-36.5
20
1.49225310642999
30
0
41
1
10
-36.5
20
1.61629518356966
30
0
41
1
10
-36.5
20
1.74024825464133
30
0
41
1
10
-36.5
20
1.86410640329154
30
0
41
1
10
-36.5
20
1.9878545804886
30
0
41
1
10
-36.5
20
2.11148756075914
30
0
41
1
10
-36.5
20
2.23499052786076
30
0
41
1
10
-36.5
20
2.35835622798223
30
0
41
1
10
-36.5
20
2.48157389743921
30
0
41
1
10
-36.5
20
2.60463057106844
30
0
41
1
10
-36.5
20
2.72752148004807
30
0
41
1
10
-36.5
20
2.85023140656233
30
0
41
1
10
-36.5
20
3.01425656877109
30
0
41
1
10
-36.5
20
3.17597095993787
30
0
41
1
10
-36.5
20
3.33910698167961
30
0
41
1
10
-36.5
20
3.46078948211166
30
0
41
1
10
-36.5
20
3.58224072191868
30
0
41
1
10
-36.5
20
3.74444967050351
30
0
41
1
10
-36.5
20
3.94531869048154
30
0
41
1
10
-36.5
20
4.14529326648054
30
0
41
1
10
-36.5
20
4.30569969171864
30
0
41
1
10
-36.5
20
4.42534006396798
30
0
41
1
10
-36.5
20
4.54469650094612
30
0
41
1
10
-36.5
20
4.70396584910509
30
0
41
1
10
-36.5
20
4.90120586463621
30
0
41
1
10
-36.5
20
5.13724581146553
30
0
41
1
10
-36.5
20
5.37203995090812
30
0
41
1
10
-36.5
20
5.60555655529356
30
0
41
1
10
-36.5
20
5.83776875015042
30
0
41
1
10
-36.5
20
6.06865017711215
30
0
41
1
10
-36.5
20
6.29817748211656
30
0
41
1
10
-36.5
20
6.52633051401986
30
0
41
1
10
-36.5
20
6.75309051279783
30
0
41
1
10
-36.5
20
6.97843834484937
30
0
41
1
10
-36.5
20
7.20235684280956
30
0
41
1
10
-36.5
20
7.42483229470758
30
0
41
1
10
-36.5
20
7.64585158611584
30
0
41
1
10
-36.5
20
7.86540128403746
30
0
41
1
10
-36.5
20
8.08346945831605
30
0
41
1
10
-36.5
20
8.30004452993896
30
0
41
1
10
-36.5
20
8.58745782596955
30
0
41
1
10
-36.5
20
8.94153442741856
30
0
41
1
10
-36.5
20
9.36101273737592
30
0
41
1
10
-36.5
20
9.70483575174828
30
0
41
1
10
-36.5
20
9.9777856407232
30
0
41
1
10
-36.5
20
10.18052371466
30
0
41
1
10
-36.5
20
10.3816870614505
30
0
41
1
10
-36.5
20
10.5812696339219
30
0
41
1
10
-36.5
20
10.7792636942328
30
0
41
1
10
-36.5
20
10.9756652058486
30
0
41
1
10
-36.5
20
11.1704660987636
30
0
41
1
10
-36.5
20
11.4285504962004
30
0
41
1
10
-36.5
20
11.6819759007756
30
0
41
1
10
-36.5
20
11.9335556252715
30
0
41
1
10
-36.5
20
12.1202707134413
30
0
41
1
10
-36.5
20
12.3053503320752
30
0
41
1
10
-36.5
20
12.4887913848282
30
0
41
1
10
-36.5
20
12.6705857704289
30
0
41
1
10
-36.5
20
12.8507281979539
30
0
41
1
10
-36.5
20
13.0292149436137
30
0
41
1
10
-36.5
20
13.2060373895955
30
0
41
1
10
-36.5
20
13.3811911431361
30
0
41
1
10
-36.5
20
13.5546713888901
30
0
41
1
10
-36.5
20
13.7264696827894
30
0
41
1
10
-36.5
20
13.95367691736
30
0
41
1
10
-36.5
20
14.176348576809
30
0
41
1
10
-36.5
20
14.3967384349214
30
0
41
1
10
-36.5
20
14.6148460432235
30
0
41
1
10
-36.5
20
14.8284315021107
30
0
41
1
10
-36.5
20
15.0396227184096
30
0
41
1
10
-36.5
20
15.1960147192182
30
0
41
1
10
-36.5
20
15.3506631330604
30
0
41
1
10
-36.5
20
15.5548624364723
30
0
41
1
10
-36.5
20
15.7545451164335
30
0
41
1
10
-36.5
20
15.9516609547094
30
0
41
1
10
-36.5
20
16.0974737380165
30
0
41
1
10
-36.5
20
16.241498813278
30
0
41
1
10
-36.5
20
16.4314450331352
30
0
41
1
10
-36.5
20
16.6168608854213
30
0
41
1
10
-36.5
20
16.7995343923806
30
0
41
1
10
-36.5
20
16.9344844206004
30
0
41
1
10
-36.5
20
17.0675955495038
30
0
41
1
10
-36.5
20
17.2428947983014
30
0
41
1
10
-36.5
20
17.4136313821348
30
0
41
1
10
-36.5
20
17.5814422063202
30
0
41
1
10
-36.5
20
17.7052052466277
30
0
41
1
10
-36.5
20
17.827069915531
30
0
41
1
10
-36.5
20
17.9872703841194
30
0
41
1
10
-36.5
20
18.1428562465544
30
0
41
1
10
-36.5
20
18.2953166794048
30
0
41
1
10
-36.5
20
18.4075180436268
30
0
41
1
10
-36.5
20
18.5177535555592
30
0
41
1
10
-36.5
20
18.6623326618876
30
0
41
1
10
-36.5
20
18.8022222651529
30
0
41
1
10
-36.5
20
18.9387686023437
30
0
41
1
10
-36.5
20
19.0389739868786
30
0
41
1
10
-36.5
20
19.1371342717785
30
0
41
1
10
-36.5
20
19.2332339353277
30
0
41
1
10
-36.5
20
19.3272562516114
30
0
41
1
10
-36.5
20
19.4191882978898
30
0
41
1
10
-36.5
20
19.5090135437133
30
0
41
1
10
-36.5
20
19.5967148362678
30
0
41
1
10
-36.5
20
19.6822775521963
30
0
41
1
10
-36.5
20
19.7656833992676
30
0
41
1
10
-36.5
20
19.8469141406673
30
0
41
1
10
-36.5
20
19.9259535527381
30
0
41
1
10
-36.5
20
20.0027815100322
30
0
41
1
10
-36.5
20
20.1024193061392
30
0
41
1
10
-36.5
20
20.197043652285
30
0
41
1
10
-36.5
20
20.287589681624
30
0
41
1
10
-36.5
20
20.3530628162381
30
0
41
1
10
-36.5
20
20.4161996091987
30
0
41
1
10
-36.5
20
20.4769783724375
30
0
41
1
10
-36.5
20
20.5353747607018
30
0
41
1
10
-36.5
20
20.6101652553123
30
0
41
1
10
-36.5
20
20.6796864153796
30
0
41
1
10
-36.5
20
20.7446292080423
30
0
41
1
10
-36.5
20
20.7907268231739
30
0
41
1
10
-36.5
20
20.8342802793507
30
0
41
1
10
-36.5
20
20.8890285523336
30
0
41
1
10
-36.5
20
20.9382580424269
30
0
41
1
10
-36.5
20
20.9824409225429
30
0
41
1
10
-36.5
20
21.0128017234864
30
0
41
1
10
-36.5
20
21.0404207944711
30
0
41
1
10
-36.5
20
21.0652596303333
30
0
41
1
10
-36.5
20
21.0872797892675
30
0
41
1
10
-36.5
20
21.1064402531507
30
0
41
1
10
-36.5
20
21.1226986516191
30
0
41
1
10
-36.5
20
21.1360112646485
30
0
41
1
10
-36.5
20
21.1463317710584
30
0
41
1
10
-36.5
20
21.1536128319467
30
0
41
1
10
-36.5
20
21.1578041644649
30
0
41
1
10
-36.5
20
21.1588543296934
30
0
41
1
10
-36.5
20
21.1573189715928
30
0
41
1
10
-36.5
20
21.1557860302357
30
0
41
1
10
-36.5
20
21.1555781616683
30
0
0
SPLINE
5
192
100
AcDbEntity
8
SK1
62
256
6
ByLayer
370
18
48
1
60
0
100
AcDbSpline
70
4
71
3
72
299
73
295
40
0
40
0
40
0
40
0
40
0.0032949632079349
40
0.006817690130995
40
0.010340417054055
40
0.0138631439771151
40
0.0173858709001752
40
0.0209085978232353
40
0.0244313247462954
40
0.0279540516693555
40
0.0349995055154756
40
0.0420449593615958
40
0.0490904132077159
40
0.052613140130776
40
0.0561358670538361
40
0.0596585939768962
40
0.0631813208999563
40
0.0702267747460765
40
0.0737495016691365
40
0.0772722285921966
40
0.0807949555152567
40
0.0843176824383168
40
0.0878404093613769
40
0.0913631362844369
40
0.0984085901305571
40
0.101931317053617
40
0.105454043976677
40
0.108976770899737
40
0.112499497822798
40
0.116022224745857
40
0.119544951668918
40
0.123067678591978
40
0.126590405515038
40
0.130113132438098
40
0.133635859361158
40
0.137158586284218
40
0.140681313207278
40
0.144204040130338
40
0.147726767053398
40
0.154772220899518
40
0.158294947822578
40
0.161817674745639
40
0.163579038207169
40
0.165340401668699
40
0.168863128591759
40
0.175908582437879
40
0.179431309360939
40
0.182954036283999
40
0.186476763207059
40
0.189999490130119
40
0.19704494397624
40
0.200567670899299
40
0.20409039782236
40
0.20585176128389
40
0.20761312474542
40
0.21113585166848
40
0.2181813055146
40
0.22170403243766
40
0.22522675936072
40
0.22874948628378
40
0.23227221320684
40
0.239317667052961
40
0.242840393976021
40
0.246363120899081
40
0.248124484360611
40
0.249885847822141
40
0.253408574745201
40
0.256931301668261
40
0.260454028591321
40
0.262215392052851
40
0.263976755514381
40
0.267499482437441
40
0.271022209360501
40
0.274544936283561
40
0.278067663206621
40
0.281590390129681
40
0.285113117052742
40
0.288635843975802
40
0.292158570898862
40
0.295681297821922
40
0.299204024744982
40
0.302726751668042
40
0.306249478591102
40
0.309772205514162
40
0.313294932437222
40
0.316817659360282
40
0.323863113206402
40
0.327385840129462
40
0.330908567052523
40
0.334431293975583
40
0.337954020898643
40
0.341476747821703
40
0.344999474744763
40
0.348522201667823
40
0.352044928590883
40
0.359090382437003
40
0.366135836283124
40
0.373181290129244
40
0.376704017052304
40
0.380226743975364
40
0.383749470898424
40
0.387272197821484
40
0.390794924744544
40
0.394317651667604
40
0.397840378590664
40
0.401363105513724
40
0.404885832436784
40
0.408408559359844
40
0.411931286282904
40
0.415454013205965
40
0.418976740129025
40
0.422499467052085
40
0.426022193975145
40
0.429544920898205
40
0.433067647821265
40
0.434829011282795
40
0.436590374744325
40
0.438351738205855
40
0.440113101667385
40
0.443635828590445
40
0.447158555513505
40
0.448919918975035
40
0.450681282436565
40
0.452442645898096
40
0.454204009359626
40
0.457726736282686
40
0.459488099744216
40
0.461249463205746
40
0.463010826667276
40
0.464772190128806
40
0.466533553590336
40
0.468294917051866
40
0.470056280513396
40
0.471817643974926
40
0.473579007436456
40
0.475340370897986
40
0.477101734359516
40
0.478863097821046
40
0.480624461282576
40
0.482385824744106
40
0.484147188205636
40
0.485908551667166
40
0.487669915128696
40
0.489431278590226
40
0.491192642051756
40
0.492954005513286
40
0.494715368974816
40
0.496476732436346
40
0.498238095897876
40
0.499999459359407
40
0.501760822820937
40
0.503522186282467
40
0.505283549743997
40
0.507044913205527
40
0.508806276667057
40
0.510567640128587
40
0.512329003590117
40
0.514090367051647
40
0.515851730513177
40
0.517613093974707
40
0.519374457436237
40
0.521135820897767
40
0.522897184359297
40
0.524658547820827
40
0.526419911282357
40
0.528181274743887
40
0.529942638205417
40
0.531704001666947
40
0.533465365128477
40
0.535226728590007
40
0.536988092051537
40
0.538749455513068
40
0.540510818974598
40
0.542272182436128
40
0.545794909359188
40
0.547556272820718
40
0.549317636282248
40
0.551078999743778
40
0.552840363205308
40
0.556363090128368
40
0.559885817051428
40
0.561647180512958
40
0.563408543974488
40
0.565169907436018
40
0.566931270897548
40
0.570453997820608
40
0.573976724743668
40
0.577499451666728
40
0.581022178589789
40
0.584544905512849
40
0.588067632435909
40
0.591590359358969
40
0.595113086282029
40
0.598635813205089
40
0.602158540128149
40
0.605681267051209
40
0.609203993974269
40
0.612726720897329
40
0.616249447820389
40
0.619772174743449
40
0.623294901666509
40
0.62681762858957
40
0.63386308243569
40
0.64090853628181
40
0.64795399012793
40
0.65147671705099
40
0.65499944397405
40
0.65852217089711
40
0.66204489782017
40
0.665567624743231
40
0.669090351666291
40
0.672613078589351
40
0.676135805512411
40
0.683181259358531
40
0.686703986281591
40
0.690226713204651
40
0.693749440127711
40
0.697272167050771
40
0.700794893973831
40
0.704317620896891
40
0.707840347819952
40
0.711363074743012
40
0.714885801666072
40
0.718408528589132
40
0.721931255512192
40
0.725453982435252
40
0.732499436281372
40
0.736022163204432
40
0.739544890127492
40
0.746590343973612
40
0.750113070896672
40
0.753635797819733
40
0.757158524742793
40
0.760681251665853
40
0.767726705511973
40
0.771249432435033
40
0.774772159358093
40
0.778294886281153
40
0.781817613204213
40
0.788863067050333
40
0.792385793973393
40
0.795908520896454
40
0.799431247819514
40
0.802953974742574
40
0.809999428588694
40
0.813522155511754
40
0.817044882434814
40
0.820567609357874
40
0.824090336280934
40
0.831135790127054
40
0.834658517050115
40
0.838181243973175
40
0.841703970896235
40
0.845226697819295
40
0.852272151665415
40
0.855794878588475
40
0.859317605511535
40
0.862840332434595
40
0.866363059357655
40
0.869885786280715
40
0.873408513203775
40
0.876931240126836
40
0.880453967049896
40
0.883976693972956
40
0.887499420896016
40
0.891022147819076
40
0.894544874742136
40
0.898067601665196
40
0.901590328588256
40
0.908635782434376
40
0.912158509357436
40
0.915681236280496
40
0.919203963203556
40
0.922726690126617
40
0.926249417049677
40
0.929772143972737
40
0.936817597818857
40
0.940340324741917
40
0.943863051664977
40
0.947385778588037
40
0.950908505511097
40
0.957953959357217
40
0.961476686280277
40
0.964999413203338
40
0.968522140126398
40
0.972044867049458
40
0.975567593972518
40
0.979090320895578
40
0.982613047818638
40
0.986135774741698
40
0.989658501664758
40
0.993181228587818
40
0.996703955510878
40
1
40
1
40
1
40
1
41
1
10
-1.99503997793931
20
-21.8251672690958
30
0
41
1
10
-1.99503997793928
20
-21.8252770424928
30
0
41
1
10
-1.99503997793931
20
-21.8245105573398
30
0
41
1
10
-1.99503997793931
20
-21.8202836860757
30
0
41
1
10
-1.99503997793931
20
-21.812783044142
30
0
41
1
10
-1.99503997793931
20
-21.8021565364934
30
0
41
1
10
-1.99503997793931
20
-21.7884557330328
30
0
41
1
10
-1.99503997793931
20
-21.7717308612526
30
0
41
1
10
-1.99503997793931
20
-21.7520291985819
30
0
41
1
10
-1.99503997793931
20
-21.7218385059106
30
0
41
1
10
-1.99503997793931
20
-21.6769140218914
30
0
41
1
10
-1.99503997793931
20
-21.6117670092986
30
0
41
1
10
-1.99503997793931
20
-21.5484022523455
30
0
41
1
10
-1.99503997793931
20
-21.4923512863894
30
0
41
1
10
-1.99503997793931
20
-21.4477036012609
30
0
41
1
10
-1.99503997793931
20
-21.4004602751572
30
0
41
1
10
-1.99503997793931
20
-21.3340243579833
30
0
41
1
10
-1.99503997793931
20
-21.2626002065084
30
0
41
1
10
-1.99503997793931
20
-21.1861355372814
30
0
41
1
10
-1.99503997793931
20
-21.126355615456
30
0
41
1
10
-1.99503997793931
20
-21.0641493981766
30
0
41
1
10
-1.99503997793931
20
-20.9995415089612
30
0
41
1
10
-1.99503997793931
20
-20.9325549476398
30
0
41
1
10
-1.99503997793931
20
-20.8400664063016
30
0
41
1
10
-1.99503997793931
20
-20.7430171949632
30
0
41
1
10
-1.99503997793931
20
-20.6412830606924
30
0
41
1
10
-1.99503997793931
20
-20.5627395849404
30
0
41
1
10
-1.99503997793931
20
-20.4819464711493
30
0
41
1
10
-1.99503997793931
20
-20.3989234016943
30
0
41
1
10
-1.99503997793931
20
-20.3136873945745
30
0
41
1
10
-1.99503997793931
20
-20.2262576082901
30
0
41
1
10
-1.99503997793931
20
-20.136651569995
30
0
41
1
10
-1.99503997793931
20
-20.0448848271876
30
0
41
1
10
-1.99503997793931
20
-19.9509751576252
30
0
41
1
10
-1.99503997793931
20
-19.8549383078336
30
0
41
1
10
-1.99503997793931
20
-19.7567886026657
30
0
41
1
10
-1.99503997793931
20
-19.6565424313982
30
0
41
1
10
-1.99503997793931
20
-19.5542139601407
30
0
41
1
10
-1.99503997793931
20
-19.4149698127943
30
0
41
1
10
-1.99503997793931
20
-19.2717622924356
30
0
41
1
10
-1.99503997793931
20
-19.1243520606764
30
0
41
1
10
-1.99503997793931
20
-19.0305969699326
30
0
41
1
10
-1.99503997793931
20
-18.9545457436666
30
0
41
1
10
-1.99503997793931
20
-18.877828345234
30
0
41
1
10
-1.99503997793931
20
-18.7418485706132
30
0
41
1
10
-1.99503997793931
20
-18.5826225030747
30
0
41
1
10
-1.99503997793931
20
-18.4193199892891
30
0
41
1
10
-1.99503997793931
20
-18.2949375082747
30
0
41
1
10
-1.99503997793931
20
-18.1686188381619
30
0
41
1
10
-1.99503997793931
20
-17.9975681157064
30
0
41
1
10
-1.99503997793931
20
-17.8228588844704
30
0
41
1
10
-1.99503997793931
20
-17.6441795672679
30
0
41
1
10
-1.99503997793931
20
-17.5309981410348
30
0
41
1
10
-1.99503997793931
20
-17.4394590341184
30
0
41
1
10
-1.99503997793931
20
-17.3472945498449
30
0
41
1
10
-1.99503997793931
20
-17.1843913435575
30
0
41
1
10
-1.99503997793931
20
-16.9946548235122
30
0
41
1
10
-1.99503997793931
20
-16.8010333841432
30
0
41
1
10
-1.99503997793931
20
-16.654027023888
30
0
41
1
10
-1.99503997793931
20
-16.5051894370887
30
0
41
1
10
-1.99503997793931
20
-16.3042392155796
30
0
41
1
10
-1.99503997793931
20
-16.0998599858609
30
0
41
1
10
-1.99503997793931
20
-15.8916662065006
30
0
41
1
10
-1.99503997793931
20
-15.7601264684356
30
0
41
1
10
-1.99503997793931
20
-15.6539352235828
30
0
41
1
10
-1.99503997793931
20
-15.5471478788444
30
0
41
1
10
-1.99503997793931
20
-15.4126292313156
30
0
41
1
10
-1.99503997793931
20
-15.2493853238091
30
0
41
1
10
-1.99503997793931
20
-15.1119089381336
30
0
41
1
10
-1.99503997793931
20
-15.0009760777421
30
0
41
1
10
-1.99503997793931
20
-14.8894548819647
30
0
41
1
10
-1.99503997793931
20
-14.7490386600655
30
0
41
1
10
-1.99503997793931
20
-14.578735707937
30
0
41
1
10
-1.99503997793931
20
-14.4066808882548
30
0
41
1
10
-1.99503997793931
20
-14.2328806917249
30
0
41
1
10
-1.99503997793931
20
-14.0573388809364
30
0
41
1
10
-1.99503997793931
20
-13.8800596938692
30
0
41
1
10
-1.99503997793931
20
-13.7010488098078
30
0
41
1
10
-1.99503997793931
20
-13.5203096364964
30
0
41
1
10
-1.99503997793931
20
-13.3378467409434
30
0
41
1
10
-1.99503997793931
20
-13.1536651576331
30
0
41
1
10
-1.99503997793931
20
-12.967767664355
30
0
41
1
10
-1.99503997793931
20
-12.7801589185361
30
0
41
1
10
-1.99503997793931
20
-12.5908431445087
30
0
41
1
10
-1.99503997793931
20
-12.3998230002593
30
0
41
1
10
-1.99503997793931
20
-12.1427688173785
30
0
41
1
10
-1.99503997793931
20
-11.8826118718573
30
0
41
1
10
-1.99503997793931
20
-11.6187779306707
30
0
41
1
10
-1.99503997793931
20
-11.4192921752591
30
0
41
1
10
-1.99503997793931
20
-11.2181233733031
30
0
41
1
10
-1.99503997793931
20
-11.0152750188843
30
0
41
1
10
-1.99503997793931
20
-10.8107494713071
30
0
41
1
10
-1.99503997793931
20
-10.6045508021232
30
0
41
1
10
-1.99503997793931
20
-10.3966814407573
30
0
41
1
10
-1.99503997793931
20
-10.1171870033238
30
0
41
1
10
-1.99503997793931
20
-9.76392166117952
30
0
41
1
10
-1.99503997793931
20
-9.33322608836653
30
0
41
1
10
-1.99503997793931
20
-8.96893242084855
30
0
41
1
10
-1.99503997793931
20
-8.67397578579323
30
0
41
1
10
-1.99503997793931
20
-8.45121977200662
30
0
41
1
10
-1.99503997793931
20
-8.22682776167494
30
0
41
1
10
-1.99503997793931
20
-8.00080467620242
30
0
41
1
10
-1.99503997793931
20
-7.77315513008728
30
0
41
1
10
-1.99503997793931
20
-7.54388372935193
30
0
41
1
10
-1.99503997793931
20
-7.31299637479282
30
0
41
1
10
-1.99503997793931
20
-7.0804994545895
30
0
41
1
10
-1.99503997793931
20
-6.8463997482805
30
0
41
1
10
-1.99503997793931
20
-6.61070495432838
30
0
41
1
10
-1.99503997793931
20
-6.37342319970753
30
0
41
1
10
-1.99503997793931
20
-6.13456384015993
30
0
41
1
10
-1.99503997793931
20
-5.89413749968628
30
0
41
1
10
-1.99503997793931
20
-5.65215638001948
30
0
41
1
10
-1.99503997793931
20
-5.4086336510897
30
0
41
1
10
-1.99503997793931
20
-5.16358499073451
30
0
41
1
10
-1.99503997793931
20
-4.95821799704331
30
0
41
1
10
-1.99503997793931
20
-4.79299516838267
30
0
41
1
10
-1.99503997793931
20
-4.66878842905288
30
0
41
1
10
-1.99503997793931
20
-4.5442150281373
30
0
41
1
10
-1.99503997793931
20
-4.37752561794156
30
0
41
1
10
-1.99503997793931
20
-4.16851547631595
30
0
41
1
10
-1.99503997793931
20
-3.95832363498766
30
0
41
1
10
-1.99503997793931
20
-3.78926935835412
30
0
41
1
10
-1.99503997793931
20
-3.66223142121836
30
0
41
1
10
-1.99503997793931
20
-3.53485872774326
30
0
41
1
10
-1.99503997793931
20
-3.36446603264318
30
0
41
1
10
-1.99503997793931
20
-3.19381064862623
30
0
41
1
10
-1.99503997793928
20
-3.02213557666008
30
0
41
1
10
-1.99503997793928
20
-2.8931784837302
30
0
41
1
10
-1.99503997793928
20
-2.76392442628162
30
0
41
1
10
-1.99503997793928
20
-2.63438251344519
30
0
41
1
10
-1.99503997793928
20
-2.50455988721876
30
0
41
1
10
-1.99503997793928
20
-2.37446636334928
30
0
41
1
10
-1.99503997793928
20
-2.24411116870439
30
0
41
1
10
-1.99503997793928
20
-2.11350398186613
30
0
41
1
10
-1.99503997793928
20
-1.98265625862297
30
0
41
1
10
-1.99503997793928
20
-1.85157817347522
30
0
41
1
10
-1.99503997793928
20
-1.72028262405345
30
0
41
1
10
-1.99503997793928
20
-1.58878098022359
30
0
41
1
10
-1.99503997793928
20
-1.45708718468356
30
0
41
1
10
-1.99503997793928
20
-1.32521409071333
30
0
41
1
10
-1.99503997793928
20
-1.19317647053177
30
0
41
1
10
-1.99503997793928
20
-1.06098852682439
30
0
41
1
10
-1.99503997793928
20
-0.928665923975672
30
0
41
1
10
-1.99503997793928
20
-0.796224037396229
30
0
41
1
10
-1.99503997793928
20
-0.663679321648374
30
0
41
1
10
-1.99503997793928
20
-0.531048033506266
30
0
41
1
10
-1.99503997793928
20
-0.398347293868937
30
0
41
1
10
-1.99503997793928
20
-0.265594055935196
30
0
41
1
10
-1.99503997793928
20
-0.132805828560237
30
0
41
1
10
-1.99503997793928
20
2.0605171E-09
30
0
41
1
10
-1.99503997793928
20
0.132805835966792
30
0
41
1
10
-1.99503997793928
20
0.265594069601519
30
0
41
1
10
-1.99503997793928
20
0.398347307093388
30
0
41
1
10
-1.99503997793928
20
0.531048037421954
30
0
41
1
10
-1.99503997793928
20
0.663679323049081
30
0
41
1
10
-1.99503997793928
20
0.796224050825089
30
0
41
1
10
-1.99503997793928
20
0.928665943032058
30
0
41
1
10
-1.99503997793928
20
1.06098853158755
30
0
41
1
10
-1.99503997793928
20
1.1931764657121
30
0
41
1
10
-1.99503997793928
20
1.32521410103647
30
0
41
1
10
-1.99503997793928
20
1.45708720896539
30
0
41
1
10
-1.99503997793928
20
1.58878099035152
30
0
41
1
10
-1.99503997793928
20
1.72028261530932
30
0
41
1
10
-1.99503997793928
20
1.85157817419838
30
0
41
1
10
-1.99503997793928
20
1.98265628188182
30
0
41
1
10
-1.99503997793928
20
2.11350400419804
30
0
41
1
10
-1.99503997793928
20
2.24411116714702
30
0
41
1
10
-1.99503997793928
20
2.37446635053541
30
0
41
1
10
-1.99503997793928
20
2.50455989433328
30
0
41
1
10
-1.99503997793928
20
2.63438254221708
30
0
41
1
10
-1.99503997793928
20
2.76392444618182
30
0
41
1
10
-1.99503997793928
20
2.89317847799558
30
0
41
1
10
-1.99503997793928
20
3.02213556164864
30
0
41
1
10
-1.99503997793928
20
3.19381066067948
30
0
41
1
10
-1.99503997793928
20
3.36446606295527
30
0
41
1
10
-1.99503997793928
20
3.53485872835634
30
0
41
1
10
-1.99503997793928
20
3.66223140396673
30
0
41
1
10
-1.99503997793928
20
3.78926935085312
30
0
41
1
10
-1.99503997793928
20
3.95832365779984
30
0
41
1
10
-1.99503997793928
20
4.16851549788919
30
0
41
1
10
-1.99503997793928
20
4.37752560184694
30
0
41
1
10
-1.99503997793928
20
4.54421502107886
30
0
41
1
10
-1.99503997793928
20
4.66878844332788
30
0
41
1
10
-1.99503997793928
20
4.7929951985453
30
0
41
1
10
-1.99503997793928
20
4.95821801342223
30
0
41
1
10
-1.99503997793928
20
5.16358497720142
30
0
41
1
10
-1.99503997793928
20
5.40863364784667
30
0
41
1
10
-1.99503997793928
20
5.65215640891225
30
0
41
1
10
-1.99503997793928
20
5.89413750153935
30
0
41
1
10
-1.99503997793928
20
6.13456381441384
30
0
41
1
10
-1.99503997793928
20
6.37342317953835
30
0
41
1
10
-1.99503997793928
20
6.61070492919379
30
0
41
1
10
-1.99503997793928
20
6.84639976314466
30
0
41
1
10
-1.99503997793928
20
7.08049963775395
30
0
41
1
10
-1.99503997793928
20
7.31299670603016
30
0
41
1
10
-1.99503997793928
20
7.54388383469134
30
0
41
1
10
-1.99503997793928
20
7.77315487290267
30
0
41
1
10
-1.99503997793928
20
8.00080468509063
30
0
41
1
10
-1.99503997793928
20
8.22682785520686
30
0
41
1
10
-1.99503997793928
20
8.4512197921853
30
0
41
1
10
-1.99503997793928
20
8.67397577159846
30
0
41
1
10
-1.99503997793928
20
8.96893239301764
30
0
41
1
10
-1.99503997793928
20
9.33322609823665
30
0
41
1
10
-1.99503997793928
20
9.76392165975841
30
0
41
1
10
-1.99503997793928
20
10.1171869828061
30
0
41
1
10
-1.99503997793928
20
10.3966814549587
30
0
41
1
10
-1.99503997793928
20
10.6045508126063
30
0
41
1
10
-1.99503997793928
20
10.8107494592904
30
0
41
1
10
-1.99503997793928
20
11.0152749978462
30
0
41
1
10
-1.99503997793928
20
11.2181233670389
30
0
41
1
10
-1.99503997793928
20
11.4192921870092
30
0
41
1
10
-1.99503997793928
20
11.6187779427602
30
0
41
1
10
-1.99503997793928
20
11.8826118620781
30
0
41
1
10
-1.99503997793928
20
12.1427687977971
30
0
41
1
10
-1.99503997793928
20
12.3998230071702
30
0
41
1
10
-1.99503997793928
20
12.5908431584255
30
0
41
1
10
-1.99503997793928
20
12.7801589212449
30
0
41
1
10
-1.99503997793928
20
12.9677676529033
30
0
41
1
10
-1.99503997793928
20
13.1536651432542
30
0
41
1
10
-1.99503997793928
20
13.3378467396349
30
0
41
1
10
-1.99503997793928
20
13.520309646993
30
0
41
1
10
-1.99503997793928
20
13.7010488212408
30
0
41
1
10
-1.99503997793928
20
13.8800597145162
30
0
41
1
10
-1.99503997793928
20
14.0573389921213
30
0
41
1
10
-1.99503997793928
20
14.2328810143213
30
0
41
1
10
-1.99503997793928
20
14.4646959102749
30
0
41
1
10
-1.99503997793928
20
14.6927797943809
30
0
41
1
10
-1.99503997793928
20
14.9175842595472
30
0
41
1
10
-1.99503997793928
20
15.1400402265273
30
0
41
1
10
-1.99503997793928
20
15.3587351142266
30
0
41
1
10
-1.99503997793928
20
15.574095422854
30
0
41
1
10
-1.99503997793928
20
15.733775855726
30
0
41
1
10
-1.99503997793928
20
15.8916657661057
30
0
41
1
10
-1.99503997793928
20
16.0998603532658
30
0
41
1
10
-1.99503997793928
20
16.3042398246232
30
0
41
1
10
-1.99503997793928
20
16.5051894037979
30
0
41
1
10
-1.99503997793928
20
16.6540265683948
30
0
41
1
10
-1.99503997793928
20
16.8010329188422
30
0
41
1
10
-1.99503997793928
20
16.9946550481209
30
0
41
1
10
-1.99503997793928
20
17.1843924611907
30
0
41
1
10
-1.99503997793928
20
17.3705928023913
30
0
41
1
10
-1.99503997793928
20
17.5083251903719
30
0
41
1
10
-1.99503997793928
20
17.6441786252734
30
0
41
1
10
-1.99503997793928
20
17.8228590748675
30
0
41
1
10
-1.99503997793928
20
17.9975683374734
30
0
41
1
10
-1.99503997793928
20
18.1686188521771
30
0
41
1
10
-1.99503997793928
20
18.2949373683468
30
0
41
1
10
-1.99503997793928
20
18.4193198181252
30
0
41
1
10
-1.99503997793928
20
18.5826226298873
30
0
41
1
10
-1.99503997793928
20
18.7418497326446
30
0
41
1
10
-1.99503997793928
20
18.8972761707097
30
0
41
1
10
-1.99503997793928
20
19.0118150097952
30
0
41
1
10
-1.99503997793928
20
19.1243510467918
30
0
41
1
10
-1.99503997793928
20
19.2717625055688
30
0
41
1
10
-1.99503997793928
20
19.414970513124
30
0
41
1
10
-1.99503997793928
20
19.5542140249085
30
0
41
1
10
-1.99503997793928
20
19.6565420567613
30
0
41
1
10
-1.99503997793928
20
19.7567881415466
30
0
41
1
10
-1.99503997793928
20
19.8549381550126
30
0
41
1
10
-1.99503997793928
20
19.9509751416388
30
0
41
1
10
-1.99503997793928
20
20.0448848362119
30
0
41
1
10
-1.99503997793928
20
20.1366515718167
30
0
41
1
10
-1.99503997793928
20
20.2262576202058
30
0
41
1
10
-1.99503997793928
20
20.3136874196731
30
0
41
1
10
-1.99503997793928
20
20.398923430088
30
0
41
1
10
-1.99503997793928
20
20.4819464863244
30
0
41
1
10
-1.99503997793928
20
20.5627395868944
30
0
41
1
10
-1.99503997793928
20
20.6412830627252
30
0
41
1
10
-1.99503997793928
20
20.7430172190698
30
0
41
1
10
-1.99503997793928
20
20.8400664428987
30
0
41
1
10
-1.99503997793928
20
20.9325549572362
30
0
41
1
10
-1.99503997793928
20
20.9995415068112
30
0
41
1
10
-1.99503997793928
20
21.064149408511
30
0
41
1
10
-1.99503997793928
20
21.1263556466612
30
0
41
1
10
-1.99503997793928
20
21.1861355753666
30
0
41
1
10
-1.99503997793928
20
21.262600218376
30
0
41
1
10
-1.99503997793926
20
21.3340243512753
30
0
41
1
10
-1.99503997793926
20
21.4004603045828
30
0
41
1
10
-1.99503997793926
20
21.4477036445725
30
0
41
1
10
-1.99503997793926
20
21.4923513092323
30
0
41
1
10
-1.99503997793926
20
21.5484022410126
30
0
41
1
10
-1.99503997793926
20
21.5990695510926
30
0
41
1
10
-1.99503997793926
20
21.6443396610233
30
0
41
1
10
-1.99503997793926
20
21.6755105092645
30
0
41
1
10
-1.99503997793926
20
21.7038764495607
30
0
41
1
10
-1.99503997793926
20
21.7293964429163
30
0
41
1
10
-1.99503997793926
20
21.7520292420694
30
0
41
1
10
-1.99503997793926
20
21.7717309018817
30
0
41
1
10
-1.99503997793926
20
21.7884557380592
30
0
41
1
10
-1.99503997793926
20
21.8021565310045
30
0
41
1
10
-1.99503997793926
20
21.8127830851058
30
0
41
1
10
-1.99503997793926
20
21.8202838734724
30
0
41
1
10
-1.99503997793923
20
21.8245113463256
30
0
41
1
10
-1.99503997793923
20
21.8252773505755
30
0
41
1
10
-1.99503997793928
20
21.8251671007058
30
0
0
SPLINE
5
193
100
AcDbEntity
8
SK1
62
256
6
ByLayer
370
18
48
1
60
0
100
AcDbSpline
70
4
71
3
72
115
73
111
40
0
40
0
40
0
40
0
40
0.0065652045084301
40
0.0151093723646543
40
0.0236535402208786
40
0.0321977080771028
40
0.040741875933327
40
0.0492860437895513
40
0.0578302116457755
40
0.0663743795019998
40
0.0834627152144482
40
0.100551050926897
40
0.117639386639345
40
0.126183554495569
40
0.134727722351794
40
0.143271890208018
40
0.151816058064242
40
0.168904393776691
40
0.177448561632915
40
0.185992729489139
40
0.194536897345363
40
0.203081065201588
40
0.211625233057812
40
0.220169400914036
40
0.237257736626485
40
0.245801904482709
40
0.254346072338933
40
0.262890240195157
40
0.271434408051382
40
0.279978575907606
40
0.28852274376383
40
0.297066911620054
40
0.305611079476279
40
0.314155247332503
40
0.322699415188727
40
0.331243583044951
40
0.339787750901176
40
0.3483319187574
40
0.356876086613624
40
0.373964422326072
40
0.382508590182297
40
0.391052758038521
40
0.395324841966633
40
0.399596925894745
40
0.408141093750969
40
0.425229429463418
40
0.433773597319642
40
0.442317765175866
40
0.450861933032091
40
0.459406100888315
40
0.476494436600763
40
0.485038604456988
40
0.493582772313212
40
0.497854856241324
40
0.502126940169436
40
0.51067110802566
40
0.527759443738109
40
0.536303611594333
40
0.544847779450557
40
0.553391947306781
40
0.561936115163006
40
0.579024450875454
40
0.587568618731679
40
0.596112786587903
40
0.600384870516015
40
0.604656954444127
40
0.613201122300351
40
0.621745290156575
40
0.6302894580128
40
0.634561541940912
40
0.638833625869024
40
0.647377793725248
40
0.655921961581472
40
0.664466129437697
40
0.673010297293921
40
0.681554465150145
40
0.690098633006369
40
0.698642800862594
40
0.707186968718818
40
0.715731136575042
40
0.724275304431266
40
0.732819472287491
40
0.741363640143715
40
0.749907807999939
40
0.758451975856163
40
0.766996143712387
40
0.784084479424836
40
0.79262864728106
40
0.801172815137284
40
0.809716982993509
40
0.818261150849733
40
0.826805318705957
40
0.835349486562181
40
0.843893654418406
40
0.85243782227463
40
0.869526157987078
40
0.886614493699527
40
0.903702829411975
40
0.9122469972682
40
0.920791165124424
40
0.929335332980648
40
0.937879500836872
40
0.946423668693097
40
0.954967836549321
40
0.963512004405545
40
0.972056172261769
40
0.980600340117994
40
0.989144507974218
40
0.997688675830442
40
1
40
1
40
1
40
1
41
1
10
-0.394976888875334
20
-21.8653790903717
30
0
41
1
10
-0.394976888875306
20
-21.865328565499
30
0
41
1
10
-0.394976888875306
20
-21.8644673796286
30
0
41
1
10
-0.394976888875306
20
-21.8604737650697
30
0
41
1
10
-0.394976888875306
20
-21.8529598769268
30
0
41
1
10
-0.394976888875306
20
-21.8423149188875
30
0
41
1
10
-0.394976888875306
20
-21.8285907137819
30
0
41
1
10
-0.394976888875306
20
-21.8118377229246
30
0
41
1
10
-0.394976888875306
20
-21.7921034347989
30
0
41
1
10
-0.394976888875306
20
-21.7618666429643
30
0
41
1
10
-0.394976888875306
20
-21.7168668922192
30
0
41
1
10
-0.394976888875306
20
-21.651618462036
30
0
41
1
10
-0.394976888875306
20
-21.5881524120742
30
0
41
1
10
-0.394976888875306
20
-21.5320229149808
30
0
41
1
10
-0.394976888875306
20
-21.4873092663299
30
0
41
1
10
-0.394976888875306
20
-21.4399968711307
30
0
41
1
10
-0.394976888875306
20
-21.3734709387681
30
0
41
1
10
-0.394976888875306
20
-21.3019320664004
30
0
41
1
10
-0.394976888875306
20
-21.2253664719936
30
0
41
1
10
-0.394976888875306
20
-21.1655031445011
30
0
41
1
10
-0.394976888875306
20
-21.1032108723211
30
0
41
1
10
-0.394976888875306
20
-21.038514297088
30
0
41
1
10
-0.394976888875306
20
-20.9714364994015
30
0
41
1
10
-0.394976888875306
20
-20.8788308563806
30
0
41
1
10
-0.394976888875306
20
-20.7816354627076
30
0
41
1
10
-0.394976888875306
20
-20.6797749496461
30
0
41
1
10
-0.394976888875306
20
-20.6011280536546
30
0
41
1
10
-0.394976888875306
20
-20.5202292190253
30
0
41
1
10
-0.394976888875306
20
-20.4370981008412
30
0
41
1
10
-0.394976888875306
20
-20.3517517634561
30
0
41
1
10
-0.394976888875306
20
-20.2642094206366
30
0
41
1
10
-0.394976888875306
20
-20.1744885542463
30
0
41
1
10
-0.394976888875306
20
-20.082604770276
30
0
41
1
10
-0.394976888875306
20
-19.9885758834751
30
0
41
1
10
-0.394976888875306
20
-19.8924175863555
30
0
41
1
10
-0.394976888875306
20
-19.79414426657
30
0
41
1
10
-0.394976888875306
20
-19.6937723311917
30
0
41
1
10
-0.394976888875306
20
-19.5913158900225
30
0
41
1
10
-0.394976888875306
20
-19.4519091739392
30
0
41
1
10
-0.394976888875306
20
-19.308501644014
30
0
41
1
10
-0.394976888875306
20
-19.160920630363
30
0
41
1
10
-0.394976888875306
20
-19.0670441229991
30
0
41
1
10
-0.394976888875306
20
-18.9909051568102
30
0
41
1
10
-0.394976888875306
20
-18.9140993494365
30
0
41
1
10
-0.394976888875306
20
-18.777958735224
30
0
41
1
10
-0.394976888875306
20
-18.6185131846482
30
0
41
1
10
-0.394976888875306
20
-18.4550236113311
30
0
41
1
10
-0.394976888875306
20
-18.330489335967
30
0
41
1
10
-0.394976888875306
20
-18.2040166079408
30
0
41
1
10
-0.394976888875306
20
-18.0327705937831
30
0
41
1
10
-0.394976888875306
20
-17.8578219077773
30
0
41
1
10
-0.394976888875306
20
-17.6789387292296
30
0
41
1
10
-0.394976888875306
20
-17.5656125946474
30
0
41
1
10
-0.394976888875306
20
-17.4739690253912
30
0
41
1
10
-0.394976888875306
20
-17.3816993239948
30
0
41
1
10
-0.394976888875306
20
-17.2186048360495
30
0
41
1
10
-0.394976888875306
20
-17.0286078387926
30
0
41
1
10
-0.394976888875306
20
-16.8347647509306
30
0
41
1
10
-0.394976888875306
20
-16.6875786248762
30
0
41
1
10
-0.394976888875306
20
-16.5385587049943
30
0
41
1
10
-0.394976888875306
20
-16.3373774066279
30
0
41
1
10
-0.394976888875306
20
-16.1327150774874
30
0
41
1
10
-0.394976888875306
20
-15.9242804112408
30
0
41
1
10
-0.394976888875306
20
-15.7925696820839
30
0
41
1
10
-0.394976888875306
20
-15.6862549949744
30
0
41
1
10
-0.394976888875306
20
-15.5793432837569
30
0
41
1
10
-0.394976888875306
20
-15.4446487492657
30
0
41
1
10
-0.394976888875306
20
-15.2812010193763
30
0
41
1
10
-0.394976888875306
20
-15.1435436982815
30
0
41
1
10
-0.394976888875306
20
-15.0324801920763
30
0
41
1
10
-0.394976888875306
20
-14.9208273816877
30
0
41
1
10
-0.394976888875306
20
-14.7802248596231
30
0
41
1
10
-0.394976888875306
20
-14.6097059483473
30
0
41
1
10
-0.394976888875306
20
-14.4374320816019
30
0
41
1
10
-0.394976888875306
20
-14.2634095816694
30
0
41
1
10
-0.394976888875306
20
-14.0876420714538
30
0
41
1
10
-0.394976888875306
20
-13.9101338497815
30
0
41
1
10
-0.394976888875306
20
-13.7308904366346
30
0
41
1
10
-0.394976888875306
20
-13.549915145406
30
0
41
1
10
-0.394976888875306
20
-13.3672125481811
30
0
41
1
10
-0.394976888875306
20
-13.182787463215
30
0
41
1
10
-0.394976888875306
20
-12.9966426140257
30
0
41
1
10
-0.394976888875306
20
-12.8087826212334
30
0
41
1
10
-0.394976888875306
20
-12.6192114742801
30
0
41
1
10
-0.394976888875306
20
-12.4279318017785
30
0
41
1
10
-0.394976888875306
20
-12.1705475891153
30
0
41
1
10
-0.394976888875306
20
-11.9099848332047
30
0
41
1
10
-0.394976888875306
20
-11.6458042855523
30
0
41
1
10
-0.394976888875306
20
-11.4460361066677
30
0
41
1
10
-0.394976888875306
20
-11.2445799083311
30
0
41
1
10
-0.394976888875306
20
-11.0414389105764
30
0
41
1
10
-0.394976888875306
20
-10.8366153761928
30
0
41
1
10
-0.394976888875306
20
-10.630113157504
30
0
41
1
10
-0.394976888875306
20
-10.4219344610486
30
0
41
1
10
-0.394976888875306
20
-10.1420454829465
30
0
41
1
10
-0.394976888875306
20
-9.78821091215369
30
0
41
1
10
-0.394976888875306
20
-9.3568391135907
30
0
41
1
10
-0.394976888875306
20
-8.99192950801697
30
0
41
1
10
-0.394976888875306
20
-8.69651812098675
30
0
41
1
10
-0.394976888875306
20
-8.47338949471808
30
0
41
1
10
-0.394976888875306
20
-8.24861627222975
30
0
41
1
10
-0.394976888875306
20
-8.0222029406992
30
0
41
1
10
-0.394976888875306
20
-7.79415362199521
30
0
41
1
10
-0.394976888875306
20
-7.56447255210352
30
0
41
1
10
-0.394976888875306
20
-7.33316516004027
30
0
41
1
10
-0.394976888875306
20
-7.10023725398264
30
0
41
1
10
-0.394976888875306
20
-6.86569504295815
30
0
41
1
10
-0.394976888875306
20
-6.62954558311137
30
0
41
1
10
-0.394976888875306
20
-6.44960786563362
30
0
41
1
10
-0.394976888875306
20
-6.34849183540922
30
0
41
1
10
-0.394976888875306
20
-6.32694309067119
30
0
0
SPLINE
5
194
100
AcDbEntity
8
SK1
62
256
6
ByLayer
370
18
48
1
60
0
100
AcDbSpline
70
4
71
3
72
111
73
107
40
0
40
0
40
0
40
0
40
0.0023113641962975
40
0.0108556434084154
40
0.0193999226205334
40
0.0279442018326513
40
0.0364884810447692
40
0.0450327602568872
40
0.0535770394690051
40
0.0621213186811231
40
0.070665597893241
40
0.079209877105359
40
0.0877541563174769
40
0.0962984355295948
40
0.113386993953831
40
0.130475552378067
40
0.147564110802303
40
0.15610839001442
40
0.164652669226538
40
0.173196948438656
40
0.181741227650774
40
0.190285506862892
40
0.19882978607501
40
0.207374065287128
40
0.215918344499246
40
0.233006902923482
40
0.2415511821356
40
0.250095461347718
40
0.258639740559836
40
0.267184019771954
40
0.275728298984072
40
0.28427257819619
40
0.292816857408307
40
0.301361136620425
40
0.309905415832543
40
0.318449695044661
40
0.326993974256779
40
0.335538253468897
40
0.352626811893133
40
0.361171091105251
40
0.369715370317369
40
0.386803928741605
40
0.395348207953723
40
0.403892487165841
40
0.412436766377959
40
0.420981045590077
40
0.438069604014312
40
0.44661388322643
40
0.455158162438548
40
0.463702441650666
40
0.472246720862784
40
0.48933527928702
40
0.497879558499138
40
0.506423837711256
40
0.514968116923374
40
0.523512396135492
40
0.540600954559728
40
0.549145233771846
40
0.557689512983964
40
0.566233792196082
40
0.574778071408199
40
0.591866629832435
40
0.600410909044553
40
0.608955188256671
40
0.617499467468789
40
0.626043746680907
40
0.643132305105143
40
0.651676584317261
40
0.660220863529379
40
0.668765142741497
40
0.677309421953615
40
0.685853701165733
40
0.694397980377851
40
0.702942259589969
40
0.711486538802087
40
0.720030818014204
40
0.728575097226322
40
0.73711937643844
40
0.745663655650558
40
0.754207934862676
40
0.762752214074794
40
0.77984077249903
40
0.788385051711148
40
0.796929330923266
40
0.805473610135384
40
0.814017889347502
40
0.82256216855962
40
0.831106447771738
40
0.848195006195974
40
0.856739285408092
40
0.86528356462021
40
0.873827843832328
40
0.882372123044445
40
0.899460681468681
40
0.908004960680799
40
0.916549239892917
40
0.925093519105035
40
0.933637798317153
40
0.942182077529271
40
0.950726356741389
40
0.959270635953507
40
0.967814915165625
40
0.976359194377743
40
0.984903473589861
40
0.993447752801979
40
1
40
1
40
1
40
1
41
1
10
-0.394976888875277
20
6.32694279392976
30
0
41
1
10
-0.394976888875277
20
6.3484916311391
30
0
41
1
10
-0.394976888875277
20
6.44960775400912
30
0
41
1
10
-0.394976888875277
20
6.62954555948869
30
0
41
1
10
-0.394976888875277
20
6.8656950488801
30
0
41
1
10
-0.394976888875277
20
7.10023740586411
30
0
41
1
10
-0.394976888875277
20
7.33316546385933
30
0
41
1
10
-0.394976888875277
20
7.56447269448574
30
0
41
1
10
-0.394976888875277
20
7.79415340272945
30
0
41
1
10
-0.394976888875277
20
8.02220293401996
30
0
41
1
10
-0.394976888875277
20
8.24861635560848
30
0
41
1
10
-0.394976888875277
20
8.47338951886385
30
0
41
1
10
-0.394976888875277
20
8.69651811258549
30
0
41
1
10
-0.394976888875277
20
8.99192948127941
30
0
41
1
10
-0.394976888875277
20
9.35683912175983
30
0
41
1
10
-0.394976888875277
20
9.78821091217483
30
0
41
1
10
-0.394976888875277
20
10.142045462177
30
0
41
1
10
-0.394976888875277
20
10.4219344727077
30
0
41
1
10
-0.394976888875277
20
10.6301131683678
30
0
41
1
10
-0.394976888875277
20
10.8366153667066
30
0
41
1
10
-0.394976888875277
20
11.0414388905992
30
0
41
1
10
-0.394976888875277
20
11.2445799004538
30
0
41
1
10
-0.394976888875277
20
11.4460361162834
30
0
41
1
10
-0.394976888875277
20
11.6458042976885
30
0
41
1
10
-0.394976888875277
20
11.9099848253352
30
0
41
1
10
-0.394976888875277
20
12.1705475695385
30
0
41
1
10
-0.394976888875277
20
12.4279318067111
30
0
41
1
10
-0.394976888875277
20
12.6192114874981
30
0
41
1
10
-0.394976888875277
20
12.8087826250924
30
0
41
1
10
-0.394976888875277
20
12.9966426041155
30
0
41
1
10
-0.394976888875277
20
13.182787448996
30
0
41
1
10
-0.394976888875277
20
13.3672125455487
30
0
41
1
10
-0.394976888875277
20
13.5499151547097
30
0
41
1
10
-0.394976888875277
20
13.7308904478326
30
0
41
1
10
-0.394976888875277
20
13.910133867705
30
0
41
1
10
-0.394976888875277
20
14.0876421688895
30
0
41
1
10
-0.394976888875277
20
14.2634098807097
30
0
41
1
10
-0.394976888875277
20
14.4955025482493
30
0
41
1
10
-0.394976888875277
20
14.7239127068147
30
0
41
1
10
-0.394976888875277
20
14.9489833053404
30
0
41
1
10
-0.394976888875277
20
15.171701411915
30
0
41
1
10
-0.394976888875277
20
15.3907043201103
30
0
41
1
10
-0.394976888875277
20
15.6063159613101
30
0
41
1
10
-0.394976888875277
20
15.7661946363952
30
0
41
1
10
-0.394976888875277
20
15.9242799594928
30
0
41
1
10
-0.394976888875277
20
16.1327154012234
30
0
41
1
10
-0.394976888875277
20
16.3373780173449
30
0
41
1
10
-0.394976888875277
20
16.5385587125243
30
0
41
1
10
-0.394976888875277
20
16.6875782011067
30
0
41
1
10
-0.394976888875277
20
16.8347642769002
30
0
41
1
10
-0.394976888875277
20
17.0286080073569
30
0
41
1
10
-0.394976888875277
20
17.2186059445175
30
0
41
1
10
-0.394976888875277
20
17.4050188999402
30
0
41
1
10
-0.394976888875277
20
17.5429190217058
30
0
41
1
10
-0.394976888875277
20
17.6789377757623
30
0
41
1
10
-0.394976888875277
20
17.8578220601067
30
0
41
1
10
-0.394976888875277
20
18.0327708145484
30
0
41
1
10
-0.394976888875277
20
18.2040166330947
30
0
41
1
10
-0.394976888875277
20
18.3304892054167
30
0
41
1
10
-0.394976888875277
20
18.4550234389153
30
0
41
1
10
-0.394976888875277
20
18.6185132745736
30
0
41
1
10
-0.394976888875277
20
18.7779598884918
30
0
41
1
10
-0.394976888875277
20
18.933565131357
30
0
41
1
10
-0.394976888875277
20
19.048244884465
30
0
41
1
10
-0.394976888875277
20
19.1609196079758
30
0
41
1
10
-0.394976888875277
20
19.3085018143331
30
0
41
1
10
-0.394976888875277
20
19.4519098709686
30
0
41
1
10
-0.394976888875277
20
19.5913159811741
30
0
41
1
10
-0.394976888875277
20
19.6937719762305
30
0
41
1
10
-0.394976888875277
20
19.7941438028822
30
0
41
1
10
-0.394976888875277
20
19.8924174211231
30
0
41
1
10
-0.394976888875277
20
19.988575861591
30
0
41
1
10
-0.394976888875277
20
20.082604778142
30
0
41
1
10
-0.394976888875277
20
20.1744885559187
30
0
41
1
10
-0.394976888875277
20
20.264209431984
30
0
41
1
10
-0.394976888875277
20
20.3517517880635
30
0
41
1
10
-0.394976888875277
20
20.437098129367
30
0
41
1
10
-0.394976888875277
20
20.5202292348052
30
0
41
1
10
-0.394976888875277
20
20.6011280559991
30
0
41
1
10
-0.394976888875277
20
20.6797749513881
30
0
41
1
10
-0.394976888875277
20
20.781635486227
30
0
41
1
10
-0.394976888875277
20
20.8788308931333
30
0
41
1
10
-0.394976888875277
20
20.9714365096391
30
0
41
1
10
-0.394976888875277
20
21.0385142950144
30
0
41
1
10
-0.394976888875277
20
21.1032108820957
30
0
41
1
10
-0.394976888875277
20
21.1655031751743
30
0
41
1
10
-0.394976888875277
20
21.2253665102307
30
0
41
1
10
-0.394976888875249
20
21.301932078811
30
0
41
1
10
-0.394976888875249
20
21.3734709318986
30
0
41
1
10
-0.394976888875249
20
21.4399968999807
30
0
41
1
10
-0.394976888875249
20
21.4873093096751
30
0
41
1
10
-0.394976888875249
20
21.5320229383892
30
0
41
1
10
-0.394976888875249
20
21.5881524005931
30
0
41
1
10
-0.394976888875249
20
21.6389063892513
30
0
41
1
10
-0.394976888875249
20
21.6842420425293
30
0
41
1
10
-0.394976888875249
20
21.7154617242468
30
0
41
1
10
-0.394976888875249
20
21.7438726893518
30
0
41
1
10
-0.394976888875249
20
21.7694337460976
30
0
41
1
10
-0.394976888875249
20
21.7921034780961
30
0
41
1
10
-0.394976888875249
20
21.8118377637545
30
0
41
1
10
-0.394976888875249
20
21.8285907189997
30
0
41
1
10
-0.394976888875249
20
21.8423149132633
30
0
41
1
10
-0.394976888875249
20
21.8529599173647
30
0
41
1
10
-0.394976888875249
20
21.8604739519412
30
0
41
1
10
-0.394976888875249
20
21.8644655157597
30
0
41
1
10
-0.39497688887522
20
21.8653271888316
30
0
41
1
10
-0.394976888875249
20
21.8653787934865
30
0
0
SPLINE
5
195
100
AcDbEntity
8
SK1
62
256
6
ByLayer
370
18
48
1
60
0
100
AcDbSpline
70
4
71
3
72
299
73
295
40
0
40
0
40
0
40
0
40
0.0029476936362778
40
0.006472765631586
40
0.0099978376268942
40
0.0135229096222023
40
0.0170479816175104
40
0.0205730536128186
40
0.0240981256081267
40
0.0276231976034349
40
0.0346733415940511
40
0.0417234855846674
40
0.0487736295752837
40
0.0522987015705918
40
0.0558237735659
40
0.0593488455612081
40
0.0628739175565163
40
0.0699240615471325
40
0.0734491335424407
40
0.0769742055377488
40
0.0804992775330569
40
0.0840243495283651
40
0.0875494215236732
40
0.0910744935189814
40
0.0981246375095976
40
0.101649709504906
40
0.105174781500214
40
0.108699853495522
40
0.11222492549083
40
0.115749997486138
40
0.119275069481447
40
0.122800141476755
40
0.126325213472063
40
0.129850285467371
40
0.133375357462679
40
0.136900429457987
40
0.140425501453295
40
0.143950573448603
40
0.147475645443912
40
0.154525789434528
40
0.158050861429836
40
0.161575933425144
40
0.163338469422798
40
0.165101005420452
40
0.16862607741576
40
0.175676221406377
40
0.179201293401685
40
0.182726365396993
40
0.186251437392301
40
0.189776509387609
40
0.196826653378226
40
0.200351725373534
40
0.203876797368842
40
0.205639333366496
40
0.20740186936415
40
0.210926941359458
40
0.217977085350074
40
0.221502157345383
40
0.225027229340691
40
0.228552301335999
40
0.232077373331307
40
0.239127517321923
40
0.242652589317231
40
0.246177661312539
40
0.247940197310194
40
0.249702733307848
40
0.253227805303156
40
0.256752877298464
40
0.260277949293772
40
0.262040485291426
40
0.26380302128908
40
0.267328093284388
40
0.270853165279697
40
0.274378237275005
40
0.277903309270313
40
0.281428381265621
40
0.284953453260929
40
0.288478525256237
40
0.292003597251545
40
0.295528669246853
40
0.299053741242162
40
0.30257881323747
40
0.306103885232778
40
0.309628957228086
40
0.313154029223394
40
0.316679101218702
40
0.323729245209319
40
0.327254317204627
40
0.330779389199935
40
0.334304461195243
40
0.337829533190551
40
0.341354605185859
40
0.344879677181167
40
0.348404749176476
40
0.351929821171784
40
0.3589799651624
40
0.366030109153016
40
0.373080253143633
40
0.376605325138941
40
0.380130397134249
40
0.383655469129557
40
0.387180541124865
40
0.390705613120173
40
0.394230685115481
40
0.397755757110789
40
0.401280829106098
40
0.404805901101406
40
0.408330973096714
40
0.411856045092022
40
0.41538111708733
40
0.418906189082638
40
0.422431261077947
40
0.425956333073255
40
0.429481405068563
40
0.433006477063871
40
0.434769013061525
40
0.436531549059179
40
0.438294085056833
40
0.440056621054487
40
0.443581693049795
40
0.447106765045103
40
0.448869301042758
40
0.450631837040412
40
0.452394373038066
40
0.45415690903572
40
0.457681981031028
40
0.459444517028682
40
0.461207053026336
40
0.46296958902399
40
0.464732125021644
40
0.466494661019298
40
0.468257197016952
40
0.470019733014606
40
0.471782269012261
40
0.473544805009915
40
0.475307341007569
40
0.477069877005223
40
0.478832413002877
40
0.480594949000531
40
0.482357484998185
40
0.484120020995839
40
0.485882556993493
40
0.487645092991147
40
0.489407628988801
40
0.491170164986455
40
0.492932700984109
40
0.494695236981763
40
0.496457772979418
40
0.498220308977071
40
0.499982844974726
40
0.50174538097238
40
0.503507916970034
40
0.505270452967688
40
0.507032988965342
40
0.508795524962996
40
0.51055806096065
40
0.512320596958304
40
0.514083132955958
40
0.515845668953612
40
0.517608204951266
40
0.51937074094892
40
0.521133276946574
40
0.522895812944228
40
0.524658348941883
40
0.526420884939537
40
0.528183420937191
40
0.529945956934845
40
0.531708492932499
40
0.533471028930153
40
0.535233564927807
40
0.536996100925461
40
0.538758636923115
40
0.540521172920769
40
0.542283708918423
40
0.545808780913731
40
0.547571316911386
40
0.54933385290904
40
0.551096388906694
40
0.552858924904348
40
0.556383996899656
40
0.559909068894964
40
0.561671604892618
40
0.563434140890272
40
0.565196676887926
40
0.56695921288558
40
0.570484284880888
40
0.574009356876196
40
0.577534428871505
40
0.581059500866813
40
0.584584572862121
40
0.588109644857429
40
0.591634716852737
40
0.595159788848045
40
0.598684860843353
40
0.602209932838662
40
0.60573500483397
40
0.609260076829278
40
0.612785148824586
40
0.616310220819894
40
0.619835292815202
40
0.62336036481051
40
0.626885436805819
40
0.633935580796435
40
0.640985724787051
40
0.648035868777668
40
0.651560940772976
40
0.655086012768284
40
0.658611084763592
40
0.6621361567589
40
0.665661228754208
40
0.669186300749516
40
0.672711372744824
40
0.676236444740133
40
0.683286588730749
40
0.686811660726057
40
0.690336732721365
40
0.693861804716673
40
0.697386876711981
40
0.70091194870729
40
0.704437020702598
40
0.707962092697906
40
0.711487164693214
40
0.715012236688522
40
0.71853730868383
40
0.722062380679138
40
0.725587452674446
40
0.732637596665063
40
0.736162668660371
40
0.739687740655679
40
0.746737884646296
40
0.750262956641604
40
0.753788028636912
40
0.75731310063222
40
0.760838172627528
40
0.767888316618144
40
0.771413388613452
40
0.774938460608761
40
0.778463532604069
40
0.781988604599377
40
0.789038748589993
40
0.792563820585301
40
0.796088892580609
40
0.799613964575918
40
0.803139036571226
40
0.810189180561842
40
0.81371425255715
40
0.817239324552458
40
0.820764396547766
40
0.824289468543075
40
0.831339612533691
40
0.834864684528999
40
0.838389756524307
40
0.841914828519615
40
0.845439900514923
40
0.85249004450554
40
0.856015116500848
40
0.859540188496156
40
0.863065260491464
40
0.866590332486772
40
0.87011540448208
40
0.873640476477389
40
0.877165548472697
40
0.880690620468005
40
0.884215692463313
40
0.887740764458621
40
0.891265836453929
40
0.894790908449237
40
0.898315980444546
40
0.901841052439854
40
0.90889119643047
40
0.912416268425778
40
0.915941340421086
40
0.919466412416394
40
0.922991484411702
40
0.926516556407011
40
0.930041628402319
40
0.937091772392935
40
0.940616844388243
40
0.944141916383551
40
0.947666988378859
40
0.951192060374168
40
0.958242204364784
40
0.961767276360092
40
0.9652923483554
40
0.968817420350708
40
0.972342492346016
40
0.975867564341324
40
0.979392636336633
40
0.982917708331941
40
0.986442780327249
40
0.989967852322557
40
0.993492924317865
40
0.997017996313173
40
1
40
1
40
1
40
1
41
1
10
-38
20
-20.2923486473882
30
0
41
1
10
-38
20
-20.2923550474392
30
0
41
1
10
-38
20
-20.2915869706229
30
0
41
1
10
-38
20
-20.2877827415224
30
0
41
1
10
-38
20
-20.2807871950941
30
0
41
1
10
-38
20
-20.270864225278
30
0
41
1
10
-38
20
-20.2580557575388
30
0
41
1
10
-38
20
-20.2424031034125
30
0
41
1
10
-38
20
-20.2239454925533
30
0
41
1
10
-38
20
-20.19551262204
30
0
41
1
10
-38
20
-20.1534581579689
30
0
41
1
10
-38
20
-20.0921783324266
30
0
41
1
10
-38
20
-20.0326760120608
30
0
41
1
10
-38
20
-19.9796195423852
30
0
41
1
10
-38
20
-19.9374871337362
30
0
41
1
10
-38
20
-19.8928775037254
30
0
41
1
10
-38
20
-19.8298739849262
30
0
41
1
10
-38
20
-19.7628242930463
30
0
41
1
10
-38
20
-19.6902080345967
30
0
41
1
10
-38
20
-19.6336084813315
30
0
41
1
10
-38
20
-19.5746836513966
30
0
41
1
10
-38
20
-19.5134574775013
30
0
41
1
10
-38
20
-19.4499498796238
30
0
41
1
10
-38
20
-19.3619265805519
30
0
41
1
10
-38
20
-19.2704514952515
30
0
41
1
10
-38
20
-19.1735363516591
30
0
41
1
10
-38
20
-19.0989364266238
30
0
41
1
10
-38
20
-19.0221745884206
30
0
41
1
10
-38
20
-18.9432715601189
30
0
41
1
10
-38
20
-18.8622425921487
30
0
41
1
10
-38
20
-18.7791047356355
30
0
41
1
10
-38
20
-18.6938772447031
30
0
41
1
10
-38
20
-18.6065734364562
30
0
41
1
10
-38
20
-18.5172096781028
30
0
41
1
10
-38
20
-18.4258037757914
30
0
41
1
10
-38
20
-18.3323676597213
30
0
41
1
10
-38
20
-18.2369170405729
30
0
41
1
10
-38
20
-18.1394682315478
30
0
41
1
10
-38
20
-18.006423045464
30
0
41
1
10
-38
20
-17.870842154793
30
0
41
1
10
-38
20
-17.7299440627733
30
0
41
1
10
-38
20
-17.6408187485725
30
0
41
1
10
-38
20
-17.5681131617785
30
0
41
1
10
-38
20
-17.4947669133712
30
0
41
1
10
-38
20
-17.3649201654157
30
0
41
1
10
-38
20
-17.2140632768009
30
0
41
1
10
-38
20
-17.0578935907134
30
0
41
1
10
-38
20
-16.9392992293059
30
0
41
1
10
-38
20
-16.8188549914817
30
0
41
1
10
-38
20
-16.6552510003021
30
0
41
1
10
-38
20
-16.489672496603
30
0
41
1
10
-38
20
-16.3187666825072
30
0
41
1
10
-38
20
-16.2111031772939
30
0
41
1
10
-38
20
-16.1235473577607
30
0
41
1
10
-38
20
-16.0353949417432
30
0
41
1
10
-38
20
-15.8797855584285
30
0
41
1
10
-38
20
-15.6999813794666
30
0
41
1
10
-38
20
-15.5148116907138
30
0
41
1
10
-38
20
-15.3746600384838
30
0
41
1
10
-38
20
-15.2327750536327
30
0
41
1
10
-38
20
-15.0406360987562
30
0
41
1
10
-38
20
-14.8470518249568
30
0
41
1
10
-38
20
-14.6480433816336
30
0
41
1
10
-38
20
-14.5230237603811
30
0
41
1
10
-38
20
-14.421539532279
30
0
41
1
10
-38
20
-14.3194944461189
30
0
41
1
10
-38
20
-14.1916826014268
30
0
41
1
10
-38
20
-14.0362107113461
30
0
41
1
10
-38
20
-13.9056336328639
30
0
41
1
10
-38
20
-13.7996824703933
30
0
41
1
10
-38
20
-13.693179914064
30
0
41
1
10
-38
20
-13.5598675642285
30
0
41
1
10
-38
20
-13.3977994204324
30
0
41
1
10
-38
20
-13.2340971553997
30
0
41
1
10
-38
20
-13.0687736820565
30
0
41
1
10
-38
20
-12.9018380893651
30
0
41
1
10
-38
20
-12.7332922951509
30
0
41
1
10
-38
20
-12.5631480531082
30
0
41
1
10
-38
20
-12.3914123687224
30
0
41
1
10
-38
20
-12.2180896154104
30
0
41
1
10
-38
20
-12.0431930727567
30
0
41
1
10
-38
20
-11.8667275879997
30
0
41
1
10
-38
20
-11.6886992220563
30
0
41
1
10
-38
20
-11.5091211559413
30
0
41
1
10
-38
20
-11.3279971676985
30
0
41
1
10
-38
20
-11.0835274575533
30
0
41
1
10
-38
20
-10.8388445996822
30
0
41
1
10
-38
20
-10.5882272221232
30
0
41
1
10
-38
20
-10.3995106478124
30
0
41
1
10
-38
20
-10.2093006505111
30
0
41
1
10
-38
20
-10.0176111741013
30
0
41
1
10
-38
20
-9.82444825814397
30
0
41
1
10
-38
20
-9.6298243336378
30
0
41
1
10
-38
20
-9.4337503289525
30
0
41
1
10
-38
20
-9.16930024978842
30
0
41
1
10
-38
20
-8.8377403499679
30
0
41
1
10
-38
20
-8.43283016067571
30
0
41
1
10
-38
20
-8.09202302704492
30
0
41
1
10
-38
20
-7.81440668711977
30
0
41
1
10
-38
20
-7.60585888080684
30
0
41
1
10
-38
20
-7.39600299493048
30
0
41
1
10
-38
20
-7.18486050853946
30
0
41
1
10
-38
20
-6.97245482074294
30
0
41
1
10
-38
20
-6.75880464755269
30
0
41
1
10
-38
20
-6.54393387937543
30
0
41
1
10
-38
20
-6.32787102064518
30
0
41
1
10
-38
20
-6.11064460524275
30
0
41
1
10
-38
20
-5.89228682406821
30
0
41
1
10
-38
20
-5.67283049766695
30
0
41
1
10
-38
20
-5.45231041402204
30
0
41
1
10
-38
20
-5.23076611988364
30
0
41
1
10
-38
20
-5.00824236668086
30
0
41
1
10
-38
20
-4.78478453894903
30
0
41
1
10
-38
20
-4.56044477194345
30
0
41
1
10
-38
20
-4.37375931423287
30
0
41
1
10
-38
20
-4.22222174308925
30
0
41
1
10
-38
20
-4.10916467830535
30
0
41
1
10
-38
20
-3.99593123757282
30
0
41
1
10
-38
20
-3.84368490764797
30
0
41
1
10
-38
20
-3.65544484289472
30
0
41
1
10
-38
20
-3.46668355973623
30
0
41
1
10
-38
20
-3.31336520651499
30
0
41
1
10
-38
20
-3.19916977025278
30
0
41
1
10
-38
20
-3.08487718492034
30
0
41
1
10
-38
20
-2.93116533478533
30
0
41
1
10
-38
20
-2.78106304592117
30
0
41
1
10
-38
20
-2.62697343511891
30
0
41
1
10
-38
20
-2.51237687493426
30
0
41
1
10
-38
20
-2.3977497448725
30
0
41
1
10
-38
20
-2.28311555219401
30
0
41
1
10
-38
20
-2.1684761897647
30
0
41
1
10
-38
20
-2.05384840107447
30
0
41
1
10
-38
20
-1.939244581704
30
0
41
1
10
-38
20
-1.8246689917122
30
0
41
1
10
-38
20
-1.7101412139844
30
0
41
1
10
-38
20
-1.59566009898873
30
0
41
1
10
-38
20
-1.48124309885603
30
0
41
1
10
-38
20
-1.3668888387804
30
0
41
1
10
-38
20
-1.25260906632695
30
0
41
1
10
-38
20
-1.13840321986399
30
0
41
1
10
-38
20
-1.02427614220736
30
0
41
1
10
-38
20
-0.910225811803855
30
0
41
1
10
-38
20
-0.796251800903917
30
0
41
1
10
-38
20
-0.682349388495567
30
0
41
1
10
-38
20
-0.568513483413483
30
0
41
1
10
-38
20
-0.454735475948922
30
0
41
1
10
-38
20
-0.341006791030054
30
0
41
1
10
-38
20
-0.227315919379492
30
0
41
1
10
-38
20
-0.113651444289019
30
0
41
1
10
-38
20
-2.3930653E-08
30
0
41
1
10
-38
20
0.113651428861175
30
0
41
1
10
-38
20
0.227315965161864
30
0
41
1
10
-38
20
0.341006831114783
30
0
41
1
10
-38
20
0.454735424962792
30
0
41
1
10
-38
20
0.568513412391582
30
0
41
1
10
-38
20
0.682349437337109
30
0
41
1
10
-38
20
0.796251898049263
30
0
41
1
10
-38
20
0.910225765592259
30
0
41
1
10
-38
20
1.02427601417031
30
0
41
1
10
-38
20
1.13840324907636
30
0
41
1
10
-38
20
1.2526092186576
30
0
41
1
10
-38
20
1.36688883944319
30
0
41
1
10
-38
20
1.48124293103635
30
0
41
1
10
-38
20
1.59566004663387
30
0
41
1
10
-38
20
1.71014137239001
30
0
41
1
10
-38
20
1.82466911261435
30
0
41
1
10
-38
20
1.93924446866487
30
0
41
1
10
-38
20
2.05384821372695
30
0
41
1
10
-38
20
2.16847621903293
30
0
41
1
10
-38
20
2.28311576323423
30
0
41
1
10
-38
20
2.39774983280108
30
0
41
1
10
-38
20
2.5123767231631
30
0
41
1
10
-38
20
2.62697323991804
30
0
41
1
10
-38
20
2.78106315146934
30
0
41
1
10
-38
20
2.93116552693391
30
0
41
1
10
-38
20
3.08487708212587
30
0
41
1
10
-38
20
3.19916954549009
30
0
41
1
10
-38
20
3.31336512600552
30
0
41
1
10
-38
20
3.46668375918682
30
0
41
1
10
-38
20
3.65544489425091
30
0
41
1
10
-38
20
3.84368470208378
30
0
41
1
10
-38
20
3.99593117493797
30
0
41
1
10
-38
20
4.10916481607399
30
0
41
1
10
-38
20
4.22222196867943
30
0
41
1
10
-38
20
4.37375933349009
30
0
41
1
10
-38
20
4.56044458630851
30
0
41
1
10
-38
20
4.78478457648498
30
0
41
1
10
-38
20
5.00824253816091
30
0
41
1
10
-38
20
5.23076600439057
30
0
41
1
10
-38
20
5.45231022599052
30
0
41
1
10
-38
20
5.67283041504655
30
0
41
1
10
-38
20
5.89228674128228
30
0
41
1
10
-38
20
6.11064496108526
30
0
41
1
10
-38
20
6.32787239667019
30
0
41
1
10
-38
20
6.54393525610649
30
0
41
1
10
-38
20
6.7588033404013
30
0
41
1
10
-38
20
6.97245311766213
30
0
41
1
10
-38
20
7.1848611110338
30
0
41
1
10
-38
20
7.39600347561745
30
0
41
1
10
-38
20
7.60585874971366
30
0
41
1
10
-38
20
7.81440645201113
30
0
41
1
10
-38
20
8.09202295752317
30
0
41
1
10
-38
20
8.43283023540661
30
0
41
1
10
-38
20
8.83774029355061
30
0
41
1
10
-38
20
9.16930023887329
30
0
41
1
10
-38
20
9.43375044009517
30
0
41
1
10
-38
20
9.62982432960195
30
0
41
1
10
-38
20
9.82444814962997
30
0
41
1
10
-38
20
10.0176111126089
30
0
41
1
10
-38
20
10.2093007057547
30
0
41
1
10
-38
20
10.3995107409486
30
0
41
1
10
-38
20
10.5882272324294
30
0
41
1
10
-38
20
10.8388445170812
30
0
41
1
10
-38
20
11.0835274377931
30
0
41
1
10
-38
20
11.327997250045
30
0
41
1
10
-38
20
11.5091211965042
30
0
41
1
10
-38
20
11.6886991809047
30
0
41
1
10
-38
20
11.8667275177688
30
0
41
1
10
-38
20
12.0431930522804
30
0
41
1
10
-38
20
12.2180896645831
30
0
41
1
10
-38
20
12.3914124247035
30
0
41
1
10
-38
20
12.5631480735019
30
0
41
1
10
-38
20
12.7332924196477
30
0
41
1
10
-38
20
12.9018387248249
30
0
41
1
10
-38
20
13.068774902876
30
0
41
1
10
-38
20
13.2899980003419
30
0
41
1
10
-38
20
13.5056406071554
30
0
41
1
10
-38
20
13.7202970548286
30
0
41
1
10
-38
20
13.9327572918623
30
0
41
1
10
-38
20
14.1397069500696
30
0
41
1
10
-38
20
14.3454836148158
30
0
41
1
10
-38
20
14.4976048095277
30
0
41
1
10
-38
20
14.6480433741444
30
0
41
1
10
-38
20
14.8470538575165
30
0
41
1
10
-38
20
15.0406366439894
30
0
41
1
10
-38
20
15.2327734637882
30
0
41
1
10
-38
20
15.3746583733237
30
0
41
1
10
-38
20
15.5148115582755
30
0
41
1
10
-38
20
15.6999837411247
30
0
41
1
10
-38
20
15.8797870255404
30
0
41
1
10
-38
20
16.0578801048402
30
0
41
1
10
-38
20
16.189216581434
30
0
41
1
10
-38
20
16.3187661779868
30
0
41
1
10
-38
20
16.4896741385664
30
0
41
1
10
-38
20
16.6552512602625
30
0
41
1
10
-38
20
16.818854580765
30
0
41
1
10
-38
20
16.9392987318018
30
0
41
1
10
-38
20
17.0578934672827
30
0
41
1
10
-38
20
17.2140648101706
30
0
41
1
10
-38
20
17.3649216616154
30
0
41
1
10
-38
20
17.513530035822
30
0
41
1
10
-38
20
17.6226956365842
30
0
41
1
10
-38
20
17.7299433731026
30
0
41
1
10
-38
20
17.8708440004863
30
0
41
1
10
-38
20
18.0064238716365
30
0
41
1
10
-38
20
18.1394672902699
30
0
41
1
10
-38
20
18.236915915677
30
0
41
1
10
-38
20
18.3323672965474
30
0
41
1
10
-38
20
18.4258040962283
30
0
41
1
10
-38
20
18.517209887002
30
0
41
1
10
-38
20
18.606573489648
30
0
41
1
10
-38
20
18.6938772522128
30
0
41
1
10
-38
20
18.7791047692189
30
0
41
1
10
-38
20
18.8622426359769
30
0
41
1
10
-38
20
18.9432715834756
30
0
41
1
10
-38
20
19.0221745805326
30
0
41
1
10
-38
20
19.0989364136874
30
0
41
1
10
-38
20
19.1735363647814
30
0
41
1
10
-38
20
19.2704515417461
30
0
41
1
10
-38
20
19.3619266112173
30
0
41
1
10
-38
20
19.4499498647732
30
0
41
1
10
-38
20
19.5134574724378
30
0
41
1
10
-38
20
19.5746836830748
30
0
41
1
10
-38
20
19.6336085328263
30
0
41
1
10
-38
20
19.6902080668946
30
0
41
1
10
-38
20
19.762824284205
30
0
41
1
10
-38
20
19.829873984374
30
0
41
1
10
-38
20
19.8928775551026
30
0
41
1
10
-38
20
19.9374871757692
30
0
41
1
10
-38
20
19.9796195436674
30
0
41
1
10
-38
20
20.0326760063813
30
0
41
1
10
-38
20
20.0800381474626
30
0
41
1
10
-38
20
20.1228090027497
30
0
41
1
10
-38
20
20.1521177658613
30
0
41
1
10
-38
20
20.1787668505585
30
0
41
1
10
-38
20
20.2027210424567
30
0
41
1
10
-38
20
20.2239455432986
30
0
41
1
10
-38
20
20.2424031363826
30
0
41
1
10
-38
20
20.2580557552655
30
0
41
1
10
-38
20
20.2708642249464
30
0
41
1
10
-38
20
20.2807872561095
30
0
41
1
10
-38
20
20.2877829489452
30
0
41
1
10
-38
20
20.2916003507642
30
0
41
1
10
-38
20
20.292363228627
30
0
41
1
10
-38
20
20.2923482566642
30
0
0
SPLINE
5
196
100
AcDbEntity
8
1
62
256
6
ByLayer
370
18
48
1
60
0
100
AcDbSpline
70
4
71
3
72
10
73
6
40
0
40
0
40
0
40
0
40
0.514206617236337
40
0.514206617236337
40
1
40
1
40
1
40
1
41
1
10
11.0495732681478
20
20.2298716728432
30
0
41
1
10
10.9159277226928
20
20.2629587045714
30
0
41
1
10
10.7846423774627
20
20.2540900053695
30
0
41
1
10
10.5460180846334
20
20.1049631759308
30
0
41
1
10
10.459320333799
20
19.9564055118796
30
0
41
1
10
10.4084121783832
20
19.7785240979984
30
0
0
SPLINE
5
197
100
AcDbEntity
8
1
62
256
6
ByLayer
370
18
48
1
60
0
100
AcDbSpline
70
4
71
2
72
6
73
3
40
0
40
0
40
0
40
1
40
1
40
1
41
0.894949251473523
10
21.8157460596687
20
-24.0209899248608
30
0
41
0.929419202879381
10
22.4181304293616
20
-23.5396191206748
30
0
41
1.02613459695995
10
23.0523200785027
20
-23.5278762678118
30
0
0
SPLINE
5
198
100
AcDbEntity
8
1
62
256
6
ByLayer
370
18
48
1
60
0
100
AcDbSpline
70
4
71
3
72
9
73
5
40
0
40
0
40
0
40
0
40
0.88675349953161
40
1
40
1
40
1
40
1
41
1.02613459695995
10
30.5708667533013
20
-22.2590096811603
30
0
41
1.02613459695995
10
29.7378259083139
20
-22.1203894558443
30
0
41
1.02613459695995
10
28.7646371421808
20
-22.2943570816315
30
0
41
1.02613459695995
10
27.8857637095665
20
-22.8510626517146
30
0
41
1.02613459695995
10
27.7876844178096
20
-22.9190244303892
30
0
0
SPLINE
5
199
100
AcDbEntity
8
1
62
256
6
ByLayer
370
18
48
1
60
0
100
AcDbSpline
70
4
71
2
72
6
73
3
40
0
40
0
40
0
40
1
40
1
40
1
41
1.02613459695995
10
23.2416506575004
20
-23.5243705639035
30
0
41
0.972565406337638
10
23.5773352837209
20
-23.5181549229207
30
0
41
0.938092396508711
10
23.8886249941065
20
-23.6500136481825
30
0
0
SPLINE
5
19A
100
AcDbEntity
8
1
62
256
6
ByLayer
370
18
48
1
60
0
100
AcDbSpline
70
4
71
3
72
10
73
6
40
0
40
0
40
0
40
0
40
0.419863967599552
40
0.419863967599552
40
1
40
1
40
1
40
1
41
1
10
10.4925020215058
20
19.5658463336922
30
0
41
1
10
10.5662837205597
20
19.696881369026
30
0
41
1
10
10.6460875078252
20
19.817435229222
30
0
41
1
10
10.8482090093322
20
20.0705382463117
30
0
41
1
10
10.9764433811814
20
20.1917067784063
30
0
41
1
10
11.1085433526974
20
20.2856076624942
30
0
0
SPLINE
5
19B
100
AcDbEntity
8
1
62
256
6
ByLayer
370
18
48
1
60
0
100
AcDbSpline
70
4
71
3
72
8
73
4
40
0
40
0
40
0
40
0
40
1
40
1
40
1
40
1
41
1
10
25.0633348494658
20
-22.9747834184113
30
0
41
1
10
24.6047205152803
20
-23.1148142856123
30
0
41
1
10
24.2078008342362
20
-23.3635401673721
30
0
41
1
10
23.8897032453105
20
-23.6715979923718
30
0
0
SPLINE
5
19C
100
AcDbEntity
8
1
62
256
6
ByLayer
370
18
48
1
60
0
100
AcDbSpline
70
4
71
3
72
10
73
6
40
0
40
0
40
0
40
0
40
0.301268733123849
40
0.301268733123849
40
1
40
1
40
1
40
1
41
1
10
23.1894486250019
20
-24.7018600311577
30
0
41
1
10
23.1349669729573
20
-24.8292072236064
30
0
41
1
10
23.0878124570189
20
-24.9600218432355
30
0
41
1
10
22.952049120923
20
-25.4068964455679
30
0
41
1
10
22.8937314523996
20
-25.7420900954078
30
0
41
1
10
22.8531350519545
20
-26.1051978537569
30
0
0
SPLINE
5
19D
100
AcDbEntity
8
1
62
256
6
ByLayer
370
18
48
1
60
0
100
AcDbSpline
70
4
71
3
72
16
73
12
40
0
40
0
40
0
40
0
40
0.0738703642344361
40
0.0738703642344361
40
0.359443733496523
40
0.359443733496523
40
0.646697025746732
40
0.646697025746732
40
0.912066212864229
40
0.912066212864229
40
1
40
1
40
1
40
1
41
1
10
50.8532315316813
20
-28.8950492217604
30
0
41
1
10
50.8516655262462
20
-28.8897453413742
30
0
41
1
10
50.849936254738
20
-28.8845010781954
30
0
41
1
10
50.8406948102359
20
-28.8593471595765
30
0
41
1
10
50.8306033473829
20
-28.8401183321774
30
0
41
1
10
50.8058456807177
20
-28.8067189035386
30
0
41
1
10
50.7908039176514
20
-28.7921766498517
30
0
41
1
10
50.759894485066
20
-28.77075590765
30
0
41
1
10
50.7438592984695
20
-28.7630818099493
30
0
41
1
10
50.7225547098979
20
-28.756149243954
30
0
41
1
10
50.7171973736233
20
-28.7546728088961
30
0
41
1
10
50.7118504625338
20
-28.7534371510336
30
0
0
SPLINE
5
19E
100
AcDbEntity
8
1
62
256
6
ByLayer
370
18
48
1
60
0
100
AcDbSpline
70
4
71
3
72
18
73
14
40
0
40
0
40
0
40
0
40
0.0583680648453554
40
0.0583680648453554
40
0.307883915898499
40
0.307883915898499
40
0.541478538860036
40
0.541478538860036
40
0.754073023445565
40
0.754073023445565
40
0.952032096741979
40
0.952032096741979
40
1
40
1
40
1
40
1
41
1
10
51.1759332182928
20
-28.4374932540356
30
0
41
1
10
51.1805085996048
20
-28.4294382714622
30
0
41
1
10
51.1847555885367
20
-28.4212183379215
30
0
41
1
10
51.2052617006512
20
-28.3772075568293
30
0
41
1
10
51.2158501815401
20
-28.3380418537023
30
0
41
1
10
51.2216189860605
20
-28.2623165454047
30
0
41
1
10
51.2177676346593
20
-28.2245918515675
30
0
41
1
10
51.1973523127116
20
-28.1576813005716
30
0
41
1
10
51.1816259437227
20
-28.1270774714289
30
0
41
1
10
51.1421119046689
20
-28.076282110258
30
0
41
1
10
51.1184129187974
20
-28.0548328240826
30
0
41
1
10
51.0857078188142
20
-28.0341342905603
30
0
41
1
10
51.0790807102014
20
-28.0303173105933
30
0
41
1
10
51.0723119980791
20
-28.0267817140385
30
0
0
SPLINE
5
19F
100
AcDbEntity
8
1
62
256
6
ByLayer
370
18
48
1
60
0
100
AcDbSpline
70
4
71
3
72
12
73
8
40
0
40
0
40
0
40
0
40
0.402325874180577
40
0.402325874180577
40
0.809010955921613
40
0.809010955921613
40
1
40
1
40
1
40
1
41
1
10
49.6884328545552
20
-39.8367117531323
30
0
41
1
10
49.7067021029962
20
-39.833779823017
30
0
41
1
10
49.725767143623
20
-39.8284081491189
30
0
41
1
10
49.7629917240151
20
-39.8116436846096
30
0
41
1
10
49.7815973719852
20
-39.7998817269853
30
0
41
1
10
49.8058124581508
20
-39.7787848549957
30
0
41
1
10
49.8131954520764
20
-39.7713775992364
30
0
41
1
10
49.8200810242195
20
-39.7635069275062
30
0
0
SPLINE
5
1A0
100
AcDbEntity
8
1
62
256
6
ByLayer
370
18
48
1
60
0
100
AcDbSpline
70
4
71
3
72
22
73
18
40
0
40
0
40
0
40
0
40
0.0625000000000004
40
0.0625000000000004
40
0.125000000000001
40
0.125000000000001
40
0.250000000000001
40
0.250000000000001
40
0.5
40
0.5
40
0.749999999999998
40
0.749999999999998
40
0.874999999999998
40
0.874999999999998
40
0.937499999999999
40
0.937499999999999
40
1
40
1
40
1
40
1
41
1
10
44.4007005198558
20
-40.301244894948
30
0
41
1
10
44.1733302542519
20
-40.350193579686
30
0
41
1
10
43.9116884568977
20
-40.4057018279534
30
0
41
1
10
43.7338903574463
20
-40.3311839655216
30
0
41
1
10
43.9961818803609
20
-40.1891713149768
30
0
41
1
10
44.6393760755937
20
-39.892242377242
30
0
41
1
10
45.1230459078651
20
-39.7162611305753
30
0
41
1
10
46.5400439541361
20
-39.2175338945056
30
0
41
1
10
47.5022931612264
20
-38.9167615736243
30
0
41
1
10
49.3936392153997
20
-38.3581571186294
30
0
41
1
10
50.3335229528462
20
-38.1113857582373
30
0
41
1
10
51.7033570928996
20
-37.8047015661143
30
0
41
1
10
52.1540074140578
20
-37.7101365898948
30
0
41
1
10
52.812461689988
20
-37.5854233778381
30
0
41
1
10
53.0292917438619
20
-37.5465572420716
30
0
41
1
10
53.4469633139155
20
-37.4825753792484
30
0
41
1
10
53.7082638482987
20
-37.4299599786435
30
0
41
1
10
53.7804911756308
20
-37.4746515277558
30
0
0
SPLINE
5
1A1
100
AcDbEntity
8
1
62
256
6
ByLayer
370
18
48
1
60
0
100
AcDbSpline
70
4
71
3
72
8
73
4
40
0
40
0
40
0
40
0
40
1
40
1
40
1
40
1
41
1
10
56.1004693052631
20
-31.8599172657409
30
0
41
1
10
56.3923295340697
20
-32.1823260132269
30
0
41
1
10
56.6854703878884
20
-32.5062280860791
30
0
41
1
10
56.978811085481
20
-32.830365702162
30
0
0
SPLINE
5
1A2
100
AcDbEntity
8
1
62
256
6
ByLayer
370
18
48
1
60
0
100
AcDbSpline
70
4
71
3
72
8
73
4
40
0
40
0
40
0
40
0
40
1
40
1
40
1
40
1
41
1
10
26.6429491731963
20
-24.3428211626824
30
0
41
1
10
26.6294428927
20
-24.3769280715856
30
0
41
1
10
26.6114028273102
20
-24.4138525136034
30
0
41
1
10
26.5900926857133
20
-24.4536003742793
30
0
0
SPLINE
5
1A3
100
AcDbEntity
8
1
62
256
6
ByLayer
370
18
48
1
60
0
100
AcDbSpline
70
4
71
3
72
8
73
4
40
0
40
0
40
0
40
0
40
1
40
1
40
1
40
1
41
1
10
25.1945714733265
20
-26.5240338744212
30
0
41
1
10
26.7181890490325
20
-27.4150074523439
30
0
41
1
10
28.7273339762626
20
-28.922806026158
30
0
41
1
10
30.7064769851107
20
-30.3847424188374
30
0
0
SPLINE
5
1A4
100
AcDbEntity
8
1
62
256
6
ByLayer
370
18
48
1
60
0
100
AcDbSpline
70
4
71
3
72
12
73
8
40
0
40
0
40
0
40
0
40
0.0373317696744976
40
0.280652676023793
40
0.523973582373088
40
0.686187519939285
40
1
40
1
40
1
40
1
41
1.03205634404025
10
42.4260880406706
20
-36.6906596678792
30
0
41
1.0318026041187
10
42.6733987809767
20
-36.7018499382219
30
0
41
1.02984558575382
10
44.5741011598124
20
-36.7776783830854
30
0
41
1.02566722369869
10
48.6130517869262
20
-36.7667526692637
30
0
41
1.02325876009371
10
50.9732712395923
20
-36.704135442919
30
0
41
1.02334794718885
10
54.4218423947989
20
-36.3102782831766
30
0
41
1.02245227377491
10
56.330475513265
20
-36.0437217331492
30
0
41
1.02236689899618
10
57.6569269167564
20
-35.8367345888254
30
0
0
SPLINE
5
1A5
100
AcDbEntity
8
1
62
256
6
ByLayer
370
18
48
1
60
0
100
AcDbSpline
70
4
71
3
72
8
73
4
40
0
40
0
40
0
40
0
40
1
40
1
40
1
40
1
41
1
10
42.4260880406684
20
-36.6906596678798
30
0
41
1
10
43.2911714627213
20
-35.2892211174904
30
0
41
1
10
43.4545483528555
20
-33.5200923088439
30
0
41
1
10
42.8579844777619
20
-32.013363933841
30
0
0
SPLINE
5
1A6
100
AcDbEntity
8
1
62
256
6
ByLayer
370
18
48
1
60
0
100
AcDbSpline
70
4
71
3
72
14
73
10
40
0
40
0
40
0
40
0
40
0.250129257644727
40
0.250129257644727
40
0.566277192435768
40
0.566277192435768
40
0.886777176233745
40
0.886777176233745
40
1
40
1
40
1
40
1
41
1
10
57.4594374703637
20
-36.2300194481646
30
0
41
1
10
57.4748517825456
20
-36.2105558367196
30
0
41
1
10
57.4924132417732
20
-36.1851551290982
30
0
41
1
10
57.532399871754
20
-36.1202949231479
30
0
41
1
10
57.555520397796
20
-36.0778902388678
30
0
41
1
10
57.5989240065053
20
-35.9878263207305
30
0
41
1
10
57.6197345483487
20
-35.9389483305674
30
0
41
1
10
57.6446667424457
20
-35.8721319423447
30
0
41
1
10
57.6509520401554
20
-35.8544339742138
30
0
41
1
10
57.6569269191899
20
-35.8367345884457
30
0
0
SPLINE
5
1A7
100
AcDbEntity
8
1
62
256
6
ByLayer
370
18
48
1
60
0
100
AcDbSpline
70
4
71
3
72
12
73
8
40
0
40
0
40
0
40
0
40
0.369430042092632
40
0.369430042092632
40
0.741170068808696
40
0.741170068808696
40
1
40
1
40
1
40
1
41
1
10
57.7896787343176
20
-34.3990762859954
30
0
41
1
10
57.7810040886875
20
-34.3411475285272
30
0
41
1
10
57.7691014052452
20
-34.2803997134746
30
0
41
1
10
57.7406700622474
20
-34.1626970976558
30
0
41
1
10
57.7236069614378
20
-34.1037649427472
30
0
41
1
10
57.6939569756515
20
-34.014841808045
30
0
41
1
10
57.6812754809323
20
-33.9805510586714
30
0
41
1
10
57.6697779334249
20
-33.95210172049
30
0
0
SPLINE
5
1A8
100
AcDbEntity
8
1
62
256
6
ByLayer
370
18
48
1
60
0
100
AcDbSpline
70
4
71
3
72
8
73
4
40
0
40
0
40
0
40
0
40
1
40
1
40
1
40
1
41
1
10
56.100469305265
20
-31.8599172657404
30
0
41
1
10
56.0319765572389
20
-31.810925664876
30
0
41
1
10
55.963377830372
20
-31.7620853781963
30
0
41
1
10
55.894663172665
20
-31.7134106149397
30
0
0
SPLINE
5
1A9
100
AcDbEntity
8
1
62
256
6
ByLayer
370
18
48
1
60
0
100
AcDbSpline
70
4
71
2
72
6
73
3
40
0
40
0
40
0
40
1
40
1
40
1
41
1.03601283770101
10
36.8665186929639
20
-41.7383429961665
30
0
41
1.03601283770101
10
36.6962629000253
20
-41.8872277743967
30
0
41
1.03601283770101
10
36.5260071070867
20
-42.0361125526269
30
0
0
SPLINE
5
1AA
100
AcDbEntity
8
1
62
256
6
ByLayer
370
18
48
1
60
0
100
AcDbSpline
70
4
71
3
72
8
73
4
40
0
40
0
40
0
40
0
40
1
40
1
40
1
40
1
41
1
10
36.8665186929639
20
-41.7383429961665
30
0
41
1
10
37.0716954505118
20
-41.5589206369136
30
0
41
1
10
37.3344961171317
20
-40.5380833422971
30
0
41
1
10
37.5609399292336
20
-39.040895134731
30
0
0
SPLINE
5
1AB
100
AcDbEntity
8
1
62
256
6
ByLayer
370
18
48
1
60
0
100
AcDbSpline
70
4
71
3
72
10
73
6
40
0
40
0
40
0
40
0
40
0.580179116579151
40
0.580179116579151
40
1
40
1
40
1
40
1
41
1
10
57.6697779334249
20
-33.95210172049
30
0
41
1
10
57.5872361795232
20
-33.7484410773286
30
0
41
1
10
57.4827907222694
20
-33.5339103320831
30
0
41
1
10
57.2436337972874
20
-33.1546794006853
30
0
41
1
10
57.1224206995975
20
-32.989052438603
30
0
41
1
10
56.978811085481
20
-32.830365702162
30
0
0
SPLINE
5
1AC
100
AcDbEntity
8
1
62
256
6
ByLayer
370
18
48
1
60
0
100
AcDbSpline
70
4
71
3
72
8
73
4
40
0
40
0
40
0
40
0
40
1
40
1
40
1
40
1
41
1
10
32.1326820098509
20
-37.2801983295497
30
0
41
1
10
32.9464402405282
20
-38.1975222810127
30
0
41
1
10
34.0989738827968
20
-38.7548943116099
30
0
41
1
10
35.3579918424836
20
-38.8589323231259
30
0
0
SPLINE
5
1AD
100
AcDbEntity
8
1
62
256
6
ByLayer
370
18
48
1
60
0
100
AcDbSpline
70
4
71
3
72
10
73
6
40
0
40
0
40
0
40
0
40
0.467786649874097
40
0.467786649874097
40
1
40
1
40
1
40
1
41
1
10
56.5903461665394
20
-37.0373124425606
30
0
41
1
10
56.7783096166434
20
-36.9073588564613
30
0
41
1
10
56.9396895483614
20
-36.7730974468799
30
0
41
1
10
57.2288164551036
20
-36.5016548432911
30
0
41
1
10
57.3541022597218
20
-36.3622090216291
30
0
41
1
10
57.4594374703637
20
-36.2300194481646
30
0
0
SPLINE
5
1AE
100
AcDbEntity
8
1
62
256
6
ByLayer
370
18
48
1
60
0
100
AcDbSpline
70
4
71
3
72
16
73
12
40
0
40
0
40
0
40
0
40
0.0053487653169922
40
0.0053487653169922
40
0.333118422310142
40
0.333118422310142
40
0.661356115041345
40
0.661356115041345
40
0.8482687857987
40
0.8482687857987
40
1
40
1
40
1
40
1
41
1
10
50.7118504625339
20
-28.7534371510336
30
0
41
1
10
50.7127989747521
20
-28.7542159581279
30
0
41
1
10
50.713750058033
20
-28.7549939243408
30
0
41
1
10
50.7723465391923
20
-28.8032893469959
30
0
41
1
10
50.8179323267026
20
-28.853995399174
30
0
41
1
10
50.9020242900277
20
-28.952242705733
30
0
41
1
10
50.945056039152
20
-29.0023904368189
30
0
41
1
10
51.0294276197325
20
-29.0790436061411
30
0
41
1
10
51.0639496699273
20
-29.1067921523402
30
0
41
1
10
51.1311509806878
20
-29.1520888106841
30
0
41
1
10
51.1637112997704
20
-29.1710236761546
30
0
41
1
10
51.1959679011391
20
-29.1864319087843
30
0
0
SPLINE
5
1AF
100
AcDbEntity
8
1
62
256
6
ByLayer
370
18
48
1
60
0
100
AcDbSpline
70
4
71
3
72
8
73
4
40
0
40
0
40
0
40
0
40
1
40
1
40
1
40
1
41
1
10
30.7064769851107
20
-30.3847424188374
30
0
41
1
10
30.7252861822454
20
-30.3865058072179
30
0
41
1
10
30.7440990111974
20
-30.3882575894173
30
0
41
1
10
30.7629126775425
20
-30.3899974941761
30
0
0
SPLINE
5
1B0
100
AcDbEntity
8
1
62
256
6
ByLayer
370
18
48
1
60
0
100
AcDbSpline
70
4
71
3
72
18
73
14
40
0
40
0
40
0
40
0
40
0.191215801348466
40
0.191215801348466
40
0.381963811899618
40
0.381963811899618
40
0.57804470290376
40
0.57804470290376
40
0.777202980318988
40
0.777202980318988
40
0.976898938598162
40
0.976898938598162
40
1
40
1
40
1
40
1
41
1
10
24.0752991624387
20
-38.645383242807
30
0
41
1
10
24.1210550603666
20
-38.8258473695346
30
0
41
1
10
24.1759397529953
20
-39.0165606802123
30
0
41
1
10
24.3025011121845
20
-39.3822798823031
30
0
41
1
10
24.3758950410759
20
-39.5624083264153
30
0
41
1
10
24.533573659745
20
-39.8941429768182
30
0
41
1
10
24.6201977194366
20
-40.0493774671681
30
0
41
1
10
24.7860080764471
20
-40.3141658206669
30
0
41
1
10
24.8669437030387
20
-40.4265171256722
30
0
41
1
10
24.9977995490378
20
-40.5985945539001
30
0
41
1
10
25.0487898266514
20
-40.6605058524541
30
0
41
1
10
25.0823818514869
20
-40.7054544574189
30
0
41
1
10
25.0856349479532
20
-40.7098851297417
30
0
41
1
10
25.0886206556009
20
-40.7140464398261
30
0
0
SPLINE
5
1B1
100
AcDbEntity
8
1
62
256
6
ByLayer
370
18
48
1
60
0
100
AcDbSpline
70
4
71
3
72
8
73
4
40
0
40
0
40
0
40
0
40
1
40
1
40
1
40
1
41
1
10
36.5260071070867
20
-42.0361125526269
30
0
41
1
10
38.2693275596322
20
-42.127531671433
30
0
41
1
10
40.0365632046721
20
-42.225804972674
30
0
41
1
10
41.6989445457183
20
-42.294026643395
30
0
0
SPLINE
5
1B2
100
AcDbEntity
8
1
62
256
6
ByLayer
370
18
48
1
60
0
100
AcDbSpline
70
4
71
3
72
8
73
4
40
0
40
0
40
0
40
0
40
1
40
1
40
1
40
1
41
1
10
38.5041899671784
20
-28.8258088322703
30
0
41
1
10
38.4946957088335
20
-28.8249685649953
30
0
41
1
10
38.4851983980884
20
-28.8241558721938
30
0
41
1
10
38.4756980281633
20
-28.8233708161999
30
0
0
SPLINE
5
1B3
100
AcDbEntity
8
1
62
256
6
ByLayer
370
18
48
1
60
0
100
AcDbSpline
70
4
71
3
72
10
73
6
40
0
40
0
40
0
40
0
40
0.869778602561099
40
0.869778602561099
40
1
40
1
40
1
40
1
41
1
10
53.7804911756308
20
-37.4746515277558
30
0
41
1
10
54.2382103840509
20
-37.5822723401541
30
0
41
1
10
54.7013609555104
20
-37.6874485028643
30
0
41
1
10
55.1994846173318
20
-37.8242131425434
30
0
41
1
10
55.263666642248
20
-37.8423417313119
30
0
41
1
10
55.3270154357912
20
-37.860848083422
30
0
0
SPLINE
5
1B4
100
AcDbEntity
8
1
62
256
6
ByLayer
370
18
48
1
60
0
100
AcDbSpline
70
4
71
3
72
12
73
8
40
0
40
0
40
0
40
0
40
0.0373317696752054
40
0.280652676024339
40
0.523973582373472
40
0.686187519939561
40
1
40
1
40
1
40
1
41
1.03205634404027
10
42.8579844777619
20
-32.013363933841
30
0
41
1.03180260411871
10
43.1040809290118
20
-32.0377045535607
30
0
41
1.02984558575383
10
44.9939913748209
20
-32.2304060679223
30
0
41
1.02566722369869
10
48.9852080701109
20
-32.7364230663072
30
0
41
1.02325876009371
10
51.3117791134896
20
-33.0382069969179
30
0
41
1.02334794718885
10
54.6593690230613
20
-33.7379433670213
30
0
41
1.02245227377491
10
56.5078047253507
20
-34.1233049481421
30
0
41
1.02236689899618
10
57.789678731966
20
-34.3990762854894
30
0
0
SPLINE
5
1B5
100
AcDbEntity
8
1
62
256
6
ByLayer
370
18
48
1
60
0
100
AcDbSpline
70
4
71
3
72
9
73
5
40
0
40
0
40
0
40
0
40
0.787466588235934
40
1
40
1
40
1
40
1
41
1.03601283770101
10
38.3832199260531
20
-25.3129696934398
30
0
41
1.03551243927663
10
39.5687984180586
20
-25.5803938527215
30
0
41
1.03306158416575
10
41.9815644880132
20
-26.4514440312996
30
0
41
1.03000516837039
10
44.9044845077657
20
-27.8785934834079
30
0
41
1.02936223451679
10
45.5194590536249
20
-28.1854595868676
30
0
0
SPLINE
5
1B6
100
AcDbEntity
8
1
62
256
6
ByLayer
370
18
48
1
60
0
100
AcDbSpline
70
4
71
3
72
8
73
4
40
0
40
0
40
0
40
0
40
1
40
1
40
1
40
1
41
1
10
38.1506202534509
20
-24.4420888784999
30
0
41
1
10
39.8939407063883
20
-24.533507997343
30
0
41
1
10
41.6611763518419
20
-24.6317812986279
30
0
41
1
10
43.3235576932003
20
-24.7000029693604
30
0
0
SPLINE
5
1B7
100
AcDbEntity
8
1
62
256
6
ByLayer
370
18
48
1
60
0
100
AcDbSpline
70
4
71
3
72
22
73
18
40
0
40
0
40
0
40
0
40
0.0624999999999998
40
0.0624999999999998
40
0.125
40
0.125
40
0.25
40
0.25
40
0.5
40
0.5
40
0.749999999999999
40
0.749999999999999
40
0.875
40
0.875
40
0.9375
40
0.9375
40
1
40
1
40
1
40
1
41
1
10
54.2511589979494
20
-32.3774744962554
30
0
41
1
10
54.1675817910754
20
-32.4512684134473
30
0
41
1
10
53.9173854510161
20
-32.3753936769686
30
0
41
1
10
53.5159567666031
20
-32.2876089893125
30
0
41
1
10
53.3091842856917
20
-32.2332205595113
30
0
41
1
10
52.6813766192397
20
-32.0570780115928
30
0
41
1
10
52.2538395277882
20
-31.9218787197678
30
0
41
1
10
50.9685002371728
20
-31.4842677009854
30
0
41
1
10
50.0954023747877
20
-31.1287193827194
30
0
41
1
10
48.3185334883403
20
-30.296846332046
30
0
41
1
10
47.4275881904028
20
-29.8511048984693
30
0
41
1
10
46.1180231879518
20
-29.1008937119718
30
0
41
1
10
45.6718399218871
20
-28.8353000022822
30
0
41
1
10
45.0919178005483
20
-28.3813230373267
30
0
41
1
10
44.8600319719271
20
-28.1661340381846
30
0
41
1
10
45.045211868075
20
-28.0328086489073
30
0
41
1
10
45.3004496836684
20
-28.1140926902208
30
0
41
1
10
45.5194590508276
20
-28.1854595854717
30
0
0
SPLINE
5
1B8
100
AcDbEntity
8
1
62
256
6
ByLayer
370
18
48
1
60
0
100
AcDbSpline
70
4
71
3
72
8
73
4
40
0
40
0
40
0
40
0
40
1
40
1
40
1
40
1
41
1
10
49.6884328545552
20
-39.8367117531323
30
0
41
1
10
49.7576133863521
20
-39.9925243132059
30
0
41
1
10
49.841044209731
20
-40.1434072894436
30
0
41
1
10
49.9400726396829
20
-40.2885599231794
30
0
0
SPLINE
5
1B9
100
AcDbEntity
8
1
62
256
6
ByLayer
370
18
48
1
60
0
100
AcDbSpline
70
4
71
3
72
8
73
4
40
0
40
0
40
0
40
0
40
1
40
1
40
1
40
1
41
1
10
24.9395196212306
20
-27.423839650014
30
0
41
1
10
24.9700210652494
20
-27.0935190876306
30
0
41
1
10
25.0647409635621
20
-26.7885261411459
30
0
41
1
10
25.1945714733265
20
-26.5240338744212
30
0
0
SPLINE
5
1BA
100
AcDbEntity
8
1
62
256
6
ByLayer
370
18
48
1
60
0
100
AcDbSpline
70
4
71
3
72
8
73
4
40
0
40
0
40
0
40
0
40
1
40
1
40
1
40
1
41
1
10
55.3270154357852
20
-37.8608480834205
30
0
41
1
10
55.4036104537409
20
-37.8241808909654
30
0
41
1
10
55.4801216591437
20
-37.7873316552765
30
0
41
1
10
55.5565562466753
20
-37.7503160034059
30
0
0
SPLINE
5
1BB
100
AcDbEntity
8
1
62
256
6
ByLayer
370
18
48
1
60
0
100
AcDbSpline
70
4
71
3
72
8
73
4
40
0
40
0
40
0
40
0
40
1
40
1
40
1
40
1
41
1
10
37.5609399292336
20
-39.040895134731
30
0
41
1
10
39.4461187608011
20
-39.17805091019
30
0
41
1
10
41.4211429586263
20
-38.3187442913234
30
0
41
1
10
42.4260880406706
20
-36.6906596678792
30
0
0
SPLINE
5
1BC
100
AcDbEntity
8
1
62
256
6
ByLayer
370
18
48
1
60
0
100
AcDbSpline
70
4
71
3
72
8
73
4
40
0
40
0
40
0
40
0
40
1
40
1
40
1
40
1
41
1
10
51.0723119980791
20
-28.0267817140385
30
0
41
1
10
50.9382712115464
20
-28.2608013355047
30
0
41
1
10
50.8185039693768
20
-28.5034297707958
30
0
41
1
10
50.7118504625338
20
-28.7534371510336
30
0
0
SPLINE
5
1BD
100
AcDbEntity
8
1
62
256
6
ByLayer
370
18
48
1
60
0
100
AcDbSpline
70
4
71
2
72
6
73
3
40
0
40
0
40
0
40
1
40
1
40
1
41
1
10
43.3235576547646
20
-24.7000031227104
30
0
41
1
10
44.7408577770699
20
-25.0422174565585
30
0
41
1
10
46.4593747409973
20
-25.6172183491431
30
0
0
SPLINE
5
1BE
100
AcDbEntity
8
1
62
256
6
ByLayer
370
18
48
1
60
0
100
AcDbSpline
70
4
71
1
72
4
73
2
40
0
40
0
40
1
40
1
41
1
10
38.3832199260531
20
-25.3129696934398
30
0
41
1
10
38.1506202534509
20
-24.4420888784999
30
0
0
SPLINE
5
1BF
100
AcDbEntity
8
1
62
256
6
ByLayer
370
18
48
1
60
0
100
AcDbSpline
70
4
71
3
72
10
73
6
40
0
40
0
40
0
40
0
40
0.5
40
0.5
40
1
40
1
40
1
40
1
41
1
10
44.955497664904
20
-41.9049691411493
30
0
41
1
10
45.0119146601213
20
-41.5862880411524
30
0
41
1
10
45.0473099073754
20
-41.2736987332396
30
0
41
1
10
44.9553056733153
20
-40.7011540937412
30
0
41
1
10
44.8498252829033
20
-40.4358671669154
30
0
41
1
10
44.4007005198558
20
-40.301244894948
30
0
0
SPLINE
5
1C0
100
AcDbEntity
8
1
62
256
6
ByLayer
370
18
48
1
60
0
100
AcDbSpline
70
4
71
3
72
8
73
4
40
0
40
0
40
0
40
0
40
1
40
1
40
1
40
1
41
1
10
25.0886206556009
20
-40.7140464398261
30
0
41
1
10
25.1042365144649
20
-40.7358109387778
30
0
41
1
10
25.1171970117442
20
-40.7539562190683
30
0
41
1
10
25.126247940107
20
-40.7681944654091
30
0
0
SPLINE
5
1C1
100
AcDbEntity
8
1
62
256
6
ByLayer
370
18
48
1
60
0
100
AcDbSpline
70
4
71
3
72
8
73
4
40
0
40
0
40
0
40
0
40
1
40
1
40
1
40
1
41
1
10
30.6207145391812
20
-36.4040370185936
30
0
41
1
10
30.4874923715298
20
-36.3744958633198
30
0
41
1
10
30.3505148075504
20
-36.3533025452018
30
0
41
1
10
30.2134381071824
20
-36.3406255688527
30
0
0
SPLINE
5
1C2
100
AcDbEntity
8
1
62
256
6
ByLayer
370
18
48
1
60
0
100
AcDbSpline
70
4
71
3
72
10
73
6
40
0
40
0
40
0
40
0
40
0.258575330737307
40
0.258575330737307
40
1
40
1
40
1
40
1
41
1
10
55.2465548762199
20
-37.953591113804
30
0
41
1
10
55.1714582537374
20
-37.9790381975173
30
0
41
1
10
55.0961047419088
20
-38.0037581142462
30
0
41
1
10
54.805706811263
20
-38.0959500994628
30
0
41
1
10
54.5897477089935
20
-38.1579036300416
30
0
41
1
10
54.3788265326485
20
-38.2127303467898
30
0
0
SPLINE
5
1C3
100
AcDbEntity
8
1
62
256
6
ByLayer
370
18
48
1
60
0
100
AcDbSpline
70
4
71
3
72
8
73
4
40
0
40
0
40
0
40
0
40
1
40
1
40
1
40
1
41
1
10
42.8579844777597
20
-32.01336393384
30
0
41
1
10
42.1656570139352
20
-30.2647006176351
30
0
41
1
10
40.385992664039
20
-28.9840337458116
30
0
41
1
10
38.5041899671784
20
-28.8258088322704
30
0
0
SPLINE
5
1C4
100
AcDbEntity
8
1
62
256
6
ByLayer
370
18
48
1
60
0
100
AcDbSpline
70
4
71
3
72
8
73
4
40
0
40
0
40
0
40
0
40
1
40
1
40
1
40
1
41
1
10
26.4793254376335
20
-22.8308891550579
30
0
41
1
10
26.212653226789
20
-22.8049874241268
30
0
41
1
10
25.9397137426135
20
-22.8080906027306
30
0
41
1
10
25.6746304291839
20
-22.8426069810579
30
0
0
SPLINE
5
1C5
100
AcDbEntity
8
1
62
256
6
ByLayer
370
18
48
1
60
0
100
AcDbSpline
70
4
71
3
72
12
73
8
40
0
40
0
40
0
40
0
40
0.444122598433032
40
0.444122598433032
40
0.992850705219397
40
0.992850705219397
40
1
40
1
40
1
40
1
41
1
10
31.1752979646015
20
-30.3980817314344
30
0
41
1
10
31.4412207546779
20
-30.383299815229
30
0
41
1
10
31.7076153568006
20
-30.3316335841715
30
0
41
1
10
32.2695947389063
20
-30.1383413572681
30
0
41
1
10
32.5656127611939
20
-29.9746031926335
30
0
41
1
10
32.820470827763
20
-29.7652663628847
30
0
41
1
10
32.8237939148077
20
-29.7625233668777
30
0
41
1
10
32.8271099944776
20
-29.7597726646211
30
0
0
SPLINE
5
1C6
100
AcDbEntity
8
1
62
256
6
ByLayer
370
18
48
1
60
0
100
AcDbSpline
70
4
71
3
72
8
73
4
40
0
40
0
40
0
40
0
40
1
40
1
40
1
40
1
41
1
10
30.7629126775425
20
-30.3899974941762
30
0
41
1
10
30.8999893779129
20
-30.4026744705256
30
0
41
1
10
31.0386465852847
20
-30.4056778056102
30
0
41
1
10
31.1752979646015
20
-30.3980817314345
30
0
0
SPLINE
5
1C7
100
AcDbEntity
8
1
62
256
6
ByLayer
370
18
48
1
60
0
100
AcDbSpline
70
4
71
3
72
10
73
6
40
0
40
0
40
0
40
0
40
0.5
40
0.5
40
1
40
1
40
1
40
1
41
1
10
31.1752979646015
20
-30.3980817314345
30
0
41
1
10
30.3577530489919
20
-29.1991190117058
30
0
41
1
10
29.5246026469552
20
-27.9997367250538
30
0
41
1
10
27.9508400236122
20
-25.8974193148846
30
0
41
1
10
27.198728398134
20
-24.9751631638948
30
0
41
1
10
26.5900926857127
20
-24.4536003742794
30
0
0
SPLINE
5
1C8
100
AcDbEntity
8
1
62
256
6
ByLayer
370
18
48
1
60
0
100
AcDbSpline
70
4
71
3
72
8
73
4
40
0
40
0
40
0
40
0
40
1
40
1
40
1
40
1
41
1.02317326254112
10
53.7804911756168
20
-37.4746515277605
30
0
41
1.0229667643301
10
55.0731064914146
20
-37.0408646765422
30
0
41
1.0224839940336
10
56.2507732032321
20
-36.6052554071127
30
0
41
1.02237757420358
10
57.4594374703639
20
-36.2300194481646
30
0
0
SPLINE
5
1C9
100
AcDbEntity
8
1
62
256
6
ByLayer
370
18
48
1
60
0
100
AcDbSpline
70
4
71
3
72
12
73
8
40
0
40
0
40
0
40
0
40
0.452180793000028
40
0.452180793000028
40
0.964265079373441
40
0.964265079373441
40
1
40
1
40
1
40
1
41
1
10
32.1326820098509
20
-37.2801983295497
30
0
41
1
10
31.9598778111883
20
-37.085401614296
30
0
41
1
10
31.7526101880589
20
-36.9115253368855
30
0
41
1
10
31.2689556658924
20
-36.6118027312188
30
0
41
1
10
30.9807973842733
20
-36.4914210435982
30
0
41
1
10
30.6628017440949
20
-36.4136099834021
30
0
41
1
10
30.6417857850554
20
-36.4087094312796
30
0
41
1
10
30.6207145391812
20
-36.4040370185936
30
0
0
SPLINE
5
1CA
100
AcDbEntity
8
1
62
256
6
ByLayer
370
18
48
1
60
0
100
AcDbSpline
70
4
71
3
72
8
73
4
40
0
40
0
40
0
40
0
40
1
40
1
40
1
40
1
41
1
10
36.3012565216015
20
-28.6436874615979
30
0
41
1
10
35.0420865351104
20
-28.53963688746
30
0
41
1
10
33.7909986057837
20
-28.9602229426014
30
0
41
1
10
32.8271099944776
20
-29.7597726646211
30
0
0
SPLINE
5
1CB
100
AcDbEntity
8
1
62
256
6
ByLayer
370
18
48
1
60
0
100
AcDbSpline
70
4
71
3
72
10
73
6
40
0
40
0
40
0
40
0
40
0.24410334135241
40
0.24410334135241
40
1
40
1
40
1
40
1
41
1
10
55.8946631726629
20
-31.7134106149327
30
0
41
1
10
55.7672776499549
20
-31.7724030609378
30
0
41
1
10
55.6372748945847
20
-31.8293815156475
30
0
41
1
10
55.0973676686223
20
-32.0570211808994
30
0
41
1
10
54.672520893169
20
-32.215893224824
30
0
41
1
10
54.2511589979494
20
-32.3774744962554
30
0
0
SPLINE
5
1CC
100
AcDbEntity
8
1
62
256
6
ByLayer
370
18
48
1
60
0
100
AcDbSpline
70
4
71
3
72
12
73
8
40
0
40
0
40
0
40
0
40
0.479554796525142
40
0.479554796525142
40
0.736751319052549
40
0.736751319052549
40
1
40
1
40
1
40
1
41
1
10
57.6569269191899
20
-35.8367345884457
30
0
41
1
10
57.731405088616
20
-35.6160571812314
30
0
41
1
10
57.7823607198979
20
-35.3833618340725
30
0
41
1
10
57.8189991469972
20
-35.0265155375343
30
0
41
1
10
57.8241492458965
20
-34.9007064394808
30
0
41
1
10
57.8189264874516
20
-34.6490880207508
30
0
41
1
10
57.8081731140874
20
-34.522620793289
30
0
41
1
10
57.7896787343176
20
-34.3990762859954
30
0
0
SPLINE
5
1CD
100
AcDbEntity
8
1
62
256
6
ByLayer
370
18
48
1
60
0
100
AcDbSpline
70
4
71
3
72
10
73
6
40
0
40
0
40
0
40
0
40
0.5
40
0.5
40
1
40
1
40
1
40
1
41
1
10
25.0886206556009
20
-40.7140464398261
30
0
41
1
10
25.7585815424262
20
-40.5378670720338
30
0
41
1
10
26.6409677230926
20
-39.9536053468209
30
0
41
1
10
28.5717598037816
20
-38.3908238136635
30
0
41
1
10
29.6007700676063
20
-37.4265849502166
30
0
41
1
10
30.6207145391811
20
-36.4040370185936
30
0
0
SPLINE
5
1CE
100
AcDbEntity
8
1
62
256
6
ByLayer
370
18
48
1
60
0
100
AcDbSpline
70
4
71
3
72
8
73
4
40
0
40
0
40
0
40
0
40
1
40
1
40
1
40
1
41
1
10
23.9925917783103
20
-37.6787553653733
30
0
41
1
10
23.9620903342915
20
-38.0090759277567
30
0
41
1
10
23.9980316688078
20
-38.340635409325
30
0
41
1
10
24.0752991624387
20
-38.645383242807
30
0
0
SPLINE
5
1CF
100
AcDbEntity
8
1
62
256
6
ByLayer
370
18
48
1
60
0
100
AcDbSpline
70
4
71
3
72
8
73
4
40
0
40
0
40
0
40
0
40
1
40
1
40
1
40
1
41
1
10
37.5609399181155
20
-39.0408951338717
30
0
41
1
10
37.5514382168574
20
-39.0401607118221
30
0
41
1
10
37.5419360277539
20
-39.0394009245064
30
0
41
1
10
37.5324333490454
20
-39.0386156777279
30
0
0
SPLINE
5
1D0
100
AcDbEntity
8
1
62
256
6
ByLayer
370
18
48
1
60
0
100
AcDbSpline
70
4
71
3
72
8
73
4
40
0
40
0
40
0
40
0
40
1
40
1
40
1
40
1
41
1
10
30.2134381071826
20
-36.3406255688527
30
0
41
1
10
30.1946244408375
20
-36.3388856640939
30
0
41
1
10
30.1758116118855
20
-36.3371338818944
30
0
41
1
10
30.1570024147508
20
-36.335370493514
30
0
0
SPLINE
5
1D1
100
AcDbEntity
8
1
62
256
6
ByLayer
370
18
48
1
60
0
100
AcDbSpline
70
4
71
3
72
8
73
4
40
0
40
0
40
0
40
0
40
1
40
1
40
1
40
1
41
1.02317326254116
10
54.2511589979358
20
-32.3774744962489
30
0
41
1.02296676433018
10
55.4513006347504
20
-32.9451470403841
30
0
41
1.0224839940336
10
56.5382329699045
20
-33.49216109707
30
0
41
1.02237757420358
10
57.669777933425
20
-33.95210172049
30
0
0
SPLINE
5
1D2
100
AcDbEntity
8
1
62
256
6
ByLayer
370
18
48
1
60
0
100
AcDbSpline
70
4
71
3
72
10
73
6
40
0
40
0
40
0
40
0
40
0.5
40
0.5
40
1
40
1
40
1
40
1
41
1
10
30.1570024147508
20
-36.3353704935139
30
0
41
1
10
29.0506852473075
20
-36.8697867044574
30
0
41
1
10
27.9696963857272
20
-37.3582650069183
30
0
41
1
10
25.867799709747
20
-38.1849637264059
30
0
41
1
10
24.890351209072
20
-38.5066654287618
30
0
41
1
10
24.0752991624387
20
-38.645383242807
30
0
0
SPLINE
5
1D3
100
AcDbEntity
8
1
62
256
6
ByLayer
370
18
48
1
60
0
100
AcDbSpline
70
4
71
3
72
10
73
6
40
0
40
0
40
0
40
0
40
0.5
40
0.5
40
1
40
1
40
1
40
1
41
1
10
45.5194590508276
20
-28.1854595854717
30
0
41
1
10
45.9968954059126
20
-27.9593567044191
30
0
41
1
10
46.1722585156143
20
-27.5291500109708
30
0
41
1
10
46.4006846769188
20
-26.6166900231238
30
0
41
1
10
46.4398745913583
20
-26.1215538292116
30
0
41
1
10
46.459483608102
20
-25.6172982156967
30
0
0
SPLINE
5
1D4
100
AcDbEntity
8
1
62
256
6
ByLayer
370
18
48
1
60
0
100
AcDbSpline
70
4
71
3
72
16
73
12
40
0
40
0
40
0
40
0
40
0.178554727911224
40
0.178554727911224
40
0.398118083143881
40
0.398118083143881
40
0.708333637837794
40
0.708333637837794
40
0.945045344592958
40
0.945045344592958
40
1
40
1
40
1
40
1
41
1
10
23.4876002285639
20
-40.0394688091039
30
0
41
1
10
23.254069440954
20
-39.9226328441552
30
0
41
1
10
23.0361562066807
20
-39.7809054486374
30
0
41
1
10
22.6221194174428
20
-39.4361215267722
30
0
41
1
10
22.4341539763708
20
-39.2211382767994
30
0
41
1
10
22.0847008459878
20
-38.6830525675645
30
0
41
1
10
21.9572761040903
20
-38.3431436409176
30
0
41
1
10
21.8426680114671
20
-37.7226186455223
30
0
41
1
10
21.8292222040042
20
-37.4436376746531
30
0
41
1
10
21.8455607121073
20
-37.0601895954525
30
0
41
1
10
21.8500779790406
20
-36.9849687711893
30
0
41
1
10
21.8556588543686
20
-36.9075355511828
30
0
0
SPLINE
5
1D5
100
AcDbEntity
8
1
62
256
6
ByLayer
370
18
48
1
60
0
100
AcDbSpline
70
4
71
2
72
6
73
3
40
0
40
0
40
0
40
1
40
1
40
1
41
1
10
44.9553916527304
20
-41.9050220108653
30
0
41
1
10
43.1562812239127
20
-42.1896152552423
30
0
41
1
10
41.6989486924006
20
-42.2940269860588
30
0
0
SPLINE
5
1D6
100
AcDbEntity
8
1
62
256
6
ByLayer
370
18
48
1
60
0
100
AcDbSpline
70
4
71
3
72
9
73
5
40
0
40
0
40
0
40
0
40
0.787466588412849
40
1
40
1
40
1
40
1
41
1.03601283770101
10
36.8665186929639
20
-41.7383429961665
30
0
41
1.03551243927663
10
38.0814378286613
20
-41.6880176764534
30
0
41
1.0330615841663
10
40.606303144431
20
-41.3450700485531
30
0
41
1.03000516837176
10
43.7399697313105
20
-40.4899037916335
30
0
41
1.02936223451883
10
44.4007005199141
20
-40.3012448949314
30
0
0
SPLINE
5
1D7
100
AcDbEntity
8
1
62
256
6
ByLayer
370
18
48
1
60
0
100
AcDbSpline
70
4
71
3
72
16
73
12
40
0
40
0
40
0
40
0
40
0.151731214193989
40
0.151731214193989
40
0.3386438849061
40
0.3386438849061
40
0.666881577663756
40
0.666881577663756
40
0.994651234683099
40
0.994651234683099
40
1
40
1
40
1
40
1
41
1
10
50.2387070814397
20
-39.5532503490991
30
0
41
1
10
50.2040680434477
20
-39.5636431180507
30
0
41
1
10
50.1685932932629
20
-39.5762705786174
30
0
41
1
10
50.0944400574798
20
-39.606260971745
30
0
41
1
10
50.0556717686128
20
-39.6244977876782
30
0
41
1
10
49.9595909370631
20
-39.674651938089
30
0
41
1
10
49.9089216593411
20
-39.707216118547
30
0
41
1
10
49.8098669761025
20
-39.7710101255131
30
0
41
1
10
49.7565547299228
20
-39.8039790682306
30
0
41
1
10
49.6905706063863
20
-39.8356893718041
30
0
41
1
10
49.6895005058652
20
-39.8362003229394
30
0
41
1
10
49.6884328545266
20
-39.8367117531362
30
0
0
SPLINE
5
1D8
100
AcDbEntity
8
1
62
256
6
ByLayer
370
18
48
1
60
0
100
AcDbSpline
70
4
71
3
72
8
73
4
40
0
40
0
40
0
40
0
40
1
40
1
40
1
40
1
41
1
10
55.5565562466734
20
-37.7503160034057
30
0
41
1
10
55.8999731228871
20
-37.5143832921508
30
0
41
1
10
56.2450295978914
20
-37.2760563388364
30
0
41
1
10
56.5903461665394
20
-37.0373124425606
30
0
0
SPLINE
5
1D9
100
AcDbEntity
8
1
62
256
6
ByLayer
370
18
48
1
60
0
100
AcDbSpline
70
4
71
3
72
16
73
12
40
0
40
0
40
0
40
0
40
0.211789832675876
40
0.211789832675876
40
0.424635425352729
40
0.424635425352729
40
0.625049629967193
40
0.625049629967193
40
0.824219103175402
40
0.824219103175402
40
1
40
1
40
1
40
1
41
1
10
26.5900926857133
20
-24.4536003742793
30
0
41
1
10
26.5532265793105
20
-24.5223633552432
30
0
41
1
10
26.4889633635674
20
-24.6088377664913
30
0
41
1
10
26.3173774248186
20
-24.8208425664126
30
0
41
1
10
26.2080055695162
20
-24.949856373372
30
0
41
1
10
25.9827628820488
20
-25.2333307835002
30
0
41
1
10
25.8649600323141
20
-25.3898226823418
30
0
41
1
10
25.6407141525309
20
-25.7183200129138
30
0
41
1
10
25.5311107653781
20
-25.8949395894991
30
0
41
1
10
25.3458519449771
20
-26.2234443339845
30
0
41
1
10
25.265450883524
20
-26.379637492544
30
0
41
1
10
25.1945714733265
20
-26.5240338744212
30
0
0
SPLINE
5
1DA
100
AcDbEntity
8
1
62
256
6
ByLayer
370
18
48
1
60
0
100
AcDbSpline
70
4
71
3
72
8
73
4
40
0
40
0
40
0
40
0
40
1
40
1
40
1
40
1
41
1
10
38.5041899678039
20
-28.8258088163002
30
0
41
1
10
38.5691544648764
20
-27.1671413017899
30
0
41
1
10
38.5233738839724
20
-25.8377227669255
30
0
41
1
10
38.3832199260531
20
-25.3129696934398
30
0
0
SPLINE
5
1DB
100
AcDbEntity
8
1
62
256
6
ByLayer
370
18
48
1
60
0
100
AcDbSpline
70
4
71
3
72
10
73
6
40
0
40
0
40
0
40
0
40
0.769561481283288
40
0.769561481283288
40
1
40
1
40
1
40
1
41
1
10
37.3367144607996
20
-32.6658229377494
30
0
41
1
10
37.3216659151711
20
-32.6688368106475
30
0
41
1
10
37.3058805521053
20
-32.6715109269118
30
0
41
1
10
37.2844165127665
20
-32.6743668134868
30
0
41
1
10
37.2793929548494
20
-32.6749834036068
30
0
41
1
10
37.2743030487199
20
-32.6755527550368
30
0
0
SPLINE
5
1DC
100
AcDbEntity
8
1
62
256
6
ByLayer
370
18
48
1
60
0
100
AcDbSpline
70
4
71
3
72
10
73
6
40
0
40
0
40
0
40
0
40
0.201157530231734
40
0.201157530231734
40
1
40
1
40
1
40
1
41
1
10
35.9824911568841
20
-33.0998055859374
30
0
41
1
10
35.9812862697449
20
-33.1031807237398
30
0
41
1
10
35.9800342117502
20
-33.1065925912222
30
0
41
1
10
35.9735892943931
20
-33.1236704179783
30
0
41
1
10
35.9676512192053
20
-33.1379374255951
30
0
41
1
10
35.9607795358138
20
-33.15278324489
30
0
0
SPLINE
5
1DD
100
AcDbEntity
8
1
62
256
6
ByLayer
370
18
48
1
60
0
100
AcDbSpline
70
4
71
3
72
10
73
6
40
0
40
0
40
0
40
0
40
0.201157530231485
40
0.201157530231485
40
1
40
1
40
1
40
1
41
1
10
38.0654911775548
20
-35.0041674283433
30
0
41
1
10
38.0660633620379
20
-35.0001595878848
30
0
41
1
10
38.0666924919363
20
-34.9961247923061
30
0
41
1
10
38.0701078603728
20
-34.9760174166294
30
0
41
1
10
38.0737899733437
20
-34.9594944467957
30
0
41
1
10
38.078680221544
20
-34.9426671923096
30
0
0
SPLINE
5
1DE
100
AcDbEntity
8
1
62
256
6
ByLayer
370
18
48
1
60
0
100
AcDbSpline
70
4
71
3
72
10
73
6
40
0
40
0
40
0
40
0
40
0.276054056492338
40
0.276054056492338
40
1
40
1
40
1
40
1
41
1
10
38.2258933817122
20
-34.7331681686193
30
0
41
1
10
38.2307253289363
20
-34.7297187725064
30
0
41
1
10
38.23556620461
20
-34.7264266204969
30
0
41
1
10
38.2530239910834
20
-34.7150852991829
30
0
41
1
10
38.2656545405748
20
-34.7078795704121
30
0
41
1
10
38.2781644931493
20
-34.7015120683851
30
0
0
SPLINE
5
1DF
100
AcDbEntity
8
1
62
256
6
ByLayer
370
18
48
1
60
0
100
AcDbSpline
70
4
71
3
72
10
73
6
40
0
40
0
40
0
40
0
40
0.769561481283384
40
0.769561481283384
40
1
40
1
40
1
40
1
41
1
10
36.7112678736388
20
-35.4381500765307
30
0
41
1
10
36.7239060787598
20
-35.4327258631252
30
0
41
1
10
36.7374159760163
20
-35.4277762810516
30
0
41
1
10
36.7562123710001
20
-35.4222527501216
30
0
41
1
10
36.7606399332565
20
-35.421040164341
30
0
41
1
10
36.7651567086377
20
-35.4198976821626
30
0
0
SPLINE
5
1E0
100
AcDbEntity
8
1
62
256
6
ByLayer
370
18
48
1
60
0
100
AcDbSpline
70
4
71
3
72
10
73
6
40
0
40
0
40
0
40
0
40
0.230438518716752
40
0.230438518716752
40
1
40
1
40
1
40
1
41
1
10
37.0205031397432
20
-32.6545801885617
30
0
41
1
10
37.0162159835703
20
-32.6532359705713
30
0
41
1
10
37.0120276157316
20
-32.6518581598266
30
0
41
1
10
36.9943039830739
20
-32.6457640291589
30
0
41
1
10
36.9817145596652
20
-32.6407451835449
30
0
41
1
10
36.9700592780802
20
-32.6355246597712
30
0
0
SPLINE
5
1E1
100
AcDbEntity
8
1
62
256
6
ByLayer
370
18
48
1
60
0
100
AcDbSpline
70
4
71
3
72
10
73
6
40
0
40
0
40
0
40
0
40
0.537616842495288
40
0.537616842495288
40
1
40
1
40
1
40
1
41
1
10
35.8127931145805
20
-34.7554272986174
30
0
41
1
10
35.8154075233919
20
-34.7672537999025
30
0
41
1
10
35.8176410165324
20
-34.7788626085421
30
0
41
1
10
35.8211771355354
20
-34.7999564282809
30
0
41
1
10
35.8225700775226
20
-34.8095341070451
30
0
41
1
10
35.8237497304228
20
-34.8189227932669
30
0
0
SPLINE
5
1E2
100
AcDbEntity
8
1
62
256
6
ByLayer
370
18
48
1
60
0
100
AcDbSpline
70
4
71
3
72
10
73
6
40
0
40
0
40
0
40
0
40
0.537616842494828
40
0.537616842494828
40
1
40
1
40
1
40
1
41
1
10
38.2266666427773
20
-33.3400231385822
30
0
41
1
10
38.2253873219559
20
-33.3295317252871
30
0
41
1
10
38.2246135761004
20
-33.3193826639326
30
0
41
1
10
38.2239562416631
20
-33.3011676287594
30
0
41
1
10
38.2239625914571
20
-33.2929892417765
30
0
41
1
10
38.2242326040168
20
-33.2850502210146
30
0
0
SPLINE
5
1E3
100
AcDbEntity
8
1
62
256
6
ByLayer
370
18
48
1
60
0
100
AcDbSpline
70
4
71
3
72
10
73
6
40
0
40
0
40
0
40
0
40
0.35559319647792
40
0.35559319647792
40
1
40
1
40
1
40
1
41
1
10
38.3782144711343
20
-33.6180038589594
30
0
41
1
10
38.3728090322715
20
-33.6128831524015
30
0
41
1
10
38.3674140356377
20
-33.6075872050172
30
0
41
1
10
38.352349385855
20
-33.5922116440289
30
0
41
1
10
38.3427044332255
20
-33.5816819487764
30
0
41
1
10
38.3332533915846
20
-33.5704947287464
30
0
0
SPLINE
5
1E4
100
AcDbEntity
8
1
62
256
6
ByLayer
370
18
48
1
60
0
100
AcDbSpline
70
4
71
3
72
10
73
6
40
0
40
0
40
0
40
0
40
0.276054056491952
40
0.276054056491952
40
1
40
1
40
1
40
1
41
1
10
35.8135663756453
20
-33.36228226858
30
0
41
1
10
35.8094225428208
20
-33.3664197790926
30
0
41
1
10
35.8053027766739
20
-33.3704330406289
30
0
41
1
10
35.7905470525429
20
-33.3844764242854
30
0
41
1
10
35.7800622334911
20
-33.3938278834957
30
0
41
1
10
35.7698178412903
20
-33.4024609458964
30
0
0
SPLINE
5
1E5
100
AcDbEntity
8
1
62
256
6
ByLayer
370
18
48
1
60
0
100
AcDbSpline
70
4
71
3
72
10
73
6
40
0
40
0
40
0
40
0
40
0.355593196477759
40
0.355593196477759
40
1
40
1
40
1
40
1
41
1
10
35.6697678633032
20
-34.4859691553199
30
0
41
1
10
35.674056240067
20
-34.4899727997788
30
0
41
1
10
35.6783643373833
20
-34.4941818478455
30
0
41
1
10
35.6904858952884
20
-34.5066143169563
30
0
41
1
10
35.698353714928
20
-34.515366879219
30
0
41
1
10
35.7062063657732
20
-34.5249557084533
30
0
0
SPLINE
5
1E6
100
AcDbEntity
8
1
62
256
6
ByLayer
370
18
48
1
60
0
100
AcDbSpline
70
4
71
3
72
10
73
6
40
0
40
0
40
0
40
0
40
0.230438518716662
40
0.230438518716662
40
1
40
1
40
1
40
1
41
1
10
37.0189566176144
20
-35.4408702486377
30
0
41
1
10
37.0238169045357
20
-35.4427875973765
30
0
41
1
10
37.0286012680349
20
-35.4447614037818
30
0
41
1
10
37.0489925450477
20
-35.4535231788044
30
0
41
1
10
37.0638574342656
20
-35.4608174902278
30
0
41
1
10
37.0779230563582
20
-35.468448354509
30
0
0
SPLINE
5
1E7
100
AcDbEntity
8
1
62
256
6
ByLayer
370
18
48
1
60
0
100
AcDbSpline
70
4
71
3
72
12
73
8
40
0
40
0
40
0
40
0
40
0.5
40
0.5
40
0.75
40
0.75
40
1
40
1
40
1
40
1
41
1
10
20.5437974060266
20
-30.5143867184118
30
0
41
1
10
20.6093883495207
20
-28.0188527271266
30
0
41
1
10
20.7030730377919
20
-25.5088181288824
30
0
41
1
10
21.3061697439788
20
-21.8915286644519
30
0
41
1
10
21.5964934704504
20
-20.7124288114076
30
0
41
1
10
22.53282512708
20
-18.4198397526556
30
0
41
1
10
23.1844069533655
20
-17.3469491675794
30
0
41
1
10
23.8962856159808
20
-16.2958211075945
30
0
0
SPLINE
5
1E8
100
AcDbEntity
8
1
62
256
6
ByLayer
370
18
48
1
60
0
100
AcDbSpline
70
4
71
3
72
8
73
4
40
0
40
0
40
0
40
0
40
1
40
1
40
1
40
1
41
1
10
23.8962856159809
20
31.0760760071151
30
0
41
1
10
23.5776018829068
20
31.0760760071151
30
0
41
1
10
23.2659394678548
20
31.0688931604306
30
0
41
1
10
22.9609847588647
20
31.0544615075761
30
0
0
SPLINE
5
1E9
100
AcDbEntity
8
1
62
256
6
ByLayer
370
18
48
1
60
0
100
AcDbSpline
70
4
71
3
72
16
73
12
40
0
40
0
40
0
40
0
40
0.463423600832241
40
0.463423600832241
40
0.646243952932834
40
0.646243952932834
40
0.831657283224497
40
0.831657283224497
40
0.947504344290847
40
0.947504344290847
40
1
40
1
40
1
40
1
41
1
10
13.8943375672974
20
-29.9139548464691
30
0
41
1
10
13.8656609252734
20
-29.9485407466773
30
0
41
1
10
13.8263500123908
20
-29.982269090612
30
0
41
1
10
13.7453819366531
20
-30.0239686896252
30
0
41
1
10
13.7190869808859
20
-30.0352936109065
30
0
41
1
10
13.6579862203325
20
-30.0555697561518
30
0
41
1
10
13.6222599905467
20
-30.0647246060481
30
0
41
1
10
13.556648346355
20
-30.0751823136669
30
0
41
1
10
13.5289597975987
20
-30.0781795790239
30
0
41
1
10
13.4876776374751
20
-30.0802576981002
30
0
41
1
10
13.47447899686
20
-30.080592760317
30
0
41
1
10
13.4613248654051
20
-30.080592760317
30
0
0
SPLINE
5
1EA
100
AcDbEntity
8
1
62
256
6
ByLayer
370
18
48
1
60
0
100
AcDbSpline
70
4
71
3
72
16
73
12
40
0
40
0
40
0
40
0
40
0.463423600832262
40
0.463423600832262
40
0.646243952932856
40
0.646243952932856
40
0.831657283224518
40
0.831657283224518
40
0.94750434429086
40
0.94750434429086
40
1
40
1
40
1
40
1
41
1
10
10.1056624327026
20
29.9139548464691
30
0
41
1
10
10.1343390747266
20
29.9485407466772
30
0
41
1
10
10.1736499876091
20
29.982269090612
30
0
41
1
10
10.2546180633469
20
30.0239686896252
30
0
41
1
10
10.2809130191141
20
30.0352936109065
30
0
41
1
10
10.3420137796675
20
30.0555697561518
30
0
41
1
10
10.3777400094533
20
30.0647246060481
30
0
41
1
10
10.443351653645
20
30.0751823136668
30
0
41
1
10
10.4710402024013
20
30.0781795790239
30
0
41
1
10
10.5123223625249
20
30.0802576981002
30
0
41
1
10
10.52552100314
20
30.0805927603169
30
0
41
1
10
10.5386751345948
20
30.0805927603169
30
0
0
SPLINE
5
1EB
100
AcDbEntity
8
1
62
256
6
ByLayer
370
18
48
1
60
0
100
AcDbSpline
70
4
71
3
72
12
73
8
40
0
40
0
40
0
40
0
40
0.34968660473936
40
0.34968660473936
40
0.674837438867607
40
0.674837438867607
40
1
40
1
40
1
40
1
41
1
10
27.5076557919793
20
-18.3030909482785
30
0
41
1
10
27.4828040421904
20
-18.3044932687457
30
0
41
1
10
27.4579558898801
20
-18.3059754372789
30
0
41
1
10
27.410011491837
20
-18.3089901586323
30
0
41
1
10
27.3869144380048
20
-18.3105118930414
30
0
41
1
10
27.3407279054988
20
-18.3136940237302
30
0
41
1
10
27.3176382188054
20
-18.3153544393619
30
0
41
1
10
27.2945531651384
20
-18.3170843059229
30
0
0
SPLINE
5
1EC
100
AcDbEntity
8
1
62
256
6
ByLayer
370
18
48
1
60
0
100
AcDbSpline
70
4
71
3
72
8
73
4
40
0
40
0
40
0
40
0
40
1
40
1
40
1
40
1
41
1
10
24.0805837210082
20
-19.5956698647086
30
0
41
1
10
22.7912773800281
20
-20.6011914675098
30
0
41
1
10
21.8800763030675
20
-22.0293369409476
30
0
41
1
10
21.7997481445126
20
-23.6654844315682
30
0
0
SPLINE
5
1ED
100
AcDbEntity
8
1
62
256
6
ByLayer
370
18
48
1
60
0
100
AcDbSpline
70
4
71
3
72
10
73
6
40
0
40
0
40
0
40
0
40
0.492882270732076
40
0.492882270732076
40
1
40
1
40
1
40
1
41
1
10
20.5437974060266
20
-30.5143867184118
30
0
41
1
10
20.3668129373775
20
-30.4447150418919
30
0
41
1
10
20.2232456973947
20
-30.3653940930858
30
0
41
1
10
20.0093210835962
20
-30.1888506958789
30
0
41
1
10
19.9399854717531
20
-30.0897854016818
30
0
41
1
10
19.9115068236137
20
-29.9850116132028
30
0
0
SPLINE
5
1EE
100
AcDbEntity
8
1
62
256
6
ByLayer
370
18
48
1
60
0
100
AcDbSpline
70
4
71
3
72
11
73
7
40
0
40
0
40
0
40
0
40
0.277623865119895
40
0.422099092095916
40
0.711049546047958
40
1
40
1
40
1
40
1
41
1
10
27.5076557919801
20
-18.3030909482783
30
0
41
1
10
26.9688946510443
20
-18.3498425280152
30
0
41
1
10
26.1544305337634
20
-18.6054349173258
30
0
41
1
10
24.9009078031231
20
-19.5168254741455
30
0
41
1
10
23.8151632430552
20
-20.9465447507306
30
0
41
1
10
23.3266935920998
20
-22.6026660664582
30
0
41
1
10
23.2416506575003
20
-23.5243705639035
30
0
0
SPLINE
5
1EF
100
AcDbEntity
8
1
62
256
6
ByLayer
370
18
48
1
60
0
100
AcDbSpline
70
4
71
3
72
11
73
7
40
0
40
0
40
0
40
0
40
0.262615163373778
40
0.410092130699023
40
0.705046065349511
40
1
40
1
40
1
40
1
41
1
10
27.2945531651404
20
-18.3170843059229
30
0
41
1
10
26.7958446739769
20
-18.376908830618
30
0
41
1
10
26.0238828614814
20
-18.6332765381753
30
0
41
1
10
24.8062425136243
20
-19.5185783260997
30
0
41
1
10
23.7204979535564
20
-20.9482976026848
30
0
41
1
10
23.232028302601
20
-22.6044189184124
30
0
41
1
10
23.1469853680015
20
-23.5261234158577
30
0
0
SPLINE
5
1F0
100
AcDbEntity
8
1
62
256
6
ByLayer
370
18
48
1
60
0
100
AcDbSpline
70
4
71
2
72
6
73
3
40
0
40
0
40
0
40
1
40
1
40
1
41
1.02613459695995
10
30.5708667533013
20
-22.2590096811603
30
0
41
0.785007509733438
10
30.8425133153262
20
-19.3171671545522
30
0
41
0.930788991541091
10
29.1300606131006
20
-18.4960451821577
30
0
0
SPLINE
5
1F1
100
AcDbEntity
8
1
62
256
6
ByLayer
370
18
48
1
60
0
100
AcDbSpline
70
4
71
3
72
16
73
12
40
0
40
0
40
0
40
0
40
0.113316224833593
40
0.113316224833593
40
0.252990411571579
40
0.252990411571579
40
0.473309013928354
40
0.473309013928354
40
0.896716357718913
40
0.896716357718913
40
1
40
1
40
1
40
1
41
1
10
10.5386751345948
20
9.3492213145251
30
0
41
1
10
10.5105874404282
20
9.3492213145251
30
0
41
1
10
10.482150642237
20
9.35431657338981
30
0
41
1
10
10.4232029654275
20
9.37467777536568
30
0
41
1
10
10.3927526278712
20
9.39213979793414
30
0
41
1
10
10.3230856363398
20
9.44503542604386
30
0
41
1
10
10.2871733492349
20
9.48569380431883
30
0
41
1
10
10.1985362549164
20
9.61105923366807
30
0
41
1
10
10.1576291602469
20
9.70465429390069
30
0
41
1
10
10.1190965262402
20
9.82244573862477
30
0
41
1
10
10.1121028162031
20
9.84586944318031
30
0
41
1
10
10.1056624327025
20
9.86941261896618
30
0
0
SPLINE
5
1F2
100
AcDbEntity
8
1
62
256
6
ByLayer
370
18
48
1
60
0
100
AcDbSpline
70
4
71
3
72
16
73
12
40
0
40
0
40
0
40
0
40
0.463423600832241
40
0.463423600832241
40
0.646243952932837
40
0.646243952932837
40
0.831657283224505
40
0.831657283224505
40
0.947504344290848
40
0.947504344290848
40
1
40
1
40
1
40
1
41
1
10
10.1056624327026
20
-9.86941261896621
30
0
41
1
10
10.1343390747265
20
-9.76458357826289
30
0
41
1
10
10.1736499876091
20
-9.66039292789941
30
0
41
1
10
10.2546180633468
20
-9.52957658281045
30
0
41
1
10
10.2809130191141
20
-9.49380155568076
30
0
41
1
10
10.3420137796675
20
-9.4294153978764
30
0
41
1
10
10.3777400094532
20
-9.40014891155712
30
0
41
1
10
10.4433516536449
20
-9.36662118733787
30
0
41
1
10
10.4710402024013
20
-9.35698328824242
30
0
41
1
10
10.5123223625249
20
-9.35029954873107
30
0
41
1
10
10.5255210031399
20
-9.34922131452507
30
0
41
1
10
10.5386751345948
20
-9.34922131452507
30
0
0
SPLINE
5
1F3
100
AcDbEntity
8
1
62
256
6
ByLayer
370
18
48
1
60
0
100
AcDbSpline
70
4
71
3
72
12
73
8
40
0
40
0
40
0
40
0
40
0.348659490735804
40
0.348659490735804
40
0.674323722469228
40
0.674323722469228
40
1
40
1
40
1
40
1
41
1
10
27.2945531651383
20
-18.3170843059233
30
0
41
1
10
27.269727031371
20
-18.3189446394215
30
0
41
1
10
27.2449060045433
20
-18.3208853137214
30
0
41
1
10
27.1969123868966
20
-18.3247943758345
30
0
41
1
10
27.1737388221099
20
-18.3267525123886
30
0
41
1
10
27.1274020108738
20
-18.3308096568015
30
0
41
1
10
27.1042385504793
20
-18.3329086886374
30
0
41
1
10
27.081081124867
20
-18.3350782889717
30
0
0
SPLINE
5
1F4
100
AcDbEntity
8
1
62
256
6
ByLayer
370
18
48
1
60
0
100
AcDbSpline
70
4
71
3
72
10
73
6
40
0
40
0
40
0
40
0
40
0.573565230694857
40
0.573565230694857
40
1
40
1
40
1
40
1
41
1
10
13.8943375672974
20
21.0401816871777
30
0
41
1
10
13.8463445787263
20
21.0796283794037
30
0
41
1
10
13.7780102352029
20
21.1353313584606
30
0
41
1
10
13.6250883068771
20
21.2487586970678
30
0
41
1
10
13.5471921982104
20
21.3044749970785
30
0
41
1
10
13.4613248654052
20
21.3694939161261
30
0
0
SPLINE
5
1F5
100
AcDbEntity
8
1
62
256
6
ByLayer
370
18
48
1
60
0
100
AcDbSpline
70
4
71
3
72
15
73
11
40
0
40
0
40
0
40
0
40
0.281039629141019
40
0.281039629141019
40
0.562712048900373
40
0.562712048900373
40
0.835250831097508
40
0.835250831097508
40
0.835250831097508
40
1
40
1
40
1
40
1
41
1
10
19.9115068236138
20
29.9850116132027
30
0
41
1
10
19.9505361776874
20
30.1286017607468
30
0
41
1
10
20.0674973665297
20
30.2617723075542
30
0
41
1
10
20.4463314652044
20
30.489895050164
30
0
41
1
10
20.714145257493
20
30.5880850478212
30
0
41
1
10
21.3538238361364
20
30.741378992888
30
0
41
1
10
21.7310620960588
20
30.8001569918553
30
0
41
1
10
22.1388781334302
20
30.8415901871073
30
0
41
1
10
22.3877509516847
20
30.8668751075781
30
0
41
1
10
22.6513106929054
20
30.88619079412
30
0
41
1
10
22.92079238
20
30.8996141556631
30
0
0
SPLINE
5
1F6
100
AcDbEntity
8
1
62
256
6
ByLayer
370
18
48
1
60
0
100
AcDbSpline
70
4
71
3
72
11
73
7
40
0
40
0
40
0
40
0
40
0.246897473313252
40
0.397517978650602
40
0.698758989325301
40
1
40
1
40
1
40
1
41
1.02613459695995
10
27.08108112487
20
-18.3350782889717
30
0
41
1.02613459695995
10
26.6227703922076
20
-18.4054257416121
30
0
41
1.02613459695995
10
25.8931733087123
20
-18.6612358564098
30
0
41
1.02613459695995
10
24.7115772241255
20
-19.5203311780538
30
0
41
1.02613459695995
10
23.6258326640576
20
-20.950050454639
30
0
41
1.02613459695995
10
23.1373630131022
20
-22.6061717703666
30
0
41
1.02613459695995
10
23.0523200785027
20
-23.5278762678118
30
0
0
SPLINE
5
1F7
100
AcDbEntity
8
1
62
256
6
ByLayer
370
18
48
1
60
0
100
AcDbSpline
70
4
71
3
72
16
73
12
40
0
40
0
40
0
40
0
40
0.113316224833594
40
0.113316224833594
40
0.252990411571577
40
0.252990411571577
40
0.473309013928351
40
0.473309013928351
40
0.896716357718897
40
0.896716357718897
40
1
40
1
40
1
40
1
41
1
10
10.5386751345948
20
-30.0805927603169
30
0
41
1
10
10.5105874404281
20
-30.0805927603169
30
0
41
1
10
10.482150642237
20
-30.0790101689567
30
0
41
1
10
10.4232029654275
20
-30.0726712338969
30
0
41
1
10
10.3927526278711
20
-30.0672275748685
30
0
41
1
10
10.3230856363397
20
-30.0506647867053
30
0
41
1
10
10.2871733492349
20
-30.0378702684276
30
0
41
1
10
10.1985362549164
20
-29.9980833386355
30
0
41
1
10
10.1576291602469
20
-29.967975934908
30
0
41
1
10
10.1190965262401
20
-29.9294196064672
30
0
41
1
10
10.112102816203
20
-29.9217223689309
30
0
41
1
10
10.1056624327025
20
-29.9139548464691
30
0
0
SPLINE
5
1F8
100
AcDbEntity
8
1
62
256
6
ByLayer
370
18
48
1
60
0
100
AcDbSpline
70
4
71
1
72
4
73
2
40
0
40
0
40
1
40
1
41
1
10
23.2416506575003
20
-23.5243705639035
30
0
41
1
10
23.1469853680019
20
-23.5261234158577
30
0
0
SPLINE
5
1F9
100
AcDbEntity
8
1
62
256
6
ByLayer
370
18
48
1
60
0
100
AcDbSpline
70
4
71
3
72
8
73
4
40
0
40
0
40
0
40
0
40
1
40
1
40
1
40
1
41
1
10
22.9609847588647
20
31.0544615075761
30
0
41
1
10
22.9475806244987
20
31.0028429217617
30
0
41
1
10
22.9341831017394
20
30.9512270468484
30
0
41
1
10
22.92079238
20
30.8996141556631
30
0
0
SPLINE
5
1FA
100
AcDbEntity
8
1
62
256
6
ByLayer
370
18
48
1
60
0
100
AcDbSpline
70
4
71
3
72
10
73
6
40
0
40
0
40
0
40
0
40
0.563253738015378
40
0.563253738015378
40
1
40
1
40
1
40
1
41
1
10
10.1056624327026
20
20.1324515831236
30
0
41
1
10
10.1522667730003
20
19.9760029585275
30
0
41
1
10
10.2181997150427
20
19.8269086326717
30
0
41
1
10
10.3695745193899
20
19.5962808154733
30
0
41
1
10
10.4493853955874
20
19.5048499791108
30
0
41
1
10
10.5386751345948
20
19.4372396071259
30
0
0
SPLINE
5
1FB
100
AcDbEntity
8
1
62
256
6
ByLayer
370
18
48
1
60
0
100
AcDbSpline
70
4
71
3
72
8
73
4
40
0
40
0
40
0
40
0
40
1
40
1
40
1
40
1
41
1
10
29.1300607729287
20
-18.4960452587954
30
0
41
1
10
28.6016375789797
20
-18.335442234758
30
0
41
1
10
28.0607384979608
20
-18.2718819104749
30
0
41
1
10
27.5076557919807
20
-18.3030909482781
30
0
0
SPLINE
5
1FC
100
AcDbEntity
8
1
62
256
6
ByLayer
370
18
48
1
60
0
100
AcDbSpline
70
4
71
1
72
4
73
2
40
0
40
0
40
1
40
1
41
1
10
23.1469853680015
20
-23.5261234158577
30
0
41
1
10
23.0523200785036
20
-23.5278762678118
30
0
0
SPLINE
5
1FD
100
AcDbEntity
8
1
62
256
6
ByLayer
370
18
48
1
60
0
100
AcDbSpline
70
4
71
3
72
16
73
12
40
0
40
0
40
0
40
0
40
0.113316224833596
40
0.113316224833596
40
0.252990411571581
40
0.252990411571581
40
0.473309013928343
40
0.473309013928343
40
0.896716357718895
40
0.896716357718895
40
1
40
1
40
1
40
1
41
1
10
13.4613248654052
20
30.0805927603169
30
0
41
1
10
13.4894125595719
20
30.0805927603169
30
0
41
1
10
13.517849357763
20
30.0790101689566
30
0
41
1
10
13.5767970345725
20
30.0726712338969
30
0
41
1
10
13.6072473721288
20
30.0672275748685
30
0
41
1
10
13.6769143636602
20
30.0506647867052
30
0
41
1
10
13.7128266507651
20
30.0378702684275
30
0
41
1
10
13.8014637450836
20
29.9980833386355
30
0
41
1
10
13.8423708397531
20
29.967975934908
30
0
41
1
10
13.8809034737598
20
29.9294196064672
30
0
41
1
10
13.887897183797
20
29.9217223689309
30
0
41
1
10
13.8943375672975
20
29.9139548464691
30
0
0
SPLINE
5
1FE
100
AcDbEntity
8
1
62
256
6
ByLayer
370
18
48
1
60
0
100
AcDbSpline
70
4
71
3
72
10
73
6
40
0
40
0
40
0
40
0
40
0.415665307772108
40
0.415665307772108
40
1
40
1
40
1
40
1
41
1
10
10.5386751345948
20
21.3694939161261
30
0
41
1
10
10.4549244770343
20
21.3060777478789
30
0
41
1
10
10.3787459731138
20
21.2515288076611
30
0
41
1
10
10.2245337544042
20
21.1373152812055
30
0
41
1
10
10.1545345289016
20
21.0803509409494
30
0
41
1
10
10.1056624327025
20
21.0401816871769
30
0
0
SPLINE
5
1FF
100
AcDbEntity
8
1
62
256
6
ByLayer
370
18
48
1
60
0
100
AcDbSpline
70
4
71
3
72
16
73
12
40
0
40
0
40
0
40
0
40
0.223046122947489
40
0.223046122947489
40
0.445986527704779
40
0.445986527704779
40
0.670113883863771
40
0.670113883863771
40
0.890160125089665
40
0.890160125089665
40
1
40
1
40
1
40
1
41
1
10
20.6177784746457
20
-31.0707101782902
30
0
41
1
10
20.5260251748059
20
-31.0831949103206
30
0
41
1
10
20.4462944759733
20
-31.0982052381586
30
0
41
1
10
20.3235574019283
20
-31.1300407949522
30
0
41
1
10
20.278813858053
20
-31.1472963730681
30
0
41
1
10
20.2300419995767
20
-31.1813091717397
30
0
41
1
10
20.2255730332782
20
-31.198540896584
30
0
41
1
10
20.2581824309378
20
-31.2300774802563
30
0
41
1
10
20.2950313884082
20
-31.2448822620267
30
0
41
1
10
20.3776555705763
20
-31.2642149664648
30
0
41
1
10
20.4101888209203
20
-31.2702882917396
30
0
41
1
10
20.4468128785619
20
-31.2758392966733
30
0
0
SPLINE
5
200
100
AcDbEntity
8
1
62
256
6
ByLayer
370
18
48
1
60
0
100
AcDbSpline
70
4
71
3
72
8
73
4
40
0
40
0
40
0
40
0
40
1
40
1
40
1
40
1
41
1
10
20.5437974060266
20
-30.5143867184118
30
0
41
1
10
20.673184662054
20
-30.695267871944
30
0
41
1
10
20.9904299512142
20
-30.8422424899402
30
0
41
1
10
21.4646217687181
20
-30.9475354307587
30
0
0
SPLINE
5
201
100
AcDbEntity
8
1
62
256
6
ByLayer
370
18
48
1
60
0
100
AcDbSpline
70
4
71
3
72
8
73
4
40
0
40
0
40
0
40
0
40
1
40
1
40
1
40
1
41
1
10
27.0810811248667
20
-18.3350782889725
30
0
41
1
10
25.979482535801
20
-18.4382861630772
30
0
41
1
10
24.9540248310638
20
-18.9144788420477
30
0
41
1
10
24.0805837210082
20
-19.5956698647087
30
0
0
SPLINE
5
202
100
AcDbEntity
8
1
62
256
6
ByLayer
370
18
48
1
60
0
100
AcDbSpline
70
4
71
3
72
10
73
6
40
0
40
0
40
0
40
0
40
0.406434782913203
40
0.406434782913203
40
1
40
1
40
1
40
1
41
1
10
13.4613248654052
20
19.4372396071259
30
0
41
1
10
13.5445600082496
20
19.5002654265815
30
0
41
1
10
13.6195895752656
20
19.5840144784503
30
0
41
1
10
13.774738412907
20
19.8110073784322
30
0
41
1
10
13.8452864320335
20
19.9677891804822
30
0
41
1
10
13.8943375672975
20
20.1324515831234
30
0
0
SPLINE
5
203
100
AcDbEntity
8
1
62
256
6
ByLayer
370
18
48
1
60
0
100
AcDbSpline
70
4
71
3
72
16
73
12
40
0
40
0
40
0
40
0
40
0.463423600832209
40
0.463423600832209
40
0.646243952932815
40
0.646243952932815
40
0.831657283224495
40
0.831657283224495
40
0.947504344290837
40
0.947504344290837
40
1
40
1
40
1
40
1
41
1
10
13.8943375672974
20
9.86941261896618
30
0
41
1
10
13.8656609252735
20
9.76458357826286
30
0
41
1
10
13.8263500123909
20
9.66039292789938
30
0
41
1
10
13.7453819366532
20
9.52957658281042
30
0
41
1
10
13.7190869808859
20
9.49380155568073
30
0
41
1
10
13.6579862203325
20
9.42941539787634
30
0
41
1
10
13.6222599905468
20
9.4001489115571
30
0
41
1
10
13.5566483463551
20
9.36662118733784
30
0
41
1
10
13.5289597975987
20
9.35698328824236
30
0
41
1
10
13.4876776374751
20
9.35029954873104
30
0
41
1
10
13.4744789968601
20
9.34922131452501
30
0
41
1
10
13.4613248654052
20
9.34922131452501
30
0
0
SPLINE
5
204
100
AcDbEntity
8
1
62
256
6
ByLayer
370
18
48
1
60
0
100
AcDbSpline
70
4
71
3
72
16
73
12
40
0
40
0
40
0
40
0
40
0.113316224833592
40
0.113316224833592
40
0.252990411571568
40
0.252990411571568
40
0.473309013928318
40
0.473309013928318
40
0.896716357718825
40
0.896716357718825
40
1
40
1
40
1
40
1
41
1
10
13.4613248654052
20
-9.34922131452512
30
0
41
1
10
13.4894125595718
20
-9.34922131452512
30
0
41
1
10
13.517849357763
20
-9.35431657338984
30
0
41
1
10
13.5767970345725
20
-9.37467777536568
30
0
41
1
10
13.6072473721288
20
-9.39213979793414
30
0
41
1
10
13.6769143636602
20
-9.44503542604386
30
0
41
1
10
13.7128266507651
20
-9.48569380431883
30
0
41
1
10
13.8014637450836
20
-9.61105923366807
30
0
41
1
10
13.842370839753
20
-9.70465429390069
30
0
41
1
10
13.8809034737598
20
-9.82244573862474
30
0
41
1
10
13.8878971837969
20
-9.84586944318031
30
0
41
1
10
13.8943375672974
20
-9.86941261896621
30
0
0
SPLINE
5
205
100
AcDbEntity
8
SK1
62
256
6
ByLayer
370
18
48
1
60
0
100
AcDbSpline
70
4
71
3
72
26
73
22
40
0
40
0
40
0
40
0
40
0.462420532187944
40
0.462420532187944
40
0.662465761698283
40
0.662465761698283
40
0.830433309169693
40
0.830433309169693
40
0.87601894963741
40
0.87601894963741
40
0.905535493032455
40
0.905535493032455
40
0.92577818311669
40
0.92577818311669
40
0.946307111163799
40
0.946307111163799
40
0.963675313617857
40
0.963675313617857
40
0.991859972782862
40
0.991859972782862
40
1
40
1
40
1
40
1
41
1
10
-0.199999999999989
20
7.05951749342083
30
0
41
1
10
-0.199999999999989
20
6.93273416480454
30
0
41
1
10
-0.203968014086513
20
6.80463429773329
30
0
41
1
10
-0.223222206303916
20
6.62063667774228
30
0
41
1
10
-0.230822389897867
20
6.56482953243432
30
0
41
1
10
-0.25203556671454
20
6.46316921019911
30
0
41
1
10
-0.263798801619998
20
6.41617607028249
30
0
41
1
10
-0.290531391619595
20
6.36108887379029
30
0
41
1
10
-0.29710300077241
20
6.34947181616241
30
0
41
1
10
-0.310313928765396
20
6.33213067856883
30
0
41
1
10
-0.316208846631099
20
6.32567949173321
30
0
41
1
10
-0.327595492701022
20
6.31681373578161
30
0
41
1
10
-0.332739264568516
20
6.31372817209197
30
0
41
1
10
-0.343644708736434
20
6.30958040401461
30
0
41
1
10
-0.349575964479982
20
6.30853210514005
30
0
41
1
10
-0.360183897281416
20
6.30881607347521
30
0
41
1
10
-0.365032052617437
20
6.30978620719449
30
0
41
1
10
-0.376922909163966
20
6.31387292952667
30
0
41
1
10
-0.383695246431131
20
6.3179475897727
30
0
41
1
10
-0.39156461480826
20
6.32402624429125
30
0
41
1
10
-0.393293161608796
20
6.32546009510432
30
0
41
1
10
-0.394976888875277
20
6.32694279392757
30
0
0
SPLINE
5
206
100
AcDbEntity
8
SK1
62
256
6
ByLayer
370
18
48
1
60
0
100
AcDbSpline
70
4
71
3
72
22
73
18
40
0
40
0
40
0
40
0
40
0.366862607601256
40
0.366862607601256
40
0.737339621375052
40
0.737339621375052
40
0.838459586400285
40
0.838459586400285
40
0.872990642836393
40
0.872990642836393
40
0.908114554314301
40
0.908114554314301
40
0.93841147631739
40
0.93841147631739
40
0.978567405872927
40
0.978567405872927
40
1
40
1
40
1
40
1
41
1
10
-1.30710678118655
20
-4.81101329740289
30
0
41
1
10
-1.26411319574365
20
-5.05427021725674
30
0
41
1
10
-1.21291926611929
20
-5.29463858107241
30
0
41
1
10
-1.07751639291712
20
-5.76447191425098
30
0
41
1
10
-0.99999394263088
20
-6.0024064332149
30
0
41
1
10
-0.818580317119483
20
-6.26150782359156
30
0
41
1
10
-0.772786229091963
20
-6.31609141287933
30
0
41
1
10
-0.693958175551444
20
-6.37002132562083
30
0
41
1
10
-0.671742895995578
20
-6.38213989760789
30
0
41
1
10
-0.624176343099663
20
-6.39933264200099
30
0
41
1
10
-0.598041368844491
20
-6.404334107431
30
0
41
1
10
-0.550095873812694
20
-6.4042038836908
30
0
41
1
10
-0.527645089252019
20
-6.40038614973912
30
0
41
1
10
-0.479150674129698
20
-6.38487542657816
30
0
41
1
10
-0.453444961156862
20
-6.37100758594852
30
0
41
1
10
-0.417985764291785
20
-6.34622757774423
30
0
41
1
10
-0.406197231050186
20
-6.33682378409867
30
0
41
1
10
-0.394976888874737
20
-6.32694309068151
30
0
0
SPLINE
5
207
100
AcDbEntity
8
SK1
62
256
6
ByLayer
370
18
48
1
60
0
100
AcDbSpline
70
4
71
3
72
22
73
18
40
0
40
0
40
0
40
0
40
0.038427246458711
40
0.038427246458711
40
0.0775026456766427
40
0.0775026456766427
40
0.106475059033524
40
0.106475059033524
40
0.135305917881828
40
0.135305917881828
40
0.182167074412018
40
0.182167074412018
40
0.275660663800869
40
0.275660663800869
40
0.616530102228659
40
0.616530102228659
40
1
40
1
40
1
40
1
41
1
10
-0.394976888875277
20
6.32694279392757
30
0
41
1
10
-0.414867561016194
20
6.34445862132063
30
0
41
1
10
-0.436644357284194
20
6.36058691921457
30
0
41
1
10
-0.484524151203374
20
6.3868168818706
30
0
41
1
10
-0.511419954277329
20
6.39702622866628
30
0
41
1
10
-0.560078773491568
20
6.40490957850619
30
0
41
1
10
-0.58185248496946
20
6.40512642059926
30
0
41
1
10
-0.623683911276828
20
6.39912423041605
30
0
41
1
10
-0.644207278837655
20
6.39293597600829
30
0
41
1
10
-0.694134540330907
20
6.37121870092642
30
0
41
1
10
-0.722113964046514
20
6.35215911803172
30
0
41
1
10
-0.796598131612939
20
6.28903777408343
30
0
41
1
10
-0.836555557792792
20
6.23798237717094
30
0
41
1
10
-0.997773060879837
20
5.995390913813
30
0
41
1
10
-1.07178904300878
20
5.77805690787602
30
0
41
1
10
-1.2082731523935
20
5.31693201445015
30
0
41
1
10
-1.26212533694985
20
5.06551762472202
30
0
41
1
10
-1.30710678118655
20
4.81101321788441
30
0
0
SPLINE
5
208
100
AcDbEntity
8
SK1
62
256
6
ByLayer
370
18
48
1
60
0
100
AcDbSpline
70
4
71
3
72
22
73
18
40
0
40
0
40
0
40
0
40
0.025518692999354
40
0.025518692999354
40
0.0515625307794633
40
0.0515625307794633
40
0.0689220502117165
40
0.0689220502117165
40
0.0862030429090035
40
0.0862030429090035
40
0.113761926258803
40
0.113761926258803
40
0.167639902693809
40
0.167639902693809
40
0.357269752158031
40
0.357269752158031
40
1
40
1
40
1
40
1
41
1
10
-0.394976888875306
20
-6.326943090669
30
0
41
1
10
-0.389699799773268
20
-6.32229605774103
30
0
41
1
10
-0.38394554029108
20
-6.31808234313019
30
0
41
1
10
-0.371336208800926
20
-6.31155719556298
30
0
41
1
10
-0.364237316839024
20
-6.30923328231674
30
0
41
1
10
-0.35209572007625
20
-6.30844589498398
30
0
41
1
10
-0.347038791108787
20
-6.3089739150856
30
0
41
1
10
-0.337436838154161
20
-6.31166640764118
30
0
41
1
10
-0.332782752688161
20
-6.31383711710231
30
0
41
1
10
-0.321723955926899
20
-6.32078578121266
30
0
41
1
10
-0.315689795621665
20
-6.32640446307903
30
0
41
1
10
-0.300083216036086
20
-6.3442802085479
30
0
41
1
10
-0.292057158925644
20
-6.35806878925098
30
0
41
1
10
-0.261294067338753
20
-6.42092251611513
30
0
41
1
10
-0.248999237994838
20
-6.47445017323312
30
0
41
1
10
-0.204624309665832
20
-6.70435570668306
30
0
41
1
10
-0.200000000000983
20
-6.88379158154922
30
0
41
1
10
-0.200000000000983
20
-7.05951756777665
30
0
0
SPLINE
5
209
100
AcDbEntity
8
SK1
62
256
6
ByLayer
370
18
48
1
60
0
100
AcDbSpline
70
4
71
3
72
10
73
6
40
0
40
0
40
0
40
0
40
0.5
40
0.5
40
1
40
1
40
1
40
1
41
1
10
-1.30710678118655
20
-4.81101329740289
30
0
41
1
10
-1.57713284158248
20
-3.28321078789992
30
0
41
1
10
-1.79449339715788
20
-1.64680798700616
30
0
41
1
10
-1.79438545511851
20
1.6481258022005
30
0
41
1
10
-1.57704898370505
20
3.28368386467716
30
0
41
1
10
-1.30710678118663
20
4.81101321788435
30
0
0
INSERT
5
21B
100
AcDbEntity
8
2
62
256
6
ByLayer
370
25
48
1
60
0
100
AcDbBlockReference
2
DimnDraft3D11
10
0
20
0
30
0
41
1
42
1
43
1
50
0
210
0
220
0
230
1
0
LINE
5
72
100
AcDbEntity
8
1
62
256
6
ByLayer
370
18
48
1
60
0
100
AcDbLine
10
0.3
20
31.5
30
0
11
0
21
31.2
31
0
39
0
210
0
220
0
230
1
0
LINE
5
74
100
AcDbEntity
8
1
62
256
6
ByLayer
370
18
48
1
60
0
100
AcDbLine
10
0
20
-31.2
30
0
11
0.3
21
-31.5
31
0
39
0
210
0
220
0
230
1
0
LINE
5
75
100
AcDbEntity
8
1
62
256
6
ByLayer
370
18
48
1
60
0
100
AcDbLine
10
0.3
20
-31.5
30
0
11
22.344316
21
-31.5
31
0
39
0
210
0
220
0
230
1
0
LINE
5
76
100
AcDbEntity
8
1
62
256
6
ByLayer
370
18
48
1
60
0
100
AcDbLine
10
24.561871
20
6.554722
30
0
11
19.214971
21
12.161159
31
0
39
0
210
0
220
0
230
1
0
LINE
5
77
100
AcDbEntity
8
1
62
256
6
ByLayer
370
18
48
1
60
0
100
AcDbLine
10
19.284079
20
5.713348
30
0
11
21.377774
21
3.518025
31
0
39
0
210
0
220
0
230
1
0
LINE
5
78
100
AcDbEntity
8
1
62
256
6
ByLayer
370
18
48
1
60
0
100
AcDbLine
10
36.625398
20
-32.326561
30
0
11
36.842373
21
-32.543536
31
0
39
0
210
0
220
0
230
1
0
LINE
5
79
100
AcDbEntity
8
1
62
256
6
ByLayer
370
18
48
1
60
0
100
AcDbLine
10
33.12104
20
-37.220103
30
0
11
33.327127
21
-37.42619
31
0
39
0
210
0
220
0
230
1
0
LINE
5
7A
100
AcDbEntity
8
80
62
256
6
ByLayer
370
18
48
1
60
0
100
AcDbLine
10
0
20
0
30
0
11
-5
21
0
31
0
39
0
210
0
220
0
230
1
0
LINE
5
7B
100
AcDbEntity
8
4
62
256
6
ByLayer
370
18
48
0.05
60
0
100
AcDbLine
10
0
20
0
30
0
11
54
21
0
31
0
39
0
210
0
220
0
230
1
0
LINE
5
7D
100
AcDbEntity
8
81
62
256
6
ByLayer
370
18
48
1
60
0
100
AcDbLine
10
54
20
-45
30
0
11
64
21
-45
31
0
39
0
210
0
220
0
230
1
0
LINE
5
7E
100
AcDbEntity
8
SK4
62
256
6
ByLayer
370
18
48
0.05
60
0
100
AcDbLine
10
-43
20
0
30
0
11
54
21
0
31
0
39
0
210
0
220
0
230
1
0
LINE
5
80
100
AcDbEntity
8
1
62
256
6
ByLayer
370
18
48
1
60
0
100
AcDbLine
10
40.398194
20
-30.355122
30
0
11
40.185566
21
-30.142494
31
0
39
0
210
0
220
0
230
1
0
LINE
5
81
100
AcDbEntity
8
1
62
256
6
ByLayer
370
18
48
1
60
0
100
AcDbLine
10
23.507345
20
-40.049273
30
0
11
25.37947
21
-40.971932
31
0
39
0
210
0
220
0
230
1
0
LINE
5
82
100
AcDbEntity
8
1
62
256
6
ByLayer
370
18
48
1
60
0
100
AcDbLine
10
31.282797
20
-36.63628
30
0
11
30.828082
21
-36.412178
31
0
39
0
210
0
220
0
230
1
0
LINE
5
83
100
AcDbEntity
8
1
62
256
6
ByLayer
370
18
48
1
60
0
100
AcDbLine
10
35.67923
20
-34.495114
30
0
11
35.424547
21
-34.240431
31
0
39
0
210
0
220
0
230
1
0
LINE
5
84
100
AcDbEntity
8
1
62
256
6
ByLayer
370
18
48
1
60
0
100
AcDbLine
10
38.111702
20
-33.351809
30
0
11
38.367362
21
-33.607468
31
0
39
0
210
0
220
0
230
1
0
LINE
5
85
100
AcDbEntity
8
1
62
256
6
ByLayer
370
18
48
1
60
0
100
AcDbLine
10
37.205609
20
-35.560437
30
0
11
36.949743
21
-35.30457
31
0
39
0
210
0
220
0
230
1
0
LINE
5
86
100
AcDbEntity
8
1
62
256
6
ByLayer
370
18
48
1
60
0
100
AcDbLine
10
21.449104
20
3.493104
30
0
11
21.791835
21
3.490305
31
0
39
0
210
0
220
0
230
1
0
LINE
5
87
100
AcDbEntity
8
1
62
256
6
ByLayer
370
18
48
1
60
0
100
AcDbLine
10
24.569949
20
6.139812
30
0
11
24.583386
21
6.482291
31
0
39
0
210
0
220
0
230
1
0
LINE
5
88
100
AcDbEntity
8
1
62
256
6
ByLayer
370
18
48
1
60
0
100
AcDbLine
10
22.920792
20
31.5
30
0
11
0.3
21
31.5
31
0
39
0
210
0
220
0
230
1
0
LINE
5
89
100
AcDbEntity
8
1
62
256
6
ByLayer
370
18
48
1
60
0
100
AcDbLine
10
24
20
31.65
30
0
11
22.960985
21
31.65
31
0
39
0
210
0
220
0
230
1
0
LINE
5
8A
100
AcDbEntity
8
1
62
256
6
ByLayer
370
18
48
1
60
0
100
AcDbLine
10
22.960985
20
31.65
30
0
11
22.920792
21
31.5
31
0
39
0
210
0
220
0
230
1
0
LINE
5
8B
100
AcDbEntity
8
1
62
256
6
ByLayer
370
18
48
1
60
0
100
AcDbLine
10
0.3
20
0
30
0
11
0.3
21
-31.5
31
0
39
0
210
0
220
0
230
1
0
LINE
5
8C
100
AcDbEntity
8
1
62
256
6
ByLayer
370
18
48
1
60
0
100
AcDbLine
10
0.3
20
31.5
30
0
11
0.3
21
0
31
0
39
0
210
0
220
0
230
1
0
LINE
5
8D
100
AcDbEntity
8
1
62
256
6
ByLayer
370
18
48
1
60
0
100
AcDbLine
10
0
20
0
30
0
11
0
21
-31.2
31
0
39
0
210
0
220
0
230
1
0
LINE
5
8E
100
AcDbEntity
8
1
62
256
6
ByLayer
370
18
48
1
60
0
100
AcDbLine
10
0
20
31.2
30
0
11
0
21
0
31
0
39
0
210
0
220
0
230
1
0
LINE
5
8F
100
AcDbEntity
8
1
62
256
6
ByLayer
370
18
48
1
60
0
100
AcDbLine
10
22.920792
20
31.5
30
0
11
22.920792
21
30.899614
31
0
39
0
210
0
220
0
230
1
0
LINE
5
90
100
AcDbEntity
8
1
62
256
6
ByLayer
370
18
48
1
60
0
100
AcDbLine
10
19.911507
20
11.431004
30
0
11
19.911507
21
29.985012
31
0
39
0
210
0
220
0
230
1
0
LINE
5
91
100
AcDbEntity
8
1
62
256
6
ByLayer
370
18
48
1
60
0
100
AcDbLine
10
19.839998
20
13.912476
30
0
11
19.86746
21
11.476938
31
0
39
0
210
0
220
0
230
1
0
LINE
5
92
100
AcDbEntity
8
SK1
62
256
6
ByLayer
370
18
48
1
60
0
100
AcDbLine
10
-0.2
20
22.533485
30
0
11
-0.2
21
7.059517
31
0
39
0
210
0
220
0
230
1
0
LINE
5
94
100
AcDbEntity
8
SK1
62
256
6
ByLayer
370
18
48
1
60
0
100
AcDbLine
10
-0.2
20
-7.059518
30
0
11
-0.2
21
-22.533485
31
0
39
0
210
0
220
0
230
1
0
LINE
5
95
100
AcDbEntity
8
1
62
256
6
ByLayer
370
18
48
1
60
0
100
AcDbLine
10
19.839998
20
13.912476
30
0
11
19.232186
21
13.332801
31
0
39
0
210
0
220
0
230
1
0
LINE
5
96
100
AcDbEntity
8
1
62
256
6
ByLayer
370
18
48
1
60
0
100
AcDbLine
10
23.896286
20
-16.295821
30
0
11
23.896286
21
5.148104
31
0
39
0
210
0
220
0
230
1
0
LINE
5
97
100
AcDbEntity
8
1
62
256
6
ByLayer
370
18
48
1
60
0
100
AcDbLine
10
23.896286
20
7.253193
30
0
11
23.896286
21
31.076076
31
0
39
0
210
0
220
0
230
1
0
LINE
5
98
100
AcDbEntity
8
1
62
256
6
ByLayer
370
18
48
1
60
0
100
AcDbLine
10
24
20
31.076076
30
0
11
24
21
31.65
31
0
39
0
210
0
220
0
230
1
0
LINE
5
99
100
AcDbEntity
8
1
62
256
6
ByLayer
370
18
48
1
60
0
100
AcDbLine
10
22.960985
20
31.65
30
0
11
22.960985
21
31.054462
31
0
39
0
210
0
220
0
230
1
0
LINE
5
9A
100
AcDbEntity
8
1
62
256
6
ByLayer
370
18
48
1
60
0
100
AcDbLine
10
32.648749
20
-23.795751
30
0
11
32.757236
21
-22.620873
31
0
39
0
210
0
220
0
230
1
0
LINE
5
9B
100
AcDbEntity
8
1
62
256
6
ByLayer
370
18
48
1
60
0
100
AcDbLine
10
53.0178
20
-23.538627
30
0
11
49.402062
21
-27.154365
31
0
39
0
210
0
220
0
230
1
0
LINE
5
9C
100
AcDbEntity
8
1
62
256
6
ByLayer
370
18
48
1
60
0
100
AcDbLine
10
50.174587
20
-42.37908
30
0
11
48.527638
21
-40.746581
31
0
39
0
210
0
220
0
230
1
0
LINE
5
9D
100
AcDbEntity
8
1
62
256
6
ByLayer
370
18
48
1
60
0
100
AcDbLine
10
50.174587
20
-42.37908
30
0
11
44.878374
21
-41.915721
31
0
39
0
210
0
220
0
230
1
0
LINE
5
9E
100
AcDbEntity
8
1
62
256
6
ByLayer
370
18
48
1
60
0
100
AcDbLine
10
20.463093
20
-31.099527
30
0
11
20.446813
21
-31.275839
31
0
39
0
210
0
220
0
230
1
0
LINE
5
9F
100
AcDbEntity
8
1
62
256
6
ByLayer
370
18
48
1
60
0
100
AcDbLine
10
49.414514
20
-27.160874
30
0
11
50.119163
21
-26.456226
31
0
39
0
210
0
220
0
230
1
0
LINE
5
A0
100
AcDbEntity
8
1
62
256
6
ByLayer
370
18
48
1
60
0
100
AcDbLine
10
50.418937
20
-42.400458
30
0
11
50.174587
21
-42.37908
31
0
39
0
210
0
220
0
230
1
0
LINE
5
A1
100
AcDbEntity
8
1
62
256
6
ByLayer
370
18
48
1
60
0
100
AcDbLine
10
52.040389
20
-29.722503
30
0
11
52.924146
21
-29.712161
31
0
39
0
210
0
220
0
230
1
0
LINE
5
A2
100
AcDbEntity
8
1
62
256
6
ByLayer
370
18
48
1
60
0
100
AcDbLine
10
55.763507
20
-31.059728
30
0
11
55.429303
21
-31.44981
31
0
39
0
210
0
220
0
230
1
0
LINE
5
A3
100
AcDbEntity
8
1
62
256
6
ByLayer
370
18
48
1
60
0
100
AcDbLine
10
51.761975
20
-29.478569
30
0
11
51.306089
21
-28.635131
31
0
39
0
210
0
220
0
230
1
0
LINE
5
A4
100
AcDbEntity
8
1
62
256
6
ByLayer
370
18
48
1
60
0
100
AcDbLine
10
53.67082
20
-23.201698
30
0
11
53.514726
21
-23.045604
31
0
39
0
210
0
220
0
230
1
0
LINE
5
A5
100
AcDbEntity
8
1
62
256
6
ByLayer
370
18
48
1
60
0
100
AcDbLine
10
36.65925
20
-32.347031
30
0
11
36.781274
21
-32.469056
31
0
39
0
210
0
220
0
230
1
0
LINE
5
A6
100
AcDbEntity
8
1
62
256
6
ByLayer
370
18
48
1
60
0
100
AcDbLine
10
48.706801
20
-40.688319
30
0
11
52.675535
21
-44.657053
31
0
39
0
210
0
220
0
230
1
0
LINE
5
A7
100
AcDbEntity
8
1
62
256
6
ByLayer
370
18
48
1
60
0
100
AcDbLine
10
52.776586
20
-23.991262
30
0
11
49.540817
21
-27.227031
31
0
39
0
210
0
220
0
230
1
0
LINE
5
A8
100
AcDbEntity
8
1
62
256
6
ByLayer
370
18
48
1
60
0
100
AcDbLine
10
52.732292
20
-23.946968
30
0
11
52.776586
21
-23.991262
31
0
39
0
210
0
220
0
230
1
0
LINE
5
A9
100
AcDbEntity
8
1
62
256
6
ByLayer
370
18
48
1
60
0
100
AcDbLine
10
35.020858
20
-38.692779
30
0
11
35.75609
21
-38.752363
31
0
39
0
210
0
220
0
230
1
0
LINE
5
AA
100
AcDbEntity
8
1
62
256
6
ByLayer
370
18
48
1
60
0
100
AcDbLine
10
52.060009
20
-29.634247
30
0
11
51.353865
21
-29.265397
31
0
39
0
210
0
220
0
230
1
0
LINE
5
AB
100
AcDbEntity
8
1
62
256
6
ByLayer
370
18
48
1
60
0
100
AcDbLine
10
55.894663
20
-31.713411
30
0
11
55.98536
21
-31.760785
31
0
39
0
210
0
220
0
230
1
0
LINE
5
AC
100
AcDbEntity
8
1
62
256
6
ByLayer
370
18
48
1
60
0
100
AcDbLine
10
56.100469
20
-31.859917
30
0
11
56.064688
21
-31.820137
31
0
39
0
210
0
220
0
230
1
0
LINE
5
AD
100
AcDbEntity
8
1
62
256
6
ByLayer
370
18
48
1
60
0
100
AcDbLine
10
43.323557
20
-24.700003
30
0
11
32.863734
21
-23.835663
31
0
39
0
210
0
220
0
230
1
0
LINE
5
AE
100
AcDbEntity
8
1
62
256
6
ByLayer
370
18
48
1
60
0
100
AcDbLine
10
35.357992
20
-38.858932
30
0
11
35.020858
21
-38.692779
31
0
39
0
210
0
220
0
230
1
0
LINE
5
AF
100
AcDbEntity
8
1
62
256
6
ByLayer
370
18
48
1
60
0
100
AcDbLine
10
24.93952
20
-27.42384
30
0
11
22.817571
21
-26.378059
31
0
39
0
210
0
220
0
230
1
0
LINE
5
B0
100
AcDbEntity
8
1
62
256
6
ByLayer
370
18
48
1
60
0
100
AcDbLine
10
28.055976
20
-23.607925
30
0
11
26.479325
21
-22.830889
31
0
39
0
210
0
220
0
230
1
0
LINE
5
B1
100
AcDbEntity
8
1
62
256
6
ByLayer
370
18
48
1
60
0
100
AcDbLine
10
35.357992
20
-38.858932
30
0
11
37.532433
21
-39.038616
31
0
39
0
210
0
220
0
230
1
0
LINE
5
B2
100
AcDbEntity
8
1
62
256
6
ByLayer
370
18
48
1
60
0
100
AcDbLine
10
28.055976
20
-23.607925
30
0
11
38.15062
21
-24.442089
31
0
39
0
210
0
220
0
230
1
0
LINE
5
B3
100
AcDbEntity
8
1
62
256
6
ByLayer
370
18
48
1
60
0
100
AcDbLine
10
49.940073
20
-40.28856
30
0
11
44.95528
21
-41.90504
31
0
39
0
210
0
220
0
230
1
0
LINE
5
B4
100
AcDbEntity
8
1
62
256
6
ByLayer
370
18
48
1
60
0
100
AcDbLine
10
55.556556
20
-37.750316
30
0
11
55.477899
21
-37.811919
31
0
39
0
210
0
220
0
230
1
0
LINE
5
B5
100
AcDbEntity
8
1
62
256
6
ByLayer
370
18
48
1
60
0
100
AcDbLine
10
23.992592
20
-37.678755
30
0
11
21.870643
21
-36.632974
31
0
39
0
210
0
220
0
230
1
0
LINE
5
B6
100
AcDbEntity
8
1
62
256
6
ByLayer
370
18
48
1
60
0
100
AcDbLine
10
38.475698
20
-28.823371
30
0
11
36.301257
21
-28.643687
31
0
39
0
210
0
220
0
230
1
0
LINE
5
B7
100
AcDbEntity
8
1
62
256
6
ByLayer
370
18
48
1
60
0
100
AcDbLine
10
55.246555
20
-37.953591
30
0
11
55.477899
21
-37.811919
31
0
39
0
210
0
220
0
230
1
0
LINE
5
B8
100
AcDbEntity
8
1
62
256
6
ByLayer
370
18
48
1
60
0
100
AcDbLine
10
23.992592
20
-37.678755
30
0
11
24.93952
21
-27.42384
31
0
39
0
210
0
220
0
230
1
0
LINE
5
B9
100
AcDbEntity
8
1
62
256
6
ByLayer
370
18
48
1
60
0
100
AcDbLine
10
50.4088
20
-39.50014
30
0
11
54.378827
21
-38.21273
31
0
39
0
210
0
220
0
230
1
0
LINE
5
BA
100
AcDbEntity
8
1
62
256
6
ByLayer
370
18
48
1
60
0
100
AcDbLine
10
46.459252
20
-25.617177
30
0
11
51.072312
21
-28.026782
31
0
39
0
210
0
220
0
230
1
0
LINE
5
BB
100
AcDbEntity
8
1
62
256
6
ByLayer
370
18
48
1
60
0
100
AcDbLine
10
36.526007
20
-42.036113
30
0
11
26.431363
21
-41.201949
31
0
39
0
210
0
220
0
230
1
0
LINE
5
BC
100
AcDbEntity
8
1
62
256
6
ByLayer
370
18
48
1
60
0
100
AcDbLine
10
29.762464
20
-36.118368
30
0
11
25.657412
21
-35.785689
31
0
39
0
210
0
220
0
230
1
0
LINE
5
BD
100
AcDbEntity
8
1
62
256
6
ByLayer
370
18
48
1
60
0
100
AcDbLine
10
26.642949
20
-24.342821
30
0
11
38.38322
21
-25.31297
31
0
39
0
210
0
220
0
230
1
0
LINE
5
BE
100
AcDbEntity
8
1
62
256
6
ByLayer
370
18
48
1
60
0
100
AcDbLine
10
37.532433
20
-39.038616
30
0
11
37.186888
21
-38.868317
31
0
39
0
210
0
220
0
230
1
0
LINE
5
BF
100
AcDbEntity
8
1
62
256
6
ByLayer
370
18
48
1
60
0
100
AcDbLine
10
29.619728
20
-23.242596
30
0
11
29.619519
21
-23.242578
31
0
39
0
210
0
220
0
230
1
0
LINE
5
C0
100
AcDbEntity
8
1
62
256
6
ByLayer
370
18
48
1
60
0
100
AcDbLine
10
55.477899
20
-37.811919
30
0
11
55.327015
21
-37.860848
31
0
39
0
210
0
220
0
230
1
0
LINE
5
C1
100
AcDbEntity
8
1
62
256
6
ByLayer
370
18
48
1
60
0
100
AcDbLine
10
25.126248
20
-40.768194
30
0
11
36.866519
21
-41.738343
31
0
39
0
210
0
220
0
230
1
0
LINE
5
C2
100
AcDbEntity
8
1
62
256
6
ByLayer
370
18
48
1
60
0
100
AcDbLine
10
30.213438
20
-36.340626
30
0
11
29.762464
21
-36.118368
31
0
39
0
210
0
220
0
230
1
0
LINE
5
C3
100
AcDbEntity
8
1
62
256
6
ByLayer
370
18
48
1
60
0
100
AcDbLine
10
22.817571
20
-26.378059
30
0
11
21.870643
21
-36.632974
31
0
39
0
210
0
220
0
230
1
0
LINE
5
C4
100
AcDbEntity
8
1
62
256
6
ByLayer
370
18
48
1
60
0
100
AcDbLine
10
32.863734
20
-23.835663
30
0
11
30.412039
21
-23.379421
31
0
39
0
210
0
220
0
230
1
0
LINE
5
C5
100
AcDbEntity
8
1
62
256
6
ByLayer
370
18
48
1
60
0
100
AcDbLine
10
25.657412
20
-35.785689
30
0
11
26.206887
21
-29.835061
31
0
39
0
210
0
220
0
230
1
0
LINE
5
C6
100
AcDbEntity
8
1
62
256
6
ByLayer
370
18
48
1
60
0
100
AcDbLine
10
38.333253
20
-33.570495
30
0
11
38.081648
21
-33.318889
31
0
39
0
210
0
220
0
230
1
0
LINE
5
C7
100
AcDbEntity
8
1
62
256
6
ByLayer
370
18
48
1
60
0
100
AcDbLine
10
37.975061
20
-33.088418
30
0
11
38.226667
21
-33.340023
31
0
39
0
210
0
220
0
230
1
0
LINE
5
C8
100
AcDbEntity
8
1
62
256
6
ByLayer
370
18
48
1
60
0
100
AcDbLine
10
38.07868
20
-34.942667
30
0
11
37.827075
21
-34.691062
31
0
39
0
210
0
220
0
230
1
0
LINE
5
C9
100
AcDbEntity
8
1
62
256
6
ByLayer
370
18
48
1
60
0
100
AcDbLine
10
38.262463
20
-34.363969
30
0
11
38.518329
21
-34.619836
31
0
39
0
210
0
220
0
230
1
0
LINE
5
CA
100
AcDbEntity
8
1
62
256
6
ByLayer
370
18
48
1
60
0
100
AcDbLine
10
38.019745
20
-32.781039
30
0
11
38.275612
21
-33.036905
31
0
39
0
210
0
220
0
230
1
0
LINE
5
CB
100
AcDbEntity
8
1
62
256
6
ByLayer
370
18
48
1
60
0
100
AcDbLine
10
37.974288
20
-34.481563
30
0
11
38.225893
21
-34.733168
31
0
39
0
210
0
220
0
230
1
0
LINE
5
CC
100
AcDbEntity
8
1
62
256
6
ByLayer
370
18
48
1
60
0
100
AcDbLine
10
37.814746
20
-35.001115
30
0
11
38.070613
21
-35.256981
31
0
39
0
210
0
220
0
230
1
0
LINE
5
CD
100
AcDbEntity
8
1
62
256
6
ByLayer
370
18
48
1
60
0
100
AcDbLine
10
36.767351
20
-35.189265
30
0
11
37.018957
21
-35.44087
31
0
39
0
210
0
220
0
230
1
0
LINE
5
CE
100
AcDbEntity
8
1
62
256
6
ByLayer
370
18
48
1
60
0
100
AcDbLine
10
36.238965
20
-35.315267
30
0
11
36.494831
21
-35.571134
31
0
39
0
210
0
220
0
230
1
0
LINE
5
CF
100
AcDbEntity
8
1
62
256
6
ByLayer
370
18
48
1
60
0
100
AcDbLine
10
35.192343
20
-34.110272
30
0
11
35.44821
21
-34.366139
31
0
39
0
210
0
220
0
230
1
0
LINE
5
D0
100
AcDbEntity
8
1
62
256
6
ByLayer
370
18
48
1
60
0
100
AcDbLine
10
36.765157
20
-35.419898
30
0
11
36.513551
21
-35.168292
31
0
39
0
210
0
220
0
230
1
0
LINE
5
D1
100
AcDbEntity
8
1
62
256
6
ByLayer
370
18
48
1
60
0
100
AcDbLine
10
53.55737
20
-39.995305
30
0
11
52.213849
21
-39.884284
31
0
39
0
210
0
220
0
230
1
0
LINE
5
D2
100
AcDbEntity
8
1
62
256
6
ByLayer
370
18
48
1
60
0
100
AcDbLine
10
55.026753
20
-39.038534
30
0
11
54.756208
21
-38.360859
31
0
39
0
210
0
220
0
230
1
0
LINE
5
D3
100
AcDbEntity
8
1
62
256
6
ByLayer
370
18
48
1
60
0
100
AcDbLine
10
51.985018
20
-39.882599
30
0
11
51.257231
21
-40.532959
31
0
39
0
210
0
220
0
230
1
0
LINE
5
D4
100
AcDbEntity
8
1
62
256
6
ByLayer
370
18
48
1
60
0
100
AcDbLine
10
57.122301
20
-31.386603
30
0
11
54.491735
21
-29.876444
31
0
39
0
210
0
220
0
230
1
0
LINE
5
D5
100
AcDbEntity
8
1
62
256
6
ByLayer
370
18
48
1
60
0
100
AcDbLine
10
57.122301
20
-31.386603
30
0
11
57.270072
21
-30.033669
31
0
39
0
210
0
220
0
230
1
0
LINE
5
D6
100
AcDbEntity
8
1
62
256
6
ByLayer
370
18
48
1
60
0
100
AcDbLine
10
53.148213
20
-29.765423
30
0
11
55.763507
21
-31.059728
31
0
39
0
210
0
220
0
230
1
0
LINE
5
D7
100
AcDbEntity
8
1
62
256
6
ByLayer
370
18
48
1
60
0
100
AcDbLine
10
53.294621
20
-40.701318
30
0
11
51.257231
21
-40.532959
31
0
39
0
210
0
220
0
230
1
0
LINE
5
D8
100
AcDbEntity
8
1
62
256
6
ByLayer
370
18
48
1
60
0
100
AcDbLine
10
58.304916
20
-33.107003
30
0
11
57.428873
21
-31.581011
31
0
39
0
210
0
220
0
230
1
0
LINE
5
D9
100
AcDbEntity
8
1
62
256
6
ByLayer
370
18
48
1
60
0
100
AcDbLine
10
52.213849
20
-39.884284
30
0
11
55.026753
21
-39.038534
31
0
39
0
210
0
220
0
230
1
0
LINE
5
DA
100
AcDbEntity
8
1
62
256
6
ByLayer
370
18
48
1
60
0
100
AcDbLine
10
58.304916
20
-33.107003
30
0
11
59.191127
21
-31.954724
31
0
39
0
210
0
220
0
230
1
0
LINE
5
DB
100
AcDbEntity
8
1
62
256
6
ByLayer
370
18
48
1
60
0
100
AcDbLine
10
57.270072
20
-30.033669
30
0
11
54.430202
21
-28.403353
31
0
39
0
210
0
220
0
230
1
0
LINE
5
DC
100
AcDbEntity
8
1
62
256
6
ByLayer
370
18
48
1
60
0
100
AcDbLine
10
50.987946
20
-39.544536
30
0
11
50.260304
21
-39.960642
31
0
39
0
210
0
220
0
230
1
0
LINE
5
DD
100
AcDbEntity
8
1
62
256
6
ByLayer
370
18
48
1
60
0
100
AcDbLine
10
54.756208
20
-38.360859
30
0
11
50.909357
21
-39.517483
31
0
39
0
210
0
220
0
230
1
0
LINE
5
DE
100
AcDbEntity
8
1
62
256
6
ByLayer
370
18
48
1
60
0
100
AcDbLine
10
52.924146
20
-29.712161
30
0
11
53.148213
21
-29.765423
31
0
39
0
210
0
220
0
230
1
0
LINE
5
DF
100
AcDbEntity
8
1
62
256
6
ByLayer
370
18
48
1
60
0
100
AcDbLine
10
51.985018
20
-39.882599
30
0
11
50.987946
21
-39.544536
31
0
39
0
210
0
220
0
230
1
0
LINE
5
E0
100
AcDbEntity
8
1
62
256
6
ByLayer
370
18
48
1
60
0
100
AcDbLine
10
52.213849
20
-39.884284
30
0
11
51.985018
21
-39.882599
31
0
39
0
210
0
220
0
230
1
0
LINE
5
E1
100
AcDbEntity
8
1
62
256
6
ByLayer
370
18
48
1
60
0
100
AcDbLine
10
50.260304
20
-39.960642
30
0
11
51.257231
21
-40.532959
31
0
39
0
210
0
220
0
230
1
0
LINE
5
E2
100
AcDbEntity
8
1
62
256
6
ByLayer
370
18
48
1
60
0
100
AcDbLine
10
51.306089
20
-28.635131
30
0
11
52.392812
21
-28.234995
31
0
39
0
210
0
220
0
230
1
0
LINE
5
E3
100
AcDbEntity
8
1
62
256
6
ByLayer
370
18
48
1
60
0
100
AcDbLine
10
56.424877
20
-38.939475
30
0
11
53.55737
21
-39.995305
31
0
39
0
210
0
220
0
230
1
0
LINE
5
E4
100
AcDbEntity
8
1
62
256
6
ByLayer
370
18
48
1
60
0
100
AcDbLine
10
57.904895
20
-37.439099
30
0
11
58.634335
21
-37.984605
31
0
39
0
210
0
220
0
230
1
0
LINE
5
E5
100
AcDbEntity
8
1
62
256
6
ByLayer
370
18
48
1
60
0
100
AcDbLine
10
53.55737
20
-39.995305
30
0
11
53.294621
21
-40.701318
31
0
39
0
210
0
220
0
230
1
0
LINE
5
E6
100
AcDbEntity
8
1
62
256
6
ByLayer
370
18
48
1
60
0
100
AcDbLine
10
56.390284
20
-39.56148
30
0
11
53.294621
21
-40.701318
31
0
39
0
210
0
220
0
230
1
0
LINE
5
E7
100
AcDbEntity
8
1
62
256
6
ByLayer
370
18
48
1
60
0
100
AcDbLine
10
54.491735
20
-29.876444
30
0
11
54.430202
21
-28.403353
31
0
39
0
210
0
220
0
230
1
0
LINE
5
E8
100
AcDbEntity
8
1
62
256
6
ByLayer
370
18
48
1
60
0
100
AcDbLine
10
54.491735
20
-29.876444
30
0
11
53.148213
21
-29.765423
31
0
39
0
210
0
220
0
230
1
0
LINE
5
E9
100
AcDbEntity
8
1
62
256
6
ByLayer
370
18
48
1
60
0
100
AcDbLine
10
52.392812
20
-28.234995
30
0
11
52.924146
21
-29.712161
31
0
39
0
210
0
220
0
230
1
0
LINE
5
EA
100
AcDbEntity
8
1
62
256
6
ByLayer
370
18
48
1
60
0
100
AcDbLine
10
56.424877
20
-38.939475
30
0
11
56.390284
21
-39.56148
31
0
39
0
210
0
220
0
230
1
0
LINE
5
EB
100
AcDbEntity
8
1
62
256
6
ByLayer
370
18
48
1
60
0
100
AcDbLine
10
57.904895
20
-37.439099
30
0
11
56.762437
21
-38.798294
31
0
39
0
210
0
220
0
230
1
0
LINE
5
EC
100
AcDbEntity
8
1
62
256
6
ByLayer
370
18
48
1
60
0
100
AcDbLine
10
54.430202
20
-28.403353
30
0
11
52.392812
21
-28.234995
31
0
39
0
210
0
220
0
230
1
0
LINE
5
ED
100
AcDbEntity
8
1
62
256
6
ByLayer
370
18
48
1
60
0
100
AcDbLine
10
19.957946
20
4.861877
30
0
11
19.911507
21
4.910571
31
0
39
0
210
0
220
0
230
1
0
LINE
5
EE
100
AcDbEntity
8
1
62
256
6
ByLayer
370
18
48
1
60
0
100
AcDbLine
10
10.105662
20
29.913955
30
0
11
10.105662
21
21.040182
31
0
39
0
210
0
220
0
230
1
0
LINE
5
EF
100
AcDbEntity
8
1
62
256
6
ByLayer
370
18
48
1
60
0
100
AcDbLine
10
19.911507
20
4.910571
30
0
11
19.285805
21
5.566644
31
0
39
0
210
0
220
0
230
1
0
LINE
5
F0
100
AcDbEntity
8
1
62
256
6
ByLayer
370
18
48
1
60
0
100
AcDbLine
10
24.080584
20
-16.067734
30
0
11
24.080584
21
-19.59567
31
0
39
0
210
0
220
0
230
1
0
LINE
5
F1
100
AcDbEntity
8
1
62
256
6
ByLayer
370
18
48
1
60
0
100
AcDbLine
10
10.105662
20
-9.869413
30
0
11
10.105662
21
-29.913955
31
0
39
0
210
0
220
0
230
1
0
LINE
5
F2
100
AcDbEntity
8
1
62
256
6
ByLayer
370
18
48
1
60
0
100
AcDbLine
10
10.538675
20
19.43724
30
0
11
10.538675
21
9.349221
31
0
39
0
210
0
220
0
230
1
0
LINE
5
F3
100
AcDbEntity
8
1
62
256
6
ByLayer
370
18
48
1
60
0
100
AcDbLine
10
24
20
31.076076
30
0
11
23.896286
21
31.076076
31
0
39
0
210
0
220
0
230
1
0
LINE
5
F4
100
AcDbEntity
8
1
62
256
6
ByLayer
370
18
48
1
60
0
100
AcDbLine
10
34.813745
20
-5.334572
30
0
11
26.987511
21
2.491662
31
0
39
0
210
0
220
0
230
1
0
LINE
5
F5
100
AcDbEntity
8
1
62
256
6
ByLayer
370
18
48
1
60
0
100
AcDbLine
10
10.538675
20
-9.349221
30
0
11
10.538675
21
-30.080593
31
0
39
0
210
0
220
0
230
1
0
LINE
5
F6
100
AcDbEntity
8
1
62
256
6
ByLayer
370
18
48
1
60
0
100
AcDbLine
10
13.461325
20
-9.349221
30
0
11
13.461325
21
-30.080593
31
0
39
0
210
0
220
0
230
1
0
LINE
5
F7
100
AcDbEntity
8
1
62
256
6
ByLayer
370
18
48
1
60
0
100
AcDbLine
10
13.461325
20
30.080593
30
0
11
13.461325
21
21.369494
31
0
39
0
210
0
220
0
230
1
0
LINE
5
F8
100
AcDbEntity
8
1
62
256
6
ByLayer
370
18
48
1
60
0
100
AcDbLine
10
13.461325
20
19.43724
30
0
11
13.461325
21
9.349221
31
0
39
0
210
0
220
0
230
1
0
LINE
5
F9
100
AcDbEntity
8
1
62
256
6
ByLayer
370
18
48
1
60
0
100
AcDbLine
10
24
20
31.076076
30
0
11
24
21
9.704151
31
0
39
0
210
0
220
0
230
1
0
LINE
5
FA
100
AcDbEntity
8
1
62
256
6
ByLayer
370
18
48
1
60
0
100
AcDbLine
10
13.461325
20
9.349221
30
0
11
10.538675
21
9.349221
31
0
39
0
210
0
220
0
230
1
0
LINE
5
FB
100
AcDbEntity
8
1
62
256
6
ByLayer
370
18
48
1
60
0
100
AcDbLine
10
53.079226
20
-23.600053
30
0
11
53.0178
21
-23.538627
31
0
39
0
210
0
220
0
230
1
0
LINE
5
FC
100
AcDbEntity
8
1
62
256
6
ByLayer
370
18
48
1
60
0
100
AcDbLine
10
53.079226
20
-23.600053
30
0
11
50.881458
21
-25.79782
31
0
39
0
210
0
220
0
230
1
0
LINE
5
FD
100
AcDbEntity
8
1
62
256
6
ByLayer
370
18
48
1
60
0
100
AcDbLine
10
13.894338
20
-9.869413
30
0
11
13.894338
21
-29.913955
31
0
39
0
210
0
220
0
230
1
0
LINE
5
FE
100
AcDbEntity
8
1
62
256
6
ByLayer
370
18
48
1
60
0
100
AcDbLine
10
32.757236
20
-22.620873
30
0
11
30.570867
21
-22.25901
31
0
39
0
210
0
220
0
230
1
0
LINE
5
FF
100
AcDbEntity
8
1
62
256
6
ByLayer
370
18
48
1
60
0
100
AcDbLine
10
13.894338
20
29.913955
30
0
11
13.894338
21
21.040182
31
0
39
0
210
0
220
0
230
1
0
LINE
5
100
100
AcDbEntity
8
1
62
256
6
ByLayer
370
18
48
1
60
0
100
AcDbLine
10
10.538675
20
30.080593
30
0
11
13.461325
21
30.080593
31
0
39
0
210
0
220
0
230
1
0
LINE
5
101
100
AcDbEntity
8
1
62
256
6
ByLayer
370
18
48
1
60
0
100
AcDbLine
10
19.367681
20
15.10822
30
0
11
19.626165
21
16.074099
31
0
39
0
210
0
220
0
230
1
0
LINE
5
102
100
AcDbEntity
8
1
62
256
6
ByLayer
370
18
48
1
60
0
100
AcDbLine
10
13.461325
20
-30.080593
30
0
11
10.538675
21
-30.080593
31
0
39
0
210
0
220
0
230
1
0
LINE
5
103
100
AcDbEntity
8
1
62
256
6
ByLayer
370
18
48
1
60
0
100
AcDbLine
10
13.894338
20
20.132452
30
0
11
13.894338
21
9.869413
31
0
39
0
210
0
220
0
230
1
0
LINE
5
104
100
AcDbEntity
8
1
62
256
6
ByLayer
370
18
48
1
60
0
100
AcDbLine
10
10.538675
20
-9.349221
30
0
11
13.461325
21
-9.349221
31
0
39
0
210
0
220
0
230
1
0
LINE
5
105
100
AcDbEntity
8
1
62
256
6
ByLayer
370
18
48
1
60
0
100
AcDbLine
10
10.105662
20
20.132452
30
0
11
10.105662
21
9.869413
31
0
39
0
210
0
220
0
230
1
0
LINE
5
106
100
AcDbEntity
8
1
62
256
6
ByLayer
370
18
48
1
60
0
100
AcDbLine
10
19.911507
20
-29.985012
30
0
11
19.911507
21
4.910571
31
0
39
0
210
0
220
0
230
1
0
LINE
5
107
100
AcDbEntity
8
1
62
256
6
ByLayer
370
18
48
1
60
0
100
AcDbLine
10
10.538675
20
30.080593
30
0
11
10.538675
21
21.369494
31
0
39
0
210
0
220
0
230
1
0
LINE
5
108
100
AcDbEntity
8
1
62
256
6
ByLayer
370
18
48
1
60
0
100
AcDbLine
10
34.813745
20
-5.334572
30
0
11
53.0178
21
-23.538627
31
0
39
0
210
0
220
0
230
1
0
LINE
5
109
100
AcDbEntity
8
1
62
256
6
ByLayer
370
18
48
1
60
0
100
AcDbLine
10
24.080584
20
-16.067734
30
0
11
34.813745
21
-5.334572
31
0
39
0
210
0
220
0
230
1
0
LINE
5
10A
100
AcDbEntity
8
1
62
256
6
ByLayer
370
18
48
1
60
0
100
AcDbLine
10
19.285805
20
5.566644
30
0
11
19.217913
21
11.587928
31
0
39
0
210
0
220
0
230
1
0
LINE
5
10B
100
AcDbEntity
8
1
62
256
6
ByLayer
370
18
48
1
60
0
100
AcDbLine
10
63.900855
20
-33.431733
30
0
11
54.452191
21
-23.983069
31
0
39
0
210
0
220
0
230
1
0
LINE
5
10C
100
AcDbEntity
8
1
62
256
6
ByLayer
370
18
48
1
60
0
100
AcDbLine
10
54.35114
20
-44.64886
30
0
11
63.892662
21
-35.107338
31
0
39
0
210
0
220
0
230
1
0
LINE
5
10D
100
AcDbEntity
8
1
62
256
6
ByLayer
370
18
48
1
60
0
100
AcDbLine
10
53.670813
20
-23.201691
30
0
11
54.452191
21
-23.983069
31
0
39
0
210
0
220
0
230
1
0
LINE
5
10E
100
AcDbEntity
8
SK1
62
256
6
ByLayer
370
18
48
1
60
0
100
AcDbLine
10
-1.307107
20
4.811013
30
0
11
-1.307107
21
-4.811013
31
0
39
0
210
0
220
0
230
1
0
MTEXT
5
20A
100
AcDbEntity
8
SK6
62
256
6
ByLayer
370
18
48
1
60
0
100
AcDbMText
10
-8.503099
20
40.7
30
0
210
0
220
0
230
1
1
\W0.7442;C6-CSSNL-45054-15-4
40
3.5
41
0
44
1.084337
50
0
71
7
72
5
7
iso_b_vert
0
DIMENSION
5
22A
100
AcDbEntity
8
SK2
62
256
6
ByLayer
370
13
48
1
60
0
100
AcDbDimension
2
DimnDraft3D2
10
-45.75
20
31.5
30
0
11
-45.75
21
-2.688158
31
0
70
32
71
5
72
1
41
1
210
0
220
0
230
1
3
Standard
100
AcDbAlignedDimension
13
-2
23
-31.5
33
0
14
-2
24
31.5
34
0
50
90
100
AcDbRotatedDimension
1001
ACAD
1000
DSTYLE
1002
{
1070
    74
1070
     0
1070
   279
1070
     0
1070
   172
1070
     1
1070
   173
1070
     1
1070
   340
1005
20B
1070
    77
1070
     1
1070
    73
1070
     0
1070
   171
1070
     3
1070
   274
1070
     4
1070
   177
1070
     2
1070
   176
1070
     2
1070
   178
1070
     7
1070
    78
1070
     8
1070
    41
1041
3.175
1070
   147
1041
2.25
1070
    42
1041
2.0
1070
    44
1041
2.0
1070
   140
1041
4.5
1070
   343
1005
22B
1070
   344
1005
22B
1002
}
0
DIMENSION
5
23F
100
AcDbEntity
8
2
62
256
6
ByLayer
370
13
48
1
60
0
100
AcDbDimension
2
DimnDraft3D3
10
118.75
20
-34.761026
30
0
11
118.75
21
-22.898934
31
0
70
32
71
5
72
1
41
1
210
0
220
0
230
1
3
Standard
100
AcDbAlignedDimension
13
56
23
0
33
0
14
66.238974
24
-34.761026
34
0
50
90
100
AcDbRotatedDimension
1001
ACAD
1000
DSTYLE
1002
{
1070
    74
1070
     0
1070
   279
1070
     0
1070
   172
1070
     1
1070
   173
1070
     1
1070
   340
1005
20B
1070
    77
1070
     1
1070
    73
1070
     0
1070
   171
1070
     3
1070
   274
1070
     4
1070
   177
1070
     2
1070
   176
1070
     2
1070
   178
1070
     7
1070
    78
1070
     8
1070
    41
1041
3.175
1070
   147
1041
2.25
1070
    42
1041
2.0
1070
    44
1041
2.0
1070
   140
1041
4.5
1070
   343
1005
22B
1070
   344
1005
22B
1002
}
0
DIMENSION
5
24D
100
AcDbEntity
8
2
62
256
6
ByLayer
370
13
48
1
60
0
100
AcDbDimension
2
DimnDraft3D4
10
128.75
20
-45
30
0
11
128.75
21
-28.018421
31
0
70
32
71
5
72
1
41
1
210
0
220
0
230
1
3
Standard
100
AcDbAlignedDimension
13
56
23
0
33
0
14
56
24
-45
34
0
50
90
100
AcDbRotatedDimension
1001
ACAD
1000
DSTYLE
1002
{
1070
    74
1070
     0
1070
   279
1070
     0
1070
   172
1070
     1
1070
   173
1070
     1
1070
   340
1005
20B
1070
    77
1070
     1
1070
    73
1070
     0
1070
   171
1070
     3
1070
   274
1070
     4
1070
   177
1070
     2
1070
   176
1070
     2
1070
   178
1070
     7
1070
    78
1070
     8
1070
    41
1041
3.175
1070
   147
1041
2.25
1070
    42
1041
2.0
1070
    44
1041
2.0
1070
   140
1041
4.5
1070
   343
1005
22B
1070
   344
1005
22B
1002
}
0
DIMENSION
5
25B
100
AcDbEntity
8
2
62
256
6
ByLayer
370
13
48
1
60
0
100
AcDbDimension
2
DimnDraft3D5
10
64.238974
20
-70.25
30
0
11
26.601066
21
-70.25
31
0
70
32
71
5
72
1
41
1
210
0
220
0
230
1
3
Standard
100
AcDbAlignedDimension
13
0
23
-33.5
33
0
14
64.238974
24
-36.761026
34
0
50
0
100
AcDbRotatedDimension
1001
ACAD
1000
DSTYLE
1002
{
1070
   279
1070
     0
1070
   172
1070
     1
1070
   173
1070
     1
1070
   340
1005
20B
1070
    77
1070
     1
1070
    73
1070
     0
1070
   171
1070
     3
1070
   274
1070
     4
1070
   177
1070
     2
1070
   176
1070
     2
1070
   178
1070
     7
1070
    78
1070
     8
1070
    41
1041
3.175
1070
   147
1041
2.25
1070
    42
1041
2.0
1070
    44
1041
2.0
1070
   140
1041
4.5
1070
   343
1005
22B
1070
   344
1005
22B
1002
}
0
DIMENSION
5
269
100
AcDbEntity
8
2
62
256
6
ByLayer
370
13
48
1
60
0
100
AcDbDimension
2
DimnDraft3D6
10
64.238974
20
-34.267853
30
0
11
83.051506
21
10.656443
31
0
70
34
71
5
72
1
41
1
210
0
220
0
230
1
3
Standard
100
AcDb2LineAngularDimension
13
64.732147
23
-34.267853
33
0
14
64.238974
24
-34.761026
34
0
15
64.238974
25
-34.761026
35
0
16
81.32943
26
6.498985
36
0
40
0
0
ENDSEC
0
SECTION
2
OBJECTS
0
DICTIONARY
5
2d4
330
0
100
AcDbDictionary
280
0
281
1
3
ACAD_GROUP
350
2d5
3
ACAD_MLINESTYLE
350
2d6
0
DICTIONARY
5
2d5
330
0
100
AcDbDictionary
280
0
281
1
0
DICTIONARY
5
2d6
330
0
100
AcDbDictionary
280
0
281
1
3
Standard
350
18
0
MLINESTYLE
5
18
330
2d6
100
AcDbMlineStyle
2
Standard
70
0
3

62
256
51
90
52
90
71
2
49
-0.5
62
256
6
ByLayer
49
0.5
62
256
6
ByLayer
0
RASTERVARIABLES
5
2c2
330

100
AcDbRasterVariables
90
0
70
1
71
1
72
1
0
ENDSEC
0
EOF
