0
SECTION
2
HEADER
9
$ACADVER
1
AC1015
9
$DWGCODEPAGE
3
ANSI_1252
9
$HANDSEED
5
2b4
9
$ANGBASE
50
0
9
$ANGDIR
70
0
9
$ATTMODE
70
1
9
$AUNITS
70
0
9
$AUPREC
70
0
9
$CECOLOR
62
256
9
$CELTSCALE
40
1
9
$CELTYPE
6
ByLayer
9
$CELWEIGHT
370
18
9
$CLAYER
8
0
9
$CMLJUST
70
0
9
$CMLSCALE
40
1
9
$CMLSTYLE
2
Standard
9
$DIMSTYLE
2
Standard
9
$TEXTSIZE
40
0.2
9
$TEXTSTYLE
7
Standard
9
$LUNITS
70
2
9
$LUPREC
70
4
9
$EXTNAMES
290
1
9
$INSUNITS
70
4
9
$LTSCALE
40
1
9
$LWDISPLAY
290
1
9
$PDMODE
70
0
9
$PDSIZE
40
0
9
$PLINEGEN
70
0
0
ENDSEC
0
SECTION
2
CLASSES
0
CLASS
1
RASTERVARIABLES
2
AcDbRasterVariables
3
ISM
90
0
280
0
281
0
0
ENDSEC
0
SECTION
2
TABLES
0
TABLE
2
VPORT
5
2aa
100
AcDbSymbolTable
0
VPORT
5
1
100
AcDbSymbolTableRecord
100
AcDbViewportTableRecord
2
*Active
70
0
10
0
20
0
11
1
21
1
12
-1
22
1
13
0
23
0
14
0.5
24
0.5
15
10
25
10
16
0
26
0
36
1
17
0
27
0
37
0
0
ENDTAB
0
TABLE
2
LTYPE
5
2ab
100
AcDbSymbolTable
0
LTYPE
5
14
100
AcDbSymbolTableRecord
100
AcDbLinetypeTableRecord
70
0
2
ByBlock
3

72
65
73
0
40
0
0
LTYPE
5
15
100
AcDbSymbolTableRecord
100
AcDbLinetypeTableRecord
70
0
2
ByLayer
3

72
65
73
0
40
0
0
LTYPE
5
16
100
AcDbSymbolTableRecord
100
AcDbLinetypeTableRecord
70
0
2
CONTINUOUS
3
Solid line
72
65
73
0
40
0
0
LTYPE
5
6A
100
AcDbSymbolTableRecord
100
AcDbLinetypeTableRecord
70
0
2
CENTER
3
____ _ ____ _ ____ _ ____
72
65
73
4
40
47.5
49
22
74
0
49
-8.5
74
0
49
8.5
74
0
49
-8.5
74
0
0
LTYPE
5
6B
100
AcDbSymbolTableRecord
100
AcDbLinetypeTableRecord
70
0
2
DASHED
3
__ __ __ __ __ __ __ __ __
72
65
73
2
40
25.72
49
12.86
74
0
49
-12.86
74
0
0
ENDTAB
0
TABLE
2
LAYER
5
2ac
100
AcDbSymbolTable
0
LAYER
5
10
100
AcDbSymbolTableRecord
100
AcDbLayerTableRecord
2
0
70
0
62
7
6
CONTINUOUS
290
1
370
-3
390
0
0
LAYER
5
6D
100
AcDbSymbolTableRecord
100
AcDbLayerTableRecord
2
2
70
0
62
7
6
CONTINUOUS
290
1
370
-3
390
0
0
LAYER
5
6F
100
AcDbSymbolTableRecord
100
AcDbLayerTableRecord
2
80
70
0
62
-6
6
CONTINUOUS
290
1
370
-3
390
0
0
LAYER
5
71
100
AcDbSymbolTableRecord
100
AcDbLayerTableRecord
2
81
70
0
62
-3
6
CONTINUOUS
290
1
370
-3
390
0
0
LAYER
5
73
100
AcDbSymbolTableRecord
100
AcDbLayerTableRecord
2
1
70
0
62
4
6
CONTINUOUS
290
1
370
-3
390
0
0
LAYER
5
8A
100
AcDbSymbolTableRecord
100
AcDbLayerTableRecord
2
4
70
0
62
-2
6
CENTER
290
1
370
-3
390
0
0
LAYER
5
296
100
AcDbSymbolTableRecord
100
AcDbLayerTableRecord
2
SK4
70
0
62
2
6
CENTER
290
1
370
-3
390
0
0
LAYER
5
297
100
AcDbSymbolTableRecord
100
AcDbLayerTableRecord
2
SK1
70
0
62
4
6
CONTINUOUS
290
1
370
-3
390
0
0
LAYER
5
298
100
AcDbSymbolTableRecord
100
AcDbLayerTableRecord
2
SK6
70
0
62
5
6
CONTINUOUS
290
1
370
-3
390
0
0
LAYER
5
299
100
AcDbSymbolTableRecord
100
AcDbLayerTableRecord
2
SK2
70
0
62
7
6
CONTINUOUS
290
1
370
-3
390
0
0
ENDTAB
0
TABLE
2
STYLE
5
2ad
100
AcDbSymbolTable
0
STYLE
5
11
100
AcDbSymbolTableRecord
100
AcDbTextStyleTableRecord
2
Standard
3
txt
70
0
71
0
40
0
41
1
42
0
50
0
0
STYLE
5
1FA
100
AcDbSymbolTableRecord
100
AcDbTextStyleTableRecord
2
iso_b_vert
3
simplex.shx
70
0
71
0
40
0
41
1
42
0
50
0
0
STYLE
5
1FB
100
AcDbSymbolTableRecord
100
AcDbTextStyleTableRecord
2
DWGDirectTextStyle
3
simplex
70
0
71
0
40
0
41
1
42
0
50
0
0
ENDTAB
0
TABLE
2
DIMSTYLE
5
2ae
100
AcDbSymbolTable
100
AcDbDimStyleTable
0
DIMSTYLE
105
27
100
AcDbSymbolTableRecord
100
AcDbDimStyleTableRecord
2
Standard
70
0
3
<>
41
0.18
42
0.0625
44
0.18
140
0.18
147
0.09
73
0
74
0
77
1
271
2
275
0
278
52
280
0
340
11
0
ENDTAB
0
TABLE
2
VIEW
5
2af
100
AcDbSymbolTable
0
ENDTAB
0
TABLE
2
UCS
5
2b0
100
AcDbSymbolTable
0
ENDTAB
0
TABLE
2
APPID
5
2b1
100
AcDbSymbolTable
0
APPID
5
12
100
AcDbSymbolTableRecord
100
AcDbRegAppTableRecord
2
ACAD
70
0
0
ENDTAB
0
TABLE
2
BLOCK_RECORD
5
2b2
100
AcDbSymbolTable
0
BLOCK_RECORD
5
1F
100
AcDbSymbolTableRecord
100
AcDbBlockTableRecord
2
*Model_Space
340
0
70
0
0
BLOCK_RECORD
5
1B
100
AcDbSymbolTableRecord
100
AcDbBlockTableRecord
2
*Paper_Space
340
0
70
0
0
BLOCK_RECORD
5
23
100
AcDbSymbolTableRecord
100
AcDbBlockTableRecord
2
*Paper_Space0
340
0
70
0
0
BLOCK_RECORD
5
1FD
100
AcDbSymbolTableRecord
100
AcDbBlockTableRecord
2
DimnDraft3D11
340
0
70
0
0
BLOCK_RECORD
5
20B
100
AcDbSymbolTableRecord
100
AcDbBlockTableRecord
2
DimnDraft3D2
340
0
70
0
0
BLOCK_RECORD
5
219
100
AcDbSymbolTableRecord
100
AcDbBlockTableRecord
2
_CLOSED
340
0
70
0
0
BLOCK_RECORD
5
220
100
AcDbSymbolTableRecord
100
AcDbBlockTableRecord
2
DimnDraft3D3
340
0
70
0
0
BLOCK_RECORD
5
22F
100
AcDbSymbolTableRecord
100
AcDbBlockTableRecord
2
DimnDraft3D4
340
0
70
0
0
ENDTAB
0
ENDSEC
0
SECTION
2
BLOCKS
0
BLOCK
5
20
100
AcDbEntity
8
0
100
AcDbBlockBegin
2
*Model_Space
70
0
10
0
20
0
30
0
3
*Model_Space
0
ENDBLK
5
21
100
AcDbEntity
8
0
100
AcDbBlockEnd
0
BLOCK
5
1C
100
AcDbEntity
8
0
100
AcDbBlockBegin
2
*Paper_Space
70
0
10
0
20
0
30
0
3
*Paper_Space
0
ENDBLK
5
1D
100
AcDbEntity
8
0
100
AcDbBlockEnd
0
BLOCK
5
24
100
AcDbEntity
8
0
100
AcDbBlockBegin
2
*Paper_Space0
70
0
10
0
20
0
30
0
3
*Paper_Space0
0
ENDBLK
5
25
100
AcDbEntity
8
0
100
AcDbBlockEnd
0
BLOCK
5
1FE
100
AcDbEntity
8
0
100
AcDbBlockBegin
2
DimnDraft3D11
70
0
10
0
20
0
30
0
3
DimnDraft3D11
0
LINE
5
200
100
AcDbEntity
8
2
62
256
6
ByLayer
370
25
48
1
60
0
100
AcDbLine
10
65
20
37
30
0
11
65
21
65.75
31
0
39
0
210
0
220
0
230
1
0
LINE
5
201
100
AcDbEntity
8
2
62
256
6
ByLayer
370
25
48
1
60
0
100
AcDbLine
10
0
20
33.5
30
0
11
0
21
65.75
31
0
39
0
210
0
220
0
230
1
0
LINE
5
202
100
AcDbEntity
8
2
62
256
6
ByLayer
370
25
48
1
60
0
100
AcDbLine
10
65
20
63.75
30
0
11
0
21
63.75
31
0
39
0
210
0
220
0
230
1
0
LINE
5
203
100
AcDbEntity
8
2
62
256
6
ByLayer
370
25
48
1
60
0
100
AcDbLine
10
65
20
63.75
30
0
11
61.825002
21
63.332003
31
0
39
0
210
0
220
0
230
1
0
LINE
5
204
100
AcDbEntity
8
2
62
256
6
ByLayer
370
25
48
1
60
0
100
AcDbLine
10
65
20
63.75
30
0
11
61.824998
21
64.167997
31
0
39
0
210
0
220
0
230
1
0
LINE
5
205
100
AcDbEntity
8
2
62
256
6
ByLayer
370
25
48
1
60
0
100
AcDbLine
10
61.825002
20
63.332003
30
0
11
61.824998
21
64.167997
31
0
39
0
210
0
220
0
230
1
0
LINE
5
206
100
AcDbEntity
8
2
62
256
6
ByLayer
370
25
48
1
60
0
100
AcDbLine
10
0
20
63.75
30
0
11
3.174998
21
64.167997
31
0
39
0
210
0
220
0
230
1
0
LINE
5
207
100
AcDbEntity
8
2
62
256
6
ByLayer
370
25
48
1
60
0
100
AcDbLine
10
0
20
63.75
30
0
11
3.175002
21
63.332003
31
0
39
0
210
0
220
0
230
1
0
LINE
5
208
100
AcDbEntity
8
2
62
256
6
ByLayer
370
25
48
1
60
0
100
AcDbLine
10
3.174998
20
64.167997
30
0
11
3.175002
21
63.332003
31
0
39
0
210
0
220
0
230
1
0
MTEXT
5
209
100
AcDbEntity
8
2
62
256
6
ByLayer
370
18
48
1
60
0
100
AcDbMText
10
28.343421
20
64.875
30
0
210
0
220
0
230
1
1
\W0.7346;65.0
40
4.5
41
0
44
1.084337
50
0
71
7
72
5
7
iso_b_vert
0
ENDBLK
5
1FF
100
AcDbEntity
8
0
100
AcDbBlockEnd
0
BLOCK
5
216
100
AcDbEntity
8
0
100
AcDbBlockBegin
2
DimnDraft3D2
70
0
10
0
20
0
30
0
3
DimnDraft3D2
0
MTEXT
5
20C
100
AcDbEntity
8
2
62
256
6
ByLayer
370
18
48
1
60
0
100
AcDbMText
10
54.407685
20
44.009062
30
0
210
0
220
0
230
1
1
\W0.7399;75%%d
40
4.5
41
0
44
1.084337
50
37.5000000000001
71
7
72
5
7
iso_b_vert
0
LINE
5
20D
100
AcDbEntity
8
2
62
256
6
ByLayer
370
13
48
1
60
0
100
AcDbLine
10
65
20
37
30
0
11
65
21
49.470563
31
0
39
0
210
0
220
0
230
1
0
LINE
5
20E
100
AcDbEntity
8
2
62
256
6
ByLayer
370
13
48
1
60
0
100
AcDbLine
10
55.502791
20
37.544769
30
0
11
51.02251
21
38.745257
31
0
39
0
210
0
220
0
230
1
0
ARC
5
20F
100
AcDbEntity
8
2
62
256
6
ByLayer
370
13
48
1
60
0
100
AcDbCircle
39
0
10
65
20
35
30
0
40
12.4705627484771
210
0
220
0
230
1
100
AcDbArc
50
90
51
165
0
LINE
5
210
100
AcDbEntity
8
2
62
256
6
ByLayer
370
13
48
1
60
0
100
AcDbLine
10
65
20
47.470563
30
0
11
61.857808
21
46.852531
31
0
39
0
210
0
220
0
230
1
0
LINE
5
211
100
AcDbEntity
8
2
62
256
6
ByLayer
370
13
48
1
60
0
100
AcDbLine
10
65
20
47.470563
30
0
11
61.804914
21
47.686849
31
0
39
0
210
0
220
0
230
1
0
LINE
5
212
100
AcDbEntity
8
2
62
256
6
ByLayer
370
13
48
1
60
0
100
AcDbLine
10
61.857808
20
46.852531
30
0
11
61.804914
21
47.686849
31
0
39
0
210
0
220
0
230
1
0
LINE
5
213
100
AcDbEntity
8
2
62
256
6
ByLayer
370
13
48
1
60
0
100
AcDbLine
10
52.954361
20
38.227619
30
0
11
53.572393
21
41.369812
31
0
39
0
210
0
220
0
230
1
0
LINE
5
214
100
AcDbEntity
8
2
62
256
6
ByLayer
370
13
48
1
60
0
100
AcDbLine
10
52.954361
20
38.227619
30
0
11
54.364595
21
41.102788
31
0
39
0
210
0
220
0
230
1
0
LINE
5
215
100
AcDbEntity
8
2
62
256
6
ByLayer
370
13
48
1
60
0
100
AcDbLine
10
53.572393
20
41.369812
30
0
11
54.364595
21
41.102788
31
0
39
0
210
0
220
0
230
1
0
ENDBLK
5
217
100
AcDbEntity
8
0
100
AcDbBlockEnd
0
BLOCK
5
21A
100
AcDbEntity
8
0
100
AcDbBlockBegin
2
_CLOSED
70
0
10
0
20
0
30
0
3
_CLOSED
0
LINE
5
21C
100
AcDbEntity
8
0
62
256
6
ByLayer
370
-2
48
1
60
0
100
AcDbLine
10
-1
20
0.166667
30
0
11
0
21
0
31
0
39
0
210
0
220
0
230
1
0
LINE
5
21D
100
AcDbEntity
8
0
62
256
6
ByLayer
370
-2
48
1
60
0
100
AcDbLine
10
0
20
0
30
0
11
-1
21
-0.166667
31
0
39
0
210
0
220
0
230
1
0
LINE
5
21E
100
AcDbEntity
8
0
62
256
6
ByLayer
370
-2
48
1
60
0
100
AcDbLine
10
-1
20
0.166667
30
0
11
-1
21
-0.166667
31
0
39
0
210
0
220
0
230
1
0
LINE
5
21F
100
AcDbEntity
8
0
62
256
6
ByLayer
370
-2
48
1
60
0
100
AcDbLine
10
0
20
0
30
0
11
-1
21
0
31
0
39
0
210
0
220
0
230
1
0
ENDBLK
5
21B
100
AcDbEntity
8
0
100
AcDbBlockEnd
0
BLOCK
5
22C
100
AcDbEntity
8
0
100
AcDbBlockBegin
2
DimnDraft3D3
70
0
10
0
20
0
30
0
3
DimnDraft3D3
0
MTEXT
5
221
100
AcDbEntity
8
SK2
62
256
6
ByLayer
370
18
48
1
60
0
100
AcDbMText
10
-46.875
20
-1.563158
30
0
210
0
220
0
230
1
1
\W0.6740;63
40
4.5
41
0
44
1.084337
50
90
71
7
72
5
7
iso_b_vert
0
LINE
5
223
100
AcDbEntity
8
SK2
62
256
6
ByLayer
370
13
48
1
60
0
100
AcDbLine
10
-2
20
-31.5
30
0
11
-47.75
21
-31.5
31
0
39
0
210
0
220
0
230
1
0
LINE
5
224
100
AcDbEntity
8
SK2
62
256
6
ByLayer
370
13
48
1
60
0
100
AcDbLine
10
-2
20
31.5
30
0
11
-47.75
21
31.5
31
0
39
0
210
0
220
0
230
1
0
LINE
5
225
100
AcDbEntity
8
SK2
62
256
6
ByLayer
370
13
48
1
60
0
100
AcDbLine
10
-45.75
20
-31.5
30
0
11
-45.75
21
31.5
31
0
39
0
210
0
220
0
230
1
0
LINE
5
226
100
AcDbEntity
8
SK2
62
256
6
ByLayer
370
13
48
1
60
0
100
AcDbLine
10
-45.75
20
-31.5
30
0
11
-46.167997
21
-28.325002
31
0
39
0
210
0
220
0
230
1
0
LINE
5
227
100
AcDbEntity
8
SK2
62
256
6
ByLayer
370
13
48
1
60
0
100
AcDbLine
10
-45.75
20
-31.5
30
0
11
-45.332003
21
-28.324998
31
0
39
0
210
0
220
0
230
1
0
LINE
5
228
100
AcDbEntity
8
SK2
62
256
6
ByLayer
370
13
48
1
60
0
100
AcDbLine
10
-46.167997
20
-28.325002
30
0
11
-45.332003
21
-28.324998
31
0
39
0
210
0
220
0
230
1
0
LINE
5
229
100
AcDbEntity
8
SK2
62
256
6
ByLayer
370
13
48
1
60
0
100
AcDbLine
10
-45.75
20
31.5
30
0
11
-45.332003
21
28.325002
31
0
39
0
210
0
220
0
230
1
0
LINE
5
22A
100
AcDbEntity
8
SK2
62
256
6
ByLayer
370
13
48
1
60
0
100
AcDbLine
10
-45.75
20
31.5
30
0
11
-46.167997
21
28.324998
31
0
39
0
210
0
220
0
230
1
0
LINE
5
22B
100
AcDbEntity
8
SK2
62
256
6
ByLayer
370
13
48
1
60
0
100
AcDbLine
10
-45.332003
20
28.325002
30
0
11
-46.167997
21
28.324998
31
0
39
0
210
0
220
0
230
1
0
ENDBLK
5
22D
100
AcDbEntity
8
0
100
AcDbBlockEnd
0
BLOCK
5
23A
100
AcDbEntity
8
0
100
AcDbBlockBegin
2
DimnDraft3D4
70
0
10
0
20
0
30
0
3
DimnDraft3D4
0
MTEXT
5
230
100
AcDbEntity
8
2
62
256
6
ByLayer
370
18
48
1
60
0
100
AcDbMText
10
86.125
20
13.343421
30
0
210
0
220
0
230
1
1
\W0.7346;35.0
40
4.5
41
0
44
1.084337
50
90
71
7
72
5
7
iso_b_vert
0
LINE
5
231
100
AcDbEntity
8
2
62
256
6
ByLayer
370
13
48
1
60
0
100
AcDbLine
10
67
20
0
30
0
11
89.25
21
0
31
0
39
0
210
0
220
0
230
1
0
LINE
5
232
100
AcDbEntity
8
2
62
256
6
ByLayer
370
13
48
1
60
0
100
AcDbLine
10
67
20
35
30
0
11
89.25
21
35
31
0
39
0
210
0
220
0
230
1
0
LINE
5
233
100
AcDbEntity
8
2
62
256
6
ByLayer
370
13
48
1
60
0
100
AcDbLine
10
87.25
20
0
30
0
11
87.25
21
35
31
0
39
0
210
0
220
0
230
1
0
LINE
5
234
100
AcDbEntity
8
2
62
256
6
ByLayer
370
13
48
1
60
0
100
AcDbLine
10
87.25
20
0
30
0
11
86.832003
21
3.174998
31
0
39
0
210
0
220
0
230
1
0
LINE
5
235
100
AcDbEntity
8
2
62
256
6
ByLayer
370
13
48
1
60
0
100
AcDbLine
10
87.25
20
0
30
0
11
87.667997
21
3.175002
31
0
39
0
210
0
220
0
230
1
0
LINE
5
236
100
AcDbEntity
8
2
62
256
6
ByLayer
370
13
48
1
60
0
100
AcDbLine
10
86.832003
20
3.174998
30
0
11
87.667997
21
3.175002
31
0
39
0
210
0
220
0
230
1
0
LINE
5
237
100
AcDbEntity
8
2
62
256
6
ByLayer
370
13
48
1
60
0
100
AcDbLine
10
87.25
20
35
30
0
11
87.667997
21
31.825002
31
0
39
0
210
0
220
0
230
1
0
LINE
5
238
100
AcDbEntity
8
2
62
256
6
ByLayer
370
13
48
1
60
0
100
AcDbLine
10
87.25
20
35
30
0
11
86.832003
21
31.824998
31
0
39
0
210
0
220
0
230
1
0
LINE
5
239
100
AcDbEntity
8
2
62
256
6
ByLayer
370
13
48
1
60
0
100
AcDbLine
10
87.667997
20
31.825002
30
0
11
86.832003
21
31.824998
31
0
39
0
210
0
220
0
230
1
0
ENDBLK
5
23B
100
AcDbEntity
8
0
100
AcDbBlockEnd
0
ENDSEC
0
SECTION
2
ENTITIES
0
ARC
5
117
100
AcDbEntity
8
SK1
62
256
6
ByLayer
370
18
48
1
60
0
100
AcDbCircle
39
0
10
0.6
20
-23.45
30
0
40
0.999999999999999
210
0
220
0
230
-1
100
AcDbArc
50
113.578178
51
126.869898
0
ARC
5
118
100
AcDbEntity
8
SK1
62
256
6
ByLayer
370
18
48
1
60
0
100
AcDbCircle
39
0
10
0.6
20
23.45
30
0
40
0.999999999999999
210
0
220
0
230
-1
100
AcDbArc
50
233.130102
51
246.421822
0
ELLIPSE
5
119
100
AcDbEntity
8
1
62
256
6
ByLayer
370
18
48
1
60
0
100
AcDbEllipse
10
45.342194
20
23.558997
30
0
11
-0.189999999999999
21
0.329089653438087
31
0
210
0
220
0
230
1
40
0.989133
41
-2.6859744764431
42
-2.32952373867378
0
ELLIPSE
5
11A
100
AcDbEntity
8
1
62
256
6
ByLayer
370
18
48
1
60
0
100
AcDbEllipse
10
44.411118
20
25.523047
30
0
11
-0.189999999999999
21
0.329089653438087
31
0
210
0
220
0
230
1
40
0.989133
41
-0.975675423072374
42
-0.455641873720609
0
ELLIPSE
5
11B
100
AcDbEntity
8
1
62
256
6
ByLayer
370
18
48
1
60
0
100
AcDbEllipse
10
46.119546
20
23.368284
30
0
11
0.212500000000004
21
-0.368060796608384
31
0
210
0
220
0
230
1
40
0.989133
41
3.14157757193107
42
-2.32952373867382
0
ELLIPSE
5
11C
100
AcDbEntity
8
1
62
256
6
ByLayer
370
18
48
1
60
0
100
AcDbEllipse
10
44.756496
20
26.243556
30
0
11
0.212500000000004
21
-0.368060796608384
31
0
210
0
220
0
230
1
40
0.989133
41
-0.975675423072374
42
-1.32040315149629E-05
0
ELLIPSE
5
11D
100
AcDbEntity
8
1
62
256
6
ByLayer
370
18
48
1
60
0
100
AcDbEllipse
10
46.464924
20
24.088793
30
0
11
-0.189999999999999
21
0.329089653438087
31
0
210
0
220
0
230
1
40
0.989133
41
-2.68597680944781
42
-1.2823261874772
0
ELLIPSE
5
11E
100
AcDbEntity
8
1
62
256
6
ByLayer
370
18
48
1
60
0
100
AcDbEllipse
10
45.533848
20
26.052842
30
0
11
-0.189999999999999
21
0.329089653438087
31
0
210
0
220
0
230
1
40
0.989133
41
-2.022872974269
42
-0.455680381069805
0
ELLIPSE
5
11F
100
AcDbEntity
8
1
62
256
6
ByLayer
370
18
48
1
60
0
100
AcDbEllipse
10
45.304328
20
24.728732
30
0
11
2.00000000000003
21
-3.46410161513773
31
0
210
0
220
0
230
1
40
0.989133
41
3.14158545546061
42
-0.528342791207614
0
ELLIPSE
5
120
100
AcDbEntity
8
1
62
256
6
ByLayer
370
18
48
1
60
0
100
AcDbEllipse
10
45.304328
20
24.728732
30
0
11
2.00000000000003
21
-3.46410161513773
31
0
210
0
220
0
230
1
40
0.989133
41
-0.528343043247709
42
0
0
ELLIPSE
5
121
100
AcDbEntity
8
1
62
256
6
ByLayer
370
18
48
1
60
0
100
AcDbEllipse
10
45.438021
20
24.80592
30
0
11
0.57500000000001
21
-0.995929214352099
31
0
210
0
220
0
230
1
40
0.989133
41
-0.689095944883921
42
-0.52834273641627
0
ELLIPSE
5
122
100
AcDbEntity
8
1
62
256
6
ByLayer
370
18
48
1
60
0
100
AcDbEllipse
10
45.438021
20
24.80592
30
0
11
0.57500000000001
21
-0.995929214352099
31
0
210
0
220
0
230
1
40
0.989133
41
-1.97862161818787
42
-1.3859407817244
0
ELLIPSE
5
123
100
AcDbEntity
8
1
62
256
6
ByLayer
370
18
48
1
60
0
100
AcDbEllipse
10
45.438021
20
24.80592
30
0
11
0.57500000000001
21
-0.995929214352099
31
0
210
0
220
0
230
1
40
0.989133
41
-0.528342736416279
42
0
0
ELLIPSE
5
124
100
AcDbEntity
8
1
62
256
6
ByLayer
370
18
48
1
60
0
100
AcDbEllipse
10
45.438021
20
24.80592
30
0
11
0.57500000000001
21
-0.995929214352099
31
0
210
0
220
0
230
1
40
0.989133
41
0
42
-2.63256344884106
0
ELLIPSE
5
125
100
AcDbEntity
8
1
62
256
6
ByLayer
370
18
48
1
60
0
100
AcDbEllipse
10
45.329793
20
24.743434
30
0
11
0.57500000000001
21
-0.995929214352099
31
0
210
0
220
0
230
1
40
0.989133
41
0.0548726861812098
42
3.08670615368098
0
ELLIPSE
5
126
100
AcDbEntity
8
1
62
256
6
ByLayer
370
18
48
1
60
0
100
AcDbEllipse
10
24.067051
20
-6.170415
30
0
11
1.43373821444471
21
-1.66865057230113
31
0
210
0
220
0
230
1
40
0.168192
41
6.38628516601035E-05
42
3.14157457173995
0
ELLIPSE
5
127
100
AcDbEntity
8
1
62
256
6
ByLayer
370
18
48
1
60
0
100
AcDbEllipse
10
9.337903
20
-18.825996
30
0
11
-1.43373821444471
21
1.66865057230113
31
0
210
0
220
0
230
1
40
0.168192
41
-2.47293304470267
42
-2.2190750327765
0
ELLIPSE
5
128
100
AcDbEntity
8
1
62
256
6
ByLayer
370
18
48
1
60
0
100
AcDbEllipse
10
24.253969
20
-6.009811
30
0
11
-1.27081341734871
21
1.47903118908509
31
0
210
0
220
0
230
1
40
0.168192
41
-2.97009186978884
42
-0.171507427769361
0
ELLIPSE
5
129
100
AcDbEntity
8
1
62
256
6
ByLayer
370
18
48
1
60
0
100
AcDbEllipse
10
36.63475
20
25.285189
30
0
11
-1.35663164731614
21
2.67584502444732
31
0
210
0
220
0
230
1
40
0.87742
41
-0.0148623238585015
42
1.54054515741177
0
ELLIPSE
5
12A
100
AcDbEntity
8
1
62
256
6
ByLayer
370
18
48
1
60
0
100
AcDbEllipse
10
46.050675
20
25.150392
30
0
11
2.04371046864875
21
-3.61188974365712
31
0
210
0
220
0
230
1
40
0.986425
41
0.088125886400878
42
3.06836828848034
0
ELLIPSE
5
12B
100
AcDbEntity
8
1
62
256
6
ByLayer
370
18
48
1
60
0
100
AcDbEllipse
10
57.936149
20
30.720312
30
0
11
1.6770725942164
21
-2.90477494116408
31
0
210
0
220
0
230
1
40
0.989133
41
1.63410307828792
42
2.68454361033284
0
ELLIPSE
5
12C
100
AcDbEntity
8
1
62
256
6
ByLayer
370
18
48
1
60
0
100
AcDbEllipse
10
57.936149
20
30.720312
30
0
11
1.6770725942164
21
-2.90477494116408
31
0
210
0
220
0
230
1
40
0.989133
41
0.293442535100598
42
1.32565101136744
0
ELLIPSE
5
12D
100
AcDbEntity
8
1
62
256
6
ByLayer
370
18
48
1
60
0
100
AcDbEllipse
10
57.503237
20
30.470371
30
0
11
-2.74999999999999
21
4.76313972081442
31
0
210
0
220
0
230
1
40
0.989133
41
0.354529058920407
42
0.527284011149168
0
ELLIPSE
5
12E
100
AcDbEntity
8
1
62
256
6
ByLayer
370
18
48
1
60
0
100
AcDbEllipse
10
57.84702
20
30.668854
30
0
11
2.38826859021803
21
-4.13660254037842
31
0
210
0
220
0
230
1
40
0.989133
41
-0.628578721298249
42
-0.611663450142642
0
ELLIPSE
5
12F
100
AcDbEntity
8
1
62
256
6
ByLayer
370
18
48
1
60
0
100
AcDbEllipse
10
57.84702
20
30.668854
30
0
11
2.38826859021803
21
-4.13660254037842
31
0
210
0
220
0
230
1
40
0.989133
41
-2.6935357116035
42
-2.67756377635158
0
ELLIPSE
5
130
100
AcDbEntity
8
1
62
256
6
ByLayer
370
18
48
1
60
0
100
AcDbEllipse
10
57.503237
20
30.470371
30
0
11
-2.74999999999999
21
4.76313972081442
31
0
210
0
220
0
230
1
40
0.989133
41
2.43806077589082
42
2.62345708651303
0
ELLIPSE
5
131
100
AcDbEntity
8
1
62
256
6
ByLayer
370
18
48
1
60
0
100
AcDbEllipse
10
12
20
-19.981782
30
0
11
-1.99999999999999
21
2.44921270764474E-16
31
0
210
0
220
0
230
1
40
0.681998
41
0.241608078834302
42
1.57079618914633
0
ELLIPSE
5
132
100
AcDbEntity
8
1
62
256
6
ByLayer
370
18
48
1
60
0
100
AcDbEllipse
10
12
20
-19.981782
30
0
11
-1.99999999999999
21
2.44921270764474E-16
31
0
210
0
220
0
230
1
40
0.681998
41
1.57079618914633
42
2.89998418375822
0
ELLIPSE
5
133
100
AcDbEntity
8
1
62
256
6
ByLayer
370
18
48
1
60
0
100
AcDbEllipse
10
12
20
-19.981782
30
0
11
-1.64999999999999
21
2.02060048380691E-16
31
0
210
0
220
0
230
1
40
0.681998
41
-0.539372507029148
42
0
0
ELLIPSE
5
134
100
AcDbEntity
8
1
62
256
6
ByLayer
370
18
48
1
60
0
100
AcDbEllipse
10
12
20
-19.981782
30
0
11
-1.64999999999999
21
2.02060048380691E-16
31
0
210
0
220
0
230
1
40
0.681998
41
0
42
1.57079606964742
0
ELLIPSE
5
135
100
AcDbEntity
8
1
62
256
6
ByLayer
370
18
48
1
60
0
100
AcDbEllipse
10
12
20
-19.981782
30
0
11
-1.64999999999999
21
2.02060048380691E-16
31
0
210
0
220
0
230
1
40
0.681998
41
1.57079649217664
42
-2.60222026442106
0
ELLIPSE
5
136
100
AcDbEntity
8
1
62
256
6
ByLayer
370
18
48
1
60
0
100
AcDbEllipse
10
45.87556
20
0
30
0
11
-22.8347506037043
21
-31.6297730624681
31
0
210
0
220
0
230
1
40
0.049545
41
0.0357526167189297
42
0.226481027484343
0
ELLIPSE
5
137
100
AcDbEntity
8
1
62
256
6
ByLayer
370
18
48
1
60
0
100
AcDbEllipse
10
57.74238
20
26.593325
30
0
11
-0.719666776311034
21
-0.807544898899961
31
0
210
0
220
0
230
1
40
0.206174
41
0.81312805537539
42
1.33672683096805
0
ELLIPSE
5
138
100
AcDbEntity
8
1
62
256
6
ByLayer
370
18
48
1
60
0
100
AcDbEllipse
10
35.003846
20
24.424457
30
0
11
-1.89513126525164
21
2.32476739990189
31
0
210
0
220
0
230
1
40
0.99644
41
0.103007880721486
42
0.109119545299649
0
ELLIPSE
5
139
100
AcDbEntity
8
1
62
256
6
ByLayer
370
18
48
1
60
0
100
AcDbEllipse
10
37.73346
20
13.238301
30
0
11
6.32524650364759
21
2.99854242392767
31
0
210
0
220
0
230
1
40
0.012014
41
-1.21755960211358
42
-0.810298218555914
0
ELLIPSE
5
13A
100
AcDbEntity
8
1
62
256
6
ByLayer
370
18
48
1
60
0
100
AcDbEllipse
10
42.924198
20
20.769783
30
0
11
-4.51803321689113
21
-2.14181601709119
31
0
210
0
220
0
230
1
40
0.012014
41
-1.34976663131173
42
-0.908735525955355
0
ELLIPSE
5
13B
100
AcDbEntity
8
1
62
256
6
ByLayer
370
18
48
1
60
0
100
AcDbEllipse
10
38.585463
20
16.870427
30
0
11
-1.89073298960682
21
2.33017439601579
31
0
210
0
220
0
230
1
40
0.996236
41
2.55046129461725
42
2.55657144938484
0
ELLIPSE
5
13C
100
AcDbEntity
8
1
62
256
6
ByLayer
370
18
48
1
60
0
100
AcDbEllipse
10
59.816465
20
28.901098
30
0
11
-1.11228580239025
21
-6.62258621693971
31
0
210
0
220
0
230
1
40
0.544992
41
-0.828293079810941
42
-0.748554811745609
0
ELLIPSE
5
13D
100
AcDbEntity
8
1
62
256
6
ByLayer
370
18
48
1
60
0
100
AcDbEllipse
10
45.090018
20
29.393159
30
0
11
-9.76337189292316
21
-1.65897349340769
31
0
210
0
220
0
230
1
40
0.120053
41
-0.405636164514839
42
0.31356473543078
0
ELLIPSE
5
13E
100
AcDbEntity
8
1
62
256
6
ByLayer
370
18
48
1
60
0
100
AcDbEllipse
10
42.560116
20
21.537793
30
0
11
-2.37461151941632
21
-6.63668369273674
31
0
210
0
220
0
230
1
40
0.067687
41
0.993008307467267
42
1.45707183578013
0
ELLIPSE
5
13F
100
AcDbEntity
8
1
62
256
6
ByLayer
370
18
48
1
60
0
100
AcDbEllipse
10
40.69687
20
25.468198
30
0
11
-4.51803321689113
21
-2.14181601709119
31
0
210
0
220
0
230
1
40
0.012014
41
-1.34976663131175
42
-0.908735525955444
0
ELLIPSE
5
140
100
AcDbEntity
8
1
62
256
6
ByLayer
370
18
48
1
60
0
100
AcDbEllipse
10
54.612526
20
33.195565
30
0
11
-1.07977848158877
21
-0.0496926783516709
31
0
210
0
220
0
230
1
40
0.185902
41
-1.34600584412177
42
-0.822407068540023
0
ELLIPSE
5
141
100
AcDbEntity
8
1
62
256
6
ByLayer
370
18
48
1
60
0
100
AcDbEllipse
10
40.215608
20
17.731582
30
0
11
-1.35663164731555
21
2.6758450244476
31
0
210
0
220
0
230
1
40
0.87742
41
1.54054515741201
42
3.11134148420688
0
ELLIPSE
5
142
100
AcDbEntity
8
1
62
256
6
ByLayer
370
18
48
1
60
0
100
AcDbEllipse
10
48.670876
20
21.839552
30
0
11
-7.39860552939799
21
-6.64411661334116
31
0
210
0
220
0
230
1
40
0.127121
41
-0.317570148362217
42
0.401630751583182
0
ELLIPSE
5
143
100
AcDbEntity
8
1
62
256
6
ByLayer
370
18
48
1
60
0
100
AcDbEllipse
10
57.710024
20
33.34451
30
0
11
-5.80930978116312
21
2.71513487636911
31
0
210
0
220
0
230
1
40
0.538155
41
0.662292203487204
42
0.742030471893445
0
ELLIPSE
5
144
100
AcDbEntity
8
1
62
256
6
ByLayer
370
18
48
1
60
0
100
AcDbEllipse
10
41.060953
20
24.700188
30
0
11
-6.64255980821134
21
2.37671399892279
31
0
210
0
220
0
230
1
40
0.079636
41
-1.44492676738944
42
-0.980863239052052
0
ELLIPSE
5
145
100
AcDbEntity
8
1
62
256
6
ByLayer
370
18
48
1
60
0
100
AcDbEllipse
10
59.876227
20
32.89586
30
0
11
-0.816092223043126
21
1.83288704897842
31
0
210
0
220
0
230
1
40
0.723309
41
-0.782434902820209
42
0.238522657626229
0
ELLIPSE
5
146
100
AcDbEntity
8
1
62
256
6
ByLayer
370
18
48
1
60
0
100
AcDbEllipse
10
58.472912
20
30.973601
30
0
11
1.63125060174749
21
-2.82540892210388
31
0
210
0
220
0
230
1
40
0.989133
41
0.878127834518702
42
2.09985831091473
0
ELLIPSE
5
147
100
AcDbEntity
8
1
62
256
6
ByLayer
370
18
48
1
60
0
100
AcDbEllipse
10
58.472912
20
30.973601
30
0
11
-1.79448637286708
21
3.1081415712958
31
0
210
0
220
0
230
1
40
0.989133
41
-2.78706359466939
42
-2.69329909511143
0
ELLIPSE
5
148
100
AcDbEntity
8
1
62
256
6
ByLayer
370
18
48
1
60
0
100
AcDbEllipse
10
58.040001
20
30.723659
30
0
11
-2.24999999999999
21
3.89711431702998
31
0
210
0
220
0
230
1
40
0.989133
41
-2.78706359466939
42
-2.26346481907109
0
ELLIPSE
5
149
100
AcDbEntity
8
1
62
256
6
ByLayer
370
18
48
1
60
0
100
AcDbEllipse
10
60.8138
20
30.918105
30
0
11
-1.09537195742026
21
1.83370641084508
31
0
210
0
220
0
230
1
40
0.675933
41
2.79474082939521
42
-2.46748691733786
0
ELLIPSE
5
14A
100
AcDbEntity
8
1
62
256
6
ByLayer
370
18
48
1
60
0
100
AcDbEllipse
10
53.754141
20
32.323947
30
0
11
-8.62477980107793
21
2.20549966473291
31
0
210
0
220
0
230
1
40
0.72878
41
2.19022529345585
42
2.25379595387231
0
ELLIPSE
5
14B
100
AcDbEntity
8
1
62
256
6
ByLayer
370
18
48
1
60
0
100
AcDbEllipse
10
56.651584
20
26.211962
30
0
11
-3.28922518309052
21
-8.47598215924502
31
0
210
0
220
0
230
1
40
0.72417
41
-2.31045034909053
42
-2.24687968985787
0
ELLIPSE
5
14C
100
AcDbEntity
8
1
62
256
6
ByLayer
370
18
48
1
60
0
100
AcDbEllipse
10
58.040001
20
30.723659
30
0
11
-2.24999999999999
21
3.89711431702998
31
0
210
0
220
0
230
1
40
0.989133
41
-1.04173434267506
42
-0.518135567076759
0
ELLIPSE
5
14D
100
AcDbEntity
8
1
62
256
6
ByLayer
370
18
48
1
60
0
100
AcDbEllipse
10
58.040001
20
30.723659
30
0
11
-2.24999999999999
21
3.89711431702998
31
0
210
0
220
0
230
1
40
0.989133
41
-2.26346481907109
42
-1.04173434267506
0
ELLIPSE
5
14E
100
AcDbEntity
8
1
62
256
6
ByLayer
370
18
48
1
60
0
100
AcDbEllipse
10
58.472912
20
30.973601
30
0
11
-1.79448637286708
21
3.1081415712958
31
0
210
0
220
0
230
1
40
0.989133
41
-0.611900066634716
42
-0.518135567076756
0
ELLIPSE
5
14F
100
AcDbEntity
8
1
62
256
6
ByLayer
370
18
48
1
60
0
100
AcDbEllipse
10
32.068751
20
28.421293
30
0
11
-5.06509286145194
21
-2.37862092373517
31
0
210
0
220
0
230
1
40
0.714768
41
-3.13899178028946
42
-2.44930697432636
0
ELLIPSE
5
150
100
AcDbEntity
8
1
62
256
6
ByLayer
370
18
48
1
60
0
100
AcDbEllipse
10
20.755893
20
0
30
0
11
1.92875500727024E-15
21
31.5
31
0
210
0
220
0
230
1
40
0.087489
41
0.311401384074101
42
2.83019126951569
0
ELLIPSE
5
151
100
AcDbEntity
8
1
62
256
6
ByLayer
370
18
48
1
60
0
100
AcDbEllipse
10
19.654559
20
-13.643037
30
0
11
-0.0122624248533235
21
3.24481061575354
31
0
210
0
220
0
230
1
40
0.056766
41
2.90612198337665
42
-1.8062669970081
0
ELLIPSE
5
152
100
AcDbEntity
8
1
62
256
6
ByLayer
370
18
48
1
60
0
100
AcDbEllipse
10
24.576751
20
80.736221
30
0
11
-9.91376549493377E-15
21
-53.9698081427817
31
0
210
0
220
0
230
1
40
0.074116
41
-0.170947769434914
42
-0.127673564405643
0
ELLIPSE
5
153
100
AcDbEntity
8
1
62
256
6
ByLayer
370
18
48
1
60
0
100
AcDbEllipse
10
-2.347154
20
0
30
0
11
-14.7536831606548
21
31.0932549155792
31
0
210
0
220
0
230
1
40
0.341999
41
-2.98378646694435
42
-2.05035306783692
0
ELLIPSE
5
154
100
AcDbEntity
8
1
62
256
6
ByLayer
370
18
48
1
60
0
100
AcDbEllipse
10
12
20
-20.403367
30
0
11
-1.99999999999995
21
2.02127811016468E-15
31
0
210
0
220
0
230
1
40
0.707538
41
-2.3900880320975
42
-0.751504621492278
0
ELLIPSE
5
155
100
AcDbEntity
8
1
62
256
6
ByLayer
370
18
48
1
60
0
100
AcDbEllipse
10
39.778732
20
12.157547
30
0
11
-5.06509286145613
21
-2.37862092371774
31
0
210
0
220
0
230
1
40
0.714768
41
2.45450872092897
42
-3.13899178028727
0
ELLIPSE
5
156
100
AcDbEntity
8
1
62
256
6
ByLayer
370
18
48
1
60
0
100
AcDbEllipse
10
-2.347154
20
0
30
0
11
-14.7536831606537
21
-31.0932549155779
31
0
210
0
220
0
230
1
40
0.341999
41
2.05035306783689
42
2.98378646694435
0
ELLIPSE
5
157
100
AcDbEntity
8
1
62
256
6
ByLayer
370
18
48
1
60
0
100
AcDbEllipse
10
26.347154
20
0
30
0
11
-14.7536831606553
21
-31.0932549155799
31
0
210
0
220
0
230
1
40
0.341999
41
-1.09123958575286
42
-0.157806186645435
0
ELLIPSE
5
158
100
AcDbEntity
8
1
62
256
6
ByLayer
370
18
48
1
60
0
100
AcDbEllipse
10
12
20
-18.185217
30
0
11
-1.87686272356242
21
2.86780973811654
31
0
210
0
220
0
230
1
40
0.240927
41
-3.11536358140556
42
-2.46235164835362
0
ELLIPSE
5
159
100
AcDbEntity
8
1
62
256
6
ByLayer
370
18
48
1
60
0
100
AcDbEllipse
10
12
20
-20.403367
30
0
11
-2.00000000000004
21
2.02127811016477E-15
31
0
210
0
220
0
230
1
40
0.707538
41
0.751504621492329
42
2.39008803209746
0
ELLIPSE
5
15A
100
AcDbEntity
8
1
62
256
6
ByLayer
370
18
48
1
60
0
100
AcDbEllipse
10
53.14359
20
33.116489
30
0
11
-0.0882571530062531
21
2.73364581712734
31
0
210
0
220
0
230
1
40
0.523705
41
0.721340643661428
42
1.06367112866517
0
ELLIPSE
5
15B
100
AcDbEntity
8
1
62
256
6
ByLayer
370
18
48
1
60
0
100
AcDbEllipse
10
12
20
-18.185217
30
0
11
-1.87686272356697
21
-2.86780973812225
31
0
210
0
220
0
230
1
40
0.240927
41
-0.679241005235342
42
-0.0262290721842159
0
ELLIPSE
5
15C
100
AcDbEntity
8
1
62
256
6
ByLayer
370
18
48
1
60
0
100
AcDbEllipse
10
26.347154
20
0
30
0
11
-14.7536831606555
21
31.0932549155802
31
0
210
0
220
0
230
1
40
0.341999
41
0.157806186645435
42
1.09123958575285
0
ELLIPSE
5
15D
100
AcDbEntity
8
1
62
256
6
ByLayer
370
18
48
1
60
0
100
AcDbEllipse
10
19.395832
20
-12.567673
30
0
11
-0.0122624248533698
21
3.24481061575245
31
0
210
0
220
0
230
1
40
0.056766
41
1.33532565658139
42
2.90612198337666
0
ELLIPSE
5
15E
100
AcDbEntity
8
1
62
256
6
ByLayer
370
18
48
1
60
0
100
AcDbEllipse
10
46.847237
20
25.501118
30
0
11
-0.189999999999999
21
0.329089653438087
31
0
210
0
220
0
230
1
40
0.989133
41
-3.07007052546556
42
-0.235128636280571
0
ELLIPSE
5
15F
100
AcDbEntity
8
1
62
256
6
ByLayer
370
18
48
1
60
0
100
AcDbEllipse
10
45.724507
20
24.971322
30
0
11
0.587500000000009
21
-1.01757984944671
31
0
210
0
220
0
230
1
40
0.989133
41
-1.19224465697349
42
-1.06575695357608
0
ELLIPSE
5
160
100
AcDbEntity
8
1
62
256
6
ByLayer
370
18
48
1
60
0
100
AcDbEllipse
10
46.75141
20
24.254195
30
0
11
-0.189999999999999
21
0.329089653438087
31
0
210
0
220
0
230
1
40
0.989133
41
2.16591723051742
42
-1.2823261874772
0
ELLIPSE
5
161
100
AcDbEntity
8
1
62
256
6
ByLayer
370
18
48
1
60
0
100
AcDbEllipse
10
45.724507
20
24.971322
30
0
11
0.587500000000009
21
-1.01757984944671
31
0
210
0
220
0
230
1
40
0.989133
41
0.902150445419724
42
1.0286381488171
0
ELLIPSE
5
162
100
AcDbEntity
8
1
62
256
6
ByLayer
370
18
48
1
60
0
100
AcDbEllipse
10
46.616461
20
26.271837
30
0
11
0.212500000000004
21
-0.368060796608384
31
0
210
0
220
0
230
1
40
0.989133
41
-0.953365086726346
42
-0.235128636280614
0
ELLIPSE
5
163
100
AcDbEntity
8
1
62
256
6
ByLayer
370
18
48
1
60
0
100
AcDbEllipse
10
46.406032
20
23.533686
30
0
11
0.212500000000004
21
-0.368060796608384
31
0
210
0
220
0
230
1
40
0.989133
41
-3.04776018911954
42
-2.3295237386738
0
ELLIPSE
5
164
100
AcDbEntity
8
1
62
256
6
ByLayer
370
18
48
1
60
0
100
AcDbEllipse
10
45.820334
20
26.218245
30
0
11
-0.189999999999999
21
0.329089653438087
31
0
210
0
220
0
230
1
40
0.989133
41
-2.022872974269
42
0.812068914915989
0
ELLIPSE
5
165
100
AcDbEntity
8
1
62
256
6
ByLayer
370
18
48
1
60
0
100
AcDbEllipse
10
45.62868
20
23.7244
30
0
11
-0.189999999999999
21
0.329089653438087
31
0
210
0
220
0
230
1
40
0.989133
41
1.11871967932082
42
-2.32952373867376
0
ELLIPSE
5
166
100
AcDbEntity
8
1
62
256
6
ByLayer
370
18
48
1
60
0
100
AcDbEllipse
10
44.697604
20
25.688449
30
0
11
-0.189999999999999
21
0.329089653438087
31
0
210
0
220
0
230
1
40
0.989133
41
-0.9756754230724
42
1.85926646611259
0
ELLIPSE
5
167
100
AcDbEntity
8
1
62
256
6
ByLayer
370
18
48
1
60
0
100
AcDbEllipse
10
46.406032
20
23.533686
30
0
11
0.212500000000004
21
-0.368060796608384
31
0
210
0
220
0
230
1
40
0.989133
41
2.16591723051744
42
2.88415368096316
0
ELLIPSE
5
168
100
AcDbEntity
8
1
62
256
6
ByLayer
370
18
48
1
60
0
100
AcDbEllipse
10
46.560751
20
25.335715
30
0
11
-0.189999999999999
21
0.329089653438087
31
0
210
0
220
0
230
1
40
0.989133
41
-3.07007052546554
42
-0.235128636280589
0
ELLIPSE
5
169
100
AcDbEntity
8
1
62
256
6
ByLayer
370
18
48
1
60
0
100
AcDbEllipse
10
47.297986
20
24.8342
30
0
11
0.212500000000004
21
-0.368060796608384
31
0
210
0
220
0
230
1
40
0.989133
41
-3.07007052546556
42
-2.3518340750198
0
ELLIPSE
5
16A
100
AcDbEntity
8
1
62
256
6
ByLayer
370
18
48
1
60
0
100
AcDbEllipse
10
45.042982
20
26.408959
30
0
11
0.212500000000004
21
-0.368060796608384
31
0
210
0
220
0
230
1
40
0.989133
41
-0.975675423072374
42
-0.257438972626604
0
ELLIPSE
5
16B
100
AcDbEntity
8
1
62
256
6
ByLayer
370
18
48
1
60
0
100
AcDbEllipse
10
45.724507
20
24.971322
30
0
11
-1.14999999999999
21
1.99185842870421
31
0
210
0
220
0
230
1
40
0.989133
41
0
42
6.28318530717959
0
ELLIPSE
5
16C
100
AcDbEntity
8
1
62
256
6
ByLayer
370
18
48
1
60
0
100
AcDbEllipse
10
44.832553
20
23.670808
30
0
11
0.212500000000004
21
-0.368060796608384
31
0
210
0
220
0
230
1
40
0.989133
41
2.18822756686348
42
2.90646401730922
0
ELLIPSE
5
16D
100
AcDbEntity
8
1
62
256
6
ByLayer
370
18
48
1
60
0
100
AcDbEllipse
10
47.0115
20
24.668798
30
0
11
0.212500000000004
21
-0.368060796608384
31
0
210
0
220
0
230
1
40
0.989133
41
-3.07007052546557
42
-1.28232618747719
0
ELLIPSE
5
16E
100
AcDbEntity
8
1
62
256
6
ByLayer
370
18
48
1
60
0
100
AcDbEllipse
10
46.329975
20
26.106434
30
0
11
0.212500000000004
21
-0.368060796608384
31
0
210
0
220
0
230
1
40
0.989133
41
-2.02287297426898
42
-0.235128636280606
0
ELLIPSE
5
16F
100
AcDbEntity
8
1
62
256
6
ByLayer
370
18
48
1
60
0
100
AcDbEllipse
10
44.832553
20
23.670808
30
0
11
0.212500000000004
21
-0.368060796608384
31
0
210
0
220
0
230
1
40
0.989133
41
1.11871967932082
42
1.83695612976656
0
ELLIPSE
5
170
100
AcDbEntity
8
1
62
256
6
ByLayer
370
18
48
1
60
0
100
AcDbEllipse
10
44.151028
20
25.108444
30
0
11
0.212500000000004
21
-0.368060796608384
31
0
210
0
220
0
230
1
40
0.989133
41
0.0715221281242533
42
0.789758578569989
0
ELLIPSE
5
171
100
AcDbEntity
8
1
62
256
6
ByLayer
370
18
48
1
60
0
100
AcDbEllipse
10
47.297986
20
24.8342
30
0
11
0.212500000000004
21
-0.368060796608384
31
0
210
0
220
0
230
1
40
0.989133
41
-2.00056263792297
42
-1.28232618747719
0
ELLIPSE
5
172
100
AcDbEntity
8
1
62
256
6
ByLayer
370
18
48
1
60
0
100
AcDbEllipse
10
45.724507
20
24.971322
30
0
11
0.587500000000009
21
-1.01757984944671
31
0
210
0
220
0
230
1
40
0.989133
41
-0.145047105776882
42
-0.0185594023794889
0
ELLIPSE
5
173
100
AcDbEntity
8
1
62
256
6
ByLayer
370
18
48
1
60
0
100
AcDbEllipse
10
45.724507
20
24.971322
30
0
11
0.587500000000009
21
-1.01757984944671
31
0
210
0
220
0
230
1
40
0.989133
41
-2.23944220817008
42
-2.11295450477267
0
ELLIPSE
5
174
100
AcDbEntity
8
1
62
256
6
ByLayer
370
18
48
1
60
0
100
AcDbEllipse
10
46.616461
20
26.271837
30
0
11
0.212500000000004
21
-0.368060796608384
31
0
210
0
220
0
230
1
40
0.989133
41
-2.02287297426898
42
-1.30463652382325
0
ELLIPSE
5
175
100
AcDbEntity
8
1
62
256
6
ByLayer
370
18
48
1
60
0
100
AcDbEllipse
10
45.724507
20
24.971322
30
0
11
0.587500000000009
21
-1.01757984944671
31
0
210
0
220
0
230
1
40
0.989133
41
2.99654554781291
42
3.1230332512103
0
ELLIPSE
5
176
100
AcDbEntity
8
1
62
256
6
ByLayer
370
18
48
1
60
0
100
AcDbEllipse
10
44.151028
20
25.108444
30
0
11
0.212500000000004
21
-0.368060796608384
31
0
210
0
220
0
230
1
40
0.989133
41
1.14103001566688
42
1.85926646611262
0
ELLIPSE
5
177
100
AcDbEntity
8
1
62
256
6
ByLayer
370
18
48
1
60
0
100
AcDbEllipse
10
45.724507
20
24.971322
30
0
11
0.587500000000009
21
-1.01757984944671
31
0
210
0
220
0
230
1
40
0.989133
41
1.94934799661631
42
2.07583570001371
0
ELLIPSE
5
178
100
AcDbEntity
8
1
62
256
6
ByLayer
370
18
48
1
60
0
100
AcDbEllipse
10
44.601777
20
24.441527
30
0
11
-0.189999999999999
21
0.329089653438087
31
0
210
0
220
0
230
1
40
0.989133
41
0.0715221281242349
42
2.90646401730922
0
ELLIPSE
5
179
100
AcDbEntity
8
1
62
256
6
ByLayer
370
18
48
1
60
0
100
AcDbEllipse
10
45.042982
20
26.408959
30
0
11
0.212500000000004
21
-0.368060796608384
31
0
210
0
220
0
230
1
40
0.989133
41
0.0938324644702664
42
0.812068914916017
0
ELLIPSE
5
17A
100
AcDbEntity
8
1
62
256
6
ByLayer
370
18
48
1
60
0
100
AcDbEllipse
10
45.614141
20
24.907603
30
0
11
-1.99999999999999
21
3.46410161513776
31
0
210
0
220
0
230
1
40
0.989133
41
0
42
6.28318530717959
0
ELLIPSE
5
17B
100
AcDbEntity
8
1
62
256
6
ByLayer
370
18
48
1
60
0
100
AcDbEllipse
10
64.21271
20
34.393656
30
0
11
-0.396874999999998
21
0.687407664253899
31
0
210
0
220
0
230
1
40
0.989133
41
-2.35073128167081
42
-0.779934954875893
0
ELLIPSE
5
17C
100
AcDbEntity
8
1
62
256
6
ByLayer
370
18
48
1
60
0
100
AcDbEllipse
10
53.537661
20
37.254027
30
0
11
-0.396874999999998
21
0.687407664253899
31
0
210
0
220
0
230
1
40
0.989133
41
-0.779934954875931
42
0.790861371918991
0
ELLIPSE
5
17D
100
AcDbEntity
8
1
62
256
6
ByLayer
370
18
48
1
60
0
100
AcDbEllipse
10
61.468814
20
23.686714
30
0
11
-0.396874999999998
21
0.687407664253899
31
0
210
0
220
0
230
1
40
0.989133
41
2.3616576987139
42
-2.3507312816708
0
POINT
5
6C
100
AcDbEntity
8
2
62
256
6
ByLayer
370
18
48
1
60
0
100
AcDbPoint
10
65
20
35
30
0
39
0
210
0
220
0
230
1
50
360
0
POINT
5
6E
100
AcDbEntity
8
80
62
256
6
ByLayer
370
18
48
1
60
0
100
AcDbPoint
10
0
20
0
30
0
39
0
210
0
220
0
230
1
50
360
0
POINT
5
70
100
AcDbEntity
8
81
62
256
6
ByLayer
370
18
48
1
60
0
100
AcDbPoint
10
65
20
35
30
0
39
0
210
0
220
0
230
1
50
360
0
SPLINE
5
17E
100
AcDbEntity
8
SK1
62
256
6
ByLayer
370
18
48
1
60
0
100
AcDbSpline
70
4
71
3
72
13
73
9
40
0
40
0
40
0
40
0
40
0.239456135763718
40
0.368359721933656
40
0.499998984021097
40
0.63163841528373
40
0.760542467778167
40
1
40
1
40
1
40
1
41
1
10
-2.19999999999999
20
-22.0200986606755
30
0
41
1
10
-2.19909198642273
20
-21.9940411845603
30
0
41
1
10
-2.19103284106941
20
-21.9566686002238
30
0
41
1
10
-2.16563592203337
20
-21.9104494263858
30
0
41
1
10
-2.1388637867926
20
-21.8791678725253
30
0
41
1
10
-2.10627712749869
20
-21.8540005023229
30
0
41
1
10
-2.05884064234078
20
-21.8309566998545
30
0
41
1
10
-2.02111030873027
20
-21.8247844448324
30
0
41
1
10
-1.99503997793928
20
-21.825186084775
30
0
0
SPLINE
5
17F
100
AcDbEntity
8
SK1
62
256
6
ByLayer
370
18
48
1
60
0
100
AcDbSpline
70
4
71
3
72
13
73
9
40
0
40
0
40
0
40
0
40
0.239457532152995
40
0.368361584623188
40
0.500001015876169
40
0.631640277971204
40
0.760543864164266
40
1
40
1
40
1
40
1
41
1
10
-1.99503997793928
20
21.8251861015554
30
0
41
1
10
-2.02111030873166
20
21.8247844616134
30
0
41
1
10
-2.05884064234343
20
21.8309567166392
30
0
41
1
10
-2.10627712750076
20
21.854000519123
30
0
41
1
10
-2.13886378679456
20
21.8791678893421
30
0
41
1
10
-2.16563592203485
20
21.9104494432231
30
0
41
1
10
-2.19103284107055
20
21.9566686170919
30
0
41
1
10
-2.19909198642387
20
21.9940412014509
30
0
41
1
10
-2.19999999999999
20
22.0200986775813
30
0
0
SPLINE
5
180
100
AcDbEntity
8
SK1
62
256
6
ByLayer
370
18
48
1
60
0
100
AcDbSpline
70
4
71
2
72
6
73
3
40
0
40
0
40
0
40
1
40
1
40
1
41
1
10
-36.5
20
-21.1521177089669
30
0
41
1
10
-19.3499999999701
20
-21.5828554470541
30
0
41
1
10
-2.19999999999999
20
-22.0135928951589
30
0
0
SPLINE
5
181
100
AcDbEntity
8
SK1
62
256
6
ByLayer
370
18
48
1
60
0
100
AcDbSpline
70
4
71
2
72
6
73
3
40
0
40
0
40
0
40
1
40
1
40
1
41
1
10
-2.19999999999999
20
22.0135927638551
30
0
41
1
10
-19.3499999999869
20
21.5828539542124
30
0
41
1
10
-36.5
20
21.1521149580209
30
0
0
SPLINE
5
182
100
AcDbEntity
8
SK1
62
256
6
ByLayer
370
18
48
1
60
0
100
AcDbSpline
70
4
71
2
72
6
73
3
40
0
40
0
40
0
40
1
40
1
40
1
41
1
10
-1.99503997793928
20
-21.8251812553753
30
0
41
1
10
-1.19500843340728
20
-21.8452807024746
30
0
41
1
10
-0.394976888875277
20
-21.8653801495793
30
0
0
SPLINE
5
183
100
AcDbEntity
8
SK1
62
256
6
ByLayer
370
18
48
1
60
0
100
AcDbSpline
70
4
71
2
72
6
73
3
40
0
40
0
40
0
40
1
40
1
40
1
41
1
10
-0.394976888875277
20
21.8653802062992
30
0
41
1
10
-1.19500843340728
20
21.8452807593862
30
0
41
1
10
-1.99503997793928
20
21.8251813124779
30
0
0
SPLINE
5
184
100
AcDbEntity
8
SK1
62
256
6
ByLayer
370
18
48
1
60
0
100
AcDbSpline
70
4
71
2
72
6
73
3
40
0
40
0
40
0
40
1
40
1
40
1
41
1
10
-38
20
-20.289405225553
30
0
41
1
10
-37.2500000000012
20
-20.7223540793632
30
0
41
1
10
-36.5
20
-21.1553029418638
30
0
0
SPLINE
5
185
100
AcDbEntity
8
SK1
62
256
6
ByLayer
370
18
48
1
60
0
100
AcDbSpline
70
4
71
2
72
6
73
3
40
0
40
0
40
0
40
1
40
1
40
1
41
1
10
-36.5
20
21.155302724897
30
0
41
1
10
-37.2500000000012
20
20.7223538609616
30
0
41
1
10
-38
20
20.2894050057151
30
0
0
SPLINE
5
186
100
AcDbEntity
8
SK1
62
256
6
ByLayer
370
18
48
1
60
0
100
AcDbSpline
70
4
71
2
72
6
73
3
40
0
40
0
40
0
40
1
40
1
40
1
41
1
10
-0.394976888875277
20
-21.8653849865467
30
0
41
1
10
-0.265172990617003
20
-21.8689012906761
30
0
41
1
10
-0.240502439654279
20
-21.9465691723769
30
0
0
SPLINE
5
187
100
AcDbEntity
8
SK1
62
256
6
ByLayer
370
18
48
1
60
0
100
AcDbSpline
70
4
71
2
72
6
73
3
40
0
40
0
40
0
40
1
40
1
40
1
41
1
10
-0.239684768755779
20
21.9481214799355
30
0
41
1
10
-0.264174311740362
20
21.8692639605625
30
0
41
1
10
-0.394976888875277
20
21.865385003355
30
0
0
SPLINE
5
188
100
AcDbEntity
8
1
62
256
6
ByLayer
370
18
48
1
60
0
100
AcDbSpline
70
4
71
3
72
24
73
20
40
0
40
0
40
0
40
0
40
0.0456872810842973
40
0.0456872810842973
40
0.165018106458305
40
0.165018106458305
40
0.284302085938493
40
0.284302085938493
40
0.403599375890719
40
0.403599375890719
40
0.522904225000332
40
0.522904225000332
40
0.642190844354047
40
0.642190844354047
40
0.761518062280795
40
0.761518062280795
40
0.880796843033957
40
0.880796843033957
40
1
40
1
40
1
40
1
41
1
10
50.8459101938571
20
28.2784816642573
30
0
41
1
10
50.8046400573307
20
28.2566394556848
30
0
41
1
10
50.7619952521044
20
28.2375180647374
30
0
41
1
10
50.6048199084527
20
28.1793344487359
30
0
41
1
10
50.4821649211304
20
28.1567124136194
30
0
41
1
10
50.2388108972103
20
28.1538863496673
30
0
41
1
10
50.1147168515699
20
28.1735913670893
30
0
41
1
10
49.8820444291075
20
28.2518368944499
30
0
41
1
10
49.7703193019815
20
28.3115128446565
30
0
41
1
10
49.5745852388355
20
28.4620934002592
30
0
41
1
10
49.4877871880175
20
28.5549956436605
30
0
41
1
10
49.350373459464
20
28.760300615256
30
0
41
1
10
49.2978542112198
20
28.8755313041652
30
0
41
1
10
49.2341491094386
20
29.1123751353473
30
0
41
1
10
49.2220595503618
20
29.2372132157346
30
0
41
1
10
49.2387932375885
20
29.4784380663566
30
0
41
1
10
49.2678111063088
20
29.5981470269359
30
0
41
1
10
49.3623908988477
20
29.8159960163039
30
0
41
1
10
49.4293710414426
20
29.9172363267415
30
0
41
1
10
49.5101898787874
20
30.0022277222663
30
0
0
SPLINE
5
189
100
AcDbEntity
8
1
62
256
6
ByLayer
370
18
48
1
60
0
100
AcDbSpline
70
4
71
3
72
24
73
20
40
0
40
0
40
0
40
0
40
0.0850811781222478
40
0.0850811781222478
40
0.205765575293411
40
0.205765575293411
40
0.326405255311813
40
0.326405255311813
40
0.447094190176871
40
0.447094190176871
40
0.567741792943661
40
0.567741792943661
40
0.688416329261198
40
0.688416329261198
40
0.809074346864323
40
0.809074346864323
40
0.929719103220581
40
0.929719103220581
40
1
40
1
40
1
40
1
41
1
10
50.7102851057366
20
28.2073682200898
30
0
41
1
10
50.6330762962693
20
28.1696914839194
30
0
41
1
10
50.5509827084131
20
28.1411643017017
30
0
41
1
10
50.3488256186424
20
28.097639682365
30
0
41
1
10
50.2239109908817
20
28.0925681876489
30
0
41
1
10
49.9816884657044
20
28.1238536540618
30
0
41
1
10
49.8610347323147
20
28.1606110518561
30
0
41
1
10
49.6406176085363
20
28.2703641105201
30
0
41
1
10
49.5379026436242
20
28.3449655806734
30
0
41
1
10
49.3640599457113
20
28.5207772473109
30
0
41
1
10
49.290493622717
20
28.6243712131659
30
0
41
1
10
49.1821053823917
20
28.8457493680338
30
0
41
1
10
49.1458940528085
20
28.9666799412075
30
0
41
1
10
49.1153127791114
20
29.2088080484119
30
0
41
1
10
49.1204095852976
20
29.333254403666
30
0
41
1
10
49.1701341314508
20
29.5680193415108
30
0
41
1
10
49.215459660012
20
29.6815995071682
30
0
41
1
10
49.3138703860728
20
29.8406050068536
30
0
41
1
10
49.3563649868161
20
29.8956005648178
30
0
41
1
10
49.4037422397615
20
29.9455478616958
30
0
0
SPLINE
5
18A
100
AcDbEntity
8
1
62
256
6
ByLayer
370
18
48
1
60
0
100
AcDbSpline
70
4
71
2
72
8
73
5
40
0
40
0
40
0
40
0.676314141425118
40
0.676314141425118
40
1
40
1
40
1
41
1
10
36.8162115314309
20
12.943242698572
30
0
41
1
10
37.2301616637287
20
13.1313330990207
30
0
41
1
10
37.4947519028533
20
13.5599740691749
30
0
41
1
10
37.6322489872325
20
13.782721831287
30
0
41
1
10
37.7192651080999
20
14.0531782016358
30
0
0
SPLINE
5
18B
100
AcDbEntity
8
SK1
62
256
6
ByLayer
370
18
48
1
60
0
100
AcDbSpline
70
4
71
3
72
299
73
295
40
0
40
0
40
0
40
0
40
0.0032948867691844
40
0.0068176137953109
40
0.0103403408214374
40
0.0138630678475639
40
0.0173857948736904
40
0.0209085218998169
40
0.0244312489259434
40
0.0279539759520699
40
0.0349994300043229
40
0.0420448840565759
40
0.049090338108829
40
0.0526130651349555
40
0.056135792161082
40
0.0596585191872085
40
0.063181246213335
40
0.070226700265588
40
0.0737494272917145
40
0.077272154317841
40
0.0807948813439675
40
0.084317608370094
40
0.0878403353962205
40
0.091363062422347
40
0.0984085164746
40
0.101931243500727
40
0.105453970526853
40
0.10897669755298
40
0.112499424579106
40
0.116022151605233
40
0.119544878631359
40
0.123067605657485
40
0.126590332683612
40
0.130113059709738
40
0.133635786735865
40
0.137158513761992
40
0.140681240788118
40
0.144203967814244
40
0.147726694840371
40
0.154772148892624
40
0.15829487591875
40
0.161817602944877
40
0.16357896645794
40
0.165340329971004
40
0.16886305699713
40
0.175908511049383
40
0.17943123807551
40
0.182953965101636
40
0.186476692127762
40
0.189999419153889
40
0.197044873206142
40
0.200567600232268
40
0.204090327258395
40
0.205851690771458
40
0.207613054284522
40
0.211135781310648
40
0.218181235362901
40
0.221703962389028
40
0.225226689415154
40
0.22874941644128
40
0.232272143467407
40
0.23931759751966
40
0.242840324545787
40
0.246363051571913
40
0.248124415084976
40
0.24988577859804
40
0.253408505624166
40
0.256931232650293
40
0.260453959676419
40
0.262215323189482
40
0.263976686702545
40
0.267499413728672
40
0.271022140754799
40
0.274544867780925
40
0.278067594807052
40
0.281590321833178
40
0.285113048859305
40
0.288635775885431
40
0.292158502911557
40
0.295681229937684
40
0.299203956963811
40
0.302726683989937
40
0.306249411016064
40
0.30977213804219
40
0.313294865068317
40
0.316817592094443
40
0.323863046146696
40
0.327385773172823
40
0.330908500198949
40
0.334431227225076
40
0.337953954251202
40
0.341476681277329
40
0.344999408303455
40
0.348522135329581
40
0.352044862355708
40
0.359090316407961
40
0.366135770460214
40
0.373181224512467
40
0.376703951538594
40
0.38022667856472
40
0.383749405590847
40
0.387272132616973
40
0.3907948596431
40
0.394317586669226
40
0.397840313695353
40
0.401363040721479
40
0.404885767747606
40
0.408408494773732
40
0.411931221799859
40
0.415453948825985
40
0.418976675852112
40
0.422499402878238
40
0.426022129904365
40
0.429544856930491
40
0.433067583956618
40
0.434828947469681
40
0.436590310982744
40
0.438351674495807
40
0.440113038008871
40
0.443635765034997
40
0.447158492061124
40
0.448919855574187
40
0.45068121908725
40
0.452442582600313
40
0.454203946113377
40
0.457726673139503
40
0.459488036652566
40
0.46124940016563
40
0.463010763678693
40
0.464772127191756
40
0.466533490704819
40
0.468294854217883
40
0.470056217730946
40
0.471817581244009
40
0.473578944757072
40
0.475340308270136
40
0.477101671783199
40
0.478863035296262
40
0.480624398809325
40
0.482385762322389
40
0.484147125835452
40
0.485908489348515
40
0.487669852861578
40
0.489431216374642
40
0.491192579887705
40
0.492953943400768
40
0.494715306913831
40
0.496476670426895
40
0.498238033939958
40
0.499999397453021
40
0.501760760966084
40
0.503522124479148
40
0.505283487992211
40
0.507044851505274
40
0.508806215018337
40
0.510567578531401
40
0.512328942044464
40
0.514090305557527
40
0.51585166907059
40
0.517613032583654
40
0.519374396096717
40
0.52113575960978
40
0.522897123122843
40
0.524658486635907
40
0.52641985014897
40
0.528181213662033
40
0.529942577175096
40
0.53170394068816
40
0.533465304201223
40
0.535226667714286
40
0.536988031227349
40
0.538749394740413
40
0.540510758253476
40
0.542272121766539
40
0.545794848792666
40
0.547556212305729
40
0.549317575818792
40
0.551078939331855
40
0.552840302844919
40
0.556363029871045
40
0.559885756897172
40
0.561647120410235
40
0.563408483923298
40
0.565169847436361
40
0.566931210949425
40
0.570453937975551
40
0.573976665001678
40
0.577499392027804
40
0.581022119053931
40
0.584544846080057
40
0.588067573106184
40
0.59159030013231
40
0.595113027158437
40
0.598635754184563
40
0.60215848121069
40
0.605681208236816
40
0.609203935262943
40
0.612726662289069
40
0.616249389315196
40
0.619772116341322
40
0.623294843367449
40
0.626817570393575
40
0.633863024445828
40
0.640908478498081
40
0.647953932550334
40
0.651476659576461
40
0.654999386602587
40
0.658522113628714
40
0.66204484065484
40
0.665567567680967
40
0.669090294707093
40
0.67261302173322
40
0.676135748759346
40
0.683181202811599
40
0.686703929837726
40
0.690226656863852
40
0.693749383889979
40
0.697272110916105
40
0.700794837942232
40
0.704317564968358
40
0.707840291994485
40
0.711363019020611
40
0.714885746046738
40
0.718408473072864
40
0.721931200098991
40
0.725453927125117
40
0.73249938117737
40
0.736022108203497
40
0.739544835229623
40
0.746590289281876
40
0.750113016308003
40
0.753635743334129
40
0.757158470360256
40
0.760681197386382
40
0.767726651438635
40
0.771249378464762
40
0.774772105490888
40
0.778294832517015
40
0.781817559543141
40
0.788863013595394
40
0.792385740621521
40
0.795908467647647
40
0.799431194673774
40
0.8029539216999
40
0.809999375752153
40
0.81352210277828
40
0.817044829804406
40
0.820567556830533
40
0.824090283856659
40
0.831135737908912
40
0.834658464935039
40
0.838181191961165
40
0.841703918987292
40
0.845226646013418
40
0.852272100065671
40
0.855794827091798
40
0.859317554117924
40
0.862840281144051
40
0.866363008170177
40
0.869885735196304
40
0.87340846222243
40
0.876931189248557
40
0.880453916274683
40
0.88397664330081
40
0.887499370326936
40
0.891022097353063
40
0.894544824379189
40
0.898067551405316
40
0.901590278431442
40
0.908635732483695
40
0.912158459509822
40
0.915681186535948
40
0.919203913562075
40
0.922726640588201
40
0.926249367614328
40
0.929772094640454
40
0.936817548692707
40
0.940340275718834
40
0.94386300274496
40
0.947385729771087
40
0.950908456797213
40
0.957953910849466
40
0.961476637875593
40
0.964999364901719
40
0.968522091927846
40
0.972044818953972
40
0.975567545980099
40
0.979090273006225
40
0.982613000032352
40
0.986135727058478
40
0.989658454084605
40
0.993181181110731
40
0.996703908136858
40
1
40
1
40
1
40
1
41
1
10
-1.99503997793931
20
21.8251672767445
30
0
41
1
10
-1.99503997793931
20
21.8252770252835
30
0
41
1
10
-1.99503997793928
20
21.8245105260544
30
0
41
1
10
-1.99503997793928
20
21.8202836860757
30
0
41
1
10
-1.99503997793928
20
21.812783044142
30
0
41
1
10
-1.99503997793928
20
21.8021565364934
30
0
41
1
10
-1.99503997793928
20
21.7884557330328
30
0
41
1
10
-1.99503997793928
20
21.7717308612526
30
0
41
1
10
-1.99503997793928
20
21.7520291985819
30
0
41
1
10
-1.99503997793928
20
21.7218385059106
30
0
41
1
10
-1.99503997793928
20
21.6769140218914
30
0
41
1
10
-1.99503997793928
20
21.6117670092986
30
0
41
1
10
-1.99503997793928
20
21.5484022523455
30
0
41
1
10
-1.99503997793928
20
21.4923512863894
30
0
41
1
10
-1.99503997793928
20
21.4477036012609
30
0
41
1
10
-1.99503997793928
20
21.4004602751572
30
0
41
1
10
-1.99503997793928
20
21.3340243579833
30
0
41
1
10
-1.99503997793928
20
21.2626002065085
30
0
41
1
10
-1.99503997793928
20
21.1861355372814
30
0
41
1
10
-1.99503997793928
20
21.126355615456
30
0
41
1
10
-1.99503997793928
20
21.0641493981766
30
0
41
1
10
-1.99503997793928
20
20.9995415089612
30
0
41
1
10
-1.99503997793928
20
20.9325549476398
30
0
41
1
10
-1.99503997793928
20
20.8400664063016
30
0
41
1
10
-1.99503997793928
20
20.7430171949632
30
0
41
1
10
-1.99503997793928
20
20.6412830606924
30
0
41
1
10
-1.99503997793928
20
20.5627395849404
30
0
41
1
10
-1.99503997793928
20
20.4819464711493
30
0
41
1
10
-1.99503997793928
20
20.3989234016943
30
0
41
1
10
-1.99503997793928
20
20.3136873945745
30
0
41
1
10
-1.99503997793928
20
20.2262576082901
30
0
41
1
10
-1.99503997793928
20
20.136651569995
30
0
41
1
10
-1.99503997793928
20
20.0448848271876
30
0
41
1
10
-1.99503997793928
20
19.9509751576252
30
0
41
1
10
-1.99503997793928
20
19.8549383078336
30
0
41
1
10
-1.99503997793928
20
19.7567886026657
30
0
41
1
10
-1.99503997793928
20
19.6565424313982
30
0
41
1
10
-1.99503997793928
20
19.5542139601407
30
0
41
1
10
-1.99503997793928
20
19.4149698127943
30
0
41
1
10
-1.99503997793928
20
19.2717622924356
30
0
41
1
10
-1.99503997793928
20
19.1243520606764
30
0
41
1
10
-1.99503997793928
20
19.0305969699326
30
0
41
1
10
-1.99503997793928
20
18.9545457436666
30
0
41
1
10
-1.99503997793928
20
18.877828345234
30
0
41
1
10
-1.99503997793928
20
18.7418485706132
30
0
41
1
10
-1.99503997793928
20
18.5826225030747
30
0
41
1
10
-1.99503997793928
20
18.4193199892891
30
0
41
1
10
-1.99503997793928
20
18.2949375082747
30
0
41
1
10
-1.99503997793928
20
18.1686188381619
30
0
41
1
10
-1.99503997793928
20
17.9975681157064
30
0
41
1
10
-1.99503997793928
20
17.8228588844704
30
0
41
1
10
-1.99503997793928
20
17.6441795672679
30
0
41
1
10
-1.99503997793928
20
17.5309981410348
30
0
41
1
10
-1.99503997793928
20
17.4394590341184
30
0
41
1
10
-1.99503997793928
20
17.3472945498449
30
0
41
1
10
-1.99503997793928
20
17.1843913435575
30
0
41
1
10
-1.99503997793928
20
16.9946548235122
30
0
41
1
10
-1.99503997793928
20
16.8010333841432
30
0
41
1
10
-1.99503997793928
20
16.654027023888
30
0
41
1
10
-1.99503997793928
20
16.5051894370887
30
0
41
1
10
-1.99503997793928
20
16.3042392155796
30
0
41
1
10
-1.99503997793928
20
16.0998599858609
30
0
41
1
10
-1.99503997793928
20
15.8916662065006
30
0
41
1
10
-1.99503997793928
20
15.7601264684356
30
0
41
1
10
-1.99503997793928
20
15.6539352235828
30
0
41
1
10
-1.99503997793928
20
15.5471478788444
30
0
41
1
10
-1.99503997793928
20
15.4126292313156
30
0
41
1
10
-1.99503997793928
20
15.2493853238091
30
0
41
1
10
-1.99503997793928
20
15.1119089381336
30
0
41
1
10
-1.99503997793928
20
15.0009760777421
30
0
41
1
10
-1.99503997793928
20
14.8894548819647
30
0
41
1
10
-1.99503997793928
20
14.7490386600655
30
0
41
1
10
-1.99503997793928
20
14.578735707937
30
0
41
1
10
-1.99503997793928
20
14.4066808882548
30
0
41
1
10
-1.99503997793928
20
14.2328806917249
30
0
41
1
10
-1.99503997793928
20
14.0573388809364
30
0
41
1
10
-1.99503997793928
20
13.8800596938692
30
0
41
1
10
-1.99503997793928
20
13.7010488098078
30
0
41
1
10
-1.99503997793928
20
13.5203096364964
30
0
41
1
10
-1.99503997793928
20
13.3378467409434
30
0
41
1
10
-1.99503997793928
20
13.1536651576331
30
0
41
1
10
-1.99503997793928
20
12.967767664355
30
0
41
1
10
-1.99503997793928
20
12.7801589185361
30
0
41
1
10
-1.99503997793928
20
12.5908431445087
30
0
41
1
10
-1.99503997793928
20
12.3998230002593
30
0
41
1
10
-1.99503997793928
20
12.1427688173785
30
0
41
1
10
-1.99503997793928
20
11.8826118718573
30
0
41
1
10
-1.99503997793928
20
11.6187779306707
30
0
41
1
10
-1.99503997793928
20
11.4192921752591
30
0
41
1
10
-1.99503997793928
20
11.2181233733031
30
0
41
1
10
-1.99503997793928
20
11.0152750188843
30
0
41
1
10
-1.99503997793928
20
10.8107494713072
30
0
41
1
10
-1.99503997793928
20
10.6045508021232
30
0
41
1
10
-1.99503997793928
20
10.3966814407573
30
0
41
1
10
-1.99503997793928
20
10.1171870033238
30
0
41
1
10
-1.99503997793928
20
9.76392166117952
30
0
41
1
10
-1.99503997793928
20
9.33322608836653
30
0
41
1
10
-1.99503997793928
20
8.96893242084855
30
0
41
1
10
-1.99503997793928
20
8.67397578579323
30
0
41
1
10
-1.99503997793928
20
8.45121977200662
30
0
41
1
10
-1.99503997793928
20
8.22682776167494
30
0
41
1
10
-1.99503997793928
20
8.00080467620245
30
0
41
1
10
-1.99503997793928
20
7.77315513008728
30
0
41
1
10
-1.99503997793928
20
7.54388372935193
30
0
41
1
10
-1.99503997793928
20
7.31299637479285
30
0
41
1
10
-1.99503997793928
20
7.08049945458953
30
0
41
1
10
-1.99503997793928
20
6.8463997482805
30
0
41
1
10
-1.99503997793928
20
6.61070495432838
30
0
41
1
10
-1.99503997793928
20
6.37342319970753
30
0
41
1
10
-1.99503997793928
20
6.13456384015993
30
0
41
1
10
-1.99503997793928
20
5.89413749968628
30
0
41
1
10
-1.99503997793928
20
5.65215638001948
30
0
41
1
10
-1.99503997793928
20
5.4086336510897
30
0
41
1
10
-1.99503997793928
20
5.16358499073451
30
0
41
1
10
-1.99503997793928
20
4.95821799704331
30
0
41
1
10
-1.99503997793928
20
4.79299516838267
30
0
41
1
10
-1.99503997793928
20
4.66878842905288
30
0
41
1
10
-1.99503997793928
20
4.5442150281373
30
0
41
1
10
-1.99503997793928
20
4.37752561794156
30
0
41
1
10
-1.99503997793928
20
4.16851547631595
30
0
41
1
10
-1.99503997793928
20
3.95832363498766
30
0
41
1
10
-1.99503997793928
20
3.78926935835412
30
0
41
1
10
-1.99503997793928
20
3.66223142121836
30
0
41
1
10
-1.99503997793928
20
3.53485872774326
30
0
41
1
10
-1.99503997793928
20
3.36446603264318
30
0
41
1
10
-1.99503997793928
20
3.19381064862623
30
0
41
1
10
-1.99503997793928
20
3.02213557666008
30
0
41
1
10
-1.99503997793928
20
2.8931784837302
30
0
41
1
10
-1.99503997793928
20
2.76392442628162
30
0
41
1
10
-1.99503997793928
20
2.63438251344519
30
0
41
1
10
-1.99503997793928
20
2.50455988721876
30
0
41
1
10
-1.99503997793928
20
2.37446636334928
30
0
41
1
10
-1.99503997793928
20
2.24411116870439
30
0
41
1
10
-1.99503997793928
20
2.11350398186613
30
0
41
1
10
-1.99503997793928
20
1.98265625862297
30
0
41
1
10
-1.99503997793928
20
1.85157817347522
30
0
41
1
10
-1.99503997793928
20
1.72028262405345
30
0
41
1
10
-1.99503997793928
20
1.58878098022359
30
0
41
1
10
-1.99503997793928
20
1.45708718468359
30
0
41
1
10
-1.99503997793928
20
1.32521409071333
30
0
41
1
10
-1.99503997793928
20
1.19317647053177
30
0
41
1
10
-1.99503997793928
20
1.06098852682439
30
0
41
1
10
-1.99503997793928
20
0.928665923975672
30
0
41
1
10
-1.99503997793928
20
0.796224037396229
30
0
41
1
10
-1.99503997793928
20
0.663679321648374
30
0
41
1
10
-1.99503997793928
20
0.531048033506266
30
0
41
1
10
-1.99503997793928
20
0.398347293868937
30
0
41
1
10
-1.99503997793928
20
0.265594055935196
30
0
41
1
10
-1.99503997793928
20
0.132805828560237
30
0
41
1
10
-1.99503997793928
20
-2.0604887E-09
30
0
41
1
10
-1.99503997793928
20
-0.132805835966792
30
0
41
1
10
-1.99503997793928
20
-0.265594069601519
30
0
41
1
10
-1.99503997793928
20
-0.398347307093388
30
0
41
1
10
-1.99503997793928
20
-0.531048037421954
30
0
41
1
10
-1.99503997793928
20
-0.663679323049081
30
0
41
1
10
-1.99503997793928
20
-0.796224050825089
30
0
41
1
10
-1.99503997793928
20
-0.92866594303203
30
0
41
1
10
-1.99503997793928
20
-1.06098853158755
30
0
41
1
10
-1.99503997793928
20
-1.1931764657121
30
0
41
1
10
-1.99503997793928
20
-1.32521410103647
30
0
41
1
10
-1.99503997793928
20
-1.45708720896539
30
0
41
1
10
-1.99503997793928
20
-1.58878099035152
30
0
41
1
10
-1.99503997793928
20
-1.72028261530932
30
0
41
1
10
-1.99503997793928
20
-1.85157817419835
30
0
41
1
10
-1.99503997793928
20
-1.98265628188182
30
0
41
1
10
-1.99503997793928
20
-2.11350400419804
30
0
41
1
10
-1.99503997793928
20
-2.24411116714702
30
0
41
1
10
-1.99503997793928
20
-2.37446635053539
30
0
41
1
10
-1.99503997793928
20
-2.50455989433328
30
0
41
1
10
-1.99503997793928
20
-2.63438254221708
30
0
41
1
10
-1.99503997793928
20
-2.76392444618182
30
0
41
1
10
-1.99503997793928
20
-2.89317847799558
30
0
41
1
10
-1.99503997793928
20
-3.02213556164864
30
0
41
1
10
-1.99503997793928
20
-3.19381066067948
30
0
41
1
10
-1.99503997793928
20
-3.36446606295527
30
0
41
1
10
-1.99503997793928
20
-3.53485872835634
30
0
41
1
10
-1.99503997793928
20
-3.66223140396673
30
0
41
1
10
-1.99503997793928
20
-3.78926935085312
30
0
41
1
10
-1.99503997793928
20
-3.95832365779984
30
0
41
1
10
-1.99503997793928
20
-4.16851549788919
30
0
41
1
10
-1.99503997793928
20
-4.37752560184694
30
0
41
1
10
-1.99503997793928
20
-4.54421502107886
30
0
41
1
10
-1.99503997793928
20
-4.66878844332788
30
0
41
1
10
-1.99503997793928
20
-4.79299519854527
30
0
41
1
10
-1.99503997793928
20
-4.95821801342223
30
0
41
1
10
-1.99503997793928
20
-5.16358497720142
30
0
41
1
10
-1.99503997793928
20
-5.40863364784667
30
0
41
1
10
-1.99503997793928
20
-5.65215640891225
30
0
41
1
10
-1.99503997793928
20
-5.89413750153935
30
0
41
1
10
-1.99503997793928
20
-6.13456381441384
30
0
41
1
10
-1.99503997793928
20
-6.37342317953835
30
0
41
1
10
-1.99503997793928
20
-6.61070492919379
30
0
41
1
10
-1.99503997793928
20
-6.84639976314463
30
0
41
1
10
-1.99503997793928
20
-7.08049963775395
30
0
41
1
10
-1.99503997793928
20
-7.31299670603016
30
0
41
1
10
-1.99503997793928
20
-7.54388383469134
30
0
41
1
10
-1.99503997793928
20
-7.77315487290267
30
0
41
1
10
-1.99503997793928
20
-8.00080468509063
30
0
41
1
10
-1.99503997793928
20
-8.22682785520686
30
0
41
1
10
-1.99503997793928
20
-8.4512197921853
30
0
41
1
10
-1.99503997793928
20
-8.67397577159846
30
0
41
1
10
-1.99503997793928
20
-8.96893239301764
30
0
41
1
10
-1.99503997793928
20
-9.33322609823665
30
0
41
1
10
-1.99503997793928
20
-9.76392165975841
30
0
41
1
10
-1.99503997793928
20
-10.1171869828061
30
0
41
1
10
-1.99503997793928
20
-10.3966814549587
30
0
41
1
10
-1.99503997793928
20
-10.6045508126063
30
0
41
1
10
-1.99503997793928
20
-10.8107494592904
30
0
41
1
10
-1.99503997793928
20
-11.0152749978462
30
0
41
1
10
-1.99503997793928
20
-11.2181233670389
30
0
41
1
10
-1.99503997793928
20
-11.4192921870092
30
0
41
1
10
-1.99503997793928
20
-11.6187779427602
30
0
41
1
10
-1.99503997793928
20
-11.8826118620781
30
0
41
1
10
-1.99503997793928
20
-12.1427687977971
30
0
41
1
10
-1.99503997793928
20
-12.3998230071702
30
0
41
1
10
-1.99503997793928
20
-12.5908431584255
30
0
41
1
10
-1.99503997793928
20
-12.7801589212449
30
0
41
1
10
-1.99503997793928
20
-12.9677676529033
30
0
41
1
10
-1.99503997793928
20
-13.1536651432542
30
0
41
1
10
-1.99503997793928
20
-13.3378467396349
30
0
41
1
10
-1.99503997793928
20
-13.520309646993
30
0
41
1
10
-1.99503997793928
20
-13.7010488212408
30
0
41
1
10
-1.99503997793928
20
-13.8800597145162
30
0
41
1
10
-1.99503997793928
20
-14.0573389921213
30
0
41
1
10
-1.99503997793928
20
-14.2328810143213
30
0
41
1
10
-1.99503997793928
20
-14.4646959102749
30
0
41
1
10
-1.99503997793928
20
-14.6927797943809
30
0
41
1
10
-1.99503997793928
20
-14.9175842595472
30
0
41
1
10
-1.99503997793928
20
-15.1400402265273
30
0
41
1
10
-1.99503997793928
20
-15.3587351142266
30
0
41
1
10
-1.99503997793928
20
-15.574095422854
30
0
41
1
10
-1.99503997793928
20
-15.733775855726
30
0
41
1
10
-1.99503997793928
20
-15.8916657661057
30
0
41
1
10
-1.99503997793928
20
-16.0998603532658
30
0
41
1
10
-1.99503997793928
20
-16.3042398246232
30
0
41
1
10
-1.99503997793928
20
-16.5051894037979
30
0
41
1
10
-1.99503997793928
20
-16.6540265683948
30
0
41
1
10
-1.99503997793928
20
-16.8010329188422
30
0
41
1
10
-1.99503997793928
20
-16.9946550481209
30
0
41
1
10
-1.99503997793928
20
-17.1843924611907
30
0
41
1
10
-1.99503997793928
20
-17.3705928023913
30
0
41
1
10
-1.99503997793928
20
-17.5083251903719
30
0
41
1
10
-1.99503997793928
20
-17.6441786252734
30
0
41
1
10
-1.99503997793928
20
-17.8228590748674
30
0
41
1
10
-1.99503997793928
20
-17.9975683374733
30
0
41
1
10
-1.99503997793928
20
-18.1686188521771
30
0
41
1
10
-1.99503997793928
20
-18.2949373683468
30
0
41
1
10
-1.99503997793928
20
-18.4193198181252
30
0
41
1
10
-1.99503997793928
20
-18.5826226298873
30
0
41
1
10
-1.99503997793928
20
-18.7418497326446
30
0
41
1
10
-1.99503997793928
20
-18.8972761707097
30
0
41
1
10
-1.99503997793928
20
-19.0118150097952
30
0
41
1
10
-1.99503997793928
20
-19.1243510467918
30
0
41
1
10
-1.99503997793928
20
-19.2717625055688
30
0
41
1
10
-1.99503997793928
20
-19.414970513124
30
0
41
1
10
-1.99503997793928
20
-19.5542140249085
30
0
41
1
10
-1.99503997793928
20
-19.6565420567613
30
0
41
1
10
-1.99503997793928
20
-19.7567881415466
30
0
41
1
10
-1.99503997793928
20
-19.8549381550126
30
0
41
1
10
-1.99503997793928
20
-19.9509751416388
30
0
41
1
10
-1.99503997793928
20
-20.0448848362119
30
0
41
1
10
-1.99503997793928
20
-20.1366515718167
30
0
41
1
10
-1.99503997793928
20
-20.2262576202058
30
0
41
1
10
-1.99503997793928
20
-20.3136874196731
30
0
41
1
10
-1.99503997793928
20
-20.398923430088
30
0
41
1
10
-1.99503997793928
20
-20.4819464863244
30
0
41
1
10
-1.99503997793928
20
-20.5627395868944
30
0
41
1
10
-1.99503997793928
20
-20.6412830627252
30
0
41
1
10
-1.99503997793928
20
-20.7430172190698
30
0
41
1
10
-1.99503997793928
20
-20.8400664428987
30
0
41
1
10
-1.99503997793928
20
-20.9325549572362
30
0
41
1
10
-1.99503997793928
20
-20.9995415068112
30
0
41
1
10
-1.99503997793928
20
-21.064149408511
30
0
41
1
10
-1.99503997793928
20
-21.1263556466612
30
0
41
1
10
-1.99503997793928
20
-21.1861355753666
30
0
41
1
10
-1.99503997793928
20
-21.262600218376
30
0
41
1
10
-1.99503997793928
20
-21.3340243512753
30
0
41
1
10
-1.99503997793928
20
-21.4004603045828
30
0
41
1
10
-1.99503997793928
20
-21.4477036445725
30
0
41
1
10
-1.99503997793928
20
-21.4923513092323
30
0
41
1
10
-1.99503997793928
20
-21.5484022410126
30
0
41
1
10
-1.99503997793928
20
-21.5990695510926
30
0
41
1
10
-1.99503997793928
20
-21.6443396610233
30
0
41
1
10
-1.99503997793928
20
-21.6755105092645
30
0
41
1
10
-1.99503997793928
20
-21.7038764495607
30
0
41
1
10
-1.99503997793928
20
-21.7293964429163
30
0
41
1
10
-1.99503997793928
20
-21.7520292420694
30
0
41
1
10
-1.99503997793928
20
-21.7717309018817
30
0
41
1
10
-1.99503997793928
20
-21.7884557380592
30
0
41
1
10
-1.99503997793928
20
-21.8021565310045
30
0
41
1
10
-1.99503997793928
20
-21.8127830851058
30
0
41
1
10
-1.99503997793928
20
-21.8202838734724
30
0
41
1
10
-1.99503997793931
20
-21.8245113656521
30
0
41
1
10
-1.99503997793931
20
-21.8252773611974
30
0
41
1
10
-1.99503997793931
20
-21.8251670959613
30
0
0
SPLINE
5
18C
100
AcDbEntity
8
SK1
62
256
6
ByLayer
370
18
48
1
60
0
100
AcDbSpline
70
4
71
3
72
295
73
291
40
0
40
0
40
0
40
0
40
0.0029463016088835
40
0.0065222264931604
40
0.0100981513774373
40
0.0136740762617142
40
0.017250001145991
40
0.0208259260302679
40
0.0279777757988217
40
0.0351296255673755
40
0.0422814753359292
40
0.0458574002202061
40
0.049433325104483
40
0.0530092499887599
40
0.0565851748730368
40
0.0637370246415905
40
0.0673129495258674
40
0.0708888744101443
40
0.0744647992944212
40
0.0780407241786981
40
0.081616649062975
40
0.0851925739472519
40
0.0923444237158056
40
0.0959203486000825
40
0.0994962734843594
40
0.103072198368636
40
0.106648123252913
40
0.11022404813719
40
0.113799973021467
40
0.117375897905744
40
0.120951822790021
40
0.124527747674298
40
0.128103672558574
40
0.131679597442851
40
0.135255522327128
40
0.138831447211405
40
0.142407372095682
40
0.149559221864236
40
0.153135146748513
40
0.15671107163279
40
0.158499034074928
40
0.160286996517066
40
0.163862921401343
40
0.171014771169897
40
0.174590696054174
40
0.178166620938451
40
0.181742545822728
40
0.185318470707005
40
0.192470320475558
40
0.196046245359835
40
0.199622170244112
40
0.201410132686251
40
0.203198095128389
40
0.206774020012666
40
0.21392586978122
40
0.217501794665497
40
0.221077719549774
40
0.22465364443405
40
0.228229569318327
40
0.235381419086881
40
0.238957343971158
40
0.242533268855435
40
0.244321231297573
40
0.246109193739712
40
0.249685118623989
40
0.253261043508265
40
0.256836968392542
40
0.258624930834681
40
0.260412893276819
40
0.263988818161096
40
0.267564743045373
40
0.27114066792965
40
0.274716592813927
40
0.278292517698204
40
0.281868442582481
40
0.285444367466757
40
0.289020292351034
40
0.292596217235311
40
0.296172142119588
40
0.299748067003865
40
0.303323991888142
40
0.306899916772419
40
0.310475841656696
40
0.314051766540973
40
0.321203616309526
40
0.324779541193803
40
0.32835546607808
40
0.331931390962357
40
0.335507315846634
40
0.339083240730911
40
0.342659165615188
40
0.346235090499464
40
0.349811015383741
40
0.356962865152295
40
0.364114714920849
40
0.371266564689403
40
0.374842489573679
40
0.378418414457956
40
0.381994339342233
40
0.38557026422651
40
0.389146189110787
40
0.392722113995064
40
0.396298038879341
40
0.399873963763618
40
0.403449888647895
40
0.407025813532171
40
0.410601738416448
40
0.414177663300725
40
0.417753588185002
40
0.421329513069279
40
0.424905437953556
40
0.428481362837833
40
0.43205728772211
40
0.433845250164248
40
0.435633212606386
40
0.437421175048525
40
0.439209137490663
40
0.44278506237494
40
0.446360987259217
40
0.448148949701356
40
0.449936912143494
40
0.451724874585632
40
0.453512837027771
40
0.457088761912048
40
0.458876724354186
40
0.460664686796325
40
0.462452649238463
40
0.464240611680602
40
0.46602857412274
40
0.467816536564878
40
0.469604499007017
40
0.471392461449155
40
0.473180423891294
40
0.474968386333432
40
0.476756348775571
40
0.478544311217709
40
0.480332273659848
40
0.482120236101986
40
0.483908198544124
40
0.485696160986263
40
0.487484123428401
40
0.48927208587054
40
0.491060048312678
40
0.492848010754817
40
0.494635973196955
40
0.496423935639094
40
0.498211898081232
40
0.49999986052337
40
0.501787822965509
40
0.503575785407647
40
0.505363747849786
40
0.507151710291924
40
0.508939672734063
40
0.510727635176201
40
0.51251559761834
40
0.514303560060478
40
0.516091522502616
40
0.517879484944755
40
0.519667447386893
40
0.521455409829032
40
0.52324337227117
40
0.525031334713309
40
0.526819297155447
40
0.528607259597586
40
0.530395222039724
40
0.532183184481862
40
0.533971146924001
40
0.535759109366139
40
0.537547071808278
40
0.539335034250416
40
0.541122996692555
40
0.542910959134693
40
0.54648688401897
40
0.548274846461108
40
0.550062808903247
40
0.551850771345385
40
0.553638733787524
40
0.557214658671801
40
0.560790583556077
40
0.562578545998216
40
0.564366508440354
40
0.566154470882493
40
0.567942433324631
40
0.571518358208908
40
0.575094283093185
40
0.578670207977462
40
0.582246132861739
40
0.585822057746016
40
0.589397982630293
40
0.592973907514569
40
0.596549832398846
40
0.600125757283123
40
0.6037016821674
40
0.607277607051677
40
0.610853531935954
40
0.614429456820231
40
0.618005381704508
40
0.621581306588785
40
0.625157231473061
40
0.628733156357338
40
0.635885006125892
40
0.643036855894446
40
0.650188705663
40
0.653764630547277
40
0.657340555431553
40
0.66091648031583
40
0.664492405200107
40
0.668068330084384
40
0.671644254968661
40
0.675220179852938
40
0.678796104737215
40
0.685947954505769
40
0.689523879390045
40
0.693099804274322
40
0.696675729158599
40
0.700251654042876
40
0.703827578927153
40
0.70740350381143
40
0.710979428695707
40
0.714555353579983
40
0.71813127846426
40
0.721707203348537
40
0.725283128232814
40
0.728859053117091
40
0.736010902885645
40
0.739586827769922
40
0.743162752654199
40
0.750314602422752
40
0.753890527307029
40
0.757466452191306
40
0.761042377075583
40
0.76461830195986
40
0.771770151728414
40
0.775346076612691
40
0.778922001496968
40
0.782497926381244
40
0.786073851265521
40
0.793225701034075
40
0.796801625918352
40
0.800377550802629
40
0.803953475686906
40
0.807529400571183
40
0.814681250339736
40
0.818257175224013
40
0.82183310010829
40
0.825409024992567
40
0.828984949876844
40
0.836136799645398
40
0.839712724529674
40
0.843288649413951
40
0.846864574298228
40
0.850440499182505
40
0.857592348951059
40
0.861168273835336
40
0.864744198719613
40
0.86832012360389
40
0.871896048488166
40
0.875471973372443
40
0.87904789825672
40
0.882623823140997
40
0.886199748025274
40
0.889775672909551
40
0.893351597793828
40
0.896927522678105
40
0.900503447562382
40
0.904079372446658
40
0.907655297330935
40
0.914807147099489
40
0.918383071983766
40
0.921958996868043
40
0.92553492175232
40
0.929110846636597
40
0.932686771520873
40
0.93626269640515
40
0.943414546173704
40
0.946990471057981
40
0.950566395942258
40
0.954142320826535
40
0.957718245710812
40
0.964870095479366
40
0.968446020363642
40
0.972021945247919
40
0.975597870132196
40
0.979173795016473
40
0.98274971990075
40
0.986325644785027
40
0.989901569669304
40
0.993477494553581
40
0.997053419437858
40
1
40
1
40
1
40
1
41
1
10
-2.19999999999999
20
22.013519664447
30
0
41
1
10
-2.19999999999999
20
22.0117275999705
30
0
41
1
10
-2.20000000000002
20
22.0069596839225
30
0
41
1
10
-2.19999999999999
20
21.9968726461305
30
0
41
1
10
-2.19999999999999
20
21.9830583750197
30
0
41
1
10
-2.19999999999999
20
21.9661971621578
30
0
41
1
10
-2.19999999999999
20
21.9463373083127
30
0
41
1
10
-2.19999999999999
20
21.9159230944434
30
0
41
1
10
-2.19999999999999
20
21.870633664349
30
0
41
1
10
-2.19999999999999
20
21.8049949078793
30
0
41
1
10
-2.19999999999999
20
21.7411390111089
30
0
41
1
10
-2.19999999999999
20
21.6847072709128
30
0
41
1
10
-2.19999999999999
20
21.6397397481888
30
0
41
1
10
-2.19999999999999
20
21.5921615264853
30
0
41
1
10
-2.19999999999999
20
21.5252891523049
30
0
41
1
10
-2.19999999999999
20
21.453308753177
30
0
41
1
10
-2.19999999999999
20
21.3763547276269
30
0
41
1
10
-2.19999999999999
20
21.3161703964091
30
0
41
1
10
-2.19999999999999
20
21.2535469243879
30
0
41
1
10
-2.19999999999999
20
21.1885090229233
30
0
41
1
10
-2.19999999999999
20
21.121080083473
30
0
41
1
10
-2.19999999999999
20
21.0280237507364
30
0
41
1
10
-2.19999999999999
20
20.9302657445266
30
0
41
1
10
-2.19999999999999
20
20.8279188369072
30
0
41
1
10
-2.19999999999999
20
20.7488739070252
30
0
41
1
10
-2.19999999999999
20
20.6675681841826
30
0
41
1
10
-2.19999999999999
20
20.5840212184218
30
0
41
1
10
-2.19999999999999
20
20.4982502525025
30
0
41
1
10
-2.19999999999999
20
20.4102747128949
30
0
41
1
10
-2.19999999999999
20
20.3201119071544
30
0
41
1
10
-2.19999999999999
20
20.2277776663919
30
0
41
1
10
-2.19999999999999
20
20.1332899477274
30
0
41
1
10
-2.19999999999999
20
20.0366642357894
30
0
41
1
10
-2.19999999999999
20
19.9379151599299
30
0
41
1
10
-2.19999999999999
20
19.8370591957147
30
0
41
1
10
-2.19999999999999
20
19.7341102362335
30
0
41
1
10
-2.19999999999999
20
19.5940778412012
30
0
41
1
10
-2.19999999999999
20
19.4499005336558
30
0
41
1
10
-2.19999999999999
20
19.3016622310533
30
0
41
1
10
-2.19999999999999
20
19.2073184270571
30
0
41
1
10
-2.19999999999999
20
19.1308417758755
30
0
41
1
10
-2.19999999999999
20
19.0536957086557
30
0
41
1
10
-2.19999999999999
20
18.9169360704622
30
0
41
1
10
-2.19999999999999
20
18.756645794641
30
0
41
1
10
-2.19999999999999
20
18.5924362845557
30
0
41
1
10
-2.19999999999999
20
18.4673177976698
30
0
41
1
10
-2.19999999999999
20
18.3402521463352
30
0
41
1
10
-2.19999999999999
20
18.1682545122203
30
0
41
1
10
-2.19999999999999
20
17.9923842356821
30
0
41
1
10
-2.19999999999999
20
17.8127164551587
30
0
41
1
10
-2.19999999999999
20
17.6988333809735
30
0
41
1
10
-2.19999999999999
20
17.606787767091
30
0
41
1
10
-2.19999999999999
20
17.5141131161323
30
0
41
1
10
-2.19999999999999
20
17.3502824417036
30
0
41
1
10
-2.19999999999999
20
17.1592829447589
30
0
41
1
10
-2.19999999999999
20
16.9645867974536
30
0
41
1
10
-2.19999999999999
20
16.8167088060477
30
0
41
1
10
-2.19999999999999
20
16.6669871400996
30
0
41
1
10
-2.19999999999999
20
16.4649164953067
30
0
41
1
10
-2.19999999999999
20
16.2591646002876
30
0
41
1
10
-2.19999999999999
20
16.049802831716
30
0
41
1
10
-2.19999999999999
20
15.9174340084588
30
0
41
1
10
-2.19999999999999
20
15.8106442286412
30
0
41
1
10
-2.19999999999999
20
15.7032538676567
30
0
41
1
10
-2.19999999999999
20
15.567882396309
30
0
41
1
10
-2.19999999999999
20
15.4036502143979
30
0
41
1
10
-2.19999999999999
20
15.2652965264295
30
0
41
1
10
-2.19999999999999
20
15.1537302031574
30
0
41
1
10
-2.19999999999999
20
15.0415708470876
30
0
41
1
10
-2.19999999999999
20
14.90025131083
30
0
41
1
10
-2.19999999999999
20
14.7289012367181
30
0
41
1
10
-2.19999999999999
20
14.5557843226631
30
0
41
1
10
-2.19999999999999
20
14.3809062427341
30
0
41
1
10
-2.19999999999999
20
14.2042700822291
30
0
41
1
10
-2.19999999999999
20
14.0258803741545
30
0
41
1
10
-2.19999999999999
20
13.8457420253844
30
0
41
1
10
-2.19999999999999
20
13.6638579861817
30
0
41
1
10
-2.19999999999999
20
13.4802328481714
30
0
41
1
10
-2.19999999999999
20
13.2948705974071
30
0
41
1
10
-2.19999999999999
20
13.1077737485311
30
0
41
1
10
-2.19999999999999
20
12.9189467805057
30
0
41
1
10
-2.19999999999999
20
12.728392778749
30
0
41
1
10
-2.19999999999999
20
12.5361142588231
30
0
41
1
10
-2.19999999999999
20
12.2774598592137
30
0
41
1
10
-2.19999999999999
20
12.0153352592314
30
0
41
1
10
-2.19999999999999
20
11.7498207258852
30
0
41
1
10
-2.19999999999999
20
11.5489655826483
30
0
41
1
10
-2.19999999999999
20
11.3464032807099
30
0
41
1
10
-2.19999999999999
20
11.1421359853758
30
0
41
1
10
-2.19999999999999
20
10.9361655879759
30
0
41
1
10
-2.19999999999999
20
10.7284950970913
30
0
41
1
10
-2.19999999999999
20
10.5191258614377
30
0
41
1
10
-2.19999999999999
20
10.2377184130835
30
0
41
1
10
-2.19999999999999
20
9.88169304970987
30
0
41
1
10
-2.19999999999999
20
9.44771865839311
30
0
41
1
10
-2.19999999999999
20
9.08043848955603
30
0
41
1
10
-2.19999999999999
20
8.78327689677775
30
0
41
1
10
-2.19999999999999
20
8.55871419535617
30
0
41
1
10
-2.19999999999999
20
8.33247380011301
30
0
41
1
10
-2.19999999999999
20
8.10455852701506
30
0
41
1
10
-2.19999999999999
20
7.87497060194644
30
0
41
1
10
-2.19999999999999
20
7.6437128367312
30
0
41
1
10
-2.19999999999999
20
7.41078884464241
30
0
41
1
10
-2.19999999999999
20
7.17620220160032
30
0
41
1
10
-2.19999999999999
20
6.93995692090419
30
0
41
1
10
-2.19999999999999
20
6.70205758660663
30
0
41
1
10
-2.19999999999999
20
6.46250918569618
30
0
41
1
10
-2.19999999999999
20
6.2213178400012
30
0
41
1
10
-2.19999999999999
20
5.97849049576266
30
0
41
1
10
-2.19999999999999
20
5.73403521575827
30
0
41
1
10
-2.19999999999999
20
5.48796107357256
30
0
41
1
10
-2.19999999999999
20
5.24027911118978
30
0
41
1
10
-2.19999999999999
20
5.03253661023487
30
0
41
1
10
-2.19999999999999
20
4.86557359122418
30
0
41
1
10
-2.19999999999999
20
4.73994908127321
30
0
41
1
10
-2.19999999999999
20
4.61393371339017
30
0
41
1
10
-2.19999999999999
20
4.44540774959788
30
0
41
1
10
-2.19999999999999
20
4.23375652596863
30
0
41
1
10
-2.19999999999999
20
4.02083961713782
30
0
41
1
10
-2.19999999999999
20
3.84978439152417
30
0
41
1
10
-2.19999999999999
20
3.72111342731068
30
0
41
1
10
-2.19999999999999
20
3.59207749308624
30
0
41
1
10
-2.19999999999999
20
3.41956369464535
30
0
41
1
10
-2.19999999999999
20
3.24629481959221
30
0
41
1
10
-2.19999999999999
20
3.0723836150739
30
0
41
1
10
-2.19999999999999
20
2.94160046512798
30
0
41
1
10
-2.19999999999999
20
2.81048647644627
30
0
41
1
10
-2.19999999999999
20
2.67904892732182
30
0
41
1
10
-2.19999999999999
20
2.54729562722176
30
0
41
1
10
-2.19999999999999
20
2.41523551097489
30
0
41
1
10
-2.19999999999999
20
2.28287740252156
30
0
41
1
10
-2.19999999999999
20
2.15023166945255
30
0
41
1
10
-2.19999999999999
20
2.01730873413072
30
0
41
1
10
-2.19999999999999
20
1.88412021099791
30
0
41
1
10
-2.19999999999999
20
1.75067841854351
30
0
41
1
10
-2.19999999999999
20
1.61699634722072
30
0
41
1
10
-2.19999999999999
20
1.48308821885627
30
0
41
1
10
-2.19999999999999
20
1.34896859254377
30
0
41
1
10
-2.19999999999999
20
1.21465350310541
30
0
41
1
10
-2.19999999999999
20
1.0801592162689
30
0
41
1
10
-2.19999999999999
20
0.945503442662783
30
0
41
1
10
-2.19999999999999
20
0.810704113119073
30
0
41
1
10
-2.19999999999999
20
0.675780421912322
30
0
41
1
10
-2.19999999999999
20
0.540751787789588
30
0
41
1
10
-2.19999999999999
20
0.405638599098921
30
0
41
1
10
-2.19999999999999
20
0.270461428271432
30
0
41
1
10
-2.19999999999999
20
0.135241462279822
30
0
41
1
10
-2.19999999999999
20
-5.3654787E-09
30
0
41
1
10
-2.19999999999999
20
-0.135241472589996
30
0
41
1
10
-2.19999999999999
20
-0.270461437853925
30
0
41
1
10
-2.19999999999999
20
-0.405638608907907
30
0
41
1
10
-2.19999999999999
20
-0.540751798686529
30
0
41
1
10
-2.19999999999999
20
-0.675780432522174
30
0
41
1
10
-2.19999999999999
20
-0.810704122044939
30
0
41
1
10
-2.19999999999999
20
-0.945503451789534
30
0
41
1
10
-2.19999999999999
20
-1.08015922751395
30
0
41
1
10
-2.19999999999999
20
-1.21465351395383
30
0
41
1
10
-2.19999999999999
20
-1.34896860046499
30
0
41
1
10
-2.19999999999999
20
-1.48308822685564
30
0
41
1
10
-2.19999999999999
20
-1.61699635855226
30
0
41
1
10
-2.19999999999999
20
-1.75067843002711
30
0
41
1
10
-2.19999999999999
20
-1.88412021847037
30
0
41
1
10
-2.19999999999999
20
-2.01730874020455
30
0
41
1
10
-2.19999999999999
20
-2.15023167925048
30
0
41
1
10
-2.19999999999999
20
-2.28287741514001
30
0
41
1
10
-2.19999999999999
20
-2.41523552035437
30
0
41
1
10
-2.19999999999999
20
-2.54729563151926
30
0
41
1
10
-2.19999999999999
20
-2.67904893291683
30
0
41
1
10
-2.19999999999999
20
-2.81048648769612
30
0
41
1
10
-2.19999999999999
20
-2.94160047796311
30
0
41
1
10
-2.19999999999999
20
-3.072383622975
30
0
41
1
10
-2.19999999999999
20
-3.24629481975686
30
0
41
1
10
-2.19999999999999
20
-3.41956370437865
30
0
41
1
10
-2.19999999999999
20
-3.59207750684843
30
0
41
1
10
-2.19999999999999
20
-3.72111343644576
30
0
41
1
10
-2.19999999999999
20
-3.84978439330678
30
0
41
1
10
-2.19999999999999
20
-4.020839617489
30
0
41
1
10
-2.19999999999999
20
-4.23375654375474
30
0
41
1
10
-2.19999999999999
20
-4.44540775759583
30
0
41
1
10
-2.19999999999999
20
-4.61393371339872
30
0
41
1
10
-2.19999999999999
20
-4.73994907984499
30
0
41
1
10
-2.19999999999999
20
-4.86557359653659
30
0
41
1
10
-2.19999999999999
20
-5.03253662624778
30
0
41
1
10
-2.19999999999999
20
-5.24027911954084
30
0
41
1
10
-2.19999999999999
20
-5.48796106514416
30
0
41
1
10
-2.19999999999999
20
-5.73403522651989
30
0
41
1
10
-2.19999999999999
20
-5.97849051253721
30
0
41
1
10
-2.19999999999999
20
-6.22131783489101
30
0
41
1
10
-2.19999999999999
20
-6.46250917346816
30
0
41
1
10
-2.19999999999999
20
-6.70205756880287
30
0
41
1
10
-2.19999999999999
20
-6.93995689241024
30
0
41
1
10
-2.19999999999999
20
-7.17620223308296
30
0
41
1
10
-2.19999999999999
20
-7.41078904293681
30
0
41
1
10
-2.19999999999999
20
-7.64371312168015
30
0
41
1
10
-2.19999999999999
20
-7.87497052861914
30
0
41
1
10
-2.19999999999999
20
-8.10455846042146
30
0
41
1
10
-2.19999999999999
20
-8.33247384441506
30
0
41
1
10
-2.19999999999999
20
-8.55871423477029
30
0
41
1
10
-2.19999999999999
20
-8.78327691067398
30
0
41
1
10
-2.19999999999999
20
-9.08043846702645
30
0
41
1
10
-2.19999999999999
20
-9.44771866001565
30
0
41
1
10
-2.19999999999999
20
-9.88169305528194
30
0
41
1
10
-2.19999999999999
20
-10.2377183913447
30
0
41
1
10
-2.19999999999999
20
-10.5191258633122
30
0
41
1
10
-2.19999999999999
20
-10.7284951094206
30
0
41
1
10
-2.19999999999999
20
-10.9361655882296
30
0
41
1
10
-2.19999999999999
20
-11.1421359694817
30
0
41
1
10
-2.19999999999999
20
-11.3464032666245
30
0
41
1
10
-2.19999999999999
20
-11.5489655840494
30
0
41
1
10
-2.19999999999999
20
-11.7498207382014
30
0
41
1
10
-2.19999999999999
20
-12.015335258712
30
0
41
1
10
-2.19999999999999
20
-12.277459839655
30
0
41
1
10
-2.19999999999999
20
-12.5361142561418
30
0
41
1
10
-2.19999999999999
20
-12.7283927892775
30
0
41
1
10
-2.19999999999999
20
-12.9189467887917
30
0
41
1
10
-2.19999999999999
20
-13.1077737445537
30
0
41
1
10
-2.19999999999999
20
-13.2948705838035
30
0
41
1
10
-2.19999999999999
20
-13.4802328404438
30
0
41
1
10
-2.19999999999999
20
-13.6638579908945
30
0
41
1
10
-2.19999999999999
20
-13.845742035678
30
0
41
1
10
-2.19999999999999
20
-14.0258803815961
30
0
41
1
10
-2.19999999999999
20
-14.2042701267483
30
0
41
1
10
-2.19999999999999
20
-14.3809064511142
30
0
41
1
10
-2.19999999999999
20
-14.61406817927
30
0
41
1
10
-2.19999999999999
20
-14.8437340716545
30
0
41
1
10
-2.19999999999999
20
-15.069828938707
30
0
41
1
10
-2.19999999999999
20
-15.2935559429894
30
0
41
1
10
-2.19999999999999
20
-15.513744330902
30
0
41
1
10
-2.19999999999999
20
-15.7303232767805
30
0
41
1
10
-2.19999999999999
20
-15.8909649274654
30
0
41
1
10
-2.19999999999999
20
-16.0498023362736
30
0
41
1
10
-2.19999999999999
20
-16.2591647559547
30
0
41
1
10
-2.19999999999999
20
-16.4649171124643
30
0
41
1
10
-2.19999999999999
20
-16.666987304737
30
0
41
1
10
-2.19999999999999
20
-16.8167085043733
30
0
41
1
10
-2.19999999999999
20
-16.9645862898264
30
0
41
1
10
-2.19999999999999
20
-17.1592828976246
30
0
41
1
10
-2.19999999999999
20
-17.3502835148979
30
0
41
1
10
-2.19999999999999
20
-17.5375147595292
30
0
41
1
10
-2.19999999999999
20
-17.676060438985
30
0
41
1
10
-2.19999999999999
20
-17.8127154575359
30
0
41
1
10
-2.19999999999999
20
-17.9923842415009
30
0
41
1
10
-2.19999999999999
20
-18.1682547291306
30
0
41
1
10
-2.19999999999999
20
-18.3402522143585
30
0
41
1
10
-2.19999999999999
20
-18.4673177032107
30
0
41
1
10
-2.19999999999999
20
-18.5924361073221
30
0
41
1
10
-2.19999999999999
20
-18.7566457425986
30
0
41
1
10
-2.19999999999999
20
-18.9169371900015
30
0
41
1
10
-2.19999999999999
20
-19.0732305996174
30
0
41
1
10
-2.19999999999999
20
-19.1884526890887
30
0
41
1
10
-2.19999999999999
20
-19.3016611759423
30
0
41
1
10
-2.19999999999999
20
-19.4499005391959
30
0
41
1
10
-2.19999999999999
20
-19.5940785255289
30
0
41
1
10
-2.19999999999999
20
-19.7341104289282
30
0
41
1
10
-2.19999999999999
20
-19.8370589164793
30
0
41
1
10
-2.19999999999999
20
-19.9379146863563
30
0
41
1
10
-2.19999999999999
20
-20.0366640227898
30
0
41
1
10
-2.19999999999999
20
-20.133289903145
30
0
41
1
10
-2.19999999999999
20
-20.2277776697998
30
0
41
1
10
-2.19999999999999
20
-20.3201119082527
30
0
41
1
10
-2.19999999999999
20
-20.4102747220553
30
0
41
1
10
-2.19999999999999
20
-20.4982502752196
30
0
41
1
10
-2.19999999999999
20
-20.5840212474559
30
0
41
1
10
-2.19999999999999
20
-20.6675682022903
30
0
41
1
10
-2.19999999999999
20
-20.7488739108727
30
0
41
1
10
-2.19999999999999
20
-20.82791883753
30
0
41
1
10
-2.19999999999999
20
-20.9302657657864
30
0
41
1
10
-2.19999999999999
20
-21.0280237880878
30
0
41
1
10
-2.19999999999999
20
-21.1210800961781
30
0
41
1
10
-2.19999999999999
20
-21.1885090211437
30
0
41
1
10
-2.19999999999999
20
-21.2535469320083
30
0
41
1
10
-2.19999999999999
20
-21.3161704250344
30
0
41
1
10
-2.19999999999999
20
-21.3763547664481
30
0
41
1
10
-2.19999999999999
20
-21.4533087676779
30
0
41
1
10
-2.19999999999999
20
-21.5252891448141
30
0
41
1
10
-2.19999999999999
20
-21.5921615531195
30
0
41
1
10
-2.19999999999999
20
-21.6397397916631
30
0
41
1
10
-2.19999999999999
20
-21.6847072964973
30
0
41
1
10
-2.19999999999999
20
-21.7411389990572
30
0
41
1
10
-2.19999999999999
20
-21.7922265879071
30
0
41
1
10
-2.19999999999999
20
-21.8378144981283
30
0
41
1
10
-2.19999999999999
20
-21.8692221254414
30
0
41
1
10
-2.19999999999999
20
-21.8978063777089
30
0
41
1
10
-2.19999999999999
20
-21.9235254752891
30
0
41
1
10
-2.19999999999999
20
-21.9463373508774
30
0
41
1
10
-2.19999999999999
20
-21.9661972037607
30
0
41
1
10
-2.19999999999999
20
-21.9830583809744
30
0
41
1
10
-2.19999999999999
20
-21.9968726399857
30
0
41
1
10
-2.19999999999999
20
-22.0069599983688
30
0
41
1
10
-2.19999999999999
20
-22.0117281271942
30
0
41
1
10
-2.19999999999999
20
-22.0135203346386
30
0
0
SPLINE
5
18D
100
AcDbEntity
8
SK1
62
256
6
ByLayer
370
18
48
1
60
0
100
AcDbSpline
70
4
71
3
72
303
73
299
40
0
40
0
40
0
40
0
40
0.0005133380772142
40
0.0040062544634589
40
0.0074991708497036
40
0.0109920872359483
40
0.0144850036221931
40
0.0179779200084378
40
0.0214708363946825
40
0.0249637527809273
40
0.028456669167172
40
0.0319495855534167
40
0.0389354183259062
40
0.0459212510983956
40
0.052907083870885
40
0.0564000002571298
40
0.0598929166433745
40
0.0633858330296192
40
0.0668787494158639
40
0.0738645821883534
40
0.0773574985745981
40
0.0808504149608429
40
0.0843433313470876
40
0.0878362477333323
40
0.091329164119577
40
0.0948220805058217
40
0.101807913278311
40
0.105300829664556
40
0.108793746050801
40
0.112286662437045
40
0.11577957882329
40
0.119272495209535
40
0.12276541159578
40
0.126258327982024
40
0.129751244368269
40
0.133244160754514
40
0.136737077140758
40
0.140229993527003
40
0.143722909913248
40
0.147215826299493
40
0.150708742685737
40
0.157694575458227
40
0.161187491844472
40
0.164680408230716
40
0.166426866423839
40
0.168173324616961
40
0.171666241003206
40
0.178652073775695
40
0.18214499016194
40
0.185637906548184
40
0.189130822934429
40
0.192623739320674
40
0.199609572093163
40
0.203102488479408
40
0.206595404865653
40
0.208341863058775
40
0.210088321251898
40
0.213581237638142
40
0.220567070410632
40
0.224059986796877
40
0.227552903183121
40
0.231045819569366
40
0.234538735955611
40
0.2415245687281
40
0.245017485114345
40
0.24851040150059
40
0.250256859693712
40
0.252003317886834
40
0.255496234273079
40
0.258989150659324
40
0.262482067045568
40
0.264228525238691
40
0.265974983431813
40
0.269467899818058
40
0.272960816204303
40
0.276453732590548
40
0.279946648976792
40
0.283439565363037
40
0.286932481749282
40
0.290425398135526
40
0.293918314521771
40
0.297411230908016
40
0.300904147294261
40
0.304397063680505
40
0.30788998006675
40
0.311382896452995
40
0.314875812839239
40
0.318368729225484
40
0.325354561997974
40
0.328847478384218
40
0.332340394770463
40
0.335833311156708
40
0.339326227542953
40
0.342819143929197
40
0.346312060315442
40
0.349804976701687
40
0.353297893087932
40
0.360283725860421
40
0.36726955863291
40
0.3742553914054
40
0.377748307791644
40
0.381241224177889
40
0.384734140564134
40
0.388227056950379
40
0.391719973336623
40
0.395212889722868
40
0.398705806109113
40
0.402198722495358
40
0.405691638881602
40
0.409184555267847
40
0.412677471654092
40
0.416170388040337
40
0.419663304426581
40
0.423156220812826
40
0.426649137199071
40
0.430142053585315
40
0.43363496997156
40
0.435381428164683
40
0.437127886357805
40
0.438874344550927
40
0.44062080274405
40
0.444113719130294
40
0.447606635516539
40
0.449353093709661
40
0.451099551902784
40
0.452846010095906
40
0.454592468289029
40
0.458085384675273
40
0.459831842868396
40
0.461578301061518
40
0.46332475925464
40
0.465071217447763
40
0.466817675640885
40
0.468564133834007
40
0.47031059202713
40
0.472057050220252
40
0.473803508413374
40
0.475549966606497
40
0.477296424799619
40
0.479042882992742
40
0.480789341185864
40
0.482535799378986
40
0.484282257572109
40
0.486028715765231
40
0.487775173958354
40
0.489521632151476
40
0.491268090344598
40
0.49301454853772
40
0.494761006730843
40
0.496507464923965
40
0.498253923117088
40
0.50000038131021
40
0.501746839503332
40
0.503493297696455
40
0.505239755889577
40
0.506986214082699
40
0.508732672275822
40
0.510479130468944
40
0.512225588662066
40
0.513972046855189
40
0.515718505048311
40
0.517464963241433
40
0.519211421434556
40
0.520957879627678
40
0.522704337820801
40
0.524450796013923
40
0.526197254207045
40
0.527943712400168
40
0.52969017059329
40
0.531436628786412
40
0.533183086979535
40
0.534929545172657
40
0.536676003365779
40
0.538422461558902
40
0.540168919752024
40
0.541915377945146
40
0.545408294331391
40
0.547154752524514
40
0.548901210717636
40
0.550647668910759
40
0.552394127103881
40
0.555887043490126
40
0.55937995987637
40
0.561126418069493
40
0.562872876262615
40
0.564619334455738
40
0.56636579264886
40
0.569858709035105
40
0.573351625421349
40
0.576844541807594
40
0.580337458193839
40
0.583830374580083
40
0.587323290966328
40
0.590816207352573
40
0.594309123738818
40
0.597802040125062
40
0.601294956511307
40
0.604787872897552
40
0.608280789283796
40
0.611773705670041
40
0.615266622056286
40
0.618759538442531
40
0.622252454828775
40
0.62574537121502
40
0.63273120398751
40
0.639717036759999
40
0.646702869532488
40
0.650195785918733
40
0.653688702304978
40
0.657181618691223
40
0.660674535077468
40
0.664167451463712
40
0.667660367849957
40
0.671153284236201
40
0.674646200622446
40
0.681632033394936
40
0.68512494978118
40
0.688617866167425
40
0.69211078255367
40
0.695603698939915
40
0.69909661532616
40
0.702589531712404
40
0.706082448098649
40
0.709575364484894
40
0.713068280871138
40
0.716561197257383
40
0.720054113643628
40
0.723547030029872
40
0.730532862802362
40
0.734025779188607
40
0.737518695574851
40
0.744504528347341
40
0.747997444733586
40
0.75149036111983
40
0.754983277506075
40
0.75847619389232
40
0.765462026664809
40
0.768954943051054
40
0.772447859437299
40
0.775940775823543
40
0.779433692209788
40
0.786419524982278
40
0.789912441368522
40
0.793405357754767
40
0.796898274141012
40
0.800391190527256
40
0.807377023299746
40
0.81086993968599
40
0.814362856072235
40
0.81785577245848
40
0.821348688844725
40
0.828334521617214
40
0.831827438003459
40
0.835320354389704
40
0.838813270775949
40
0.842306187162193
40
0.849292019934683
40
0.852784936320927
40
0.856277852707172
40
0.859770769093417
40
0.863263685479661
40
0.866756601865906
40
0.870249518252151
40
0.873742434638396
40
0.87723535102464
40
0.880728267410885
40
0.88422118379713
40
0.887714100183375
40
0.891207016569619
40
0.894699932955864
40
0.898192849342109
40
0.905178682114598
40
0.908671598500843
40
0.912164514887088
40
0.915657431273332
40
0.919150347659577
40
0.922643264045822
40
0.926136180432067
40
0.933122013204556
40
0.936614929590801
40
0.940107845977045
40
0.94360076236329
40
0.947093678749535
40
0.954079511522025
40
0.957572427908269
40
0.961065344294514
40
0.964558260680759
40
0.968051177067003
40
0.971544093453248
40
0.975037009839493
40
0.978529926225738
40
0.982022842611982
40
0.985515758998227
40
0.989008675384472
40
0.992501591770716
40
0.995994508156961
40
0.999487424543206
40
1
40
1
40
1
40
1
41
1
10
-36.5
20
21.1555776134445
30
0
41
1
10
-36.5
20
21.155785824881
30
0
41
1
10
-36.5
20
21.15731915214
30
0
41
1
10
-36.5
20
21.1588544331657
30
0
41
1
10
-36.5
20
21.1578038223016
30
0
41
1
10
-36.5
20
21.1536126358382
30
0
41
1
10
-36.5
20
21.1463317213717
30
0
41
1
10
-36.5
20
21.1360112678938
30
0
41
1
10
-36.5
20
21.1226986497682
30
0
41
1
10
-36.5
20
21.1064402158535
30
0
41
1
10
-36.5
20
21.0872797426226
30
0
41
1
10
-36.5
20
21.0578537406018
30
0
41
1
10
-36.5
20
21.0141777773224
30
0
41
1
10
-36.5
20
20.950713074722
30
0
41
1
10
-36.5
20
20.8890285612071
30
0
41
1
10
-36.5
20
20.8342802658871
30
0
41
1
10
-36.5
20
20.7907267804185
30
0
41
1
10
-36.5
20
20.7446291690672
30
0
41
1
10
-36.5
20
20.6796864194097
30
0
41
1
10
-36.5
20
20.6101652524536
30
0
41
1
10
-36.5
20
20.5353747251341
30
0
41
1
10
-36.5
20
20.4769783324059
30
0
41
1
10
-36.5
20
20.4161995895793
30
0
41
1
10
-36.5
20
20.3530628196555
30
0
41
1
10
-36.5
20
20.2875896826626
30
0
41
1
10
-36.5
20
20.1970436182683
30
0
41
1
10
-36.5
20
20.1024192722933
30
0
41
1
10
-36.5
20
20.0027815031752
30
0
41
1
10
-36.5
20
19.9259535572617
30
0
41
1
10
-36.5
20
19.8469141355251
30
0
41
1
10
-36.5
20
19.7656833730651
30
0
41
1
10
-36.5
20
19.6822775189499
30
0
41
1
10
-36.5
20
19.5967148149262
30
0
41
1
10
-36.5
20
19.5090135394173
30
0
41
1
10
-36.5
20
19.4191882696517
30
0
41
1
10
-36.5
20
19.3272561697677
30
0
41
1
10
-36.5
20
19.2332338822713
30
0
41
1
10
-36.5
20
19.1371346902893
30
0
41
1
10
-36.5
20
19.0389746878943
30
0
41
1
10
-36.5
20
18.9387689752275
30
0
41
1
10
-36.5
20
18.8022215100789
30
0
41
1
10
-36.5
20
18.6623317385554
30
0
41
1
10
-36.5
20
18.5177544284038
30
0
41
1
10
-36.5
20
18.4260133905722
30
0
41
1
10
-36.5
20
18.3514175898237
30
0
41
1
10
-36.5
20
18.2761667145511
30
0
41
1
10
-36.5
20
18.1428549391526
30
0
41
1
10
-36.5
20
17.987269645424
30
0
41
1
10
-36.5
20
17.8270700659299
30
0
41
1
10
-36.5
20
17.705205542109
30
0
41
1
10
-36.5
20
17.5814423770725
30
0
41
1
10
-36.5
20
17.4136311437529
30
0
41
1
10
-36.5
20
17.2428939764416
30
0
41
1
10
-36.5
20
17.0675963011876
30
0
41
1
10
-36.5
20
16.9568152899196
30
0
41
1
10
-36.5
20
16.867008999151
30
0
41
1
10
-36.5
20
16.7765898513273
30
0
41
1
10
-36.5
20
16.6168596157572
30
0
41
1
10
-36.5
20
16.4314438788638
30
0
41
1
10
-36.5
20
16.2414991337765
30
0
41
1
10
-36.5
20
16.097474719741
30
0
41
1
10
-36.5
20
15.9516616651348
30
0
41
1
10
-36.5
20
15.7545445351489
30
0
41
1
10
-36.5
20
15.5548613446891
30
0
41
1
10
-36.5
20
15.350663385132
30
0
41
1
10
-36.5
20
15.2219600388738
30
0
41
1
10
-36.5
20
15.1178164480938
30
0
41
1
10
-36.5
20
15.0130920883853
30
0
41
1
10
-36.5
20
14.8814910451208
30
0
41
1
10
-36.5
20
14.7216281332594
30
0
41
1
10
-36.5
20
14.5871530954062
30
0
41
1
10
-36.5
20
14.4783873813363
30
0
41
1
10
-36.5
20
14.3690494022437
30
0
41
1
10
-36.5
20
14.2317235183089
30
0
41
1
10
-36.5
20
14.0650028858775
30
0
41
1
10
-36.5
20
13.8965816080865
30
0
41
1
10
-36.5
20
13.7264689694465
30
0
41
1
10
-36.5
20
13.5546710496343
30
0
41
1
10
-36.5
20
13.3811910773122
30
0
41
1
10
-36.5
20
13.2060373742644
30
0
41
1
10
-36.5
20
13.0292149133303
30
0
41
1
10
-36.5
20
12.850728177302
30
0
41
1
10
-36.5
20
12.6705857874604
30
0
41
1
10
-36.5
20
12.4887914218501
30
0
41
1
10
-36.5
20
12.3053503484466
30
0
41
1
10
-36.5
20
12.1202706879328
30
0
41
1
10
-36.5
20
11.9335555855444
30
0
41
1
10
-36.5
20
11.6819759204348
30
0
41
1
10
-36.5
20
11.4285505376587
30
0
41
1
10
-36.5
20
11.1704660874499
30
0
41
1
10
-36.5
20
10.9756651586938
30
0
41
1
10
-36.5
20
10.7792636737398
30
0
41
1
10
-36.5
20
10.5812696725585
30
0
41
1
10
-36.5
20
10.3816871154457
30
0
41
1
10
-36.5
20
10.180523710493
30
0
41
1
10
-36.5
20
9.9777855843503
30
0
41
1
10
-36.5
20
9.70483576808863
30
0
41
1
10
-36.5
20
9.36101276272154
30
0
41
1
10
-36.5
20
8.94153438933262
30
0
41
1
10
-36.5
20
8.58745787193689
30
0
41
1
10
-36.5
20
8.30004464023602
30
0
41
1
10
-36.5
20
8.08346950394392
30
0
41
1
10
-36.5
20
7.86540102208474
30
0
41
1
10
-36.5
20
7.64585131899614
30
0
41
1
10
-36.5
20
7.42483318088833
30
0
41
1
10
-36.5
20
7.20235735193418
30
0
41
1
10
-36.5
20
6.97843755879967
30
0
41
1
10
-36.5
20
6.75308981071325
30
0
41
1
10
-36.5
20
6.52633035082275
30
0
41
1
10
-36.5
20
6.29817753233076
30
0
41
1
10
-36.5
20
6.06865022444896
30
0
41
1
10
-36.5
20
5.83776884649418
30
0
41
1
10
-36.5
20
5.60555660448861
30
0
41
1
10
-36.5
20
5.37203985998678
30
0
41
1
10
-36.5
20
5.13724579696884
30
0
41
1
10
-36.5
20
4.90120595303733
30
0
41
1
10
-36.5
20
4.70396583147405
30
0
41
1
10
-36.5
20
4.54469638576828
30
0
41
1
10
-36.5
20
4.42533999597057
30
0
41
1
10
-36.5
20
4.30569972295402
30
0
41
1
10
-36.5
20
4.14529336499854
30
0
41
1
10
-36.5
20
3.94531865595207
30
0
41
1
10
-36.5
20
3.74444957084984
30
0
41
1
10
-36.5
20
3.58224076117995
30
0
41
1
10
-36.5
20
3.46078958963511
30
0
41
1
10
-36.5
20
3.33910702605107
30
0
41
1
10
-36.5
20
3.17597085922344
30
0
41
1
10
-36.5
20
3.01425651604552
30
0
41
1
10
-36.5
20
2.85023149996007
30
0
41
1
10
-36.5
20
2.72752154931175
30
0
41
1
10
-36.5
20
2.60463052157442
30
0
41
1
10
-36.5
20
2.48157378937663
30
0
41
1
10
-36.5
20
2.35835621123036
30
0
41
1
10
-36.5
20
2.23499061660055
30
0
41
1
10
-36.5
20
2.11148761081347
30
0
41
1
10
-36.5
20
1.9878545152765
30
0
41
1
10
-36.5
20
1.86410632124097
30
0
41
1
10
-36.5
20
1.74024827700825
30
0
41
1
10
-36.5
20
1.61629526151512
30
0
41
1
10
-36.5
20
1.49225310041959
30
0
41
1
10
-36.5
20
1.3681347814894
30
0
41
1
10
-36.5
20
1.2439473222278
30
0
41
1
10
-36.5
20
1.11970117534864
30
0
41
1
10
-36.5
20
0.995403485642782
30
0
41
1
10
-36.5
20
0.8710629170684
30
0
41
1
10
-36.5
20
0.746686102657719
30
0
41
1
10
-36.5
20
0.622280124115576
30
0
41
1
10
-36.5
20
0.497850420758397
30
0
41
1
10
-36.5
20
0.373402935182185
30
0
41
1
10
-36.5
20
0.248942238793177
30
0
41
1
10
-36.5
20
0.124473257200918
30
0
41
1
10
-36.5
20
9.2462358E-09
30
0
41
1
10
-36.5
20
-0.124473254673973
30
0
41
1
10
-36.5
20
-0.248942266430618
30
0
41
1
10
-36.5
20
-0.373402960091397
30
0
41
1
10
-36.5
20
-0.497850400790554
30
0
41
1
10
-36.5
20
-0.622280094010847
30
0
41
1
10
-36.5
20
-0.746686131491799
30
0
41
1
10
-36.5
20
-0.871062970095124
30
0
41
1
10
-36.5
20
-0.995403468230791
30
0
41
1
10
-36.5
20
-1.11970111692671
30
0
41
1
10
-36.5
20
-1.2439473407681
30
0
41
1
10
-36.5
20
-1.36813486147517
30
0
41
1
10
-36.5
20
-1.49225310642996
30
0
41
1
10
-36.5
20
-1.61629518356963
30
0
41
1
10
-36.5
20
-1.74024825464127
30
0
41
1
10
-36.5
20
-1.86410640329151
30
0
41
1
10
-36.5
20
-1.98785458048855
30
0
41
1
10
-36.5
20
-2.11148756075909
30
0
41
1
10
-36.5
20
-2.2349905278607
30
0
41
1
10
-36.5
20
-2.3583562279822
30
0
41
1
10
-36.5
20
-2.48157389743915
30
0
41
1
10
-36.5
20
-2.60463057106841
30
0
41
1
10
-36.5
20
-2.72752148004804
30
0
41
1
10
-36.5
20
-2.8502314065623
30
0
41
1
10
-36.5
20
-3.01425656877106
30
0
41
1
10
-36.5
20
-3.17597095993784
30
0
41
1
10
-36.5
20
-3.33910698167958
30
0
41
1
10
-36.5
20
-3.46078948211164
30
0
41
1
10
-36.5
20
-3.58224072191865
30
0
41
1
10
-36.5
20
-3.74444967050349
30
0
41
1
10
-36.5
20
-3.94531869048151
30
0
41
1
10
-36.5
20
-4.14529326648051
30
0
41
1
10
-36.5
20
-4.30569969171859
30
0
41
1
10
-36.5
20
-4.42534006396792
30
0
41
1
10
-36.5
20
-4.54469650094606
30
0
41
1
10
-36.5
20
-4.70396584910503
30
0
41
1
10
-36.5
20
-4.90120586463618
30
0
41
1
10
-36.5
20
-5.1372458114655
30
0
41
1
10
-36.5
20
-5.37203995090806
30
0
41
1
10
-36.5
20
-5.6055565552935
30
0
41
1
10
-36.5
20
-5.83776875015036
30
0
41
1
10
-36.5
20
-6.06865017711209
30
0
41
1
10
-36.5
20
-6.29817748211653
30
0
41
1
10
-36.5
20
-6.52633051401983
30
0
41
1
10
-36.5
20
-6.75309051279777
30
0
41
1
10
-36.5
20
-6.97843834484934
30
0
41
1
10
-36.5
20
-7.20235684280951
30
0
41
1
10
-36.5
20
-7.42483229470756
30
0
41
1
10
-36.5
20
-7.64585158611578
30
0
41
1
10
-36.5
20
-7.86540128403743
30
0
41
1
10
-36.5
20
-8.08346945831602
30
0
41
1
10
-36.5
20
-8.3000445299389
30
0
41
1
10
-36.5
20
-8.58745782596952
30
0
41
1
10
-36.5
20
-8.94153442741853
30
0
41
1
10
-36.5
20
-9.36101273737586
30
0
41
1
10
-36.5
20
-9.70483575174822
30
0
41
1
10
-36.5
20
-9.97778564072317
30
0
41
1
10
-36.5
20
-10.18052371466
30
0
41
1
10
-36.5
20
-10.3816870614505
30
0
41
1
10
-36.5
20
-10.5812696339219
30
0
41
1
10
-36.5
20
-10.7792636942327
30
0
41
1
10
-36.5
20
-10.9756652058486
30
0
41
1
10
-36.5
20
-11.1704660987636
30
0
41
1
10
-36.5
20
-11.4285504962004
30
0
41
1
10
-36.5
20
-11.6819759007756
30
0
41
1
10
-36.5
20
-11.9335556252714
30
0
41
1
10
-36.5
20
-12.1202707134412
30
0
41
1
10
-36.5
20
-12.3053503320752
30
0
41
1
10
-36.5
20
-12.4887913848281
30
0
41
1
10
-36.5
20
-12.6705857704289
30
0
41
1
10
-36.5
20
-12.8507281979538
30
0
41
1
10
-36.5
20
-13.0292149436136
30
0
41
1
10
-36.5
20
-13.2060373895955
30
0
41
1
10
-36.5
20
-13.3811911431361
30
0
41
1
10
-36.5
20
-13.5546713888901
30
0
41
1
10
-36.5
20
-13.7264696827893
30
0
41
1
10
-36.5
20
-13.9536769173599
30
0
41
1
10
-36.5
20
-14.176348576809
30
0
41
1
10
-36.5
20
-14.3967384349213
30
0
41
1
10
-36.5
20
-14.6148460432235
30
0
41
1
10
-36.5
20
-14.8284315021107
30
0
41
1
10
-36.5
20
-15.0396227184095
30
0
41
1
10
-36.5
20
-15.1960147192182
30
0
41
1
10
-36.5
20
-15.3506631330603
30
0
41
1
10
-36.5
20
-15.5548624364723
30
0
41
1
10
-36.5
20
-15.7545451164335
30
0
41
1
10
-36.5
20
-15.9516609547094
30
0
41
1
10
-36.5
20
-16.0974737380165
30
0
41
1
10
-36.5
20
-16.241498813278
30
0
41
1
10
-36.5
20
-16.4314450331352
30
0
41
1
10
-36.5
20
-16.6168608854212
30
0
41
1
10
-36.5
20
-16.7995343923805
30
0
41
1
10
-36.5
20
-16.9344844206004
30
0
41
1
10
-36.5
20
-17.0675955495037
30
0
41
1
10
-36.5
20
-17.2428947983014
30
0
41
1
10
-36.5
20
-17.4136313821348
30
0
41
1
10
-36.5
20
-17.5814422063202
30
0
41
1
10
-36.5
20
-17.7052052466277
30
0
41
1
10
-36.5
20
-17.827069915531
30
0
41
1
10
-36.5
20
-17.9872703841193
30
0
41
1
10
-36.5
20
-18.1428562465544
30
0
41
1
10
-36.5
20
-18.2953166794047
30
0
41
1
10
-36.5
20
-18.4075180436267
30
0
41
1
10
-36.5
20
-18.5177535555592
30
0
41
1
10
-36.5
20
-18.6623326618876
30
0
41
1
10
-36.5
20
-18.8022222651529
30
0
41
1
10
-36.5
20
-18.9387686023437
30
0
41
1
10
-36.5
20
-19.0389739868785
30
0
41
1
10
-36.5
20
-19.1371342717784
30
0
41
1
10
-36.5
20
-19.2332339353276
30
0
41
1
10
-36.5
20
-19.3272562516113
30
0
41
1
10
-36.5
20
-19.4191882978898
30
0
41
1
10
-36.5
20
-19.5090135437133
30
0
41
1
10
-36.5
20
-19.5967148362678
30
0
41
1
10
-36.5
20
-19.6822775521962
30
0
41
1
10
-36.5
20
-19.7656833992675
30
0
41
1
10
-36.5
20
-19.8469141406672
30
0
41
1
10
-36.5
20
-19.9259535527381
30
0
41
1
10
-36.5
20
-20.0027815100322
30
0
41
1
10
-36.5
20
-20.1024193061391
30
0
41
1
10
-36.5
20
-20.1970436522849
30
0
41
1
10
-36.5
20
-20.287589681624
30
0
41
1
10
-36.5
20
-20.353062816238
30
0
41
1
10
-36.5
20
-20.4161996091986
30
0
41
1
10
-36.5
20
-20.4769783724375
30
0
41
1
10
-36.5
20
-20.5353747607017
30
0
41
1
10
-36.5
20
-20.6101652553123
30
0
41
1
10
-36.5
20
-20.6796864153796
30
0
41
1
10
-36.5
20
-20.7446292080422
30
0
41
1
10
-36.5
20
-20.7907268231738
30
0
41
1
10
-36.5
20
-20.8342802793506
30
0
41
1
10
-36.5
20
-20.8890285523336
30
0
41
1
10
-36.5
20
-20.9382580424269
30
0
41
1
10
-36.5
20
-20.9824409225429
30
0
41
1
10
-36.5
20
-21.0128017234864
30
0
41
1
10
-36.5
20
-21.0404207944711
30
0
41
1
10
-36.5
20
-21.0652596303332
30
0
41
1
10
-36.5
20
-21.0872797892674
30
0
41
1
10
-36.5
20
-21.1064402531507
30
0
41
1
10
-36.5
20
-21.1226986516191
30
0
41
1
10
-36.5
20
-21.1360112646484
30
0
41
1
10
-36.5
20
-21.1463317710584
30
0
41
1
10
-36.5
20
-21.1536128319466
30
0
41
1
10
-36.5
20
-21.1578041644649
30
0
41
1
10
-36.5
20
-21.1588543296933
30
0
41
1
10
-36.5
20
-21.1573189701505
30
0
41
1
10
-36.5
20
-21.1557860248443
30
0
41
1
10
-36.5
20
-21.1555781530987
30
0
0
SPLINE
5
18E
100
AcDbEntity
8
SK1
62
256
6
ByLayer
370
18
48
1
60
0
100
AcDbSpline
70
4
71
3
72
111
73
107
40
0
40
0
40
0
40
0
40
0.0023113641646872
40
0.0108556432599534
40
0.0193999223552195
40
0.0279442014504857
40
0.0364884805457518
40
0.045032759641018
40
0.0535770387362841
40
0.0621213178315503
40
0.0706655969268164
40
0.0792098760220826
40
0.0877541551173487
40
0.0962984342126149
40
0.113386992403147
40
0.130475550593679
40
0.147564108784212
40
0.156108387879478
40
0.164652666974744
40
0.17319694607001
40
0.181741225165276
40
0.190285504260543
40
0.198829783355809
40
0.207374062451075
40
0.215918341546341
40
0.233006899736873
40
0.24155117883214
40
0.250095457927406
40
0.258639737022672
40
0.267184016117938
40
0.275728295213204
40
0.28427257430847
40
0.292816853403736
40
0.301361132499002
40
0.309905411594269
40
0.318449690689535
40
0.326993969784801
40
0.335538248880067
40
0.3526268070706
40
0.361171086165866
40
0.369715365261132
40
0.386803923451664
40
0.39534820254693
40
0.403892481642196
40
0.412436760737463
40
0.420981039832729
40
0.438069598023261
40
0.446613877118527
40
0.455158156213793
40
0.46370243530906
40
0.472246714404326
40
0.489335272594858
40
0.497879551690124
40
0.50642383078539
40
0.514968109880656
40
0.523512388975923
40
0.540600947166455
40
0.549145226261721
40
0.557689505356987
40
0.566233784452253
40
0.574778063547519
40
0.591866621738052
40
0.600410900833318
40
0.608955179928584
40
0.61749945902385
40
0.626043738119116
40
0.643132296309649
40
0.651676575404915
40
0.660220854500181
40
0.668765133595447
40
0.677309412690713
40
0.685853691785979
40
0.694397970881246
40
0.702942249976512
40
0.711486529071778
40
0.720030808167044
40
0.72857508726231
40
0.737119366357576
40
0.745663645452842
40
0.754207924548109
40
0.762752203643375
40
0.779840761833907
40
0.788385040929173
40
0.79692932002444
40
0.805473599119706
40
0.814017878214972
40
0.822562157310238
40
0.831106436405504
40
0.848194994596036
40
0.856739273691303
40
0.865283552786569
40
0.873827831881835
40
0.882372110977101
40
0.899460669167633
40
0.908004948262899
40
0.916549227358166
40
0.925093506453432
40
0.933637785548698
40
0.942182064643964
40
0.95072634373923
40
0.959270622834496
40
0.967814901929762
40
0.976359181025029
40
0.984903460120295
40
0.993447739215561
40
1
40
1
40
1
40
1
41
1
10
-0.394976888875277
20
-6.32694279392976
30
0
41
1
10
-0.394976888875277
20
-6.3484916311391
30
0
41
1
10
-0.394976888875277
20
-6.44960775400912
30
0
41
1
10
-0.394976888875277
20
-6.62954555948869
30
0
41
1
10
-0.394976888875277
20
-6.8656950488801
30
0
41
1
10
-0.394976888875277
20
-7.10023740586411
30
0
41
1
10
-0.394976888875277
20
-7.33316546385933
30
0
41
1
10
-0.394976888875277
20
-7.56447269448574
30
0
41
1
10
-0.394976888875277
20
-7.79415340272945
30
0
41
1
10
-0.394976888875277
20
-8.02220293401996
30
0
41
1
10
-0.394976888875277
20
-8.24861635560848
30
0
41
1
10
-0.394976888875277
20
-8.47338951886385
30
0
41
1
10
-0.394976888875277
20
-8.69651811258549
30
0
41
1
10
-0.394976888875277
20
-8.99192948127941
30
0
41
1
10
-0.394976888875277
20
-9.35683912175983
30
0
41
1
10
-0.394976888875277
20
-9.78821091217483
30
0
41
1
10
-0.394976888875277
20
-10.142045462177
30
0
41
1
10
-0.394976888875277
20
-10.4219344727077
30
0
41
1
10
-0.394976888875277
20
-10.6301131683678
30
0
41
1
10
-0.394976888875277
20
-10.8366153667066
30
0
41
1
10
-0.394976888875277
20
-11.0414388905992
30
0
41
1
10
-0.394976888875277
20
-11.2445799004538
30
0
41
1
10
-0.394976888875277
20
-11.4460361162834
30
0
41
1
10
-0.394976888875277
20
-11.6458042976885
30
0
41
1
10
-0.394976888875277
20
-11.9099848253352
30
0
41
1
10
-0.394976888875277
20
-12.1705475695385
30
0
41
1
10
-0.394976888875277
20
-12.4279318067111
30
0
41
1
10
-0.394976888875277
20
-12.6192114874981
30
0
41
1
10
-0.394976888875277
20
-12.8087826250924
30
0
41
1
10
-0.394976888875277
20
-12.9966426041155
30
0
41
1
10
-0.394976888875277
20
-13.182787448996
30
0
41
1
10
-0.394976888875277
20
-13.3672125455487
30
0
41
1
10
-0.394976888875277
20
-13.5499151547097
30
0
41
1
10
-0.394976888875277
20
-13.7308904478326
30
0
41
1
10
-0.394976888875277
20
-13.910133867705
30
0
41
1
10
-0.394976888875277
20
-14.0876421688895
30
0
41
1
10
-0.394976888875277
20
-14.2634098807097
30
0
41
1
10
-0.394976888875277
20
-14.4955025482493
30
0
41
1
10
-0.394976888875277
20
-14.7239127068147
30
0
41
1
10
-0.394976888875277
20
-14.9489833053404
30
0
41
1
10
-0.394976888875277
20
-15.171701411915
30
0
41
1
10
-0.394976888875277
20
-15.3907043201103
30
0
41
1
10
-0.394976888875277
20
-15.6063159613101
30
0
41
1
10
-0.394976888875277
20
-15.7661946363952
30
0
41
1
10
-0.394976888875277
20
-15.9242799594928
30
0
41
1
10
-0.394976888875277
20
-16.1327154012234
30
0
41
1
10
-0.394976888875277
20
-16.3373780173449
30
0
41
1
10
-0.394976888875277
20
-16.5385587125243
30
0
41
1
10
-0.394976888875277
20
-16.6875782011067
30
0
41
1
10
-0.394976888875277
20
-16.8347642769002
30
0
41
1
10
-0.394976888875277
20
-17.0286080073569
30
0
41
1
10
-0.394976888875277
20
-17.2186059445175
30
0
41
1
10
-0.394976888875277
20
-17.4050188999402
30
0
41
1
10
-0.394976888875277
20
-17.5429190217058
30
0
41
1
10
-0.394976888875277
20
-17.6789377757623
30
0
41
1
10
-0.394976888875277
20
-17.8578220601067
30
0
41
1
10
-0.394976888875277
20
-18.0327708145484
30
0
41
1
10
-0.394976888875277
20
-18.2040166330947
30
0
41
1
10
-0.394976888875277
20
-18.3304892054167
30
0
41
1
10
-0.394976888875277
20
-18.4550234389153
30
0
41
1
10
-0.394976888875277
20
-18.6185132745736
30
0
41
1
10
-0.394976888875277
20
-18.7779598884918
30
0
41
1
10
-0.394976888875277
20
-18.933565131357
30
0
41
1
10
-0.394976888875277
20
-19.048244884465
30
0
41
1
10
-0.394976888875277
20
-19.1609196079758
30
0
41
1
10
-0.394976888875277
20
-19.3085018143331
30
0
41
1
10
-0.394976888875277
20
-19.4519098709686
30
0
41
1
10
-0.394976888875277
20
-19.5913159811741
30
0
41
1
10
-0.394976888875277
20
-19.6937719762305
30
0
41
1
10
-0.394976888875277
20
-19.7941438028822
30
0
41
1
10
-0.394976888875277
20
-19.8924174211231
30
0
41
1
10
-0.394976888875277
20
-19.988575861591
30
0
41
1
10
-0.394976888875277
20
-20.082604778142
30
0
41
1
10
-0.394976888875277
20
-20.1744885559187
30
0
41
1
10
-0.394976888875277
20
-20.264209431984
30
0
41
1
10
-0.394976888875277
20
-20.3517517880635
30
0
41
1
10
-0.394976888875277
20
-20.437098129367
30
0
41
1
10
-0.394976888875277
20
-20.5202292348052
30
0
41
1
10
-0.394976888875277
20
-20.6011280559991
30
0
41
1
10
-0.394976888875277
20
-20.6797749513881
30
0
41
1
10
-0.394976888875277
20
-20.781635486227
30
0
41
1
10
-0.394976888875277
20
-20.8788308931333
30
0
41
1
10
-0.394976888875277
20
-20.9714365096391
30
0
41
1
10
-0.394976888875277
20
-21.0385142950144
30
0
41
1
10
-0.394976888875277
20
-21.1032108820957
30
0
41
1
10
-0.394976888875277
20
-21.1655031751743
30
0
41
1
10
-0.394976888875277
20
-21.2253665102307
30
0
41
1
10
-0.394976888875277
20
-21.301932078811
30
0
41
1
10
-0.394976888875277
20
-21.3734709318986
30
0
41
1
10
-0.394976888875277
20
-21.4399968999807
30
0
41
1
10
-0.394976888875277
20
-21.4873093096751
30
0
41
1
10
-0.394976888875277
20
-21.5320229383892
30
0
41
1
10
-0.394976888875277
20
-21.5881524005931
30
0
41
1
10
-0.394976888875277
20
-21.6389063892513
30
0
41
1
10
-0.394976888875277
20
-21.6842420425293
30
0
41
1
10
-0.394976888875277
20
-21.7154617242468
30
0
41
1
10
-0.394976888875277
20
-21.7438726893518
30
0
41
1
10
-0.394976888875277
20
-21.7694337460976
30
0
41
1
10
-0.394976888875277
20
-21.7921034780961
30
0
41
1
10
-0.394976888875277
20
-21.8118377637545
30
0
41
1
10
-0.394976888875277
20
-21.8285907189997
30
0
41
1
10
-0.394976888875277
20
-21.8423149132633
30
0
41
1
10
-0.394976888875277
20
-21.8529599173647
30
0
41
1
10
-0.394976888875277
20
-21.8604739519412
30
0
41
1
10
-0.394976888875306
20
-21.8644655180688
30
0
41
1
10
-0.394976888875249
20
-21.8653271903928
30
0
41
1
10
-0.394976888875249
20
-21.8653787938097
30
0
0
SPLINE
5
18F
100
AcDbEntity
8
SK1
62
256
6
ByLayer
370
18
48
1
60
0
100
AcDbSpline
70
4
71
3
72
115
73
111
40
0
40
0
40
0
40
0
40
0.0065652218970684
40
0.0151093896037393
40
0.0236535573104103
40
0.0321977250170812
40
0.0407418927237522
40
0.0492860604304231
40
0.057830228137094
40
0.066374395843765
40
0.0834627312571069
40
0.100551066670449
40
0.117639402083791
40
0.126183569790462
40
0.134727737497133
40
0.143271905203804
40
0.151816072910474
40
0.168904408323816
40
0.177448576030487
40
0.185992743737158
40
0.194536911443829
40
0.2030810791505
40
0.211625246857171
40
0.220169414563842
40
0.237257749977184
40
0.245801917683855
40
0.254346085390526
40
0.262890253097197
40
0.271434420803868
40
0.279978588510539
40
0.28852275621721
40
0.297066923923881
40
0.305611091630552
40
0.314155259337222
40
0.322699427043893
40
0.331243594750564
40
0.339787762457235
40
0.348331930163906
40
0.356876097870577
40
0.373964433283919
40
0.38250860099059
40
0.391052768697261
40
0.395324852550597
40
0.399596936403932
40
0.408141104110603
40
0.425229439523945
40
0.433773607230616
40
0.442317774937287
40
0.450861942643958
40
0.459406110350629
40
0.476494445763971
40
0.485038613470641
40
0.493582781177313
40
0.497854865030648
40
0.502126948883983
40
0.510671116590654
40
0.527759452003996
40
0.536303619710667
40
0.544847787417338
40
0.553391955124009
40
0.56193612283068
40
0.579024458244022
40
0.587568625950693
40
0.596112793657364
40
0.600384877510699
40
0.604656961364035
40
0.613201129070706
40
0.621745296777377
40
0.630289464484048
40
0.634561548337383
40
0.638833632190719
40
0.64737779989739
40
0.655921967604061
40
0.664466135310732
40
0.673010303017402
40
0.681554470724073
40
0.690098638430744
40
0.698642806137415
40
0.707186973844086
40
0.715731141550757
40
0.724275309257428
40
0.732819476964099
40
0.74136364467077
40
0.749907812377441
40
0.758451980084112
40
0.766996147790783
40
0.784084483204125
40
0.792628650910796
40
0.801172818617467
40
0.809716986324138
40
0.818261154030809
40
0.82680532173748
40
0.83534948944415
40
0.843893657150821
40
0.852437824857492
40
0.869526160270834
40
0.886614495684176
40
0.903702831097518
40
0.912246998804189
40
0.92079116651086
40
0.929335334217531
40
0.937879501924202
40
0.946423669630873
40
0.954967837337544
40
0.963512005044215
40
0.972056172750886
40
0.980600340457557
40
0.989144508164228
40
0.997688675870898
40
1
40
1
40
1
40
1
41
1
10
-0.394976888875277
20
21.8653790907758
30
0
41
1
10
-0.394976888875334
20
21.8653285674943
30
0
41
1
10
-0.394976888875306
20
21.8644673825838
30
0
41
1
10
-0.394976888875277
20
21.8604737650697
30
0
41
1
10
-0.394976888875277
20
21.8529598769268
30
0
41
1
10
-0.394976888875277
20
21.8423149188875
30
0
41
1
10
-0.394976888875277
20
21.8285907137819
30
0
41
1
10
-0.394976888875277
20
21.8118377229246
30
0
41
1
10
-0.394976888875277
20
21.7921034347989
30
0
41
1
10
-0.394976888875277
20
21.7618666429643
30
0
41
1
10
-0.394976888875277
20
21.7168668922192
30
0
41
1
10
-0.394976888875277
20
21.651618462036
30
0
41
1
10
-0.394976888875277
20
21.5881524120742
30
0
41
1
10
-0.394976888875277
20
21.5320229149808
30
0
41
1
10
-0.394976888875277
20
21.4873092663299
30
0
41
1
10
-0.394976888875277
20
21.4399968711307
30
0
41
1
10
-0.394976888875277
20
21.3734709387681
30
0
41
1
10
-0.394976888875277
20
21.3019320664004
30
0
41
1
10
-0.394976888875277
20
21.2253664719936
30
0
41
1
10
-0.394976888875277
20
21.1655031445011
30
0
41
1
10
-0.394976888875277
20
21.1032108723211
30
0
41
1
10
-0.394976888875277
20
21.038514297088
30
0
41
1
10
-0.394976888875277
20
20.9714364994015
30
0
41
1
10
-0.394976888875277
20
20.8788308563806
30
0
41
1
10
-0.394976888875277
20
20.7816354627076
30
0
41
1
10
-0.394976888875277
20
20.6797749496461
30
0
41
1
10
-0.394976888875277
20
20.6011280536546
30
0
41
1
10
-0.394976888875277
20
20.5202292190253
30
0
41
1
10
-0.394976888875277
20
20.4370981008412
30
0
41
1
10
-0.394976888875277
20
20.3517517634561
30
0
41
1
10
-0.394976888875277
20
20.2642094206366
30
0
41
1
10
-0.394976888875277
20
20.1744885542463
30
0
41
1
10
-0.394976888875277
20
20.082604770276
30
0
41
1
10
-0.394976888875277
20
19.9885758834751
30
0
41
1
10
-0.394976888875277
20
19.8924175863555
30
0
41
1
10
-0.394976888875277
20
19.79414426657
30
0
41
1
10
-0.394976888875277
20
19.6937723311917
30
0
41
1
10
-0.394976888875277
20
19.5913158900225
30
0
41
1
10
-0.394976888875277
20
19.4519091739392
30
0
41
1
10
-0.394976888875277
20
19.308501644014
30
0
41
1
10
-0.394976888875277
20
19.160920630363
30
0
41
1
10
-0.394976888875277
20
19.0670441229991
30
0
41
1
10
-0.394976888875277
20
18.9909051568102
30
0
41
1
10
-0.394976888875277
20
18.9140993494365
30
0
41
1
10
-0.394976888875277
20
18.777958735224
30
0
41
1
10
-0.394976888875277
20
18.6185131846482
30
0
41
1
10
-0.394976888875277
20
18.4550236113311
30
0
41
1
10
-0.394976888875277
20
18.330489335967
30
0
41
1
10
-0.394976888875277
20
18.2040166079408
30
0
41
1
10
-0.394976888875277
20
18.0327705937831
30
0
41
1
10
-0.394976888875277
20
17.8578219077773
30
0
41
1
10
-0.394976888875277
20
17.6789387292296
30
0
41
1
10
-0.394976888875277
20
17.5656125946474
30
0
41
1
10
-0.394976888875277
20
17.4739690253912
30
0
41
1
10
-0.394976888875277
20
17.3816993239948
30
0
41
1
10
-0.394976888875277
20
17.2186048360495
30
0
41
1
10
-0.394976888875277
20
17.0286078387926
30
0
41
1
10
-0.394976888875277
20
16.8347647509306
30
0
41
1
10
-0.394976888875277
20
16.6875786248762
30
0
41
1
10
-0.394976888875277
20
16.5385587049943
30
0
41
1
10
-0.394976888875277
20
16.3373774066279
30
0
41
1
10
-0.394976888875277
20
16.1327150774874
30
0
41
1
10
-0.394976888875277
20
15.9242804112408
30
0
41
1
10
-0.394976888875277
20
15.7925696820839
30
0
41
1
10
-0.394976888875277
20
15.6862549949744
30
0
41
1
10
-0.394976888875277
20
15.5793432837569
30
0
41
1
10
-0.394976888875277
20
15.4446487492657
30
0
41
1
10
-0.394976888875277
20
15.2812010193763
30
0
41
1
10
-0.394976888875277
20
15.1435436982815
30
0
41
1
10
-0.394976888875277
20
15.0324801920763
30
0
41
1
10
-0.394976888875277
20
14.9208273816877
30
0
41
1
10
-0.394976888875277
20
14.7802248596231
30
0
41
1
10
-0.394976888875277
20
14.6097059483473
30
0
41
1
10
-0.394976888875277
20
14.4374320816019
30
0
41
1
10
-0.394976888875277
20
14.2634095816694
30
0
41
1
10
-0.394976888875277
20
14.0876420714538
30
0
41
1
10
-0.394976888875277
20
13.9101338497815
30
0
41
1
10
-0.394976888875277
20
13.7308904366346
30
0
41
1
10
-0.394976888875277
20
13.549915145406
30
0
41
1
10
-0.394976888875277
20
13.3672125481811
30
0
41
1
10
-0.394976888875277
20
13.182787463215
30
0
41
1
10
-0.394976888875277
20
12.9966426140257
30
0
41
1
10
-0.394976888875277
20
12.8087826212334
30
0
41
1
10
-0.394976888875277
20
12.6192114742801
30
0
41
1
10
-0.394976888875277
20
12.4279318017785
30
0
41
1
10
-0.394976888875277
20
12.1705475891153
30
0
41
1
10
-0.394976888875277
20
11.9099848332047
30
0
41
1
10
-0.394976888875277
20
11.6458042855523
30
0
41
1
10
-0.394976888875277
20
11.4460361066677
30
0
41
1
10
-0.394976888875277
20
11.2445799083311
30
0
41
1
10
-0.394976888875277
20
11.0414389105764
30
0
41
1
10
-0.394976888875277
20
10.8366153761928
30
0
41
1
10
-0.394976888875277
20
10.630113157504
30
0
41
1
10
-0.394976888875277
20
10.4219344610486
30
0
41
1
10
-0.394976888875277
20
10.1420454829465
30
0
41
1
10
-0.394976888875277
20
9.78821091215369
30
0
41
1
10
-0.394976888875277
20
9.3568391135907
30
0
41
1
10
-0.394976888875277
20
8.99192950801697
30
0
41
1
10
-0.394976888875277
20
8.69651812098675
30
0
41
1
10
-0.394976888875277
20
8.47338949471808
30
0
41
1
10
-0.394976888875277
20
8.24861627222975
30
0
41
1
10
-0.394976888875277
20
8.0222029406992
30
0
41
1
10
-0.394976888875277
20
7.79415362199521
30
0
41
1
10
-0.394976888875277
20
7.56447255210355
30
0
41
1
10
-0.394976888875277
20
7.33316516004027
30
0
41
1
10
-0.394976888875277
20
7.10023725398264
30
0
41
1
10
-0.394976888875277
20
6.86569504295815
30
0
41
1
10
-0.394976888875277
20
6.62954558311137
30
0
41
1
10
-0.394976888875277
20
6.44960786563362
30
0
41
1
10
-0.394976888875277
20
6.34849183540922
30
0
41
1
10
-0.394976888875277
20
6.32694309067119
30
0
0
SPLINE
5
190
100
AcDbEntity
8
SK1
62
256
6
ByLayer
370
18
48
1
60
0
100
AcDbSpline
70
4
71
3
72
299
73
295
40
0
40
0
40
0
40
0
40
0.0029482911646986
40
0.0064733617606997
40
0.0099984323567008
40
0.0135235029527019
40
0.0170485735487029
40
0.020573644144704
40
0.024098714740705
40
0.0276237853367061
40
0.0346739265287083
40
0.0417240677207104
40
0.0487742089127125
40
0.0522992795087136
40
0.0558243501047147
40
0.0593494207007157
40
0.0628744912967168
40
0.069924632488719
40
0.0734497030847201
40
0.076974773680721
40
0.0804998442767221
40
0.0840249148727232
40
0.0875499854687243
40
0.0910750560647254
40
0.0981251972567275
40
0.101650267852729
40
0.10517533844873
40
0.108700409044731
40
0.112225479640732
40
0.115750550236733
40
0.119275620832734
40
0.122800691428735
40
0.126325762024736
40
0.129850832620737
40
0.133375903216738
40
0.136900973812739
40
0.14042604440874
40
0.143951115004741
40
0.147476185600742
40
0.154526326792745
40
0.158051397388746
40
0.161576467984747
40
0.163339003282747
40
0.165101538580748
40
0.168626609176749
40
0.175676750368751
40
0.179201820964752
40
0.182726891560753
40
0.186251962156754
40
0.189777032752756
40
0.196827173944757
40
0.200352244540759
40
0.20387731513676
40
0.20563985043476
40
0.207402385732761
40
0.210927456328762
40
0.217977597520764
40
0.221502668116765
40
0.225027738712766
40
0.228552809308767
40
0.232077879904768
40
0.23912802109677
40
0.242653091692771
40
0.246178162288773
40
0.247940697586773
40
0.249703232884774
40
0.253228303480775
40
0.256753374076776
40
0.260278444672777
40
0.262040979970777
40
0.263803515268778
40
0.267328585864779
40
0.27085365646078
40
0.274378727056781
40
0.277903797652782
40
0.281428868248783
40
0.284953938844784
40
0.288479009440785
40
0.292004080036787
40
0.295529150632788
40
0.299054221228789
40
0.30257929182479
40
0.306104362420791
40
0.309629433016792
40
0.313154503612793
40
0.316679574208794
40
0.323729715400796
40
0.327254785996797
40
0.330779856592798
40
0.334304927188799
40
0.3378299977848
40
0.341355068380801
40
0.344880138976802
40
0.348405209572804
40
0.351930280168805
40
0.358980421360807
40
0.366030562552809
40
0.373080703744811
40
0.376605774340812
40
0.380130844936813
40
0.383655915532814
40
0.387180986128815
40
0.390706056724817
40
0.394231127320817
40
0.397756197916818
40
0.40128126851282
40
0.404806339108821
40
0.408331409704822
40
0.411856480300823
40
0.415381550896824
40
0.418906621492825
40
0.422431692088826
40
0.425956762684827
40
0.429481833280828
40
0.433006903876829
40
0.43476943917483
40
0.43653197447283
40
0.438294509770831
40
0.440057045068831
40
0.443582115664833
40
0.447107186260834
40
0.448869721558834
40
0.450632256856835
40
0.452394792154835
40
0.454157327452836
40
0.457682398048837
40
0.459444933346837
40
0.461207468644838
40
0.462970003942838
40
0.464732539240839
40
0.466495074538839
40
0.46825760983684
40
0.47002014513484
40
0.471782680432841
40
0.473545215730842
40
0.475307751028842
40
0.477070286326843
40
0.478832821624843
40
0.480595356922844
40
0.482357892220844
40
0.484120427518845
40
0.485882962816845
40
0.487645498114846
40
0.489408033412846
40
0.491170568710847
40
0.492933104008847
40
0.494695639306848
40
0.496458174604848
40
0.498220709902849
40
0.49998324520085
40
0.50174578049885
40
0.503508315796851
40
0.505270851094851
40
0.507033386392852
40
0.508795921690852
40
0.510558456988853
40
0.512320992286853
40
0.514083527584854
40
0.515846062882854
40
0.517608598180855
40
0.519371133478856
40
0.521133668776856
40
0.522896204074856
40
0.524658739372857
40
0.526421274670858
40
0.528183809968858
40
0.529946345266859
40
0.531708880564859
40
0.53347141586286
40
0.53523395116086
40
0.536996486458861
40
0.538759021756861
40
0.540521557054862
40
0.542284092352863
40
0.545809162948864
40
0.547571698246864
40
0.549334233544865
40
0.551096768842865
40
0.552859304140866
40
0.556384374736867
40
0.559909445332868
40
0.561671980630868
40
0.563434515928869
40
0.565197051226869
40
0.56695958652487
40
0.570484657120871
40
0.574009727716872
40
0.577534798312873
40
0.581059868908874
40
0.584584939504875
40
0.588110010100876
40
0.591635080696877
40
0.595160151292879
40
0.59868522188888
40
0.602210292484881
40
0.605735363080882
40
0.609260433676883
40
0.612785504272884
40
0.616310574868885
40
0.619835645464886
40
0.623360716060887
40
0.626885786656888
40
0.63393592784889
40
0.640986069040892
40
0.648036210232895
40
0.651561280828896
40
0.655086351424897
40
0.658611422020898
40
0.662136492616899
40
0.6656615632129
40
0.669186633808901
40
0.672711704404902
40
0.676236775000903
40
0.683286916192905
40
0.686811986788906
40
0.690337057384907
40
0.693862127980909
40
0.69738719857691
40
0.700912269172911
40
0.704437339768912
40
0.707962410364913
40
0.711487480960914
40
0.715012551556915
40
0.718537622152916
40
0.722062692748917
40
0.725587763344918
40
0.73263790453692
40
0.736162975132921
40
0.739688045728923
40
0.746738186920925
40
0.750263257516926
40
0.753788328112927
40
0.757313398708928
40
0.760838469304929
40
0.767888610496931
40
0.771413681092932
40
0.774938751688933
40
0.778463822284934
40
0.781988892880935
40
0.789039034072937
40
0.792564104668939
40
0.79608917526494
40
0.799614245860941
40
0.803139316456942
40
0.810189457648944
40
0.813714528244945
40
0.817239598840946
40
0.820764669436947
40
0.824289740032948
40
0.83133988122495
40
0.834864951820952
40
0.838390022416952
40
0.841915093012954
40
0.845440163608955
40
0.852490304800957
40
0.856015375396958
40
0.859540445992959
40
0.86306551658896
40
0.866590587184961
40
0.870115657780962
40
0.873640728376963
40
0.877165798972964
40
0.880690869568965
40
0.884215940164966
40
0.887741010760967
40
0.891266081356969
40
0.89479115195297
40
0.898316222548971
40
0.901841293144972
40
0.908891434336974
40
0.912416504932975
40
0.915941575528976
40
0.919466646124977
40
0.922991716720978
40
0.926516787316979
40
0.93004185791298
40
0.937091999104983
40
0.940617069700983
40
0.944142140296985
40
0.947667210892986
40
0.951192281488987
40
0.958242422680989
40
0.96176749327699
40
0.965292563872991
40
0.968817634468992
40
0.972342705064993
40
0.975867775660994
40
0.979392846256995
40
0.982917916852996
40
0.986442987448997
40
0.989968058044998
40
0.993493128640999
40
0.997018199237001
40
1
40
1
40
1
40
1
41
1
10
-38
20
20.2923486434444
30
0
41
1
10
-38
20
20.2923551895114
30
0
41
1
10
-38
20
20.291587198431
30
0
41
1
10
-38
20
20.2877827415225
30
0
41
1
10
-38
20
20.2807871950942
30
0
41
1
10
-38
20
20.270864225278
30
0
41
1
10
-38
20
20.2580557575388
30
0
41
1
10
-38
20
20.2424031034125
30
0
41
1
10
-38
20
20.2239454925533
30
0
41
1
10
-38
20
20.19551262204
30
0
41
1
10
-38
20
20.153458157969
30
0
41
1
10
-38
20
20.0921783324266
30
0
41
1
10
-38
20
20.0326760120608
30
0
41
1
10
-38
20
19.9796195423852
30
0
41
1
10
-38
20
19.9374871337363
30
0
41
1
10
-38
20
19.8928775037255
30
0
41
1
10
-38
20
19.8298739849263
30
0
41
1
10
-38
20
19.7628242930463
30
0
41
1
10
-38
20
19.6902080345968
30
0
41
1
10
-38
20
19.6336084813315
30
0
41
1
10
-38
20
19.5746836513967
30
0
41
1
10
-38
20
19.5134574775013
30
0
41
1
10
-38
20
19.4499498796239
30
0
41
1
10
-38
20
19.361926580552
30
0
41
1
10
-38
20
19.2704514952516
30
0
41
1
10
-38
20
19.1735363516591
30
0
41
1
10
-38
20
19.0989364266239
30
0
41
1
10
-38
20
19.0221745884206
30
0
41
1
10
-38
20
18.9432715601189
30
0
41
1
10
-38
20
18.8622425921487
30
0
41
1
10
-38
20
18.7791047356355
30
0
41
1
10
-38
20
18.6938772447032
30
0
41
1
10
-38
20
18.6065734364562
30
0
41
1
10
-38
20
18.5172096781029
30
0
41
1
10
-38
20
18.4258037757915
30
0
41
1
10
-38
20
18.3323676597213
30
0
41
1
10
-38
20
18.236917040573
30
0
41
1
10
-38
20
18.1394682315479
30
0
41
1
10
-38
20
18.006423045464
30
0
41
1
10
-38
20
17.870842154793
30
0
41
1
10
-38
20
17.7299440627733
30
0
41
1
10
-38
20
17.6408187485726
30
0
41
1
10
-38
20
17.5681131617785
30
0
41
1
10
-38
20
17.4947669133713
30
0
41
1
10
-38
20
17.3649201654158
30
0
41
1
10
-38
20
17.2140632768009
30
0
41
1
10
-38
20
17.0578935907134
30
0
41
1
10
-38
20
16.9392992293059
30
0
41
1
10
-38
20
16.8188549914818
30
0
41
1
10
-38
20
16.6552510003021
30
0
41
1
10
-38
20
16.489672496603
30
0
41
1
10
-38
20
16.3187666825072
30
0
41
1
10
-38
20
16.2111031772939
30
0
41
1
10
-38
20
16.1235473577608
30
0
41
1
10
-38
20
16.0353949417433
30
0
41
1
10
-38
20
15.8797855584285
30
0
41
1
10
-38
20
15.6999813794666
30
0
41
1
10
-38
20
15.5148116907138
30
0
41
1
10
-38
20
15.3746600384839
30
0
41
1
10
-38
20
15.2327750536327
30
0
41
1
10
-38
20
15.0406360987563
30
0
41
1
10
-38
20
14.8470518249568
30
0
41
1
10
-38
20
14.6480433816337
30
0
41
1
10
-38
20
14.5230237603812
30
0
41
1
10
-38
20
14.4215395322791
30
0
41
1
10
-38
20
14.319494446119
30
0
41
1
10
-38
20
14.1916826014269
30
0
41
1
10
-38
20
14.0362107113462
30
0
41
1
10
-38
20
13.905633632864
30
0
41
1
10
-38
20
13.7996824703933
30
0
41
1
10
-38
20
13.6931799140641
30
0
41
1
10
-38
20
13.5598675642285
30
0
41
1
10
-38
20
13.3977994204325
30
0
41
1
10
-38
20
13.2340971553998
30
0
41
1
10
-38
20
13.0687736820565
30
0
41
1
10
-38
20
12.9018380893652
30
0
41
1
10
-38
20
12.7332922951509
30
0
41
1
10
-38
20
12.5631480531082
30
0
41
1
10
-38
20
12.3914123687224
30
0
41
1
10
-38
20
12.2180896154105
30
0
41
1
10
-38
20
12.0431930727568
30
0
41
1
10
-38
20
11.8667275879997
30
0
41
1
10
-38
20
11.6886992220563
30
0
41
1
10
-38
20
11.5091211559413
30
0
41
1
10
-38
20
11.3279971676986
30
0
41
1
10
-38
20
11.0835274575533
30
0
41
1
10
-38
20
10.8388445996823
30
0
41
1
10
-38
20
10.5882272221232
30
0
41
1
10
-38
20
10.3995106478125
30
0
41
1
10
-38
20
10.2093006505112
30
0
41
1
10
-38
20
10.0176111741013
30
0
41
1
10
-38
20
9.82444825814403
30
0
41
1
10
-38
20
9.62982433363783
30
0
41
1
10
-38
20
9.43375032895256
30
0
41
1
10
-38
20
9.16930024978848
30
0
41
1
10
-38
20
8.83774034996793
30
0
41
1
10
-38
20
8.43283016067576
30
0
41
1
10
-38
20
8.09202302704495
30
0
41
1
10
-38
20
7.81440668711983
30
0
41
1
10
-38
20
7.60585888080689
30
0
41
1
10
-38
20
7.39600299493051
30
0
41
1
10
-38
20
7.18486050853949
30
0
41
1
10
-38
20
6.972454820743
30
0
41
1
10
-38
20
6.75880464755275
30
0
41
1
10
-38
20
6.54393387937549
30
0
41
1
10
-38
20
6.32787102064523
30
0
41
1
10
-38
20
6.11064460524281
30
0
41
1
10
-38
20
5.89228682406826
30
0
41
1
10
-38
20
5.67283049766701
30
0
41
1
10
-38
20
5.45231041402207
30
0
41
1
10
-38
20
5.2307661198837
30
0
41
1
10
-38
20
5.00824236668089
30
0
41
1
10
-38
20
4.78478453894905
30
0
41
1
10
-38
20
4.56044477194348
30
0
41
1
10
-38
20
4.3737593142329
30
0
41
1
10
-38
20
4.22222174308931
30
0
41
1
10
-38
20
4.10916467830541
30
0
41
1
10
-38
20
3.99593123757288
30
0
41
1
10
-38
20
3.84368490764803
30
0
41
1
10
-38
20
3.65544484289478
30
0
41
1
10
-38
20
3.46668355973628
30
0
41
1
10
-38
20
3.31336520651504
30
0
41
1
10
-38
20
3.19916977025284
30
0
41
1
10
-38
20
3.0848771849204
30
0
41
1
10
-38
20
2.93116533478539
30
0
41
1
10
-38
20
2.7810630459212
30
0
41
1
10
-38
20
2.62697343511894
30
0
41
1
10
-38
20
2.51237687493429
30
0
41
1
10
-38
20
2.39774974487253
30
0
41
1
10
-38
20
2.28311555219403
30
0
41
1
10
-38
20
2.16847618976473
30
0
41
1
10
-38
20
2.05384840107453
30
0
41
1
10
-38
20
1.93924458170406
30
0
41
1
10
-38
20
1.82466899171223
30
0
41
1
10
-38
20
1.71014121398446
30
0
41
1
10
-38
20
1.59566009898879
30
0
41
1
10
-38
20
1.48124309885608
30
0
41
1
10
-38
20
1.36688883878045
30
0
41
1
10
-38
20
1.25260906632701
30
0
41
1
10
-38
20
1.13840321986405
30
0
41
1
10
-38
20
1.02427614220741
30
0
41
1
10
-38
20
0.910225811803912
30
0
41
1
10
-38
20
0.796251800903974
30
0
41
1
10
-38
20
0.682349388495624
30
0
41
1
10
-38
20
0.568513483413511
30
0
41
1
10
-38
20
0.454735475948979
30
0
41
1
10
-38
20
0.341006791030111
30
0
41
1
10
-38
20
0.227315919379521
30
0
41
1
10
-38
20
0.113651444289076
30
0
41
1
10
-38
20
2.39307099E-08
30
0
41
1
10
-38
20
-0.113651428861147
30
0
41
1
10
-38
20
-0.227315965161807
30
0
41
1
10
-38
20
-0.341006831114754
30
0
41
1
10
-38
20
-0.454735424962735
30
0
41
1
10
-38
20
-0.568513412391525
30
0
41
1
10
-38
20
-0.682349437337052
30
0
41
1
10
-38
20
-0.796251898049235
30
0
41
1
10
-38
20
-0.910225765592202
30
0
41
1
10
-38
20
-1.02427601417025
30
0
41
1
10
-38
20
-1.13840324907633
30
0
41
1
10
-38
20
-1.25260921865757
30
0
41
1
10
-38
20
-1.36688883944314
30
0
41
1
10
-38
20
-1.48124293103632
30
0
41
1
10
-38
20
-1.59566004663384
30
0
41
1
10
-38
20
-1.71014137238996
30
0
41
1
10
-38
20
-1.82466911261432
30
0
41
1
10
-38
20
-1.93924446866484
30
0
41
1
10
-38
20
-2.05384821372689
30
0
41
1
10
-38
20
-2.16847621903287
30
0
41
1
10
-38
20
-2.28311576323418
30
0
41
1
10
-38
20
-2.39774983280105
30
0
41
1
10
-38
20
-2.51237672316307
30
0
41
1
10
-38
20
-2.62697323991799
30
0
41
1
10
-38
20
-2.78106315146928
30
0
41
1
10
-38
20
-2.93116552693385
30
0
41
1
10
-38
20
-3.08487708212581
30
0
41
1
10
-38
20
-3.19916954549007
30
0
41
1
10
-38
20
-3.31336512600546
30
0
41
1
10
-38
20
-3.46668375918677
30
0
41
1
10
-38
20
-3.65544489425085
30
0
41
1
10
-38
20
-3.84368470208372
30
0
41
1
10
-38
20
-3.99593117493791
30
0
41
1
10
-38
20
-4.10916481607396
30
0
41
1
10
-38
20
-4.22222196867938
30
0
41
1
10
-38
20
-4.37375933349006
30
0
41
1
10
-38
20
-4.56044458630845
30
0
41
1
10
-38
20
-4.78478457648492
30
0
41
1
10
-38
20
-5.00824253816086
30
0
41
1
10
-38
20
-5.23076600439052
30
0
41
1
10
-38
20
-5.45231022599046
30
0
41
1
10
-38
20
-5.67283041504652
30
0
41
1
10
-38
20
-5.89228674128222
30
0
41
1
10
-38
20
-6.11064496108523
30
0
41
1
10
-38
20
-6.32787239667013
30
0
41
1
10
-38
20
-6.54393525610644
30
0
41
1
10
-38
20
-6.75880334040127
30
0
41
1
10
-38
20
-6.97245311766207
30
0
41
1
10
-38
20
-7.18486111103374
30
0
41
1
10
-38
20
-7.39600347561742
30
0
41
1
10
-38
20
-7.60585874971361
30
0
41
1
10
-38
20
-7.8144064520111
30
0
41
1
10
-38
20
-8.09202295752311
30
0
41
1
10
-38
20
-8.43283023540656
30
0
41
1
10
-38
20
-8.83774029355055
30
0
41
1
10
-38
20
-9.16930023887323
30
0
41
1
10
-38
20
-9.43375044009511
30
0
41
1
10
-38
20
-9.62982432960192
30
0
41
1
10
-38
20
-9.82444814962994
30
0
41
1
10
-38
20
-10.0176111126089
30
0
41
1
10
-38
20
-10.2093007057547
30
0
41
1
10
-38
20
-10.3995107409486
30
0
41
1
10
-38
20
-10.5882272324294
30
0
41
1
10
-38
20
-10.8388445170812
30
0
41
1
10
-38
20
-11.0835274377931
30
0
41
1
10
-38
20
-11.327997250045
30
0
41
1
10
-38
20
-11.5091211965041
30
0
41
1
10
-38
20
-11.6886991809046
30
0
41
1
10
-38
20
-11.8667275177687
30
0
41
1
10
-38
20
-12.0431930522803
30
0
41
1
10
-38
20
-12.2180896645831
30
0
41
1
10
-38
20
-12.3914124247035
30
0
41
1
10
-38
20
-12.5631480735019
30
0
41
1
10
-38
20
-12.7332924196477
30
0
41
1
10
-38
20
-12.9018387248249
30
0
41
1
10
-38
20
-13.068774902876
30
0
41
1
10
-38
20
-13.2899980003418
30
0
41
1
10
-38
20
-13.5056406071554
30
0
41
1
10
-38
20
-13.7202970548285
30
0
41
1
10
-38
20
-13.9327572918622
30
0
41
1
10
-38
20
-14.1397069500695
30
0
41
1
10
-38
20
-14.3454836148157
30
0
41
1
10
-38
20
-14.4976048095277
30
0
41
1
10
-38
20
-14.6480433741443
30
0
41
1
10
-38
20
-14.8470538575164
30
0
41
1
10
-38
20
-15.0406366439893
30
0
41
1
10
-38
20
-15.2327734637881
30
0
41
1
10
-38
20
-15.3746583733236
30
0
41
1
10
-38
20
-15.5148115582755
30
0
41
1
10
-38
20
-15.6999837411247
30
0
41
1
10
-38
20
-15.8797870255403
30
0
41
1
10
-38
20
-16.0578801048401
30
0
41
1
10
-38
20
-16.189216581434
30
0
41
1
10
-38
20
-16.3187661779867
30
0
41
1
10
-38
20
-16.4896741385663
30
0
41
1
10
-38
20
-16.6552512602625
30
0
41
1
10
-38
20
-16.8188545807649
30
0
41
1
10
-38
20
-16.9392987318018
30
0
41
1
10
-38
20
-17.0578934672827
30
0
41
1
10
-38
20
-17.2140648101705
30
0
41
1
10
-38
20
-17.3649216616153
30
0
41
1
10
-38
20
-17.513530035822
30
0
41
1
10
-38
20
-17.6226956365842
30
0
41
1
10
-38
20
-17.7299433731025
30
0
41
1
10
-38
20
-17.8708440004863
30
0
41
1
10
-38
20
-18.0064238716364
30
0
41
1
10
-38
20
-18.1394672902698
30
0
41
1
10
-38
20
-18.236915915677
30
0
41
1
10
-38
20
-18.3323672965474
30
0
41
1
10
-38
20
-18.4258040962282
30
0
41
1
10
-38
20
-18.517209887002
30
0
41
1
10
-38
20
-18.6065734896479
30
0
41
1
10
-38
20
-18.6938772522127
30
0
41
1
10
-38
20
-18.7791047692188
30
0
41
1
10
-38
20
-18.8622426359768
30
0
41
1
10
-38
20
-18.9432715834756
30
0
41
1
10
-38
20
-19.0221745805325
30
0
41
1
10
-38
20
-19.0989364136873
30
0
41
1
10
-38
20
-19.1735363647814
30
0
41
1
10
-38
20
-19.2704515417461
30
0
41
1
10
-38
20
-19.3619266112172
30
0
41
1
10
-38
20
-19.4499498647732
30
0
41
1
10
-38
20
-19.5134574724377
30
0
41
1
10
-38
20
-19.5746836830748
30
0
41
1
10
-38
20
-19.6336085328263
30
0
41
1
10
-38
20
-19.6902080668946
30
0
41
1
10
-38
20
-19.7628242842049
30
0
41
1
10
-38
20
-19.829873984374
30
0
41
1
10
-38
20
-19.8928775551026
30
0
41
1
10
-38
20
-19.9374871757691
30
0
41
1
10
-38
20
-19.9796195436673
30
0
41
1
10
-38
20
-20.0326760063813
30
0
41
1
10
-38
20
-20.0800381474625
30
0
41
1
10
-38
20
-20.1228090027496
30
0
41
1
10
-38
20
-20.1521177658612
30
0
41
1
10
-38
20
-20.1787668505585
30
0
41
1
10
-38
20
-20.2027210424566
30
0
41
1
10
-38
20
-20.2239455432986
30
0
41
1
10
-38
20
-20.2424031363825
30
0
41
1
10
-38
20
-20.2580557552655
30
0
41
1
10
-38
20
-20.2708642249464
30
0
41
1
10
-38
20
-20.2807872561095
30
0
41
1
10
-38
20
-20.2877829489451
30
0
41
1
10
-38
20
-20.2916002739986
30
0
41
1
10
-38
20
-20.292363181322
30
0
41
1
10
-38
20
-20.2923482596978
30
0
0
SPLINE
5
191
100
AcDbEntity
8
1
62
256
6
ByLayer
370
18
48
1
60
0
100
AcDbSpline
70
4
71
2
72
8
73
5
40
0
40
0
40
0
40
0.516558666509362
40
0.774837999764044
40
1
40
1
40
1
41
1.02613459695995
10
44.1787609543688
20
14.2251581053788
30
0
41
1.02613459695995
10
43.2986382562716
20
13.7998054462581
30
0
41
1.02613459695995
10
41.7696332039441
20
13.8515436187369
30
0
41
1.02613459695995
10
40.7804927753859
20
14.1231973493979
30
0
41
1.02613459695995
10
40.3319578818151
20
14.3395675768229
30
0
0
SPLINE
5
192
100
AcDbEntity
8
1
62
256
6
ByLayer
370
18
48
1
60
0
100
AcDbSpline
70
4
71
2
72
8
73
5
40
0
40
0
40
0
40
0.52047266825107
40
0.780709002376605
40
1
40
1
40
1
41
1.02613459695995
10
36.4687797378139
20
30.4889038986848
30
0
41
1.02613459695995
10
35.5898337703796
20
30.0610689963742
30
0
41
1.02613459695995
10
34.6723925260188
20
28.822749770555
30
0
41
1.02613459695995
10
34.268868708754
20
27.8873112151133
30
0
41
1.02613459695995
10
34.1561575992017
20
27.4159266889744
30
0
0
SPLINE
5
193
100
AcDbEntity
8
1
62
256
6
ByLayer
370
18
48
1
60
0
100
AcDbSpline
70
4
71
3
72
8
73
4
40
0
40
0
40
0
40
0
40
1
40
1
40
1
40
1
41
1
10
24.6915807184843
20
38.1045270165986
30
0
41
1
10
24.6916968993874
20
38.1045270165986
30
0
41
1
10
24.7214319924003
20
38.1045270165991
30
0
41
1
10
24.7814467184811
20
38.1045270166
30
0
0
SPLINE
5
194
100
AcDbEntity
8
1
62
256
6
ByLayer
370
18
48
1
60
0
100
AcDbSpline
70
4
71
2
72
7
73
4
40
0
40
0
40
0
40
0.325165615799122
40
1
40
1
40
1
41
1
10
32.2944408879813
20
25.5405618877637
30
0
41
1
10
32.0354859971378
20
25.6498273723545
30
0
41
1
10
31.2512374639142
20
25.7889683332112
30
0
41
1
10
30.8195594741102
20
25.592822760032
30
0
0
SPLINE
5
195
100
AcDbEntity
8
1
62
256
6
ByLayer
370
18
48
1
60
0
100
AcDbSpline
70
4
71
3
72
8
73
4
40
0
40
0
40
0
40
0
40
1
40
1
40
1
40
1
41
1
10
33.6654953278592
20
27.1091396807367
30
0
41
1
10
33.5731177056002
20
27.0603238089177
30
0
41
1
10
33.4823265859157
20
27.0076347289231
30
0
41
1
10
33.3933202152297
20
26.9508033143329
30
0
0
SPLINE
5
196
100
AcDbEntity
8
1
62
256
6
ByLayer
370
18
48
1
60
0
100
AcDbSpline
70
4
71
3
72
8
73
4
40
0
40
0
40
0
40
0
40
1
40
1
40
1
40
1
41
1
10
39.9553925134835
20
14.2043083787198
30
0
41
1
10
39.8147602021686
20
14.1368757919422
30
0
41
1
10
39.6696853586238
20
14.077467173247
30
0
41
1
10
39.5198922553937
20
14.0271647934435
30
0
0
SPLINE
5
197
100
AcDbEntity
8
1
62
256
6
ByLayer
370
18
48
1
60
0
100
AcDbSpline
70
4
71
3
72
14
73
10
40
0
40
0
40
0
40
0
40
0.0151857536690265
40
0.0151857536690265
40
0.0655730315774911
40
0.0655730315774911
40
0.287642754348332
40
0.287642754348332
40
1
40
1
40
1
40
1
41
1
10
32.7757481886421
20
23.3987973734222
30
0
41
1
10
32.772708269815
20
23.4052099009818
30
0
41
1
10
32.769488181413
20
23.411559083655
30
0
41
1
10
32.7554088881066
20
23.437871139612
30
0
41
1
10
32.7440152875403
20
23.4560499528904
30
0
41
1
10
32.6847803041437
20
23.5500883400722
30
0
41
1
10
32.6398953629135
20
23.6203998144661
30
0
41
1
10
32.4664060151783
20
23.9268989397205
30
0
41
1
10
32.3669365850159
20
24.1733252356863
30
0
41
1
10
32.3085584533755
20
24.4301492623299
30
0
0
SPLINE
5
198
100
AcDbEntity
8
1
62
256
6
ByLayer
370
18
48
1
60
0
100
AcDbSpline
70
4
71
3
72
8
73
4
40
0
40
0
40
0
40
0
40
1
40
1
40
1
40
1
41
1
10
44.4948248607474
20
32.3189394301411
30
0
41
1
10
44.3011588852794
20
32.2281585549548
30
0
41
1
10
44.1079267678048
20
32.137602369127
30
0
41
1
10
43.9159018306274
20
32.0476648721453
30
0
0
SPLINE
5
199
100
AcDbEntity
8
1
62
256
6
ByLayer
370
18
48
1
60
0
100
AcDbSpline
70
4
71
3
72
8
73
4
40
0
40
0
40
0
40
0
40
1
40
1
40
1
40
1
41
1
10
41.3784877422247
20
15.8213461956334
30
0
41
1
10
41.6216368752634
20
16.2999613337973
30
0
41
1
10
41.6006647190682
20
16.9469602109589
30
0
41
1
10
41.6394650607863
20
17.7783802779766
30
0
0
SPLINE
5
19A
100
AcDbEntity
8
1
62
256
6
ByLayer
370
18
48
1
60
0
100
AcDbSpline
70
4
71
3
72
8
73
4
40
0
40
0
40
0
40
0
40
1
40
1
40
1
40
1
41
1
10
37.5229411365196
20
26.4619421150116
30
0
41
1
10
36.8650630185998
20
26.9434087965628
30
0
41
1
10
36.3760980948856
20
27.3570499419112
30
0
41
1
10
35.8641402332149
20
27.4535335620452
30
0
0
SPLINE
5
19B
100
AcDbEntity
8
1
62
256
6
ByLayer
370
18
48
1
60
0
100
AcDbSpline
70
4
71
3
72
16
73
12
40
0
40
0
40
0
40
0
40
0.125
40
0.125
40
0.25
40
0.25
40
0.5
40
0.5
40
0.75
40
0.75
40
1
40
1
40
1
40
1
41
1
10
50.6456765424003
20
19.3440844528153
30
0
41
1
10
50.843235272709
20
19.730949727031
30
0
41
1
10
51.1064900307895
20
20.1670972756137
30
0
41
1
10
51.7962194464575
20
21.1338337963819
30
0
41
1
10
52.2091233838471
20
21.6463969680287
30
0
41
1
10
53.5346871818299
20
23.1690280072553
30
0
41
1
10
54.4965941439316
20
24.1293833779034
30
0
41
1
10
56.3518566428384
20
25.8787950043918
30
0
41
1
10
57.2730249595694
20
26.7202911732213
30
0
41
1
10
59.1140874245464
20
28.396736222811
30
0
41
1
10
60.0135414070039
20
29.1426759397242
30
0
41
1
10
60.8737045391796
20
29.8166232314344
30
0
0
SPLINE
5
19C
100
AcDbEntity
8
1
62
256
6
ByLayer
370
18
48
1
60
0
100
AcDbSpline
70
4
71
3
72
12
73
8
40
0
40
0
40
0
40
0
40
0.5
40
0.5
40
0.75
40
0.75
40
1
40
1
40
1
40
1
41
1
10
37.5229411365156
20
26.4619421150022
30
0
41
1
10
37.4626468597751
20
26.3221154431078
30
0
41
1
10
37.4053529904144
20
26.1830730044742
30
0
41
1
10
37.3242554094377
20
25.9753867182645
30
0
41
1
10
37.297966817124
20
25.9063541825589
30
0
41
1
10
37.2481442760951
20
25.7680303086604
30
0
41
1
10
37.1866720406097
20
25.6972572064553
30
0
41
1
10
37.2223785382029
20
25.6219364782082
30
0
0
SPLINE
5
19D
100
AcDbEntity
8
1
62
256
6
ByLayer
370
18
48
1
60
0
100
AcDbSpline
70
4
71
3
72
10
73
6
40
0
40
0
40
0
40
0
40
0.325288492889667
40
0.325288492889667
40
1
40
1
40
1
40
1
41
1
10
32.3085584533755
20
24.4301492623301
30
0
41
1
10
32.2842382923756
20
24.5371414099223
30
0
41
1
10
32.2660086409795
20
24.6427278586855
30
0
41
1
10
32.2295581474135
20
24.9637284224473
30
0
41
1
10
32.23186689702
20
25.1782564000506
30
0
41
1
10
32.2654164806555
20
25.3894695303821
30
0
0
SPLINE
5
19E
100
AcDbEntity
8
1
62
256
6
ByLayer
370
18
48
1
60
0
100
AcDbSpline
70
4
71
3
72
11
73
7
40
0
40
0
40
0
40
0
40
0.379738014043147
40
0.569607021064721
40
0.759476028086295
40
1
40
1
40
1
40
1
41
1.02830968163241
10
50.0031474601922
20
19.8911636566894
30
0
41
1.02566133279166
10
51.9355163421467
20
21.5844897540059
30
0
41
1.02050308371814
10
54.2631441572474
20
24.053329799379
30
0
41
1.01332460673153
10
57.5650913722517
20
28.5239138020818
30
0
41
1.0120630214142
10
59.331422525685
20
29.3872655561927
30
0
41
1.00944729087555
10
60.6043729341675
20
30.6998090273654
30
0
41
1.00885690313847
10
61.1943341540842
20
31.1847997775129
30
0
0
SPLINE
5
19F
100
AcDbEntity
8
1
62
256
6
ByLayer
370
18
48
1
60
0
100
AcDbSpline
70
4
71
3
72
13
73
9
40
0
40
0
40
0
40
0
40
0.250661764437225
40
0.250661764437225
40
0.250661764437225
40
0.653096502165464
40
0.653096502165464
40
1
40
1
40
1
40
1
41
1
10
50.7837628600557
20
25.5375093969348
30
0
41
1
10
50.7743367854165
20
25.8289656974546
30
0
41
1
10
50.7340380756744
20
26.1216773520837
30
0
41
1
10
50.6644517329503
20
26.4060197168343
30
0
41
1
10
50.5536978064073
20
26.8585802645775
30
0
41
1
10
50.365047880358
20
27.2999179381426
30
0
41
1
10
49.89729365863
20
28.0341102222414
30
0
41
1
10
49.6292703168734
20
28.3467833370153
30
0
41
1
10
49.326405670825
20
28.6117175162492
30
0
0
SPLINE
5
1A0
100
AcDbEntity
8
1
62
256
6
ByLayer
370
18
48
1
60
0
100
AcDbSpline
70
4
71
2
72
6
73
3
40
0
40
0
40
0
40
1
40
1
40
1
41
1.02830968163241
10
50.0031474601922
20
19.8911636566894
30
0
41
1.02830968163241
10
50.0349504862356
20
19.4819867757542
30
0
41
1.02830968163241
10
50.066753512279
20
19.072809894819
30
0
0
SPLINE
5
1A1
100
AcDbEntity
8
1
62
256
6
ByLayer
370
18
48
1
60
0
100
AcDbSpline
70
4
71
2
72
6
73
3
40
0
40
0
40
0
40
1
40
1
40
1
41
1.02830968163241
10
44.4887999511825
20
31.5233510231013
30
0
41
0.915286811692243
10
45.0176881240778
20
31.0393148852694
30
0
41
0.941103849220746
10
45.8842769482817
20
29.5131915181668
30
0
0
SPLINE
5
1A2
100
AcDbEntity
8
1
62
256
6
ByLayer
370
18
48
1
60
0
100
AcDbSpline
70
4
71
3
72
11
73
7
40
0
40
0
40
0
40
0
40
0.268536746558077
40
0.487975722590654
40
0.707414698623231
40
1
40
1
40
1
40
1
41
1.02490909094425
10
50.7837628035487
20
25.537509368671
30
0
41
1.02297680709541
10
51.9824338370431
20
26.1370623628244
30
0
41
1.019109996622
10
54.0564435509814
20
27.2120566713697
30
0
41
1.01332460673153
10
57.296906574659
20
29.1699738657277
30
0
41
1.01203732298747
10
59.0966716458557
20
30.1008530307857
30
0
41
1.00929221524307
10
60.5684281113486
20
31.0405846133687
30
0
41
1.0087712828333
10
61.1903599365819
20
31.4916150066363
30
0
0
SPLINE
5
1A3
100
AcDbEntity
8
1
62
256
6
ByLayer
370
18
48
1
60
0
100
AcDbSpline
70
4
71
3
72
12
73
8
40
0
40
0
40
0
40
0
40
0.499999999999992
40
0.499999999999992
40
0.749999999999996
40
0.749999999999996
40
1
40
1
40
1
40
1
41
1
10
41.6394650607765
20
17.7783802779793
30
0
41
1
10
41.4937112502888
20
17.8188253983814
30
0
41
1
10
41.350507053356
20
17.8610056747466
30
0
41
1
10
41.1395072729695
20
17.9273403348732
30
0
41
1
10
41.0698074225156
20
17.9498812605199
30
0
41
1
10
40.9319651490024
20
17.9972297655434
30
0
41
1
10
40.8389429785942
20
17.9930093704038
30
0
41
1
10
40.8032364810032
20
18.0683300986522
30
0
0
SPLINE
5
1A4
100
AcDbEntity
8
1
62
256
6
ByLayer
370
18
48
1
60
0
100
AcDbSpline
70
4
71
3
72
12
73
8
40
0
40
0
40
0
40
0
40
0.252749620142197
40
0.252749620142197
40
0.674711209428768
40
0.674711209428768
40
1
40
1
40
1
40
1
41
1
10
32.2654164806442
20
25.3894695303625
30
0
41
1
10
32.2802490187247
20
25.482848537174
30
0
41
1
10
32.3031595326373
20
25.5791629066873
30
0
41
1
10
32.3880036862697
20
25.8385300302428
30
0
41
1
10
32.467487629017
20
26.0064776307196
30
0
41
1
10
32.6557362874716
20
26.2925286632687
30
0
41
1
10
32.7556782761524
20
26.4158938154098
30
0
41
1
10
32.8677135803115
20
26.5297461840624
30
0
0
SPLINE
5
1A5
100
AcDbEntity
8
1
62
256
6
ByLayer
370
18
48
1
60
0
100
AcDbSpline
70
4
71
3
72
8
73
4
40
0
40
0
40
0
40
0
40
1
40
1
40
1
40
1
41
1
10
61.1943341598486
20
31.1847997822516
30
0
41
1
10
61.1844659516752
20
31.0122478194662
30
0
41
1
10
61.1564201518157
20
30.83424755445
30
0
41
1
10
61.1094813882135
20
30.6621961827148
30
0
0
SPLINE
5
1A6
100
AcDbEntity
8
1
62
256
6
ByLayer
370
18
48
1
60
0
100
AcDbSpline
70
4
71
3
72
10
73
6
40
0
40
0
40
0
40
0
40
0.494168352806881
40
0.494168352806881
40
1
40
1
40
1
40
1
41
1
10
33.3933202152297
20
26.9508033143329
30
0
41
1
10
33.3051175508189
20
26.8944850738469
30
0
41
1
10
33.2160404894779
20
26.831976443323
30
0
41
1
10
33.043232735757
20
26.6958208438766
30
0
41
1
10
32.9585146193167
20
26.6209742838393
30
0
41
1
10
32.8805654504569
20
26.5427266340077
30
0
0
SPLINE
5
1A7
100
AcDbEntity
8
1
62
256
6
ByLayer
370
18
48
1
60
0
100
AcDbSpline
70
4
71
3
72
12
73
8
40
0
40
0
40
0
40
0
40
0.418782075282777
40
0.418782075282777
40
0.706182120811179
40
0.706182120811179
40
1
40
1
40
1
40
1
41
1
10
60.3554455848163
20
32.9543852261096
30
0
41
1
10
60.3885304767489
20
32.9302276658084
30
0
41
1
10
60.4216915865857
20
32.9036375858253
30
0
41
1
10
60.4752163231294
20
32.8567236914254
30
0
41
1
10
60.4965486740123
20
32.8368647270067
30
0
41
1
10
60.5379985296668
20
32.795930698969
30
0
41
1
10
60.558195342706
20
32.7747227148266
30
0
41
1
10
60.5773430121327
20
32.7533675423794
30
0
0
SPLINE
5
1A8
100
AcDbEntity
8
1
62
256
6
ByLayer
370
18
48
1
60
0
100
AcDbSpline
70
4
71
2
72
6
73
3
40
0
40
0
40
0
40
1
40
1
40
1
41
1.02830968163241
10
43.9159018306274
20
32.0476648721453
30
0
41
1.02830968163241
10
44.2023508909049
20
31.7855079476233
30
0
41
1.02830968163241
10
44.4887999511825
20
31.5233510231013
30
0
0
SPLINE
5
1A9
100
AcDbEntity
8
1
62
256
6
ByLayer
370
18
48
1
60
0
100
AcDbSpline
70
4
71
3
72
8
73
4
40
0
40
0
40
0
40
0
40
1
40
1
40
1
40
1
41
1
10
46.4912854438287
20
20.7981508801175
30
0
41
1
10
45.6700736993114
20
20.4106362411227
30
0
41
1
10
44.7346624500421
20
20.3323493568223
30
0
41
1
10
43.8839227525963
20
20.5676417922579
30
0
0
SPLINE
5
1AA
100
AcDbEntity
8
1
62
256
6
ByLayer
370
18
48
1
60
0
100
AcDbSpline
70
4
71
3
72
12
73
8
40
0
40
0
40
0
40
0
40
0.322961595764271
40
0.322961595764271
40
0.710971356423584
40
0.710971356423584
40
1
40
1
40
1
40
1
41
1
10
49.3025634785386
20
22.3025198446938
30
0
41
1
10
49.5993395028866
20
22.5613326708884
30
0
41
1
10
49.8643902257764
20
22.8643685112761
30
0
41
1
10
50.3443124595397
20
23.586601381901
30
0
41
1
10
50.5461491850554
20
24.0280007396832
30
0
41
1
10
50.7523965150763
20
24.8275893652862
30
0
41
1
10
50.7950718344136
20
25.1864217160312
30
0
41
1
10
50.7837628600557
20
25.5375093969348
30
0
0
SPLINE
5
1AB
100
AcDbEntity
8
1
62
256
6
ByLayer
370
18
48
1
60
0
100
AcDbSpline
70
4
71
3
72
8
73
4
40
0
40
0
40
0
40
0
40
1
40
1
40
1
40
1
41
1
10
60.8737045391796
20
29.8166232314344
30
0
41
1
10
60.9532238482421
20
30.0965871614582
30
0
41
1
10
61.0321818533001
20
30.3788591283133
30
0
41
1
10
61.1094813882135
20
30.6621961827148
30
0
0
SPLINE
5
1AC
100
AcDbEntity
8
1
62
256
6
ByLayer
370
18
48
1
60
0
100
AcDbSpline
70
4
71
3
72
16
73
12
40
0
40
0
40
0
40
0
40
0.25
40
0.25
40
0.5
40
0.5
40
0.75
40
0.75
40
0.875
40
0.875
40
1
40
1
40
1
40
1
41
1
10
59.095152658937
20
33.5683724053896
30
0
41
1
10
58.0270936015515
20
33.3472956974419
30
0
41
1
10
56.9015692338506
20
33.1420098102444
30
0
41
1
10
54.4147888691729
20
32.796214435431
30
0
41
1
10
53.1611874482952
20
32.6242096319245
30
0
41
1
10
50.6049598278894
20
32.3100882033417
30
0
41
1
10
49.233986360061
20
32.1784748072905
30
0
41
1
10
47.2369255105914
20
32.1120594958896
30
0
41
1
10
46.5815977704693
20
32.1128986029973
30
0
41
1
10
45.4138511862023
20
32.1762157974447
30
0
41
1
10
44.9134651153666
20
32.2384773199038
30
0
41
1
10
44.4948248607436
20
32.3189394301389
30
0
0
SPLINE
5
1AD
100
AcDbEntity
8
1
62
256
6
ByLayer
370
18
48
1
60
0
100
AcDbSpline
70
4
71
3
72
10
73
6
40
0
40
0
40
0
40
0
40
0.465995854460556
40
0.465995854460556
40
1
40
1
40
1
40
1
41
1
10
41.0994633357705
20
26.4412929536632
30
0
41
1
10
41.0276309215064
20
26.2810567120779
30
0
41
1
10
40.9375169176969
20
26.1256135226222
30
0
41
1
10
40.7122632943007
20
25.8145147442755
30
0
41
1
10
40.5710058232662
20
25.6600664271589
30
0
41
1
10
40.4148368101525
20
25.5233552882507
30
0
0
SPLINE
5
1AE
100
AcDbEntity
8
1
62
256
6
ByLayer
370
18
48
1
60
0
100
AcDbSpline
70
4
71
3
72
13
73
9
40
0
40
0
40
0
40
0
40
0.287856992129664
40
0.287856992129664
40
0.605626331970861
40
0.605626331970861
40
0.605626331970861
40
1
40
1
40
1
40
1
41
1
10
49.326405670825
20
28.6117175162492
30
0
41
1
10
49.0625316674409
20
28.842481474366
30
0
41
1
10
48.7591036603133
20
29.0361014615556
30
0
41
1
10
48.0874217793555
20
29.3473621645033
30
0
41
1
10
47.7080502902726
20
29.4595972497493
30
0
41
1
10
47.3244433183623
20
29.5201547433007
30
0
41
1
10
46.8505875981231
20
29.594959209392
30
0
41
1
10
46.3566876485148
20
29.5926311389161
30
0
41
1
10
45.8842769540739
20
29.5131915079665
30
0
0
SPLINE
5
1AF
100
AcDbEntity
8
1
62
256
6
ByLayer
370
18
48
1
60
0
100
AcDbSpline
70
4
71
3
72
8
73
4
40
0
40
0
40
0
40
0
40
1
40
1
40
1
40
1
41
1
10
50.645676542391
20
19.3440844528109
30
0
41
1
10
50.4520105669257
20
19.2533035776259
30
0
41
1
10
50.2587784494537
20
19.1627473917995
30
0
41
1
10
50.066753512279
20
19.072809894819
30
0
0
SPLINE
5
1B0
100
AcDbEntity
8
1
62
256
6
ByLayer
370
18
48
1
60
0
100
AcDbSpline
70
4
71
3
72
8
73
4
40
0
40
0
40
0
40
0
40
1
40
1
40
1
40
1
41
1
10
41.9085847787556
20
20.3531805078691
30
0
41
1
10
42.1682515887699
20
20.4771375903944
30
0
41
1
10
42.4493251695307
20
20.5720462113305
30
0
41
1
10
42.7369607604687
20
20.6249732341677
30
0
0
SPLINE
5
1B1
100
AcDbEntity
8
1
62
256
6
ByLayer
370
18
48
1
60
0
100
AcDbSpline
70
4
71
3
72
8
73
4
40
0
40
0
40
0
40
0
40
1
40
1
40
1
40
1
41
1
10
39.6812568717508
20
25.0515959592685
30
0
41
1
10
39.9409236817651
20
25.1755530417939
30
0
41
1
10
40.1919221468335
20
25.3339033265404
30
0
41
1
10
40.4148368101525
20
25.5233552882507
30
0
0
SPLINE
5
1B2
100
AcDbEntity
8
1
62
256
6
ByLayer
370
18
48
1
60
0
100
AcDbSpline
70
4
71
3
72
11
73
7
40
0
40
0
40
0
40
0
40
0.379738014043153
40
0.569607021064729
40
0.759476028086305
40
1
40
1
40
1
40
1
41
1.02830968163241
10
44.4887999511825
20
31.5233510231013
30
0
41
1.02566133279165
10
47.0219464648546
20
31.9493725180063
30
0
41
1.02050308371814
10
50.4048840520827
20
32.1920995048772
30
0
41
1.01332460673153
10
55.9645557807432
20
31.9001482262994
30
0
41
1.0120630214142
10
57.7665765025216
20
32.6882149633932
30
0
41
1.00944729087556
10
59.5993661255631
20
32.8198109828317
30
0
41
1.00885690313847
10
60.3554455774288
20
32.9543852247947
30
0
0
SPLINE
5
1B3
100
AcDbEntity
8
1
62
256
6
ByLayer
370
18
48
1
60
0
100
AcDbSpline
70
4
71
3
72
18
73
14
40
0
40
0
40
0
40
0
40
0.14886543669072
40
0.14886543669072
40
0.336868556410369
40
0.336868556410369
40
0.519491108027861
40
0.519491108027861
40
0.711563055534807
40
0.711563055534807
40
0.930180979444766
40
0.930180979444766
40
1
40
1
40
1
40
1
41
1
10
56.4051908326239
20
24.869964382203
30
0
41
1
10
56.4035184013353
20
24.8754220061993
30
0
41
1
10
56.4038713733434
20
24.8830221299837
30
0
41
1
10
56.4095173375843
20
24.9044638096947
30
0
41
1
10
56.4162139417405
20
24.9197653324837
30
0
41
1
10
56.4352490298543
20
24.9539009261566
30
0
41
1
10
56.4476421344622
20
24.9730358993601
30
0
41
1
10
56.4768823837142
20
25.0138156017237
30
0
41
1
10
56.4942517834022
20
25.036012691836
30
0
41
1
10
56.5335463389117
20
25.0830153047693
30
0
41
1
10
56.5562141651955
20
25.1083084316594
30
0
41
1
10
56.5864806024773
20
25.1402111302985
30
0
41
1
10
56.5938886711336
20
25.1478778988076
30
0
41
1
10
56.6013161167423
20
25.1554305445067
30
0
0
SPLINE
5
1B4
100
AcDbEntity
8
1
62
256
6
ByLayer
370
18
48
1
60
0
100
AcDbSpline
70
4
71
3
72
10
73
6
40
0
40
0
40
0
40
0
40
0.474805431212333
40
0.474805431212333
40
1
40
1
40
1
40
1
41
1
10
42.7369607604687
20
20.6249732341677
30
0
41
1
10
42.9195156220413
20
20.6547624749775
30
0
41
1
10
43.105370271316
20
20.6664675348738
30
0
41
1
10
43.4908722930683
20
20.6515760238024
30
0
41
1
10
43.692407328794
20
20.620609968805
30
0
41
1
10
43.8839227525962
20
20.5676417922579
30
0
0
SPLINE
5
1B5
100
AcDbEntity
8
1
62
256
6
ByLayer
370
18
48
1
60
0
100
AcDbSpline
70
4
71
3
72
10
73
6
40
0
40
0
40
0
40
0
40
0.49416835280688
40
0.49416835280688
40
1
40
1
40
1
40
1
41
1
10
39.5198922553937
20
14.0271647934435
30
0
41
1
10
39.4207710089524
20
13.9938786509071
30
0
41
1
10
39.3161868172037
20
13.964081387616
30
0
41
1
10
39.1015432309069
20
13.9161759832031
30
0
41
1
10
38.9899252781744
20
13.898073024356
30
0
41
1
10
38.8798492535375
20
13.887595061742
30
0
0
SPLINE
5
1B6
100
AcDbEntity
8
1
62
256
6
ByLayer
370
18
48
1
60
0
100
AcDbSpline
70
4
71
3
72
8
73
4
40
0
40
0
40
0
40
0
40
1
40
1
40
1
40
1
41
1
10
44.7737196516698
20
29.1646705642043
30
0
41
1
10
45.1273791963357
20
29.3315559645815
30
0
41
1
10
45.4982202385399
20
29.4461932804247
30
0
41
1
10
45.8842769517225
20
29.5131915075584
30
0
0
SPLINE
5
1B7
100
AcDbEntity
8
1
62
256
6
ByLayer
370
18
48
1
60
0
100
AcDbSpline
70
4
71
3
72
18
73
14
40
0
40
0
40
0
40
0
40
0.0384430513828847
40
0.0384430513828847
40
0.294505767099362
40
0.294505767099362
40
0.507931675708701
40
0.507931675708701
40
0.723079147095955
40
0.723079147095955
40
0.912685296049714
40
0.912685296049714
40
1
40
1
40
1
40
1
41
1
10
52.783417352621
20
33.2090604069138
30
0
41
1
10
52.7775930398585
20
33.2085437780133
30
0
41
1
10
52.7717481956076
20
33.2080510640299
30
0
41
1
10
52.7272146142823
20
33.2044969544004
30
0
41
1
10
52.6873156696324
20
33.2024826382119
30
0
41
1
10
52.6177425361603
20
33.2015034152616
30
0
41
1
10
52.5867155523487
20
33.2020917349549
30
0
41
1
10
52.5314139265375
20
33.205612134327
30
0
41
1
10
52.5064004600326
20
33.2086343911421
30
0
41
1
10
52.4700397176413
20
33.216290935885
30
0
41
1
10
52.4569434254004
20
33.2207957432961
30
0
41
1
10
52.4450663772483
20
33.2281246491276
30
0
41
1
10
52.4423049544794
20
33.2305810280597
30
0
41
1
10
52.4405606309379
20
33.2331154656565
30
0
0
SPLINE
5
1B8
100
AcDbEntity
8
1
62
256
6
ByLayer
370
18
48
1
60
0
100
AcDbSpline
70
4
71
3
72
12
73
8
40
0
40
0
40
0
40
0
40
0.407174084711901
40
0.407174084711901
40
0.699511272430907
40
0.699511272430907
40
1
40
1
40
1
40
1
41
1
10
61.1792905584784
20
31.4835950747565
30
0
41
1
10
61.1852734383311
20
31.4446668974785
30
0
41
1
10
61.1898055458247
20
31.4042233216479
30
0
41
1
10
61.1946971843788
20
31.3341693780352
30
0
41
1
10
61.1958895491365
20
31.3045016354712
30
0
41
1
10
61.1965044124078
20
31.2447179622327
30
0
41
1
10
61.1958774897707
20
31.2143854713245
30
0
41
1
10
61.1943341598486
20
31.1847997822516
30
0
0
SPLINE
5
1B9
100
AcDbEntity
8
1
62
256
6
ByLayer
370
18
48
1
60
0
100
AcDbSpline
70
4
71
2
72
6
73
3
40
0
40
0
40
0
40
1
40
1
40
1
41
0.941103849192081
10
49.3025634835218
20
22.3025198318382
30
0
41
0.915286811754989
10
49.9444276155194
20
20.6466516048927
30
0
41
1.02830968163241
10
50.0031474601922
20
19.8911636566894
30
0
0
SPLINE
5
1BA
100
AcDbEntity
8
1
62
256
6
ByLayer
370
18
48
1
60
0
100
AcDbSpline
70
4
71
3
72
8
73
4
40
0
40
0
40
0
40
0
40
1
40
1
40
1
40
1
41
1
10
36.8672834680875
20
14.8137905840935
30
0
41
1
10
37.0768879179488
20
14.5426413732094
30
0
41
1
10
37.3134500753795
20
14.3217990012369
30
0
41
1
10
37.5908639930585
20
14.155755446703
30
0
0
SPLINE
5
1BB
100
AcDbEntity
8
1
62
256
6
ByLayer
370
18
48
1
60
0
100
AcDbSpline
70
4
71
3
72
8
73
4
40
0
40
0
40
0
40
0
40
1
40
1
40
1
40
1
41
1
10
59.0951526589371
20
33.5683724053896
30
0
41
1
10
59.3617684842023
20
33.4536673870913
30
0
41
1
10
59.6299270456522
20
33.3368320582653
30
0
41
1
10
59.8980439578557
20
33.2176512296773
30
0
0
SPLINE
5
1BC
100
AcDbEntity
8
1
62
256
6
ByLayer
370
18
48
1
60
0
100
AcDbSpline
70
4
71
3
72
12
73
8
40
0
40
0
40
0
40
0
40
0.252749620142205
40
0.252749620142205
40
0.674711209428765
40
0.674711209428765
40
1
40
1
40
1
40
1
41
1
10
37.5908639930364
20
14.1557554467061
30
0
41
1
10
37.6733760039932
20
14.1063686397797
30
0
41
1
10
37.7632314349937
20
14.0614666972048
30
0
41
1
10
38.0196810777111
20
13.9588422707392
30
0
41
1
10
38.2010927949071
20
13.9117793068124
30
0
41
1
10
38.5431231303659
20
13.8734370584681
30
0
41
1
10
38.7023527010692
20
13.8717385903967
30
0
41
1
10
38.8616389737854
20
13.8859178574535
30
0
0
SPLINE
5
1BD
100
AcDbEntity
8
1
62
256
6
ByLayer
370
18
48
1
60
0
100
AcDbSpline
70
4
71
3
72
8
73
4
40
0
40
0
40
0
40
0
40
1
40
1
40
1
40
1
41
1
10
48.3288776570813
20
21.6652766706244
30
0
41
1
10
48.6825372016311
20
21.8321620709469
30
0
41
1
10
49.0062903399146
20
22.0461285129664
30
0
41
1
10
49.3025634764425
20
22.3025198428799
30
0
0
SPLINE
5
1BE
100
AcDbEntity
8
1
62
256
6
ByLayer
370
18
48
1
60
0
100
AcDbSpline
70
4
71
2
72
6
73
3
40
0
40
0
40
0
40
1
40
1
40
1
41
1.0087712828333
10
61.1903599365819
20
31.4916150066363
30
0
41
1.0087712828333
10
60.8905273337159
20
32.1240940097093
30
0
41
1.0087712828333
10
60.5906947308498
20
32.7565730127823
30
0
0
SPLINE
5
1BF
100
AcDbEntity
8
1
62
256
6
ByLayer
370
18
48
1
60
0
100
AcDbSpline
70
4
71
3
72
8
73
4
40
0
40
0
40
0
40
0
40
1
40
1
40
1
40
1
41
1
10
41.0994633357705
20
26.4412929536632
30
0
41
1
10
41.462546237489
20
27.2512203402235
30
0
41
1
10
42.0983822620706
20
27.9022283139061
30
0
41
1
10
42.9361274384173
20
28.2975447736974
30
0
0
SPLINE
5
1C0
100
AcDbEntity
8
1
62
256
6
ByLayer
370
18
48
1
60
0
100
AcDbSpline
70
4
71
3
72
8
73
4
40
0
40
0
40
0
40
0
40
1
40
1
40
1
40
1
41
1
10
59.8980439578557
20
33.2176512296773
30
0
41
1
10
60.060853169758
20
33.1452807976265
30
0
41
1
10
60.2160970676573
20
33.0549642569586
30
0
41
1
10
60.3554455848163
20
32.9543852261096
30
0
0
SPLINE
5
1C1
100
AcDbEntity
8
1
62
256
6
ByLayer
370
18
48
1
60
0
100
AcDbSpline
70
4
71
3
72
16
73
12
40
0
40
0
40
0
40
0
40
0.0076436986798981
40
0.0076436986798981
40
0.0409116539642764
40
0.0409116539642764
40
0.185161591066359
40
0.185161591066359
40
0.76103989734915
40
0.76103989734915
40
1
40
1
40
1
40
1
41
1
10
36.356606131442
20
15.8451909938645
30
0
41
1
10
36.3581373837992
20
15.8419609082933
30
0
41
1
10
36.359629413153
20
15.8387041634813
30
0
41
1
10
36.3673021439978
20
15.8213930116069
30
0
41
1
10
36.3726360323247
20
15.8073022269273
30
0
41
1
10
36.3982591497362
20
15.7356814786659
30
0
41
1
10
36.4145012150402
20
15.6825164913536
30
0
41
1
10
36.5069774162887
20
15.4188139147867
30
0
41
1
10
36.5988891707508
20
15.2206044930849
30
0
41
1
10
36.7606330674802
20
14.959637444974
30
0
41
1
10
36.8120108333681
20
14.8852925550561
30
0
41
1
10
36.8672834680873
20
14.8137905840935
30
0
0
SPLINE
5
1C2
100
AcDbEntity
8
1
62
256
6
ByLayer
370
18
48
1
60
0
100
AcDbSpline
70
4
71
3
72
11
73
7
40
0
40
0
40
0
40
0
40
0.268536746003807
40
0.487975722202665
40
0.707414698401523
40
1
40
1
40
1
40
1
41
1.0249090909279
10
49.32640562338
20
28.6117174953047
30
0
41
1.0229768070834
10
50.5526758492915
20
29.1530516286422
30
0
41
1.0191099966158
10
52.705468355787
20
30.0618583249398
30
0
41
1.01332460673153
10
56.292608702443
20
31.288480362139
30
0
41
1.01203732298747
10
58.1668853058166
20
32.0621818916128
30
0
41
1.00929221524307
10
59.8401825318912
20
32.5767752533682
30
0
41
1.0087712828333
10
60.5906947308498
20
32.7565730127823
30
0
0
SPLINE
5
1C3
100
AcDbEntity
8
1
62
256
6
ByLayer
370
18
48
1
60
0
100
AcDbSpline
70
4
71
3
72
12
73
8
40
0
40
0
40
0
40
0
40
0.319932000007842
40
0.319932000007842
40
0.659954096648688
40
0.659954096648688
40
1
40
1
40
1
40
1
41
1
10
40.8961740562346
20
9.31050045171301
30
0
41
1
10
40.87138192523
20
9.31025716677536
30
0
41
1
10
40.8465877317712
20
9.31011175787611
30
0
41
1
10
40.7954405316303
20
9.31001403049447
30
0
41
1
10
40.7690869598369
20
9.3100744087364
30
0
41
1
10
40.7163777696894
20
9.31041694058436
30
0
41
1
10
40.6900216898707
20
9.31069911273792
30
0
41
1
10
40.6636664344086
20
9.31109230277289
30
0
0
SPLINE
5
1C4
100
AcDbEntity
8
1
62
256
6
ByLayer
370
18
48
1
60
0
100
AcDbSpline
70
4
71
3
72
10
73
6
40
0
40
0
40
0
40
0
40
0.5
40
0.5
40
1
40
1
40
1
40
1
41
1
10
40.6636664356871
20
9.31109230275382
30
0
41
1
10
39.4468945254427
20
9.32924513706226
30
0
41
1
10
38.2734442513354
20
9.75129917336957
30
0
41
1
10
36.2703747085245
20
11.1275596262634
30
0
41
1
10
35.3474345017973
20
11.9883622107718
30
0
41
1
10
34.8185670621861
20
13.1034976698444
30
0
0
SPLINE
5
1C5
100
AcDbEntity
8
1
62
256
6
ByLayer
370
18
48
1
60
0
100
AcDbSpline
70
4
71
3
72
16
73
12
40
0
40
0
40
0
40
0
40
0.463423600832241
40
0.463423600832241
40
0.646243952932834
40
0.646243952932834
40
0.831657283224497
40
0.831657283224497
40
0.947504344290847
40
0.947504344290847
40
1
40
1
40
1
40
1
41
1
10
13.8943375672974
20
29.9139548464691
30
0
41
1
10
13.8656609252734
20
29.9485407466772
30
0
41
1
10
13.8263500123909
20
29.982269090612
30
0
41
1
10
13.7453819366532
20
30.0239686896252
30
0
41
1
10
13.7190869808859
20
30.0352936109065
30
0
41
1
10
13.6579862203325
20
30.0555697561518
30
0
41
1
10
13.6222599905467
20
30.0647246060481
30
0
41
1
10
13.556648346355
20
30.0751823136668
30
0
41
1
10
13.5289597975987
20
30.0781795790239
30
0
41
1
10
13.4876776374751
20
30.0802576981002
30
0
41
1
10
13.47447899686
20
30.0805927603169
30
0
41
1
10
13.4613248654052
20
30.0805927603169
30
0
0
SPLINE
5
1C6
100
AcDbEntity
8
1
62
256
6
ByLayer
370
18
48
1
60
0
100
AcDbSpline
70
4
71
3
72
10
73
6
40
0
40
0
40
0
40
0
40
0.573565230694858
40
0.573565230694858
40
1
40
1
40
1
40
1
41
1
10
13.8943375672974
20
-21.0401816871777
30
0
41
1
10
13.8463445787262
20
-21.0796283794037
30
0
41
1
10
13.7780102352029
20
-21.1353313584606
30
0
41
1
10
13.6250883068771
20
-21.2487586970678
30
0
41
1
10
13.5471921982104
20
-21.3044749970785
30
0
41
1
10
13.4613248654052
20
-21.3694939161262
30
0
0
SPLINE
5
1C7
100
AcDbEntity
8
1
62
256
6
ByLayer
370
18
48
1
60
0
100
AcDbSpline
70
4
71
3
72
8
73
4
40
0
40
0
40
0
40
0
40
1
40
1
40
1
40
1
41
1
10
30.7214786938836
20
31.2632829448707
30
0
41
1
10
31.7442542424184
20
32.4233238160085
30
0
41
1
10
33.3834246303143
20
32.9812162158836
30
0
41
1
10
34.8825938780969
20
32.5632017789497
30
0
0
SPLINE
5
1C8
100
AcDbEntity
8
1
62
256
6
ByLayer
370
18
48
1
60
0
100
AcDbSpline
70
4
71
3
72
8
73
4
40
0
40
0
40
0
40
0
40
1
40
1
40
1
40
1
41
1
10
34.8825937925376
20
32.5632018473527
30
0
41
1
10
35.503912963378
20
32.0664695967512
30
0
41
1
10
36.0748940234872
20
31.3197823339874
30
0
41
1
10
36.4687797378139
20
30.4889038986848
30
0
0
SPLINE
5
1C9
100
AcDbEntity
8
1
62
256
6
ByLayer
370
18
48
1
60
0
100
AcDbSpline
70
4
71
2
72
6
73
3
40
0
40
0
40
0
40
1
40
1
40
1
41
1
10
36.8162115314309
20
12.943242698572
30
0
41
1
10
36.7755204350679
20
12.9247535038298
30
0
41
1
10
36.734829338705
20
12.9062643090876
30
0
0
SPLINE
5
1CA
100
AcDbEntity
8
1
62
256
6
ByLayer
370
18
48
1
60
0
100
AcDbSpline
70
4
71
3
72
15
73
11
40
0
40
0
40
0
40
0
40
0.28103962914102
40
0.28103962914102
40
0.562712048900373
40
0.562712048900373
40
0.835250831097508
40
0.835250831097508
40
0.835250831097508
40
1
40
1
40
1
40
1
41
1
10
19.9115068236138
20
-29.9850116132027
30
0
41
1
10
19.9505361776874
20
-30.1286017607468
30
0
41
1
10
20.0674973665296
20
-30.2617723075542
30
0
41
1
10
20.4463314652044
20
-30.489895050164
30
0
41
1
10
20.7141452574929
20
-30.5880850478213
30
0
41
1
10
21.3538238361363
20
-30.741378992888
30
0
41
1
10
21.7310620960588
20
-30.8001569918553
30
0
41
1
10
22.1388781334302
20
-30.8415901871074
30
0
41
1
10
22.3877509516846
20
-30.8668751075782
30
0
41
1
10
22.6513106929054
20
-30.88619079412
30
0
41
1
10
22.92079238
20
-30.8996141556632
30
0
0
SPLINE
5
1CB
100
AcDbEntity
8
1
62
256
6
ByLayer
370
18
48
1
60
0
100
AcDbSpline
70
4
71
3
72
10
73
6
40
0
40
0
40
0
40
0
40
0.5
40
0.5
40
1
40
1
40
1
40
1
41
1
10
29.6550027463226
20
23.9957288000927
30
0
41
1
10
29.1314329952962
20
25.1006423959874
30
0
41
1
10
29.04726731576
20
26.3481975519492
30
0
41
1
10
29.2432945084545
20
28.7598075031085
30
0
41
1
10
29.6640607565209
20
29.9560759065851
30
0
41
1
10
30.4247183124161
20
30.909543037
30
0
0
SPLINE
5
1CC
100
AcDbEntity
8
1
62
256
6
ByLayer
370
18
48
1
60
0
100
AcDbSpline
70
4
71
3
72
8
73
4
40
0
40
0
40
0
40
0
40
1
40
1
40
1
40
1
41
1
10
22.9609847588646
20
-31.0544615075762
30
0
41
1
10
22.9475806244986
20
-31.0028429217618
30
0
41
1
10
22.9341831017393
20
-30.9512270468484
30
0
41
1
10
22.92079238
20
-30.8996141556632
30
0
0
SPLINE
5
1CD
100
AcDbEntity
8
1
62
256
6
ByLayer
370
18
48
1
60
0
100
AcDbSpline
70
4
71
3
72
16
73
12
40
0
40
0
40
0
40
0
40
0.113316224833594
40
0.113316224833594
40
0.252990411571577
40
0.252990411571577
40
0.473309013928351
40
0.473309013928351
40
0.896716357718897
40
0.896716357718897
40
1
40
1
40
1
40
1
41
1
10
10.5386751345948
20
30.0805927603169
30
0
41
1
10
10.5105874404281
20
30.0805927603169
30
0
41
1
10
10.482150642237
20
30.0790101689566
30
0
41
1
10
10.4232029654275
20
30.0726712338969
30
0
41
1
10
10.3927526278712
20
30.0672275748685
30
0
41
1
10
10.3230856363398
20
30.0506647867052
30
0
41
1
10
10.2871733492349
20
30.0378702684275
30
0
41
1
10
10.1985362549164
20
29.9980833386355
30
0
41
1
10
10.1576291602469
20
29.967975934908
30
0
41
1
10
10.1190965262402
20
29.9294196064672
30
0
41
1
10
10.112102816203
20
29.9217223689309
30
0
41
1
10
10.1056624327025
20
29.9139548464691
30
0
0
SPLINE
5
1CE
100
AcDbEntity
8
1
62
256
6
ByLayer
370
18
48
1
60
0
100
AcDbSpline
70
4
71
3
72
10
73
6
40
0
40
0
40
0
40
0
40
0.406434782913203
40
0.406434782913203
40
1
40
1
40
1
40
1
41
1
10
13.4613248654052
20
-19.4372396071259
30
0
41
1
10
13.5445600082495
20
-19.5002654265816
30
0
41
1
10
13.6195895752656
20
-19.5840144784503
30
0
41
1
10
13.7747384129069
20
-19.8110073784322
30
0
41
1
10
13.8452864320335
20
-19.9677891804822
30
0
41
1
10
13.8943375672975
20
-20.1324515831234
30
0
0
SPLINE
5
1CF
100
AcDbEntity
8
1
62
256
6
ByLayer
370
18
48
1
60
0
100
AcDbSpline
70
4
71
2
72
6
73
3
40
0
40
0
40
0
40
1
40
1
40
1
41
1
10
36.734829338705
20
12.9062643090876
30
0
41
1
10
36.6941382423421
20
12.8877751143455
30
0
41
1
10
36.6534471459792
20
12.8692859196033
30
0
0
SPLINE
5
1D0
100
AcDbEntity
8
1
62
256
6
ByLayer
370
18
48
1
60
0
100
AcDbSpline
70
4
71
3
72
10
73
6
40
0
40
0
40
0
40
0
40
0.563253738015378
40
0.563253738015378
40
1
40
1
40
1
40
1
41
1
10
10.1056624327026
20
-20.1324515831236
30
0
41
1
10
10.1522667730003
20
-19.9760029585275
30
0
41
1
10
10.2181997150426
20
-19.8269086326718
30
0
41
1
10
10.3695745193898
20
-19.5962808154733
30
0
41
1
10
10.4493853955874
20
-19.5048499791108
30
0
41
1
10
10.5386751345948
20
-19.4372396071259
30
0
0
SPLINE
5
1D1
100
AcDbEntity
8
1
62
256
6
ByLayer
370
18
48
1
60
0
100
AcDbSpline
70
4
71
3
72
8
73
4
40
0
40
0
40
0
40
0
40
1
40
1
40
1
40
1
41
1
10
23.8962856159808
20
-31.0760760071151
30
0
41
1
10
23.5776018829067
20
-31.0760760071151
30
0
41
1
10
23.2659394678548
20
-31.0688931604307
30
0
41
1
10
22.9609847588647
20
-31.0544615075762
30
0
0
SPLINE
5
1D2
100
AcDbEntity
8
1
62
256
6
ByLayer
370
18
48
1
60
0
100
AcDbSpline
70
4
71
3
72
12
73
8
40
0
40
0
40
0
40
0
40
0.319932024559093
40
0.319932024559093
40
0.65995413188554
40
0.65995413188554
40
1
40
1
40
1
40
1
41
1
10
30.4247183118863
20
30.9095430356952
30
0
41
1
10
30.4401621912019
20
30.9289015909151
30
0
41
1
10
30.455682666958
20
30.9481983568906
30
0
41
1
10
30.4878545452626
20
30.9878744360505
30
0
41
1
10
30.5045160464639
20
31.0082459855466
30
0
41
1
10
30.5380100090334
20
31.0488477977035
30
0
41
1
10
30.5548427747101
20
31.0690784049262
30
0
41
1
10
30.571759723478
20
31.0892370597152
30
0
0
SPLINE
5
1D3
100
AcDbEntity
8
1
62
256
6
ByLayer
370
18
48
1
60
0
100
AcDbSpline
70
4
71
3
72
15
73
11
40
0
40
0
40
0
40
0
40
0.287801217906039
40
0.287801217906039
40
0.580633313242717
40
0.580633313242717
40
0.871071532394732
40
0.871071532394732
40
0.871071532394732
40
1
40
1
40
1
40
1
41
1
10
44.7729374230763
20
11.700111622696
30
0
41
1
10
44.5952458826682
20
11.2974023776427
30
0
41
1
10
44.3473797102658
20
10.9199763199338
30
0
41
1
10
43.7442807690575
20
10.2720081829846
30
0
41
1
10
43.3784876151121
20
9.99518686824419
30
0
41
1
10
42.5895439068844
20
9.58573496689266
30
0
41
1
10
42.1577722991942
20
9.44536051399112
30
0
41
1
10
41.7200528167137
20
9.37355963712915
30
0
41
1
10
41.523817105586
20
9.34137030881607
30
0
41
1
10
41.3249540255334
20
9.32235542946981
30
0
41
1
10
41.1260041288527
20
9.31555674146853
30
0
0
SPLINE
5
1D4
100
AcDbEntity
8
1
62
256
6
ByLayer
370
18
48
1
60
0
100
AcDbSpline
70
4
71
2
72
11
73
8
40
0
40
0
40
0
40
0.0079111859457769
40
0.305537830162044
40
0.503955592972888
40
0.702373355783733
40
0.801582237189155
40
1
40
1
40
1
41
1.02613459695995
10
30.4247183119247
20
30.9095430358871
30
0
41
1.02613459695995
10
30.4158488674987
20
30.8894529249736
30
0
41
1.02613459695995
10
30.0786328605803
20
30.1077274334727
30
0
41
1.02613459695995
10
29.9104638864911
20
28.6083176514529
30
0
41
1.02613459695995
10
30.1024233505619
20
27.0686711480733
30
0
41
1.02613459695995
10
30.262200526667
20
26.5310941110425
30
0
41
1.02613459695995
10
30.4672772692193
20
25.9187411021102
30
0
41
1.02613459695995
10
30.6567950886586
20
25.5188659810634
30
0
0
SPLINE
5
1D5
100
AcDbEntity
8
1
62
256
6
ByLayer
370
18
48
1
60
0
100
AcDbSpline
70
4
71
3
72
16
73
12
40
0
40
0
40
0
40
0
40
0.113316224833592
40
0.113316224833592
40
0.252990411571568
40
0.252990411571568
40
0.473309013928318
40
0.473309013928318
40
0.896716357718825
40
0.896716357718825
40
1
40
1
40
1
40
1
41
1
10
13.4613248654052
20
9.3492213145251
30
0
41
1
10
13.4894125595718
20
9.3492213145251
30
0
41
1
10
13.517849357763
20
9.35431657338981
30
0
41
1
10
13.5767970345725
20
9.37467777536565
30
0
41
1
10
13.6072473721288
20
9.39213979793414
30
0
41
1
10
13.6769143636602
20
9.44503542604383
30
0
41
1
10
13.7128266507651
20
9.4856938043188
30
0
41
1
10
13.8014637450836
20
9.61105923366807
30
0
41
1
10
13.842370839753
20
9.70465429390066
30
0
41
1
10
13.8809034737598
20
9.82244573862474
30
0
41
1
10
13.8878971837969
20
9.84586944318031
30
0
41
1
10
13.8943375672975
20
9.86941261896621
30
0
0
SPLINE
5
1D6
100
AcDbEntity
8
1
62
256
6
ByLayer
370
18
48
1
60
0
100
AcDbSpline
70
4
71
3
72
16
73
12
40
0
40
0
40
0
40
0
40
0.463423600832209
40
0.463423600832209
40
0.646243952932815
40
0.646243952932815
40
0.831657283224495
40
0.831657283224495
40
0.947504344290837
40
0.947504344290837
40
1
40
1
40
1
40
1
41
1
10
13.8943375672974
20
-9.86941261896621
30
0
41
1
10
13.8656609252734
20
-9.76458357826289
30
0
41
1
10
13.8263500123909
20
-9.66039292789941
30
0
41
1
10
13.7453819366532
20
-9.52957658281042
30
0
41
1
10
13.7190869808859
20
-9.49380155568073
30
0
41
1
10
13.6579862203325
20
-9.42941539787637
30
0
41
1
10
13.6222599905468
20
-9.40014891155712
30
0
41
1
10
13.556648346355
20
-9.36662118733784
30
0
41
1
10
13.5289597975987
20
-9.35698328824239
30
0
41
1
10
13.4876776374751
20
-9.35029954873104
30
0
41
1
10
13.4744789968601
20
-9.34922131452501
30
0
41
1
10
13.4613248654052
20
-9.34922131452501
30
0
0
SPLINE
5
1D7
100
AcDbEntity
8
1
62
256
6
ByLayer
370
18
48
1
60
0
100
AcDbSpline
70
4
71
2
72
8
73
5
40
0
40
0
40
0
40
0.451218356373178
40
0.451218356373178
40
1
40
1
40
1
41
1
10
34.8186475148889
20
13.103190448643
30
0
41
1
10
35.2833124690165
20
12.8304816539656
30
0
41
1
10
35.7343152723385
20
12.76006798155
30
0
41
1
10
36.2394970136814
20
12.6811955191545
30
0
41
1
10
36.6534471459792
20
12.8692859196033
30
0
0
SPLINE
5
1D8
100
AcDbEntity
8
1
62
256
6
ByLayer
370
18
48
1
60
0
100
AcDbSpline
70
4
71
3
72
16
73
12
40
0
40
0
40
0
40
0
40
0.463423600832262
40
0.463423600832262
40
0.646243952932856
40
0.646243952932856
40
0.831657283224518
40
0.831657283224518
40
0.94750434429086
40
0.94750434429086
40
1
40
1
40
1
40
1
41
1
10
10.1056624327026
20
-29.9139548464691
30
0
41
1
10
10.1343390747265
20
-29.9485407466772
30
0
41
1
10
10.1736499876091
20
-29.982269090612
30
0
41
1
10
10.2546180633468
20
-30.0239686896252
30
0
41
1
10
10.2809130191141
20
-30.0352936109065
30
0
41
1
10
10.3420137796675
20
-30.0555697561518
30
0
41
1
10
10.3777400094532
20
-30.0647246060481
30
0
41
1
10
10.4433516536449
20
-30.0751823136668
30
0
41
1
10
10.4710402024013
20
-30.0781795790239
30
0
41
1
10
10.5123223625249
20
-30.0802576981002
30
0
41
1
10
10.5255210031399
20
-30.0805927603169
30
0
41
1
10
10.5386751345948
20
-30.0805927603169
30
0
0
SPLINE
5
1D9
100
AcDbEntity
8
1
62
256
6
ByLayer
370
18
48
1
60
0
100
AcDbSpline
70
4
71
2
72
6
73
3
40
0
40
0
40
0
40
1
40
1
40
1
41
0.500000123055783
10
19.9115068236138
20
-6.77959059275453
30
0
41
0.499999876944216
10
19.9118594158377
20
-6.74375684292813
30
0
41
0.500000123055783
10
19.9122201593976
20
-6.70793906824059
30
0
0
SPLINE
5
1DA
100
AcDbEntity
8
1
62
256
6
ByLayer
370
18
48
1
60
0
100
AcDbSpline
70
4
71
3
72
8
73
4
40
0
40
0
40
0
40
0
40
1
40
1
40
1
40
1
41
1
10
44.1787609543688
20
14.2251581053789
30
0
41
1
10
44.5726466506154
20
13.3942797082151
30
0
41
1
10
44.7865329914202
20
12.4853360172642
30
0
41
1
10
44.7729374230763
20
11.700111622696
30
0
0
SPLINE
5
1DB
100
AcDbEntity
8
1
62
256
6
ByLayer
370
18
48
1
60
0
100
AcDbSpline
70
4
71
3
72
12
73
8
40
0
40
0
40
0
40
0
40
0.32350841386821
40
0.32350841386821
40
0.661742854657682
40
0.661742854657682
40
1
40
1
40
1
40
1
41
1
10
41.1260041254416
20
9.31555674227201
30
0
41
1
10
41.1012307914268
20
9.31471016647998
30
0
41
1
10
41.076453066676
20
9.3139608425019
30
0
41
1
10
41.0257630827015
20
9.31262750332013
30
0
41
1
10
40.9998500959403
20
9.31205255356699
30
0
41
1
10
40.9480169911673
20
9.31111621205457
30
0
41
1
10
40.9220964377396
20
9.31075482679947
30
0
41
1
10
40.8961740564316
20
9.31050045072294
30
0
0
SPLINE
5
1DC
100
AcDbEntity
8
1
62
256
6
ByLayer
370
18
48
1
60
0
100
AcDbSpline
70
4
71
2
72
11
73
8
40
0
40
0
40
0
40
0.0610623745695745
40
0.342743662198702
40
0.530531187284787
40
0.718318712370872
40
0.812212474913915
40
1
40
1
40
1
41
1
10
30.7214786938815
20
31.2632829448666
30
0
41
1
10
30.6410901468338
20
31.1082420356714
30
0
41
1
10
30.241397246032
20
30.1816842124414
30
0
41
1
10
30.0732282719427
20
28.6822744304216
30
0
41
1
10
30.2651877360135
20
27.1426279270419
30
0
41
1
10
30.4249649121187
20
26.6050508900112
30
0
41
1
10
30.630041654671
20
25.9926978810789
30
0
41
1
10
30.8195594741103
20
25.5928227600321
30
0
0
SPLINE
5
1DD
100
AcDbEntity
8
1
62
256
6
ByLayer
370
18
48
1
60
0
100
AcDbSpline
70
4
71
3
72
8
73
4
40
0
40
0
40
0
40
0
40
1
40
1
40
1
40
1
41
1
10
24.7814467184811
20
38.1045270166
30
0
41
1
10
24.5429479434191
20
37.1933384643094
30
0
41
1
10
24.3049097929822
20
36.2820237618825
30
0
41
1
10
24.0674431801877
20
35.3705535909994
30
0
0
SPLINE
5
1DE
100
AcDbEntity
8
1
62
256
6
ByLayer
370
18
48
1
60
0
100
AcDbSpline
70
4
71
3
72
8
73
4
40
0
40
0
40
0
40
0
40
1
40
1
40
1
40
1
41
1
10
22.6102667444887
20
30.8813290302705
30
0
41
1
10
22.7110675882507
20
30.8929829244056
30
0
41
1
10
22.8145570690508
20
30.9035969141808
30
0
41
1
10
22.92079238
20
30.9132213431874
30
0
0
SPLINE
5
1DF
100
AcDbEntity
8
1
62
256
6
ByLayer
370
18
48
1
60
0
100
AcDbSpline
70
4
71
2
72
11
73
8
40
0
40
0
40
0
40
0.0353878362392697
40
0.324771485367489
40
0.517693918119635
40
0.710616350871781
40
0.807077567247854
40
1
40
1
40
1
41
1
10
30.5717597242715
20
31.0892370594361
30
0
41
1
10
30.5286690120164
20
30.9993099673453
30
0
41
1
10
30.1600150533061
20
30.1447058229571
30
0
41
1
10
29.9918460792169
20
28.6452960409372
30
0
41
1
10
30.1838055432877
20
27.1056495375576
30
0
41
1
10
30.3435827193929
20
26.5680725005269
30
0
41
1
10
30.5486594619451
20
25.9557194915945
30
0
41
1
10
30.7381772813845
20
25.5558443705477
30
0
0
SPLINE
5
1E0
100
AcDbEntity
8
1
62
256
6
ByLayer
370
18
48
1
60
0
100
AcDbSpline
70
4
71
1
72
4
73
2
40
0
40
0
40
1
40
1
41
1
10
30.8195594741103
20
25.5928227600321
30
0
41
1
10
30.7381772813844
20
25.5558443705477
30
0
0
SPLINE
5
1E1
100
AcDbEntity
8
1
62
256
6
ByLayer
370
18
48
1
60
0
100
AcDbSpline
70
4
71
2
72
11
73
8
40
0
40
0
40
0
40
0.0353878362392772
40
0.324771485367494
40
0.517693918119639
40
0.710616350871783
40
0.807077567247855
40
1
40
1
40
1
41
1
10
40.8961740567233
20
9.31050045146429
30
0
41
1
10
40.7998722231717
20
9.3328190478955
30
0
41
1
10
39.9102635831734
20
9.57713775018127
30
0
41
1
10
38.6491175765109
20
10.3832978672845
30
0
41
1
10
37.5824340684548
20
11.4986836873624
30
0
41
1
10
37.2680687323648
20
11.9612820167235
30
0
41
1
10
36.9244231491201
20
12.50642604536
30
0
41
1
10
36.734829338705
20
12.9062643090876
30
0
0
SPLINE
5
1E2
100
AcDbEntity
8
1
62
256
6
ByLayer
370
18
48
1
60
0
100
AcDbSpline
70
4
71
2
72
7
73
4
40
0
40
0
40
0
40
0.55097834112502
40
1
40
1
40
1
41
1
10
30.6567950886586
20
25.5188659810634
30
0
41
1
10
30.2251170988547
20
25.3227204078843
30
0
41
1
10
29.737985350074
20
24.4945084229795
30
0
41
1
10
29.6548321999527
20
23.9959636704031
30
0
0
SPLINE
5
1E3
100
AcDbEntity
8
1
62
256
6
ByLayer
370
18
48
1
60
0
100
AcDbSpline
70
4
71
3
72
16
73
12
40
0
40
0
40
0
40
0
40
0.113316224833596
40
0.113316224833596
40
0.252990411571581
40
0.252990411571581
40
0.473309013928343
40
0.473309013928343
40
0.896716357718895
40
0.896716357718895
40
1
40
1
40
1
40
1
41
1
10
13.4613248654052
20
-30.0805927603169
30
0
41
1
10
13.4894125595718
20
-30.0805927603169
30
0
41
1
10
13.517849357763
20
-30.0790101689567
30
0
41
1
10
13.5767970345725
20
-30.0726712338969
30
0
41
1
10
13.6072473721288
20
-30.0672275748685
30
0
41
1
10
13.6769143636602
20
-30.0506647867052
30
0
41
1
10
13.7128266507651
20
-30.0378702684275
30
0
41
1
10
13.8014637450836
20
-29.9980833386355
30
0
41
1
10
13.842370839753
20
-29.967975934908
30
0
41
1
10
13.8809034737598
20
-29.9294196064672
30
0
41
1
10
13.8878971837969
20
-29.9217223689309
30
0
41
1
10
13.8943375672975
20
-29.9139548464691
30
0
0
SPLINE
5
1E4
100
AcDbEntity
8
1
62
256
6
ByLayer
370
18
48
1
60
0
100
AcDbSpline
70
4
71
3
72
12
73
8
40
0
40
0
40
0
40
0
40
0.323508446938422
40
0.323508446938422
40
0.661742905177707
40
0.661742905177707
40
1
40
1
40
1
40
1
41
1
10
30.5717597241453
20
31.08923705892
30
0
41
1
10
30.5876760433934
20
31.1082033388165
30
0
41
1
10
30.6036671335375
20
31.1271062290189
30
0
41
1
10
30.6365283925129
20
31.1656412176318
30
0
41
1
10
30.6534057182041
20
31.1852676665898
30
0
41
1
10
30.6873216214166
20
31.2243805657961
30
0
41
1
10
30.7043604932331
20
31.2438673336577
30
0
41
1
10
30.7214786917611
20
31.2632829424634
30
0
0
SPLINE
5
1E5
100
AcDbEntity
8
1
62
256
6
ByLayer
370
18
48
1
60
0
100
AcDbSpline
70
4
71
3
72
8
73
4
40
0
40
0
40
0
40
0
40
1
40
1
40
1
40
1
41
1
10
24.0674431801877
20
35.3705535909994
30
0
41
1
10
23.6785422330916
20
33.8778316940777
30
0
41
1
10
23.2951898505809
20
32.3919534152221
30
0
41
1
10
22.9207923799999
20
30.9132213431874
30
0
0
SPLINE
5
1E6
100
AcDbEntity
8
1
62
256
6
ByLayer
370
18
48
1
60
0
100
AcDbSpline
70
4
71
3
72
10
73
6
40
0
40
0
40
0
40
0
40
0.41566530777211
40
0.41566530777211
40
1
40
1
40
1
40
1
41
1
10
10.5386751345948
20
-21.3694939161262
30
0
41
1
10
10.4549244770343
20
-21.3060777478789
30
0
41
1
10
10.3787459731137
20
-21.2515288076611
30
0
41
1
10
10.2245337544041
20
-21.1373152812055
30
0
41
1
10
10.1545345289015
20
-21.0803509409494
30
0
41
1
10
10.1056624327025
20
-21.0401816871769
30
0
0
SPLINE
5
1E7
100
AcDbEntity
8
1
62
256
6
ByLayer
370
18
48
1
60
0
100
AcDbSpline
70
4
71
3
72
16
73
12
40
0
40
0
40
0
40
0
40
0.113316224833593
40
0.113316224833593
40
0.252990411571579
40
0.252990411571579
40
0.473309013928354
40
0.473309013928354
40
0.896716357718913
40
0.896716357718913
40
1
40
1
40
1
40
1
41
1
10
10.5386751345948
20
-9.34922131452512
30
0
41
1
10
10.5105874404281
20
-9.34922131452512
30
0
41
1
10
10.482150642237
20
-9.35431657338984
30
0
41
1
10
10.4232029654275
20
-9.37467777536568
30
0
41
1
10
10.3927526278712
20
-9.39213979793414
30
0
41
1
10
10.3230856363398
20
-9.44503542604386
30
0
41
1
10
10.2871733492349
20
-9.48569380431883
30
0
41
1
10
10.1985362549164
20
-9.6110592336681
30
0
41
1
10
10.1576291602469
20
-9.70465429390072
30
0
41
1
10
10.1190965262402
20
-9.82244573862477
30
0
41
1
10
10.112102816203
20
-9.84586944318031
30
0
41
1
10
10.1056624327025
20
-9.86941261896618
30
0
0
SPLINE
5
1E8
100
AcDbEntity
8
1
62
256
6
ByLayer
370
18
48
1
60
0
100
AcDbSpline
70
4
71
1
72
4
73
2
40
0
40
0
40
1
40
1
41
1
10
30.7381772813845
20
25.5558443705477
30
0
41
1
10
30.6567950886586
20
25.5188659810634
30
0
0
SPLINE
5
1E9
100
AcDbEntity
8
1
62
256
6
ByLayer
370
18
48
1
60
0
100
AcDbSpline
70
4
71
2
72
11
73
8
40
0
40
0
40
0
40
0.0610623745695812
40
0.342743662198707
40
0.530531187284791
40
0.718318712370874
40
0.812212474913916
40
1
40
1
40
1
41
1
10
41.1260041288482
20
9.31555674146944
30
0
41
1
10
40.956155309835
20
9.34922694336251
30
0
41
1
10
39.9916457758993
20
9.61411613966561
30
0
41
1
10
38.7304997692368
20
10.4202762567689
30
0
41
1
10
37.6638162611806
20
11.5356620768467
30
0
41
1
10
37.3494509250907
20
11.9982604062078
30
0
41
1
10
37.0058053418459
20
12.5434044348443
30
0
41
1
10
36.8162115314309
20
12.943242698572
30
0
0
SPLINE
5
1EA
100
AcDbEntity
8
1
62
256
6
ByLayer
370
18
48
1
60
0
100
AcDbSpline
70
4
71
3
72
16
73
12
40
0
40
0
40
0
40
0
40
0.463423600832241
40
0.463423600832241
40
0.646243952932837
40
0.646243952932837
40
0.831657283224505
40
0.831657283224505
40
0.947504344290848
40
0.947504344290848
40
1
40
1
40
1
40
1
41
1
10
10.1056624327026
20
9.86941261896621
30
0
41
1
10
10.1343390747265
20
9.76458357826289
30
0
41
1
10
10.1736499876091
20
9.66039292789938
30
0
41
1
10
10.2546180633468
20
9.52957658281042
30
0
41
1
10
10.2809130191141
20
9.49380155568073
30
0
41
1
10
10.3420137796675
20
9.42941539787637
30
0
41
1
10
10.3777400094532
20
9.40014891155712
30
0
41
1
10
10.4433516536449
20
9.36662118733787
30
0
41
1
10
10.4710402024013
20
9.35698328824239
30
0
41
1
10
10.5123223625249
20
9.35029954873107
30
0
41
1
10
10.5255210031399
20
9.34922131452504
30
0
41
1
10
10.5386751345948
20
9.34922131452504
30
0
0
SPLINE
5
1EB
100
AcDbEntity
8
1
62
256
6
ByLayer
370
18
48
1
60
0
100
AcDbSpline
70
4
71
3
72
8
73
4
40
0
40
0
40
0
40
0
40
1
40
1
40
1
40
1
41
1
10
22.6102667444887
20
30.8813290302705
30
0
41
1
10
22.9785360588034
20
29.7585696929296
30
0
41
1
10
23.4229260160185
20
28.6556452737489
30
0
41
1
10
23.8962856159807
20
27.5530780473437
30
0
0
SPLINE
5
1EC
100
AcDbEntity
8
1
62
256
6
ByLayer
370
18
48
1
60
0
100
AcDbSpline
70
4
71
3
72
14
73
10
40
0
40
0
40
0
40
0
40
0.214340498359398
40
0.214340498359398
40
0.496975057723261
40
0.496975057723261
40
0.782263348897974
40
0.782263348897974
40
1
40
1
40
1
40
1
41
1
10
22.6102667444887
20
30.8813290302705
30
0
41
1
10
22.2928538870107
20
30.8596487302494
30
0
41
1
10
21.9872135457751
20
30.8291199176566
30
0
41
1
10
21.3399746287024
20
30.7377355602684
30
0
41
1
10
21.0095242838747
20
30.6687823920308
30
0
41
1
10
20.4724242383792
20
30.4990243000185
30
0
41
1
10
20.2597267854547
20
30.3955004707743
30
0
41
1
10
20.0093210835962
20
30.1888506958789
30
0
41
1
10
19.9399854717531
20
30.0897854016817
30
0
41
1
10
19.9115068236138
20
29.9850116132027
30
0
0
SPLINE
5
1ED
100
AcDbEntity
8
1
62
256
6
ByLayer
370
18
48
1
60
0
100
AcDbSpline
70
4
71
2
72
11
73
8
40
0
40
0
40
0
40
0.0079111861631838
40
0.305537830314229
40
0.503955593081592
40
0.702373355848955
40
0.801582237232637
40
1
40
1
40
1
41
1.02613459695995
10
40.6636664356871
20
9.31109230275382
30
0
41
1.02613459695995
10
40.6426262762071
20
9.31667558868586
30
0
41
1.02613459695995
10
39.8288813904476
20
9.54015936069694
30
0
41
1.02613459695995
10
38.5677353837851
20
10.3463194778002
30
0
41
1.02613459695995
10
37.501051875729
20
11.4617052978781
30
0
41
1.02613459695995
10
37.1866865396389
20
11.9243036272392
30
0
41
1.02613459695995
10
36.8430409563942
20
12.4694476558757
30
0
41
1.02613459695995
10
36.6534471459791
20
12.8692859196033
30
0
0
SPLINE
5
1EE
100
AcDbEntity
8
SK1
62
256
6
ByLayer
370
18
48
1
60
0
100
AcDbSpline
70
4
71
3
72
22
73
18
40
0
40
0
40
0
40
0
40
0.366862607601256
40
0.366862607601256
40
0.737339621375052
40
0.737339621375052
40
0.838459586400285
40
0.838459586400285
40
0.872990642836393
40
0.872990642836393
40
0.908114554314301
40
0.908114554314301
40
0.93841147631739
40
0.93841147631739
40
0.978567405872927
40
0.978567405872927
40
1
40
1
40
1
40
1
41
1
10
-1.30710678118655
20
4.81101329740289
30
0
41
1
10
-1.26411319574365
20
5.05427021725674
30
0
41
1
10
-1.21291926611929
20
5.29463858107241
30
0
41
1
10
-1.07751639291712
20
5.76447191425098
30
0
41
1
10
-0.99999394263088
20
6.0024064332149
30
0
41
1
10
-0.818580317119483
20
6.26150782359156
30
0
41
1
10
-0.772786229091963
20
6.31609141287933
30
0
41
1
10
-0.693958175551444
20
6.37002132562083
30
0
41
1
10
-0.67174289599555
20
6.38213989760789
30
0
41
1
10
-0.624176343099663
20
6.39933264200099
30
0
41
1
10
-0.598041368844491
20
6.40433410743103
30
0
41
1
10
-0.550095873812666
20
6.4042038836908
30
0
41
1
10
-0.52764508925199
20
6.40038614973912
30
0
41
1
10
-0.479150674129698
20
6.38487542657816
30
0
41
1
10
-0.453444961156862
20
6.37100758594852
30
0
41
1
10
-0.417985764291785
20
6.34622757774423
30
0
41
1
10
-0.406197231050186
20
6.33682378409867
30
0
41
1
10
-0.394976888874737
20
6.32694309068151
30
0
0
SPLINE
5
1EF
100
AcDbEntity
8
SK1
62
256
6
ByLayer
370
18
48
1
60
0
100
AcDbSpline
70
4
71
3
72
22
73
18
40
0
40
0
40
0
40
0
40
0.025518692999354
40
0.025518692999354
40
0.0515625307794633
40
0.0515625307794633
40
0.0689220502117165
40
0.0689220502117165
40
0.0862030429090035
40
0.0862030429090035
40
0.113761926258803
40
0.113761926258803
40
0.167639902693809
40
0.167639902693809
40
0.357269752158031
40
0.357269752158031
40
1
40
1
40
1
40
1
41
1
10
-0.394976888875277
20
6.326943090669
30
0
41
1
10
-0.389699799773268
20
6.32229605774103
30
0
41
1
10
-0.38394554029108
20
6.31808234313019
30
0
41
1
10
-0.371336208800898
20
6.31155719556298
30
0
41
1
10
-0.364237316839024
20
6.30923328231674
30
0
41
1
10
-0.35209572007625
20
6.30844589498398
30
0
41
1
10
-0.347038791108759
20
6.3089739150856
30
0
41
1
10
-0.337436838154161
20
6.31166640764118
30
0
41
1
10
-0.332782752688161
20
6.31383711710231
30
0
41
1
10
-0.321723955926899
20
6.32078578121266
30
0
41
1
10
-0.315689795621665
20
6.32640446307903
30
0
41
1
10
-0.300083216036057
20
6.3442802085479
30
0
41
1
10
-0.292057158925616
20
6.35806878925098
30
0
41
1
10
-0.261294067338724
20
6.42092251611513
30
0
41
1
10
-0.248999237994838
20
6.47445017323312
30
0
41
1
10
-0.204624309665832
20
6.70435570668306
30
0
41
1
10
-0.200000000000955
20
6.88379158154922
30
0
41
1
10
-0.200000000000955
20
7.05951756777665
30
0
0
SPLINE
5
1F0
100
AcDbEntity
8
SK1
62
256
6
ByLayer
370
18
48
1
60
0
100
AcDbSpline
70
4
71
3
72
22
73
18
40
0
40
0
40
0
40
0
40
0.038427246458711
40
0.038427246458711
40
0.0775026456766427
40
0.0775026456766427
40
0.106475059033524
40
0.106475059033524
40
0.135305917881828
40
0.135305917881828
40
0.182167074412018
40
0.182167074412018
40
0.275660663800869
40
0.275660663800869
40
0.616530102228659
40
0.616530102228659
40
1
40
1
40
1
40
1
41
1
10
-0.394976888875306
20
-6.32694279392757
30
0
41
1
10
-0.414867561016194
20
-6.34445862132063
30
0
41
1
10
-0.436644357284194
20
-6.36058691921457
30
0
41
1
10
-0.484524151203374
20
-6.3868168818706
30
0
41
1
10
-0.511419954277358
20
-6.39702622866628
30
0
41
1
10
-0.560078773491597
20
-6.40490957850619
30
0
41
1
10
-0.58185248496946
20
-6.40512642059926
30
0
41
1
10
-0.623683911276856
20
-6.39912423041605
30
0
41
1
10
-0.644207278837683
20
-6.39293597600829
30
0
41
1
10
-0.694134540330907
20
-6.37121870092642
30
0
41
1
10
-0.722113964046542
20
-6.35215911803172
30
0
41
1
10
-0.796598131612939
20
-6.28903777408343
30
0
41
1
10
-0.836555557792792
20
-6.23798237717094
30
0
41
1
10
-0.997773060879837
20
-5.995390913813
30
0
41
1
10
-1.07178904300878
20
-5.77805690787602
30
0
41
1
10
-1.20827315239353
20
-5.31693201445015
30
0
41
1
10
-1.26212533694985
20
-5.06551762472202
30
0
41
1
10
-1.30710678118655
20
-4.81101321788441
30
0
0
SPLINE
5
1F1
100
AcDbEntity
8
SK1
62
256
6
ByLayer
370
18
48
1
60
0
100
AcDbSpline
70
4
71
3
72
10
73
6
40
0
40
0
40
0
40
0
40
0.5
40
0.5
40
1
40
1
40
1
40
1
41
1
10
-1.30710678118655
20
4.81101329740289
30
0
41
1
10
-1.57713284158248
20
3.28321078789992
30
0
41
1
10
-1.79449339715788
20
1.64680798700616
30
0
41
1
10
-1.79438545511854
20
-1.6481258022005
30
0
41
1
10
-1.57704898370505
20
-3.28368386467716
30
0
41
1
10
-1.30710678118663
20
-4.81101321788435
30
0
0
SPLINE
5
1F2
100
AcDbEntity
8
SK1
62
256
6
ByLayer
370
18
48
1
60
0
100
AcDbSpline
70
4
71
3
72
26
73
22
40
0
40
0
40
0
40
0
40
0.462420532187944
40
0.462420532187944
40
0.662465761698283
40
0.662465761698283
40
0.830433309169693
40
0.830433309169693
40
0.87601894963741
40
0.87601894963741
40
0.905535493032455
40
0.905535493032455
40
0.92577818311669
40
0.92577818311669
40
0.946307111163799
40
0.946307111163799
40
0.963675313617857
40
0.963675313617857
40
0.991859972782862
40
0.991859972782862
40
1
40
1
40
1
40
1
41
1
10
-0.199999999999989
20
-7.05951749342083
30
0
41
1
10
-0.199999999999989
20
-6.93273416480454
30
0
41
1
10
-0.203968014086513
20
-6.80463429773329
30
0
41
1
10
-0.223222206303944
20
-6.62063667774228
30
0
41
1
10
-0.230822389897867
20
-6.56482953243432
30
0
41
1
10
-0.252035566714568
20
-6.46316921019911
30
0
41
1
10
-0.263798801619998
20
-6.41617607028249
30
0
41
1
10
-0.290531391619595
20
-6.36108887379029
30
0
41
1
10
-0.29710300077241
20
-6.34947181616241
30
0
41
1
10
-0.310313928765424
20
-6.33213067856883
30
0
41
1
10
-0.316208846631128
20
-6.32567949173321
30
0
41
1
10
-0.327595492701022
20
-6.31681373578161
30
0
41
1
10
-0.332739264568545
20
-6.31372817209197
30
0
41
1
10
-0.343644708736434
20
-6.30958040401461
30
0
41
1
10
-0.349575964479982
20
-6.30853210514005
30
0
41
1
10
-0.360183897281416
20
-6.30881607347521
30
0
41
1
10
-0.365032052617437
20
-6.30978620719449
30
0
41
1
10
-0.376922909163994
20
-6.31387292952667
30
0
41
1
10
-0.383695246431131
20
-6.3179475897727
30
0
41
1
10
-0.39156461480826
20
-6.32402624429125
30
0
41
1
10
-0.393293161608796
20
-6.32546009510432
30
0
41
1
10
-0.394976888875277
20
-6.32694279392757
30
0
0
SPLINE
5
1F3
100
AcDbEntity
8
1
62
256
6
ByLayer
370
18
48
1
60
0
100
AcDbSpline
70
4
71
3
72
12
73
8
40
0
40
0
40
0
40
0
40
0.392678099449896
40
0.392678099449896
40
0.791279335966101
40
0.791279335966101
40
1
40
1
40
1
40
1
41
1
10
46.2932265473133
20
23.9431333011207
30
0
41
1
10
46.2746014290196
20
23.9378129724356
30
0
41
1
10
46.2553637907448
20
23.9311160367631
30
0
41
1
10
46.2184428924205
20
23.9153626146677
30
0
41
1
10
46.2003501041066
20
23.9060626281091
30
0
41
1
10
46.1758593522137
20
23.8911631550303
30
0
41
1
10
46.1678355103615
20
23.8858258853808
30
0
41
1
10
46.160356141058
20
23.8804342130269
30
0
0
SPLINE
5
1F4
100
AcDbEntity
8
1
62
256
6
ByLayer
370
18
48
1
60
0
100
AcDbSpline
70
4
71
3
72
12
73
8
40
0
40
0
40
0
40
0
40
0.392678099452537
40
0.392678099452537
40
0.791279335968743
40
0.791279335968743
40
1
40
1
40
1
40
1
41
1
10
45.1557876425583
20
25.9995115794518
30
0
41
1
10
45.1724841406111
20
26.0037184187216
30
0
41
1
10
45.1903875280154
20
26.0096450242948
30
0
41
1
10
45.226373556364
20
26.0248586989581
30
0
41
1
10
45.2448948806112
20
26.0344061008533
30
0
41
1
10
45.2712537692081
20
26.050384143161
30
0
41
1
10
45.2801431767658
20
26.0562211474034
30
0
41
1
10
45.2886580488136
20
26.0622106675455
30
0
0
SPLINE
5
1F5
100
AcDbEntity
8
1
62
256
6
ByLayer
370
18
48
1
60
0
100
AcDbSpline
70
4
71
3
72
14
73
10
40
0
40
0
40
0
40
0
40
0.164525200330954
40
0.164525200330954
40
0.540804984924864
40
0.540804984924864
40
0.917041398719733
40
0.917041398719733
40
1
40
1
40
1
40
1
41
1
10
46.3211128624565
20
25.9722366289182
30
0
41
1
10
46.3262150120171
20
25.9665114456155
30
0
41
1
10
46.3316527731597
20
25.9608346015628
30
0
41
1
10
46.3504810874473
20
25.9426534510358
30
0
41
1
10
46.3655026349435
20
25.9304592088124
30
0
41
1
10
46.3972937033037
20
25.9091524310295
30
0
41
1
10
46.4144128502862
20
25.8997946742598
30
0
41
1
10
46.4351121048673
20
25.8905120852733
30
0
41
1
10
46.438880048805
20
25.8889016196766
30
0
41
1
10
46.4426425429722
20
25.8873676570365
30
0
0
SPLINE
5
1F6
100
AcDbEntity
8
1
62
256
6
ByLayer
370
18
48
1
60
0
100
AcDbSpline
70
4
71
3
72
14
73
10
40
0
40
0
40
0
40
0
40
0.164525200330956
40
0.164525200330956
40
0.540804984924835
40
0.540804984924835
40
0.917041398719692
40
0.917041398719692
40
1
40
1
40
1
40
1
41
1
10
45.1279013274144
20
23.9704082516539
30
0
41
1
10
45.1219868801239
20
23.9756644546436
30
0
41
1
10
45.1158415839682
20
23.980932803166
30
0
41
1
10
45.0951167354709
20
23.9980189891564
30
0
41
1
10
45.0794501835913
20
24.0098408379255
30
0
41
1
10
45.047996978838
20
24.0313426813528
30
0
41
1
10
45.0318600783388
20
24.041267538394
30
0
41
1
10
45.0131073651504
20
24.0516739635776
30
0
41
1
10
45.0097233110857
20
24.0535060680958
30
0
41
1
10
45.0063716468989
20
24.0552772235357
30
0
0
SPLINE
5
1F7
100
AcDbEntity
8
1
62
256
6
ByLayer
370
18
48
1
60
0
100
AcDbSpline
70
4
71
3
72
14
73
10
40
0
40
0
40
0
40
0
40
0.0829586012802442
40
0.0829586012802442
40
0.459195015075162
40
0.459195015075162
40
0.835474799669119
40
0.835474799669119
40
1
40
1
40
1
40
1
41
1
10
46.8898323148352
20
24.9440474897539
30
0
41
1
10
46.8886507300342
20
24.9401371779311
30
0
41
1
10
46.8875238614827
20
24.936176452432
30
0
41
1
10
46.8816641619006
20
24.9141558847166
30
0
41
1
10
46.8780944787492
20
24.8949318552024
30
0
41
1
10
46.8744488440578
20
24.8568675183776
30
0
41
1
10
46.8743410652265
20
24.8376020545949
30
0
41
1
10
46.8764058223126
20
24.8117105164708
30
0
41
1
10
46.8773256654433
20
24.8039763732784
30
0
41
1
10
46.8784915890927
20
24.796479429777
30
0
0
SPLINE
5
1F8
100
AcDbEntity
8
1
62
256
6
ByLayer
370
18
48
1
60
0
100
AcDbSpline
70
4
71
3
72
14
73
10
40
0
40
0
40
0
40
0
40
0.0829586012802968
40
0.0829586012802968
40
0.459195015075152
40
0.459195015075152
40
0.835474799669025
40
0.835474799669025
40
1
40
1
40
1
40
1
41
1
10
44.5591818750359
20
24.9985973908183
30
0
41
1
10
44.5599526298565
20
25.0022705098413
30
0
41
1
10
44.560695608535
20
25.0060095964189
30
0
41
1
10
44.5646087667243
20
25.0269063279371
30
0
41
1
10
44.5671962033925
20
25.0455632571799
30
0
41
1
10
44.5705039744769
20
25.0834325283603
30
0
41
1
10
44.5712567576917
20
25.1030703855974
30
0
41
1
10
44.5710885348154
20
25.130056888258
30
0
41
1
10
44.5708762266978
20
25.1381995269807
30
0
41
1
10
44.5705226007782
20
25.146165450795
30
0
0
INSERT
5
20A
100
AcDbEntity
8
2
62
256
6
ByLayer
370
25
48
1
60
0
100
AcDbBlockReference
2
DimnDraft3D11
10
0
20
0
30
0
41
1
42
1
43
1
50
0
210
0
220
0
230
1
0
LINE
5
72
100
AcDbEntity
8
1
62
256
6
ByLayer
370
18
48
1
60
0
100
AcDbLine
10
46.192167
20
23.900959
30
0
11
45.907046
21
23.736345
31
0
39
0
210
0
220
0
230
1
0
LINE
5
74
100
AcDbEntity
8
1
62
256
6
ByLayer
370
18
48
1
60
0
100
AcDbLine
10
44.968996
20
25.875495
30
0
11
45.254118
21
26.04011
31
0
39
0
210
0
220
0
230
1
0
LINE
5
75
100
AcDbEntity
8
1
62
256
6
ByLayer
370
18
48
1
60
0
100
AcDbLine
10
12.272943
20
-19.204698
30
0
11
12.477253
21
-19.029151
31
0
39
0
210
0
220
0
230
1
0
LINE
5
76
100
AcDbEntity
8
1
62
256
6
ByLayer
370
18
48
1
60
0
100
AcDbLine
10
19.217967
20
-13.237393
30
0
11
25.500789
21
-7.839066
31
0
39
0
210
0
220
0
230
1
0
LINE
5
77
100
AcDbEntity
8
1
62
256
6
ByLayer
370
18
48
1
60
0
100
AcDbLine
10
35.985019
20
28.304849
30
0
11
35.313214
21
27.978455
31
0
39
0
210
0
220
0
230
1
0
LINE
5
78
100
AcDbEntity
8
1
62
256
6
ByLayer
370
18
48
1
60
0
100
AcDbLine
10
0.3
20
-31.5
30
0
11
22.920792
21
-31.5
31
0
39
0
210
0
220
0
230
1
0
LINE
5
79
100
AcDbEntity
8
1
62
256
6
ByLayer
370
18
48
1
60
0
100
AcDbLine
10
22.920792
20
31.5
30
0
11
0.3
21
31.5
31
0
39
0
210
0
220
0
230
1
0
LINE
5
7A
100
AcDbEntity
8
1
62
256
6
ByLayer
370
18
48
1
60
0
100
AcDbLine
10
0.3
20
31.5
30
0
11
0
21
31.2
31
0
39
0
210
0
220
0
230
1
0
LINE
5
7B
100
AcDbEntity
8
1
62
256
6
ByLayer
370
18
48
1
60
0
100
AcDbLine
10
0
20
-31.2
30
0
11
0.3
21
-31.5
31
0
39
0
210
0
220
0
230
1
0
LINE
5
7C
100
AcDbEntity
8
1
62
256
6
ByLayer
370
18
48
1
60
0
100
AcDbLine
10
22.960985
20
-31.65
30
0
11
23.11142
21
-31.65
31
0
39
0
210
0
220
0
230
1
0
LINE
5
7D
100
AcDbEntity
8
1
62
256
6
ByLayer
370
18
48
1
60
0
100
AcDbLine
10
24.691163
20
38.107112
30
0
11
22.920792
21
31.5
31
0
39
0
210
0
220
0
230
1
0
LINE
5
7E
100
AcDbEntity
8
1
62
256
6
ByLayer
370
18
48
1
60
0
100
AcDbLine
10
22.920792
20
-31.5
30
0
11
22.960985
21
-31.65
31
0
39
0
210
0
220
0
230
1
0
LINE
5
7F
100
AcDbEntity
8
1
62
256
6
ByLayer
370
18
48
1
60
0
100
AcDbLine
10
32.499519
20
23.883722
30
0
11
36.560327
21
15.31769
31
0
39
0
210
0
220
0
230
1
0
LINE
5
80
100
AcDbEntity
8
1
62
256
6
ByLayer
370
18
48
1
60
0
100
AcDbLine
10
47.304328
20
21.26463
30
0
11
47.614141
21
21.443501
31
0
39
0
210
0
220
0
230
1
0
LINE
5
81
100
AcDbEntity
8
1
62
256
6
ByLayer
370
18
48
1
60
0
100
AcDbLine
10
43.614141
20
28.371704
30
0
11
43.304328
21
28.192834
31
0
39
0
210
0
220
0
230
1
0
LINE
5
82
100
AcDbEntity
8
1
62
256
6
ByLayer
370
18
48
1
60
0
100
AcDbLine
10
22.633313
20
-4.501764
30
0
11
19.257126
21
-7.402653
31
0
39
0
210
0
220
0
230
1
0
LINE
5
83
100
AcDbEntity
8
1
62
256
6
ByLayer
370
18
48
1
60
0
100
AcDbLine
10
25.527651
20
-7.773453
30
0
11
25.548592
21
-7.430686
31
0
39
0
210
0
220
0
230
1
0
LINE
5
84
100
AcDbEntity
8
1
62
256
6
ByLayer
370
18
48
1
60
0
100
AcDbLine
10
23.044235
20
-4.515999
30
0
11
22.702222
21
-4.485088
31
0
39
0
210
0
220
0
230
1
0
LINE
5
85
100
AcDbEntity
8
1
62
256
6
ByLayer
370
18
48
1
60
0
100
AcDbLine
10
35.243323
20
27.94302
30
0
11
33.665736
21
27.10926
31
0
39
0
210
0
220
0
230
1
0
LINE
5
86
100
AcDbEntity
8
1
62
256
6
ByLayer
370
18
48
1
60
0
100
AcDbLine
10
53.140786
20
37.941435
30
0
11
52.586676
21
37.621519
31
0
39
0
210
0
220
0
230
1
0
LINE
5
87
100
AcDbEntity
8
1
62
256
6
ByLayer
370
18
48
1
60
0
100
AcDbLine
10
61.325211
20
22.687262
30
0
11
61.865689
21
22.999307
31
0
39
0
210
0
220
0
230
1
0
LINE
5
88
100
AcDbEntity
8
80
62
256
6
ByLayer
370
18
48
1
60
0
100
AcDbLine
10
0
20
0
30
0
11
-5
21
0
31
0
39
0
210
0
220
0
230
1
0
LINE
5
89
100
AcDbEntity
8
4
62
256
6
ByLayer
370
18
48
0.05
60
0
100
AcDbLine
10
0
20
0
30
0
11
65
21
0
31
0
39
0
210
0
220
0
230
1
0
LINE
5
8B
100
AcDbEntity
8
81
62
256
6
ByLayer
370
18
48
1
60
0
100
AcDbLine
10
65
20
35
30
0
11
75
21
35
31
0
39
0
210
0
220
0
230
1
0
LINE
5
8C
100
AcDbEntity
8
SK4
62
256
6
ByLayer
370
18
48
0.05
60
0
100
AcDbLine
10
-43
20
0
30
0
11
65
21
0
31
0
39
0
210
0
220
0
230
1
0
LINE
5
8E
100
AcDbEntity
8
1
62
256
6
ByLayer
370
18
48
1
60
0
100
AcDbLine
10
47.304328
20
21.26463
30
0
11
47.304639
21
21.26481
31
0
39
0
210
0
220
0
230
1
0
LINE
5
8F
100
AcDbEntity
8
1
62
256
6
ByLayer
370
18
48
1
60
0
100
AcDbLine
10
44.839386
20
14.545576
30
0
11
44.057024
21
16.195923
31
0
39
0
210
0
220
0
230
1
0
LINE
5
90
100
AcDbEntity
8
1
62
256
6
ByLayer
370
18
48
1
60
0
100
AcDbLine
10
42.680772
20
28.149119
30
0
11
44.273096
21
28.900089
31
0
39
0
210
0
220
0
230
1
0
LINE
5
91
100
AcDbEntity
8
1
62
256
6
ByLayer
370
18
48
1
60
0
100
AcDbLine
10
60.873705
20
29.816623
30
0
11
60.652023
21
29.312659
31
0
39
0
210
0
220
0
230
1
0
LINE
5
92
100
AcDbEntity
8
1
62
256
6
ByLayer
370
18
48
1
60
0
100
AcDbLine
10
58.2974
20
26.831117
30
0
11
57.737416
21
26.261694
31
0
39
0
210
0
220
0
230
1
0
LINE
5
93
100
AcDbEntity
8
1
62
256
6
ByLayer
370
18
48
1
60
0
100
AcDbLine
10
54.362835
20
33.380171
30
0
11
55.159269
21
33.450817
31
0
39
0
210
0
220
0
230
1
0
LINE
5
94
100
AcDbEntity
8
1
62
256
6
ByLayer
370
18
48
1
60
0
100
AcDbLine
10
59.095153
20
33.568372
30
0
11
58.572925
21
33.698392
31
0
39
0
210
0
220
0
230
1
0
LINE
5
95
100
AcDbEntity
8
1
62
256
6
ByLayer
370
18
48
1
60
0
100
AcDbLine
10
58.297413
20
26.831132
30
0
11
57.452733
21
25.92573
31
0
39
0
210
0
220
0
230
1
0
LINE
5
96
100
AcDbEntity
8
1
62
256
6
ByLayer
370
18
48
1
60
0
100
AcDbLine
10
60.372607
20
28.419526
30
0
11
60.032164
21
28.620363
31
0
39
0
210
0
220
0
230
1
0
LINE
5
97
100
AcDbEntity
8
1
62
256
6
ByLayer
370
18
48
1
60
0
100
AcDbLine
10
57.699166
20
34.05899
30
0
11
57.64528
21
33.655353
31
0
39
0
210
0
220
0
230
1
0
LINE
5
98
100
AcDbEntity
8
1
62
256
6
ByLayer
370
18
48
1
60
0
100
AcDbLine
10
55.159289
20
33.450817
30
0
11
53.921932
21
33.373744
31
0
39
0
210
0
220
0
230
1
0
LINE
5
99
100
AcDbEntity
8
1
62
256
6
ByLayer
370
18
48
1
60
0
100
AcDbLine
10
51.766346
20
33.521865
30
0
11
52.775157
21
37.458339
31
0
39
0
210
0
220
0
230
1
0
LINE
5
9A
100
AcDbEntity
8
1
62
256
6
ByLayer
370
18
48
1
60
0
100
AcDbLine
10
61.272821
20
22.921933
30
0
11
56.332775
21
24.245614
31
0
39
0
210
0
220
0
230
1
0
LINE
5
9B
100
AcDbEntity
8
1
62
256
6
ByLayer
370
18
48
1
60
0
100
AcDbLine
10
52.717848
20
37.425251
30
0
11
52.775157
21
37.458339
31
0
39
0
210
0
220
0
230
1
0
LINE
5
9C
100
AcDbEntity
8
1
62
256
6
ByLayer
370
18
48
1
60
0
100
AcDbLine
10
61.226253
20
22.895047
30
0
11
61.272821
21
22.921933
31
0
39
0
210
0
220
0
230
1
0
LINE
5
9D
100
AcDbEntity
8
1
62
256
6
ByLayer
370
18
48
1
60
0
100
AcDbLine
10
22.920792
20
31.5
30
0
11
22.920792
21
30.913221
31
0
39
0
210
0
220
0
230
1
0
LINE
5
9E
100
AcDbEntity
8
1
62
256
6
ByLayer
370
18
48
1
60
0
100
AcDbLine
10
22.920792
20
-30.899614
30
0
11
22.920792
21
-31.5
31
0
39
0
210
0
220
0
230
1
0
LINE
5
9F
100
AcDbEntity
8
1
62
256
6
ByLayer
370
18
48
1
60
0
100
AcDbLine
10
0.3
20
-31.5
30
0
11
0.3
21
31.5
31
0
39
0
210
0
220
0
230
1
0
LINE
5
A0
100
AcDbEntity
8
1
62
256
6
ByLayer
370
18
48
1
60
0
100
AcDbLine
10
0
20
-31.2
30
0
11
0
21
31.2
31
0
39
0
210
0
220
0
230
1
0
LINE
5
A1
100
AcDbEntity
8
1
62
256
6
ByLayer
370
18
48
1
60
0
100
AcDbLine
10
19.911507
20
-6.779591
30
0
11
19.911507
21
-6.840505
31
0
39
0
210
0
220
0
230
1
0
LINE
5
A2
100
AcDbEntity
8
1
62
256
6
ByLayer
370
18
48
1
60
0
100
AcDbLine
10
19.911507
20
-12.641497
30
0
11
19.911507
21
-29.985012
31
0
39
0
210
0
220
0
230
1
0
LINE
5
A3
100
AcDbEntity
8
1
62
256
6
ByLayer
370
18
48
1
60
0
100
AcDbLine
10
19.836531
20
-14.399377
30
0
11
19.853337
21
-12.691354
31
0
39
0
210
0
220
0
230
1
0
LINE
5
A4
100
AcDbEntity
8
1
62
256
6
ByLayer
370
18
48
1
60
0
100
AcDbLine
10
19.910902
20
-6.841025
30
0
11
19.911507
21
-6.779591
31
0
39
0
210
0
220
0
230
1
0
LINE
5
A5
100
AcDbEntity
8
1
62
256
6
ByLayer
370
18
48
1
60
0
100
AcDbLine
10
51.619992
20
33.509021
30
0
11
51.84928
21
34.403725
31
0
39
0
210
0
220
0
230
1
0
LINE
5
A6
100
AcDbEntity
8
1
62
256
6
ByLayer
370
18
48
1
60
0
100
AcDbLine
10
37.890324
20
29.204209
30
0
11
37.129405
21
30.809322
31
0
39
0
210
0
220
0
230
1
0
LINE
5
A7
100
AcDbEntity
8
SK1
62
256
6
ByLayer
370
18
48
1
60
0
100
AcDbLine
10
-0.2
20
7.059518
30
0
11
-0.2
21
22.533485
31
0
39
0
210
0
220
0
230
1
0
LINE
5
A9
100
AcDbEntity
8
SK1
62
256
6
ByLayer
370
18
48
1
60
0
100
AcDbLine
10
-0.2
20
-22.533485
30
0
11
-0.2
21
-7.059517
31
0
39
0
210
0
220
0
230
1
0
LINE
5
AA
100
AcDbEntity
8
1
62
256
6
ByLayer
370
18
48
1
60
0
100
AcDbLine
10
61.345569
20
22.766753
30
0
11
61.315408
21
22.874953
31
0
39
0
210
0
220
0
230
1
0
LINE
5
AB
100
AcDbEntity
8
1
62
256
6
ByLayer
370
18
48
1
60
0
100
AcDbLine
10
19.836531
20
-14.399377
30
0
11
19.22719
21
-13.690198
31
0
39
0
210
0
220
0
230
1
0
LINE
5
AC
100
AcDbEntity
8
1
62
256
6
ByLayer
370
18
48
1
60
0
100
AcDbLine
10
23.896286
20
27.553078
30
0
11
23.896286
21
-5.1455
31
0
39
0
210
0
220
0
230
1
0
LINE
5
AD
100
AcDbEntity
8
1
62
256
6
ByLayer
370
18
48
1
60
0
100
AcDbLine
10
23.896286
20
-9.217478
30
0
11
23.896286
21
-31.076076
31
0
39
0
210
0
220
0
230
1
0
LINE
5
AE
100
AcDbEntity
8
1
62
256
6
ByLayer
370
18
48
1
60
0
100
AcDbLine
10
22.960985
20
-31.65
30
0
11
22.960985
21
-31.054462
31
0
39
0
210
0
220
0
230
1
0
LINE
5
AF
100
AcDbEntity
8
1
62
256
6
ByLayer
370
18
48
1
60
0
100
AcDbLine
10
51.602279
20
33.507361
30
0
11
52.652131
21
37.60398
31
0
39
0
210
0
220
0
230
1
0
LINE
5
B0
100
AcDbEntity
8
1
62
256
6
ByLayer
370
18
48
1
60
0
100
AcDbLine
10
56.208604
20
24.119201
30
0
11
61.345569
21
22.766753
31
0
39
0
210
0
220
0
230
1
0
LINE
5
B1
100
AcDbEntity
8
1
62
256
6
ByLayer
370
18
48
1
60
0
100
AcDbLine
10
44.77372
20
29.164671
30
0
11
44.273096
21
28.900089
31
0
39
0
210
0
220
0
230
1
0
LINE
5
B2
100
AcDbEntity
8
1
62
256
6
ByLayer
370
18
48
1
60
0
100
AcDbLine
10
57.348329
20
25.915035
30
0
11
56.601316
21
25.155431
31
0
39
0
210
0
220
0
230
1
0
LINE
5
B3
100
AcDbEntity
8
1
62
256
6
ByLayer
370
18
48
1
60
0
100
AcDbLine
10
36.356606
20
15.845191
30
0
11
37.827809
21
16.622726
31
0
39
0
210
0
220
0
230
1
0
LINE
5
B4
100
AcDbEntity
8
1
62
256
6
ByLayer
370
18
48
1
60
0
100
AcDbLine
10
53.845852
20
33.303301
30
0
11
53.871011
21
33.308846
31
0
39
0
210
0
220
0
230
1
0
LINE
5
B5
100
AcDbEntity
8
1
62
256
6
ByLayer
370
18
48
1
60
0
100
AcDbLine
10
42.936127
20
28.297545
30
0
11
44.77372
21
29.164671
31
0
39
0
210
0
220
0
230
1
0
LINE
5
B6
100
AcDbEntity
8
1
62
256
6
ByLayer
370
18
48
1
60
0
100
AcDbLine
10
52.230384
20
33.563176
30
0
11
46.045858
21
33.014595
31
0
39
0
210
0
220
0
230
1
0
LINE
5
B7
100
AcDbEntity
8
1
62
256
6
ByLayer
370
18
48
1
60
0
100
AcDbLine
10
36.919997
20
23.718625
30
0
11
39.147325
21
19.02021
31
0
39
0
210
0
220
0
230
1
0
LINE
5
B8
100
AcDbEntity
8
1
62
256
6
ByLayer
370
18
48
1
60
0
100
AcDbLine
10
35.86414
20
27.453534
30
0
11
44.4888
21
31.523351
31
0
39
0
210
0
220
0
230
1
0
LINE
5
B9
100
AcDbEntity
8
1
62
256
6
ByLayer
370
18
48
1
60
0
100
AcDbLine
10
37.827809
20
16.622726
30
0
11
34.246951
21
24.176333
31
0
39
0
210
0
220
0
230
1
0
LINE
5
BA
100
AcDbEntity
8
1
62
256
6
ByLayer
370
18
48
1
60
0
100
AcDbLine
10
42.191189
20
15.356477
30
0
11
41.500605
21
15.020958
31
0
39
0
210
0
220
0
230
1
0
LINE
5
BB
100
AcDbEntity
8
1
62
256
6
ByLayer
370
18
48
1
60
0
100
AcDbLine
10
57.368752
20
25.930569
30
0
11
57.348329
21
25.915035
31
0
39
0
210
0
220
0
230
1
0
LINE
5
BC
100
AcDbEntity
8
1
62
256
6
ByLayer
370
18
48
1
60
0
100
AcDbLine
10
50.066754
20
19.07281
30
0
11
42.191189
21
15.356477
31
0
39
0
210
0
220
0
230
1
0
LINE
5
BD
100
AcDbEntity
8
1
62
256
6
ByLayer
370
18
48
1
60
0
100
AcDbLine
10
36.356606
20
15.845191
30
0
11
32.775748
21
23.398797
31
0
39
0
210
0
220
0
230
1
0
LINE
5
BE
100
AcDbEntity
8
1
62
256
6
ByLayer
370
18
48
1
60
0
100
AcDbLine
10
52.783417
20
33.20906
30
0
11
53.845852
21
33.303301
31
0
39
0
210
0
220
0
230
1
0
LINE
5
BF
100
AcDbEntity
8
1
62
256
6
ByLayer
370
18
48
1
60
0
100
AcDbLine
10
44.234384
20
16.282466
30
0
11
52.19671
21
20.03974
31
0
39
0
210
0
220
0
230
1
0
LINE
5
C0
100
AcDbEntity
8
1
62
256
6
ByLayer
370
18
48
1
60
0
100
AcDbLine
10
32.775748
20
23.398797
30
0
11
34.246951
21
24.176333
31
0
39
0
210
0
220
0
230
1
0
LINE
5
C1
100
AcDbEntity
8
1
62
256
6
ByLayer
370
18
48
1
60
0
100
AcDbLine
10
39.955393
20
14.204308
30
0
11
41.500605
21
15.020958
31
0
39
0
210
0
220
0
230
1
0
LINE
5
C2
100
AcDbEntity
8
1
62
256
6
ByLayer
370
18
48
1
60
0
100
AcDbLine
10
37.899144
20
24.194341
30
0
11
37.222379
21
25.621936
31
0
39
0
210
0
220
0
230
1
0
LINE
5
C3
100
AcDbEntity
8
1
62
256
6
ByLayer
370
18
48
1
60
0
100
AcDbLine
10
42.936127
20
28.297545
30
0
11
42.443989
21
28.037448
31
0
39
0
210
0
220
0
230
1
0
LINE
5
C4
100
AcDbEntity
8
1
62
256
6
ByLayer
370
18
48
1
60
0
100
AcDbLine
10
36.040338
20
28.331332
30
0
11
43.915902
21
32.047665
31
0
39
0
210
0
220
0
230
1
0
LINE
5
C5
100
AcDbEntity
8
1
62
256
6
ByLayer
370
18
48
1
60
0
100
AcDbLine
10
40.803236
20
18.06833
30
0
11
40.126471
21
19.495926
31
0
39
0
210
0
220
0
230
1
0
LINE
5
C6
100
AcDbEntity
8
1
62
256
6
ByLayer
370
18
48
1
60
0
100
AcDbLine
10
41.378488
20
15.821346
30
0
11
50.003147
21
19.891164
31
0
39
0
210
0
220
0
230
1
0
LINE
5
C7
100
AcDbEntity
8
1
62
256
6
ByLayer
370
18
48
1
60
0
100
AcDbLine
10
50.645677
20
19.344084
30
0
11
52.19671
21
20.03974
31
0
39
0
210
0
220
0
230
1
0
LINE
5
C8
100
AcDbEntity
8
1
62
256
6
ByLayer
370
18
48
1
60
0
100
AcDbLine
10
40.803236
20
18.06833
30
0
11
37.827809
21
16.622726
31
0
39
0
210
0
220
0
230
1
0
LINE
5
C9
100
AcDbEntity
8
1
62
256
6
ByLayer
370
18
48
1
60
0
100
AcDbLine
10
37.222379
20
25.621936
30
0
11
34.246951
21
24.176333
31
0
39
0
210
0
220
0
230
1
0
LINE
5
CA
100
AcDbEntity
8
1
62
256
6
ByLayer
370
18
48
1
60
0
100
AcDbLine
10
52.19671
20
20.03974
30
0
11
56.545135
21
24.461465
31
0
39
0
210
0
220
0
230
1
0
LINE
5
CB
100
AcDbEntity
8
1
62
256
6
ByLayer
370
18
48
1
60
0
100
AcDbLine
10
48.328878
20
21.665277
30
0
11
46.491285
21
20.798151
31
0
39
0
210
0
220
0
230
1
0
LINE
5
CC
100
AcDbEntity
8
1
62
256
6
ByLayer
370
18
48
1
60
0
100
AcDbLine
10
44.494825
20
32.318939
30
0
11
46.045858
21
33.014595
31
0
39
0
210
0
220
0
230
1
0
LINE
5
CD
100
AcDbEntity
8
1
62
256
6
ByLayer
370
18
48
1
60
0
100
AcDbLine
10
42.119439
20
15.25009
30
0
11
44.234384
21
16.282466
31
0
39
0
210
0
220
0
230
1
0
LINE
5
CE
100
AcDbEntity
8
1
62
256
6
ByLayer
370
18
48
1
60
0
100
AcDbLine
10
39.147325
20
19.02021
30
0
11
40.126471
21
19.495926
31
0
39
0
210
0
220
0
230
1
0
LINE
5
CF
100
AcDbEntity
8
1
62
256
6
ByLayer
370
18
48
1
60
0
100
AcDbLine
10
36.919997
20
23.718625
30
0
11
37.899144
21
24.194341
31
0
39
0
210
0
220
0
230
1
0
LINE
5
D0
100
AcDbEntity
8
1
62
256
6
ByLayer
370
18
48
1
60
0
100
AcDbLine
10
58.404921
20
26.144073
30
0
11
58.24965
21
26.143957
31
0
39
0
210
0
220
0
230
1
0
LINE
5
D1
100
AcDbEntity
8
1
62
256
6
ByLayer
370
18
48
1
60
0
100
AcDbLine
10
58.24965
20
26.143957
30
0
11
60.372607
21
28.419526
31
0
39
0
210
0
220
0
230
1
0
LINE
5
D2
100
AcDbEntity
8
1
62
256
6
ByLayer
370
18
48
1
60
0
100
AcDbLine
10
54.334439
20
33.684605
30
0
11
53.288711
21
33.993006
31
0
39
0
210
0
220
0
230
1
0
LINE
5
D3
100
AcDbEntity
8
1
62
256
6
ByLayer
370
18
48
1
60
0
100
AcDbLine
10
61.422599
20
28.94191
30
0
11
61.665268
21
30.410993
31
0
39
0
210
0
220
0
230
1
0
LINE
5
D4
100
AcDbEntity
8
1
62
256
6
ByLayer
370
18
48
1
60
0
100
AcDbLine
10
60.062197
20
33.792576
30
0
11
60.232116
21
34.611899
31
0
39
0
210
0
220
0
230
1
0
LINE
5
D5
100
AcDbEntity
8
1
62
256
6
ByLayer
370
18
48
1
60
0
100
AcDbLine
10
54.589285
20
33.86528
30
0
11
54.334439
21
33.684605
31
0
39
0
210
0
220
0
230
1
0
LINE
5
D6
100
AcDbEntity
8
1
62
256
6
ByLayer
370
18
48
1
60
0
100
AcDbLine
10
58.181549
20
24.98572
30
0
11
58.404921
21
26.144073
31
0
39
0
210
0
220
0
230
1
0
LINE
5
D7
100
AcDbEntity
8
1
62
256
6
ByLayer
370
18
48
1
60
0
100
AcDbLine
10
54.589285
20
33.86528
30
0
11
57.699166
21
34.05899
31
0
39
0
210
0
220
0
230
1
0
LINE
5
D8
100
AcDbEntity
8
1
62
256
6
ByLayer
370
18
48
1
60
0
100
AcDbLine
10
57.950661
20
26.056401
30
0
11
58.24965
21
26.143957
31
0
39
0
210
0
220
0
230
1
0
LINE
5
D9
100
AcDbEntity
8
1
62
256
6
ByLayer
370
18
48
1
60
0
100
AcDbLine
10
59.604367
20
26.71007
30
0
11
59.742361
21
25.722238
31
0
39
0
210
0
220
0
230
1
0
LINE
5
DA
100
AcDbEntity
8
1
62
256
6
ByLayer
370
18
48
1
60
0
100
AcDbLine
10
54.687877
20
33.984957
30
0
11
53.68406
21
34.472905
31
0
39
0
210
0
220
0
230
1
0
LINE
5
DB
100
AcDbEntity
8
1
62
256
6
ByLayer
370
18
48
1
60
0
100
AcDbLine
10
59.604367
20
26.71007
30
0
11
58.404921
21
26.144073
31
0
39
0
210
0
220
0
230
1
0
LINE
5
DC
100
AcDbEntity
8
1
62
256
6
ByLayer
370
18
48
1
60
0
100
AcDbLine
10
58.77001
20
34.537389
30
0
11
60.062197
21
33.792576
31
0
39
0
210
0
220
0
230
1
0
LINE
5
DD
100
AcDbEntity
8
1
62
256
6
ByLayer
370
18
48
1
60
0
100
AcDbLine
10
57.55892
20
24.985253
30
0
11
58.181549
21
24.98572
31
0
39
0
210
0
220
0
230
1
0
LINE
5
DE
100
AcDbEntity
8
1
62
256
6
ByLayer
370
18
48
1
60
0
100
AcDbLine
10
58.436577
20
34.552862
30
0
11
55.887323
21
34.550953
31
0
39
0
210
0
220
0
230
1
0
LINE
5
DF
100
AcDbEntity
8
1
62
256
6
ByLayer
370
18
48
1
60
0
100
AcDbLine
10
55.887323
20
34.550953
30
0
11
54.687877
21
33.984957
31
0
39
0
210
0
220
0
230
1
0
LINE
5
E0
100
AcDbEntity
8
1
62
256
6
ByLayer
370
18
48
1
60
0
100
AcDbLine
10
61.223062
20
28.674938
30
0
11
59.604367
21
26.71007
31
0
39
0
210
0
220
0
230
1
0
LINE
5
E1
100
AcDbEntity
8
1
62
256
6
ByLayer
370
18
48
1
60
0
100
AcDbLine
10
55.244872
20
35.209423
30
0
11
53.68406
21
34.472905
31
0
39
0
210
0
220
0
230
1
0
LINE
5
E2
100
AcDbEntity
8
1
62
256
6
ByLayer
370
18
48
1
60
0
100
AcDbLine
10
61.48825
20
27.841503
30
0
11
59.742361
21
25.722238
31
0
39
0
210
0
220
0
230
1
0
LINE
5
E3
100
AcDbEntity
8
1
62
256
6
ByLayer
370
18
48
1
60
0
100
AcDbLine
10
53.288711
20
33.993006
30
0
11
53.68406
21
34.472905
31
0
39
0
210
0
220
0
230
1
0
LINE
5
E4
100
AcDbEntity
8
1
62
256
6
ByLayer
370
18
48
1
60
0
100
AcDbLine
10
57.950661
20
26.056401
30
0
11
57.55892
21
24.985253
31
0
39
0
210
0
220
0
230
1
0
LINE
5
E5
100
AcDbEntity
8
1
62
256
6
ByLayer
370
18
48
1
60
0
100
AcDbLine
10
54.687877
20
33.984957
30
0
11
54.589285
21
33.86528
31
0
39
0
210
0
220
0
230
1
0
LINE
5
E6
100
AcDbEntity
8
1
62
256
6
ByLayer
370
18
48
1
60
0
100
AcDbLine
10
61.665268
20
30.410993
30
0
11
62.443248
21
29.947649
31
0
39
0
210
0
220
0
230
1
0
LINE
5
E7
100
AcDbEntity
8
1
62
256
6
ByLayer
370
18
48
1
60
0
100
AcDbLine
10
57.994442
20
35.211482
30
0
11
55.244872
21
35.209423
31
0
39
0
210
0
220
0
230
1
0
LINE
5
E8
100
AcDbEntity
8
1
62
256
6
ByLayer
370
18
48
1
60
0
100
AcDbLine
10
61.223062
20
28.674938
30
0
11
61.48825
21
27.841503
31
0
39
0
210
0
220
0
230
1
0
LINE
5
E9
100
AcDbEntity
8
1
62
256
6
ByLayer
370
18
48
1
60
0
100
AcDbLine
10
55.887323
20
34.550953
30
0
11
55.244872
21
35.209423
31
0
39
0
210
0
220
0
230
1
0
LINE
5
EA
100
AcDbEntity
8
1
62
256
6
ByLayer
370
18
48
1
60
0
100
AcDbLine
10
58.436577
20
34.552862
30
0
11
57.994442
21
35.211482
31
0
39
0
210
0
220
0
230
1
0
LINE
5
EB
100
AcDbEntity
8
1
62
256
6
ByLayer
370
18
48
1
60
0
100
AcDbLine
10
59.742361
20
25.722238
30
0
11
58.181549
21
24.98572
31
0
39
0
210
0
220
0
230
1
0
LINE
5
EC
100
AcDbEntity
8
1
62
256
6
ByLayer
370
18
48
1
60
0
100
AcDbLine
10
52.652131
20
37.60398
30
0
11
52.741009
21
37.515587
31
0
39
0
210
0
220
0
230
1
0
LINE
5
ED
100
AcDbEntity
8
1
62
256
6
ByLayer
370
18
48
1
60
0
100
AcDbLine
10
10.538675
20
-19.43724
30
0
11
10.538675
21
-9.349221
31
0
39
0
210
0
220
0
230
1
0
LINE
5
EE
100
AcDbEntity
8
1
62
256
6
ByLayer
370
18
48
1
60
0
100
AcDbLine
10
10.538675
20
9.349221
30
0
11
10.538675
21
30.080593
31
0
39
0
210
0
220
0
230
1
0
LINE
5
EF
100
AcDbEntity
8
1
62
256
6
ByLayer
370
18
48
1
60
0
100
AcDbLine
10
13.461325
20
-30.080593
30
0
11
13.461325
21
-21.369494
31
0
39
0
210
0
220
0
230
1
0
LINE
5
F0
100
AcDbEntity
8
1
62
256
6
ByLayer
370
18
48
1
60
0
100
AcDbLine
10
23.975842
20
-31.076076
30
0
11
23.896286
21
-31.076076
31
0
39
0
210
0
220
0
230
1
0
LINE
5
F1
100
AcDbEntity
8
1
62
256
6
ByLayer
370
18
48
1
60
0
100
AcDbLine
10
44.839386
20
14.545576
30
0
11
44.178761
21
14.225158
31
0
39
0
210
0
220
0
230
1
0
LINE
5
F2
100
AcDbEntity
8
1
62
256
6
ByLayer
370
18
48
1
60
0
100
AcDbLine
10
10.105662
20
9.869413
30
0
11
10.105662
21
29.913955
31
0
39
0
210
0
220
0
230
1
0
LINE
5
F3
100
AcDbEntity
8
1
62
256
6
ByLayer
370
18
48
1
60
0
100
AcDbLine
10
19.25855
20
-7.269585
30
0
11
19.213861
21
-11.811333
31
0
39
0
210
0
220
0
230
1
0
LINE
5
F4
100
AcDbEntity
8
1
62
256
6
ByLayer
370
18
48
1
60
0
100
AcDbLine
10
10.105662
20
-29.913955
30
0
11
10.105662
21
-21.040182
31
0
39
0
210
0
220
0
230
1
0
LINE
5
F5
100
AcDbEntity
8
1
62
256
6
ByLayer
370
18
48
1
60
0
100
AcDbLine
10
13.894338
20
-20.132452
30
0
11
13.894338
21
-9.869413
31
0
39
0
210
0
220
0
230
1
0
LINE
5
F6
100
AcDbEntity
8
1
62
256
6
ByLayer
370
18
48
1
60
0
100
AcDbLine
10
10.538675
20
-30.080593
30
0
11
13.461325
21
-30.080593
31
0
39
0
210
0
220
0
230
1
0
LINE
5
F7
100
AcDbEntity
8
1
62
256
6
ByLayer
370
18
48
1
60
0
100
AcDbLine
10
13.894338
20
-29.913955
30
0
11
13.894338
21
-21.040182
31
0
39
0
210
0
220
0
230
1
0
LINE
5
F8
100
AcDbEntity
8
1
62
256
6
ByLayer
370
18
48
1
60
0
100
AcDbLine
10
10.105662
20
-20.132452
30
0
11
10.105662
21
-9.869413
31
0
39
0
210
0
220
0
230
1
0
LINE
5
F9
100
AcDbEntity
8
1
62
256
6
ByLayer
370
18
48
1
60
0
100
AcDbLine
10
60.770853
20
20.524155
30
0
11
61.345569
21
22.766753
31
0
39
0
210
0
220
0
230
1
0
LINE
5
FA
100
AcDbEntity
8
1
62
256
6
ByLayer
370
18
48
1
60
0
100
AcDbLine
10
13.461325
20
-19.43724
30
0
11
13.461325
21
-9.349221
31
0
39
0
210
0
220
0
230
1
0
LINE
5
FB
100
AcDbEntity
8
1
62
256
6
ByLayer
370
18
48
1
60
0
100
AcDbLine
10
13.461325
20
9.349221
30
0
11
13.461325
21
30.080593
31
0
39
0
210
0
220
0
230
1
0
LINE
5
FC
100
AcDbEntity
8
1
62
256
6
ByLayer
370
18
48
1
60
0
100
AcDbLine
10
10.538675
20
-30.080593
30
0
11
10.538675
21
-21.369494
31
0
39
0
210
0
220
0
230
1
0
LINE
5
FD
100
AcDbEntity
8
1
62
256
6
ByLayer
370
18
48
1
60
0
100
AcDbLine
10
34.818738
20
13.103137
30
0
11
29.654848
21
23.996056
31
0
39
0
210
0
220
0
230
1
0
LINE
5
FE
100
AcDbEntity
8
1
62
256
6
ByLayer
370
18
48
1
60
0
100
AcDbLine
10
60.770853
20
20.524155
30
0
11
42.692375
21
-5.053645
31
0
39
0
210
0
220
0
230
1
0
LINE
5
FF
100
AcDbEntity
8
1
62
256
6
ByLayer
370
18
48
1
60
0
100
AcDbLine
10
50.784062
20
38.104527
30
0
11
24.781447
21
38.104527
31
0
39
0
210
0
220
0
230
1
0
LINE
5
100
100
AcDbEntity
8
1
62
256
6
ByLayer
370
18
48
1
60
0
100
AcDbLine
10
10.538675
20
9.349221
30
0
11
13.461325
21
9.349221
31
0
39
0
210
0
220
0
230
1
0
LINE
5
101
100
AcDbEntity
8
1
62
256
6
ByLayer
370
18
48
1
60
0
100
AcDbLine
10
19.91222
20
-6.707939
30
0
11
19.911507
21
-6.708552
31
0
39
0
210
0
220
0
230
1
0
LINE
5
102
100
AcDbEntity
8
1
62
256
6
ByLayer
370
18
48
1
60
0
100
AcDbLine
10
24.067443
20
27.205684
30
0
11
42.692375
21
-5.053645
31
0
39
0
210
0
220
0
230
1
0
LINE
5
103
100
AcDbEntity
8
1
62
256
6
ByLayer
370
18
48
1
60
0
100
AcDbLine
10
19.911507
20
29.985012
30
0
11
19.911507
21
-6.708552
31
0
39
0
210
0
220
0
230
1
0
LINE
5
104
100
AcDbEntity
8
1
62
256
6
ByLayer
370
18
48
1
60
0
100
AcDbLine
10
24.067443
20
27.205684
30
0
11
24.067443
21
35.370554
31
0
39
0
210
0
220
0
230
1
0
LINE
5
105
100
AcDbEntity
8
1
62
256
6
ByLayer
370
18
48
1
60
0
100
AcDbLine
10
19.911507
20
-6.708552
30
0
11
19.25855
21
-7.269585
31
0
39
0
210
0
220
0
230
1
0
LINE
5
106
100
AcDbEntity
8
1
62
256
6
ByLayer
370
18
48
1
60
0
100
AcDbLine
10
19.364784
20
-15.723104
30
0
11
19.623511
21
-16.798469
31
0
39
0
210
0
220
0
230
1
0
LINE
5
107
100
AcDbEntity
8
1
62
256
6
ByLayer
370
18
48
1
60
0
100
AcDbLine
10
23.975842
20
-31.076076
30
0
11
42.692375
21
-5.053645
31
0
39
0
210
0
220
0
230
1
0
LINE
5
108
100
AcDbEntity
8
1
62
256
6
ByLayer
370
18
48
1
60
0
100
AcDbLine
10
52.741009
20
37.515587
30
0
11
52.131882
21
35.138718
31
0
39
0
210
0
220
0
230
1
0
LINE
5
109
100
AcDbEntity
8
1
62
256
6
ByLayer
370
18
48
1
60
0
100
AcDbLine
10
37.129405
20
30.809322
30
0
11
36.46878
21
30.488904
31
0
39
0
210
0
220
0
230
1
0
LINE
5
10A
100
AcDbEntity
8
1
62
256
6
ByLayer
370
18
48
1
60
0
100
AcDbLine
10
52.652131
20
37.60398
30
0
11
50.784062
21
38.104527
31
0
39
0
210
0
220
0
230
1
0
LINE
5
10B
100
AcDbEntity
8
1
62
256
6
ByLayer
370
18
48
1
60
0
100
AcDbLine
10
13.894338
20
9.869413
30
0
11
13.894338
21
29.913955
31
0
39
0
210
0
220
0
230
1
0
LINE
5
10C
100
AcDbEntity
8
1
62
256
6
ByLayer
370
18
48
1
60
0
100
AcDbLine
10
13.461325
20
-9.349221
30
0
11
10.538675
21
-9.349221
31
0
39
0
210
0
220
0
230
1
0
LINE
5
10D
100
AcDbEntity
8
1
62
256
6
ByLayer
370
18
48
1
60
0
100
AcDbLine
10
13.461325
20
30.080593
30
0
11
10.538675
21
30.080593
31
0
39
0
210
0
220
0
230
1
0
LINE
5
10E
100
AcDbEntity
8
SK1
62
256
6
ByLayer
370
18
48
1
60
0
100
AcDbLine
10
-1.307107
20
-4.811013
30
0
11
-1.307107
21
4.811013
31
0
39
0
210
0
220
0
230
1
0
LINE
5
10F
100
AcDbEntity
8
1
62
256
6
ByLayer
370
18
48
1
60
0
100
AcDbLine
10
46.451814
20
25.699533
30
0
11
46.738299
21
25.864935
31
0
39
0
210
0
220
0
230
1
0
LINE
5
110
100
AcDbEntity
8
1
62
256
6
ByLayer
370
18
48
1
60
0
100
AcDbLine
10
45.90966
20
26.07814
30
0
11
46.196146
21
26.243543
31
0
39
0
210
0
220
0
230
1
0
LINE
5
111
100
AcDbEntity
8
1
62
256
6
ByLayer
370
18
48
1
60
0
100
AcDbLine
10
46.773527
20
25.020897
30
0
11
47.060013
21
25.1863
31
0
39
0
210
0
220
0
230
1
0
LINE
5
112
100
AcDbEntity
8
1
62
256
6
ByLayer
370
18
48
1
60
0
100
AcDbLine
10
45.709143
20
23.468971
30
0
11
45.995629
21
23.634374
31
0
39
0
210
0
220
0
230
1
0
LINE
5
113
100
AcDbEntity
8
1
62
256
6
ByLayer
370
18
48
1
60
0
100
AcDbLine
10
46.722935
20
24.362584
30
0
11
47.009421
21
24.527987
31
0
39
0
210
0
220
0
230
1
0
LINE
5
114
100
AcDbEntity
8
1
62
256
6
ByLayer
370
18
48
1
60
0
100
AcDbLine
10
44.574154
20
25.863163
30
0
11
44.86064
21
26.028566
31
0
39
0
210
0
220
0
230
1
0
LINE
5
115
100
AcDbEntity
8
1
62
256
6
ByLayer
370
18
48
1
60
0
100
AcDbLine
10
64.975214
20
34.189344
30
0
11
62.231317
21
23.482402
31
0
39
0
210
0
220
0
230
1
0
LINE
5
116
100
AcDbEntity
8
1
62
256
6
ByLayer
370
18
48
1
60
0
100
AcDbLine
10
53.733654
20
38.018808
30
0
11
64.408703
21
35.158438
31
0
39
0
210
0
220
0
230
1
0
MTEXT
5
1F9
100
AcDbEntity
8
SK6
62
256
6
ByLayer
370
18
48
1
60
0
100
AcDbMText
10
-8.125
20
-40.571
30
0
210
0
220
0
230
1
1
\W0.7294;C6-CSRNR-35065-12-4
40
3.5
41
0
44
1.084337
50
0
71
7
72
5
7
iso_b_vert
0
DIMENSION
5
218
100
AcDbEntity
8
2
62
256
6
ByLayer
370
13
48
1
60
0
100
AcDbDimension
2
DimnDraft3D2
10
57.434643
20
37.027131
30
0
11
54.668976
21
48.463653
31
0
70
34
71
5
72
1
41
1
210
0
220
0
230
1
3
Standard
100
AcDb2LineAngularDimension
13
65
23
35
33
0
14
65
24
33.4125
34
0
15
65
25
35
35
0
16
57.408402
26
44.893563
36
0
40
0
0
DIMENSION
5
22E
100
AcDbEntity
8
SK2
62
256
6
ByLayer
370
13
48
1
60
0
100
AcDbDimension
2
DimnDraft3D3
10
-45.75
20
31.5
30
0
11
-45.75
21
-2.688158
31
0
70
32
71
5
72
1
41
1
210
0
220
0
230
1
3
Standard
100
AcDbAlignedDimension
13
-2
23
-31.5
33
0
14
-2
24
31.5
34
0
50
90
100
AcDbRotatedDimension
1001
ACAD
1000
DSTYLE
1002
{
1070
    74
1070
     0
1070
   279
1070
     0
1070
   172
1070
     1
1070
   173
1070
     1
1070
   340
1005
1FA
1070
    77
1070
     1
1070
    73
1070
     0
1070
   171
1070
     3
1070
   274
1070
     4
1070
   177
1070
     2
1070
   176
1070
     2
1070
   178
1070
     7
1070
    78
1070
     8
1070
    41
1041
3.175
1070
   147
1041
2.25
1070
    42
1041
2.0
1070
    44
1041
2.0
1070
   140
1041
4.5
1070
   343
1005
219
1070
   344
1005
219
1002
}
0
DIMENSION
5
23C
100
AcDbEntity
8
2
62
256
6
ByLayer
370
13
48
1
60
0
100
AcDbDimension
2
DimnDraft3D4
10
87.25
20
35
30
0
11
87.25
21
12.218421
31
0
70
32
71
5
72
1
41
1
210
0
220
0
230
1
3
Standard
100
AcDbAlignedDimension
13
67
23
0
33
0
14
67
24
35
34
0
50
90
100
AcDbRotatedDimension
1001
ACAD
1000
DSTYLE
1002
{
1070
    74
1070
     0
1070
   279
1070
     0
1070
   172
1070
     1
1070
   173
1070
     1
1070
   340
1005
1FA
1070
    77
1070
     1
1070
    73
1070
     0
1070
   171
1070
     3
1070
   274
1070
     4
1070
   177
1070
     2
1070
   176
1070
     2
1070
   178
1070
     7
1070
    78
1070
     8
1070
    41
1041
3.175
1070
   147
1041
2.25
1070
    42
1041
2.0
1070
    44
1041
2.0
1070
   140
1041
4.5
1070
   343
1005
219
1070
   344
1005
219
1002
}
0
ENDSEC
0
SECTION
2
OBJECTS
0
DICTIONARY
5
2a7
330
0
100
AcDbDictionary
280
0
281
1
3
ACAD_GROUP
350
2a8
3
ACAD_MLINESTYLE
350
2a9
0
DICTIONARY
5
2a8
330
0
100
AcDbDictionary
280
0
281
1
0
DICTIONARY
5
2a9
330
0
100
AcDbDictionary
280
0
281
1
3
Standard
350
18
0
MLINESTYLE
5
18
330
2a9
100
AcDbMlineStyle
2
Standard
70
0
3

62
256
51
90
52
90
71
2
49
-0.5
62
256
6
ByLayer
49
0.5
62
256
6
ByLayer
0
RASTERVARIABLES
5
295
330

100
AcDbRasterVariables
90
0
70
1
71
1
72
1
0
ENDSEC
0
EOF
