0
SECTION
2
HEADER
9
$ACADVER
1
AC1015
9
$DWGCODEPAGE
3
ANSI_1252
9
$HANDSEED
5
2ab
9
$ANGBASE
50
0
9
$ANGDIR
70
0
9
$ATTMODE
70
1
9
$AUNITS
70
0
9
$AUPREC
70
0
9
$CECOLOR
62
256
9
$CELTSCALE
40
1
9
$CELTYPE
6
ByLayer
9
$CELWEIGHT
370
18
9
$CLAYER
8
0
9
$CMLJUST
70
0
9
$CMLSCALE
40
1
9
$CMLSTYLE
2
Standard
9
$DIMSTYLE
2
Standard
9
$TEXTSIZE
40
0.2
9
$TEXTSTYLE
7
Standard
9
$LUNITS
70
2
9
$LUPREC
70
4
9
$EXTNAMES
290
1
9
$INSUNITS
70
4
9
$LTSCALE
40
1
9
$LWDISPLAY
290
1
9
$PDMODE
70
0
9
$PDSIZE
40
0
9
$PLINEGEN
70
0
0
ENDSEC
0
SECTION
2
CLASSES
0
CLASS
1
RASTERVARIABLES
2
AcDbRasterVariables
3
ISM
90
0
280
0
281
0
0
ENDSEC
0
SECTION
2
TABLES
0
TABLE
2
VPORT
5
2a1
100
AcDbSymbolTable
0
VPORT
5
1
100
AcDbSymbolTableRecord
100
AcDbViewportTableRecord
2
*Active
70
0
10
0
20
0
11
1
21
1
12
-1
22
1
13
0
23
0
14
0.5
24
0.5
15
10
25
10
16
0
26
0
36
1
17
0
27
0
37
0
0
ENDTAB
0
TABLE
2
LTYPE
5
2a2
100
AcDbSymbolTable
0
LTYPE
5
14
100
AcDbSymbolTableRecord
100
AcDbLinetypeTableRecord
70
0
2
ByBlock
3

72
65
73
0
40
0
0
LTYPE
5
15
100
AcDbSymbolTableRecord
100
AcDbLinetypeTableRecord
70
0
2
ByLayer
3

72
65
73
0
40
0
0
LTYPE
5
16
100
AcDbSymbolTableRecord
100
AcDbLinetypeTableRecord
70
0
2
CONTINUOUS
3
Solid line
72
65
73
0
40
0
0
LTYPE
5
6A
100
AcDbSymbolTableRecord
100
AcDbLinetypeTableRecord
70
0
2
CENTER
3
____ _ ____ _ ____ _ ____
72
65
73
4
40
47.5
49
22
74
0
49
-8.5
74
0
49
8.5
74
0
49
-8.5
74
0
0
LTYPE
5
6B
100
AcDbSymbolTableRecord
100
AcDbLinetypeTableRecord
70
0
2
DASHED
3
__ __ __ __ __ __ __ __ __
72
65
73
2
40
25.72
49
12.86
74
0
49
-12.86
74
0
0
ENDTAB
0
TABLE
2
LAYER
5
2a3
100
AcDbSymbolTable
0
LAYER
5
10
100
AcDbSymbolTableRecord
100
AcDbLayerTableRecord
2
0
70
0
62
7
6
CONTINUOUS
290
1
370
-3
390
0
0
LAYER
5
6D
100
AcDbSymbolTableRecord
100
AcDbLayerTableRecord
2
2
70
0
62
7
6
CONTINUOUS
290
1
370
-3
390
0
0
LAYER
5
6F
100
AcDbSymbolTableRecord
100
AcDbLayerTableRecord
2
80
70
0
62
-6
6
CONTINUOUS
290
1
370
-3
390
0
0
LAYER
5
71
100
AcDbSymbolTableRecord
100
AcDbLayerTableRecord
2
81
70
0
62
-3
6
CONTINUOUS
290
1
370
-3
390
0
0
LAYER
5
73
100
AcDbSymbolTableRecord
100
AcDbLayerTableRecord
2
1
70
0
62
4
6
CONTINUOUS
290
1
370
-3
390
0
0
LAYER
5
89
100
AcDbSymbolTableRecord
100
AcDbLayerTableRecord
2
4
70
0
62
-2
6
CENTER
290
1
370
-3
390
0
0
LAYER
5
28d
100
AcDbSymbolTableRecord
100
AcDbLayerTableRecord
2
SK4
70
0
62
2
6
CENTER
290
1
370
-3
390
0
0
LAYER
5
28e
100
AcDbSymbolTableRecord
100
AcDbLayerTableRecord
2
SK1
70
0
62
4
6
CONTINUOUS
290
1
370
-3
390
0
0
LAYER
5
28f
100
AcDbSymbolTableRecord
100
AcDbLayerTableRecord
2
SK6
70
0
62
5
6
CONTINUOUS
290
1
370
-3
390
0
0
LAYER
5
290
100
AcDbSymbolTableRecord
100
AcDbLayerTableRecord
2
SK2
70
0
62
7
6
CONTINUOUS
290
1
370
-3
390
0
0
ENDTAB
0
TABLE
2
STYLE
5
2a4
100
AcDbSymbolTable
0
STYLE
5
11
100
AcDbSymbolTableRecord
100
AcDbTextStyleTableRecord
2
Standard
3
txt
70
0
71
0
40
0
41
1
42
0
50
0
0
STYLE
5
1F1
100
AcDbSymbolTableRecord
100
AcDbTextStyleTableRecord
2
iso_b_vert
3
simplex.shx
70
0
71
0
40
0
41
1
42
0
50
0
0
STYLE
5
1F2
100
AcDbSymbolTableRecord
100
AcDbTextStyleTableRecord
2
DWGDirectTextStyle
3
simplex
70
0
71
0
40
0
41
1
42
0
50
0
0
ENDTAB
0
TABLE
2
DIMSTYLE
5
2a5
100
AcDbSymbolTable
100
AcDbDimStyleTable
0
DIMSTYLE
105
27
100
AcDbSymbolTableRecord
100
AcDbDimStyleTableRecord
2
Standard
70
0
3
<>
41
0.18
42
0.0625
44
0.18
140
0.18
147
0.09
73
0
74
0
77
1
271
2
275
0
278
52
280
0
340
11
0
ENDTAB
0
TABLE
2
VIEW
5
2a6
100
AcDbSymbolTable
0
ENDTAB
0
TABLE
2
UCS
5
2a7
100
AcDbSymbolTable
0
ENDTAB
0
TABLE
2
APPID
5
2a8
100
AcDbSymbolTable
0
APPID
5
12
100
AcDbSymbolTableRecord
100
AcDbRegAppTableRecord
2
ACAD
70
0
0
ENDTAB
0
TABLE
2
BLOCK_RECORD
5
2a9
100
AcDbSymbolTable
0
BLOCK_RECORD
5
1F
100
AcDbSymbolTableRecord
100
AcDbBlockTableRecord
2
*Model_Space
340
0
70
0
0
BLOCK_RECORD
5
1B
100
AcDbSymbolTableRecord
100
AcDbBlockTableRecord
2
*Paper_Space
340
0
70
0
0
BLOCK_RECORD
5
23
100
AcDbSymbolTableRecord
100
AcDbBlockTableRecord
2
*Paper_Space0
340
0
70
0
0
BLOCK_RECORD
5
1F4
100
AcDbSymbolTableRecord
100
AcDbBlockTableRecord
2
DimnDraft3D11
340
0
70
0
0
BLOCK_RECORD
5
202
100
AcDbSymbolTableRecord
100
AcDbBlockTableRecord
2
DimnDraft3D2
340
0
70
0
0
BLOCK_RECORD
5
210
100
AcDbSymbolTableRecord
100
AcDbBlockTableRecord
2
_CLOSED
340
0
70
0
0
BLOCK_RECORD
5
217
100
AcDbSymbolTableRecord
100
AcDbBlockTableRecord
2
DimnDraft3D3
340
0
70
0
0
BLOCK_RECORD
5
226
100
AcDbSymbolTableRecord
100
AcDbBlockTableRecord
2
DimnDraft3D4
340
0
70
0
0
ENDTAB
0
ENDSEC
0
SECTION
2
BLOCKS
0
BLOCK
5
20
100
AcDbEntity
8
0
100
AcDbBlockBegin
2
*Model_Space
70
0
10
0
20
0
30
0
3
*Model_Space
0
ENDBLK
5
21
100
AcDbEntity
8
0
100
AcDbBlockEnd
0
BLOCK
5
1C
100
AcDbEntity
8
0
100
AcDbBlockBegin
2
*Paper_Space
70
0
10
0
20
0
30
0
3
*Paper_Space
0
ENDBLK
5
1D
100
AcDbEntity
8
0
100
AcDbBlockEnd
0
BLOCK
5
24
100
AcDbEntity
8
0
100
AcDbBlockBegin
2
*Paper_Space0
70
0
10
0
20
0
30
0
3
*Paper_Space0
0
ENDBLK
5
25
100
AcDbEntity
8
0
100
AcDbBlockEnd
0
BLOCK
5
1F5
100
AcDbEntity
8
0
100
AcDbBlockBegin
2
DimnDraft3D11
70
0
10
0
20
0
30
0
3
DimnDraft3D11
0
LINE
5
1F7
100
AcDbEntity
8
2
62
256
6
ByLayer
370
25
48
1
60
0
100
AcDbLine
10
65
20
47
30
0
11
65
21
54.75
31
0
39
0
210
0
220
0
230
1
0
LINE
5
1F8
100
AcDbEntity
8
2
62
256
6
ByLayer
370
25
48
1
60
0
100
AcDbLine
10
0
20
33.5
30
0
11
0
21
54.75
31
0
39
0
210
0
220
0
230
1
0
LINE
5
1F9
100
AcDbEntity
8
2
62
256
6
ByLayer
370
25
48
1
60
0
100
AcDbLine
10
65
20
52.75
30
0
11
0
21
52.75
31
0
39
0
210
0
220
0
230
1
0
LINE
5
1FA
100
AcDbEntity
8
2
62
256
6
ByLayer
370
25
48
1
60
0
100
AcDbLine
10
65
20
52.75
30
0
11
61.825002
21
52.332003
31
0
39
0
210
0
220
0
230
1
0
LINE
5
1FB
100
AcDbEntity
8
2
62
256
6
ByLayer
370
25
48
1
60
0
100
AcDbLine
10
65
20
52.75
30
0
11
61.824998
21
53.167997
31
0
39
0
210
0
220
0
230
1
0
LINE
5
1FC
100
AcDbEntity
8
2
62
256
6
ByLayer
370
25
48
1
60
0
100
AcDbLine
10
61.825002
20
52.332003
30
0
11
61.824998
21
53.167997
31
0
39
0
210
0
220
0
230
1
0
LINE
5
1FD
100
AcDbEntity
8
2
62
256
6
ByLayer
370
25
48
1
60
0
100
AcDbLine
10
0
20
52.75
30
0
11
3.174998
21
53.167997
31
0
39
0
210
0
220
0
230
1
0
LINE
5
1FE
100
AcDbEntity
8
2
62
256
6
ByLayer
370
25
48
1
60
0
100
AcDbLine
10
0
20
52.75
30
0
11
3.175002
21
52.332003
31
0
39
0
210
0
220
0
230
1
0
LINE
5
1FF
100
AcDbEntity
8
2
62
256
6
ByLayer
370
25
48
1
60
0
100
AcDbLine
10
3.174998
20
53.167997
30
0
11
3.175002
21
52.332003
31
0
39
0
210
0
220
0
230
1
0
MTEXT
5
200
100
AcDbEntity
8
2
62
256
6
ByLayer
370
18
48
1
60
0
100
AcDbMText
10
28.343421
20
53.875
30
0
210
0
220
0
230
1
1
\W0.7346;65.0
40
4.5
41
0
44
1.084337
50
0
71
7
72
5
7
iso_b_vert
0
ENDBLK
5
1F6
100
AcDbEntity
8
0
100
AcDbBlockEnd
0
BLOCK
5
20D
100
AcDbEntity
8
0
100
AcDbBlockBegin
2
DimnDraft3D2
70
0
10
0
20
0
30
0
3
DimnDraft3D2
0
MTEXT
5
203
100
AcDbEntity
8
2
62
256
6
ByLayer
370
18
48
1
60
0
100
AcDbMText
10
86.096024
20
25.133033
30
0
210
0
220
0
230
1
1
\W0.7399;75%%d
40
4.5
41
0
44
1.084337
50
52.5
71
7
72
5
7
iso_b_vert
0
LINE
5
204
100
AcDbEntity
8
2
62
256
6
ByLayer
370
13
48
1
60
0
100
AcDbLine
10
67.544769
20
35.502791
30
0
11
73.270781
21
14.133025
31
0
39
0
210
0
220
0
230
1
0
LINE
5
205
100
AcDbEntity
8
2
62
256
6
ByLayer
370
13
48
1
60
0
100
AcDbLine
10
67
20
45
30
0
11
96.955844
21
45
31
0
39
0
210
0
220
0
230
1
0
ARC
5
206
100
AcDbEntity
8
2
62
256
6
ByLayer
370
13
48
1
60
0
100
AcDbCircle
39
0
10
65
20
45
30
0
40
29.9558441227157
210
0
220
0
230
1
100
AcDbArc
50
285
51
0
0
LINE
5
207
100
AcDbEntity
8
2
62
256
6
ByLayer
370
13
48
1
60
0
100
AcDbLine
10
72.753143
20
16.064877
30
0
11
75.678295
21
17.368264
31
0
39
0
210
0
220
0
230
1
0
LINE
5
208
100
AcDbEntity
8
2
62
256
6
ByLayer
370
13
48
1
60
0
100
AcDbLine
10
72.753143
20
16.064877
30
0
11
75.915968
21
16.566768
31
0
39
0
210
0
220
0
230
1
0
LINE
5
209
100
AcDbEntity
8
2
62
256
6
ByLayer
370
13
48
1
60
0
100
AcDbLine
10
75.678295
20
17.368264
30
0
11
75.915968
21
16.566768
31
0
39
0
210
0
220
0
230
1
0
LINE
5
20A
100
AcDbEntity
8
2
62
256
6
ByLayer
370
13
48
1
60
0
100
AcDbLine
10
94.955844
20
45
30
0
11
95.289654
21
41.81505
31
0
39
0
210
0
220
0
230
1
0
LINE
5
20B
100
AcDbEntity
8
2
62
256
6
ByLayer
370
13
48
1
60
0
100
AcDbLine
10
94.955844
20
45
30
0
11
94.453953
21
41.837175
31
0
39
0
210
0
220
0
230
1
0
LINE
5
20C
100
AcDbEntity
8
2
62
256
6
ByLayer
370
13
48
1
60
0
100
AcDbLine
10
95.289654
20
41.81505
30
0
11
94.453953
21
41.837175
31
0
39
0
210
0
220
0
230
1
0
ENDBLK
5
20E
100
AcDbEntity
8
0
100
AcDbBlockEnd
0
BLOCK
5
211
100
AcDbEntity
8
0
100
AcDbBlockBegin
2
_CLOSED
70
0
10
0
20
0
30
0
3
_CLOSED
0
LINE
5
213
100
AcDbEntity
8
0
62
256
6
ByLayer
370
-2
48
1
60
0
100
AcDbLine
10
-1
20
0.166667
30
0
11
0
21
0
31
0
39
0
210
0
220
0
230
1
0
LINE
5
214
100
AcDbEntity
8
0
62
256
6
ByLayer
370
-2
48
1
60
0
100
AcDbLine
10
0
20
0
30
0
11
-1
21
-0.166667
31
0
39
0
210
0
220
0
230
1
0
LINE
5
215
100
AcDbEntity
8
0
62
256
6
ByLayer
370
-2
48
1
60
0
100
AcDbLine
10
-1
20
0.166667
30
0
11
-1
21
-0.166667
31
0
39
0
210
0
220
0
230
1
0
LINE
5
216
100
AcDbEntity
8
0
62
256
6
ByLayer
370
-2
48
1
60
0
100
AcDbLine
10
0
20
0
30
0
11
-1
21
0
31
0
39
0
210
0
220
0
230
1
0
ENDBLK
5
212
100
AcDbEntity
8
0
100
AcDbBlockEnd
0
BLOCK
5
223
100
AcDbEntity
8
0
100
AcDbBlockBegin
2
DimnDraft3D3
70
0
10
0
20
0
30
0
3
DimnDraft3D3
0
MTEXT
5
218
100
AcDbEntity
8
SK2
62
256
6
ByLayer
370
18
48
1
60
0
100
AcDbMText
10
-46.875
20
-1.563158
30
0
210
0
220
0
230
1
1
\W0.6740;63
40
4.5
41
0
44
1.084337
50
90
71
7
72
5
7
iso_b_vert
0
LINE
5
21A
100
AcDbEntity
8
SK2
62
256
6
ByLayer
370
13
48
1
60
0
100
AcDbLine
10
-2
20
-31.5
30
0
11
-47.75
21
-31.5
31
0
39
0
210
0
220
0
230
1
0
LINE
5
21B
100
AcDbEntity
8
SK2
62
256
6
ByLayer
370
13
48
1
60
0
100
AcDbLine
10
-2
20
31.5
30
0
11
-47.75
21
31.5
31
0
39
0
210
0
220
0
230
1
0
LINE
5
21C
100
AcDbEntity
8
SK2
62
256
6
ByLayer
370
13
48
1
60
0
100
AcDbLine
10
-45.75
20
-31.5
30
0
11
-45.75
21
31.5
31
0
39
0
210
0
220
0
230
1
0
LINE
5
21D
100
AcDbEntity
8
SK2
62
256
6
ByLayer
370
13
48
1
60
0
100
AcDbLine
10
-45.75
20
-31.5
30
0
11
-46.167997
21
-28.325002
31
0
39
0
210
0
220
0
230
1
0
LINE
5
21E
100
AcDbEntity
8
SK2
62
256
6
ByLayer
370
13
48
1
60
0
100
AcDbLine
10
-45.75
20
-31.5
30
0
11
-45.332003
21
-28.324998
31
0
39
0
210
0
220
0
230
1
0
LINE
5
21F
100
AcDbEntity
8
SK2
62
256
6
ByLayer
370
13
48
1
60
0
100
AcDbLine
10
-46.167997
20
-28.325002
30
0
11
-45.332003
21
-28.324998
31
0
39
0
210
0
220
0
230
1
0
LINE
5
220
100
AcDbEntity
8
SK2
62
256
6
ByLayer
370
13
48
1
60
0
100
AcDbLine
10
-45.75
20
31.5
30
0
11
-45.332003
21
28.325002
31
0
39
0
210
0
220
0
230
1
0
LINE
5
221
100
AcDbEntity
8
SK2
62
256
6
ByLayer
370
13
48
1
60
0
100
AcDbLine
10
-45.75
20
31.5
30
0
11
-46.167997
21
28.324998
31
0
39
0
210
0
220
0
230
1
0
LINE
5
222
100
AcDbEntity
8
SK2
62
256
6
ByLayer
370
13
48
1
60
0
100
AcDbLine
10
-45.332003
20
28.325002
30
0
11
-46.167997
21
28.324998
31
0
39
0
210
0
220
0
230
1
0
ENDBLK
5
224
100
AcDbEntity
8
0
100
AcDbBlockEnd
0
BLOCK
5
231
100
AcDbEntity
8
0
100
AcDbBlockBegin
2
DimnDraft3D4
70
0
10
0
20
0
30
0
3
DimnDraft3D4
0
MTEXT
5
227
100
AcDbEntity
8
2
62
256
6
ByLayer
370
18
48
1
60
0
100
AcDbMText
10
104.125
20
18.106579
30
0
210
0
220
0
230
1
1
\W0.7640;45.0
40
4.5
41
0
44
1.084337
50
90
71
7
72
5
7
iso_b_vert
0
LINE
5
228
100
AcDbEntity
8
2
62
256
6
ByLayer
370
13
48
1
60
0
100
AcDbLine
10
67
20
0
30
0
11
107.25
21
0
31
0
39
0
210
0
220
0
230
1
0
LINE
5
229
100
AcDbEntity
8
2
62
256
6
ByLayer
370
13
48
1
60
0
100
AcDbLine
10
67
20
45
30
0
11
107.25
21
45
31
0
39
0
210
0
220
0
230
1
0
LINE
5
22A
100
AcDbEntity
8
2
62
256
6
ByLayer
370
13
48
1
60
0
100
AcDbLine
10
105.25
20
0
30
0
11
105.25
21
45
31
0
39
0
210
0
220
0
230
1
0
LINE
5
22B
100
AcDbEntity
8
2
62
256
6
ByLayer
370
13
48
1
60
0
100
AcDbLine
10
105.25
20
0
30
0
11
104.832003
21
3.174998
31
0
39
0
210
0
220
0
230
1
0
LINE
5
22C
100
AcDbEntity
8
2
62
256
6
ByLayer
370
13
48
1
60
0
100
AcDbLine
10
105.25
20
0
30
0
11
105.667997
21
3.175002
31
0
39
0
210
0
220
0
230
1
0
LINE
5
22D
100
AcDbEntity
8
2
62
256
6
ByLayer
370
13
48
1
60
0
100
AcDbLine
10
104.832003
20
3.174998
30
0
11
105.667997
21
3.175002
31
0
39
0
210
0
220
0
230
1
0
LINE
5
22E
100
AcDbEntity
8
2
62
256
6
ByLayer
370
13
48
1
60
0
100
AcDbLine
10
105.25
20
45
30
0
11
105.667997
21
41.825002
31
0
39
0
210
0
220
0
230
1
0
LINE
5
22F
100
AcDbEntity
8
2
62
256
6
ByLayer
370
13
48
1
60
0
100
AcDbLine
10
105.25
20
45
30
0
11
104.832003
21
41.824998
31
0
39
0
210
0
220
0
230
1
0
LINE
5
230
100
AcDbEntity
8
2
62
256
6
ByLayer
370
13
48
1
60
0
100
AcDbLine
10
105.667997
20
41.825002
30
0
11
104.832003
21
41.824998
31
0
39
0
210
0
220
0
230
1
0
ENDBLK
5
232
100
AcDbEntity
8
0
100
AcDbBlockEnd
0
ENDSEC
0
SECTION
2
ENTITIES
0
ARC
5
118
100
AcDbEntity
8
SK1
62
256
6
ByLayer
370
18
48
1
60
0
100
AcDbCircle
39
0
10
0.6
20
-23.45
30
0
40
0.999999999999999
210
0
220
0
230
-1
100
AcDbArc
50
113.578178
51
126.869898
0
ARC
5
119
100
AcDbEntity
8
SK1
62
256
6
ByLayer
370
18
48
1
60
0
100
AcDbCircle
39
0
10
0.6
20
23.45
30
0
40
0.999999999999999
210
0
220
0
230
-1
100
AcDbArc
50
233.130102
51
246.421822
0
ELLIPSE
5
11A
100
AcDbEntity
8
1
62
256
6
ByLayer
370
18
48
1
60
0
100
AcDbEllipse
10
53.678567
20
25.285511
30
0
11
-0.329089653438084
21
0.190000000000004
31
0
210
0
220
0
230
1
40
0.989133
41
-0.812068914915989
42
-0.45561817714668
0
ELLIPSE
5
11B
100
AcDbEntity
8
1
62
256
6
ByLayer
370
18
48
1
60
0
100
AcDbEllipse
10
55.642617
20
24.354435
30
0
11
-0.329089653438084
21
0.190000000000004
31
0
210
0
220
0
230
1
40
0.989133
41
-2.68595077986915
42
-2.16591723051739
0
ELLIPSE
5
11C
100
AcDbEntity
8
1
62
256
6
ByLayer
370
18
48
1
60
0
100
AcDbEllipse
10
53.487854
20
26.062863
30
0
11
0.368060796608381
21
-0.212500000000009
31
0
210
0
220
0
230
1
40
0.989133
41
-0.812068914915993
42
1.50816587125979E-05
0
ELLIPSE
5
11D
100
AcDbEntity
8
1
62
256
6
ByLayer
370
18
48
1
60
0
100
AcDbEllipse
10
56.363126
20
24.699813
30
0
11
0.368060796608381
21
-0.212500000000009
31
0
210
0
220
0
230
1
40
0.989133
41
-3.14157944955831
42
-2.16591723051744
0
ELLIPSE
5
11E
100
AcDbEntity
8
1
62
256
6
ByLayer
370
18
48
1
60
0
100
AcDbEllipse
10
54.208363
20
26.408241
30
0
11
-0.329089653438084
21
0.190000000000004
31
0
210
0
220
0
230
1
40
0.989133
41
-1.85926646611261
42
-0.45561584414201
0
ELLIPSE
5
11F
100
AcDbEntity
8
1
62
256
6
ByLayer
370
18
48
1
60
0
100
AcDbEllipse
10
56.172413
20
25.477165
30
0
11
-0.329089653438084
21
0.190000000000004
31
0
210
0
220
0
230
1
40
0.989133
41
-2.68591227252007
42
-1.11871967932088
0
ELLIPSE
5
120
100
AcDbEntity
8
1
62
256
6
ByLayer
370
18
48
1
60
0
100
AcDbEllipse
10
54.848302
20
25.247645
30
0
11
3.46410161513771
21
-2.00000000000009
31
0
210
0
220
0
230
1
40
0.989133
41
3.14152429077444
42
-1.05191586252642
0
ELLIPSE
5
121
100
AcDbEntity
8
1
62
256
6
ByLayer
370
18
48
1
60
0
100
AcDbEllipse
10
54.848302
20
25.247645
30
0
11
3.46410161513771
21
-2.00000000000009
31
0
210
0
220
0
230
1
40
0.989133
41
-1.05191586252641
42
0
0
ELLIPSE
5
122
100
AcDbEntity
8
1
62
256
6
ByLayer
370
18
48
1
60
0
100
AcDbEllipse
10
54.92549
20
25.381338
30
0
11
0.99592921435209
21
-0.575000000000023
31
0
210
0
220
0
230
1
40
0.989133
41
-1.75562946184889
42
-1.16294859538306
0
ELLIPSE
5
123
100
AcDbEntity
8
1
62
256
6
ByLayer
370
18
48
1
60
0
100
AcDbEllipse
10
54.92549
20
25.381338
30
0
11
0.99592921435209
21
-0.575000000000023
31
0
210
0
220
0
230
1
40
0.989133
41
-0.509006198801701
42
0
0
ELLIPSE
5
124
100
AcDbEntity
8
1
62
256
6
ByLayer
370
18
48
1
60
0
100
AcDbEllipse
10
54.92549
20
25.381338
30
0
11
0.99592921435209
21
-0.575000000000023
31
0
210
0
220
0
230
1
40
0.989133
41
0
42
-2.45247374481902
0
ELLIPSE
5
125
100
AcDbEntity
8
1
62
256
6
ByLayer
370
18
48
1
60
0
100
AcDbEllipse
10
54.863005
20
25.27311
30
0
11
0.99592921435209
21
-0.575000000000023
31
0
210
0
220
0
230
1
40
0.989133
41
0.0549096079405091
42
3.08664461741743
0
ELLIPSE
5
126
100
AcDbEntity
8
1
62
256
6
ByLayer
370
18
48
1
60
0
100
AcDbEllipse
10
60.720312
20
37.936149
30
0
11
2.90477494116405
21
-1.67707259421644
31
0
210
0
220
0
230
1
40
0.989133
41
1.79770952456551
42
2.84815011848921
0
ELLIPSE
5
127
100
AcDbEntity
8
1
62
256
6
ByLayer
370
18
48
1
60
0
100
AcDbEllipse
10
60.720312
20
37.936149
30
0
11
2.90477494116405
21
-1.67707259421644
31
0
210
0
220
0
230
1
40
0.989133
41
0.457049043256972
42
1.48925736546221
0
ELLIPSE
5
128
100
AcDbEntity
8
1
62
256
6
ByLayer
370
18
48
1
60
0
100
AcDbEllipse
10
60.470371
20
37.503237
30
0
11
-4.76313972081438
21
2.75000000000006
31
0
210
0
220
0
230
1
40
0.989133
41
0.518135567076775
42
0.705420310205839
0
ELLIPSE
5
129
100
AcDbEntity
8
1
62
256
6
ByLayer
370
18
48
1
60
0
100
AcDbEllipse
10
60.668854
20
37.84702
30
0
11
4.13660254037839
21
-2.38826859021809
31
0
210
0
220
0
230
1
40
0.989133
41
-0.464028877238195
42
-0.448056941986273
0
ELLIPSE
5
12A
100
AcDbEntity
8
1
62
256
6
ByLayer
370
18
48
1
60
0
100
AcDbEllipse
10
60.668854
20
37.84702
30
0
11
4.13660254037839
21
-2.38826859021809
31
0
210
0
220
0
230
1
40
0.989133
41
-2.52992920344713
42
-2.51301393229153
0
ELLIPSE
5
12B
100
AcDbEntity
8
1
62
256
6
ByLayer
370
18
48
1
60
0
100
AcDbEllipse
10
60.470371
20
37.503237
30
0
11
-4.76313972081438
21
2.75000000000006
31
0
210
0
220
0
230
1
40
0.989133
41
2.61226757520887
42
2.7870635946694
0
ELLIPSE
5
12C
100
AcDbEntity
8
1
62
256
6
ByLayer
370
18
48
1
60
0
100
AcDbEllipse
10
55.285189
20
16.63475
30
0
11
-2.67584502444719
21
1.35663164731717
31
0
210
0
220
0
230
1
40
0.87742
41
1.60104749617842
42
-3.12673032973102
0
ELLIPSE
5
12D
100
AcDbEntity
8
1
62
256
6
ByLayer
370
18
48
1
60
0
100
AcDbEllipse
10
55.150392
20
26.050675
30
0
11
3.61188974365708
21
-2.04371046864882
31
0
210
0
220
0
230
1
40
0.986425
41
0.0732243651094767
42
3.05341767218227
0
ELLIPSE
5
12E
100
AcDbEntity
8
1
62
256
6
ByLayer
370
18
48
1
60
0
100
AcDbEllipse
10
26.554907
20
28.190574
30
0
11
-0.856976263481216
21
1.75159689535856
31
0
210
0
220
0
230
1
40
0.150208
41
-2.98901453276516
42
-0.152530333181805
0
ELLIPSE
5
12F
100
AcDbEntity
8
1
62
256
6
ByLayer
370
18
48
1
60
0
100
AcDbEllipse
10
19.807168
20
24.889214
30
0
11
-0.0254849201600513
21
-2.7934091039789
31
0
210
0
220
0
230
1
40
0.080086
41
-0.121610998486326
42
0.548761475099995
0
ELLIPSE
5
130
100
AcDbEntity
8
1
62
256
6
ByLayer
370
18
48
1
60
0
100
AcDbEllipse
10
12
20
24.018926
30
0
11
1.64999999999998
21
0
31
0
210
0
220
0
230
1
40
0.5
41
0.167191463980102
42
2.97577558800012
0
ELLIPSE
5
131
100
AcDbEntity
8
1
62
256
6
ByLayer
370
18
48
1
60
0
100
AcDbEllipse
10
12
20
24.018926
30
0
11
1.99999999999999
21
0
31
0
210
0
220
0
230
1
40
0.5
41
0.448462556004162
42
2.67722591773394
0
ELLIPSE
5
132
100
AcDbEntity
8
1
62
256
6
ByLayer
370
18
48
1
60
0
100
AcDbEllipse
10
65.490265
20
32.727767
30
0
11
1.37481532850777
21
-0.793750000000028
31
0
210
0
220
0
230
1
40
0.989133
41
-0.408593360184519
42
-0.162419961408299
0
ELLIPSE
5
133
100
AcDbEntity
8
1
62
256
6
ByLayer
370
18
48
1
60
0
100
AcDbEllipse
10
66.670339
20
32.526685
30
0
11
-0.687407664253893
21
0.396875000000009
31
0
210
0
220
0
230
1
40
0.989133
41
2.35073128167078
42
3.14157777036924
0
ELLIPSE
5
134
100
AcDbEntity
8
1
62
256
6
ByLayer
370
18
48
1
60
0
100
AcDbEllipse
10
26.332891
20
28.081952
30
0
11
0.966845015209574
21
-1.97616059989172
31
0
210
0
220
0
230
1
40
0.150208
41
0.12272050993411
42
3.14156952279585
0
ELLIPSE
5
135
100
AcDbEntity
8
1
62
256
6
ByLayer
370
18
48
1
60
0
100
AcDbEllipse
10
12
20
22.2799
30
0
11
-1.8891449414941
21
3.41434906402345
31
0
210
0
220
0
230
1
40
0.192308
41
0.00800044654536786
42
0.661012379597218
0
ELLIPSE
5
136
100
AcDbEntity
8
1
62
256
6
ByLayer
370
18
48
1
60
0
100
AcDbEllipse
10
26.347154
20
0
30
0
11
-14.7536831606553
21
-31.0932549155799
31
0
210
0
220
0
230
1
40
0.341999
41
-1.09123958575286
42
-0.157806186645435
0
ELLIPSE
5
137
100
AcDbEntity
8
1
62
256
6
ByLayer
370
18
48
1
60
0
100
AcDbEllipse
10
12
20
22.2799
30
0
11
-1.88914494149012
21
-3.41434906401724
31
0
210
0
220
0
230
1
40
0.192308
41
2.48058027399185
42
3.13359220704443
0
ELLIPSE
5
138
100
AcDbEntity
8
1
62
256
6
ByLayer
370
18
48
1
60
0
100
AcDbEllipse
10
12
20
24.9975
30
0
11
-2.00000000000002
21
2.02127811016475E-15
31
0
210
0
220
0
230
1
40
0.732051
41
-2.39008803209745
42
-0.751504621492315
0
ELLIPSE
5
139
100
AcDbEntity
8
1
62
256
6
ByLayer
370
18
48
1
60
0
100
AcDbEllipse
10
26.347154
20
0
30
0
11
-14.7536831606555
21
31.0932549155802
31
0
210
0
220
0
230
1
40
0.341999
41
0.157806186645435
42
1.09123958575285
0
ELLIPSE
5
13A
100
AcDbEntity
8
1
62
256
6
ByLayer
370
18
48
1
60
0
100
AcDbEllipse
10
63.116489
20
33.14359
30
0
11
-2.73364581708292
21
0.0882571529822237
31
0
210
0
220
0
230
1
40
0.523705
41
2.07792152491159
42
2.42025200991916
0
ELLIPSE
5
13B
100
AcDbEntity
8
1
62
256
6
ByLayer
370
18
48
1
60
0
100
AcDbEllipse
10
-2.347154
20
0
30
0
11
-14.7536831606537
21
-31.0932549155779
31
0
210
0
220
0
230
1
40
0.341999
41
2.05035306783689
42
2.98378646694435
0
ELLIPSE
5
13C
100
AcDbEntity
8
1
62
256
6
ByLayer
370
18
48
1
60
0
100
AcDbEllipse
10
12
20
24.9975
30
0
11
-1.99999999999996
21
2.02127811016469E-15
31
0
210
0
220
0
230
1
40
0.732051
41
0.751504621492287
42
2.3900880320975
0
ELLIPSE
5
13D
100
AcDbEntity
8
1
62
256
6
ByLayer
370
18
48
1
60
0
100
AcDbEllipse
10
24.383226
20
34.505597
30
0
11
-3.99854274942214
21
-1.06828723195945
31
0
210
0
220
0
230
1
40
0.10106
41
1.35848801581392
42
1.47022424454077
0
ELLIPSE
5
13E
100
AcDbEntity
8
1
62
256
6
ByLayer
370
18
48
1
60
0
100
AcDbEllipse
10
48.376191
20
0
30
0
11
-19.5968472954258
21
-31.6499081602588
31
0
210
0
220
0
230
1
40
0.003891
41
-0.188318671239194
42
0.857636220195482
0
ELLIPSE
5
13F
100
AcDbEntity
8
1
62
256
6
ByLayer
370
18
48
1
60
0
100
AcDbEllipse
10
42.157547
20
19.778732
30
0
11
-2.3786209237188
21
-5.06509286142951
31
0
210
0
220
0
230
1
40
0.714768
41
3.1389917802888
42
-2.45450872092591
0
ELLIPSE
5
140
100
AcDbEntity
8
1
62
256
6
ByLayer
370
18
48
1
60
0
100
AcDbEllipse
10
19.807168
20
24.889214
30
0
11
-0.025484920160083
21
-2.79340910397912
31
0
210
0
220
0
230
1
40
0.080086
41
2.77319334727718
42
-0.73166418288493
0
ELLIPSE
5
141
100
AcDbEntity
8
1
62
256
6
ByLayer
370
18
48
1
60
0
100
AcDbEllipse
10
54.363882
20
9.728162
30
0
11
-26.6413327111441
21
-43.0271114972364
31
0
210
0
220
0
230
1
40
0.003891
41
0.857636220197777
42
1.57320536606989
0
ELLIPSE
5
142
100
AcDbEntity
8
1
62
256
6
ByLayer
370
18
48
1
60
0
100
AcDbEllipse
10
-2.347154
20
0
30
0
11
-14.7536831606548
21
31.0932549155792
31
0
210
0
220
0
230
1
40
0.341999
41
-2.98378646694435
42
-2.05035306783692
0
ELLIPSE
5
143
100
AcDbEntity
8
1
62
256
6
ByLayer
370
18
48
1
60
0
100
AcDbEllipse
10
58.225671
20
15.728162
30
0
11
-9.7519866776132
21
-15.7499560026633
31
0
210
0
220
0
230
1
40
0.003891
41
1.57320537801995
42
1.68783811187403
0
ELLIPSE
5
144
100
AcDbEntity
8
1
62
256
6
ByLayer
370
18
48
1
60
0
100
AcDbEllipse
10
-13.519645
20
-99.967027
30
0
11
-81.4797377775994
21
-131.599444988625
31
0
210
0
220
0
230
1
40
0.002409
41
2.67588859004331
42
2.94419416280082
0
ELLIPSE
5
145
100
AcDbEntity
8
1
62
256
6
ByLayer
370
18
48
1
60
0
100
AcDbEllipse
10
20.755893
20
0
30
0
11
1.92875500727024E-15
21
31.5
31
0
210
0
220
0
230
1
40
0.087489
41
0.311401384074101
42
2.83019126951569
0
ELLIPSE
5
146
100
AcDbEntity
8
1
62
256
6
ByLayer
370
18
48
1
60
0
100
AcDbEllipse
10
24.383226
20
54.432676
30
0
11
-5.75507028651703E-15
21
-31.3301781618976
31
0
210
-6.1908546950511E-18
220
-5.34552942018439E-51
230
1
40
0.127672
41
-0.122037877716716
42
-0.073578643625851
0
ELLIPSE
5
147
100
AcDbEntity
8
1
62
256
6
ByLayer
370
18
48
1
60
0
100
AcDbEllipse
10
54.953771
20
27.241303
30
0
11
0.368060796608381
21
-0.212500000000009
31
0
210
0
220
0
230
1
40
0.989133
41
-0.789758578569983
42
-0.0715221281242028
0
ELLIPSE
5
148
100
AcDbEntity
8
1
62
256
6
ByLayer
370
18
48
1
60
0
100
AcDbEllipse
10
56.337815
20
25.763651
30
0
11
-0.329089653438084
21
0.190000000000004
31
0
210
0
220
0
230
1
40
0.989133
41
2.32952373867381
42
-1.11871967932084
0
ELLIPSE
5
149
100
AcDbEntity
8
1
62
256
6
ByLayer
370
18
48
1
60
0
100
AcDbEllipse
10
55.80802
20
24.640921
30
0
11
-0.329089653438084
21
0.190000000000004
31
0
210
0
220
0
230
1
40
0.989133
41
1.28232618747718
42
-2.16591723051739
0
ELLIPSE
5
14A
100
AcDbEntity
8
1
62
256
6
ByLayer
370
18
48
1
60
0
100
AcDbEllipse
10
53.653257
20
26.349349
30
0
11
0.368060796608381
21
-0.212500000000009
31
0
210
0
220
0
230
1
40
0.989133
41
0.257438972626636
42
0.975675423072411
0
ELLIPSE
5
14B
100
AcDbEntity
8
1
62
256
6
ByLayer
370
18
48
1
60
0
100
AcDbEllipse
10
55.090893
20
25.667824
30
0
11
1.0175798494467
21
-0.587500000000025
31
0
210
0
220
0
230
1
40
0.989133
41
1.06575695357609
42
1.19224465697349
0
ELLIPSE
5
14C
100
AcDbEntity
8
1
62
256
6
ByLayer
370
18
48
1
60
0
100
AcDbEllipse
10
55.090893
20
25.667824
30
0
11
-1.99185842870419
21
1.15000000000002
31
0
210
0
220
0
230
1
40
0.989133
41
0
42
6.28318530717959
0
ELLIPSE
5
14D
100
AcDbEntity
8
1
62
256
6
ByLayer
370
18
48
1
60
0
100
AcDbEllipse
10
55.090893
20
25.667824
30
0
11
1.0175798494467
21
-0.587500000000025
31
0
210
0
220
0
230
1
40
0.989133
41
0.018559402379486
42
0.145047105776888
0
ELLIPSE
5
14E
100
AcDbEntity
8
1
62
256
6
ByLayer
370
18
48
1
60
0
100
AcDbEllipse
10
56.528529
20
24.986299
30
0
11
0.368060796608381
21
-0.212500000000009
31
0
210
0
220
0
230
1
40
0.989133
41
2.32952373867378
42
3.04776018911952
0
ELLIPSE
5
14F
100
AcDbEntity
8
1
62
256
6
ByLayer
370
18
48
1
60
0
100
AcDbEllipse
10
53.84397
20
25.571997
30
0
11
-0.329089653438084
21
0.190000000000004
31
0
210
0
220
0
230
1
40
0.989133
41
-0.812068914916016
42
2.02287297426902
0
ELLIPSE
5
150
100
AcDbEntity
8
1
62
256
6
ByLayer
370
18
48
1
60
0
100
AcDbEllipse
10
55.027173
20
25.557458
30
0
11
-3.46410161513773
21
2.00000000000005
31
0
210
0
220
0
230
1
40
0.989133
41
0
42
6.28318530717959
0
ELLIPSE
5
151
100
AcDbEntity
8
1
62
256
6
ByLayer
370
18
48
1
60
0
100
AcDbEllipse
10
54.788368
20
26.954817
30
0
11
0.368060796608381
21
-0.212500000000009
31
0
210
0
220
0
230
1
40
0.989133
41
-1.85926646611258
42
-0.0715221281241859
0
ELLIPSE
5
152
100
AcDbEntity
8
1
62
256
6
ByLayer
370
18
48
1
60
0
100
AcDbEllipse
10
56.528529
20
24.986299
30
0
11
0.368060796608381
21
-0.212500000000009
31
0
210
0
220
0
230
1
40
0.989133
41
-2.88415368096317
42
-2.16591723051741
0
ELLIPSE
5
153
100
AcDbEntity
8
1
62
256
6
ByLayer
370
18
48
1
60
0
100
AcDbEllipse
10
55.090893
20
25.667824
30
0
11
1.0175798494467
21
-0.587500000000025
31
0
210
0
220
0
230
1
40
0.989133
41
-1.02863814881712
42
-0.902150445419715
0
ELLIPSE
5
154
100
AcDbEntity
8
1
62
256
6
ByLayer
370
18
48
1
60
0
100
AcDbEllipse
10
53.790378
20
24.77587
30
0
11
0.368060796608381
21
-0.212500000000009
31
0
210
0
220
0
230
1
40
0.989133
41
0.235128636280606
42
0.953365086726328
0
ELLIPSE
5
155
100
AcDbEntity
8
1
62
256
6
ByLayer
370
18
48
1
60
0
100
AcDbEllipse
10
55.228015
20
24.094345
30
0
11
0.368060796608381
21
-0.212500000000009
31
0
210
0
220
0
230
1
40
0.989133
41
1.28232618747721
42
2.00056263792295
0
ELLIPSE
5
156
100
AcDbEntity
8
1
62
256
6
ByLayer
370
18
48
1
60
0
100
AcDbEllipse
10
53.653257
20
26.349349
30
0
11
0.368060796608381
21
-0.212500000000009
31
0
210
0
220
0
230
1
40
0.989133
41
-0.812068914915993
42
-0.0938324644702496
0
ELLIPSE
5
157
100
AcDbEntity
8
1
62
256
6
ByLayer
370
18
48
1
60
0
100
AcDbEllipse
10
55.455286
20
26.504068
30
0
11
-0.329089653438084
21
0.190000000000004
31
0
210
0
220
0
230
1
40
0.989133
41
-2.9064640173092
42
-0.0715221281242349
0
ELLIPSE
5
158
100
AcDbEntity
8
1
62
256
6
ByLayer
370
18
48
1
60
0
100
AcDbEllipse
10
53.790378
20
24.77587
30
0
11
0.368060796608381
21
-0.212500000000009
31
0
210
0
220
0
230
1
40
0.989133
41
1.30463652382323
42
2.02287297426896
0
ELLIPSE
5
159
100
AcDbEntity
8
1
62
256
6
ByLayer
370
18
48
1
60
0
100
AcDbEllipse
10
55.090893
20
25.667824
30
0
11
1.0175798494467
21
-0.587500000000025
31
0
210
0
220
0
230
1
40
0.989133
41
-2.07583570001371
42
-1.94934799661629
0
ELLIPSE
5
15A
100
AcDbEntity
8
1
62
256
6
ByLayer
370
18
48
1
60
0
100
AcDbEllipse
10
56.226004
20
26.273292
30
0
11
0.368060796608381
21
-0.212500000000009
31
0
210
0
220
0
230
1
40
0.989133
41
-2.90646401730917
42
-1.11871967932084
0
ELLIPSE
5
15B
100
AcDbEntity
8
1
62
256
6
ByLayer
370
18
48
1
60
0
100
AcDbEllipse
10
56.391407
20
26.559778
30
0
11
0.368060796608381
21
-0.212500000000009
31
0
210
0
220
0
230
1
40
0.989133
41
-1.8369561297666
42
-1.11871967932084
0
ELLIPSE
5
15C
100
AcDbEntity
8
1
62
256
6
ByLayer
370
18
48
1
60
0
100
AcDbEllipse
10
55.090893
20
25.667824
30
0
11
1.0175798494467
21
-0.587500000000025
31
0
210
0
220
0
230
1
40
0.989133
41
2.1129545047727
42
2.2394422081701
0
ELLIPSE
5
15D
100
AcDbEntity
8
1
62
256
6
ByLayer
370
18
48
1
60
0
100
AcDbEllipse
10
54.953771
20
27.241303
30
0
11
0.368060796608381
21
-0.212500000000009
31
0
210
0
220
0
230
1
40
0.989133
41
-1.85926646611258
42
-1.14103001566685
0
ELLIPSE
5
15E
100
AcDbEntity
8
1
62
256
6
ByLayer
370
18
48
1
60
0
100
AcDbEllipse
10
54.561097
20
24.545094
30
0
11
-0.329089653438084
21
0.190000000000004
31
0
210
0
220
0
230
1
40
0.989133
41
0.235128636280589
42
3.07007052546554
0
ELLIPSE
5
15F
100
AcDbEntity
8
1
62
256
6
ByLayer
370
18
48
1
60
0
100
AcDbEllipse
10
55.620688
20
26.790554
30
0
11
-0.329089653438084
21
0.190000000000004
31
0
210
0
220
0
230
1
40
0.989133
41
-2.90646401730919
42
-0.0715221281242161
0
ELLIPSE
5
160
100
AcDbEntity
8
1
62
256
6
ByLayer
370
18
48
1
60
0
100
AcDbEllipse
10
56.391407
20
26.559778
30
0
11
0.368060796608381
21
-0.212500000000009
31
0
210
0
220
0
230
1
40
0.989133
41
-2.90646401730919
42
-2.18822756686343
0
ELLIPSE
5
161
100
AcDbEntity
8
1
62
256
6
ByLayer
370
18
48
1
60
0
100
AcDbEllipse
10
54.373766
20
26.694727
30
0
11
-0.329089653438084
21
0.190000000000004
31
0
210
0
220
0
230
1
40
0.989133
41
-1.85926646611261
42
0.975675423072379
0
ELLIPSE
5
162
100
AcDbEntity
8
1
62
256
6
ByLayer
370
18
48
1
60
0
100
AcDbEllipse
10
55.228015
20
24.094345
30
0
11
0.368060796608381
21
-0.212500000000009
31
0
210
0
220
0
230
1
40
0.989133
41
2.35183407501988
42
3.07007052546561
0
ELLIPSE
5
163
100
AcDbEntity
8
1
62
256
6
ByLayer
370
18
48
1
60
0
100
AcDbEllipse
10
55.090893
20
25.667824
30
0
11
1.0175798494467
21
-0.587500000000025
31
0
210
0
220
0
230
1
40
0.989133
41
-3.1230332512103
42
-2.9965455478129
0
ELLIPSE
5
164
100
AcDbEntity
8
1
62
256
6
ByLayer
370
18
48
1
60
0
100
AcDbEllipse
10
63.195565
20
34.612526
30
0
11
-0.0496926783630459
21
-1.07977848146086
31
0
210
0
220
0
230
1
40
0.185902
41
0.822407068559075
42
1.34600584419207
0
ELLIPSE
5
165
100
AcDbEntity
8
1
62
256
6
ByLayer
370
18
48
1
60
0
100
AcDbEllipse
10
54.423588
20
15.004722
30
0
11
-2.31483353067622
21
1.90918030446059
31
0
210
0
220
0
230
1
40
0.99624
41
3.03819479600877
42
3.04430520496269
0
ELLIPSE
5
166
100
AcDbEntity
8
1
62
256
6
ByLayer
370
18
48
1
60
0
100
AcDbEllipse
10
51.839552
20
28.670876
30
0
11
-6.64411661333067
21
-7.39860552938675
31
0
210
0
220
0
230
1
40
0.127121
41
-0.40163075158349
42
0.317570148362456
0
ELLIPSE
5
167
100
AcDbEntity
8
1
62
256
6
ByLayer
370
18
48
1
60
0
100
AcDbEllipse
10
54.700188
20
21.060953
30
0
11
-2.37671399885583
21
6.6425598080484
31
0
210
0
220
0
230
1
40
0.079636
41
-2.16072941453599
42
-1.69666588618805
0
ELLIPSE
5
168
100
AcDbEntity
8
1
62
256
6
ByLayer
370
18
48
1
60
0
100
AcDbEllipse
10
63.34451
20
37.710024
30
0
11
-2.71513487587701
21
5.80930985959259
31
0
210
0
220
0
230
1
40
0.538155
41
2.39956218822203
42
2.47930045606959
0
ELLIPSE
5
169
100
AcDbEntity
8
1
62
256
6
ByLayer
370
18
48
1
60
0
100
AcDbEllipse
10
58.901098
20
39.816465
30
0
11
-6.62258620024217
21
-1.11228578984165
31
0
210
0
220
0
230
1
40
0.544992
41
0.748554813376155
42
0.828293081588527
0
ELLIPSE
5
16A
100
AcDbEntity
8
1
62
256
6
ByLayer
370
18
48
1
60
0
100
AcDbEllipse
10
56.593325
20
37.74238
30
0
11
-0.807544898919569
21
-0.71966677632393
31
0
210
0
220
0
230
1
40
0.206174
41
-1.33672683095663
42
-0.813128055373754
0
ELLIPSE
5
16B
100
AcDbEntity
8
1
62
256
6
ByLayer
370
18
48
1
60
0
100
AcDbEllipse
10
43.238301
20
17.73346
30
0
11
2.99854242392764
21
6.3252465036476
31
0
210
0
220
0
230
1
40
0.012014
41
0.810298218555914
42
1.21755960211359
0
ELLIPSE
5
16C
100
AcDbEntity
8
1
62
256
6
ByLayer
370
18
48
1
60
0
100
AcDbEllipse
10
50.769783
20
22.924198
30
0
11
-2.14181601709118
21
-4.51803321689114
31
0
210
0
220
0
230
1
40
0.012014
41
0.908735525955437
42
1.34976663131173
0
ELLIPSE
5
16D
100
AcDbEntity
8
1
62
256
6
ByLayer
370
18
48
1
60
0
100
AcDbEllipse
10
55.468198
20
20.69687
30
0
11
-2.14181601709118
21
-4.51803321689114
31
0
210
0
220
0
230
1
40
0.012014
41
0.908735525955409
42
1.34976663131171
0
ELLIPSE
5
16E
100
AcDbEntity
8
1
62
256
6
ByLayer
370
18
48
1
60
0
100
AcDbEllipse
10
47.731582
20
20.215608
30
0
11
-2.67584502444697
21
1.35663164731621
31
0
210
0
220
0
230
1
40
0.87742
41
0.0302511693831651
42
1.60104749617813
0
ELLIPSE
5
16F
100
AcDbEntity
8
1
62
256
6
ByLayer
370
18
48
1
60
0
100
AcDbEllipse
10
59.393159
20
25.090018
30
0
11
-1.65897349340814
21
-9.76337189292505
31
0
210
0
220
0
230
1
40
0.120053
41
-0.313564735430754
42
0.405636164514807
0
ELLIPSE
5
170
100
AcDbEntity
8
1
62
256
6
ByLayer
370
18
48
1
60
0
100
AcDbEllipse
10
51.537793
20
22.560116
30
0
11
-6.63668369248515
21
-2.37461151933677
31
0
210
0
220
0
230
1
40
0.067687
41
-1.45707183579703
42
-0.993008307467957
0
ELLIPSE
5
171
100
AcDbEntity
8
1
62
256
6
ByLayer
370
18
48
1
60
0
100
AcDbEllipse
10
46.869834
20
18.585519
30
0
11
-2.30637973348606
21
1.91890074721125
31
0
210
0
220
0
230
1
40
0.996273
41
0.597308720985443
42
0.603419482880204
0
ELLIPSE
5
172
100
AcDbEntity
8
1
62
256
6
ByLayer
370
18
48
1
60
0
100
AcDbEllipse
10
62.323948
20
33.75414
30
0
11
-2.20549993570018
21
8.62477994535322
31
0
210
0
220
0
230
1
40
0.72878
41
0.887796673461038
42
0.951367332798406
0
ELLIPSE
5
173
100
AcDbEntity
8
1
62
256
6
ByLayer
370
18
48
1
60
0
100
AcDbEllipse
10
60.723659
20
38.040001
30
0
11
-3.89711431702994
21
2.25000000000005
31
0
210
0
220
0
230
1
40
0.989133
41
-2.62345708651302
42
-2.09985831091472
0
ELLIPSE
5
174
100
AcDbEntity
8
1
62
256
6
ByLayer
370
18
48
1
60
0
100
AcDbEllipse
10
60.918105
20
40.8138
30
0
11
-1.83370641084269
21
1.09537195741785
31
0
210
0
220
0
230
1
40
0.675933
41
-0.674105736252733
42
0.346851824194593
0
ELLIPSE
5
175
100
AcDbEntity
8
1
62
256
6
ByLayer
370
18
48
1
60
0
100
AcDbEllipse
10
60.973601
20
38.472912
30
0
11
-3.10814157129577
21
1.79448637286713
31
0
210
0
220
0
230
1
40
0.989133
41
-2.62345708651302
42
-2.52969258695506
0
ELLIPSE
5
176
100
AcDbEntity
8
1
62
256
6
ByLayer
370
18
48
1
60
0
100
AcDbEllipse
10
60.973601
20
38.472912
30
0
11
-3.10814157129577
21
1.79448637286713
31
0
210
0
220
0
230
1
40
0.989133
41
-0.448293558478345
42
-0.354529058920386
0
ELLIPSE
5
177
100
AcDbEntity
8
1
62
256
6
ByLayer
370
18
48
1
60
0
100
AcDbEllipse
10
60.723659
20
38.040001
30
0
11
-3.89711431702994
21
2.25000000000005
31
0
210
0
220
0
230
1
40
0.989133
41
-2.09985831091472
42
-0.878127834518683
0
ELLIPSE
5
178
100
AcDbEntity
8
1
62
256
6
ByLayer
370
18
48
1
60
0
100
AcDbEllipse
10
60.723659
20
38.040001
30
0
11
-3.89711431702994
21
2.25000000000005
31
0
210
0
220
0
230
1
40
0.989133
41
-0.878127834518683
42
-0.354529058920389
0
ELLIPSE
5
179
100
AcDbEntity
8
1
62
256
6
ByLayer
370
18
48
1
60
0
100
AcDbEllipse
10
60.973601
20
38.472912
30
0
11
2.82540892210386
21
-1.63125060174753
31
0
210
0
220
0
230
1
40
0.989133
41
1.04173434267507
42
2.26346481907111
0
ELLIPSE
5
17A
100
AcDbEntity
8
1
62
256
6
ByLayer
370
18
48
1
60
0
100
AcDbEllipse
10
62.89586
20
39.876227
30
0
11
-1.83288704898173
21
0.816092223043407
31
0
210
0
220
0
230
1
40
0.723309
41
2.90306999596337
42
-2.3591577507706
0
ELLIPSE
5
17B
100
AcDbEntity
8
1
62
256
6
ByLayer
370
18
48
1
60
0
100
AcDbEllipse
10
56.211962
20
36.651584
30
0
11
-8.47598199468472
21
-3.28922526104761
31
0
210
0
220
0
230
1
40
0.72417
41
2.24687967419937
42
2.31045033404542
0
ELLIPSE
5
17C
100
AcDbEntity
8
1
62
256
6
ByLayer
370
18
48
1
60
0
100
AcDbEllipse
10
64.393656
20
44.21271
30
0
11
-0.687407664253893
21
0.396875000000009
31
0
210
0
220
0
230
1
40
0.989133
41
-2.36165769871387
42
-0.790861371919017
0
ELLIPSE
5
17D
100
AcDbEntity
8
1
62
256
6
ByLayer
370
18
48
1
60
0
100
AcDbEllipse
10
67.254027
20
33.537661
30
0
11
-0.687407664253893
21
0.396875000000009
31
0
210
0
220
0
230
1
40
0.989133
41
2.35073128167078
42
-2.36165769871387
0
ELLIPSE
5
17E
100
AcDbEntity
8
1
62
256
6
ByLayer
370
18
48
1
60
0
100
AcDbEllipse
10
53.686714
20
41.468814
30
0
11
-0.687407664253893
21
0.396875000000009
31
0
210
0
220
0
230
1
40
0.989133
41
-0.790861371919017
42
0.779934954875918
0
POINT
5
6C
100
AcDbEntity
8
2
62
256
6
ByLayer
370
18
48
1
60
0
100
AcDbPoint
10
65
20
45
30
0
39
0
210
0
220
0
230
1
50
360
0
POINT
5
6E
100
AcDbEntity
8
80
62
256
6
ByLayer
370
18
48
1
60
0
100
AcDbPoint
10
0
20
0
30
0
39
0
210
0
220
0
230
1
50
360
0
POINT
5
70
100
AcDbEntity
8
81
62
256
6
ByLayer
370
18
48
1
60
0
100
AcDbPoint
10
65
20
45
30
0
39
0
210
0
220
0
230
1
50
360
0
SPLINE
5
17F
100
AcDbEntity
8
SK1
62
256
6
ByLayer
370
18
48
1
60
0
100
AcDbSpline
70
4
71
3
72
13
73
9
40
0
40
0
40
0
40
0
40
0.239456135763718
40
0.368359721933656
40
0.499998984021097
40
0.63163841528373
40
0.760542467778167
40
1
40
1
40
1
40
1
41
1
10
-2.19999999999999
20
-22.0200986606755
30
0
41
1
10
-2.19909198642273
20
-21.9940411845603
30
0
41
1
10
-2.19103284106941
20
-21.9566686002238
30
0
41
1
10
-2.16563592203337
20
-21.9104494263858
30
0
41
1
10
-2.1388637867926
20
-21.8791678725253
30
0
41
1
10
-2.10627712749869
20
-21.8540005023229
30
0
41
1
10
-2.05884064234078
20
-21.8309566998545
30
0
41
1
10
-2.02111030873027
20
-21.8247844448324
30
0
41
1
10
-1.99503997793928
20
-21.825186084775
30
0
0
SPLINE
5
180
100
AcDbEntity
8
SK1
62
256
6
ByLayer
370
18
48
1
60
0
100
AcDbSpline
70
4
71
3
72
13
73
9
40
0
40
0
40
0
40
0
40
0.239457532152995
40
0.368361584623188
40
0.500001015876169
40
0.631640277971204
40
0.760543864164266
40
1
40
1
40
1
40
1
41
1
10
-1.99503997793928
20
21.8251861015554
30
0
41
1
10
-2.02111030873166
20
21.8247844616134
30
0
41
1
10
-2.05884064234343
20
21.8309567166392
30
0
41
1
10
-2.10627712750076
20
21.854000519123
30
0
41
1
10
-2.13886378679456
20
21.8791678893421
30
0
41
1
10
-2.16563592203485
20
21.9104494432231
30
0
41
1
10
-2.19103284107055
20
21.9566686170919
30
0
41
1
10
-2.19909198642387
20
21.9940412014509
30
0
41
1
10
-2.19999999999999
20
22.0200986775813
30
0
0
SPLINE
5
181
100
AcDbEntity
8
SK1
62
256
6
ByLayer
370
18
48
1
60
0
100
AcDbSpline
70
4
71
2
72
6
73
3
40
0
40
0
40
0
40
1
40
1
40
1
41
1
10
-36.5
20
-21.1521177089669
30
0
41
1
10
-19.3499999999701
20
-21.5828554470541
30
0
41
1
10
-2.19999999999999
20
-22.0135928951589
30
0
0
SPLINE
5
182
100
AcDbEntity
8
SK1
62
256
6
ByLayer
370
18
48
1
60
0
100
AcDbSpline
70
4
71
2
72
6
73
3
40
0
40
0
40
0
40
1
40
1
40
1
41
1
10
-2.19999999999999
20
22.0135927638551
30
0
41
1
10
-19.3499999999869
20
21.5828539542124
30
0
41
1
10
-36.5
20
21.1521149580209
30
0
0
SPLINE
5
183
100
AcDbEntity
8
SK1
62
256
6
ByLayer
370
18
48
1
60
0
100
AcDbSpline
70
4
71
2
72
6
73
3
40
0
40
0
40
0
40
1
40
1
40
1
41
1
10
-1.99503997793928
20
-21.8251812553753
30
0
41
1
10
-1.19500843340728
20
-21.8452807024746
30
0
41
1
10
-0.394976888875277
20
-21.8653801495793
30
0
0
SPLINE
5
184
100
AcDbEntity
8
SK1
62
256
6
ByLayer
370
18
48
1
60
0
100
AcDbSpline
70
4
71
2
72
6
73
3
40
0
40
0
40
0
40
1
40
1
40
1
41
1
10
-0.394976888875277
20
21.8653802062992
30
0
41
1
10
-1.19500843340728
20
21.8452807593862
30
0
41
1
10
-1.99503997793928
20
21.8251813124779
30
0
0
SPLINE
5
185
100
AcDbEntity
8
SK1
62
256
6
ByLayer
370
18
48
1
60
0
100
AcDbSpline
70
4
71
2
72
6
73
3
40
0
40
0
40
0
40
1
40
1
40
1
41
1
10
-38
20
-20.289405225553
30
0
41
1
10
-37.2500000000012
20
-20.7223540793632
30
0
41
1
10
-36.5
20
-21.1553029418638
30
0
0
SPLINE
5
186
100
AcDbEntity
8
SK1
62
256
6
ByLayer
370
18
48
1
60
0
100
AcDbSpline
70
4
71
2
72
6
73
3
40
0
40
0
40
0
40
1
40
1
40
1
41
1
10
-36.5
20
21.155302724897
30
0
41
1
10
-37.2500000000012
20
20.7223538609616
30
0
41
1
10
-38
20
20.2894050057151
30
0
0
SPLINE
5
187
100
AcDbEntity
8
SK1
62
256
6
ByLayer
370
18
48
1
60
0
100
AcDbSpline
70
4
71
2
72
6
73
3
40
0
40
0
40
0
40
1
40
1
40
1
41
1
10
-0.394976888875277
20
-21.8653849865467
30
0
41
1
10
-0.265172990617003
20
-21.8689012906761
30
0
41
1
10
-0.240502439654279
20
-21.9465691723769
30
0
0
SPLINE
5
188
100
AcDbEntity
8
SK1
62
256
6
ByLayer
370
18
48
1
60
0
100
AcDbSpline
70
4
71
2
72
6
73
3
40
0
40
0
40
0
40
1
40
1
40
1
41
1
10
-0.239684768755779
20
21.9481214799355
30
0
41
1
10
-0.264174311740362
20
21.8692639605625
30
0
41
1
10
-0.394976888875277
20
21.865385003355
30
0
0
SPLINE
5
189
100
AcDbEntity
8
1
62
256
6
ByLayer
370
18
48
1
60
0
100
AcDbSpline
70
4
71
3
72
8
73
4
40
0
40
0
40
0
40
0
40
1
40
1
40
1
40
1
41
1
10
57.1091396807368
20
13.6654953278591
30
0
41
1
10
57.0603238089178
20
13.5731177056001
30
0
41
1
10
57.0076347289232
20
13.4823265859157
30
0
41
1
10
56.950803314333
20
13.3933202152296
30
0
0
SPLINE
5
18A
100
AcDbEntity
8
SK1
62
256
6
ByLayer
370
18
48
1
60
0
100
AcDbSpline
70
4
71
3
72
299
73
295
40
0
40
0
40
0
40
0
40
0.0032950148390363
40
0.0068177418917841
40
0.0103404689445319
40
0.0138631959972797
40
0.0173859230500275
40
0.0209086501027753
40
0.0244313771555231
40
0.0279541042082709
40
0.0349995583137665
40
0.0420450124192621
40
0.0490904665247578
40
0.0526131935775056
40
0.0561359206302534
40
0.0596586476830012
40
0.063181374735749
40
0.0702268288412446
40
0.0737495558939924
40
0.0772722829467402
40
0.080795009999488
40
0.0843177370522358
40
0.0878404641049836
40
0.0913631911577314
40
0.0984086452632271
40
0.101931372315975
40
0.105454099368723
40
0.10897682642147
40
0.112499553474218
40
0.116022280526966
40
0.119545007579714
40
0.123067734632462
40
0.126590461685209
40
0.130113188737957
40
0.133635915790705
40
0.137158642843453
40
0.140681369896201
40
0.144204096948949
40
0.147726824001696
40
0.154772278107192
40
0.15829500515994
40
0.161817732212688
40
0.163579095739061
40
0.165340459265435
40
0.168863186318183
40
0.175908640423679
40
0.179431367476427
40
0.182954094529174
40
0.186476821581922
40
0.18999954863467
40
0.197045002740166
40
0.200567729792914
40
0.204090456845661
40
0.205851820372035
40
0.207613183898409
40
0.211135910951157
40
0.218181365056653
40
0.2217040921094
40
0.225226819162148
40
0.228749546214896
40
0.232272273267644
40
0.239317727373139
40
0.242840454425887
40
0.246363181478635
40
0.248124545005009
40
0.249885908531383
40
0.253408635584131
40
0.256931362636878
40
0.260454089689626
40
0.262215453216
40
0.263976816742374
40
0.267499543795122
40
0.27102227084787
40
0.274544997900617
40
0.278067724953365
40
0.281590452006113
40
0.285113179058861
40
0.288635906111609
40
0.292158633164356
40
0.295681360217104
40
0.299204087269852
40
0.3027268143226
40
0.306249541375348
40
0.309772268428096
40
0.313294995480843
40
0.316817722533591
40
0.323863176639087
40
0.327385903691835
40
0.330908630744582
40
0.33443135779733
40
0.337954084850078
40
0.341476811902826
40
0.344999538955574
40
0.348522266008321
40
0.352044993061069
40
0.359090447166565
40
0.366135901272061
40
0.373181355377556
40
0.376704082430304
40
0.380226809483052
40
0.3837495365358
40
0.387272263588547
40
0.390794990641295
40
0.394317717694043
40
0.397840444746791
40
0.401363171799539
40
0.404885898852286
40
0.408408625905034
40
0.411931352957782
40
0.41545408001053
40
0.418976807063278
40
0.422499534116025
40
0.426022261168773
40
0.429544988221521
40
0.433067715274269
40
0.434829078800643
40
0.436590442327017
40
0.438351805853391
40
0.440113169379764
40
0.443635896432512
40
0.44715862348526
40
0.448919987011634
40
0.450681350538008
40
0.452442714064382
40
0.454204077590756
40
0.457726804643503
40
0.459488168169877
40
0.461249531696251
40
0.463010895222625
40
0.464772258748999
40
0.466533622275373
40
0.468294985801747
40
0.470056349328121
40
0.471817712854495
40
0.473579076380869
40
0.475340439907243
40
0.477101803433616
40
0.47886316695999
40
0.480624530486364
40
0.482385894012738
40
0.484147257539112
40
0.485908621065486
40
0.48766998459186
40
0.489431348118234
40
0.491192711644608
40
0.492954075170982
40
0.494715438697355
40
0.496476802223729
40
0.498238165750103
40
0.499999529276477
40
0.501760892802851
40
0.503522256329225
40
0.505283619855599
40
0.507044983381973
40
0.508806346908347
40
0.51056771043472
40
0.512329073961095
40
0.514090437487468
40
0.515851801013842
40
0.517613164540216
40
0.51937452806659
40
0.521135891592964
40
0.522897255119338
40
0.524658618645712
40
0.526419982172086
40
0.52818134569846
40
0.529942709224833
40
0.531704072751207
40
0.533465436277581
40
0.535226799803955
40
0.536988163330329
40
0.538749526856703
40
0.540510890383077
40
0.542272253909451
40
0.545794980962199
40
0.547556344488572
40
0.549317708014946
40
0.55107907154132
40
0.552840435067694
40
0.556363162120442
40
0.55988588917319
40
0.561647252699564
40
0.563408616225938
40
0.565169979752312
40
0.566931343278685
40
0.570454070331433
40
0.573976797384181
40
0.577499524436929
40
0.581022251489677
40
0.584544978542424
40
0.588067705595172
40
0.59159043264792
40
0.595113159700668
40
0.598635886753416
40
0.602158613806164
40
0.605681340858911
40
0.609204067911659
40
0.612726794964407
40
0.616249522017155
40
0.619772249069903
40
0.62329497612265
40
0.626817703175398
40
0.633863157280894
40
0.640908611386389
40
0.647954065491885
40
0.651476792544633
40
0.654999519597381
40
0.658522246650128
40
0.662044973702876
40
0.665567700755624
40
0.669090427808372
40
0.67261315486112
40
0.676135881913868
40
0.683181336019363
40
0.686704063072111
40
0.690226790124859
40
0.693749517177607
40
0.697272244230354
40
0.700794971283102
40
0.70431769833585
40
0.707840425388598
40
0.711363152441346
40
0.714885879494093
40
0.718408606546841
40
0.721931333599589
40
0.725454060652337
40
0.732499514757832
40
0.73602224181058
40
0.739544968863328
40
0.746590422968824
40
0.750113150021571
40
0.753635877074319
40
0.757158604127067
40
0.760681331179815
40
0.767726785285311
40
0.771249512338058
40
0.774772239390806
40
0.778294966443554
40
0.781817693496302
40
0.788863147601797
40
0.792385874654545
40
0.795908601707293
40
0.799431328760041
40
0.802954055812789
40
0.809999509918284
40
0.813522236971032
40
0.81704496402378
40
0.820567691076528
40
0.824090418129276
40
0.831135872234771
40
0.834658599287519
40
0.838181326340267
40
0.841704053393014
40
0.845226780445762
40
0.852272234551258
40
0.855794961604006
40
0.859317688656754
40
0.862840415709501
40
0.866363142762249
40
0.869885869814997
40
0.873408596867745
40
0.876931323920493
40
0.88045405097324
40
0.883976778025988
40
0.887499505078736
40
0.891022232131484
40
0.894544959184232
40
0.898067686236979
40
0.901590413289727
40
0.908635867395223
40
0.912158594447971
40
0.915681321500718
40
0.919204048553466
40
0.922726775606214
40
0.926249502658962
40
0.92977222971171
40
0.936817683817205
40
0.940340410869953
40
0.943863137922701
40
0.947385864975449
40
0.950908592028197
40
0.957954046133692
40
0.96147677318644
40
0.964999500239188
40
0.968522227291935
40
0.972044954344683
40
0.975567681397431
40
0.979090408450179
40
0.982613135502927
40
0.986135862555675
40
0.989658589608422
40
0.99318131666117
40
0.996704043713918
40
1
40
1
40
1
40
1
41
1
10
-1.99503997793928
20
21.8251672639473
30
0
41
1
10
-1.99503997793928
20
21.8252770540748
30
0
41
1
10
-1.99503997793926
20
21.8245105783955
30
0
41
1
10
-1.99503997793928
20
21.8202836860757
30
0
41
1
10
-1.99503997793928
20
21.812783044142
30
0
41
1
10
-1.99503997793928
20
21.8021565364934
30
0
41
1
10
-1.99503997793928
20
21.7884557330328
30
0
41
1
10
-1.99503997793928
20
21.7717308612526
30
0
41
1
10
-1.99503997793928
20
21.7520291985819
30
0
41
1
10
-1.99503997793928
20
21.7218385059106
30
0
41
1
10
-1.99503997793928
20
21.6769140218914
30
0
41
1
10
-1.99503997793928
20
21.6117670092986
30
0
41
1
10
-1.99503997793928
20
21.5484022523455
30
0
41
1
10
-1.99503997793928
20
21.4923512863894
30
0
41
1
10
-1.99503997793928
20
21.4477036012609
30
0
41
1
10
-1.99503997793928
20
21.4004602751572
30
0
41
1
10
-1.99503997793928
20
21.3340243579833
30
0
41
1
10
-1.99503997793928
20
21.2626002065085
30
0
41
1
10
-1.99503997793928
20
21.1861355372814
30
0
41
1
10
-1.99503997793928
20
21.126355615456
30
0
41
1
10
-1.99503997793928
20
21.0641493981766
30
0
41
1
10
-1.99503997793928
20
20.9995415089612
30
0
41
1
10
-1.99503997793928
20
20.9325549476398
30
0
41
1
10
-1.99503997793928
20
20.8400664063016
30
0
41
1
10
-1.99503997793928
20
20.7430171949632
30
0
41
1
10
-1.99503997793928
20
20.6412830606924
30
0
41
1
10
-1.99503997793928
20
20.5627395849404
30
0
41
1
10
-1.99503997793928
20
20.4819464711493
30
0
41
1
10
-1.99503997793928
20
20.3989234016943
30
0
41
1
10
-1.99503997793928
20
20.3136873945745
30
0
41
1
10
-1.99503997793928
20
20.2262576082901
30
0
41
1
10
-1.99503997793928
20
20.136651569995
30
0
41
1
10
-1.99503997793928
20
20.0448848271876
30
0
41
1
10
-1.99503997793928
20
19.9509751576252
30
0
41
1
10
-1.99503997793928
20
19.8549383078336
30
0
41
1
10
-1.99503997793928
20
19.7567886026657
30
0
41
1
10
-1.99503997793928
20
19.6565424313982
30
0
41
1
10
-1.99503997793928
20
19.5542139601407
30
0
41
1
10
-1.99503997793928
20
19.4149698127943
30
0
41
1
10
-1.99503997793928
20
19.2717622924356
30
0
41
1
10
-1.99503997793928
20
19.1243520606764
30
0
41
1
10
-1.99503997793928
20
19.0305969699326
30
0
41
1
10
-1.99503997793928
20
18.9545457436666
30
0
41
1
10
-1.99503997793928
20
18.877828345234
30
0
41
1
10
-1.99503997793928
20
18.7418485706132
30
0
41
1
10
-1.99503997793928
20
18.5826225030747
30
0
41
1
10
-1.99503997793928
20
18.4193199892891
30
0
41
1
10
-1.99503997793928
20
18.2949375082747
30
0
41
1
10
-1.99503997793928
20
18.1686188381619
30
0
41
1
10
-1.99503997793928
20
17.9975681157064
30
0
41
1
10
-1.99503997793928
20
17.8228588844704
30
0
41
1
10
-1.99503997793928
20
17.6441795672679
30
0
41
1
10
-1.99503997793928
20
17.5309981410348
30
0
41
1
10
-1.99503997793928
20
17.4394590341184
30
0
41
1
10
-1.99503997793928
20
17.3472945498449
30
0
41
1
10
-1.99503997793928
20
17.1843913435575
30
0
41
1
10
-1.99503997793928
20
16.9946548235122
30
0
41
1
10
-1.99503997793928
20
16.8010333841432
30
0
41
1
10
-1.99503997793928
20
16.654027023888
30
0
41
1
10
-1.99503997793928
20
16.5051894370887
30
0
41
1
10
-1.99503997793928
20
16.3042392155796
30
0
41
1
10
-1.99503997793928
20
16.0998599858609
30
0
41
1
10
-1.99503997793928
20
15.8916662065006
30
0
41
1
10
-1.99503997793928
20
15.7601264684356
30
0
41
1
10
-1.99503997793928
20
15.6539352235828
30
0
41
1
10
-1.99503997793928
20
15.5471478788444
30
0
41
1
10
-1.99503997793928
20
15.4126292313156
30
0
41
1
10
-1.99503997793928
20
15.2493853238091
30
0
41
1
10
-1.99503997793928
20
15.1119089381336
30
0
41
1
10
-1.99503997793928
20
15.0009760777421
30
0
41
1
10
-1.99503997793928
20
14.8894548819647
30
0
41
1
10
-1.99503997793928
20
14.7490386600655
30
0
41
1
10
-1.99503997793928
20
14.578735707937
30
0
41
1
10
-1.99503997793928
20
14.4066808882548
30
0
41
1
10
-1.99503997793928
20
14.2328806917249
30
0
41
1
10
-1.99503997793928
20
14.0573388809364
30
0
41
1
10
-1.99503997793928
20
13.8800596938692
30
0
41
1
10
-1.99503997793928
20
13.7010488098078
30
0
41
1
10
-1.99503997793928
20
13.5203096364964
30
0
41
1
10
-1.99503997793928
20
13.3378467409434
30
0
41
1
10
-1.99503997793928
20
13.1536651576331
30
0
41
1
10
-1.99503997793928
20
12.967767664355
30
0
41
1
10
-1.99503997793928
20
12.7801589185361
30
0
41
1
10
-1.99503997793928
20
12.5908431445087
30
0
41
1
10
-1.99503997793928
20
12.3998230002593
30
0
41
1
10
-1.99503997793928
20
12.1427688173785
30
0
41
1
10
-1.99503997793928
20
11.8826118718573
30
0
41
1
10
-1.99503997793928
20
11.6187779306707
30
0
41
1
10
-1.99503997793928
20
11.4192921752591
30
0
41
1
10
-1.99503997793928
20
11.2181233733031
30
0
41
1
10
-1.99503997793928
20
11.0152750188843
30
0
41
1
10
-1.99503997793928
20
10.8107494713072
30
0
41
1
10
-1.99503997793928
20
10.6045508021232
30
0
41
1
10
-1.99503997793928
20
10.3966814407573
30
0
41
1
10
-1.99503997793928
20
10.1171870033238
30
0
41
1
10
-1.99503997793928
20
9.76392166117952
30
0
41
1
10
-1.99503997793928
20
9.33322608836653
30
0
41
1
10
-1.99503997793928
20
8.96893242084855
30
0
41
1
10
-1.99503997793928
20
8.67397578579323
30
0
41
1
10
-1.99503997793928
20
8.45121977200662
30
0
41
1
10
-1.99503997793928
20
8.22682776167494
30
0
41
1
10
-1.99503997793928
20
8.00080467620245
30
0
41
1
10
-1.99503997793928
20
7.77315513008728
30
0
41
1
10
-1.99503997793928
20
7.54388372935193
30
0
41
1
10
-1.99503997793928
20
7.31299637479285
30
0
41
1
10
-1.99503997793928
20
7.08049945458953
30
0
41
1
10
-1.99503997793928
20
6.8463997482805
30
0
41
1
10
-1.99503997793928
20
6.61070495432838
30
0
41
1
10
-1.99503997793928
20
6.37342319970753
30
0
41
1
10
-1.99503997793928
20
6.13456384015993
30
0
41
1
10
-1.99503997793928
20
5.89413749968628
30
0
41
1
10
-1.99503997793928
20
5.65215638001948
30
0
41
1
10
-1.99503997793928
20
5.4086336510897
30
0
41
1
10
-1.99503997793928
20
5.16358499073451
30
0
41
1
10
-1.99503997793928
20
4.95821799704331
30
0
41
1
10
-1.99503997793928
20
4.79299516838267
30
0
41
1
10
-1.99503997793928
20
4.66878842905288
30
0
41
1
10
-1.99503997793928
20
4.5442150281373
30
0
41
1
10
-1.99503997793928
20
4.37752561794156
30
0
41
1
10
-1.99503997793928
20
4.16851547631595
30
0
41
1
10
-1.99503997793928
20
3.95832363498766
30
0
41
1
10
-1.99503997793928
20
3.78926935835412
30
0
41
1
10
-1.99503997793928
20
3.66223142121836
30
0
41
1
10
-1.99503997793928
20
3.53485872774326
30
0
41
1
10
-1.99503997793928
20
3.36446603264318
30
0
41
1
10
-1.99503997793928
20
3.19381064862623
30
0
41
1
10
-1.99503997793928
20
3.02213557666008
30
0
41
1
10
-1.99503997793928
20
2.8931784837302
30
0
41
1
10
-1.99503997793928
20
2.76392442628162
30
0
41
1
10
-1.99503997793928
20
2.63438251344519
30
0
41
1
10
-1.99503997793928
20
2.50455988721876
30
0
41
1
10
-1.99503997793928
20
2.37446636334928
30
0
41
1
10
-1.99503997793928
20
2.24411116870439
30
0
41
1
10
-1.99503997793928
20
2.11350398186613
30
0
41
1
10
-1.99503997793928
20
1.98265625862297
30
0
41
1
10
-1.99503997793928
20
1.85157817347522
30
0
41
1
10
-1.99503997793928
20
1.72028262405345
30
0
41
1
10
-1.99503997793928
20
1.58878098022359
30
0
41
1
10
-1.99503997793928
20
1.45708718468359
30
0
41
1
10
-1.99503997793928
20
1.32521409071333
30
0
41
1
10
-1.99503997793928
20
1.19317647053177
30
0
41
1
10
-1.99503997793928
20
1.06098852682439
30
0
41
1
10
-1.99503997793928
20
0.928665923975672
30
0
41
1
10
-1.99503997793928
20
0.796224037396229
30
0
41
1
10
-1.99503997793928
20
0.663679321648374
30
0
41
1
10
-1.99503997793928
20
0.531048033506266
30
0
41
1
10
-1.99503997793928
20
0.398347293868937
30
0
41
1
10
-1.99503997793928
20
0.265594055935196
30
0
41
1
10
-1.99503997793928
20
0.132805828560237
30
0
41
1
10
-1.99503997793928
20
-2.0604887E-09
30
0
41
1
10
-1.99503997793928
20
-0.132805835966792
30
0
41
1
10
-1.99503997793928
20
-0.265594069601519
30
0
41
1
10
-1.99503997793928
20
-0.398347307093388
30
0
41
1
10
-1.99503997793928
20
-0.531048037421954
30
0
41
1
10
-1.99503997793928
20
-0.663679323049081
30
0
41
1
10
-1.99503997793928
20
-0.796224050825089
30
0
41
1
10
-1.99503997793928
20
-0.92866594303203
30
0
41
1
10
-1.99503997793928
20
-1.06098853158755
30
0
41
1
10
-1.99503997793928
20
-1.1931764657121
30
0
41
1
10
-1.99503997793928
20
-1.32521410103647
30
0
41
1
10
-1.99503997793928
20
-1.45708720896539
30
0
41
1
10
-1.99503997793928
20
-1.58878099035152
30
0
41
1
10
-1.99503997793928
20
-1.72028261530932
30
0
41
1
10
-1.99503997793928
20
-1.85157817419835
30
0
41
1
10
-1.99503997793928
20
-1.98265628188182
30
0
41
1
10
-1.99503997793928
20
-2.11350400419804
30
0
41
1
10
-1.99503997793928
20
-2.24411116714702
30
0
41
1
10
-1.99503997793928
20
-2.37446635053539
30
0
41
1
10
-1.99503997793928
20
-2.50455989433328
30
0
41
1
10
-1.99503997793928
20
-2.63438254221708
30
0
41
1
10
-1.99503997793928
20
-2.76392444618182
30
0
41
1
10
-1.99503997793928
20
-2.89317847799558
30
0
41
1
10
-1.99503997793928
20
-3.02213556164864
30
0
41
1
10
-1.99503997793928
20
-3.19381066067948
30
0
41
1
10
-1.99503997793928
20
-3.36446606295527
30
0
41
1
10
-1.99503997793928
20
-3.53485872835634
30
0
41
1
10
-1.99503997793928
20
-3.66223140396673
30
0
41
1
10
-1.99503997793928
20
-3.78926935085312
30
0
41
1
10
-1.99503997793928
20
-3.95832365779984
30
0
41
1
10
-1.99503997793928
20
-4.16851549788919
30
0
41
1
10
-1.99503997793928
20
-4.37752560184694
30
0
41
1
10
-1.99503997793928
20
-4.54421502107886
30
0
41
1
10
-1.99503997793928
20
-4.66878844332788
30
0
41
1
10
-1.99503997793928
20
-4.79299519854527
30
0
41
1
10
-1.99503997793928
20
-4.95821801342223
30
0
41
1
10
-1.99503997793928
20
-5.16358497720142
30
0
41
1
10
-1.99503997793928
20
-5.40863364784667
30
0
41
1
10
-1.99503997793928
20
-5.65215640891225
30
0
41
1
10
-1.99503997793928
20
-5.89413750153935
30
0
41
1
10
-1.99503997793928
20
-6.13456381441384
30
0
41
1
10
-1.99503997793928
20
-6.37342317953835
30
0
41
1
10
-1.99503997793928
20
-6.61070492919379
30
0
41
1
10
-1.99503997793928
20
-6.84639976314463
30
0
41
1
10
-1.99503997793928
20
-7.08049963775395
30
0
41
1
10
-1.99503997793928
20
-7.31299670603016
30
0
41
1
10
-1.99503997793928
20
-7.54388383469134
30
0
41
1
10
-1.99503997793928
20
-7.77315487290267
30
0
41
1
10
-1.99503997793928
20
-8.00080468509063
30
0
41
1
10
-1.99503997793928
20
-8.22682785520686
30
0
41
1
10
-1.99503997793928
20
-8.4512197921853
30
0
41
1
10
-1.99503997793928
20
-8.67397577159846
30
0
41
1
10
-1.99503997793928
20
-8.96893239301764
30
0
41
1
10
-1.99503997793928
20
-9.33322609823665
30
0
41
1
10
-1.99503997793928
20
-9.76392165975841
30
0
41
1
10
-1.99503997793928
20
-10.1171869828061
30
0
41
1
10
-1.99503997793928
20
-10.3966814549587
30
0
41
1
10
-1.99503997793928
20
-10.6045508126063
30
0
41
1
10
-1.99503997793928
20
-10.8107494592904
30
0
41
1
10
-1.99503997793928
20
-11.0152749978462
30
0
41
1
10
-1.99503997793928
20
-11.2181233670389
30
0
41
1
10
-1.99503997793928
20
-11.4192921870092
30
0
41
1
10
-1.99503997793928
20
-11.6187779427602
30
0
41
1
10
-1.99503997793928
20
-11.8826118620781
30
0
41
1
10
-1.99503997793928
20
-12.1427687977971
30
0
41
1
10
-1.99503997793928
20
-12.3998230071702
30
0
41
1
10
-1.99503997793928
20
-12.5908431584255
30
0
41
1
10
-1.99503997793928
20
-12.7801589212449
30
0
41
1
10
-1.99503997793928
20
-12.9677676529033
30
0
41
1
10
-1.99503997793928
20
-13.1536651432542
30
0
41
1
10
-1.99503997793928
20
-13.3378467396349
30
0
41
1
10
-1.99503997793928
20
-13.520309646993
30
0
41
1
10
-1.99503997793928
20
-13.7010488212408
30
0
41
1
10
-1.99503997793928
20
-13.8800597145162
30
0
41
1
10
-1.99503997793928
20
-14.0573389921213
30
0
41
1
10
-1.99503997793928
20
-14.2328810143213
30
0
41
1
10
-1.99503997793928
20
-14.4646959102749
30
0
41
1
10
-1.99503997793928
20
-14.6927797943809
30
0
41
1
10
-1.99503997793928
20
-14.9175842595472
30
0
41
1
10
-1.99503997793928
20
-15.1400402265273
30
0
41
1
10
-1.99503997793928
20
-15.3587351142266
30
0
41
1
10
-1.99503997793928
20
-15.574095422854
30
0
41
1
10
-1.99503997793928
20
-15.733775855726
30
0
41
1
10
-1.99503997793928
20
-15.8916657661057
30
0
41
1
10
-1.99503997793928
20
-16.0998603532658
30
0
41
1
10
-1.99503997793928
20
-16.3042398246232
30
0
41
1
10
-1.99503997793928
20
-16.5051894037979
30
0
41
1
10
-1.99503997793928
20
-16.6540265683948
30
0
41
1
10
-1.99503997793928
20
-16.8010329188422
30
0
41
1
10
-1.99503997793928
20
-16.9946550481209
30
0
41
1
10
-1.99503997793928
20
-17.1843924611907
30
0
41
1
10
-1.99503997793928
20
-17.3705928023913
30
0
41
1
10
-1.99503997793928
20
-17.5083251903719
30
0
41
1
10
-1.99503997793928
20
-17.6441786252734
30
0
41
1
10
-1.99503997793928
20
-17.8228590748674
30
0
41
1
10
-1.99503997793928
20
-17.9975683374733
30
0
41
1
10
-1.99503997793928
20
-18.1686188521771
30
0
41
1
10
-1.99503997793928
20
-18.2949373683468
30
0
41
1
10
-1.99503997793928
20
-18.4193198181252
30
0
41
1
10
-1.99503997793928
20
-18.5826226298873
30
0
41
1
10
-1.99503997793928
20
-18.7418497326446
30
0
41
1
10
-1.99503997793928
20
-18.8972761707097
30
0
41
1
10
-1.99503997793928
20
-19.0118150097952
30
0
41
1
10
-1.99503997793928
20
-19.1243510467918
30
0
41
1
10
-1.99503997793928
20
-19.2717625055688
30
0
41
1
10
-1.99503997793928
20
-19.414970513124
30
0
41
1
10
-1.99503997793928
20
-19.5542140249085
30
0
41
1
10
-1.99503997793928
20
-19.6565420567613
30
0
41
1
10
-1.99503997793928
20
-19.7567881415466
30
0
41
1
10
-1.99503997793928
20
-19.8549381550126
30
0
41
1
10
-1.99503997793928
20
-19.9509751416388
30
0
41
1
10
-1.99503997793928
20
-20.0448848362119
30
0
41
1
10
-1.99503997793928
20
-20.1366515718167
30
0
41
1
10
-1.99503997793928
20
-20.2262576202058
30
0
41
1
10
-1.99503997793928
20
-20.3136874196731
30
0
41
1
10
-1.99503997793928
20
-20.398923430088
30
0
41
1
10
-1.99503997793928
20
-20.4819464863244
30
0
41
1
10
-1.99503997793928
20
-20.5627395868944
30
0
41
1
10
-1.99503997793928
20
-20.6412830627252
30
0
41
1
10
-1.99503997793928
20
-20.7430172190698
30
0
41
1
10
-1.99503997793928
20
-20.8400664428987
30
0
41
1
10
-1.99503997793928
20
-20.9325549572362
30
0
41
1
10
-1.99503997793928
20
-20.9995415068112
30
0
41
1
10
-1.99503997793928
20
-21.064149408511
30
0
41
1
10
-1.99503997793928
20
-21.1263556466612
30
0
41
1
10
-1.99503997793928
20
-21.1861355753666
30
0
41
1
10
-1.99503997793928
20
-21.262600218376
30
0
41
1
10
-1.99503997793928
20
-21.3340243512753
30
0
41
1
10
-1.99503997793928
20
-21.4004603045828
30
0
41
1
10
-1.99503997793928
20
-21.4477036445725
30
0
41
1
10
-1.99503997793928
20
-21.4923513092323
30
0
41
1
10
-1.99503997793928
20
-21.5484022410126
30
0
41
1
10
-1.99503997793928
20
-21.5990695510926
30
0
41
1
10
-1.99503997793928
20
-21.6443396610233
30
0
41
1
10
-1.99503997793928
20
-21.6755105092645
30
0
41
1
10
-1.99503997793928
20
-21.7038764495607
30
0
41
1
10
-1.99503997793928
20
-21.7293964429163
30
0
41
1
10
-1.99503997793928
20
-21.7520292420694
30
0
41
1
10
-1.99503997793928
20
-21.7717309018817
30
0
41
1
10
-1.99503997793928
20
-21.7884557380592
30
0
41
1
10
-1.99503997793928
20
-21.8021565310045
30
0
41
1
10
-1.99503997793928
20
-21.8127830851058
30
0
41
1
10
-1.99503997793928
20
-21.8202838734724
30
0
41
1
10
-1.99503997793928
20
-21.8245113102197
30
0
41
1
10
-1.99503997793926
20
-21.8252773307308
30
0
41
1
10
-1.99503997793931
20
-21.8251671095679
30
0
0
SPLINE
5
18B
100
AcDbEntity
8
SK1
62
256
6
ByLayer
370
18
48
1
60
0
100
AcDbSpline
70
4
71
3
72
295
73
291
40
0
40
0
40
0
40
0
40
0.0029463204005422
40
0.0065222452830545
40
0.0100981701655667
40
0.0136740950480789
40
0.0172500199305911
40
0.0208259448131034
40
0.0279777945781278
40
0.0351296443431523
40
0.0422814941081767
40
0.0458574189906889
40
0.0494333438732012
40
0.0530092687557134
40
0.0565851936382256
40
0.0637370434032501
40
0.0673129682857623
40
0.0708888931682745
40
0.0744648180507868
40
0.078040742933299
40
0.0816166678158112
40
0.0851925926983234
40
0.0923444424633479
40
0.0959203673458601
40
0.0994962922283723
40
0.103072217110885
40
0.106648141993397
40
0.110224066875909
40
0.113799991758421
40
0.117375916640933
40
0.120951841523446
40
0.124527766405958
40
0.12810369128847
40
0.131679616170982
40
0.135255541053495
40
0.138831465936007
40
0.142407390818519
40
0.149559240583544
40
0.153135165466056
40
0.156711090348568
40
0.158499052789824
40
0.16028701523108
40
0.163862940113592
40
0.171014789878617
40
0.174590714761129
40
0.178166639643641
40
0.181742564526154
40
0.185318489408666
40
0.19247033917369
40
0.196046264056202
40
0.199622188938715
40
0.201410151379971
40
0.203198113821227
40
0.206774038703739
40
0.213925888468764
40
0.217501813351276
40
0.221077738233788
40
0.2246536631163
40
0.228229587998812
40
0.235381437763837
40
0.238957362646349
40
0.242533287528861
40
0.244321249970117
40
0.246109212411374
40
0.249685137293886
40
0.253261062176398
40
0.25683698705891
40
0.258624949500166
40
0.260412911941423
40
0.263988836823935
40
0.267564761706447
40
0.271140686588959
40
0.274716611471471
40
0.278292536353984
40
0.281868461236496
40
0.285444386119008
40
0.28902031100152
40
0.292596235884033
40
0.296172160766545
40
0.299748085649057
40
0.303324010531569
40
0.306899935414081
40
0.310475860296594
40
0.314051785179106
40
0.32120363494413
40
0.324779559826643
40
0.328355484709155
40
0.331931409591667
40
0.335507334474179
40
0.339083259356691
40
0.342659184239204
40
0.346235109121716
40
0.349811034004228
40
0.356962883769253
40
0.364114733534277
40
0.371266583299302
40
0.374842508181814
40
0.378418433064326
40
0.381994357946838
40
0.38557028282935
40
0.389146207711863
40
0.392722132594375
40
0.396298057476887
40
0.399873982359399
40
0.403449907241911
40
0.407025832124424
40
0.410601757006936
40
0.414177681889448
40
0.41775360677196
40
0.421329531654473
40
0.424905456536985
40
0.428481381419497
40
0.432057306302009
40
0.433845268743265
40
0.435633231184522
40
0.437421193625778
40
0.439209156067034
40
0.442785080949546
40
0.446361005832058
40
0.448148968273314
40
0.44993693071457
40
0.451724893155826
40
0.453512855597083
40
0.457088780479595
40
0.458876742920851
40
0.460664705362107
40
0.462452667803363
40
0.464240630244619
40
0.466028592685875
40
0.467816555127132
40
0.469604517568388
40
0.471392480009644
40
0.4731804424509
40
0.474968404892156
40
0.476756367333412
40
0.478544329774668
40
0.480332292215924
40
0.48212025465718
40
0.483908217098437
40
0.485696179539693
40
0.487484141980949
40
0.489272104422205
40
0.491060066863461
40
0.492848029304717
40
0.494635991745973
40
0.496423954187229
40
0.498211916628486
40
0.499999879069742
40
0.501787841510998
40
0.503575803952254
40
0.50536376639351
40
0.507151728834766
40
0.508939691276022
40
0.510727653717278
40
0.512515616158534
40
0.51430357859979
40
0.516091541041046
40
0.517879503482303
40
0.519667465923559
40
0.521455428364815
40
0.523243390806071
40
0.525031353247327
40
0.526819315688583
40
0.528607278129839
40
0.530395240571095
40
0.532183203012352
40
0.533971165453608
40
0.535759127894864
40
0.53754709033612
40
0.539335052777376
40
0.541123015218632
40
0.542910977659888
40
0.546486902542401
40
0.548274864983657
40
0.550062827424913
40
0.551850789866169
40
0.553638752307425
40
0.557214677189937
40
0.560790602072449
40
0.562578564513706
40
0.564366526954962
40
0.566154489396218
40
0.567942451837474
40
0.571518376719986
40
0.575094301602498
40
0.578670226485011
40
0.582246151367523
40
0.585822076250035
40
0.589398001132547
40
0.592973926015059
40
0.596549850897572
40
0.600125775780084
40
0.603701700662596
40
0.607277625545108
40
0.610853550427621
40
0.614429475310133
40
0.618005400192645
40
0.621581325075157
40
0.625157249957669
40
0.628733174840182
40
0.635885024605206
40
0.64303687437023
40
0.650188724135255
40
0.653764649017767
40
0.657340573900279
40
0.660916498782792
40
0.664492423665304
40
0.668068348547816
40
0.671644273430328
40
0.675220198312841
40
0.678796123195353
40
0.685947972960377
40
0.68952389784289
40
0.693099822725402
40
0.696675747607914
40
0.700251672490426
40
0.703827597372938
40
0.707403522255451
40
0.710979447137963
40
0.714555372020475
40
0.718131296902987
40
0.7217072217855
40
0.725283146668012
40
0.728859071550524
40
0.736010921315548
40
0.739586846198061
40
0.743162771080573
40
0.750314620845597
40
0.75389054572811
40
0.757466470610622
40
0.761042395493134
40
0.764618320375646
40
0.771770170140671
40
0.775346095023183
40
0.778922019905695
40
0.782497944788207
40
0.78607386967072
40
0.793225719435744
40
0.796801644318256
40
0.800377569200768
40
0.803953494083281
40
0.807529418965793
40
0.814681268730817
40
0.81825719361333
40
0.821833118495842
40
0.825409043378354
40
0.828984968260866
40
0.836136818025891
40
0.839712742908403
40
0.843288667790915
40
0.846864592673428
40
0.85044051755594
40
0.857592367320964
40
0.861168292203476
40
0.864744217085989
40
0.868320141968501
40
0.871896066851013
40
0.875471991733525
40
0.879047916616037
40
0.88262384149855
40
0.886199766381062
40
0.889775691263574
40
0.893351616146086
40
0.896927541028599
40
0.900503465911111
40
0.904079390793623
40
0.907655315676135
40
0.91480716544116
40
0.918383090323672
40
0.921959015206184
40
0.925534940088696
40
0.929110864971209
40
0.932686789853721
40
0.936262714736233
40
0.943414564501257
40
0.94699048938377
40
0.950566414266282
40
0.954142339148794
40
0.957718264031306
40
0.964870113796331
40
0.968446038678843
40
0.972021963561355
40
0.975597888443867
40
0.97917381332638
40
0.982749738208892
40
0.986325663091404
40
0.989901587973916
40
0.993477512856429
40
0.997053437738941
40
1
40
1
40
1
40
1
41
1
10
-2.19999999999999
20
22.0135196987393
30
0
41
1
10
-2.19999999999999
20
22.011727627447
30
0
41
1
10
-2.19999999999999
20
22.006959702695
30
0
41
1
10
-2.19999999999999
20
21.9968726461305
30
0
41
1
10
-2.19999999999999
20
21.9830583750197
30
0
41
1
10
-2.19999999999999
20
21.9661971621578
30
0
41
1
10
-2.19999999999999
20
21.9463373083127
30
0
41
1
10
-2.19999999999999
20
21.9159230944434
30
0
41
1
10
-2.19999999999999
20
21.870633664349
30
0
41
1
10
-2.19999999999999
20
21.8049949078793
30
0
41
1
10
-2.19999999999999
20
21.7411390111089
30
0
41
1
10
-2.19999999999999
20
21.6847072709128
30
0
41
1
10
-2.19999999999999
20
21.6397397481888
30
0
41
1
10
-2.19999999999999
20
21.5921615264853
30
0
41
1
10
-2.19999999999999
20
21.5252891523049
30
0
41
1
10
-2.19999999999999
20
21.453308753177
30
0
41
1
10
-2.19999999999999
20
21.3763547276269
30
0
41
1
10
-2.19999999999999
20
21.3161703964091
30
0
41
1
10
-2.19999999999999
20
21.2535469243879
30
0
41
1
10
-2.19999999999999
20
21.1885090229233
30
0
41
1
10
-2.19999999999999
20
21.121080083473
30
0
41
1
10
-2.19999999999999
20
21.0280237507364
30
0
41
1
10
-2.19999999999999
20
20.9302657445266
30
0
41
1
10
-2.19999999999999
20
20.8279188369072
30
0
41
1
10
-2.19999999999999
20
20.7488739070252
30
0
41
1
10
-2.19999999999999
20
20.6675681841826
30
0
41
1
10
-2.19999999999999
20
20.5840212184218
30
0
41
1
10
-2.19999999999999
20
20.4982502525025
30
0
41
1
10
-2.19999999999999
20
20.4102747128949
30
0
41
1
10
-2.19999999999999
20
20.3201119071544
30
0
41
1
10
-2.19999999999999
20
20.2277776663919
30
0
41
1
10
-2.19999999999999
20
20.1332899477274
30
0
41
1
10
-2.19999999999999
20
20.0366642357894
30
0
41
1
10
-2.19999999999999
20
19.9379151599299
30
0
41
1
10
-2.19999999999999
20
19.8370591957147
30
0
41
1
10
-2.19999999999999
20
19.7341102362335
30
0
41
1
10
-2.19999999999999
20
19.5940778412012
30
0
41
1
10
-2.19999999999999
20
19.4499005336558
30
0
41
1
10
-2.19999999999999
20
19.3016622310533
30
0
41
1
10
-2.19999999999999
20
19.2073184270571
30
0
41
1
10
-2.19999999999999
20
19.1308417758755
30
0
41
1
10
-2.19999999999999
20
19.0536957086557
30
0
41
1
10
-2.19999999999999
20
18.9169360704622
30
0
41
1
10
-2.19999999999999
20
18.756645794641
30
0
41
1
10
-2.19999999999999
20
18.5924362845557
30
0
41
1
10
-2.19999999999999
20
18.4673177976698
30
0
41
1
10
-2.19999999999999
20
18.3402521463352
30
0
41
1
10
-2.19999999999999
20
18.1682545122203
30
0
41
1
10
-2.19999999999999
20
17.9923842356821
30
0
41
1
10
-2.19999999999999
20
17.8127164551587
30
0
41
1
10
-2.19999999999999
20
17.6988333809735
30
0
41
1
10
-2.19999999999999
20
17.606787767091
30
0
41
1
10
-2.19999999999999
20
17.5141131161323
30
0
41
1
10
-2.19999999999999
20
17.3502824417036
30
0
41
1
10
-2.19999999999999
20
17.1592829447589
30
0
41
1
10
-2.19999999999999
20
16.9645867974536
30
0
41
1
10
-2.19999999999999
20
16.8167088060477
30
0
41
1
10
-2.19999999999999
20
16.6669871400996
30
0
41
1
10
-2.19999999999999
20
16.4649164953067
30
0
41
1
10
-2.19999999999999
20
16.2591646002876
30
0
41
1
10
-2.19999999999999
20
16.049802831716
30
0
41
1
10
-2.19999999999999
20
15.9174340084588
30
0
41
1
10
-2.19999999999999
20
15.8106442286412
30
0
41
1
10
-2.19999999999999
20
15.7032538676567
30
0
41
1
10
-2.19999999999999
20
15.567882396309
30
0
41
1
10
-2.19999999999999
20
15.4036502143979
30
0
41
1
10
-2.19999999999999
20
15.2652965264295
30
0
41
1
10
-2.19999999999999
20
15.1537302031574
30
0
41
1
10
-2.19999999999999
20
15.0415708470876
30
0
41
1
10
-2.19999999999999
20
14.90025131083
30
0
41
1
10
-2.19999999999999
20
14.7289012367181
30
0
41
1
10
-2.19999999999999
20
14.5557843226631
30
0
41
1
10
-2.19999999999999
20
14.3809062427341
30
0
41
1
10
-2.19999999999999
20
14.2042700822291
30
0
41
1
10
-2.19999999999999
20
14.0258803741545
30
0
41
1
10
-2.19999999999999
20
13.8457420253844
30
0
41
1
10
-2.19999999999999
20
13.6638579861817
30
0
41
1
10
-2.19999999999999
20
13.4802328481714
30
0
41
1
10
-2.19999999999999
20
13.2948705974071
30
0
41
1
10
-2.19999999999999
20
13.1077737485311
30
0
41
1
10
-2.19999999999999
20
12.9189467805057
30
0
41
1
10
-2.19999999999999
20
12.728392778749
30
0
41
1
10
-2.19999999999999
20
12.5361142588231
30
0
41
1
10
-2.19999999999999
20
12.2774598592137
30
0
41
1
10
-2.19999999999999
20
12.0153352592314
30
0
41
1
10
-2.19999999999999
20
11.7498207258852
30
0
41
1
10
-2.19999999999999
20
11.5489655826483
30
0
41
1
10
-2.19999999999999
20
11.3464032807099
30
0
41
1
10
-2.19999999999999
20
11.1421359853758
30
0
41
1
10
-2.19999999999999
20
10.9361655879759
30
0
41
1
10
-2.19999999999999
20
10.7284950970913
30
0
41
1
10
-2.19999999999999
20
10.5191258614377
30
0
41
1
10
-2.19999999999999
20
10.2377184130835
30
0
41
1
10
-2.19999999999999
20
9.88169304970987
30
0
41
1
10
-2.19999999999999
20
9.44771865839311
30
0
41
1
10
-2.19999999999999
20
9.08043848955603
30
0
41
1
10
-2.19999999999999
20
8.78327689677775
30
0
41
1
10
-2.19999999999999
20
8.55871419535617
30
0
41
1
10
-2.19999999999999
20
8.33247380011301
30
0
41
1
10
-2.19999999999999
20
8.10455852701506
30
0
41
1
10
-2.19999999999999
20
7.87497060194644
30
0
41
1
10
-2.19999999999999
20
7.6437128367312
30
0
41
1
10
-2.19999999999999
20
7.41078884464241
30
0
41
1
10
-2.19999999999999
20
7.17620220160032
30
0
41
1
10
-2.19999999999999
20
6.93995692090419
30
0
41
1
10
-2.19999999999999
20
6.70205758660663
30
0
41
1
10
-2.19999999999999
20
6.46250918569618
30
0
41
1
10
-2.19999999999999
20
6.2213178400012
30
0
41
1
10
-2.19999999999999
20
5.97849049576266
30
0
41
1
10
-2.19999999999999
20
5.73403521575827
30
0
41
1
10
-2.19999999999999
20
5.48796107357256
30
0
41
1
10
-2.19999999999999
20
5.24027911118978
30
0
41
1
10
-2.19999999999999
20
5.03253661023487
30
0
41
1
10
-2.19999999999999
20
4.86557359122418
30
0
41
1
10
-2.19999999999999
20
4.73994908127321
30
0
41
1
10
-2.19999999999999
20
4.61393371339017
30
0
41
1
10
-2.19999999999999
20
4.44540774959788
30
0
41
1
10
-2.19999999999999
20
4.23375652596863
30
0
41
1
10
-2.19999999999999
20
4.02083961713782
30
0
41
1
10
-2.19999999999999
20
3.84978439152417
30
0
41
1
10
-2.19999999999999
20
3.72111342731068
30
0
41
1
10
-2.19999999999999
20
3.59207749308624
30
0
41
1
10
-2.19999999999999
20
3.41956369464535
30
0
41
1
10
-2.19999999999999
20
3.24629481959221
30
0
41
1
10
-2.19999999999999
20
3.0723836150739
30
0
41
1
10
-2.19999999999999
20
2.94160046512798
30
0
41
1
10
-2.19999999999999
20
2.81048647644627
30
0
41
1
10
-2.19999999999999
20
2.67904892732182
30
0
41
1
10
-2.19999999999999
20
2.54729562722176
30
0
41
1
10
-2.19999999999999
20
2.41523551097489
30
0
41
1
10
-2.19999999999999
20
2.28287740252156
30
0
41
1
10
-2.19999999999999
20
2.15023166945255
30
0
41
1
10
-2.19999999999999
20
2.01730873413072
30
0
41
1
10
-2.19999999999999
20
1.88412021099791
30
0
41
1
10
-2.19999999999999
20
1.75067841854351
30
0
41
1
10
-2.19999999999999
20
1.61699634722072
30
0
41
1
10
-2.19999999999999
20
1.48308821885627
30
0
41
1
10
-2.19999999999999
20
1.34896859254377
30
0
41
1
10
-2.19999999999999
20
1.21465350310541
30
0
41
1
10
-2.19999999999999
20
1.0801592162689
30
0
41
1
10
-2.19999999999999
20
0.945503442662783
30
0
41
1
10
-2.19999999999999
20
0.810704113119073
30
0
41
1
10
-2.19999999999999
20
0.675780421912322
30
0
41
1
10
-2.19999999999999
20
0.540751787789588
30
0
41
1
10
-2.19999999999999
20
0.405638599098921
30
0
41
1
10
-2.19999999999999
20
0.270461428271432
30
0
41
1
10
-2.19999999999999
20
0.135241462279822
30
0
41
1
10
-2.19999999999999
20
-5.3654787E-09
30
0
41
1
10
-2.19999999999999
20
-0.135241472589996
30
0
41
1
10
-2.19999999999999
20
-0.270461437853925
30
0
41
1
10
-2.19999999999999
20
-0.405638608907907
30
0
41
1
10
-2.19999999999999
20
-0.540751798686529
30
0
41
1
10
-2.19999999999999
20
-0.675780432522174
30
0
41
1
10
-2.19999999999999
20
-0.810704122044939
30
0
41
1
10
-2.19999999999999
20
-0.945503451789534
30
0
41
1
10
-2.19999999999999
20
-1.08015922751395
30
0
41
1
10
-2.19999999999999
20
-1.21465351395383
30
0
41
1
10
-2.19999999999999
20
-1.34896860046499
30
0
41
1
10
-2.19999999999999
20
-1.48308822685564
30
0
41
1
10
-2.19999999999999
20
-1.61699635855226
30
0
41
1
10
-2.19999999999999
20
-1.75067843002711
30
0
41
1
10
-2.19999999999999
20
-1.88412021847037
30
0
41
1
10
-2.19999999999999
20
-2.01730874020455
30
0
41
1
10
-2.19999999999999
20
-2.15023167925048
30
0
41
1
10
-2.19999999999999
20
-2.28287741514001
30
0
41
1
10
-2.19999999999999
20
-2.41523552035437
30
0
41
1
10
-2.19999999999999
20
-2.54729563151926
30
0
41
1
10
-2.19999999999999
20
-2.67904893291683
30
0
41
1
10
-2.19999999999999
20
-2.81048648769612
30
0
41
1
10
-2.19999999999999
20
-2.94160047796311
30
0
41
1
10
-2.19999999999999
20
-3.072383622975
30
0
41
1
10
-2.19999999999999
20
-3.24629481975686
30
0
41
1
10
-2.19999999999999
20
-3.41956370437865
30
0
41
1
10
-2.19999999999999
20
-3.59207750684843
30
0
41
1
10
-2.19999999999999
20
-3.72111343644576
30
0
41
1
10
-2.19999999999999
20
-3.84978439330678
30
0
41
1
10
-2.19999999999999
20
-4.020839617489
30
0
41
1
10
-2.19999999999999
20
-4.23375654375474
30
0
41
1
10
-2.19999999999999
20
-4.44540775759583
30
0
41
1
10
-2.19999999999999
20
-4.61393371339872
30
0
41
1
10
-2.19999999999999
20
-4.73994907984499
30
0
41
1
10
-2.19999999999999
20
-4.86557359653659
30
0
41
1
10
-2.19999999999999
20
-5.03253662624778
30
0
41
1
10
-2.19999999999999
20
-5.24027911954084
30
0
41
1
10
-2.19999999999999
20
-5.48796106514416
30
0
41
1
10
-2.19999999999999
20
-5.73403522651989
30
0
41
1
10
-2.19999999999999
20
-5.97849051253721
30
0
41
1
10
-2.19999999999999
20
-6.22131783489101
30
0
41
1
10
-2.19999999999999
20
-6.46250917346816
30
0
41
1
10
-2.19999999999999
20
-6.70205756880287
30
0
41
1
10
-2.19999999999999
20
-6.93995689241024
30
0
41
1
10
-2.19999999999999
20
-7.17620223308296
30
0
41
1
10
-2.19999999999999
20
-7.41078904293681
30
0
41
1
10
-2.19999999999999
20
-7.64371312168015
30
0
41
1
10
-2.19999999999999
20
-7.87497052861914
30
0
41
1
10
-2.19999999999999
20
-8.10455846042146
30
0
41
1
10
-2.19999999999999
20
-8.33247384441506
30
0
41
1
10
-2.19999999999999
20
-8.55871423477029
30
0
41
1
10
-2.19999999999999
20
-8.78327691067398
30
0
41
1
10
-2.19999999999999
20
-9.08043846702645
30
0
41
1
10
-2.19999999999999
20
-9.44771866001565
30
0
41
1
10
-2.19999999999999
20
-9.88169305528194
30
0
41
1
10
-2.19999999999999
20
-10.2377183913447
30
0
41
1
10
-2.19999999999999
20
-10.5191258633122
30
0
41
1
10
-2.19999999999999
20
-10.7284951094206
30
0
41
1
10
-2.19999999999999
20
-10.9361655882296
30
0
41
1
10
-2.19999999999999
20
-11.1421359694817
30
0
41
1
10
-2.19999999999999
20
-11.3464032666245
30
0
41
1
10
-2.19999999999999
20
-11.5489655840494
30
0
41
1
10
-2.19999999999999
20
-11.7498207382014
30
0
41
1
10
-2.19999999999999
20
-12.015335258712
30
0
41
1
10
-2.19999999999999
20
-12.277459839655
30
0
41
1
10
-2.19999999999999
20
-12.5361142561418
30
0
41
1
10
-2.19999999999999
20
-12.7283927892775
30
0
41
1
10
-2.19999999999999
20
-12.9189467887917
30
0
41
1
10
-2.19999999999999
20
-13.1077737445537
30
0
41
1
10
-2.19999999999999
20
-13.2948705838035
30
0
41
1
10
-2.19999999999999
20
-13.4802328404438
30
0
41
1
10
-2.19999999999999
20
-13.6638579908945
30
0
41
1
10
-2.19999999999999
20
-13.845742035678
30
0
41
1
10
-2.19999999999999
20
-14.0258803815961
30
0
41
1
10
-2.19999999999999
20
-14.2042701267483
30
0
41
1
10
-2.19999999999999
20
-14.3809064511142
30
0
41
1
10
-2.19999999999999
20
-14.61406817927
30
0
41
1
10
-2.19999999999999
20
-14.8437340716545
30
0
41
1
10
-2.19999999999999
20
-15.069828938707
30
0
41
1
10
-2.19999999999999
20
-15.2935559429894
30
0
41
1
10
-2.19999999999999
20
-15.513744330902
30
0
41
1
10
-2.19999999999999
20
-15.7303232767805
30
0
41
1
10
-2.19999999999999
20
-15.8909649274654
30
0
41
1
10
-2.19999999999999
20
-16.0498023362736
30
0
41
1
10
-2.19999999999999
20
-16.2591647559547
30
0
41
1
10
-2.19999999999999
20
-16.4649171124643
30
0
41
1
10
-2.19999999999999
20
-16.666987304737
30
0
41
1
10
-2.19999999999999
20
-16.8167085043733
30
0
41
1
10
-2.19999999999999
20
-16.9645862898264
30
0
41
1
10
-2.19999999999999
20
-17.1592828976246
30
0
41
1
10
-2.19999999999999
20
-17.3502835148979
30
0
41
1
10
-2.19999999999999
20
-17.5375147595292
30
0
41
1
10
-2.19999999999999
20
-17.676060438985
30
0
41
1
10
-2.19999999999999
20
-17.8127154575359
30
0
41
1
10
-2.19999999999999
20
-17.9923842415009
30
0
41
1
10
-2.19999999999999
20
-18.1682547291306
30
0
41
1
10
-2.19999999999999
20
-18.3402522143585
30
0
41
1
10
-2.19999999999999
20
-18.4673177032107
30
0
41
1
10
-2.19999999999999
20
-18.5924361073221
30
0
41
1
10
-2.19999999999999
20
-18.7566457425986
30
0
41
1
10
-2.19999999999999
20
-18.9169371900015
30
0
41
1
10
-2.19999999999999
20
-19.0732305996174
30
0
41
1
10
-2.19999999999999
20
-19.1884526890887
30
0
41
1
10
-2.19999999999999
20
-19.3016611759423
30
0
41
1
10
-2.19999999999999
20
-19.4499005391959
30
0
41
1
10
-2.19999999999999
20
-19.5940785255289
30
0
41
1
10
-2.19999999999999
20
-19.7341104289282
30
0
41
1
10
-2.19999999999999
20
-19.8370589164793
30
0
41
1
10
-2.19999999999999
20
-19.9379146863563
30
0
41
1
10
-2.19999999999999
20
-20.0366640227898
30
0
41
1
10
-2.19999999999999
20
-20.133289903145
30
0
41
1
10
-2.19999999999999
20
-20.2277776697998
30
0
41
1
10
-2.19999999999999
20
-20.3201119082527
30
0
41
1
10
-2.19999999999999
20
-20.4102747220553
30
0
41
1
10
-2.19999999999999
20
-20.4982502752196
30
0
41
1
10
-2.19999999999999
20
-20.5840212474559
30
0
41
1
10
-2.19999999999999
20
-20.6675682022903
30
0
41
1
10
-2.19999999999999
20
-20.7488739108727
30
0
41
1
10
-2.19999999999999
20
-20.82791883753
30
0
41
1
10
-2.19999999999999
20
-20.9302657657864
30
0
41
1
10
-2.19999999999999
20
-21.0280237880878
30
0
41
1
10
-2.19999999999999
20
-21.1210800961781
30
0
41
1
10
-2.19999999999999
20
-21.1885090211437
30
0
41
1
10
-2.19999999999999
20
-21.2535469320083
30
0
41
1
10
-2.19999999999999
20
-21.3161704250344
30
0
41
1
10
-2.19999999999999
20
-21.3763547664481
30
0
41
1
10
-2.19999999999999
20
-21.4533087676779
30
0
41
1
10
-2.19999999999999
20
-21.5252891448141
30
0
41
1
10
-2.19999999999999
20
-21.5921615531195
30
0
41
1
10
-2.19999999999999
20
-21.6397397916631
30
0
41
1
10
-2.19999999999999
20
-21.6847072964973
30
0
41
1
10
-2.19999999999999
20
-21.7411389990572
30
0
41
1
10
-2.19999999999999
20
-21.7922265879071
30
0
41
1
10
-2.19999999999999
20
-21.8378144981283
30
0
41
1
10
-2.19999999999999
20
-21.8692221254414
30
0
41
1
10
-2.19999999999999
20
-21.8978063777089
30
0
41
1
10
-2.19999999999999
20
-21.9235254752891
30
0
41
1
10
-2.19999999999999
20
-21.9463373508774
30
0
41
1
10
-2.19999999999999
20
-21.9661972037607
30
0
41
1
10
-2.19999999999999
20
-21.9830583809744
30
0
41
1
10
-2.19999999999999
20
-21.9968726399857
30
0
41
1
10
-2.19999999999999
20
-22.0069599800892
30
0
41
1
10
-2.19999999999999
20
-22.0117281004391
30
0
41
1
10
-2.19999999999999
20
-22.0135203012473
30
0
0
SPLINE
5
18C
100
AcDbEntity
8
SK1
62
256
6
ByLayer
370
18
48
1
60
0
100
AcDbSpline
70
4
71
3
72
303
73
299
40
0
40
0
40
0
40
0
40
0.0005133415019529
40
0.0040062578894343
40
0.0074991742769157
40
0.0109920906643972
40
0.0144850070518786
40
0.0179779234393601
40
0.0214708398268415
40
0.024963756214323
40
0.0284566726018044
40
0.0319495889892858
40
0.0389354217642487
40
0.0459212545392116
40
0.0529070873141745
40
0.056400003701656
40
0.0598929200891374
40
0.0633858364766188
40
0.0668787528641002
40
0.0738645856390632
40
0.0773575020265446
40
0.0808504184140261
40
0.0843433348015075
40
0.0878362511889889
40
0.0913291675764704
40
0.0948220839639518
40
0.101807916738915
40
0.105300833126396
40
0.108793749513878
40
0.112286665901359
40
0.11577958228884
40
0.119272498676322
40
0.122765415063803
40
0.126258331451285
40
0.129751247838766
40
0.133244164226248
40
0.136737080613729
40
0.14022999700121
40
0.143722913388692
40
0.147215829776173
40
0.150708746163655
40
0.157694578938618
40
0.161187495326099
40
0.164680411713581
40
0.166426869907321
40
0.168173328101062
40
0.171666244488543
40
0.178652077263506
40
0.182144993650988
40
0.185637910038469
40
0.189130826425951
40
0.192623742813432
40
0.199609575588395
40
0.203102491975876
40
0.206595408363358
40
0.208341866557099
40
0.210088324750839
40
0.213581241138321
40
0.220567073913284
40
0.224059990300765
40
0.227552906688246
40
0.231045823075728
40
0.234538739463209
40
0.241524572238172
40
0.245017488625654
40
0.248510405013135
40
0.250256863206876
40
0.252003321400617
40
0.255496237788098
40
0.25898915417558
40
0.262482070563061
40
0.264228528756802
40
0.265974986950542
40
0.269467903338024
40
0.272960819725505
40
0.276453736112987
40
0.279946652500468
40
0.28343956888795
40
0.286932485275431
40
0.290425401662912
40
0.293918318050394
40
0.297411234437875
40
0.300904150825357
40
0.304397067212838
40
0.30788998360032
40
0.311382899987801
40
0.314875816375283
40
0.318368732762764
40
0.325354565537727
40
0.328847481925208
40
0.33234039831269
40
0.335833314700171
40
0.339326231087653
40
0.342819147475134
40
0.346312063862615
40
0.349804980250097
40
0.353297896637578
40
0.360283729412541
40
0.367269562187504
40
0.374255394962467
40
0.377748311349949
40
0.38124122773743
40
0.384734144124911
40
0.388227060512393
40
0.391719976899874
40
0.395212893287356
40
0.398705809674837
40
0.402198726062319
40
0.4056916424498
40
0.409184558837281
40
0.412677475224763
40
0.416170391612244
40
0.419663307999726
40
0.423156224387207
40
0.426649140774689
40
0.43014205716217
40
0.433634973549652
40
0.435381431743392
40
0.437127889937133
40
0.438874348130874
40
0.440620806324614
40
0.444113722712096
40
0.447606639099577
40
0.449353097293318
40
0.451099555487059
40
0.4528460136808
40
0.45459247187454
40
0.458085388262022
40
0.459831846455763
40
0.461578304649503
40
0.463324762843244
40
0.465071221036985
40
0.466817679230725
40
0.468564137424466
40
0.470310595618207
40
0.472057053811948
40
0.473803512005688
40
0.475549970199429
40
0.47729642839317
40
0.47904288658691
40
0.480789344780651
40
0.482535802974392
40
0.484282261168133
40
0.486028719361873
40
0.487775177555614
40
0.489521635749355
40
0.491268093943095
40
0.493014552136836
40
0.494761010330577
40
0.496507468524317
40
0.498253926718058
40
0.500000384911799
40
0.50174684310554
40
0.50349330129928
40
0.505239759493021
40
0.506986217686762
40
0.508732675880503
40
0.510479134074243
40
0.512225592267984
40
0.513972050461725
40
0.515718508655465
40
0.517464966849206
40
0.519211425042947
40
0.520957883236688
40
0.522704341430428
40
0.524450799624169
40
0.52619725781791
40
0.52794371601165
40
0.529690174205391
40
0.531436632399132
40
0.533183090592873
40
0.534929548786613
40
0.536676006980354
40
0.538422465174095
40
0.540168923367836
40
0.541915381561576
40
0.545408297949058
40
0.547154756142798
40
0.548901214336539
40
0.55064767253028
40
0.552394130724021
40
0.555887047111502
40
0.559379963498984
40
0.561126421692724
40
0.562872879886465
40
0.564619338080206
40
0.566365796273946
40
0.569858712661428
40
0.573351629048909
40
0.576844545436391
40
0.580337461823872
40
0.583830378211354
40
0.587323294598835
40
0.590816210986317
40
0.594309127373798
40
0.597802043761279
40
0.601294960148761
40
0.604787876536242
40
0.608280792923724
40
0.611773709311205
40
0.615266625698687
40
0.618759542086168
40
0.62225245847365
40
0.625745374861131
40
0.632731207636094
40
0.639717040411057
40
0.64670287318602
40
0.650195789573501
40
0.653688705960982
40
0.657181622348464
40
0.660674538735945
40
0.664167455123427
40
0.667660371510908
40
0.67115328789839
40
0.674646204285871
40
0.681632037060834
40
0.685124953448315
40
0.688617869835797
40
0.692110786223278
40
0.69560370261076
40
0.699096618998241
40
0.702589535385723
40
0.706082451773204
40
0.709575368160686
40
0.713068284548167
40
0.716561200935648
40
0.72005411732313
40
0.723547033710611
40
0.730532866485574
40
0.734025782873056
40
0.737518699260537
40
0.7445045320355
40
0.747997448422981
40
0.751490364810463
40
0.754983281197944
40
0.758476197585426
40
0.765462030360389
40
0.76895494674787
40
0.772447863135352
40
0.775940779522833
40
0.779433695910315
40
0.786419528685277
40
0.789912445072759
40
0.79340536146024
40
0.796898277847722
40
0.800391194235203
40
0.807377027010166
40
0.810869943397647
40
0.814362859785129
40
0.81785577617261
40
0.821348692560092
40
0.828334525335055
40
0.831827441722536
40
0.835320358110017
40
0.838813274497499
40
0.84230619088498
40
0.849292023659943
40
0.852784940047425
40
0.856277856434906
40
0.859770772822388
40
0.863263689209869
40
0.86675660559735
40
0.870249521984832
40
0.873742438372313
40
0.877235354759795
40
0.880728271147276
40
0.884221187534758
40
0.887714103922239
40
0.891207020309721
40
0.894699936697202
40
0.898192853084683
40
0.905178685859646
40
0.908671602247128
40
0.912164518634609
40
0.915657435022091
40
0.919150351409572
40
0.922643267797054
40
0.926136184184535
40
0.933122016959498
40
0.936614933346979
40
0.940107849734461
40
0.943600766121942
40
0.947093682509424
40
0.954079515284387
40
0.957572431671868
40
0.961065348059349
40
0.964558264446831
40
0.968051180834312
40
0.971544097221794
40
0.975037013609275
40
0.978529929996757
40
0.982022846384238
40
0.98551576277172
40
0.989008679159201
40
0.992501595546682
40
0.995994511934164
40
0.999487428321645
40
1
40
1
40
1
40
1
41
1
10
-36.5
20
21.1555776092775
30
0
41
1
10
-36.5
20
21.1557858222596
30
0
41
1
10
-36.5
20
21.1573191514389
30
0
41
1
10
-36.5
20
21.1588544331657
30
0
41
1
10
-36.5
20
21.1578038223016
30
0
41
1
10
-36.5
20
21.1536126358382
30
0
41
1
10
-36.5
20
21.1463317213717
30
0
41
1
10
-36.5
20
21.1360112678938
30
0
41
1
10
-36.5
20
21.1226986497682
30
0
41
1
10
-36.5
20
21.1064402158535
30
0
41
1
10
-36.5
20
21.0872797426226
30
0
41
1
10
-36.5
20
21.0578537406018
30
0
41
1
10
-36.5
20
21.0141777773224
30
0
41
1
10
-36.5
20
20.950713074722
30
0
41
1
10
-36.5
20
20.8890285612071
30
0
41
1
10
-36.5
20
20.8342802658871
30
0
41
1
10
-36.5
20
20.7907267804185
30
0
41
1
10
-36.5
20
20.7446291690672
30
0
41
1
10
-36.5
20
20.6796864194097
30
0
41
1
10
-36.5
20
20.6101652524536
30
0
41
1
10
-36.5
20
20.5353747251341
30
0
41
1
10
-36.5
20
20.4769783324059
30
0
41
1
10
-36.5
20
20.4161995895793
30
0
41
1
10
-36.5
20
20.3530628196555
30
0
41
1
10
-36.5
20
20.2875896826626
30
0
41
1
10
-36.5
20
20.1970436182683
30
0
41
1
10
-36.5
20
20.1024192722933
30
0
41
1
10
-36.5
20
20.0027815031752
30
0
41
1
10
-36.5
20
19.9259535572617
30
0
41
1
10
-36.5
20
19.8469141355251
30
0
41
1
10
-36.5
20
19.7656833730651
30
0
41
1
10
-36.5
20
19.6822775189499
30
0
41
1
10
-36.5
20
19.5967148149262
30
0
41
1
10
-36.5
20
19.5090135394173
30
0
41
1
10
-36.5
20
19.4191882696517
30
0
41
1
10
-36.5
20
19.3272561697677
30
0
41
1
10
-36.5
20
19.2332338822713
30
0
41
1
10
-36.5
20
19.1371346902893
30
0
41
1
10
-36.5
20
19.0389746878943
30
0
41
1
10
-36.5
20
18.9387689752275
30
0
41
1
10
-36.5
20
18.8022215100789
30
0
41
1
10
-36.5
20
18.6623317385554
30
0
41
1
10
-36.5
20
18.5177544284038
30
0
41
1
10
-36.5
20
18.4260133905722
30
0
41
1
10
-36.5
20
18.3514175898237
30
0
41
1
10
-36.5
20
18.2761667145511
30
0
41
1
10
-36.5
20
18.1428549391526
30
0
41
1
10
-36.5
20
17.987269645424
30
0
41
1
10
-36.5
20
17.8270700659299
30
0
41
1
10
-36.5
20
17.705205542109
30
0
41
1
10
-36.5
20
17.5814423770725
30
0
41
1
10
-36.5
20
17.4136311437529
30
0
41
1
10
-36.5
20
17.2428939764416
30
0
41
1
10
-36.5
20
17.0675963011876
30
0
41
1
10
-36.5
20
16.9568152899196
30
0
41
1
10
-36.5
20
16.867008999151
30
0
41
1
10
-36.5
20
16.7765898513273
30
0
41
1
10
-36.5
20
16.6168596157572
30
0
41
1
10
-36.5
20
16.4314438788638
30
0
41
1
10
-36.5
20
16.2414991337765
30
0
41
1
10
-36.5
20
16.097474719741
30
0
41
1
10
-36.5
20
15.9516616651348
30
0
41
1
10
-36.5
20
15.7545445351489
30
0
41
1
10
-36.5
20
15.5548613446891
30
0
41
1
10
-36.5
20
15.350663385132
30
0
41
1
10
-36.5
20
15.2219600388738
30
0
41
1
10
-36.5
20
15.1178164480938
30
0
41
1
10
-36.5
20
15.0130920883853
30
0
41
1
10
-36.5
20
14.8814910451208
30
0
41
1
10
-36.5
20
14.7216281332594
30
0
41
1
10
-36.5
20
14.5871530954062
30
0
41
1
10
-36.5
20
14.4783873813363
30
0
41
1
10
-36.5
20
14.3690494022437
30
0
41
1
10
-36.5
20
14.2317235183089
30
0
41
1
10
-36.5
20
14.0650028858775
30
0
41
1
10
-36.5
20
13.8965816080865
30
0
41
1
10
-36.5
20
13.7264689694465
30
0
41
1
10
-36.5
20
13.5546710496343
30
0
41
1
10
-36.5
20
13.3811910773122
30
0
41
1
10
-36.5
20
13.2060373742644
30
0
41
1
10
-36.5
20
13.0292149133303
30
0
41
1
10
-36.5
20
12.850728177302
30
0
41
1
10
-36.5
20
12.6705857874604
30
0
41
1
10
-36.5
20
12.4887914218501
30
0
41
1
10
-36.5
20
12.3053503484466
30
0
41
1
10
-36.5
20
12.1202706879328
30
0
41
1
10
-36.5
20
11.9335555855444
30
0
41
1
10
-36.5
20
11.6819759204348
30
0
41
1
10
-36.5
20
11.4285505376587
30
0
41
1
10
-36.5
20
11.1704660874499
30
0
41
1
10
-36.5
20
10.9756651586938
30
0
41
1
10
-36.5
20
10.7792636737398
30
0
41
1
10
-36.5
20
10.5812696725585
30
0
41
1
10
-36.5
20
10.3816871154457
30
0
41
1
10
-36.5
20
10.180523710493
30
0
41
1
10
-36.5
20
9.9777855843503
30
0
41
1
10
-36.5
20
9.70483576808863
30
0
41
1
10
-36.5
20
9.36101276272154
30
0
41
1
10
-36.5
20
8.94153438933262
30
0
41
1
10
-36.5
20
8.58745787193689
30
0
41
1
10
-36.5
20
8.30004464023602
30
0
41
1
10
-36.5
20
8.08346950394392
30
0
41
1
10
-36.5
20
7.86540102208474
30
0
41
1
10
-36.5
20
7.64585131899614
30
0
41
1
10
-36.5
20
7.42483318088833
30
0
41
1
10
-36.5
20
7.20235735193418
30
0
41
1
10
-36.5
20
6.97843755879967
30
0
41
1
10
-36.5
20
6.75308981071325
30
0
41
1
10
-36.5
20
6.52633035082275
30
0
41
1
10
-36.5
20
6.29817753233076
30
0
41
1
10
-36.5
20
6.06865022444896
30
0
41
1
10
-36.5
20
5.83776884649418
30
0
41
1
10
-36.5
20
5.60555660448861
30
0
41
1
10
-36.5
20
5.37203985998678
30
0
41
1
10
-36.5
20
5.13724579696884
30
0
41
1
10
-36.5
20
4.90120595303733
30
0
41
1
10
-36.5
20
4.70396583147405
30
0
41
1
10
-36.5
20
4.54469638576828
30
0
41
1
10
-36.5
20
4.42533999597057
30
0
41
1
10
-36.5
20
4.30569972295402
30
0
41
1
10
-36.5
20
4.14529336499854
30
0
41
1
10
-36.5
20
3.94531865595207
30
0
41
1
10
-36.5
20
3.74444957084984
30
0
41
1
10
-36.5
20
3.58224076117995
30
0
41
1
10
-36.5
20
3.46078958963511
30
0
41
1
10
-36.5
20
3.33910702605107
30
0
41
1
10
-36.5
20
3.17597085922344
30
0
41
1
10
-36.5
20
3.01425651604552
30
0
41
1
10
-36.5
20
2.85023149996007
30
0
41
1
10
-36.5
20
2.72752154931175
30
0
41
1
10
-36.5
20
2.60463052157442
30
0
41
1
10
-36.5
20
2.48157378937663
30
0
41
1
10
-36.5
20
2.35835621123036
30
0
41
1
10
-36.5
20
2.23499061660055
30
0
41
1
10
-36.5
20
2.11148761081347
30
0
41
1
10
-36.5
20
1.9878545152765
30
0
41
1
10
-36.5
20
1.86410632124097
30
0
41
1
10
-36.5
20
1.74024827700825
30
0
41
1
10
-36.5
20
1.61629526151512
30
0
41
1
10
-36.5
20
1.49225310041959
30
0
41
1
10
-36.5
20
1.3681347814894
30
0
41
1
10
-36.5
20
1.2439473222278
30
0
41
1
10
-36.5
20
1.11970117534864
30
0
41
1
10
-36.5
20
0.995403485642782
30
0
41
1
10
-36.5
20
0.8710629170684
30
0
41
1
10
-36.5
20
0.746686102657719
30
0
41
1
10
-36.5
20
0.622280124115576
30
0
41
1
10
-36.5
20
0.497850420758397
30
0
41
1
10
-36.5
20
0.373402935182185
30
0
41
1
10
-36.5
20
0.248942238793177
30
0
41
1
10
-36.5
20
0.124473257200918
30
0
41
1
10
-36.5
20
9.2462358E-09
30
0
41
1
10
-36.5
20
-0.124473254673973
30
0
41
1
10
-36.5
20
-0.248942266430618
30
0
41
1
10
-36.5
20
-0.373402960091397
30
0
41
1
10
-36.5
20
-0.497850400790554
30
0
41
1
10
-36.5
20
-0.622280094010847
30
0
41
1
10
-36.5
20
-0.746686131491799
30
0
41
1
10
-36.5
20
-0.871062970095124
30
0
41
1
10
-36.5
20
-0.995403468230791
30
0
41
1
10
-36.5
20
-1.11970111692671
30
0
41
1
10
-36.5
20
-1.2439473407681
30
0
41
1
10
-36.5
20
-1.36813486147517
30
0
41
1
10
-36.5
20
-1.49225310642996
30
0
41
1
10
-36.5
20
-1.61629518356963
30
0
41
1
10
-36.5
20
-1.74024825464127
30
0
41
1
10
-36.5
20
-1.86410640329151
30
0
41
1
10
-36.5
20
-1.98785458048855
30
0
41
1
10
-36.5
20
-2.11148756075909
30
0
41
1
10
-36.5
20
-2.2349905278607
30
0
41
1
10
-36.5
20
-2.3583562279822
30
0
41
1
10
-36.5
20
-2.48157389743915
30
0
41
1
10
-36.5
20
-2.60463057106841
30
0
41
1
10
-36.5
20
-2.72752148004804
30
0
41
1
10
-36.5
20
-2.8502314065623
30
0
41
1
10
-36.5
20
-3.01425656877106
30
0
41
1
10
-36.5
20
-3.17597095993784
30
0
41
1
10
-36.5
20
-3.33910698167958
30
0
41
1
10
-36.5
20
-3.46078948211164
30
0
41
1
10
-36.5
20
-3.58224072191865
30
0
41
1
10
-36.5
20
-3.74444967050349
30
0
41
1
10
-36.5
20
-3.94531869048151
30
0
41
1
10
-36.5
20
-4.14529326648051
30
0
41
1
10
-36.5
20
-4.30569969171859
30
0
41
1
10
-36.5
20
-4.42534006396792
30
0
41
1
10
-36.5
20
-4.54469650094606
30
0
41
1
10
-36.5
20
-4.70396584910503
30
0
41
1
10
-36.5
20
-4.90120586463618
30
0
41
1
10
-36.5
20
-5.1372458114655
30
0
41
1
10
-36.5
20
-5.37203995090806
30
0
41
1
10
-36.5
20
-5.6055565552935
30
0
41
1
10
-36.5
20
-5.83776875015036
30
0
41
1
10
-36.5
20
-6.06865017711209
30
0
41
1
10
-36.5
20
-6.29817748211653
30
0
41
1
10
-36.5
20
-6.52633051401983
30
0
41
1
10
-36.5
20
-6.75309051279777
30
0
41
1
10
-36.5
20
-6.97843834484934
30
0
41
1
10
-36.5
20
-7.20235684280951
30
0
41
1
10
-36.5
20
-7.42483229470756
30
0
41
1
10
-36.5
20
-7.64585158611578
30
0
41
1
10
-36.5
20
-7.86540128403743
30
0
41
1
10
-36.5
20
-8.08346945831602
30
0
41
1
10
-36.5
20
-8.3000445299389
30
0
41
1
10
-36.5
20
-8.58745782596952
30
0
41
1
10
-36.5
20
-8.94153442741853
30
0
41
1
10
-36.5
20
-9.36101273737586
30
0
41
1
10
-36.5
20
-9.70483575174822
30
0
41
1
10
-36.5
20
-9.97778564072317
30
0
41
1
10
-36.5
20
-10.18052371466
30
0
41
1
10
-36.5
20
-10.3816870614505
30
0
41
1
10
-36.5
20
-10.5812696339219
30
0
41
1
10
-36.5
20
-10.7792636942327
30
0
41
1
10
-36.5
20
-10.9756652058486
30
0
41
1
10
-36.5
20
-11.1704660987636
30
0
41
1
10
-36.5
20
-11.4285504962004
30
0
41
1
10
-36.5
20
-11.6819759007756
30
0
41
1
10
-36.5
20
-11.9335556252714
30
0
41
1
10
-36.5
20
-12.1202707134412
30
0
41
1
10
-36.5
20
-12.3053503320752
30
0
41
1
10
-36.5
20
-12.4887913848281
30
0
41
1
10
-36.5
20
-12.6705857704289
30
0
41
1
10
-36.5
20
-12.8507281979538
30
0
41
1
10
-36.5
20
-13.0292149436136
30
0
41
1
10
-36.5
20
-13.2060373895955
30
0
41
1
10
-36.5
20
-13.3811911431361
30
0
41
1
10
-36.5
20
-13.5546713888901
30
0
41
1
10
-36.5
20
-13.7264696827893
30
0
41
1
10
-36.5
20
-13.9536769173599
30
0
41
1
10
-36.5
20
-14.176348576809
30
0
41
1
10
-36.5
20
-14.3967384349213
30
0
41
1
10
-36.5
20
-14.6148460432235
30
0
41
1
10
-36.5
20
-14.8284315021107
30
0
41
1
10
-36.5
20
-15.0396227184095
30
0
41
1
10
-36.5
20
-15.1960147192182
30
0
41
1
10
-36.5
20
-15.3506631330603
30
0
41
1
10
-36.5
20
-15.5548624364723
30
0
41
1
10
-36.5
20
-15.7545451164335
30
0
41
1
10
-36.5
20
-15.9516609547094
30
0
41
1
10
-36.5
20
-16.0974737380165
30
0
41
1
10
-36.5
20
-16.241498813278
30
0
41
1
10
-36.5
20
-16.4314450331352
30
0
41
1
10
-36.5
20
-16.6168608854212
30
0
41
1
10
-36.5
20
-16.7995343923805
30
0
41
1
10
-36.5
20
-16.9344844206004
30
0
41
1
10
-36.5
20
-17.0675955495037
30
0
41
1
10
-36.5
20
-17.2428947983014
30
0
41
1
10
-36.5
20
-17.4136313821348
30
0
41
1
10
-36.5
20
-17.5814422063202
30
0
41
1
10
-36.5
20
-17.7052052466277
30
0
41
1
10
-36.5
20
-17.827069915531
30
0
41
1
10
-36.5
20
-17.9872703841193
30
0
41
1
10
-36.5
20
-18.1428562465544
30
0
41
1
10
-36.5
20
-18.2953166794047
30
0
41
1
10
-36.5
20
-18.4075180436267
30
0
41
1
10
-36.5
20
-18.5177535555592
30
0
41
1
10
-36.5
20
-18.6623326618876
30
0
41
1
10
-36.5
20
-18.8022222651529
30
0
41
1
10
-36.5
20
-18.9387686023437
30
0
41
1
10
-36.5
20
-19.0389739868785
30
0
41
1
10
-36.5
20
-19.1371342717784
30
0
41
1
10
-36.5
20
-19.2332339353276
30
0
41
1
10
-36.5
20
-19.3272562516113
30
0
41
1
10
-36.5
20
-19.4191882978898
30
0
41
1
10
-36.5
20
-19.5090135437133
30
0
41
1
10
-36.5
20
-19.5967148362678
30
0
41
1
10
-36.5
20
-19.6822775521962
30
0
41
1
10
-36.5
20
-19.7656833992675
30
0
41
1
10
-36.5
20
-19.8469141406672
30
0
41
1
10
-36.5
20
-19.9259535527381
30
0
41
1
10
-36.5
20
-20.0027815100322
30
0
41
1
10
-36.5
20
-20.1024193061391
30
0
41
1
10
-36.5
20
-20.1970436522849
30
0
41
1
10
-36.5
20
-20.287589681624
30
0
41
1
10
-36.5
20
-20.353062816238
30
0
41
1
10
-36.5
20
-20.4161996091986
30
0
41
1
10
-36.5
20
-20.4769783724375
30
0
41
1
10
-36.5
20
-20.5353747607017
30
0
41
1
10
-36.5
20
-20.6101652553123
30
0
41
1
10
-36.5
20
-20.6796864153796
30
0
41
1
10
-36.5
20
-20.7446292080422
30
0
41
1
10
-36.5
20
-20.7907268231738
30
0
41
1
10
-36.5
20
-20.8342802793506
30
0
41
1
10
-36.5
20
-20.8890285523336
30
0
41
1
10
-36.5
20
-20.9382580424269
30
0
41
1
10
-36.5
20
-20.9824409225429
30
0
41
1
10
-36.5
20
-21.0128017234864
30
0
41
1
10
-36.5
20
-21.0404207944711
30
0
41
1
10
-36.5
20
-21.0652596303332
30
0
41
1
10
-36.5
20
-21.0872797892674
30
0
41
1
10
-36.5
20
-21.1064402531507
30
0
41
1
10
-36.5
20
-21.1226986516191
30
0
41
1
10
-36.5
20
-21.1360112646484
30
0
41
1
10
-36.5
20
-21.1463317710584
30
0
41
1
10
-36.5
20
-21.1536128319466
30
0
41
1
10
-36.5
20
-21.1578041644649
30
0
41
1
10
-36.5
20
-21.1588543296933
30
0
41
1
10
-36.5
20
-21.1573189709243
30
0
41
1
10
-36.5
20
-21.1557860277365
30
0
41
1
10
-36.5
20
-21.1555781576959
30
0
0
SPLINE
5
18D
100
AcDbEntity
8
SK1
62
256
6
ByLayer
370
18
48
1
60
0
100
AcDbSpline
70
4
71
3
72
111
73
107
40
0
40
0
40
0
40
0
40
0.0023113641787433
40
0.0108556433259696
40
0.0193999224731959
40
0.0279442016204222
40
0.0364884807676485
40
0.0450327599148748
40
0.0535770390621012
40
0.0621213182093275
40
0.0706655973565538
40
0.0792098765037801
40
0.0877541556510064
40
0.0962984347982328
40
0.113386993092685
40
0.130475551387138
40
0.147564109681591
40
0.156108388828817
40
0.164652667976043
40
0.17319694712327
40
0.181741226270496
40
0.190285505417722
40
0.198829784564949
40
0.207374063712175
40
0.215918342859401
40
0.233006901153854
40
0.24155118030108
40
0.250095459448307
40
0.258639738595533
40
0.267184017742759
40
0.275728296889986
40
0.284272576037212
40
0.292816855184438
40
0.301361134331664
40
0.309905413478891
40
0.318449692626117
40
0.326993971773343
40
0.33553825092057
40
0.352626809215022
40
0.361171088362249
40
0.369715367509475
40
0.386803925803928
40
0.395348204951154
40
0.40389248409838
40
0.412436763245607
40
0.420981042392833
40
0.438069600687286
40
0.446613879834512
40
0.455158158981738
40
0.463702438128964
40
0.472246717276191
40
0.489335275570643
40
0.49787955471787
40
0.506423833865096
40
0.514968113012322
40
0.523512392159549
40
0.540600950454001
40
0.549145229601228
40
0.557689508748454
40
0.56623378789568
40
0.574778067042907
40
0.591866625337359
40
0.600410904484586
40
0.608955183631812
40
0.617499462779038
40
0.626043741926265
40
0.643132300220717
40
0.651676579367943
40
0.66022085851517
40
0.668765137662396
40
0.677309416809622
40
0.685853695956849
40
0.694397975104075
40
0.702942254251301
40
0.711486533398528
40
0.720030812545754
40
0.72857509169298
40
0.737119370840207
40
0.745663649987433
40
0.754207929134659
40
0.762752208281886
40
0.779840766576338
40
0.788385045723565
40
0.796929324870791
40
0.805473604018017
40
0.814017883165243
40
0.82256216231247
40
0.831106441459696
40
0.848194999754149
40
0.856739278901375
40
0.865283558048601
40
0.873827837195828
40
0.882372116343054
40
0.899460674637507
40
0.908004953784733
40
0.916549232931959
40
0.925093512079186
40
0.933637791226412
40
0.942182070373638
40
0.950726349520865
40
0.959270628668091
40
0.967814907815317
40
0.976359186962543
40
0.98490346610977
40
0.993447745256996
40
1
40
1
40
1
40
1
41
1
10
-0.394976888875277
20
-6.32694279392976
30
0
41
1
10
-0.394976888875277
20
-6.3484916311391
30
0
41
1
10
-0.394976888875277
20
-6.44960775400912
30
0
41
1
10
-0.394976888875277
20
-6.62954555948869
30
0
41
1
10
-0.394976888875277
20
-6.8656950488801
30
0
41
1
10
-0.394976888875277
20
-7.10023740586411
30
0
41
1
10
-0.394976888875277
20
-7.33316546385933
30
0
41
1
10
-0.394976888875277
20
-7.56447269448574
30
0
41
1
10
-0.394976888875277
20
-7.79415340272945
30
0
41
1
10
-0.394976888875277
20
-8.02220293401996
30
0
41
1
10
-0.394976888875277
20
-8.24861635560848
30
0
41
1
10
-0.394976888875277
20
-8.47338951886385
30
0
41
1
10
-0.394976888875277
20
-8.69651811258549
30
0
41
1
10
-0.394976888875277
20
-8.99192948127941
30
0
41
1
10
-0.394976888875277
20
-9.35683912175983
30
0
41
1
10
-0.394976888875277
20
-9.78821091217483
30
0
41
1
10
-0.394976888875277
20
-10.142045462177
30
0
41
1
10
-0.394976888875277
20
-10.4219344727077
30
0
41
1
10
-0.394976888875277
20
-10.6301131683678
30
0
41
1
10
-0.394976888875277
20
-10.8366153667066
30
0
41
1
10
-0.394976888875277
20
-11.0414388905992
30
0
41
1
10
-0.394976888875277
20
-11.2445799004538
30
0
41
1
10
-0.394976888875277
20
-11.4460361162834
30
0
41
1
10
-0.394976888875277
20
-11.6458042976885
30
0
41
1
10
-0.394976888875277
20
-11.9099848253352
30
0
41
1
10
-0.394976888875277
20
-12.1705475695385
30
0
41
1
10
-0.394976888875277
20
-12.4279318067111
30
0
41
1
10
-0.394976888875277
20
-12.6192114874981
30
0
41
1
10
-0.394976888875277
20
-12.8087826250924
30
0
41
1
10
-0.394976888875277
20
-12.9966426041155
30
0
41
1
10
-0.394976888875277
20
-13.182787448996
30
0
41
1
10
-0.394976888875277
20
-13.3672125455487
30
0
41
1
10
-0.394976888875277
20
-13.5499151547097
30
0
41
1
10
-0.394976888875277
20
-13.7308904478326
30
0
41
1
10
-0.394976888875277
20
-13.910133867705
30
0
41
1
10
-0.394976888875277
20
-14.0876421688895
30
0
41
1
10
-0.394976888875277
20
-14.2634098807097
30
0
41
1
10
-0.394976888875277
20
-14.4955025482493
30
0
41
1
10
-0.394976888875277
20
-14.7239127068147
30
0
41
1
10
-0.394976888875277
20
-14.9489833053404
30
0
41
1
10
-0.394976888875277
20
-15.171701411915
30
0
41
1
10
-0.394976888875277
20
-15.3907043201103
30
0
41
1
10
-0.394976888875277
20
-15.6063159613101
30
0
41
1
10
-0.394976888875277
20
-15.7661946363952
30
0
41
1
10
-0.394976888875277
20
-15.9242799594928
30
0
41
1
10
-0.394976888875277
20
-16.1327154012234
30
0
41
1
10
-0.394976888875277
20
-16.3373780173449
30
0
41
1
10
-0.394976888875277
20
-16.5385587125243
30
0
41
1
10
-0.394976888875277
20
-16.6875782011067
30
0
41
1
10
-0.394976888875277
20
-16.8347642769002
30
0
41
1
10
-0.394976888875277
20
-17.0286080073569
30
0
41
1
10
-0.394976888875277
20
-17.2186059445175
30
0
41
1
10
-0.394976888875277
20
-17.4050188999402
30
0
41
1
10
-0.394976888875277
20
-17.5429190217058
30
0
41
1
10
-0.394976888875277
20
-17.6789377757623
30
0
41
1
10
-0.394976888875277
20
-17.8578220601067
30
0
41
1
10
-0.394976888875277
20
-18.0327708145484
30
0
41
1
10
-0.394976888875277
20
-18.2040166330947
30
0
41
1
10
-0.394976888875277
20
-18.3304892054167
30
0
41
1
10
-0.394976888875277
20
-18.4550234389153
30
0
41
1
10
-0.394976888875277
20
-18.6185132745736
30
0
41
1
10
-0.394976888875277
20
-18.7779598884918
30
0
41
1
10
-0.394976888875277
20
-18.933565131357
30
0
41
1
10
-0.394976888875277
20
-19.048244884465
30
0
41
1
10
-0.394976888875277
20
-19.1609196079758
30
0
41
1
10
-0.394976888875277
20
-19.3085018143331
30
0
41
1
10
-0.394976888875277
20
-19.4519098709686
30
0
41
1
10
-0.394976888875277
20
-19.5913159811741
30
0
41
1
10
-0.394976888875277
20
-19.6937719762305
30
0
41
1
10
-0.394976888875277
20
-19.7941438028822
30
0
41
1
10
-0.394976888875277
20
-19.8924174211231
30
0
41
1
10
-0.394976888875277
20
-19.988575861591
30
0
41
1
10
-0.394976888875277
20
-20.082604778142
30
0
41
1
10
-0.394976888875277
20
-20.1744885559187
30
0
41
1
10
-0.394976888875277
20
-20.264209431984
30
0
41
1
10
-0.394976888875277
20
-20.3517517880635
30
0
41
1
10
-0.394976888875277
20
-20.437098129367
30
0
41
1
10
-0.394976888875277
20
-20.5202292348052
30
0
41
1
10
-0.394976888875277
20
-20.6011280559991
30
0
41
1
10
-0.394976888875277
20
-20.6797749513881
30
0
41
1
10
-0.394976888875277
20
-20.781635486227
30
0
41
1
10
-0.394976888875277
20
-20.8788308931333
30
0
41
1
10
-0.394976888875277
20
-20.9714365096391
30
0
41
1
10
-0.394976888875277
20
-21.0385142950144
30
0
41
1
10
-0.394976888875277
20
-21.1032108820957
30
0
41
1
10
-0.394976888875277
20
-21.1655031751743
30
0
41
1
10
-0.394976888875277
20
-21.2253665102307
30
0
41
1
10
-0.394976888875277
20
-21.301932078811
30
0
41
1
10
-0.394976888875277
20
-21.3734709318986
30
0
41
1
10
-0.394976888875277
20
-21.4399968999807
30
0
41
1
10
-0.394976888875277
20
-21.4873093096751
30
0
41
1
10
-0.394976888875277
20
-21.5320229383892
30
0
41
1
10
-0.394976888875277
20
-21.5881524005931
30
0
41
1
10
-0.394976888875277
20
-21.6389063892513
30
0
41
1
10
-0.394976888875277
20
-21.6842420425293
30
0
41
1
10
-0.394976888875277
20
-21.7154617242468
30
0
41
1
10
-0.394976888875277
20
-21.7438726893518
30
0
41
1
10
-0.394976888875277
20
-21.7694337460976
30
0
41
1
10
-0.394976888875277
20
-21.7921034780961
30
0
41
1
10
-0.394976888875277
20
-21.8118377637545
30
0
41
1
10
-0.394976888875277
20
-21.8285907189997
30
0
41
1
10
-0.394976888875277
20
-21.8423149132633
30
0
41
1
10
-0.394976888875277
20
-21.8529599173647
30
0
41
1
10
-0.394976888875277
20
-21.8604739519412
30
0
41
1
10
-0.394976888875277
20
-21.864465517042
30
0
41
1
10
-0.394976888875249
20
-21.8653271896986
30
0
41
1
10
-0.394976888875249
20
-21.865378793666
30
0
0
SPLINE
5
18E
100
AcDbEntity
8
SK1
62
256
6
ByLayer
370
18
48
1
60
0
100
AcDbSpline
70
4
71
3
72
115
73
111
40
0
40
0
40
0
40
0
40
0.0065652141043918
40
0.0151093818780847
40
0.0236535496517776
40
0.0321977174254705
40
0.0407418851991634
40
0.0492860529728563
40
0.0578302207465492
40
0.0663743885202421
40
0.0834627240676279
40
0.100551059615014
40
0.1176393951624
40
0.126183562936092
40
0.134727730709785
40
0.143271898483478
40
0.151816066257171
40
0.168904401804557
40
0.17744856957825
40
0.185992737351943
40
0.194536905125636
40
0.203081072899329
40
0.211625240673021
40
0.220169408446714
40
0.2372577439941
40
0.245801911767793
40
0.254346079541486
40
0.262890247315179
40
0.271434415088872
40
0.279978582862565
40
0.288522750636257
40
0.29706691840995
40
0.305611086183643
40
0.314155253957336
40
0.322699421731029
40
0.331243589504722
40
0.339787757278415
40
0.348331925052108
40
0.356876092825801
40
0.373964428373186
40
0.382508596146879
40
0.391052763920572
40
0.395324847807419
40
0.399596931694265
40
0.408141099467958
40
0.425229435015344
40
0.433773602789037
40
0.44231777056273
40
0.450861938336423
40
0.459406106110116
40
0.476494441657501
40
0.485038609431194
40
0.493582777204887
40
0.497854861091733
40
0.50212694497858
40
0.510671112752273
40
0.527759448299659
40
0.536303616073352
40
0.544847783847044
40
0.553391951620737
40
0.56193611939443
40
0.579024454941816
40
0.587568622715509
40
0.596112790489202
40
0.600384874376048
40
0.604656958262895
40
0.613201126036588
40
0.62174529381028
40
0.630289461583973
40
0.63456154547082
40
0.638833629357666
40
0.647377797131359
40
0.655921964905052
40
0.664466132678745
40
0.673010300452438
40
0.681554468226131
40
0.690098635999824
40
0.698642803773517
40
0.707186971547209
40
0.715731139320902
40
0.724275307094595
40
0.732819474868288
40
0.741363642641981
40
0.749907810415674
40
0.758451978189367
40
0.76699614596306
40
0.784084481510446
40
0.792628649284138
40
0.801172817057831
40
0.809716984831524
40
0.818261152605217
40
0.82680532037891
40
0.835349488152603
40
0.843893655926296
40
0.852437823699989
40
0.869526159247375
40
0.88661449479476
40
0.903702830342146
40
0.912246998115839
40
0.920791165889532
40
0.929335333663225
40
0.937879501436918
40
0.946423669210611
40
0.954967836984304
40
0.963512004757996
40
0.972056172531689
40
0.980600340305382
40
0.989144508079075
40
0.997688675852768
40
1
40
1
40
1
40
1
41
1
10
-0.394976888875277
20
21.8653790905946
30
0
41
1
10
-0.394976888875277
20
21.8653285666001
30
0
41
1
10
-0.394976888875277
20
21.8644673812594
30
0
41
1
10
-0.394976888875277
20
21.8604737650697
30
0
41
1
10
-0.394976888875277
20
21.8529598769268
30
0
41
1
10
-0.394976888875277
20
21.8423149188875
30
0
41
1
10
-0.394976888875277
20
21.8285907137819
30
0
41
1
10
-0.394976888875277
20
21.8118377229246
30
0
41
1
10
-0.394976888875277
20
21.7921034347989
30
0
41
1
10
-0.394976888875277
20
21.7618666429643
30
0
41
1
10
-0.394976888875277
20
21.7168668922192
30
0
41
1
10
-0.394976888875277
20
21.651618462036
30
0
41
1
10
-0.394976888875277
20
21.5881524120742
30
0
41
1
10
-0.394976888875277
20
21.5320229149808
30
0
41
1
10
-0.394976888875277
20
21.4873092663299
30
0
41
1
10
-0.394976888875277
20
21.4399968711307
30
0
41
1
10
-0.394976888875277
20
21.3734709387681
30
0
41
1
10
-0.394976888875277
20
21.3019320664004
30
0
41
1
10
-0.394976888875277
20
21.2253664719936
30
0
41
1
10
-0.394976888875277
20
21.1655031445011
30
0
41
1
10
-0.394976888875277
20
21.1032108723211
30
0
41
1
10
-0.394976888875277
20
21.038514297088
30
0
41
1
10
-0.394976888875277
20
20.9714364994015
30
0
41
1
10
-0.394976888875277
20
20.8788308563806
30
0
41
1
10
-0.394976888875277
20
20.7816354627076
30
0
41
1
10
-0.394976888875277
20
20.6797749496461
30
0
41
1
10
-0.394976888875277
20
20.6011280536546
30
0
41
1
10
-0.394976888875277
20
20.5202292190253
30
0
41
1
10
-0.394976888875277
20
20.4370981008412
30
0
41
1
10
-0.394976888875277
20
20.3517517634561
30
0
41
1
10
-0.394976888875277
20
20.2642094206366
30
0
41
1
10
-0.394976888875277
20
20.1744885542463
30
0
41
1
10
-0.394976888875277
20
20.082604770276
30
0
41
1
10
-0.394976888875277
20
19.9885758834751
30
0
41
1
10
-0.394976888875277
20
19.8924175863555
30
0
41
1
10
-0.394976888875277
20
19.79414426657
30
0
41
1
10
-0.394976888875277
20
19.6937723311917
30
0
41
1
10
-0.394976888875277
20
19.5913158900225
30
0
41
1
10
-0.394976888875277
20
19.4519091739392
30
0
41
1
10
-0.394976888875277
20
19.308501644014
30
0
41
1
10
-0.394976888875277
20
19.160920630363
30
0
41
1
10
-0.394976888875277
20
19.0670441229991
30
0
41
1
10
-0.394976888875277
20
18.9909051568102
30
0
41
1
10
-0.394976888875277
20
18.9140993494365
30
0
41
1
10
-0.394976888875277
20
18.777958735224
30
0
41
1
10
-0.394976888875277
20
18.6185131846482
30
0
41
1
10
-0.394976888875277
20
18.4550236113311
30
0
41
1
10
-0.394976888875277
20
18.330489335967
30
0
41
1
10
-0.394976888875277
20
18.2040166079408
30
0
41
1
10
-0.394976888875277
20
18.0327705937831
30
0
41
1
10
-0.394976888875277
20
17.8578219077773
30
0
41
1
10
-0.394976888875277
20
17.6789387292296
30
0
41
1
10
-0.394976888875277
20
17.5656125946474
30
0
41
1
10
-0.394976888875277
20
17.4739690253912
30
0
41
1
10
-0.394976888875277
20
17.3816993239948
30
0
41
1
10
-0.394976888875277
20
17.2186048360495
30
0
41
1
10
-0.394976888875277
20
17.0286078387926
30
0
41
1
10
-0.394976888875277
20
16.8347647509306
30
0
41
1
10
-0.394976888875277
20
16.6875786248762
30
0
41
1
10
-0.394976888875277
20
16.5385587049943
30
0
41
1
10
-0.394976888875277
20
16.3373774066279
30
0
41
1
10
-0.394976888875277
20
16.1327150774874
30
0
41
1
10
-0.394976888875277
20
15.9242804112408
30
0
41
1
10
-0.394976888875277
20
15.7925696820839
30
0
41
1
10
-0.394976888875277
20
15.6862549949744
30
0
41
1
10
-0.394976888875277
20
15.5793432837569
30
0
41
1
10
-0.394976888875277
20
15.4446487492657
30
0
41
1
10
-0.394976888875277
20
15.2812010193763
30
0
41
1
10
-0.394976888875277
20
15.1435436982815
30
0
41
1
10
-0.394976888875277
20
15.0324801920763
30
0
41
1
10
-0.394976888875277
20
14.9208273816877
30
0
41
1
10
-0.394976888875277
20
14.7802248596231
30
0
41
1
10
-0.394976888875277
20
14.6097059483473
30
0
41
1
10
-0.394976888875277
20
14.4374320816019
30
0
41
1
10
-0.394976888875277
20
14.2634095816694
30
0
41
1
10
-0.394976888875277
20
14.0876420714538
30
0
41
1
10
-0.394976888875277
20
13.9101338497815
30
0
41
1
10
-0.394976888875277
20
13.7308904366346
30
0
41
1
10
-0.394976888875277
20
13.549915145406
30
0
41
1
10
-0.394976888875277
20
13.3672125481811
30
0
41
1
10
-0.394976888875277
20
13.182787463215
30
0
41
1
10
-0.394976888875277
20
12.9966426140257
30
0
41
1
10
-0.394976888875277
20
12.8087826212334
30
0
41
1
10
-0.394976888875277
20
12.6192114742801
30
0
41
1
10
-0.394976888875277
20
12.4279318017785
30
0
41
1
10
-0.394976888875277
20
12.1705475891153
30
0
41
1
10
-0.394976888875277
20
11.9099848332047
30
0
41
1
10
-0.394976888875277
20
11.6458042855523
30
0
41
1
10
-0.394976888875277
20
11.4460361066677
30
0
41
1
10
-0.394976888875277
20
11.2445799083311
30
0
41
1
10
-0.394976888875277
20
11.0414389105764
30
0
41
1
10
-0.394976888875277
20
10.8366153761928
30
0
41
1
10
-0.394976888875277
20
10.630113157504
30
0
41
1
10
-0.394976888875277
20
10.4219344610486
30
0
41
1
10
-0.394976888875277
20
10.1420454829465
30
0
41
1
10
-0.394976888875277
20
9.78821091215369
30
0
41
1
10
-0.394976888875277
20
9.3568391135907
30
0
41
1
10
-0.394976888875277
20
8.99192950801697
30
0
41
1
10
-0.394976888875277
20
8.69651812098675
30
0
41
1
10
-0.394976888875277
20
8.47338949471808
30
0
41
1
10
-0.394976888875277
20
8.24861627222975
30
0
41
1
10
-0.394976888875277
20
8.0222029406992
30
0
41
1
10
-0.394976888875277
20
7.79415362199521
30
0
41
1
10
-0.394976888875277
20
7.56447255210355
30
0
41
1
10
-0.394976888875277
20
7.33316516004027
30
0
41
1
10
-0.394976888875277
20
7.10023725398264
30
0
41
1
10
-0.394976888875277
20
6.86569504295815
30
0
41
1
10
-0.394976888875277
20
6.62954558311137
30
0
41
1
10
-0.394976888875277
20
6.44960786563362
30
0
41
1
10
-0.394976888875277
20
6.34849183540922
30
0
41
1
10
-0.394976888875277
20
6.32694309067119
30
0
0
SPLINE
5
18F
100
AcDbEntity
8
SK1
62
256
6
ByLayer
370
18
48
1
60
0
100
AcDbSpline
70
4
71
3
72
299
73
295
40
0
40
0
40
0
40
0
40
0.0029478111247148
40
0.0064728827691059
40
0.009997954413497
40
0.0135230260578881
40
0.0170480977022791
40
0.0205731693466702
40
0.0240982409910613
40
0.0276233126354524
40
0.0346734559242345
40
0.0417235992130166
40
0.0487737425017988
40
0.0522988141461899
40
0.0558238857905809
40
0.059348957434972
40
0.0628740290793631
40
0.0699241723681452
40
0.0734492440125363
40
0.0769743156569273
40
0.0804993873013184
40
0.0840244589457095
40
0.0875495305901006
40
0.0910746022344917
40
0.0981247455232738
40
0.101649817167665
40
0.105174888812056
40
0.108699960456447
40
0.112225032100838
40
0.115750103745229
40
0.11927517538962
40
0.122800247034011
40
0.126325318678402
40
0.129850390322793
40
0.133375461967185
40
0.136900533611576
40
0.140425605255967
40
0.143950676900358
40
0.147475748544749
40
0.154525891833531
40
0.158050963477922
40
0.161576035122313
40
0.163338570944509
40
0.165101106766704
40
0.168626178411095
40
0.175676321699878
40
0.179201393344268
40
0.18272646498866
40
0.186251536633051
40
0.189776608277442
40
0.196826751566224
40
0.200351823210615
40
0.203876894855006
40
0.205639430677202
40
0.207401966499397
40
0.210927038143788
40
0.21797718143257
40
0.221502253076961
40
0.225027324721353
40
0.228552396365744
40
0.232077468010135
40
0.239127611298917
40
0.242652682943308
40
0.246177754587699
40
0.247940290409894
40
0.24970282623209
40
0.253227897876481
40
0.256752969520872
40
0.260278041165263
40
0.262040576987459
40
0.263803112809654
40
0.267328184454045
40
0.270853256098436
40
0.274378327742828
40
0.277903399387218
40
0.28142847103161
40
0.284953542676001
40
0.288478614320392
40
0.292003685964783
40
0.295528757609174
40
0.299053829253565
40
0.302578900897956
40
0.306103972542347
40
0.309629044186738
40
0.313154115831129
40
0.31667918747552
40
0.323729330764302
40
0.327254402408694
40
0.330779474053085
40
0.334304545697476
40
0.337829617341867
40
0.341354688986258
40
0.344879760630649
40
0.34840483227504
40
0.351929903919431
40
0.358980047208213
40
0.366030190496995
40
0.373080333785777
40
0.376605405430169
40
0.38013047707456
40
0.383655548718951
40
0.387180620363342
40
0.390705692007733
40
0.394230763652124
40
0.397755835296515
40
0.401280906940906
40
0.404805978585297
40
0.408331050229688
40
0.411856121874079
40
0.415381193518471
40
0.418906265162862
40
0.422431336807253
40
0.425956408451644
40
0.429481480096035
40
0.433006551740426
40
0.434769087562621
40
0.436531623384817
40
0.438294159207012
40
0.440056695029208
40
0.443581766673599
40
0.44710683831799
40
0.448869374140186
40
0.450631909962381
40
0.452394445784577
40
0.454156981606772
40
0.457682053251163
40
0.459444589073359
40
0.461207124895554
40
0.46296966071775
40
0.464732196539945
40
0.466494732362141
40
0.468257268184337
40
0.470019804006532
40
0.471782339828728
40
0.473544875650923
40
0.475307411473119
40
0.477069947295314
40
0.47883248311751
40
0.480595018939705
40
0.482357554761901
40
0.484120090584096
40
0.485882626406292
40
0.487645162228487
40
0.489407698050683
40
0.491170233872878
40
0.492932769695074
40
0.494695305517269
40
0.496457841339465
40
0.498220377161661
40
0.499982912983856
40
0.501745448806052
40
0.503507984628247
40
0.505270520450443
40
0.507033056272638
40
0.508795592094834
40
0.510558127917029
40
0.512320663739225
40
0.514083199561421
40
0.515845735383616
40
0.517608271205812
40
0.519370807028007
40
0.521133342850203
40
0.522895878672398
40
0.524658414494594
40
0.526420950316789
40
0.528183486138985
40
0.52994602196118
40
0.531708557783376
40
0.533471093605571
40
0.535233629427767
40
0.536996165249963
40
0.538758701072158
40
0.540521236894354
40
0.542283772716549
40
0.54580884436094
40
0.547571380183136
40
0.549333916005331
40
0.551096451827527
40
0.552858987649722
40
0.556384059294113
40
0.559909130938504
40
0.5616716667607
40
0.563434202582895
40
0.565196738405091
40
0.566959274227287
40
0.570484345871678
40
0.574009417516069
40
0.57753448916046
40
0.581059560804851
40
0.584584632449242
40
0.588109704093633
40
0.591634775738024
40
0.595159847382415
40
0.598684919026806
40
0.602209990671197
40
0.605735062315588
40
0.609260133959979
40
0.612785205604371
40
0.616310277248762
40
0.619835348893153
40
0.623360420537544
40
0.626885492181935
40
0.633935635470717
40
0.640985778759499
40
0.648035922048281
40
0.651560993692672
40
0.655086065337063
40
0.658611136981454
40
0.662136208625845
40
0.665661280270237
40
0.669186351914628
40
0.672711423559019
40
0.67623649520341
40
0.683286638492192
40
0.686811710136583
40
0.690336781780974
40
0.693861853425365
40
0.697386925069756
40
0.700911996714147
40
0.704437068358538
40
0.707962140002929
40
0.711487211647321
40
0.715012283291712
40
0.718537354936103
40
0.722062426580494
40
0.725587498224885
40
0.732637641513667
40
0.736162713158058
40
0.739687784802449
40
0.746737928091232
40
0.750262999735622
40
0.753788071380013
40
0.757313143024405
40
0.760838214668796
40
0.767888357957578
40
0.771413429601969
40
0.77493850124636
40
0.778463572890751
40
0.781988644535142
40
0.789038787823924
40
0.792563859468315
40
0.796088931112706
40
0.799614002757098
40
0.803139074401489
40
0.810189217690271
40
0.813714289334662
40
0.817239360979053
40
0.820764432623444
40
0.824289504267835
40
0.831339647556617
40
0.834864719201008
40
0.838389790845399
40
0.84191486248979
40
0.845439934134181
40
0.852490077422963
40
0.856015149067355
40
0.859540220711746
40
0.863065292356137
40
0.866590364000528
40
0.870115435644919
40
0.87364050728931
40
0.877165578933701
40
0.880690650578092
40
0.884215722222483
40
0.887740793866874
40
0.891265865511265
40
0.894790937155656
40
0.898316008800047
40
0.901841080444439
40
0.908891223733221
40
0.912416295377612
40
0.915941367022003
40
0.919466438666394
40
0.922991510310785
40
0.926516581955176
40
0.930041653599567
40
0.937091796888349
40
0.94061686853274
40
0.944141940177131
40
0.947667011821522
40
0.951192083465914
40
0.958242226754696
40
0.961767298399087
40
0.965292370043478
40
0.968817441687869
40
0.97234251333226
40
0.975867584976651
40
0.979392656621042
40
0.982917728265433
40
0.986442799909824
40
0.989967871554215
40
0.993492943198606
40
0.997018014842998
40
1
40
1
40
1
40
1
41
1
10
-38
20
20.2923486466193
30
0
41
1
10
-38
20
20.2923550753914
30
0
41
1
10
-38
20
20.2915870154396
30
0
41
1
10
-38
20
20.2877827415225
30
0
41
1
10
-38
20
20.2807871950942
30
0
41
1
10
-38
20
20.270864225278
30
0
41
1
10
-38
20
20.2580557575388
30
0
41
1
10
-38
20
20.2424031034125
30
0
41
1
10
-38
20
20.2239454925533
30
0
41
1
10
-38
20
20.19551262204
30
0
41
1
10
-38
20
20.153458157969
30
0
41
1
10
-38
20
20.0921783324266
30
0
41
1
10
-38
20
20.0326760120608
30
0
41
1
10
-38
20
19.9796195423852
30
0
41
1
10
-38
20
19.9374871337363
30
0
41
1
10
-38
20
19.8928775037255
30
0
41
1
10
-38
20
19.8298739849263
30
0
41
1
10
-38
20
19.7628242930463
30
0
41
1
10
-38
20
19.6902080345968
30
0
41
1
10
-38
20
19.6336084813315
30
0
41
1
10
-38
20
19.5746836513967
30
0
41
1
10
-38
20
19.5134574775013
30
0
41
1
10
-38
20
19.4499498796239
30
0
41
1
10
-38
20
19.361926580552
30
0
41
1
10
-38
20
19.2704514952516
30
0
41
1
10
-38
20
19.1735363516591
30
0
41
1
10
-38
20
19.0989364266239
30
0
41
1
10
-38
20
19.0221745884206
30
0
41
1
10
-38
20
18.9432715601189
30
0
41
1
10
-38
20
18.8622425921487
30
0
41
1
10
-38
20
18.7791047356355
30
0
41
1
10
-38
20
18.6938772447032
30
0
41
1
10
-38
20
18.6065734364562
30
0
41
1
10
-38
20
18.5172096781029
30
0
41
1
10
-38
20
18.4258037757915
30
0
41
1
10
-38
20
18.3323676597213
30
0
41
1
10
-38
20
18.236917040573
30
0
41
1
10
-38
20
18.1394682315479
30
0
41
1
10
-38
20
18.006423045464
30
0
41
1
10
-38
20
17.870842154793
30
0
41
1
10
-38
20
17.7299440627733
30
0
41
1
10
-38
20
17.6408187485726
30
0
41
1
10
-38
20
17.5681131617785
30
0
41
1
10
-38
20
17.4947669133713
30
0
41
1
10
-38
20
17.3649201654158
30
0
41
1
10
-38
20
17.2140632768009
30
0
41
1
10
-38
20
17.0578935907134
30
0
41
1
10
-38
20
16.9392992293059
30
0
41
1
10
-38
20
16.8188549914818
30
0
41
1
10
-38
20
16.6552510003021
30
0
41
1
10
-38
20
16.489672496603
30
0
41
1
10
-38
20
16.3187666825072
30
0
41
1
10
-38
20
16.2111031772939
30
0
41
1
10
-38
20
16.1235473577608
30
0
41
1
10
-38
20
16.0353949417433
30
0
41
1
10
-38
20
15.8797855584285
30
0
41
1
10
-38
20
15.6999813794666
30
0
41
1
10
-38
20
15.5148116907138
30
0
41
1
10
-38
20
15.3746600384839
30
0
41
1
10
-38
20
15.2327750536327
30
0
41
1
10
-38
20
15.0406360987563
30
0
41
1
10
-38
20
14.8470518249568
30
0
41
1
10
-38
20
14.6480433816337
30
0
41
1
10
-38
20
14.5230237603812
30
0
41
1
10
-38
20
14.4215395322791
30
0
41
1
10
-38
20
14.319494446119
30
0
41
1
10
-38
20
14.1916826014269
30
0
41
1
10
-38
20
14.0362107113462
30
0
41
1
10
-38
20
13.905633632864
30
0
41
1
10
-38
20
13.7996824703933
30
0
41
1
10
-38
20
13.6931799140641
30
0
41
1
10
-38
20
13.5598675642285
30
0
41
1
10
-38
20
13.3977994204325
30
0
41
1
10
-38
20
13.2340971553998
30
0
41
1
10
-38
20
13.0687736820565
30
0
41
1
10
-38
20
12.9018380893652
30
0
41
1
10
-38
20
12.7332922951509
30
0
41
1
10
-38
20
12.5631480531082
30
0
41
1
10
-38
20
12.3914123687224
30
0
41
1
10
-38
20
12.2180896154105
30
0
41
1
10
-38
20
12.0431930727568
30
0
41
1
10
-38
20
11.8667275879997
30
0
41
1
10
-38
20
11.6886992220563
30
0
41
1
10
-38
20
11.5091211559413
30
0
41
1
10
-38
20
11.3279971676986
30
0
41
1
10
-38
20
11.0835274575533
30
0
41
1
10
-38
20
10.8388445996823
30
0
41
1
10
-38
20
10.5882272221232
30
0
41
1
10
-38
20
10.3995106478125
30
0
41
1
10
-38
20
10.2093006505112
30
0
41
1
10
-38
20
10.0176111741013
30
0
41
1
10
-38
20
9.82444825814403
30
0
41
1
10
-38
20
9.62982433363783
30
0
41
1
10
-38
20
9.43375032895256
30
0
41
1
10
-38
20
9.16930024978848
30
0
41
1
10
-38
20
8.83774034996793
30
0
41
1
10
-38
20
8.43283016067576
30
0
41
1
10
-38
20
8.09202302704495
30
0
41
1
10
-38
20
7.81440668711983
30
0
41
1
10
-38
20
7.60585888080689
30
0
41
1
10
-38
20
7.39600299493051
30
0
41
1
10
-38
20
7.18486050853949
30
0
41
1
10
-38
20
6.972454820743
30
0
41
1
10
-38
20
6.75880464755275
30
0
41
1
10
-38
20
6.54393387937549
30
0
41
1
10
-38
20
6.32787102064523
30
0
41
1
10
-38
20
6.11064460524281
30
0
41
1
10
-38
20
5.89228682406826
30
0
41
1
10
-38
20
5.67283049766701
30
0
41
1
10
-38
20
5.45231041402207
30
0
41
1
10
-38
20
5.2307661198837
30
0
41
1
10
-38
20
5.00824236668089
30
0
41
1
10
-38
20
4.78478453894905
30
0
41
1
10
-38
20
4.56044477194348
30
0
41
1
10
-38
20
4.3737593142329
30
0
41
1
10
-38
20
4.22222174308931
30
0
41
1
10
-38
20
4.10916467830541
30
0
41
1
10
-38
20
3.99593123757288
30
0
41
1
10
-38
20
3.84368490764803
30
0
41
1
10
-38
20
3.65544484289478
30
0
41
1
10
-38
20
3.46668355973628
30
0
41
1
10
-38
20
3.31336520651504
30
0
41
1
10
-38
20
3.19916977025284
30
0
41
1
10
-38
20
3.0848771849204
30
0
41
1
10
-38
20
2.93116533478539
30
0
41
1
10
-38
20
2.7810630459212
30
0
41
1
10
-38
20
2.62697343511894
30
0
41
1
10
-38
20
2.51237687493429
30
0
41
1
10
-38
20
2.39774974487253
30
0
41
1
10
-38
20
2.28311555219403
30
0
41
1
10
-38
20
2.16847618976473
30
0
41
1
10
-38
20
2.05384840107453
30
0
41
1
10
-38
20
1.93924458170406
30
0
41
1
10
-38
20
1.82466899171223
30
0
41
1
10
-38
20
1.71014121398446
30
0
41
1
10
-38
20
1.59566009898879
30
0
41
1
10
-38
20
1.48124309885608
30
0
41
1
10
-38
20
1.36688883878045
30
0
41
1
10
-38
20
1.25260906632701
30
0
41
1
10
-38
20
1.13840321986405
30
0
41
1
10
-38
20
1.02427614220741
30
0
41
1
10
-38
20
0.910225811803912
30
0
41
1
10
-38
20
0.796251800903974
30
0
41
1
10
-38
20
0.682349388495624
30
0
41
1
10
-38
20
0.568513483413511
30
0
41
1
10
-38
20
0.454735475948979
30
0
41
1
10
-38
20
0.341006791030111
30
0
41
1
10
-38
20
0.227315919379521
30
0
41
1
10
-38
20
0.113651444289076
30
0
41
1
10
-38
20
2.39307099E-08
30
0
41
1
10
-38
20
-0.113651428861147
30
0
41
1
10
-38
20
-0.227315965161807
30
0
41
1
10
-38
20
-0.341006831114754
30
0
41
1
10
-38
20
-0.454735424962735
30
0
41
1
10
-38
20
-0.568513412391525
30
0
41
1
10
-38
20
-0.682349437337052
30
0
41
1
10
-38
20
-0.796251898049235
30
0
41
1
10
-38
20
-0.910225765592202
30
0
41
1
10
-38
20
-1.02427601417025
30
0
41
1
10
-38
20
-1.13840324907633
30
0
41
1
10
-38
20
-1.25260921865757
30
0
41
1
10
-38
20
-1.36688883944314
30
0
41
1
10
-38
20
-1.48124293103632
30
0
41
1
10
-38
20
-1.59566004663384
30
0
41
1
10
-38
20
-1.71014137238996
30
0
41
1
10
-38
20
-1.82466911261432
30
0
41
1
10
-38
20
-1.93924446866484
30
0
41
1
10
-38
20
-2.05384821372689
30
0
41
1
10
-38
20
-2.16847621903287
30
0
41
1
10
-38
20
-2.28311576323418
30
0
41
1
10
-38
20
-2.39774983280105
30
0
41
1
10
-38
20
-2.51237672316307
30
0
41
1
10
-38
20
-2.62697323991799
30
0
41
1
10
-38
20
-2.78106315146928
30
0
41
1
10
-38
20
-2.93116552693385
30
0
41
1
10
-38
20
-3.08487708212581
30
0
41
1
10
-38
20
-3.19916954549007
30
0
41
1
10
-38
20
-3.31336512600546
30
0
41
1
10
-38
20
-3.46668375918677
30
0
41
1
10
-38
20
-3.65544489425085
30
0
41
1
10
-38
20
-3.84368470208372
30
0
41
1
10
-38
20
-3.99593117493791
30
0
41
1
10
-38
20
-4.10916481607396
30
0
41
1
10
-38
20
-4.22222196867938
30
0
41
1
10
-38
20
-4.37375933349006
30
0
41
1
10
-38
20
-4.56044458630845
30
0
41
1
10
-38
20
-4.78478457648492
30
0
41
1
10
-38
20
-5.00824253816086
30
0
41
1
10
-38
20
-5.23076600439052
30
0
41
1
10
-38
20
-5.45231022599046
30
0
41
1
10
-38
20
-5.67283041504652
30
0
41
1
10
-38
20
-5.89228674128222
30
0
41
1
10
-38
20
-6.11064496108523
30
0
41
1
10
-38
20
-6.32787239667013
30
0
41
1
10
-38
20
-6.54393525610644
30
0
41
1
10
-38
20
-6.75880334040127
30
0
41
1
10
-38
20
-6.97245311766207
30
0
41
1
10
-38
20
-7.18486111103374
30
0
41
1
10
-38
20
-7.39600347561742
30
0
41
1
10
-38
20
-7.60585874971361
30
0
41
1
10
-38
20
-7.8144064520111
30
0
41
1
10
-38
20
-8.09202295752311
30
0
41
1
10
-38
20
-8.43283023540656
30
0
41
1
10
-38
20
-8.83774029355055
30
0
41
1
10
-38
20
-9.16930023887323
30
0
41
1
10
-38
20
-9.43375044009511
30
0
41
1
10
-38
20
-9.62982432960192
30
0
41
1
10
-38
20
-9.82444814962994
30
0
41
1
10
-38
20
-10.0176111126089
30
0
41
1
10
-38
20
-10.2093007057547
30
0
41
1
10
-38
20
-10.3995107409486
30
0
41
1
10
-38
20
-10.5882272324294
30
0
41
1
10
-38
20
-10.8388445170812
30
0
41
1
10
-38
20
-11.0835274377931
30
0
41
1
10
-38
20
-11.327997250045
30
0
41
1
10
-38
20
-11.5091211965041
30
0
41
1
10
-38
20
-11.6886991809046
30
0
41
1
10
-38
20
-11.8667275177687
30
0
41
1
10
-38
20
-12.0431930522803
30
0
41
1
10
-38
20
-12.2180896645831
30
0
41
1
10
-38
20
-12.3914124247035
30
0
41
1
10
-38
20
-12.5631480735019
30
0
41
1
10
-38
20
-12.7332924196477
30
0
41
1
10
-38
20
-12.9018387248249
30
0
41
1
10
-38
20
-13.068774902876
30
0
41
1
10
-38
20
-13.2899980003418
30
0
41
1
10
-38
20
-13.5056406071554
30
0
41
1
10
-38
20
-13.7202970548285
30
0
41
1
10
-38
20
-13.9327572918622
30
0
41
1
10
-38
20
-14.1397069500695
30
0
41
1
10
-38
20
-14.3454836148157
30
0
41
1
10
-38
20
-14.4976048095277
30
0
41
1
10
-38
20
-14.6480433741443
30
0
41
1
10
-38
20
-14.8470538575164
30
0
41
1
10
-38
20
-15.0406366439893
30
0
41
1
10
-38
20
-15.2327734637881
30
0
41
1
10
-38
20
-15.3746583733236
30
0
41
1
10
-38
20
-15.5148115582755
30
0
41
1
10
-38
20
-15.6999837411247
30
0
41
1
10
-38
20
-15.8797870255403
30
0
41
1
10
-38
20
-16.0578801048401
30
0
41
1
10
-38
20
-16.189216581434
30
0
41
1
10
-38
20
-16.3187661779867
30
0
41
1
10
-38
20
-16.4896741385663
30
0
41
1
10
-38
20
-16.6552512602625
30
0
41
1
10
-38
20
-16.8188545807649
30
0
41
1
10
-38
20
-16.9392987318018
30
0
41
1
10
-38
20
-17.0578934672827
30
0
41
1
10
-38
20
-17.2140648101705
30
0
41
1
10
-38
20
-17.3649216616153
30
0
41
1
10
-38
20
-17.513530035822
30
0
41
1
10
-38
20
-17.6226956365842
30
0
41
1
10
-38
20
-17.7299433731025
30
0
41
1
10
-38
20
-17.8708440004863
30
0
41
1
10
-38
20
-18.0064238716364
30
0
41
1
10
-38
20
-18.1394672902698
30
0
41
1
10
-38
20
-18.236915915677
30
0
41
1
10
-38
20
-18.3323672965474
30
0
41
1
10
-38
20
-18.4258040962282
30
0
41
1
10
-38
20
-18.517209887002
30
0
41
1
10
-38
20
-18.6065734896479
30
0
41
1
10
-38
20
-18.6938772522127
30
0
41
1
10
-38
20
-18.7791047692188
30
0
41
1
10
-38
20
-18.8622426359768
30
0
41
1
10
-38
20
-18.9432715834756
30
0
41
1
10
-38
20
-19.0221745805325
30
0
41
1
10
-38
20
-19.0989364136873
30
0
41
1
10
-38
20
-19.1735363647814
30
0
41
1
10
-38
20
-19.2704515417461
30
0
41
1
10
-38
20
-19.3619266112172
30
0
41
1
10
-38
20
-19.4499498647732
30
0
41
1
10
-38
20
-19.5134574724377
30
0
41
1
10
-38
20
-19.5746836830748
30
0
41
1
10
-38
20
-19.6336085328263
30
0
41
1
10
-38
20
-19.6902080668946
30
0
41
1
10
-38
20
-19.7628242842049
30
0
41
1
10
-38
20
-19.829873984374
30
0
41
1
10
-38
20
-19.8928775551026
30
0
41
1
10
-38
20
-19.9374871757691
30
0
41
1
10
-38
20
-19.9796195436673
30
0
41
1
10
-38
20
-20.0326760063813
30
0
41
1
10
-38
20
-20.0800381474625
30
0
41
1
10
-38
20
-20.1228090027496
30
0
41
1
10
-38
20
-20.1521177658612
30
0
41
1
10
-38
20
-20.1787668505585
30
0
41
1
10
-38
20
-20.2027210424566
30
0
41
1
10
-38
20
-20.2239455432986
30
0
41
1
10
-38
20
-20.2424031363825
30
0
41
1
10
-38
20
-20.2580557552655
30
0
41
1
10
-38
20
-20.2708642249464
30
0
41
1
10
-38
20
-20.2807872561095
30
0
41
1
10
-38
20
-20.2877829489451
30
0
41
1
10
-38
20
-20.2916003438263
30
0
41
1
10
-38
20
-20.2923632243517
30
0
41
1
10
-38
20
-20.2923482569388
30
0
0
SPLINE
5
190
100
AcDbEntity
8
1
62
256
6
ByLayer
370
18
48
1
60
0
100
AcDbSpline
70
4
71
2
72
6
73
3
40
0
40
0
40
0
40
1
40
1
40
1
41
1
10
55.6869547867475
20
11.8239072701493
30
0
41
1
10
55.6407073929543
20
12.0576254751932
30
0
41
1
10
55.5404426456208
20
12.2949917821881
30
0
0
SPLINE
5
191
100
AcDbEntity
8
1
62
256
6
ByLayer
370
18
48
1
60
0
100
AcDbSpline
70
4
71
3
72
10
73
6
40
0
40
0
40
0
40
0
40
0.852860150030424
40
0.852860150030424
40
1
40
1
40
1
40
1
41
1
10
55.6868968437961
20
11.8238747114525
30
0
41
1
10
55.8073164882969
20
12.0157245319493
30
0
41
1
10
55.9302670851592
20
12.211666793457
30
0
41
1
10
56.0969198327404
20
12.4780967977321
30
0
41
1
10
56.1216952045202
20
12.5177076212023
30
0
41
1
10
56.147237685698
20
12.5585721007049
30
0
0
SPLINE
5
192
100
AcDbEntity
8
1
62
256
6
ByLayer
370
18
48
1
60
0
100
AcDbSpline
70
4
71
3
72
8
73
4
40
0
40
0
40
0
40
0
40
1
40
1
40
1
40
1
41
1
10
19.9115068236138
20
27.4944639748514
30
0
41
1
10
19.9168325219528
20
27.4675619958553
30
0
41
1
10
19.9235502352452
20
27.4384412891961
30
0
41
1
10
19.9314407411532
20
27.4071884137323
30
0
0
SPLINE
5
193
100
AcDbEntity
8
1
62
256
6
ByLayer
370
18
48
1
60
0
100
AcDbSpline
70
4
71
3
72
8
73
4
40
0
40
0
40
0
40
0
40
1
40
1
40
1
40
1
41
1
10
20.6221348979413
20
30.5438421003719
30
0
41
1
10
20.7039312363658
20
29.6796738294164
30
0
41
1
10
20.8156804210596
20
28.8141522366695
30
0
41
1
10
21.0214488563404
20
27.9768646220601
30
0
0
SPLINE
5
194
100
AcDbEntity
8
1
62
256
6
ByLayer
370
18
48
1
60
0
100
AcDbSpline
70
4
71
3
72
8
73
4
40
0
40
0
40
0
40
0
40
1
40
1
40
1
40
1
41
1
10
23.1411197007856
20
24.1043358961189
30
0
41
1
10
23.381807944737
20
23.8421360392611
30
0
41
1
10
23.6349635846265
20
23.5865489494414
30
0
41
1
10
23.8962856159808
20
23.3355123248035
30
0
0
SPLINE
5
195
100
AcDbEntity
8
1
62
256
6
ByLayer
370
18
48
1
60
0
100
AcDbSpline
70
4
71
2
72
8
73
5
40
0
40
0
40
0
40
0.516558666507264
40
0.774837999760896
40
1
40
1
40
1
41
1.02613459695995
10
44.2251581053787
20
24.1787609543689
30
0
41
1.02613459695995
10
43.7998054462579
20
23.2986382562718
30
0
41
1.02613459695995
10
43.8515436187367
20
21.7696332039442
30
0
41
1.02613459695995
10
44.1231973493999
20
20.7804927753777
30
0
41
1.02613459695995
10
44.3395675768306
20
20.3319578817989
30
0
0
SPLINE
5
196
100
AcDbEntity
8
1
62
256
6
ByLayer
370
18
48
1
60
0
100
AcDbSpline
70
4
71
3
72
8
73
4
40
0
40
0
40
0
40
0
40
1
40
1
40
1
40
1
41
1
10
23.4084987530923
20
33.3069446138516
30
0
41
1
10
23.4556948162
20
33.4909704424745
30
0
41
1
10
23.5347558012025
20
33.6837654880472
30
0
41
1
10
23.646202245307
20
33.8854730022529
30
0
0
SPLINE
5
197
100
AcDbEntity
8
1
62
256
6
ByLayer
370
18
48
1
60
0
100
AcDbSpline
70
4
71
2
72
7
73
4
40
0
40
0
40
0
40
0.325211632387717
40
1
40
1
40
1
41
1
10
44.0798615836287
20
17.7275802359547
30
0
41
1
10
43.8156400974267
20
17.6456424401273
30
0
41
1
10
43.1393882717509
20
17.2478895212348
30
0
41
1
10
42.9432426985717
20
16.8162115314308
30
0
0
SPLINE
5
198
100
AcDbEntity
8
1
62
256
6
ByLayer
370
18
48
1
60
0
100
AcDbSpline
70
4
71
3
72
16
73
12
40
0
40
0
40
0
40
0
40
0.113316224833593
40
0.113316224833593
40
0.252990411571579
40
0.252990411571579
40
0.473309013928354
40
0.473309013928354
40
0.896716357718913
40
0.896716357718913
40
1
40
1
40
1
40
1
41
1
10
10.5386751345948
20
-9.34922131452512
30
0
41
1
10
10.5105874404281
20
-9.34922131452512
30
0
41
1
10
10.482150642237
20
-9.35431657338984
30
0
41
1
10
10.4232029654275
20
-9.37467777536568
30
0
41
1
10
10.3927526278712
20
-9.39213979793414
30
0
41
1
10
10.3230856363398
20
-9.44503542604386
30
0
41
1
10
10.2871733492349
20
-9.48569380431883
30
0
41
1
10
10.1985362549164
20
-9.6110592336681
30
0
41
1
10
10.1576291602469
20
-9.70465429390072
30
0
41
1
10
10.1190965262402
20
-9.82244573862477
30
0
41
1
10
10.112102816203
20
-9.84586944318031
30
0
41
1
10
10.1056624327025
20
-9.86941261896618
30
0
0
SPLINE
5
199
100
AcDbEntity
8
1
62
256
6
ByLayer
370
18
48
1
60
0
100
AcDbSpline
70
4
71
3
72
16
73
12
40
0
40
0
40
0
40
0
40
0.463423600832241
40
0.463423600832241
40
0.646243952932834
40
0.646243952932834
40
0.831657283224497
40
0.831657283224497
40
0.947504344290847
40
0.947504344290847
40
1
40
1
40
1
40
1
41
1
10
13.8943375672974
20
29.9139548464691
30
0
41
1
10
13.8656609252734
20
29.9485407466772
30
0
41
1
10
13.8263500123909
20
29.982269090612
30
0
41
1
10
13.7453819366532
20
30.0239686896252
30
0
41
1
10
13.7190869808859
20
30.0352936109065
30
0
41
1
10
13.6579862203325
20
30.0555697561518
30
0
41
1
10
13.6222599905467
20
30.0647246060481
30
0
41
1
10
13.556648346355
20
30.0751823136668
30
0
41
1
10
13.5289597975987
20
30.0781795790239
30
0
41
1
10
13.4876776374751
20
30.0802576981002
30
0
41
1
10
13.47447899686
20
30.0805927603169
30
0
41
1
10
13.4613248654052
20
30.0805927603169
30
0
0
SPLINE
5
19A
100
AcDbEntity
8
1
62
256
6
ByLayer
370
18
48
1
60
0
100
AcDbSpline
70
4
71
3
72
12
73
8
40
0
40
0
40
0
40
0
40
0.319932024559095
40
0.319932024559095
40
0.659954131885511
40
0.659954131885511
40
1
40
1
40
1
40
1
41
1
10
39.3110923031621
20
20.6636664343451
30
0
41
1
10
39.3107223701361
20
20.6884627885296
30
0
41
1
10
39.3104507094929
20
20.7132598604392
30
0
41
1
10
39.3100928465164
20
20.7644102044564
30
0
41
1
10
39.3100193578404
20
20.7907638677391
30
0
41
1
10
39.310093861984
20
20.843470180742
30
0
41
1
10
39.3102418709119
20
20.8698232904773
30
0
41
1
10
39.3105004507225
20
20.8961740564137
30
0
0
SPLINE
5
19B
100
AcDbEntity
8
1
62
256
6
ByLayer
370
18
48
1
60
0
100
AcDbSpline
70
4
71
3
72
12
73
8
40
0
40
0
40
0
40
0
40
0.323508446938402
40
0.323508446938402
40
0.661742905177703
40
0.661742905177703
40
1
40
1
40
1
40
1
41
1
10
39.3105004517128
20
20.8961740562346
30
0
41
1
10
39.3107437366465
20
20.9209661868312
30
0
41
1
10
39.3110849013586
20
20.9457566370179
30
0
41
1
10
39.3119826083117
20
20.9964602023308
30
0
41
1
10
39.3125482541623
20
21.0223734804894
30
0
41
1
10
39.3138927227564
20
21.0741938624302
30
0
41
1
10
39.3146715709814
20
21.1001013989954
30
0
41
1
10
39.3155567413586
20
21.126004125641
30
0
0
SPLINE
5
19C
100
AcDbEntity
8
1
62
256
6
ByLayer
370
18
48
1
60
0
100
AcDbSpline
70
4
71
3
72
10
73
6
40
0
40
0
40
0
40
0
40
0.526281531951751
40
0.526281531951751
40
1
40
1
40
1
40
1
41
1
10
20.6221348979412
20
30.543842100372
30
0
41
1
10
20.4088573501702
20
30.4672083787038
30
0
41
1
10
20.2382193946577
20
30.3777512844188
30
0
41
1
10
20.0093210835962
20
30.1888506958789
30
0
41
1
10
19.9399854717531
20
30.0897854016817
30
0
41
1
10
19.9115068236138
20
29.9850116132027
30
0
0
SPLINE
5
19D
100
AcDbEntity
8
1
62
256
6
ByLayer
370
18
48
1
60
0
100
AcDbSpline
70
4
71
2
72
11
73
8
40
0
40
0
40
0
40
0.0353878362392688
40
0.324771485367488
40
0.517693918119634
40
0.710616350871781
40
0.807077567247854
40
1
40
1
40
1
41
1
10
39.3105004514641
20
20.8961740567233
30
0
41
1
10
39.3328190478953
20
20.7998722231717
30
0
41
1
10
39.5771377501811
20
19.9102635831735
30
0
41
1
10
40.3832978672843
20
18.649117576511
30
0
41
1
10
41.4986836873622
20
17.5824340684549
30
0
41
1
10
41.9612820167233
20
17.2680687323648
30
0
41
1
10
42.5064260453598
20
16.9244231491201
30
0
41
1
10
42.9062643090874
20
16.7348293387051
30
0
0
SPLINE
5
19E
100
AcDbEntity
8
1
62
256
6
ByLayer
370
18
48
1
60
0
100
AcDbSpline
70
4
71
2
72
6
73
3
40
0
40
0
40
0
40
1
40
1
40
1
41
1
10
53.9959872798247
20
9.6548150231927
30
0
41
1
10
54.2000928058019
20
9.68882470269833
30
0
41
1
10
54.3827923268293
20
9.74548429371339
30
0
0
SPLINE
5
19F
100
AcDbEntity
8
1
62
256
6
ByLayer
370
18
48
1
60
0
100
AcDbSpline
70
4
71
3
72
10
73
6
40
0
40
0
40
0
40
0
40
0.690272108908799
40
0.690272108908799
40
1
40
1
40
1
40
1
41
1
10
13.8943375672974
20
24.7520548830776
30
0
41
1
10
13.8395431206921
20
24.5485075382183
30
0
41
1
10
13.7572550106766
20
24.3530769032313
30
0
41
1
10
13.5891377804999
20
24.1179667125787
30
0
41
1
10
13.5287708184857
20
24.0507408934402
30
0
41
1
10
13.4613248654052
20
23.9979013266023
30
0
0
SPLINE
5
1A0
100
AcDbEntity
8
1
62
256
6
ByLayer
370
18
48
1
60
0
100
AcDbSpline
70
4
71
3
72
8
73
4
40
0
40
0
40
0
40
0
40
1
40
1
40
1
40
1
41
1
10
23.8962856159808
20
-31.0760760071151
30
0
41
1
10
23.5776018829067
20
-31.0760760071151
30
0
41
1
10
23.2659394678548
20
-31.0688931604307
30
0
41
1
10
22.9609847588647
20
-31.0544615075761
30
0
0
SPLINE
5
1A1
100
AcDbEntity
8
1
62
256
6
ByLayer
370
18
48
1
60
0
100
AcDbSpline
70
4
71
2
72
7
73
4
40
0
40
0
40
0
40
0.550978341125019
40
1
40
1
40
1
41
1
10
42.8692859196031
20
16.6534471459792
30
0
41
1
10
42.673140346424
20
16.2217691561753
30
0
41
1
10
42.8435592134255
20
15.261227086776
30
0
41
1
10
43.1032185326796
20
14.8186401858802
30
0
0
SPLINE
5
1A2
100
AcDbEntity
8
1
62
256
6
ByLayer
370
18
48
1
60
0
100
AcDbSpline
70
4
71
2
72
11
73
8
40
0
40
0
40
0
40
0.0610623745695742
40
0.342743662198702
40
0.530531187284787
40
0.718318712370872
40
0.812212474913915
40
1
40
1
40
1
41
1
10
39.3155567414692
20
21.1260041288483
30
0
41
1
10
39.3492269433623
20
20.9561553098351
30
0
41
1
10
39.6141161396654
20
19.9916457758993
30
0
41
1
10
40.4202762567687
20
18.7304997692368
30
0
41
1
10
41.5356620768465
20
17.6638162611807
30
0
41
1
10
41.9982604062076
20
17.3494509250907
30
0
41
1
10
42.5434044348441
20
17.005805341846
30
0
41
1
10
42.9432426985718
20
16.8162115314309
30
0
0
SPLINE
5
1A3
100
AcDbEntity
8
1
62
256
6
ByLayer
370
18
48
1
60
0
100
AcDbSpline
70
4
71
3
72
16
73
12
40
0
40
0
40
0
40
0
40
0.113316224833594
40
0.113316224833594
40
0.252990411571577
40
0.252990411571577
40
0.473309013928351
40
0.473309013928351
40
0.896716357718897
40
0.896716357718897
40
1
40
1
40
1
40
1
41
1
10
10.5386751345948
20
30.0805927603169
30
0
41
1
10
10.5105874404281
20
30.0805927603169
30
0
41
1
10
10.482150642237
20
30.0790101689566
30
0
41
1
10
10.4232029654275
20
30.0726712338969
30
0
41
1
10
10.3927526278712
20
30.0672275748685
30
0
41
1
10
10.3230856363398
20
30.0506647867052
30
0
41
1
10
10.2871733492349
20
30.0378702684275
30
0
41
1
10
10.1985362549164
20
29.9980833386355
30
0
41
1
10
10.1576291602469
20
29.967975934908
30
0
41
1
10
10.1190965262402
20
29.9294196064672
30
0
41
1
10
10.112102816203
20
29.9217223689309
30
0
41
1
10
10.1056624327025
20
29.9139548464691
30
0
0
SPLINE
5
1A4
100
AcDbEntity
8
1
62
256
6
ByLayer
370
18
48
1
60
0
100
AcDbSpline
70
4
71
3
72
12
73
8
40
0
40
0
40
0
40
0
40
0.45150534291289
40
0.45150534291289
40
0.920730471123023
40
0.920730471123023
40
1
40
1
40
1
40
1
41
1
10
13.4613248654052
20
25.997099587303
30
0
41
1
10
13.547661047609
20
25.929460740764
30
0
41
1
10
13.6282992629309
20
25.8729427445377
30
0
41
1
10
13.7673195883123
20
25.7763694015603
30
0
41
1
10
13.8267012384145
20
25.7351243777348
30
0
41
1
10
13.8799694443486
20
25.7002149875781
30
0
41
1
10
13.8873502204194
20
25.6954884708364
30
0
41
1
10
13.8943375672974
20
25.6912337669114
30
0
0
SPLINE
5
1A5
100
AcDbEntity
8
1
62
256
6
ByLayer
370
18
48
1
60
0
100
AcDbSpline
70
4
71
3
72
8
73
4
40
0
40
0
40
0
40
0
40
1
40
1
40
1
40
1
41
1
10
54.2546235082314
20
9.54210529124751
30
0
41
1
10
54.2961484968361
20
9.60819075775649
30
0
41
1
10
54.3391890848413
20
9.67674142447245
30
0
41
1
10
54.3828105893043
20
9.74623795068436
30
0
0
SPLINE
5
1A6
100
AcDbEntity
8
1
62
256
6
ByLayer
370
18
48
1
60
0
100
AcDbSpline
70
4
71
3
72
15
73
11
40
0
40
0
40
0
40
0
40
0.28103962914102
40
0.28103962914102
40
0.562712048900373
40
0.562712048900373
40
0.835250831097508
40
0.835250831097508
40
0.835250831097508
40
1
40
1
40
1
40
1
41
1
10
19.9115068236138
20
-29.9850116132027
30
0
41
1
10
19.9505361776874
20
-30.1286017607468
30
0
41
1
10
20.0674973665296
20
-30.2617723075542
30
0
41
1
10
20.4463314652044
20
-30.489895050164
30
0
41
1
10
20.7141452574929
20
-30.5880850478212
30
0
41
1
10
21.3538238361363
20
-30.741378992888
30
0
41
1
10
21.7310620960588
20
-30.8001569918553
30
0
41
1
10
22.1388781334302
20
-30.8415901871074
30
0
41
1
10
22.3877509516846
20
-30.8668751075782
30
0
41
1
10
22.6513106929054
20
-30.88619079412
30
0
41
1
10
22.92079238
20
-30.8996141556632
30
0
0
SPLINE
5
1A7
100
AcDbEntity
8
1
62
256
6
ByLayer
370
18
48
1
60
0
100
AcDbSpline
70
4
71
3
72
16
73
12
40
0
40
0
40
0
40
0
40
0.113316224833592
40
0.113316224833592
40
0.252990411571568
40
0.252990411571568
40
0.473309013928318
40
0.473309013928318
40
0.896716357718825
40
0.896716357718825
40
1
40
1
40
1
40
1
41
1
10
13.4613248654052
20
9.3492213145251
30
0
41
1
10
13.4894125595718
20
9.3492213145251
30
0
41
1
10
13.517849357763
20
9.35431657338981
30
0
41
1
10
13.5767970345725
20
9.37467777536565
30
0
41
1
10
13.6072473721288
20
9.39213979793414
30
0
41
1
10
13.6769143636602
20
9.44503542604383
30
0
41
1
10
13.7128266507651
20
9.4856938043188
30
0
41
1
10
13.8014637450836
20
9.61105923366807
30
0
41
1
10
13.842370839753
20
9.70465429390066
30
0
41
1
10
13.8809034737598
20
9.82244573862474
30
0
41
1
10
13.8878971837969
20
9.84586944318031
30
0
41
1
10
13.8943375672975
20
9.86941261896621
30
0
0
SPLINE
5
1A8
100
AcDbEntity
8
1
62
256
6
ByLayer
370
18
48
1
60
0
100
AcDbSpline
70
4
71
3
72
8
73
4
40
0
40
0
40
0
40
0
40
1
40
1
40
1
40
1
41
1
10
39.3155567414684
20
21.1260041288527
30
0
41
1
10
39.3684437684107
20
22.6736363402416
30
0
41
1
10
40.278713099318
20
24.1457591393512
30
0
41
1
10
41.7001116226959
20
24.7729374230763
30
0
0
SPLINE
5
1A9
100
AcDbEntity
8
1
62
256
6
ByLayer
370
18
48
1
60
0
100
AcDbSpline
70
4
71
2
72
11
73
8
40
0
40
0
40
0
40
0.0079111859457765
40
0.305537830162044
40
0.503955592972888
40
0.702373355783733
40
0.801582237189155
40
1
40
1
40
1
41
1.02613459695995
10
39.3110923030629
20
20.6636664345215
30
0
41
1.02613459695995
10
39.3166755888459
20
20.6426262756235
30
0
41
1.02613459695995
10
39.5401593606967
20
19.8288813904476
30
0
41
1.02613459695995
10
40.3463194778
20
18.5677353837851
30
0
41
1.02613459695995
10
41.4617052978778
20
17.5010518757291
30
0
41
1.02613459695995
10
41.9243036272389
20
17.186686539639
30
0
41
1.02613459695995
10
42.4694476558755
20
16.8430409563943
30
0
41
1.02613459695995
10
42.8692859196031
20
16.6534471459792
30
0
0
SPLINE
5
1AA
100
AcDbEntity
8
1
62
256
6
ByLayer
370
18
48
1
60
0
100
AcDbSpline
70
4
71
3
72
10
73
6
40
0
40
0
40
0
40
0
40
0.5
40
0.5
40
1
40
1
40
1
40
1
41
1
10
43.1034976698442
20
14.8185670621862
30
0
41
1
10
41.998757526084
20
15.3425043888246
30
0
41
1
10
41.1424121577734
20
16.2557124834358
30
0
41
1
10
39.76369994393
20
18.2485774445179
30
0
41
1
10
39.3293126178697
20
19.442371333644
30
0
41
1
10
39.3110923027536
20
20.6636664356871
30
0
0
SPLINE
5
1AB
100
AcDbEntity
8
1
62
256
6
ByLayer
370
18
48
1
60
0
100
AcDbSpline
70
4
71
3
72
8
73
4
40
0
40
0
40
0
40
0
40
1
40
1
40
1
40
1
41
1
10
23.646202245307
20
33.885473002253
30
0
41
1
10
23.4012979141139
20
32.9395830169144
30
0
41
1
10
23.159167325986
20
31.9972534743138
30
0
41
1
10
22.92079238
20
31.0585633914884
30
0
0
SPLINE
5
1AC
100
AcDbEntity
8
1
62
256
6
ByLayer
370
18
48
1
60
0
100
AcDbSpline
70
4
71
3
72
16
73
12
40
0
40
0
40
0
40
0
40
0.463423600832262
40
0.463423600832262
40
0.646243952932856
40
0.646243952932856
40
0.831657283224518
40
0.831657283224518
40
0.94750434429086
40
0.94750434429086
40
1
40
1
40
1
40
1
41
1
10
10.1056624327026
20
-29.9139548464691
30
0
41
1
10
10.1343390747265
20
-29.9485407466772
30
0
41
1
10
10.1736499876091
20
-29.982269090612
30
0
41
1
10
10.2546180633468
20
-30.0239686896252
30
0
41
1
10
10.2809130191141
20
-30.0352936109065
30
0
41
1
10
10.3420137796675
20
-30.0555697561518
30
0
41
1
10
10.3777400094532
20
-30.0647246060481
30
0
41
1
10
10.4433516536449
20
-30.0751823136668
30
0
41
1
10
10.4710402024013
20
-30.0781795790239
30
0
41
1
10
10.5123223625249
20
-30.0802576981002
30
0
41
1
10
10.5255210031399
20
-30.0805927603169
30
0
41
1
10
10.5386751345948
20
-30.0805927603169
30
0
0
SPLINE
5
1AD
100
AcDbEntity
8
1
62
256
6
ByLayer
370
18
48
1
60
0
100
AcDbSpline
70
4
71
3
72
8
73
4
40
0
40
0
40
0
40
0
40
1
40
1
40
1
40
1
41
1
10
54.2546235082354
20
9.54210529125393
30
0
41
1
10
54.1674062872044
20
9.57702369655979
30
0
41
1
10
54.0810756949293
20
9.61456062248004
30
0
41
1
10
53.9957288000925
20
9.65500274632268
30
0
0
SPLINE
5
1AE
100
AcDbEntity
8
1
62
256
6
ByLayer
370
18
48
1
60
0
100
AcDbSpline
70
4
71
3
72
10
73
6
40
0
40
0
40
0
40
0
40
0.546460146737551
40
0.546460146737551
40
1
40
1
40
1
40
1
41
1
10
10.1056624327026
20
25.6912337669117
30
0
41
1
10
10.1532894702054
20
25.7202346089961
30
0
41
1
10
10.2200330642683
20
25.76759902668
30
0
41
1
10
10.3706988494232
20
25.8722342073356
30
0
41
1
10
10.4518011249023
20
25.9290393875139
30
0
41
1
10
10.5386751345948
20
25.997099587303
30
0
0
SPLINE
5
1AF
100
AcDbEntity
8
1
62
256
6
ByLayer
370
18
48
1
60
0
100
AcDbSpline
70
4
71
1
72
4
73
2
40
0
40
0
40
1
40
1
41
1
10
42.9432426985718
20
16.8162115314309
30
0
41
1
10
42.9062643090874
20
16.7348293387049
30
0
0
SPLINE
5
1B0
100
AcDbEntity
8
1
62
256
6
ByLayer
370
18
48
1
60
0
100
AcDbSpline
70
4
71
3
72
10
73
6
40
0
40
0
40
0
40
0
40
0.380409167241274
40
0.380409167241274
40
1
40
1
40
1
40
1
41
1
10
10.5386751345948
20
23.9979013266023
30
0
41
1
10
10.4562351620401
20
24.0624877434437
30
0
41
1
10
10.3844110470353
20
24.1483900669021
30
0
41
1
10
10.2264153584242
20
24.3932272932951
30
0
41
1
10
10.1549704016743
20
24.5688883983991
30
0
41
1
10
10.1056624327026
20
24.7520548830776
30
0
0
SPLINE
5
1B1
100
AcDbEntity
8
1
62
256
6
ByLayer
370
18
48
1
60
0
100
AcDbSpline
70
4
71
3
72
16
73
12
40
0
40
0
40
0
40
0
40
0.113316224833596
40
0.113316224833596
40
0.252990411571581
40
0.252990411571581
40
0.473309013928343
40
0.473309013928343
40
0.896716357718895
40
0.896716357718895
40
1
40
1
40
1
40
1
41
1
10
13.4613248654052
20
-30.0805927603169
30
0
41
1
10
13.4894125595718
20
-30.0805927603169
30
0
41
1
10
13.517849357763
20
-30.0790101689567
30
0
41
1
10
13.5767970345725
20
-30.0726712338969
30
0
41
1
10
13.6072473721288
20
-30.0672275748685
30
0
41
1
10
13.6769143636602
20
-30.0506647867052
30
0
41
1
10
13.7128266507651
20
-30.0378702684275
30
0
41
1
10
13.8014637450836
20
-29.9980833386355
30
0
41
1
10
13.842370839753
20
-29.967975934908
30
0
41
1
10
13.8809034737598
20
-29.9294196064672
30
0
41
1
10
13.8878971837969
20
-29.9217223689309
30
0
41
1
10
13.8943375672975
20
-29.9139548464691
30
0
0
SPLINE
5
1B2
100
AcDbEntity
8
1
62
256
6
ByLayer
370
18
48
1
60
0
100
AcDbSpline
70
4
71
3
72
16
73
12
40
0
40
0
40
0
40
0
40
0.463423600832241
40
0.463423600832241
40
0.646243952932837
40
0.646243952932837
40
0.831657283224505
40
0.831657283224505
40
0.947504344290848
40
0.947504344290848
40
1
40
1
40
1
40
1
41
1
10
10.1056624327026
20
9.86941261896621
30
0
41
1
10
10.1343390747265
20
9.76458357826289
30
0
41
1
10
10.1736499876091
20
9.66039292789938
30
0
41
1
10
10.2546180633468
20
9.52957658281042
30
0
41
1
10
10.2809130191141
20
9.49380155568073
30
0
41
1
10
10.3420137796675
20
9.42941539787637
30
0
41
1
10
10.3777400094532
20
9.40014891155712
30
0
41
1
10
10.4433516536449
20
9.36662118733787
30
0
41
1
10
10.4710402024013
20
9.35698328824239
30
0
41
1
10
10.5123223625249
20
9.35029954873107
30
0
41
1
10
10.5255210031399
20
9.34922131452504
30
0
41
1
10
10.5386751345948
20
9.34922131452504
30
0
0
SPLINE
5
1B3
100
AcDbEntity
8
1
62
256
6
ByLayer
370
18
48
1
60
0
100
AcDbSpline
70
4
71
3
72
16
73
12
40
0
40
0
40
0
40
0
40
0.463423600832209
40
0.463423600832209
40
0.646243952932815
40
0.646243952932815
40
0.831657283224495
40
0.831657283224495
40
0.947504344290837
40
0.947504344290837
40
1
40
1
40
1
40
1
41
1
10
13.8943375672974
20
-9.86941261896621
30
0
41
1
10
13.8656609252734
20
-9.76458357826289
30
0
41
1
10
13.8263500123909
20
-9.66039292789941
30
0
41
1
10
13.7453819366532
20
-9.52957658281042
30
0
41
1
10
13.7190869808859
20
-9.49380155568073
30
0
41
1
10
13.6579862203325
20
-9.42941539787637
30
0
41
1
10
13.6222599905468
20
-9.40014891155712
30
0
41
1
10
13.556648346355
20
-9.36662118733784
30
0
41
1
10
13.5289597975987
20
-9.35698328824239
30
0
41
1
10
13.4876776374751
20
-9.35029954873104
30
0
41
1
10
13.4744789968601
20
-9.34922131452501
30
0
41
1
10
13.4613248654052
20
-9.34922131452501
30
0
0
SPLINE
5
1B4
100
AcDbEntity
8
1
62
256
6
ByLayer
370
18
48
1
60
0
100
AcDbSpline
70
4
71
3
72
8
73
4
40
0
40
0
40
0
40
0
40
1
40
1
40
1
40
1
41
1
10
20.622134897941
20
30.543842100372
30
0
41
1
10
20.9947847584456
20
30.8143177266666
30
0
41
1
10
21.8293186107172
20
30.9837953067537
30
0
41
1
10
22.92079238
20
31.0585633914884
30
0
0
SPLINE
5
1B5
100
AcDbEntity
8
1
62
256
6
ByLayer
370
18
48
1
60
0
100
AcDbSpline
70
4
71
3
72
8
73
4
40
0
40
0
40
0
40
0
40
1
40
1
40
1
40
1
41
1
10
22.9609847588646
20
-31.0544615075761
30
0
41
1
10
22.9475806244986
20
-31.0028429217618
30
0
41
1
10
22.9341831017393
20
-30.9512270468484
30
0
41
1
10
22.92079238
20
-30.8996141556632
30
0
0
SPLINE
5
1B6
100
AcDbEntity
8
1
62
256
6
ByLayer
370
18
48
1
60
0
100
AcDbSpline
70
4
71
3
72
8
73
4
40
0
40
0
40
0
40
0
40
1
40
1
40
1
40
1
41
1
10
41.7001115145659
20
24.7729374212041
30
0
41
1
10
42.4853359339768
20
24.7865330102912
30
0
41
1
10
43.394279670076
20
24.5726466686956
30
0
41
1
10
44.2251581053787
20
24.1787609543689
30
0
0
SPLINE
5
1B7
100
AcDbEntity
8
1
62
256
6
ByLayer
370
18
48
1
60
0
100
AcDbSpline
70
4
71
1
72
4
73
2
40
0
40
0
40
1
40
1
41
1
10
42.9062643090874
20
16.7348293387051
30
0
41
1
10
42.869285919603
20
16.6534471459791
30
0
0
SPLINE
5
1B8
100
AcDbEntity
8
SK1
62
256
6
ByLayer
370
18
48
1
60
0
100
AcDbSpline
70
4
71
3
72
22
73
18
40
0
40
0
40
0
40
0
40
0.038427246458711
40
0.038427246458711
40
0.0775026456766427
40
0.0775026456766427
40
0.106475059033524
40
0.106475059033524
40
0.135305917881828
40
0.135305917881828
40
0.182167074412018
40
0.182167074412018
40
0.275660663800869
40
0.275660663800869
40
0.616530102228659
40
0.616530102228659
40
1
40
1
40
1
40
1
41
1
10
-0.394976888875306
20
-6.32694279392757
30
0
41
1
10
-0.414867561016194
20
-6.34445862132063
30
0
41
1
10
-0.436644357284194
20
-6.36058691921457
30
0
41
1
10
-0.484524151203374
20
-6.3868168818706
30
0
41
1
10
-0.511419954277358
20
-6.39702622866628
30
0
41
1
10
-0.560078773491597
20
-6.40490957850619
30
0
41
1
10
-0.58185248496946
20
-6.40512642059926
30
0
41
1
10
-0.623683911276856
20
-6.39912423041605
30
0
41
1
10
-0.644207278837683
20
-6.39293597600829
30
0
41
1
10
-0.694134540330907
20
-6.37121870092642
30
0
41
1
10
-0.722113964046542
20
-6.35215911803172
30
0
41
1
10
-0.796598131612939
20
-6.28903777408343
30
0
41
1
10
-0.836555557792792
20
-6.23798237717094
30
0
41
1
10
-0.997773060879837
20
-5.995390913813
30
0
41
1
10
-1.07178904300878
20
-5.77805690787602
30
0
41
1
10
-1.20827315239353
20
-5.31693201445015
30
0
41
1
10
-1.26212533694985
20
-5.06551762472202
30
0
41
1
10
-1.30710678118655
20
-4.81101321788441
30
0
0
SPLINE
5
1B9
100
AcDbEntity
8
SK1
62
256
6
ByLayer
370
18
48
1
60
0
100
AcDbSpline
70
4
71
3
72
10
73
6
40
0
40
0
40
0
40
0
40
0.5
40
0.5
40
1
40
1
40
1
40
1
41
1
10
-1.30710678118655
20
4.81101329740289
30
0
41
1
10
-1.57713284158248
20
3.28321078789992
30
0
41
1
10
-1.79449339715788
20
1.64680798700616
30
0
41
1
10
-1.79438545511854
20
-1.6481258022005
30
0
41
1
10
-1.57704898370505
20
-3.28368386467716
30
0
41
1
10
-1.30710678118663
20
-4.81101321788435
30
0
0
SPLINE
5
1BA
100
AcDbEntity
8
SK1
62
256
6
ByLayer
370
18
48
1
60
0
100
AcDbSpline
70
4
71
3
72
22
73
18
40
0
40
0
40
0
40
0
40
0.025518692999354
40
0.025518692999354
40
0.0515625307794633
40
0.0515625307794633
40
0.0689220502117165
40
0.0689220502117165
40
0.0862030429090035
40
0.0862030429090035
40
0.113761926258803
40
0.113761926258803
40
0.167639902693809
40
0.167639902693809
40
0.357269752158031
40
0.357269752158031
40
1
40
1
40
1
40
1
41
1
10
-0.394976888875277
20
6.326943090669
30
0
41
1
10
-0.389699799773268
20
6.32229605774103
30
0
41
1
10
-0.38394554029108
20
6.31808234313019
30
0
41
1
10
-0.371336208800898
20
6.31155719556298
30
0
41
1
10
-0.364237316839024
20
6.30923328231674
30
0
41
1
10
-0.35209572007625
20
6.30844589498398
30
0
41
1
10
-0.347038791108759
20
6.3089739150856
30
0
41
1
10
-0.337436838154161
20
6.31166640764118
30
0
41
1
10
-0.332782752688161
20
6.31383711710231
30
0
41
1
10
-0.321723955926899
20
6.32078578121266
30
0
41
1
10
-0.315689795621665
20
6.32640446307903
30
0
41
1
10
-0.300083216036057
20
6.3442802085479
30
0
41
1
10
-0.292057158925616
20
6.35806878925098
30
0
41
1
10
-0.261294067338724
20
6.42092251611513
30
0
41
1
10
-0.248999237994838
20
6.47445017323312
30
0
41
1
10
-0.204624309665832
20
6.70435570668306
30
0
41
1
10
-0.200000000000955
20
6.88379158154922
30
0
41
1
10
-0.200000000000955
20
7.05951756777665
30
0
0
SPLINE
5
1BB
100
AcDbEntity
8
SK1
62
256
6
ByLayer
370
18
48
1
60
0
100
AcDbSpline
70
4
71
3
72
26
73
22
40
0
40
0
40
0
40
0
40
0.462420532187944
40
0.462420532187944
40
0.662465761698283
40
0.662465761698283
40
0.830433309169693
40
0.830433309169693
40
0.87601894963741
40
0.87601894963741
40
0.905535493032455
40
0.905535493032455
40
0.92577818311669
40
0.92577818311669
40
0.946307111163799
40
0.946307111163799
40
0.963675313617857
40
0.963675313617857
40
0.991859972782862
40
0.991859972782862
40
1
40
1
40
1
40
1
41
1
10
-0.199999999999989
20
-7.05951749342083
30
0
41
1
10
-0.199999999999989
20
-6.93273416480454
30
0
41
1
10
-0.203968014086513
20
-6.80463429773329
30
0
41
1
10
-0.223222206303944
20
-6.62063667774228
30
0
41
1
10
-0.230822389897867
20
-6.56482953243432
30
0
41
1
10
-0.252035566714568
20
-6.46316921019911
30
0
41
1
10
-0.263798801619998
20
-6.41617607028249
30
0
41
1
10
-0.290531391619595
20
-6.36108887379029
30
0
41
1
10
-0.29710300077241
20
-6.34947181616241
30
0
41
1
10
-0.310313928765424
20
-6.33213067856883
30
0
41
1
10
-0.316208846631128
20
-6.32567949173321
30
0
41
1
10
-0.327595492701022
20
-6.31681373578161
30
0
41
1
10
-0.332739264568545
20
-6.31372817209197
30
0
41
1
10
-0.343644708736434
20
-6.30958040401461
30
0
41
1
10
-0.349575964479982
20
-6.30853210514005
30
0
41
1
10
-0.360183897281416
20
-6.30881607347521
30
0
41
1
10
-0.365032052617437
20
-6.30978620719449
30
0
41
1
10
-0.376922909163994
20
-6.31387292952667
30
0
41
1
10
-0.383695246431131
20
-6.3179475897727
30
0
41
1
10
-0.39156461480826
20
-6.32402624429125
30
0
41
1
10
-0.393293161608796
20
-6.32546009510432
30
0
41
1
10
-0.394976888875277
20
-6.32694279392757
30
0
0
SPLINE
5
1BC
100
AcDbEntity
8
SK1
62
256
6
ByLayer
370
18
48
1
60
0
100
AcDbSpline
70
4
71
3
72
22
73
18
40
0
40
0
40
0
40
0
40
0.366862607601256
40
0.366862607601256
40
0.737339621375052
40
0.737339621375052
40
0.838459586400285
40
0.838459586400285
40
0.872990642836393
40
0.872990642836393
40
0.908114554314301
40
0.908114554314301
40
0.93841147631739
40
0.93841147631739
40
0.978567405872927
40
0.978567405872927
40
1
40
1
40
1
40
1
41
1
10
-1.30710678118655
20
4.81101329740289
30
0
41
1
10
-1.26411319574365
20
5.05427021725674
30
0
41
1
10
-1.21291926611929
20
5.29463858107241
30
0
41
1
10
-1.07751639291712
20
5.76447191425098
30
0
41
1
10
-0.99999394263088
20
6.0024064332149
30
0
41
1
10
-0.818580317119483
20
6.26150782359156
30
0
41
1
10
-0.772786229091963
20
6.31609141287933
30
0
41
1
10
-0.693958175551444
20
6.37002132562083
30
0
41
1
10
-0.67174289599555
20
6.38213989760789
30
0
41
1
10
-0.624176343099663
20
6.39933264200099
30
0
41
1
10
-0.598041368844491
20
6.40433410743103
30
0
41
1
10
-0.550095873812666
20
6.4042038836908
30
0
41
1
10
-0.52764508925199
20
6.40038614973912
30
0
41
1
10
-0.479150674129698
20
6.38487542657816
30
0
41
1
10
-0.453444961156862
20
6.37100758594852
30
0
41
1
10
-0.417985764291785
20
6.34622757774423
30
0
41
1
10
-0.406197231050186
20
6.33682378409867
30
0
41
1
10
-0.394976888874737
20
6.32694309068151
30
0
0
SPLINE
5
1BD
100
AcDbEntity
8
1
62
256
6
ByLayer
370
18
48
1
60
0
100
AcDbSpline
70
4
71
3
72
12
73
8
40
0
40
0
40
0
40
0
40
0.392678099449931
40
0.392678099449931
40
0.791279335966112
40
0.791279335966112
40
1
40
1
40
1
40
1
41
1
10
56.1817808579845
20
25.2319746786933
30
0
41
1
10
56.1706253976613
20
25.2161157592752
30
0
41
1
10
56.159922069363
20
25.198777388997
30
0
41
1
10
56.1413604962667
20
25.1631877209899
30
0
41
1
10
56.1333433942985
20
25.1444867692048
30
0
41
1
10
56.1240682662398
20
25.1173297438094
30
0
41
1
10
56.1213404797791
20
25.1080688519795
30
0
41
1
10
56.1190817698907
20
25.099104272438
30
0
0
SPLINE
5
1BE
100
AcDbEntity
8
1
62
256
6
ByLayer
370
18
48
1
60
0
100
AcDbSpline
70
4
71
3
72
14
73
10
40
0
40
0
40
0
40
0
40
0.0829586012803118
40
0.0829586012803118
40
0.459195015075145
40
0.459195015075145
40
0.83547479966904
40
0.83547479966904
40
1
40
1
40
1
40
1
41
1
10
54.1748474139747
20
24.9496882767785
30
0
41
1
10
54.1730762585348
20
24.9530399409654
30
0
41
1
10
54.1712441540166
20
24.9564239950301
30
0
41
1
10
54.160837728833
20
24.9751767082185
30
0
41
1
10
54.1509128717918
20
24.9913136087178
30
0
41
1
10
54.1294110283644
20
25.022766813471
30
0
41
1
10
54.1175891795954
20
25.0384333653506
30
0
41
1
10
54.100502993605
20
25.059158213848
30
0
41
1
10
54.0952346450826
20
25.0653035100036
30
0
41
1
10
54.0899784420928
20
25.0712179572941
30
0
0
SPLINE
5
1BF
100
AcDbEntity
8
1
62
256
6
ByLayer
370
18
48
1
60
0
100
AcDbSpline
70
4
71
3
72
14
73
10
40
0
40
0
40
0
40
0
40
0.0829586012802727
40
0.0829586012802727
40
0.459195015075153
40
0.459195015075153
40
0.835474799669105
40
0.835474799669105
40
1
40
1
40
1
40
1
41
1
10
56.0069378474754
20
26.3859591728519
30
0
41
1
10
56.0084718101156
20
26.3821966786847
30
0
41
1
10
56.0100822757123
20
26.378428734747
30
0
41
1
10
56.0193648646988
20
26.3577294801659
30
0
41
1
10
56.0287226214685
20
26.3406103331834
30
0
41
1
10
56.0500293992514
20
26.3088192648232
30
0
41
1
10
56.0622236414748
20
26.293797717327
30
0
41
1
10
56.0804047920017
20
26.2749694030394
30
0
41
1
10
56.0860816360545
20
26.2695316418969
30
0
41
1
10
56.0918068193572
20
26.2644294923361
30
0
0
SPLINE
5
1C0
100
AcDbEntity
8
1
62
256
6
ByLayer
370
18
48
1
60
0
100
AcDbSpline
70
4
71
3
72
14
73
10
40
0
40
0
40
0
40
0
40
0.164525200330957
40
0.164525200330957
40
0.540804984924842
40
0.540804984924842
40
0.917041398719716
40
0.917041398719716
40
1
40
1
40
1
40
1
41
1
10
55.265735641234
20
24.5138392306579
30
0
41
1
10
55.2577697174197
20
24.5141928565775
30
0
41
1
10
55.249627078697
20
24.5144051646951
30
0
41
1
10
55.2226405760363
20
24.5145733875714
30
0
41
1
10
55.2030027187993
20
24.5138206043566
30
0
41
1
10
55.1651334476189
20
24.5105128332722
30
0
41
1
10
55.1464765183761
20
24.5079253966041
30
0
41
1
10
55.1255797868578
20
24.5040122384147
30
0
41
1
10
55.1218407002803
20
24.5032692597362
30
0
41
1
10
55.1181675812572
20
24.5024985049156
30
0
0
SPLINE
5
1C1
100
AcDbEntity
8
1
62
256
6
ByLayer
370
18
48
1
60
0
100
AcDbSpline
70
4
71
3
72
14
73
10
40
0
40
0
40
0
40
0
40
0.164525200330951
40
0.164525200330951
40
0.540804984924869
40
0.540804984924869
40
0.91704139871972
40
0.91704139871972
40
1
40
1
40
1
40
1
41
1
10
54.916049620216
20
26.8218082189724
30
0
41
1
10
54.9235465637173
20
26.820642295323
30
0
41
1
10
54.9312807069097
20
26.8197224521922
30
0
41
1
10
54.9571722450339
20
26.8176576951062
30
0
41
1
10
54.9764377088165
20
26.8177654739375
30
0
41
1
10
55.0145020456414
20
26.8214111086289
30
0
41
1
10
55.0337260751556
20
26.8249807917803
30
0
41
1
10
55.055746642871
20
26.8308404913624
30
0
41
1
10
55.0597073683701
20
26.8319673599139
30
0
41
1
10
55.0636176801929
20
26.8331489447149
30
0
0
SPLINE
5
1C2
100
AcDbEntity
8
1
62
256
6
ByLayer
370
18
48
1
60
0
100
AcDbSpline
70
4
71
3
72
12
73
8
40
0
40
0
40
0
40
0
40
0.392678099452537
40
0.392678099452537
40
0.791279335968767
40
0.791279335968767
40
1
40
1
40
1
40
1
41
1
10
54.0000044034659
20
26.1036727709377
30
0
41
1
10
54.0100463743739
20
26.1176030701149
30
0
41
1
10
54.0199793725729
20
26.1336071895226
30
0
41
1
10
54.038001198237
20
26.1682619875541
30
0
41
1
10
54.0462657155417
20
26.1873914752724
30
0
41
1
10
54.0566194128293
20
26.2164166373718
30
0
41
1
10
54.0598469338831
20
26.2265430949071
30
0
41
1
10
54.0627034915596
20
26.236543177193
30
0
0
SPLINE
5
1C3
100
AcDbEntity
8
1
62
256
6
ByLayer
370
18
48
1
60
0
100
AcDbSpline
70
4
71
3
72
13
73
9
40
0
40
0
40
0
40
0
40
0.250661764437226
40
0.250661764437226
40
0.250661764437226
40
0.653096502165463
40
0.653096502165463
40
1
40
1
40
1
40
1
41
1
10
58.6117175162493
20
29.326405670825
30
0
41
1
10
58.4193104169614
20
29.54635957859
30
0
41
1
10
58.2023377584034
20
29.7476814973911
30
0
41
1
10
57.9681518815629
20
29.9239083304095
30
0
41
1
10
57.5954206187079
20
30.20439172636
30
0
41
1
10
57.169901014705
20
30.426683622227
30
0
41
1
10
56.3436417655591
20
30.6986760839237
30
0
41
1
10
55.938828974261
20
30.7707836646041
30
0
41
1
10
55.5375093969348
20
30.7837628600557
30
0
0
SPLINE
5
1C4
100
AcDbEntity
8
1
62
256
6
ByLayer
370
18
48
1
60
0
100
AcDbSpline
70
4
71
3
72
8
73
4
40
0
40
0
40
0
40
0
40
1
40
1
40
1
40
1
41
1
10
51.6652766706245
20
28.3288776570813
30
0
41
1
10
51.8321620710016
20
28.6825372017471
30
0
41
1
10
52.0461285131061
20
29.0062903401274
30
0
41
1
10
52.3025198431323
20
29.302563476734
30
0
0
SPLINE
5
1C5
100
AcDbEntity
8
1
62
256
6
ByLayer
370
18
48
1
60
0
100
AcDbSpline
70
4
71
3
72
16
73
12
40
0
40
0
40
0
40
0
40
0.25
40
0.25
40
0.499999999999999
40
0.499999999999999
40
0.749999999999999
40
0.749999999999999
40
0.875
40
0.875
40
1
40
1
40
1
40
1
41
1
10
59.816623231431
20
40.8737045391781
30
0
41
1
10
59.1465560559835
20
40.0184936235939
30
0
41
1
10
58.4199345842062
20
39.1401132789069
30
0
41
1
10
56.7346971322563
20
37.2883079923343
30
0
41
1
10
55.8834457464118
20
36.3567097838647
30
0
41
1
10
54.1205380991547
20
34.4872928573017
30
0
41
1
10
53.1477481948618
20
33.5150870018533
30
0
41
1
10
51.6379188782885
20
32.2022900980346
30
0
41
1
10
51.1257135160699
20
31.7901758999854
30
0
41
1
10
50.1672187729461
20
31.1068288473913
30
0
41
1
10
49.7304831957527
20
30.8429970312968
30
0
41
1
10
49.3440844528133
20
30.6456765423948
30
0
0
SPLINE
5
1C6
100
AcDbEntity
8
1
62
256
6
ByLayer
370
18
48
1
60
0
100
AcDbSpline
70
4
71
2
72
6
73
3
40
0
40
0
40
0
40
1
40
1
40
1
41
1.0087712828333
10
62.7565730127823
20
40.5906947308498
30
0
41
1.0087712828333
10
62.1240940097093
20
40.8905273337158
30
0
41
1.0087712828333
10
61.4916150066363
20
41.1903599365818
30
0
0
SPLINE
5
1C7
100
AcDbEntity
8
1
62
256
6
ByLayer
370
18
48
1
60
0
100
AcDbSpline
70
4
71
3
72
10
73
6
40
0
40
0
40
0
40
0
40
0.325288492889669
40
0.325288492889669
40
1
40
1
40
1
40
1
41
1
10
44.8137905840936
20
16.8672834680874
30
0
41
1
10
44.7254838161691
20
16.9355465895234
30
0
41
1
10
44.6426962052394
20
17.0066174277177
30
0
41
1
10
44.4055335164537
20
17.2347694585397
30
0
41
1
10
44.2674630182885
20
17.4042308222925
30
0
41
1
10
44.1557554467031
20
17.5908639930584
30
0
0
SPLINE
5
1C8
100
AcDbEntity
8
1
62
256
6
ByLayer
370
18
48
1
60
0
100
AcDbSpline
70
4
71
2
72
6
73
3
40
0
40
0
40
0
40
1
40
1
40
1
41
0.941103849192081
10
59.513191519815
20
25.8842769473459
30
0
41
0.915286811754989
10
61.0393148855713
20
25.0176881237479
30
0
41
1.02830968163241
10
61.5233510231013
20
24.4887999511825
30
0
0
SPLINE
5
1C9
100
AcDbEntity
8
1
62
256
6
ByLayer
370
18
48
1
60
0
100
AcDbSpline
70
4
71
3
72
12
73
8
40
0
40
0
40
0
40
0
40
0.2527496201422
40
0.2527496201422
40
0.674711209428767
40
0.674711209428767
40
1
40
1
40
1
40
1
41
1
10
55.3894695303627
20
12.2654164806442
30
0
41
1
10
55.4828485371741
20
12.2802490187247
30
0
41
1
10
55.5791629066874
20
12.3031595326373
30
0
41
1
10
55.838530030243
20
12.3880036862697
30
0
41
1
10
56.0064776307197
20
12.4674876290169
30
0
41
1
10
56.2925286632687
20
12.6557362874715
30
0
41
1
10
56.4158938154099
20
12.7556782761523
30
0
41
1
10
56.5297461840625
20
12.8677135803115
30
0
0
SPLINE
5
1CA
100
AcDbEntity
8
1
62
256
6
ByLayer
370
18
48
1
60
0
100
AcDbSpline
70
4
71
3
72
8
73
4
40
0
40
0
40
0
40
0
40
1
40
1
40
1
40
1
41
1
10
55.0515959592686
20
19.6812568717508
30
0
41
1
10
55.175553041794
20
19.9409236817651
30
0
41
1
10
55.3339033265405
20
20.1919221468335
30
0
41
1
10
55.5233552882508
20
20.4148368101525
30
0
0
SPLINE
5
1CB
100
AcDbEntity
8
1
62
256
6
ByLayer
370
18
48
1
60
0
100
AcDbSpline
70
4
71
3
72
8
73
4
40
0
40
0
40
0
40
0
40
1
40
1
40
1
40
1
41
1
10
59.1646705642044
20
24.7737196516698
30
0
41
1
10
59.3315559645268
20
25.1273791962197
30
0
41
1
10
59.4461932803488
20
25.4982202382968
30
0
41
1
10
59.5131915074926
20
25.8842769513425
30
0
0
SPLINE
5
1CC
100
AcDbEntity
8
1
62
256
6
ByLayer
370
18
48
1
60
0
100
AcDbSpline
70
4
71
2
72
6
73
3
40
0
40
0
40
0
40
1
40
1
40
1
41
1.02830968163241
10
61.5233510231013
20
24.4887999511825
30
0
41
1.02830968163241
10
61.7855079476233
20
24.2023508909049
30
0
41
1.02830968163241
10
62.0476648721453
20
23.9159018306274
30
0
0
SPLINE
5
1CD
100
AcDbEntity
8
1
62
256
6
ByLayer
370
18
48
1
60
0
100
AcDbSpline
70
4
71
3
72
10
73
6
40
0
40
0
40
0
40
0
40
0.465995854460557
40
0.465995854460557
40
1
40
1
40
1
40
1
41
1
10
50.567641792258
20
23.8839227525962
30
0
41
1
10
50.6146857915309
20
23.7138271962558
30
0
41
1
10
50.6444056229853
20
23.5359349259043
30
0
41
1
10
50.6690439330994
20
23.151521987143
30
0
41
1
10
50.6584432492081
20
22.9420721965588
30
0
41
1
10
50.6249732341678
20
22.7369607604686
30
0
0
SPLINE
5
1CE
100
AcDbEntity
8
1
62
256
6
ByLayer
370
18
48
1
60
0
100
AcDbSpline
70
4
71
2
72
6
73
3
40
0
40
0
40
0
40
1
40
1
40
1
41
1.02830968163241
10
49.8911636566895
20
30.0031474601921
30
0
41
0.915286811692243
10
50.6466516053639
20
29.9444276154827
30
0
41
0.941103849220746
10
52.3025198336263
20
29.3025634828287
30
0
0
SPLINE
5
1CF
100
AcDbEntity
8
1
62
256
6
ByLayer
370
18
48
1
60
0
100
AcDbSpline
70
4
71
3
72
8
73
4
40
0
40
0
40
0
40
0
40
1
40
1
40
1
40
1
41
1
10
59.8166232314309
20
40.8737045391781
30
0
41
1
10
60.0965871614557
20
40.9532238482411
30
0
41
1
10
60.378859128312
20
41.0321818532995
30
0
41
1
10
60.6621961827148
20
41.1094813882133
30
0
0
SPLINE
5
1D0
100
AcDbEntity
8
1
62
256
6
ByLayer
370
18
48
1
60
0
100
AcDbSpline
70
4
71
3
72
12
73
8
40
0
40
0
40
0
40
0
40
0.252749620142198
40
0.252749620142198
40
0.674711209428765
40
0.674711209428765
40
1
40
1
40
1
40
1
41
1
10
44.1557554467062
20
17.5908639930363
30
0
41
1
10
44.1063686397798
20
17.6733760039932
30
0
41
1
10
44.0614666972049
20
17.7632314349936
30
0
41
1
10
43.9588422707393
20
18.019681077711
30
0
41
1
10
43.9117793068125
20
18.2010927949071
30
0
41
1
10
43.8734370584682
20
18.5431231303659
30
0
41
1
10
43.8717385903968
20
18.7023527010691
30
0
41
1
10
43.8859178574536
20
18.8616389737853
30
0
0
SPLINE
5
1D1
100
AcDbEntity
8
1
62
256
6
ByLayer
370
18
48
1
60
0
100
AcDbSpline
70
4
71
3
72
13
73
9
40
0
40
0
40
0
40
0
40
0.287856992129662
40
0.287856992129662
40
0.605626331970861
40
0.605626331970861
40
0.605626331970861
40
1
40
1
40
1
40
1
41
1
10
55.5375093969348
20
30.7837628600557
30
0
41
1
10
55.1878911087246
20
30.7950245034329
30
0
41
1
10
54.8305992826358
20
30.7527614079029
30
0
41
1
10
54.1134059302397
20
30.5686278168387
30
0
41
1
10
53.7482753832184
20
30.4155559825208
30
0
41
1
10
53.4127138412208
20
30.2197329542613
30
0
41
1
10
52.9982068905884
20
29.9778398999375
30
0
41
1
10
52.6172337064574
20
29.6634402174339
30
0
41
1
10
52.3025198446938
20
29.3025634785386
30
0
0
SPLINE
5
1D2
100
AcDbEntity
8
1
62
256
6
ByLayer
370
18
48
1
60
0
100
AcDbSpline
70
4
71
3
72
12
73
8
40
0
40
0
40
0
40
0
40
0.500000000000001
40
0.500000000000001
40
0.750000000000001
40
0.750000000000001
40
1
40
1
40
1
40
1
41
1
10
47.7783802779794
20
21.6394650607764
30
0
41
1
10
47.8188253983814
20
21.4937112502886
30
0
41
1
10
47.8610056747467
20
21.3505070533557
30
0
41
1
10
47.9273403348734
20
21.139507272969
30
0
41
1
10
47.9498812605199
20
21.069807422515
30
0
41
1
10
47.9972297655434
20
20.9319651490017
30
0
41
1
10
47.9930093704036
20
20.8389429785931
30
0
41
1
10
48.0683300986517
20
20.8032364810022
30
0
0
SPLINE
5
1D3
100
AcDbEntity
8
1
62
256
6
ByLayer
370
18
48
1
60
0
100
AcDbSpline
70
4
71
3
72
8
73
4
40
0
40
0
40
0
40
0
40
1
40
1
40
1
40
1
41
1
10
57.4535335620453
20
15.8641402332149
30
0
41
1
10
57.356258934309
20
16.3802953105377
30
0
41
1
10
56.9471164430978
20
16.8599968746323
30
0
41
1
10
56.4619421150117
20
17.5229411365196
30
0
0
SPLINE
5
1D4
100
AcDbEntity
8
1
62
256
6
ByLayer
370
18
48
1
60
0
100
AcDbSpline
70
4
71
3
72
8
73
4
40
0
40
0
40
0
40
0
40
1
40
1
40
1
40
1
41
1
10
50.3531805078691
20
21.9085847787555
30
0
41
1
10
50.4771375903945
20
22.1682515887698
30
0
41
1
10
50.5720462113306
20
22.4493251695306
30
0
41
1
10
50.6249732341678
20
22.7369607604686
30
0
0
SPLINE
5
1D5
100
AcDbEntity
8
1
62
256
6
ByLayer
370
18
48
1
60
0
100
AcDbSpline
70
4
71
3
72
8
73
4
40
0
40
0
40
0
40
0
40
1
40
1
40
1
40
1
41
1
10
50.567641792258
20
23.8839227525962
30
0
41
1
10
50.3298539921479
20
24.7436848641467
30
0
41
1
10
50.4028344203263
20
25.653540267482
30
0
41
1
10
50.7981508801175
20
26.4912854438287
30
0
0
SPLINE
5
1D6
100
AcDbEntity
8
1
62
256
6
ByLayer
370
18
48
1
60
0
100
AcDbSpline
70
4
71
3
72
12
73
8
40
0
40
0
40
0
40
0
40
0.418782075282767
40
0.418782075282767
40
0.706182120811185
40
0.706182120811185
40
1
40
1
40
1
40
1
41
1
10
61.1847997822518
20
41.1943341598485
30
0
41
1
10
61.2259092125777
20
41.1964786227931
30
0
41
1
10
61.2685046830595
20
41.1968416736023
30
0
41
1
10
61.3396353201451
20
41.1944062929603
30
0
41
1
10
61.3686750909337
20
41.1925577398403
30
0
41
1
10
61.4264995801944
20
41.187190194201
30
0
41
1
10
61.4554274149564
20
41.1836196521093
30
0
41
1
10
61.4835950747565
20
41.1792905584784
30
0
0
SPLINE
5
1D7
100
AcDbEntity
8
1
62
256
6
ByLayer
370
18
48
1
60
0
100
AcDbSpline
70
4
71
3
72
16
73
12
40
0
40
0
40
0
40
0
40
0.0076436986798993
40
0.0076436986798993
40
0.0409116539642754
40
0.0409116539642754
40
0.185161591066358
40
0.185161591066358
40
0.761039897349148
40
0.761039897349148
40
1
40
1
40
1
40
1
41
1
10
53.3987973734223
20
12.775748188642
30
0
41
1
10
53.4020274589935
20
12.7742169362849
30
0
41
1
10
53.4052398442695
20
12.7726422138522
30
0
41
1
10
53.42209431363
20
12.7641184115416
30
0
41
1
10
53.43503328099
20
12.7566385924261
30
0
41
1
10
53.4995007278404
20
12.7177478246945
30
0
41
1
10
53.5448690244161
20
12.687279262715
30
0
41
1
10
53.779370616703
20
12.5435771055036
30
0
41
1
10
53.9725406940849
20
12.4499517380241
30
0
41
1
10
54.2581095087365
20
12.3526051835362
30
0
41
1
10
54.3435177434764
20
12.3282504824972
30
0
41
1
10
54.43014926233
20
12.3085584533754
30
0
0
SPLINE
5
1D8
100
AcDbEntity
8
1
62
256
6
ByLayer
370
18
48
1
60
0
100
AcDbSpline
70
4
71
3
72
18
73
14
40
0
40
0
40
0
40
0
40
0.0384430513828755
40
0.0384430513828755
40
0.294505767099369
40
0.294505767099369
40
0.507931675708708
40
0.507931675708708
40
0.723079147095957
40
0.723079147095957
40
0.912685296049718
40
0.912685296049718
40
1
40
1
40
1
40
1
41
1
10
55.1554305445068
20
36.6013161167422
30
0
41
1
10
55.1512663600443
20
36.597220961901
30
0
41
1
10
55.1470684375579
20
36.5931326064888
30
0
41
1
10
55.1149351103236
20
36.5621472712882
30
0
41
1
10
55.0852795444665
20
36.5353519202665
30
0
41
1
10
55.0316921840792
20
36.4907181677114
30
0
41
1
10
55.0070351806324
20
36.4716589660879
30
0
41
1
10
54.9612567568415
20
36.439727909727
30
0
41
1
10
54.9394917903608
20
36.4264650588829
30
0
41
1
10
54.9054366388144
20
36.4098781372944
30
0
41
1
10
54.8918769638094
20
36.4053454823536
30
0
41
1
10
54.8771777275424
20
36.4039110815458
30
0
41
1
10
54.8732029567093
20
36.404198405635
30
0
41
1
10
54.869964382201
20
36.4051908326219
30
0
0
SPLINE
5
1D9
100
AcDbEntity
8
1
62
256
6
ByLayer
370
18
48
1
60
0
100
AcDbSpline
70
4
71
3
72
8
73
4
40
0
40
0
40
0
40
0
40
1
40
1
40
1
40
1
41
1
10
58.2975447736974
20
22.9361274384173
30
0
41
1
10
57.9100301347027
20
22.1149156939
30
0
41
1
10
57.2427208958097
20
21.4587360157431
30
0
41
1
10
56.4412929536633
20
21.0994633357705
30
0
0
SPLINE
5
1DA
100
AcDbEntity
8
1
62
256
6
ByLayer
370
18
48
1
60
0
100
AcDbSpline
70
4
71
3
72
8
73
4
40
0
40
0
40
0
40
0
40
1
40
1
40
1
40
1
41
1
10
49.3440844528148
20
30.645676542399
30
0
41
1
10
49.2533035776285
20
30.452010566931
30
0
41
1
10
49.1627473918008
20
30.2587784494563
30
0
41
1
10
49.0728098948191
20
30.066753512279
30
0
0
SPLINE
5
1DB
100
AcDbEntity
8
1
62
256
6
ByLayer
370
18
48
1
60
0
100
AcDbSpline
70
4
71
3
72
18
73
14
40
0
40
0
40
0
40
0
40
0.148865436690713
40
0.148865436690713
40
0.336868556410367
40
0.336868556410367
40
0.519491108027852
40
0.519491108027852
40
0.711563055534805
40
0.711563055534805
40
0.930180979444747
40
0.930180979444747
40
1
40
1
40
1
40
1
41
1
10
63.2331154656568
20
32.4405606309406
30
0
41
1
10
63.2288444484515
20
32.4435001532499
30
0
41
1
10
63.224781897439
20
32.4493819256193
30
0
41
1
10
63.2165891014724
20
32.4690763909707
30
0
41
1
10
63.212617386707
20
32.4849096541361
30
0
41
1
10
63.2066360303195
20
32.5229625586474
30
0
41
1
10
63.2044941150661
20
32.5454421717653
30
0
41
1
10
63.2019175358317
20
32.5952358729089
30
0
41
1
10
63.2015366750948
20
32.6233085619356
30
0
41
1
10
63.202497733338
20
32.6844295482287
30
0
41
1
10
63.2040851142787
20
32.718335305695
30
0
41
1
10
63.2072647197377
20
32.7622181946672
30
0
41
1
10
63.2081233890947
20
32.7728537065738
30
0
41
1
10
63.2090604069139
20
32.783417352621
30
0
0
SPLINE
5
1DC
100
AcDbEntity
8
1
62
256
6
ByLayer
370
18
48
1
60
0
100
AcDbSpline
70
4
71
3
72
8
73
4
40
0
40
0
40
0
40
0
40
1
40
1
40
1
40
1
41
1
10
62.3189394301372
20
24.4948248607394
30
0
41
1
10
62.2281585549522
20
24.301158885274
30
0
41
1
10
62.1376023691258
20
24.1079267678021
30
0
41
1
10
62.0476648721454
20
23.9159018306274
30
0
0
SPLINE
5
1DD
100
AcDbEntity
8
1
62
256
6
ByLayer
370
18
48
1
60
0
100
AcDbSpline
70
4
71
3
72
11
73
7
40
0
40
0
40
0
40
0
40
0.379738014043153
40
0.569607021064729
40
0.759476028086306
40
1
40
1
40
1
40
1
41
1.02830968163241
10
49.8911636566895
20
30.0031474601921
30
0
41
1.02566133279165
10
51.5844897540117
20
31.9355163421632
30
0
41
1.02050308371814
10
54.0533297993868
20
34.2631441572686
30
0
41
1.01332460673153
10
58.523913802081
20
37.5650913722503
30
0
41
1.0120630214142
10
59.387265556192
20
39.3314225256803
30
0
41
1.00944729087556
10
60.6998090273668
20
40.6043729341681
30
0
41
1.00885690313847
10
61.184799777513
20
41.1943341540842
30
0
0
SPLINE
5
1DE
100
AcDbEntity
8
1
62
256
6
ByLayer
370
18
48
1
60
0
100
AcDbSpline
70
4
71
3
72
16
73
12
40
0
40
0
40
0
40
0
40
0.125
40
0.125
40
0.25
40
0.25
40
0.5
40
0.5
40
0.75
40
0.75
40
1
40
1
40
1
40
1
41
1
10
62.3189394301416
20
24.4948248607488
30
0
41
1
10
62.2383801713228
20
24.9139705745023
30
0
41
1
10
62.1760465547291
20
25.4135350037471
30
0
41
1
10
62.1125409273289
20
26.591660371481
30
0
41
1
10
62.1120539840528
20
27.2477805272916
30
0
41
1
10
62.1801822232528
20
29.262865018118
30
0
41
1
10
62.3116091836457
20
30.6177332668851
30
0
41
1
10
62.6234361820951
20
33.1544962405442
30
0
41
1
10
62.7936428107015
20
34.3938956592468
30
0
41
1
10
63.1368739612438
20
36.8669806760972
30
0
41
1
10
63.3460155223141
20
38.0209088584855
30
0
41
1
10
63.5683724053887
20
39.0951526589407
30
0
0
SPLINE
5
1DF
100
AcDbEntity
8
1
62
256
6
ByLayer
370
18
48
1
60
0
100
AcDbSpline
70
4
71
3
72
8
73
4
40
0
40
0
40
0
40
0
40
1
40
1
40
1
40
1
41
1
10
63.5683724053887
20
39.0951526589407
30
0
41
1
10
63.4536673870907
20
39.3617684842049
30
0
41
1
10
63.336832058265
20
39.6299270456535
30
0
41
1
10
63.2176512296774
20
39.8980439578558
30
0
0
SPLINE
5
1E0
100
AcDbEntity
8
1
62
256
6
ByLayer
370
18
48
1
60
0
100
AcDbSpline
70
4
71
3
72
12
73
8
40
0
40
0
40
0
40
0
40
0.407174084711936
40
0.407174084711936
40
0.69951127243093
40
0.69951127243093
40
1
40
1
40
1
40
1
41
1
10
62.7533675423794
20
40.5773430121327
30
0
41
1
10
62.782880748117
20
40.5508806125159
30
0
41
1
10
62.812151756892
20
40.5223638673859
30
0
41
1
10
62.8604141286008
20
40.4711665470782
30
0
41
1
10
62.8801281731528
20
40.4489490125455
30
0
41
1
10
62.9183728641266
20
40.4030926104409
30
0
41
1
10
62.9369994812291
20
40.3792561635074
30
0
41
1
10
62.9543852261097
20
40.3554455848162
30
0
0
SPLINE
5
1E1
100
AcDbEntity
8
1
62
256
6
ByLayer
370
18
48
1
60
0
100
AcDbSpline
70
4
71
3
72
8
73
4
40
0
40
0
40
0
40
0
40
1
40
1
40
1
40
1
41
1
10
60.6621961827148
20
41.1094813882133
30
0
41
1
10
60.83424755445
20
41.1564201518157
30
0
41
1
10
61.0122478194663
20
41.1844659516752
30
0
41
1
10
61.1847997822518
20
41.1943341598485
30
0
0
SPLINE
5
1E2
100
AcDbEntity
8
1
62
256
6
ByLayer
370
18
48
1
60
0
100
AcDbSpline
70
4
71
3
72
8
73
4
40
0
40
0
40
0
40
0
40
1
40
1
40
1
40
1
41
1
10
54.4301492623302
20
12.3085584533755
30
0
41
1
10
54.7586726255136
20
12.2338824957033
30
0
41
1
10
55.0755196483219
20
12.2155479530265
30
0
41
1
10
55.3894695303823
20
12.2654164806555
30
0
0
SPLINE
5
1E3
100
AcDbEntity
8
1
62
256
6
ByLayer
370
18
48
1
60
0
100
AcDbSpline
70
4
71
3
72
10
73
6
40
0
40
0
40
0
40
0
40
0.474805431212335
40
0.474805431212335
40
1
40
1
40
1
40
1
41
1
10
55.5233552882508
20
20.4148368101525
30
0
41
1
10
55.6450319900211
20
20.5538315591258
30
0
41
1
10
55.7806335068333
20
20.6809519310847
30
0
41
1
10
56.0864612574261
20
20.9144139791036
30
0
41
1
10
56.260878412708
20
21.0185851778896
30
0
41
1
10
56.4412929536633
20
21.0994633357705
30
0
0
SPLINE
5
1E4
100
AcDbEntity
8
1
62
256
6
ByLayer
370
18
48
1
60
0
100
AcDbSpline
70
4
71
3
72
8
73
4
40
0
40
0
40
0
40
0
40
1
40
1
40
1
40
1
41
1
10
62.9543852261097
20
40.3554455848162
30
0
41
1
10
63.0549642569587
20
40.2160970676573
30
0
41
1
10
63.1452807976266
20
40.060853169758
30
0
41
1
10
63.2176512296774
20
39.8980439578558
30
0
0
SPLINE
5
1E5
100
AcDbEntity
8
1
62
256
6
ByLayer
370
18
48
1
60
0
100
AcDbSpline
70
4
71
3
72
11
73
7
40
0
40
0
40
0
40
0
40
0.268536746003808
40
0.487975722202665
40
0.707414698401523
40
1
40
1
40
1
40
1
41
1.0249090909279
10
55.5375093737377
20
30.7837628136785
30
0
41
1.0229768070834
10
56.1370623661514
20
31.9824338434619
30
0
41
1.0191099966158
10
57.2120566734555
20
34.0564435544336
30
0
41
1.01332460673153
10
59.1699738657277
20
37.2969065746591
30
0
41
1.01203732298747
10
60.1008530307852
20
39.0966716458547
30
0
41
1.00929221524307
10
61.04058461337
20
40.568428111351
30
0
41
1.0087712828333
10
61.4916150066363
20
41.1903599365818
30
0
0
SPLINE
5
1E6
100
AcDbEntity
8
1
62
256
6
ByLayer
370
18
48
1
60
0
100
AcDbSpline
70
4
71
2
72
6
73
3
40
0
40
0
40
0
40
1
40
1
40
1
41
1.02830968163241
10
49.0728098948191
20
30.066753512279
30
0
41
1.02830968163241
10
49.4819867757542
20
30.0349504862356
30
0
41
1.02830968163241
10
49.8911636566895
20
30.0031474601921
30
0
0
SPLINE
5
1E7
100
AcDbEntity
8
1
62
256
6
ByLayer
370
18
48
1
60
0
100
AcDbSpline
70
4
71
3
72
8
73
4
40
0
40
0
40
0
40
0
40
1
40
1
40
1
40
1
41
1
10
44.2043083787199
20
19.9553925134834
30
0
41
1
10
44.1368757919423
20
19.8147602021685
30
0
41
1
10
44.077467173247
20
19.6696853586237
30
0
41
1
10
44.0271647934436
20
19.5198922553937
30
0
0
SPLINE
5
1E8
100
AcDbEntity
8
1
62
256
6
ByLayer
370
18
48
1
60
0
100
AcDbSpline
70
4
71
3
72
10
73
6
40
0
40
0
40
0
40
0
40
0.494168352806884
40
0.494168352806884
40
1
40
1
40
1
40
1
41
1
10
56.950803314333
20
13.3933202152296
30
0
41
1
10
56.8944850738471
20
13.3051175508189
30
0
41
1
10
56.8319764433231
20
13.2160404894779
30
0
41
1
10
56.6958208438767
20
13.0432327357569
30
0
41
1
10
56.6209742838394
20
12.9585146193166
30
0
41
1
10
56.5427266340079
20
12.8805654504569
30
0
0
SPLINE
5
1E9
100
AcDbEntity
8
1
62
256
6
ByLayer
370
18
48
1
60
0
100
AcDbSpline
70
4
71
3
72
12
73
8
40
0
40
0
40
0
40
0
40
0.32296159576427
40
0.32296159576427
40
0.710971356423584
40
0.710971356423584
40
1
40
1
40
1
40
1
41
1
10
59.5131915079666
20
25.8842769540739
30
0
41
1
10
59.5785206780346
20
26.2727757201201
30
0
41
1
10
59.5918367501116
20
26.6751708162022
30
0
41
1
10
59.5065996407033
20
27.5378817665446
30
0
41
1
10
59.3839980459534
20
28.0070884328725
30
0
41
1
10
59.037725629466
20
28.7565419359102
30
0
41
1
10
58.843451340318
20
29.0614226449851
30
0
41
1
10
58.6117175162493
20
29.326405670825
30
0
0
SPLINE
5
1EA
100
AcDbEntity
8
1
62
256
6
ByLayer
370
18
48
1
60
0
100
AcDbSpline
70
4
71
3
72
8
73
4
40
0
40
0
40
0
40
0
40
1
40
1
40
1
40
1
41
1
10
47.7783802779766
20
21.6394650607862
30
0
41
1
10
46.9533138276944
20
21.6009612268267
30
0
41
1
10
46.2960693814802
20
21.6196596606783
30
0
41
1
10
45.8213461956334
20
21.3784877422246
30
0
0
SPLINE
5
1EB
100
AcDbEntity
8
1
62
256
6
ByLayer
370
18
48
1
60
0
100
AcDbSpline
70
4
71
3
72
10
73
6
40
0
40
0
40
0
40
0
40
0.494168352806883
40
0.494168352806883
40
1
40
1
40
1
40
1
41
1
10
44.0271647934436
20
19.5198922553937
30
0
41
1
10
43.9938786509072
20
19.4207710089523
30
0
41
1
10
43.9640813876161
20
19.3161868172037
30
0
41
1
10
43.9161759832032
20
19.1015432309068
30
0
41
1
10
43.8980730243561
20
18.9899252781744
30
0
41
1
10
43.8875950617421
20
18.8798492535374
30
0
0
SPLINE
5
1EC
100
AcDbEntity
8
1
62
256
6
ByLayer
370
18
48
1
60
0
100
AcDbSpline
70
4
71
3
72
14
73
10
40
0
40
0
40
0
40
0
40
0.0151857536690251
40
0.0151857536690251
40
0.0655730315774938
40
0.0655730315774938
40
0.28764275434833
40
0.28764275434833
40
1
40
1
40
1
40
1
41
1
10
45.8451909938646
20
16.356606131442
30
0
41
1
10
45.8387784663049
20
16.3596460502691
30
0
41
1
10
45.8322495200907
20
16.3625309596387
30
0
41
1
10
45.8045629533531
20
16.3740502198258
30
0
41
1
10
45.7840045454292
20
16.3810203622525
30
0
41
1
10
45.6773188845134
20
16.4169404962692
30
0
41
1
10
45.5967324437942
20
16.4435901268361
30
0
41
1
10
45.2630588375618
20
16.573580666074
30
0
41
1
10
45.0257622121864
20
16.7034246231814
30
0
41
1
10
44.8137905840936
20
16.8672834680873
30
0
0
SPLINE
5
1ED
100
AcDbEntity
8
1
62
256
6
ByLayer
370
18
48
1
60
0
100
AcDbSpline
70
4
71
3
72
12
73
8
40
0
40
0
40
0
40
0
40
0.499999999999999
40
0.499999999999999
40
0.749999999999999
40
0.749999999999999
40
1
40
1
40
1
40
1
41
1
10
56.4619421150023
20
17.5229411365157
30
0
41
1
10
56.322115443108
20
17.4626468597752
30
0
41
1
10
56.1830730044746
20
17.4053529904145
30
0
41
1
10
55.9753867182649
20
17.3242554094379
30
0
41
1
10
55.9063541825594
20
17.2979668171243
30
0
41
1
10
55.768030308661
20
17.2481442760954
30
0
41
1
10
55.6972572064558
20
17.1866720406103
30
0
41
1
10
55.6219364782086
20
17.2223785382035
30
0
0
SPLINE
5
1EE
100
AcDbEntity
8
1
62
256
6
ByLayer
370
18
48
1
60
0
100
AcDbSpline
70
4
71
3
72
11
73
7
40
0
40
0
40
0
40
0
40
0.379738014043147
40
0.569607021064721
40
0.759476028086294
40
1
40
1
40
1
40
1
41
1.02830968163241
10
61.5233510231013
20
24.4887999511825
30
0
41
1.02566133279166
10
61.9493725179972
20
27.0219464648397
30
0
41
1.02050308371814
10
62.1920995048658
20
30.4048840520632
30
0
41
1.01332460673153
10
61.9001482263
20
35.9645557807447
30
0
41
1.0120630214142
10
62.6882149633964
20
37.7665765025251
30
0
41
1.00944729087555
10
62.8198109828321
20
39.5993661255617
30
0
41
1.00885690313847
10
62.9543852247948
20
40.3554455774287
30
0
0
SPLINE
5
1EF
100
AcDbEntity
8
1
62
256
6
ByLayer
370
18
48
1
60
0
100
AcDbSpline
70
4
71
3
72
11
73
7
40
0
40
0
40
0
40
0
40
0.268536746558077
40
0.487975722590654
40
0.707414698623231
40
1
40
1
40
1
40
1
41
1.02490909094425
10
58.61171749073
20
29.3264056130169
30
0
41
1.02297680709541
10
59.1530516258295
20
30.5526758426288
30
0
41
1.019109996622
10
60.061858323633
20
32.7054683519654
30
0
41
1.01332460673153
10
61.288480362139
20
36.2926087024428
30
0
41
1.01203732298747
10
62.0621818916133
20
38.1668853058176
30
0
41
1.00929221524307
10
62.576775253367
20
39.8401825318887
30
0
41
1.0087712828333
10
62.7565730127823
20
40.5906947308498
30
0
0
INSERT
5
201
100
AcDbEntity
8
2
62
256
6
ByLayer
370
25
48
1
60
0
100
AcDbBlockReference
2
DimnDraft3D11
10
0
20
0
30
0
41
1
42
1
43
1
50
0
210
0
220
0
230
1
0
LINE
5
72
100
AcDbEntity
8
1
62
256
6
ByLayer
370
18
48
1
60
0
100
AcDbLine
10
53.855915
20
25.850363
30
0
11
54.020579
21
26.13557
31
0
39
0
210
0
220
0
230
1
0
LINE
5
74
100
AcDbEntity
8
1
62
256
6
ByLayer
370
18
48
1
60
0
100
AcDbLine
10
56.15973
20
25.19752
30
0
11
55.995065
21
24.912313
31
0
39
0
210
0
220
0
230
1
0
LINE
5
75
100
AcDbEntity
8
1
62
256
6
ByLayer
370
18
48
1
60
0
100
AcDbLine
10
57.978455
20
15.313214
30
0
11
58.304849
21
15.985019
31
0
39
0
210
0
220
0
230
1
0
LINE
5
76
100
AcDbEntity
8
1
62
256
6
ByLayer
370
18
48
1
60
0
100
AcDbLine
10
0.3
20
-31.5
30
0
11
22.920792
21
-31.5
31
0
39
0
210
0
220
0
230
1
0
LINE
5
77
100
AcDbEntity
8
1
62
256
6
ByLayer
370
18
48
1
60
0
100
AcDbLine
10
22.920792
20
31.5
30
0
11
0.3
21
31.5
31
0
39
0
210
0
220
0
230
1
0
LINE
5
78
100
AcDbEntity
8
1
62
256
6
ByLayer
370
18
48
1
60
0
100
AcDbLine
10
0.3
20
31.5
30
0
11
0
21
31.2
31
0
39
0
210
0
220
0
230
1
0
LINE
5
79
100
AcDbEntity
8
1
62
256
6
ByLayer
370
18
48
1
60
0
100
AcDbLine
10
0
20
-31.2
30
0
11
0.3
21
-31.5
31
0
39
0
210
0
220
0
230
1
0
LINE
5
7A
100
AcDbEntity
8
1
62
256
6
ByLayer
370
18
48
1
60
0
100
AcDbLine
10
22.960985
20
-31.65
30
0
11
28.779697
21
-31.65
31
0
39
0
210
0
220
0
230
1
0
LINE
5
7B
100
AcDbEntity
8
1
62
256
6
ByLayer
370
18
48
1
60
0
100
AcDbLine
10
22.920792
20
-31.5
30
0
11
22.960985
21
-31.65
31
0
39
0
210
0
220
0
230
1
0
LINE
5
7C
100
AcDbEntity
8
1
62
256
6
ByLayer
370
18
48
1
60
0
100
AcDbLine
10
25.366046
20
30.058112
30
0
11
19.714774
21
27.293203
31
0
39
0
210
0
220
0
230
1
0
LINE
5
7D
100
AcDbEntity
8
1
62
256
6
ByLayer
370
18
48
1
60
0
100
AcDbLine
10
12.514937
20
23.770652
30
0
11
12.030443
21
23.533612
31
0
39
0
210
0
220
0
230
1
0
LINE
5
7E
100
AcDbEntity
8
1
62
256
6
ByLayer
370
18
48
1
60
0
100
AcDbLine
10
23.407056
20
33.31476
30
0
11
22.920792
21
31.5
31
0
39
0
210
0
220
0
230
1
0
LINE
5
7F
100
AcDbEntity
8
1
62
256
6
ByLayer
370
18
48
1
60
0
100
AcDbLine
10
67.357747
20
32.12981
30
0
11
67.941435
21
33.140786
31
0
39
0
210
0
220
0
230
1
0
LINE
5
80
100
AcDbEntity
8
1
62
256
6
ByLayer
370
18
48
1
60
0
100
AcDbLine
10
52.999307
20
41.865689
30
0
11
52.687262
21
41.325211
31
0
39
0
210
0
220
0
230
1
0
LINE
5
81
100
AcDbEntity
8
1
62
256
6
ByLayer
370
18
48
1
60
0
100
AcDbLine
10
57.10926
20
13.665736
30
0
11
57.94302
21
15.243323
31
0
39
0
210
0
220
0
230
1
0
LINE
5
82
100
AcDbEntity
8
1
62
256
6
ByLayer
370
18
48
1
60
0
100
AcDbLine
10
45.316495
20
16.560894
30
0
11
53.879731
21
12.501411
31
0
39
0
210
0
220
0
230
1
0
LINE
5
83
100
AcDbEntity
8
1
62
256
6
ByLayer
370
18
48
1
60
0
100
AcDbLine
10
58.312404
20
23.247645
30
0
11
58.491274
21
23.557458
31
0
39
0
210
0
220
0
230
1
0
LINE
5
84
100
AcDbEntity
8
1
62
256
6
ByLayer
370
18
48
1
60
0
100
AcDbLine
10
51.563071
20
27.557458
30
0
11
51.384201
21
27.247645
31
0
39
0
210
0
220
0
230
1
0
LINE
5
85
100
AcDbEntity
8
1
62
256
6
ByLayer
370
18
48
1
60
0
100
AcDbLine
10
27.333611
20
26.150797
30
0
11
27.441909
21
26.478869
31
0
39
0
210
0
220
0
230
1
0
LINE
5
86
100
AcDbEntity
8
1
62
256
6
ByLayer
370
18
48
1
60
0
100
AcDbLine
10
25.747854
20
29.941394
30
0
11
25.422369
21
30.057236
31
0
39
0
210
0
220
0
230
1
0
LINE
5
87
100
AcDbEntity
8
80
62
256
6
ByLayer
370
18
48
1
60
0
100
AcDbLine
10
0
20
0
30
0
11
-5
21
0
31
0
39
0
210
0
220
0
230
1
0
LINE
5
88
100
AcDbEntity
8
4
62
256
6
ByLayer
370
18
48
0.05
60
0
100
AcDbLine
10
0
20
0
30
0
11
65
21
0
31
0
39
0
210
0
220
0
230
1
0
LINE
5
8A
100
AcDbEntity
8
81
62
256
6
ByLayer
370
18
48
1
60
0
100
AcDbLine
10
65
20
45
30
0
11
75
21
45
31
0
39
0
210
0
220
0
230
1
0
LINE
5
8B
100
AcDbEntity
8
SK4
62
256
6
ByLayer
370
18
48
0.05
60
0
100
AcDbLine
10
-43
20
0
30
0
11
65
21
0
31
0
39
0
210
0
220
0
230
1
0
LINE
5
8D
100
AcDbEntity
8
1
62
256
6
ByLayer
370
18
48
1
60
0
100
AcDbLine
10
58.312404
20
23.247645
30
0
11
58.312463
21
23.247747
31
0
39
0
210
0
220
0
230
1
0
LINE
5
8E
100
AcDbEntity
8
1
62
256
6
ByLayer
370
18
48
1
60
0
100
AcDbLine
10
58.419526
20
40.372607
30
0
11
58.620363
21
40.032164
31
0
39
0
210
0
220
0
230
1
0
LINE
5
8F
100
AcDbEntity
8
1
62
256
6
ByLayer
370
18
48
1
60
0
100
AcDbLine
10
56.831132
20
38.297413
30
0
11
55.92573
21
37.452733
31
0
39
0
210
0
220
0
230
1
0
LINE
5
90
100
AcDbEntity
8
1
62
256
6
ByLayer
370
18
48
1
60
0
100
AcDbLine
10
63.450817
20
35.159289
30
0
11
63.373744
21
33.921932
31
0
39
0
210
0
220
0
230
1
0
LINE
5
91
100
AcDbEntity
8
1
62
256
6
ByLayer
370
18
48
1
60
0
100
AcDbLine
10
64.05899
20
37.699166
30
0
11
63.655353
21
37.64528
31
0
39
0
210
0
220
0
230
1
0
LINE
5
92
100
AcDbEntity
8
1
62
256
6
ByLayer
370
18
48
1
60
0
100
AcDbLine
10
58.156708
20
22.696863
30
0
11
58.900089
21
24.273096
31
0
39
0
210
0
220
0
230
1
0
LINE
5
93
100
AcDbEntity
8
1
62
256
6
ByLayer
370
18
48
1
60
0
100
AcDbLine
10
63.568372
20
39.095153
30
0
11
63.698392
21
38.572925
31
0
39
0
210
0
220
0
230
1
0
LINE
5
94
100
AcDbEntity
8
1
62
256
6
ByLayer
370
18
48
1
60
0
100
AcDbLine
10
63.450817
20
35.159269
30
0
11
63.380171
21
34.362835
31
0
39
0
210
0
220
0
230
1
0
LINE
5
95
100
AcDbEntity
8
1
62
256
6
ByLayer
370
18
48
1
60
0
100
AcDbLine
10
56.261694
20
37.737416
30
0
11
56.831117
21
38.2974
31
0
39
0
210
0
220
0
230
1
0
LINE
5
96
100
AcDbEntity
8
1
62
256
6
ByLayer
370
18
48
1
60
0
100
AcDbLine
10
59.816623
20
40.873705
30
0
11
59.312659
21
40.652023
31
0
39
0
210
0
220
0
230
1
0
LINE
5
97
100
AcDbEntity
8
1
62
256
6
ByLayer
370
18
48
1
60
0
100
AcDbLine
10
22.920792
20
31.5
30
0
11
22.920792
21
31.058563
31
0
39
0
210
0
220
0
230
1
0
LINE
5
98
100
AcDbEntity
8
1
62
256
6
ByLayer
370
18
48
1
60
0
100
AcDbLine
10
22.920792
20
-30.899614
30
0
11
22.920792
21
-31.5
31
0
39
0
210
0
220
0
230
1
0
LINE
5
99
100
AcDbEntity
8
1
62
256
6
ByLayer
370
18
48
1
60
0
100
AcDbLine
10
0.3
20
-31.5
30
0
11
0.3
21
31.5
31
0
39
0
210
0
220
0
230
1
0
LINE
5
9A
100
AcDbEntity
8
1
62
256
6
ByLayer
370
18
48
1
60
0
100
AcDbLine
10
0
20
-31.2
30
0
11
0
21
31.2
31
0
39
0
210
0
220
0
230
1
0
LINE
5
9B
100
AcDbEntity
8
1
62
256
6
ByLayer
370
18
48
1
60
0
100
AcDbLine
10
19.911507
20
22.509414
30
0
11
19.911507
21
-29.985012
31
0
39
0
210
0
220
0
230
1
0
LINE
5
9C
100
AcDbEntity
8
SK1
62
256
6
ByLayer
370
18
48
1
60
0
100
AcDbLine
10
-0.2
20
7.059518
30
0
11
-0.2
21
22.533485
31
0
39
0
210
0
220
0
230
1
0
LINE
5
9E
100
AcDbEntity
8
SK1
62
256
6
ByLayer
370
18
48
1
60
0
100
AcDbLine
10
-0.2
20
-22.533485
30
0
11
-0.2
21
-7.059517
31
0
39
0
210
0
220
0
230
1
0
LINE
5
9F
100
AcDbEntity
8
1
62
256
6
ByLayer
370
18
48
1
60
0
100
AcDbLine
10
24.089177
20
23.187267
30
0
11
24.089177
21
24.553595
31
0
39
0
210
0
220
0
230
1
0
LINE
5
A0
100
AcDbEntity
8
1
62
256
6
ByLayer
370
18
48
1
60
0
100
AcDbLine
10
24.089177
20
29.433362
30
0
11
24.089177
21
33.996289
31
0
39
0
210
0
220
0
230
1
0
LINE
5
A1
100
AcDbEntity
8
1
62
256
6
ByLayer
370
18
48
1
60
0
100
AcDbLine
10
54.595468
20
9.728162
30
0
11
56.556104
21
12.894756
31
0
39
0
210
0
220
0
230
1
0
LINE
5
A2
100
AcDbEntity
8
1
62
256
6
ByLayer
370
18
48
1
60
0
100
AcDbLine
10
57.551079
20
14.501725
30
0
11
58.310443
21
15.728162
31
0
39
0
210
0
220
0
230
1
0
LINE
5
A3
100
AcDbEntity
8
1
62
256
6
ByLayer
370
18
48
1
60
0
100
AcDbLine
10
22.960985
20
-31.65
30
0
11
22.960985
21
-31.054462
31
0
39
0
210
0
220
0
230
1
0
LINE
5
A4
100
AcDbEntity
8
1
62
256
6
ByLayer
370
18
48
1
60
0
100
AcDbLine
10
44.545576
20
24.839386
30
0
11
46.195923
21
24.057024
31
0
39
0
210
0
220
0
230
1
0
LINE
5
A5
100
AcDbEntity
8
1
62
256
6
ByLayer
370
18
48
1
60
0
100
AcDbLine
10
52.766753
20
41.345569
30
0
11
54.119201
21
36.208604
31
0
39
0
210
0
220
0
230
1
0
LINE
5
A6
100
AcDbEntity
8
1
62
256
6
ByLayer
370
18
48
1
60
0
100
AcDbLine
10
66.439938
20
32.353818
30
0
11
63.507401
21
31.602289
31
0
39
0
210
0
220
0
230
1
0
LINE
5
A7
100
AcDbEntity
8
1
62
256
6
ByLayer
370
18
48
1
60
0
100
AcDbLine
10
59.204262
20
17.890298
30
0
11
59.379772
21
17.807096
31
0
39
0
210
0
220
0
230
1
0
LINE
5
A8
100
AcDbEntity
8
1
62
256
6
ByLayer
370
18
48
1
60
0
100
AcDbLine
10
59.379772
20
17.807096
30
0
11
58.454542
21
16.301459
31
0
39
0
210
0
220
0
230
1
0
LINE
5
A9
100
AcDbEntity
8
1
62
256
6
ByLayer
370
18
48
1
60
0
100
AcDbLine
10
63.509021
20
31.619992
30
0
11
64.403725
21
31.84928
31
0
39
0
210
0
220
0
230
1
0
LINE
5
AA
100
AcDbEntity
8
1
62
256
6
ByLayer
370
18
48
1
60
0
100
AcDbLine
10
52.874953
20
41.315408
30
0
11
52.766753
21
41.345569
31
0
39
0
210
0
220
0
230
1
0
LINE
5
AB
100
AcDbEntity
8
1
62
256
6
ByLayer
370
18
48
1
60
0
100
AcDbLine
10
54.245614
20
36.332775
30
0
11
52.921933
21
41.272821
31
0
39
0
210
0
220
0
230
1
0
LINE
5
AC
100
AcDbEntity
8
1
62
256
6
ByLayer
370
18
48
1
60
0
100
AcDbLine
10
67.458339
20
32.775157
30
0
11
63.521865
21
31.766346
31
0
39
0
210
0
220
0
230
1
0
LINE
5
AD
100
AcDbEntity
8
1
62
256
6
ByLayer
370
18
48
1
60
0
100
AcDbLine
10
66.874652
20
31.764181
30
0
11
66.439849
21
31.652753
31
0
39
0
210
0
220
0
230
1
0
LINE
5
AE
100
AcDbEntity
8
1
62
256
6
ByLayer
370
18
48
1
60
0
100
AcDbLine
10
52.895047
20
41.226253
30
0
11
52.921933
21
41.272821
31
0
39
0
210
0
220
0
230
1
0
LINE
5
AF
100
AcDbEntity
8
1
62
256
6
ByLayer
370
18
48
1
60
0
100
AcDbLine
10
19.706007
20
22.408947
30
0
11
27.328801
21
26.138431
31
0
39
0
210
0
220
0
230
1
0
LINE
5
B0
100
AcDbEntity
8
1
62
256
6
ByLayer
370
18
48
1
60
0
100
AcDbLine
10
10.538675
20
9.349221
30
0
11
13.461325
21
9.349221
31
0
39
0
210
0
220
0
230
1
0
LINE
5
B1
100
AcDbEntity
8
1
62
256
6
ByLayer
370
18
48
1
60
0
100
AcDbLine
10
13.461325
20
-30.080593
30
0
11
13.461325
21
-9.349221
31
0
39
0
210
0
220
0
230
1
0
LINE
5
B2
100
AcDbEntity
8
1
62
256
6
ByLayer
370
18
48
1
60
0
100
AcDbLine
10
53.996089
20
9.654832
30
0
11
43.10317
21
14.818722
31
0
39
0
210
0
220
0
230
1
0
LINE
5
B3
100
AcDbEntity
8
1
62
256
6
ByLayer
370
18
48
1
60
0
100
AcDbLine
10
19.911507
20
29.985012
30
0
11
19.911507
21
27.494464
31
0
39
0
210
0
220
0
230
1
0
LINE
5
B4
100
AcDbEntity
8
1
62
256
6
ByLayer
370
18
48
1
60
0
100
AcDbLine
10
29.102755
20
-31.076076
30
0
11
52.532755
21
6.76536
31
0
39
0
210
0
220
0
230
1
0
LINE
5
B5
100
AcDbEntity
8
1
62
256
6
ByLayer
370
18
48
1
60
0
100
AcDbLine
10
66.439938
20
29.19256
30
0
11
59.379772
21
17.807096
31
0
39
0
210
0
220
0
230
1
0
LINE
5
B6
100
AcDbEntity
8
1
62
256
6
ByLayer
370
18
48
1
60
0
100
AcDbLine
10
66.439938
20
29.19256
30
0
11
66.439938
21
29.038276
31
0
39
0
210
0
220
0
230
1
0
LINE
5
B7
100
AcDbEntity
8
1
62
256
6
ByLayer
370
18
48
1
60
0
100
AcDbLine
10
24.089177
20
23.187267
30
0
11
52.532755
21
6.76536
31
0
39
0
210
0
220
0
230
1
0
LINE
5
B8
100
AcDbEntity
8
1
62
256
6
ByLayer
370
18
48
1
60
0
100
AcDbLine
10
10.538675
20
9.349221
30
0
11
10.538675
21
23.997901
31
0
39
0
210
0
220
0
230
1
0
LINE
5
B9
100
AcDbEntity
8
1
62
256
6
ByLayer
370
18
48
1
60
0
100
AcDbLine
10
13.461325
20
30.080593
30
0
11
10.538675
21
30.080593
31
0
39
0
210
0
220
0
230
1
0
LINE
5
BA
100
AcDbEntity
8
1
62
256
6
ByLayer
370
18
48
1
60
0
100
AcDbLine
10
13.461325
20
-9.349221
30
0
11
10.538675
21
-9.349221
31
0
39
0
210
0
220
0
230
1
0
LINE
5
BB
100
AcDbEntity
8
1
62
256
6
ByLayer
370
18
48
1
60
0
100
AcDbLine
10
13.894338
20
-29.913955
30
0
11
13.894338
21
-9.869413
31
0
39
0
210
0
220
0
230
1
0
LINE
5
BC
100
AcDbEntity
8
1
62
256
6
ByLayer
370
18
48
1
60
0
100
AcDbLine
10
10.538675
20
25.9971
30
0
11
10.538675
21
30.080593
31
0
39
0
210
0
220
0
230
1
0
LINE
5
BD
100
AcDbEntity
8
1
62
256
6
ByLayer
370
18
48
1
60
0
100
AcDbLine
10
13.461325
20
25.9971
30
0
11
13.461325
21
30.080593
31
0
39
0
210
0
220
0
230
1
0
LINE
5
BE
100
AcDbEntity
8
1
62
256
6
ByLayer
370
18
48
1
60
0
100
AcDbLine
10
54.254624
20
9.542105
30
0
11
52.532755
21
6.76536
31
0
39
0
210
0
220
0
230
1
0
LINE
5
BF
100
AcDbEntity
8
1
62
256
6
ByLayer
370
18
48
1
60
0
100
AcDbLine
10
44.545576
20
24.839386
30
0
11
44.225158
21
24.178761
31
0
39
0
210
0
220
0
230
1
0
LINE
5
C0
100
AcDbEntity
8
1
62
256
6
ByLayer
370
18
48
1
60
0
100
AcDbLine
10
66.439938
20
29.19256
30
0
11
66.439938
21
32.353818
31
0
39
0
210
0
220
0
230
1
0
LINE
5
C1
100
AcDbEntity
8
1
62
256
6
ByLayer
370
18
48
1
60
0
100
AcDbLine
10
37.061012
20
-18.49973
30
0
11
35.648535
21
-20.76389
31
0
39
0
210
0
220
0
230
1
0
LINE
5
C2
100
AcDbEntity
8
1
62
256
6
ByLayer
370
18
48
1
60
0
100
AcDbLine
10
23.896286
20
23.335512
30
0
11
23.896286
21
-31.076076
31
0
39
0
210
0
220
0
230
1
0
LINE
5
C3
100
AcDbEntity
8
1
62
256
6
ByLayer
370
18
48
1
60
0
100
AcDbLine
10
10.538675
20
-30.080593
30
0
11
13.461325
21
-30.080593
31
0
39
0
210
0
220
0
230
1
0
LINE
5
C4
100
AcDbEntity
8
1
62
256
6
ByLayer
370
18
48
1
60
0
100
AcDbLine
10
10.538675
20
-30.080593
30
0
11
10.538675
21
-9.349221
31
0
39
0
210
0
220
0
230
1
0
LINE
5
C5
100
AcDbEntity
8
1
62
256
6
ByLayer
370
18
48
1
60
0
100
AcDbLine
10
29.102755
20
-31.076076
30
0
11
23.896286
21
-31.076076
31
0
39
0
210
0
220
0
230
1
0
LINE
5
C6
100
AcDbEntity
8
1
62
256
6
ByLayer
370
18
48
1
60
0
100
AcDbLine
10
10.105662
20
9.869413
30
0
11
10.105662
21
24.752055
31
0
39
0
210
0
220
0
230
1
0
LINE
5
C7
100
AcDbEntity
8
1
62
256
6
ByLayer
370
18
48
1
60
0
100
AcDbLine
10
13.894338
20
25.691234
30
0
11
13.894338
21
29.913955
31
0
39
0
210
0
220
0
230
1
0
LINE
5
C8
100
AcDbEntity
8
1
62
256
6
ByLayer
370
18
48
1
60
0
100
AcDbLine
10
13.461325
20
9.349221
30
0
11
13.461325
21
23.997901
31
0
39
0
210
0
220
0
230
1
0
LINE
5
C9
100
AcDbEntity
8
1
62
256
6
ByLayer
370
18
48
1
60
0
100
AcDbLine
10
13.894338
20
9.869413
30
0
11
13.894338
21
24.752055
31
0
39
0
210
0
220
0
230
1
0
LINE
5
CA
100
AcDbEntity
8
1
62
256
6
ByLayer
370
18
48
1
60
0
100
AcDbLine
10
66.439938
20
32.465349
30
0
11
65.138718
21
32.131882
31
0
39
0
210
0
220
0
230
1
0
LINE
5
CB
100
AcDbEntity
8
1
62
256
6
ByLayer
370
18
48
1
60
0
100
AcDbLine
10
66.439938
20
32.465349
30
0
11
66.439938
21
32.353818
31
0
39
0
210
0
220
0
230
1
0
LINE
5
CC
100
AcDbEntity
8
1
62
256
6
ByLayer
370
18
48
1
60
0
100
AcDbLine
10
10.105662
20
25.691234
30
0
11
10.105662
21
29.913955
31
0
39
0
210
0
220
0
230
1
0
LINE
5
CD
100
AcDbEntity
8
1
62
256
6
ByLayer
370
18
48
1
60
0
100
AcDbLine
10
54.382228
20
9.745309
30
0
11
55.686946
21
11.823953
31
0
39
0
210
0
220
0
230
1
0
LINE
5
CE
100
AcDbEntity
8
1
62
256
6
ByLayer
370
18
48
1
60
0
100
AcDbLine
10
19.63874
20
22.812103
30
0
11
19.754732
21
22.116683
31
0
39
0
210
0
220
0
230
1
0
LINE
5
CF
100
AcDbEntity
8
1
62
256
6
ByLayer
370
18
48
1
60
0
100
AcDbLine
10
52.766753
20
41.345569
30
0
11
24.089177
21
33.996289
31
0
39
0
210
0
220
0
230
1
0
LINE
5
D0
100
AcDbEntity
8
1
62
256
6
ByLayer
370
18
48
1
60
0
100
AcDbLine
10
10.105662
20
-29.913955
30
0
11
10.105662
21
-9.869413
31
0
39
0
210
0
220
0
230
1
0
LINE
5
D1
100
AcDbEntity
8
SK1
62
256
6
ByLayer
370
18
48
1
60
0
100
AcDbLine
10
-1.307107
20
-4.811013
30
0
11
-1.307107
21
4.811013
31
0
39
0
210
0
220
0
230
1
0
LINE
5
D2
100
AcDbEntity
8
1
62
256
6
ByLayer
370
18
48
1
60
0
100
AcDbLine
10
66.874652
20
31.764181
30
0
11
67.458339
21
32.775157
31
0
39
0
210
0
220
0
230
1
0
LINE
5
D3
100
AcDbEntity
8
1
62
256
6
ByLayer
370
18
48
1
60
0
100
AcDbLine
10
55.982733
20
24.517471
30
0
11
56.148136
21
24.803956
31
0
39
0
210
0
220
0
230
1
0
LINE
5
D4
100
AcDbEntity
8
1
62
256
6
ByLayer
370
18
48
1
60
0
100
AcDbLine
10
55.140467
20
26.716844
30
0
11
55.30587
21
27.00333
31
0
39
0
210
0
220
0
230
1
0
LINE
5
D5
100
AcDbEntity
8
1
62
256
6
ByLayer
370
18
48
1
60
0
100
AcDbLine
10
53.588541
20
25.65246
30
0
11
53.753944
21
25.938945
31
0
39
0
210
0
220
0
230
1
0
LINE
5
D6
100
AcDbEntity
8
1
62
256
6
ByLayer
370
18
48
1
60
0
100
AcDbLine
10
56.19771
20
25.852976
30
0
11
56.363113
21
26.139462
31
0
39
0
210
0
220
0
230
1
0
LINE
5
D7
100
AcDbEntity
8
1
62
256
6
ByLayer
370
18
48
1
60
0
100
AcDbLine
10
54.482154
20
26.666252
30
0
11
54.647557
21
26.952738
31
0
39
0
210
0
220
0
230
1
0
LINE
5
D8
100
AcDbEntity
8
1
62
256
6
ByLayer
370
18
48
1
60
0
100
AcDbLine
10
55.819103
20
26.39513
30
0
11
55.984506
21
26.681616
31
0
39
0
210
0
220
0
230
1
0
LINE
5
D9
100
AcDbEntity
8
1
62
256
6
ByLayer
370
18
48
1
60
0
100
AcDbLine
10
55.621936
20
17.222379
30
0
11
54.176333
21
14.246951
31
0
39
0
210
0
220
0
230
1
0
LINE
5
DA
100
AcDbEntity
8
1
62
256
6
ByLayer
370
18
48
1
60
0
100
AcDbLine
10
55.155431
20
36.601316
30
0
11
55.915035
21
37.348329
31
0
39
0
210
0
220
0
230
1
0
LINE
5
DB
100
AcDbEntity
8
1
62
256
6
ByLayer
370
18
48
1
60
0
100
AcDbLine
10
58.297545
20
22.936127
30
0
11
58.037448
21
22.443989
31
0
39
0
210
0
220
0
230
1
0
LINE
5
DC
100
AcDbEntity
8
1
62
256
6
ByLayer
370
18
48
1
60
0
100
AcDbLine
10
45.845191
20
16.356606
30
0
11
46.622726
21
17.827809
31
0
39
0
210
0
220
0
230
1
0
LINE
5
DD
100
AcDbEntity
8
1
62
256
6
ByLayer
370
18
48
1
60
0
100
AcDbLine
10
55.621936
20
17.222379
30
0
11
54.194341
21
17.899144
31
0
39
0
210
0
220
0
230
1
0
LINE
5
DE
100
AcDbEntity
8
1
62
256
6
ByLayer
370
18
48
1
60
0
100
AcDbLine
10
55.915035
20
37.348329
30
0
11
55.930569
21
37.368752
31
0
39
0
210
0
220
0
230
1
0
LINE
5
DF
100
AcDbEntity
8
1
62
256
6
ByLayer
370
18
48
1
60
0
100
AcDbLine
10
63.014595
20
26.045858
30
0
11
63.563176
21
32.230384
31
0
39
0
210
0
220
0
230
1
0
LINE
5
E0
100
AcDbEntity
8
1
62
256
6
ByLayer
370
18
48
1
60
0
100
AcDbLine
10
44.204308
20
19.955393
30
0
11
45.020958
21
21.500605
31
0
39
0
210
0
220
0
230
1
0
LINE
5
E1
100
AcDbEntity
8
1
62
256
6
ByLayer
370
18
48
1
60
0
100
AcDbLine
10
50.798151
20
26.491285
30
0
11
51.665277
21
28.328878
31
0
39
0
210
0
220
0
230
1
0
LINE
5
E2
100
AcDbEntity
8
1
62
256
6
ByLayer
370
18
48
1
60
0
100
AcDbLine
10
63.308846
20
33.871011
30
0
11
63.303301
21
33.845852
31
0
39
0
210
0
220
0
230
1
0
LINE
5
E3
100
AcDbEntity
8
1
62
256
6
ByLayer
370
18
48
1
60
0
100
AcDbLine
10
53.398797
20
12.775748
30
0
11
54.176333
21
14.246951
31
0
39
0
210
0
220
0
230
1
0
LINE
5
E4
100
AcDbEntity
8
1
62
256
6
ByLayer
370
18
48
1
60
0
100
AcDbLine
10
49.02021
20
19.147325
30
0
11
49.495926
21
20.126471
31
0
39
0
210
0
220
0
230
1
0
LINE
5
E5
100
AcDbEntity
8
1
62
256
6
ByLayer
370
18
48
1
60
0
100
AcDbLine
10
49.495926
20
20.126471
30
0
11
48.06833
21
20.803236
31
0
39
0
210
0
220
0
230
1
0
LINE
5
E6
100
AcDbEntity
8
1
62
256
6
ByLayer
370
18
48
1
60
0
100
AcDbLine
10
62.047665
20
23.915902
30
0
11
58.331332
21
16.040338
31
0
39
0
210
0
220
0
230
1
0
LINE
5
E7
100
AcDbEntity
8
1
62
256
6
ByLayer
370
18
48
1
60
0
100
AcDbLine
10
62.318939
20
24.494825
30
0
11
63.014595
21
26.045858
31
0
39
0
210
0
220
0
230
1
0
LINE
5
E8
100
AcDbEntity
8
1
62
256
6
ByLayer
370
18
48
1
60
0
100
AcDbLine
10
45.25009
20
22.119439
30
0
11
46.282466
21
24.234384
31
0
39
0
210
0
220
0
230
1
0
LINE
5
E9
100
AcDbEntity
8
1
62
256
6
ByLayer
370
18
48
1
60
0
100
AcDbLine
10
54.766288
20
19.141416
30
0
11
53.718625
21
16.919997
31
0
39
0
210
0
220
0
230
1
0
LINE
5
EA
100
AcDbEntity
8
1
62
256
6
ByLayer
370
18
48
1
60
0
100
AcDbLine
10
53.398797
20
12.775748
30
0
11
45.845191
21
16.356606
31
0
39
0
210
0
220
0
230
1
0
LINE
5
EB
100
AcDbEntity
8
1
62
256
6
ByLayer
370
18
48
1
60
0
100
AcDbLine
10
49.344084
20
30.645677
30
0
11
50.03974
21
32.19671
31
0
39
0
210
0
220
0
230
1
0
LINE
5
EC
100
AcDbEntity
8
1
62
256
6
ByLayer
370
18
48
1
60
0
100
AcDbLine
10
46.282466
20
24.234384
30
0
11
50.03974
21
32.19671
31
0
39
0
210
0
220
0
230
1
0
LINE
5
ED
100
AcDbEntity
8
1
62
256
6
ByLayer
370
18
48
1
60
0
100
AcDbLine
10
45.821346
20
21.378488
30
0
11
49.891164
21
30.003147
31
0
39
0
210
0
220
0
230
1
0
LINE
5
EE
100
AcDbEntity
8
1
62
256
6
ByLayer
370
18
48
1
60
0
100
AcDbLine
10
59.164671
20
24.77372
30
0
11
58.297545
21
22.936127
31
0
39
0
210
0
220
0
230
1
0
LINE
5
EF
100
AcDbEntity
8
1
62
256
6
ByLayer
370
18
48
1
60
0
100
AcDbLine
10
45.356477
20
22.191189
30
0
11
45.020958
21
21.500605
31
0
39
0
210
0
220
0
230
1
0
LINE
5
F0
100
AcDbEntity
8
1
62
256
6
ByLayer
370
18
48
1
60
0
100
AcDbLine
10
53.718625
20
16.919997
30
0
11
54.194341
21
17.899144
31
0
39
0
210
0
220
0
230
1
0
LINE
5
F1
100
AcDbEntity
8
1
62
256
6
ByLayer
370
18
48
1
60
0
100
AcDbLine
10
55.051596
20
19.681257
30
0
11
54.766288
21
19.141416
31
0
39
0
210
0
220
0
230
1
0
LINE
5
F2
100
AcDbEntity
8
1
62
256
6
ByLayer
370
18
48
1
60
0
100
AcDbLine
10
57.453534
20
15.86414
30
0
11
61.523351
21
24.4888
31
0
39
0
210
0
220
0
230
1
0
LINE
5
F3
100
AcDbEntity
8
1
62
256
6
ByLayer
370
18
48
1
60
0
100
AcDbLine
10
48.06833
20
20.803236
30
0
11
46.622726
21
17.827809
31
0
39
0
210
0
220
0
230
1
0
LINE
5
F4
100
AcDbEntity
8
1
62
256
6
ByLayer
370
18
48
1
60
0
100
AcDbLine
10
54.461465
20
36.545135
30
0
11
50.03974
21
32.19671
31
0
39
0
210
0
220
0
230
1
0
LINE
5
F5
100
AcDbEntity
8
1
62
256
6
ByLayer
370
18
48
1
60
0
100
AcDbLine
10
63.303301
20
33.845852
30
0
11
63.20906
21
32.783417
31
0
39
0
210
0
220
0
230
1
0
LINE
5
F6
100
AcDbEntity
8
1
62
256
6
ByLayer
370
18
48
1
60
0
100
AcDbLine
10
49.02021
20
19.147325
30
0
11
53.718625
21
16.919997
31
0
39
0
210
0
220
0
230
1
0
LINE
5
F7
100
AcDbEntity
8
1
62
256
6
ByLayer
370
18
48
1
60
0
100
AcDbLine
10
45.356477
20
22.191189
30
0
11
49.07281
21
30.066754
31
0
39
0
210
0
220
0
230
1
0
LINE
5
F8
100
AcDbEntity
8
1
62
256
6
ByLayer
370
18
48
1
60
0
100
AcDbLine
10
54.176333
20
14.246951
30
0
11
46.622726
21
17.827809
31
0
39
0
210
0
220
0
230
1
0
LINE
5
F9
100
AcDbEntity
8
1
62
256
6
ByLayer
370
18
48
1
60
0
100
AcDbLine
10
59.164671
20
24.77372
30
0
11
58.900089
21
24.273096
31
0
39
0
210
0
220
0
230
1
0
LINE
5
FA
100
AcDbEntity
8
1
62
256
6
ByLayer
370
18
48
1
60
0
100
AcDbLine
10
63.984957
20
34.687877
30
0
11
63.86528
21
34.589285
31
0
39
0
210
0
220
0
230
1
0
LINE
5
FB
100
AcDbEntity
8
1
62
256
6
ByLayer
370
18
48
1
60
0
100
AcDbLine
10
56.71007
20
39.604367
30
0
11
56.144073
21
38.404921
31
0
39
0
210
0
220
0
230
1
0
LINE
5
FC
100
AcDbEntity
8
1
62
256
6
ByLayer
370
18
48
1
60
0
100
AcDbLine
10
63.684605
20
34.334439
30
0
11
63.993006
21
33.288711
31
0
39
0
210
0
220
0
230
1
0
LINE
5
FD
100
AcDbEntity
8
1
62
256
6
ByLayer
370
18
48
1
60
0
100
AcDbLine
10
56.144073
20
38.404921
30
0
11
56.143957
21
38.24965
31
0
39
0
210
0
220
0
230
1
0
LINE
5
FE
100
AcDbEntity
8
1
62
256
6
ByLayer
370
18
48
1
60
0
100
AcDbLine
10
56.143957
20
38.24965
30
0
11
58.419526
21
40.372607
31
0
39
0
210
0
220
0
230
1
0
LINE
5
FF
100
AcDbEntity
8
1
62
256
6
ByLayer
370
18
48
1
60
0
100
AcDbLine
10
57.841503
20
41.48825
30
0
11
55.722238
21
39.742361
31
0
39
0
210
0
220
0
230
1
0
LINE
5
100
100
AcDbEntity
8
1
62
256
6
ByLayer
370
18
48
1
60
0
100
AcDbLine
10
58.674938
20
41.223062
30
0
11
57.841503
21
41.48825
31
0
39
0
210
0
220
0
230
1
0
LINE
5
101
100
AcDbEntity
8
1
62
256
6
ByLayer
370
18
48
1
60
0
100
AcDbLine
10
55.722238
20
39.742361
30
0
11
54.98572
21
38.181549
31
0
39
0
210
0
220
0
230
1
0
LINE
5
102
100
AcDbEntity
8
1
62
256
6
ByLayer
370
18
48
1
60
0
100
AcDbLine
10
63.993006
20
33.288711
30
0
11
64.472905
21
33.68406
31
0
39
0
210
0
220
0
230
1
0
LINE
5
103
100
AcDbEntity
8
1
62
256
6
ByLayer
370
18
48
1
60
0
100
AcDbLine
10
64.550953
20
35.887323
30
0
11
63.984957
21
34.687877
31
0
39
0
210
0
220
0
230
1
0
LINE
5
104
100
AcDbEntity
8
1
62
256
6
ByLayer
370
18
48
1
60
0
100
AcDbLine
10
65.209423
20
35.244872
30
0
11
64.472905
21
33.68406
31
0
39
0
210
0
220
0
230
1
0
LINE
5
105
100
AcDbEntity
8
1
62
256
6
ByLayer
370
18
48
1
60
0
100
AcDbLine
10
63.86528
20
34.589285
30
0
11
64.05899
21
37.699166
31
0
39
0
210
0
220
0
230
1
0
LINE
5
106
100
AcDbEntity
8
1
62
256
6
ByLayer
370
18
48
1
60
0
100
AcDbLine
10
58.94191
20
41.422599
30
0
11
60.410993
21
41.665268
31
0
39
0
210
0
220
0
230
1
0
LINE
5
107
100
AcDbEntity
8
1
62
256
6
ByLayer
370
18
48
1
60
0
100
AcDbLine
10
64.552862
20
38.436577
30
0
11
65.211482
21
37.994442
31
0
39
0
210
0
220
0
230
1
0
LINE
5
108
100
AcDbEntity
8
1
62
256
6
ByLayer
370
18
48
1
60
0
100
AcDbLine
10
56.056401
20
37.950661
30
0
11
54.985253
21
37.55892
31
0
39
0
210
0
220
0
230
1
0
LINE
5
109
100
AcDbEntity
8
1
62
256
6
ByLayer
370
18
48
1
60
0
100
AcDbLine
10
63.684605
20
34.334439
30
0
11
63.86528
21
34.589285
31
0
39
0
210
0
220
0
230
1
0
LINE
5
10A
100
AcDbEntity
8
1
62
256
6
ByLayer
370
18
48
1
60
0
100
AcDbLine
10
64.472905
20
33.68406
30
0
11
63.984957
21
34.687877
31
0
39
0
210
0
220
0
230
1
0
LINE
5
10B
100
AcDbEntity
8
1
62
256
6
ByLayer
370
18
48
1
60
0
100
AcDbLine
10
64.550953
20
35.887323
30
0
11
65.209423
21
35.244872
31
0
39
0
210
0
220
0
230
1
0
LINE
5
10C
100
AcDbEntity
8
1
62
256
6
ByLayer
370
18
48
1
60
0
100
AcDbLine
10
54.985253
20
37.55892
30
0
11
54.98572
21
38.181549
31
0
39
0
210
0
220
0
230
1
0
LINE
5
10D
100
AcDbEntity
8
1
62
256
6
ByLayer
370
18
48
1
60
0
100
AcDbLine
10
56.144073
20
38.404921
30
0
11
54.98572
21
38.181549
31
0
39
0
210
0
220
0
230
1
0
LINE
5
10E
100
AcDbEntity
8
1
62
256
6
ByLayer
370
18
48
1
60
0
100
AcDbLine
10
64.552862
20
38.436577
30
0
11
64.550953
21
35.887323
31
0
39
0
210
0
220
0
230
1
0
LINE
5
10F
100
AcDbEntity
8
1
62
256
6
ByLayer
370
18
48
1
60
0
100
AcDbLine
10
60.410993
20
41.665268
30
0
11
59.947649
21
42.443248
31
0
39
0
210
0
220
0
230
1
0
LINE
5
110
100
AcDbEntity
8
1
62
256
6
ByLayer
370
18
48
1
60
0
100
AcDbLine
10
58.674938
20
41.223062
30
0
11
56.71007
21
39.604367
31
0
39
0
210
0
220
0
230
1
0
LINE
5
111
100
AcDbEntity
8
1
62
256
6
ByLayer
370
18
48
1
60
0
100
AcDbLine
10
63.792576
20
40.062197
30
0
11
64.611899
21
40.232116
31
0
39
0
210
0
220
0
230
1
0
LINE
5
112
100
AcDbEntity
8
1
62
256
6
ByLayer
370
18
48
1
60
0
100
AcDbLine
10
65.211482
20
37.994442
30
0
11
65.209423
21
35.244872
31
0
39
0
210
0
220
0
230
1
0
LINE
5
113
100
AcDbEntity
8
1
62
256
6
ByLayer
370
18
48
1
60
0
100
AcDbLine
10
56.71007
20
39.604367
30
0
11
55.722238
21
39.742361
31
0
39
0
210
0
220
0
230
1
0
LINE
5
114
100
AcDbEntity
8
1
62
256
6
ByLayer
370
18
48
1
60
0
100
AcDbLine
10
56.143957
20
38.24965
30
0
11
56.056401
21
37.950661
31
0
39
0
210
0
220
0
230
1
0
LINE
5
115
100
AcDbEntity
8
1
62
256
6
ByLayer
370
18
48
1
60
0
100
AcDbLine
10
64.537389
20
38.77001
30
0
11
63.792576
21
40.062197
31
0
39
0
210
0
220
0
230
1
0
LINE
5
116
100
AcDbEntity
8
1
62
256
6
ByLayer
370
18
48
1
60
0
100
AcDbLine
10
65.158438
20
44.408703
30
0
11
68.018808
21
33.733654
31
0
39
0
210
0
220
0
230
1
0
LINE
5
117
100
AcDbEntity
8
1
62
256
6
ByLayer
370
18
48
1
60
0
100
AcDbLine
10
53.482402
20
42.231317
30
0
11
64.189344
21
44.975214
31
0
39
0
210
0
220
0
230
1
0
MTEXT
5
1F0
100
AcDbEntity
8
SK6
62
256
6
ByLayer
370
18
48
1
60
0
100
AcDbMText
10
-6.602185
20
-42.45
30
0
210
0
220
0
230
1
1
\W0.7351;C6-CSKNR-45065-12-4
40
3.5
41
0
44
1.084337
50
0
71
7
72
5
7
iso_b_vert
0
DIMENSION
5
20F
100
AcDbEntity
8
2
62
256
6
ByLayer
370
13
48
1
60
0
100
AcDbDimension
2
DimnDraft3D2
10
65
20
45
30
0
11
85.195479
21
29.503464
31
0
70
34
71
5
72
1
41
1
210
0
220
0
230
1
3
Standard
100
AcDb2LineAngularDimension
13
65
23
45
33
0
14
67.027131
24
37.434643
34
0
15
63.4125
25
45
35
0
16
88.765569
26
26.764038
36
0
40
0
0
DIMENSION
5
225
100
AcDbEntity
8
SK2
62
256
6
ByLayer
370
13
48
1
60
0
100
AcDbDimension
2
DimnDraft3D3
10
-45.75
20
31.5
30
0
11
-45.75
21
-2.688158
31
0
70
32
71
5
72
1
41
1
210
0
220
0
230
1
3
Standard
100
AcDbAlignedDimension
13
-2
23
-31.5
33
0
14
-2
24
31.5
34
0
50
90
100
AcDbRotatedDimension
1001
ACAD
1000
DSTYLE
1002
{
1070
    74
1070
     0
1070
   279
1070
     0
1070
   172
1070
     1
1070
   173
1070
     1
1070
   340
1005
1F1
1070
    77
1070
     1
1070
    73
1070
     0
1070
   171
1070
     3
1070
   274
1070
     4
1070
   177
1070
     2
1070
   176
1070
     2
1070
   178
1070
     7
1070
    78
1070
     8
1070
    41
1041
3.175
1070
   147
1041
2.25
1070
    42
1041
2.0
1070
    44
1041
2.0
1070
   140
1041
4.5
1070
   343
1005
210
1070
   344
1005
210
1002
}
0
DIMENSION
5
233
100
AcDbEntity
8
2
62
256
6
ByLayer
370
13
48
1
60
0
100
AcDbDimension
2
DimnDraft3D4
10
105.25
20
45
30
0
11
105.25
21
16.981579
31
0
70
32
71
5
72
1
41
1
210
0
220
0
230
1
3
Standard
100
AcDbAlignedDimension
13
67
23
0
33
0
14
67
24
45
34
0
50
90
100
AcDbRotatedDimension
1001
ACAD
1000
DSTYLE
1002
{
1070
    74
1070
     0
1070
   279
1070
     0
1070
   172
1070
     1
1070
   173
1070
     1
1070
   340
1005
1F1
1070
    77
1070
     1
1070
    73
1070
     0
1070
   171
1070
     3
1070
   274
1070
     4
1070
   177
1070
     2
1070
   176
1070
     2
1070
   178
1070
     7
1070
    78
1070
     8
1070
    41
1041
3.175
1070
   147
1041
2.25
1070
    42
1041
2.0
1070
    44
1041
2.0
1070
   140
1041
4.5
1070
   343
1005
210
1070
   344
1005
210
1002
}
0
ENDSEC
0
SECTION
2
OBJECTS
0
DICTIONARY
5
29e
330
0
100
AcDbDictionary
280
0
281
1
3
ACAD_GROUP
350
29f
3
ACAD_MLINESTYLE
350
2a0
0
DICTIONARY
5
29f
330
0
100
AcDbDictionary
280
0
281
1
0
DICTIONARY
5
2a0
330
0
100
AcDbDictionary
280
0
281
1
3
Standard
350
18
0
MLINESTYLE
5
18
330
2a0
100
AcDbMlineStyle
2
Standard
70
0
3

62
256
51
90
52
90
71
2
49
-0.5
62
256
6
ByLayer
49
0.5
62
256
6
ByLayer
0
RASTERVARIABLES
5
28c
330

100
AcDbRasterVariables
90
0
70
1
71
1
72
1
0
ENDSEC
0
EOF
