0
SECTION
2
HEADER
9
$ACADVER
1
AC1015
9
$DWGCODEPAGE
3
ANSI_1252
9
$HANDSEED
5
201
9
$ANGBASE
50
0
9
$ANGDIR
70
0
9
$ATTMODE
70
1
9
$AUNITS
70
0
9
$AUPREC
70
0
9
$CECOLOR
62
256
9
$CELTSCALE
40
1
9
$CELTYPE
6
ByLayer
9
$CELWEIGHT
370
18
9
$CLAYER
8
0
9
$CMLJUST
70
0
9
$CMLSCALE
40
1
9
$CMLSTYLE
2
Standard
9
$DIMSTYLE
2
Standard
9
$TEXTSIZE
40
0.2
9
$TEXTSTYLE
7
Standard
9
$LUNITS
70
2
9
$LUPREC
70
4
9
$EXTNAMES
290
1
9
$INSUNITS
70
4
9
$LTSCALE
40
1
9
$LWDISPLAY
290
1
9
$PDMODE
70
0
9
$PDSIZE
40
0
9
$PLINEGEN
70
0
0
ENDSEC
0
SECTION
2
CLASSES
0
CLASS
1
RASTERVARIABLES
2
AcDbRasterVariables
3
ISM
90
0
280
0
281
0
0
ENDSEC
0
SECTION
2
TABLES
0
TABLE
2
VPORT
5
1f7
100
AcDbSymbolTable
0
VPORT
5
1
100
AcDbSymbolTableRecord
100
AcDbViewportTableRecord
2
*Active
70
0
10
0
20
0
11
1
21
1
12
-1
22
1
13
0
23
0
14
0.5
24
0.5
15
10
25
10
16
0
26
0
36
1
17
0
27
0
37
0
0
ENDTAB
0
TABLE
2
LTYPE
5
1f8
100
AcDbSymbolTable
0
LTYPE
5
14
100
AcDbSymbolTableRecord
100
AcDbLinetypeTableRecord
70
0
2
ByBlock
3

72
65
73
0
40
0
0
LTYPE
5
15
100
AcDbSymbolTableRecord
100
AcDbLinetypeTableRecord
70
0
2
ByLayer
3

72
65
73
0
40
0
0
LTYPE
5
16
100
AcDbSymbolTableRecord
100
AcDbLinetypeTableRecord
70
0
2
CONTINUOUS
3
Solid line
72
65
73
0
40
0
0
LTYPE
5
6A
100
AcDbSymbolTableRecord
100
AcDbLinetypeTableRecord
70
0
2
CENTER
3
____ _ ____ _ ____ _ ____
72
65
73
4
40
47.5
49
22
74
0
49
-8.5
74
0
49
8.5
74
0
49
-8.5
74
0
0
LTYPE
5
6B
100
AcDbSymbolTableRecord
100
AcDbLinetypeTableRecord
70
0
2
DASHED
3
__ __ __ __ __ __ __ __ __
72
65
73
2
40
25.72
49
12.86
74
0
49
-12.86
74
0
0
ENDTAB
0
TABLE
2
LAYER
5
1f9
100
AcDbSymbolTable
0
LAYER
5
10
100
AcDbSymbolTableRecord
100
AcDbLayerTableRecord
2
0
70
0
62
7
6
CONTINUOUS
290
1
370
-3
390
0
0
LAYER
5
6D
100
AcDbSymbolTableRecord
100
AcDbLayerTableRecord
2
80
70
0
62
-6
6
CONTINUOUS
290
1
370
-3
390
0
0
LAYER
5
6F
100
AcDbSymbolTableRecord
100
AcDbLayerTableRecord
2
81
70
0
62
-3
6
CONTINUOUS
290
1
370
-3
390
0
0
LAYER
5
71
100
AcDbSymbolTableRecord
100
AcDbLayerTableRecord
2
1
70
0
62
4
6
CONTINUOUS
290
1
370
-3
390
0
0
LAYER
5
162
100
AcDbSymbolTableRecord
100
AcDbLayerTableRecord
2
2
70
0
62
7
6
CONTINUOUS
290
1
370
-3
390
0
0
LAYER
5
1e4
100
AcDbSymbolTableRecord
100
AcDbLayerTableRecord
2
SK1
70
0
62
4
6
CONTINUOUS
290
1
370
-3
390
0
0
LAYER
5
1e5
100
AcDbSymbolTableRecord
100
AcDbLayerTableRecord
2
SK6
70
0
62
5
6
CONTINUOUS
290
1
370
-3
390
0
0
LAYER
5
1e6
100
AcDbSymbolTableRecord
100
AcDbLayerTableRecord
2
SK2
70
0
62
7
6
CONTINUOUS
290
1
370
-3
390
0
0
ENDTAB
0
TABLE
2
STYLE
5
1fa
100
AcDbSymbolTable
0
STYLE
5
11
100
AcDbSymbolTableRecord
100
AcDbTextStyleTableRecord
2
Standard
3
txt
70
0
71
0
40
0
41
1
42
0
50
0
0
STYLE
5
147
100
AcDbSymbolTableRecord
100
AcDbTextStyleTableRecord
2
iso_b_vert
3
simplex.shx
70
0
71
0
40
0
41
1
42
0
50
0
0
STYLE
5
148
100
AcDbSymbolTableRecord
100
AcDbTextStyleTableRecord
2
DWGDirectTextStyle
3
simplex
70
0
71
0
40
0
41
1
42
0
50
0
0
ENDTAB
0
TABLE
2
DIMSTYLE
5
1fb
100
AcDbSymbolTable
100
AcDbDimStyleTable
0
DIMSTYLE
105
27
100
AcDbSymbolTableRecord
100
AcDbDimStyleTableRecord
2
Standard
70
0
3
<>
41
0.18
42
0.0625
44
0.18
140
0.18
147
0.09
73
0
74
0
77
1
271
2
275
0
278
52
280
0
340
11
0
ENDTAB
0
TABLE
2
VIEW
5
1fc
100
AcDbSymbolTable
0
ENDTAB
0
TABLE
2
UCS
5
1fd
100
AcDbSymbolTable
0
ENDTAB
0
TABLE
2
APPID
5
1fe
100
AcDbSymbolTable
0
APPID
5
12
100
AcDbSymbolTableRecord
100
AcDbRegAppTableRecord
2
ACAD
70
0
0
ENDTAB
0
TABLE
2
BLOCK_RECORD
5
1ff
100
AcDbSymbolTable
0
BLOCK_RECORD
5
1F
100
AcDbSymbolTableRecord
100
AcDbBlockTableRecord
2
*Model_Space
340
0
70
0
0
BLOCK_RECORD
5
1B
100
AcDbSymbolTableRecord
100
AcDbBlockTableRecord
2
*Paper_Space
340
0
70
0
0
BLOCK_RECORD
5
23
100
AcDbSymbolTableRecord
100
AcDbBlockTableRecord
2
*Paper_Space0
340
0
70
0
0
BLOCK_RECORD
5
14A
100
AcDbSymbolTableRecord
100
AcDbBlockTableRecord
2
DimnDraft3D1
340
0
70
0
0
BLOCK_RECORD
5
159
100
AcDbSymbolTableRecord
100
AcDbBlockTableRecord
2
_CLOSED
340
0
70
0
0
BLOCK_RECORD
5
160
100
AcDbSymbolTableRecord
100
AcDbBlockTableRecord
2
DimnDraft3D2
340
0
70
0
0
BLOCK_RECORD
5
16F
100
AcDbSymbolTableRecord
100
AcDbBlockTableRecord
2
DimnDraft3D3
340
0
70
0
0
BLOCK_RECORD
5
17D
100
AcDbSymbolTableRecord
100
AcDbBlockTableRecord
2
DimnDraft3D4
340
0
70
0
0
ENDTAB
0
ENDSEC
0
SECTION
2
BLOCKS
0
BLOCK
5
20
100
AcDbEntity
8
0
100
AcDbBlockBegin
2
*Model_Space
70
0
10
0
20
0
30
0
3
*Model_Space
0
ENDBLK
5
21
100
AcDbEntity
8
0
100
AcDbBlockEnd
0
BLOCK
5
1C
100
AcDbEntity
8
0
100
AcDbBlockBegin
2
*Paper_Space
70
0
10
0
20
0
30
0
3
*Paper_Space
0
ENDBLK
5
1D
100
AcDbEntity
8
0
100
AcDbBlockEnd
0
BLOCK
5
24
100
AcDbEntity
8
0
100
AcDbBlockBegin
2
*Paper_Space0
70
0
10
0
20
0
30
0
3
*Paper_Space0
0
ENDBLK
5
25
100
AcDbEntity
8
0
100
AcDbBlockEnd
0
BLOCK
5
156
100
AcDbEntity
8
0
100
AcDbBlockBegin
2
DimnDraft3D1
70
0
10
0
20
0
30
0
3
DimnDraft3D1
0
MTEXT
5
14B
100
AcDbEntity
8
SK2
62
256
6
ByLayer
370
13
48
1
60
0
100
AcDbMText
10
-45.975
20
-4.156579
30
0
210
0
220
0
230
1
1
\W0.7346;63.0
40
4.5
41
0
44
1.084337
50
90
71
7
72
5
7
iso_b_vert
0
LINE
5
14D
100
AcDbEntity
8
SK2
62
256
6
ByLayer
370
13
48
1
60
0
100
AcDbLine
10
-1.5875
20
31.5
30
0
11
-48.025
21
31.5
31
0
39
0
210
0
220
0
230
1
0
LINE
5
14E
100
AcDbEntity
8
SK2
62
256
6
ByLayer
370
13
48
1
60
0
100
AcDbLine
10
-1.5875
20
-31.5
30
0
11
-48.025
21
-31.5
31
0
39
0
210
0
220
0
230
1
0
LINE
5
14F
100
AcDbEntity
8
SK2
62
256
6
ByLayer
370
13
48
1
60
0
100
AcDbLine
10
-44.85
20
31.5
30
0
11
-44.85
21
-31.5
31
0
39
0
210
0
220
0
230
1
0
LINE
5
150
100
AcDbEntity
8
SK2
62
256
6
ByLayer
370
13
48
1
60
0
100
AcDbLine
10
-44.85
20
31.5
30
0
11
-43.999261
21
28.325003
31
0
39
0
210
0
220
0
230
1
0
LINE
5
151
100
AcDbEntity
8
SK2
62
256
6
ByLayer
370
13
48
1
60
0
100
AcDbLine
10
-44.85
20
31.5
30
0
11
-45.700739
21
28.324997
31
0
39
0
210
0
220
0
230
1
0
LINE
5
152
100
AcDbEntity
8
SK2
62
256
6
ByLayer
370
13
48
1
60
0
100
AcDbLine
10
-43.999261
20
28.325003
30
0
11
-45.700739
21
28.324997
31
0
39
0
210
0
220
0
230
1
0
LINE
5
153
100
AcDbEntity
8
SK2
62
256
6
ByLayer
370
13
48
1
60
0
100
AcDbLine
10
-44.85
20
-31.5
30
0
11
-45.700739
21
-28.325003
31
0
39
0
210
0
220
0
230
1
0
LINE
5
154
100
AcDbEntity
8
SK2
62
256
6
ByLayer
370
13
48
1
60
0
100
AcDbLine
10
-44.85
20
-31.5
30
0
11
-43.999261
21
-28.324997
31
0
39
0
210
0
220
0
230
1
0
LINE
5
155
100
AcDbEntity
8
SK2
62
256
6
ByLayer
370
13
48
1
60
0
100
AcDbLine
10
-45.700739
20
-28.325003
30
0
11
-43.999261
21
-28.324997
31
0
39
0
210
0
220
0
230
1
0
ENDBLK
5
157
100
AcDbEntity
8
0
100
AcDbBlockEnd
0
BLOCK
5
15A
100
AcDbEntity
8
0
100
AcDbBlockBegin
2
_CLOSED
70
0
10
0
20
0
30
0
3
_CLOSED
0
LINE
5
15C
100
AcDbEntity
8
0
62
256
6
ByLayer
370
-2
48
1
60
0
100
AcDbLine
10
-1
20
0.166667
30
0
11
0
21
0
31
0
39
0
210
0
220
0
230
1
0
LINE
5
15D
100
AcDbEntity
8
0
62
256
6
ByLayer
370
-2
48
1
60
0
100
AcDbLine
10
0
20
0
30
0
11
-1
21
-0.166667
31
0
39
0
210
0
220
0
230
1
0
LINE
5
15E
100
AcDbEntity
8
0
62
256
6
ByLayer
370
-2
48
1
60
0
100
AcDbLine
10
-1
20
0.166667
30
0
11
-1
21
-0.166667
31
0
39
0
210
0
220
0
230
1
0
LINE
5
15F
100
AcDbEntity
8
0
62
256
6
ByLayer
370
-2
48
1
60
0
100
AcDbLine
10
0
20
0
30
0
11
-1
21
0
31
0
39
0
210
0
220
0
230
1
0
ENDBLK
5
15B
100
AcDbEntity
8
0
100
AcDbBlockEnd
0
BLOCK
5
16C
100
AcDbEntity
8
0
100
AcDbBlockBegin
2
DimnDraft3D2
70
0
10
0
20
0
30
0
3
DimnDraft3D2
0
MTEXT
5
161
100
AcDbEntity
8
2
62
256
6
ByLayer
370
13
48
1
60
0
100
AcDbMText
10
89.725
20
-26.893421
30
0
210
0
220
0
230
1
1
\W0.7640;45.0
40
4.5
41
0
44
1.084337
50
90
71
7
72
5
7
iso_b_vert
0
LINE
5
163
100
AcDbEntity
8
2
62
256
6
ByLayer
370
13
48
1
60
0
100
AcDbLine
10
66.5875
20
-45
30
0
11
94.025
21
-45
31
0
39
0
210
0
220
0
230
1
0
LINE
5
164
100
AcDbEntity
8
2
62
256
6
ByLayer
370
13
48
1
60
0
100
AcDbLine
10
66.5875
20
0
30
0
11
94.025
21
0
31
0
39
0
210
0
220
0
230
1
0
LINE
5
165
100
AcDbEntity
8
2
62
256
6
ByLayer
370
13
48
1
60
0
100
AcDbLine
10
90.85
20
-45
30
0
11
90.85
21
0
31
0
39
0
210
0
220
0
230
1
0
LINE
5
166
100
AcDbEntity
8
2
62
256
6
ByLayer
370
13
48
1
60
0
100
AcDbLine
10
90.85
20
-45
30
0
11
89.999261
21
-41.825003
31
0
39
0
210
0
220
0
230
1
0
LINE
5
167
100
AcDbEntity
8
2
62
256
6
ByLayer
370
13
48
1
60
0
100
AcDbLine
10
90.85
20
-45
30
0
11
91.700739
21
-41.824997
31
0
39
0
210
0
220
0
230
1
0
LINE
5
168
100
AcDbEntity
8
2
62
256
6
ByLayer
370
13
48
1
60
0
100
AcDbLine
10
89.999261
20
-41.825003
30
0
11
91.700739
21
-41.824997
31
0
39
0
210
0
220
0
230
1
0
LINE
5
169
100
AcDbEntity
8
2
62
256
6
ByLayer
370
13
48
1
60
0
100
AcDbLine
10
90.85
20
0
30
0
11
91.700739
21
-3.174997
31
0
39
0
210
0
220
0
230
1
0
LINE
5
16A
100
AcDbEntity
8
2
62
256
6
ByLayer
370
13
48
1
60
0
100
AcDbLine
10
90.85
20
0
30
0
11
89.999261
21
-3.175003
31
0
39
0
210
0
220
0
230
1
0
LINE
5
16B
100
AcDbEntity
8
2
62
256
6
ByLayer
370
13
48
1
60
0
100
AcDbLine
10
91.700739
20
-3.174997
30
0
11
89.999261
21
-3.175003
31
0
39
0
210
0
220
0
230
1
0
ENDBLK
5
16D
100
AcDbEntity
8
0
100
AcDbBlockEnd
0
BLOCK
5
17A
100
AcDbEntity
8
0
100
AcDbBlockBegin
2
DimnDraft3D3
70
0
10
0
20
0
30
0
3
DimnDraft3D3
0
MTEXT
5
170
100
AcDbEntity
8
2
62
256
6
ByLayer
370
13
48
1
60
0
100
AcDbMText
10
28.343421
20
-70.375
30
0
210
0
220
0
230
1
1
\W0.7346;65.0
40
4.5
41
0
44
1.084337
50
0
71
7
72
5
7
iso_b_vert
0
LINE
5
171
100
AcDbEntity
8
2
62
256
6
ByLayer
370
13
48
1
60
0
100
AcDbLine
10
0
20
-33.0875
30
0
11
0
21
-74.675
31
0
39
0
210
0
220
0
230
1
0
LINE
5
172
100
AcDbEntity
8
2
62
256
6
ByLayer
370
13
48
1
60
0
100
AcDbLine
10
65
20
-46.5875
30
0
11
65
21
-74.675
31
0
39
0
210
0
220
0
230
1
0
LINE
5
173
100
AcDbEntity
8
2
62
256
6
ByLayer
370
13
48
1
60
0
100
AcDbLine
10
0
20
-71.5
30
0
11
65
21
-71.5
31
0
39
0
210
0
220
0
230
1
0
LINE
5
174
100
AcDbEntity
8
2
62
256
6
ByLayer
370
13
48
1
60
0
100
AcDbLine
10
0
20
-71.5
30
0
11
3.174997
21
-70.649261
31
0
39
0
210
0
220
0
230
1
0
LINE
5
175
100
AcDbEntity
8
2
62
256
6
ByLayer
370
13
48
1
60
0
100
AcDbLine
10
0
20
-71.5
30
0
11
3.175003
21
-72.350739
31
0
39
0
210
0
220
0
230
1
0
LINE
5
176
100
AcDbEntity
8
2
62
256
6
ByLayer
370
13
48
1
60
0
100
AcDbLine
10
3.174997
20
-70.649261
30
0
11
3.175003
21
-72.350739
31
0
39
0
210
0
220
0
230
1
0
LINE
5
177
100
AcDbEntity
8
2
62
256
6
ByLayer
370
13
48
1
60
0
100
AcDbLine
10
65
20
-71.5
30
0
11
61.825003
21
-72.350739
31
0
39
0
210
0
220
0
230
1
0
LINE
5
178
100
AcDbEntity
8
2
62
256
6
ByLayer
370
13
48
1
60
0
100
AcDbLine
10
65
20
-71.5
30
0
11
61.824997
21
-70.649261
31
0
39
0
210
0
220
0
230
1
0
LINE
5
179
100
AcDbEntity
8
2
62
256
6
ByLayer
370
13
48
1
60
0
100
AcDbLine
10
61.825003
20
-72.350739
30
0
11
61.824997
21
-70.649261
31
0
39
0
210
0
220
0
230
1
0
ENDBLK
5
17B
100
AcDbEntity
8
0
100
AcDbBlockEnd
0
BLOCK
5
188
100
AcDbEntity
8
0
100
AcDbBlockBegin
2
DimnDraft3D4
70
0
10
0
20
0
30
0
3
DimnDraft3D4
0
MTEXT
5
17E
100
AcDbEntity
8
2
62
256
6
ByLayer
370
13
48
1
60
0
100
AcDbMText
10
51.006944
20
-0.108384
30
0
210
0
220
0
230
1
1
\W0.7346;30.0
40
4.5
41
0
44
1.084337
50
12.4999999999999
71
7
72
5
7
iso_b_vert
0
LINE
5
17F
100
AcDbEntity
8
2
62
256
6
ByLayer
370
13
48
1
60
0
100
AcDbLine
10
65
20
-41.8125
30
0
11
65
21
3.929325
31
0
39
0
210
0
220
0
230
1
0
LINE
5
180
100
AcDbEntity
8
2
62
256
6
ByLayer
370
13
48
1
60
0
100
AcDbLine
10
62.141048
20
-37.891603
30
0
11
44.734622
21
-0.563402
31
0
39
0
210
0
220
0
230
1
0
ARC
5
181
100
AcDbEntity
8
2
62
256
6
ByLayer
370
13
48
1
60
0
100
AcDbCircle
39
0
10
65
20
-44.022644
30
0
40
44.7769687705297
210
0
220
0
230
1
100
AcDbArc
50
90
51
115
0
LINE
5
182
100
AcDbEntity
8
2
62
256
6
ByLayer
370
13
48
1
60
0
100
AcDbLine
10
65
20
0.754325
30
0
11
61.840575
21
-0.152536
31
0
39
0
210
0
220
0
230
1
0
LINE
5
183
100
AcDbEntity
8
2
62
256
6
ByLayer
370
13
48
1
60
0
100
AcDbLine
10
65
20
0.754325
30
0
11
61.810422
21
1.548674
31
0
39
0
210
0
220
0
230
1
0
LINE
5
184
100
AcDbEntity
8
2
62
256
6
ByLayer
370
13
48
1
60
0
100
AcDbLine
10
61.840575
20
-0.152536
30
0
11
61.810422
21
1.548674
31
0
39
0
210
0
220
0
230
1
0
LINE
5
185
100
AcDbEntity
8
2
62
256
6
ByLayer
370
13
48
1
60
0
100
AcDbLine
10
46.076435
20
-3.440929
30
0
11
48.631463
21
-1.373032
31
0
39
0
210
0
220
0
230
1
0
LINE
5
186
100
AcDbEntity
8
2
62
256
6
ByLayer
370
13
48
1
60
0
100
AcDbLine
10
46.076435
20
-3.440929
30
0
11
49.323108
21
-2.927591
31
0
39
0
210
0
220
0
230
1
0
LINE
5
187
100
AcDbEntity
8
2
62
256
6
ByLayer
370
13
48
1
60
0
100
AcDbLine
10
48.631463
20
-1.373032
30
0
11
49.323108
21
-2.927591
31
0
39
0
210
0
220
0
230
1
0
ENDBLK
5
189
100
AcDbEntity
8
0
100
AcDbBlockEnd
0
ENDSEC
0
SECTION
2
ENTITIES
0
ARC
5
BA
100
AcDbEntity
8
1
62
256
6
ByLayer
370
13
48
1
60
0
100
AcDbCircle
39
0
10
-22.279208
20
-32.7
30
0
40
1.2
210
0
220
0
230
-1
100
AcDbArc
50
90
51
126.225732
0
ARC
5
BB
100
AcDbEntity
8
1
62
256
6
ByLayer
370
13
48
1
60
0
100
AcDbCircle
39
0
10
92.363681
20
-65.561571
30
0
40
149.046877144061
210
0
220
0
230
-1
100
AcDbArc
50
154.212036
51
163.298928
0
ARC
5
BC
100
AcDbEntity
8
1
62
256
6
ByLayer
370
13
48
1
60
0
100
AcDbCircle
39
0
10
-45.166616
20
-30.600763
30
0
40
4.46612987842788
210
0
220
0
230
-1
100
AcDbArc
50
226.8903
51
291.009882
0
ARC
5
BD
100
AcDbEntity
8
1
62
256
6
ByLayer
370
13
48
1
60
0
100
AcDbCircle
39
0
10
92.363681
20
-65.561571
30
0
40
151.466129878428
210
0
220
0
230
-1
100
AcDbArc
50
157.108649
51
164.429914
0
ARC
5
BE
100
AcDbEntity
8
1
62
256
6
ByLayer
370
13
48
1
60
0
100
AcDbCircle
39
0
10
-92.363681
20
-65.561571
30
0
40
149.872218361481
210
0
220
0
230
1
100
AcDbArc
50
15.570086
51
26.526342
0
ARC
5
BF
100
AcDbEntity
8
1
62
256
6
ByLayer
370
13
48
1
60
0
100
AcDbCircle
39
0
10
-49.241836
20
-26.104283
30
0
40
4.46612987842788
210
0
220
0
230
-1
100
AcDbArc
50
164.429914
51
217.482573
0
ARC
5
C0
100
AcDbEntity
8
1
62
256
6
ByLayer
370
13
48
1
60
0
100
AcDbCircle
39
0
10
45.166616
20
-30.600763
30
0
40
2.87221836148108
210
0
220
0
230
1
100
AcDbArc
50
248.990118
51
313.1097
0
ARC
5
C1
100
AcDbEntity
8
1
62
256
6
ByLayer
370
13
48
1
60
0
100
AcDbCircle
39
0
10
-19.880913
20
-3.589039
30
0
40
41.4661298784279
210
0
220
0
230
-1
100
AcDbArc
50
217.482573
51
226.8903
0
ARC
5
C2
100
AcDbEntity
8
1
62
256
6
ByLayer
370
13
48
1
60
0
100
AcDbCircle
39
0
10
29.74987
20
-70.742063
30
0
40
38.5338701215721
210
0
220
0
230
1
100
AcDbArc
50
68.990118
51
96.978431
0
ARC
5
C3
100
AcDbEntity
8
1
62
256
6
ByLayer
370
13
48
1
60
0
100
AcDbCircle
39
0
10
49.241836
20
-26.104283
30
0
40
2.87221836148108
210
0
220
0
230
1
100
AcDbArc
50
322.517427
51
15.570086
0
ARC
5
C4
100
AcDbEntity
8
1
62
256
6
ByLayer
370
13
48
1
60
0
100
AcDbCircle
39
0
10
29.74987
20
-70.742063
30
0
40
40.9531228559392
210
0
220
0
230
1
100
AcDbArc
50
72.357925
51
93.206249
0
ARC
5
C5
100
AcDbEntity
8
1
62
256
6
ByLayer
370
13
48
1
60
0
100
AcDbCircle
39
0
10
-29.74987
20
-70.742063
30
0
40
40.1277816385189
210
0
220
0
230
-1
100
AcDbArc
50
78.206745
51
111.009882
0
ARC
5
C6
100
AcDbEntity
8
1
62
256
6
ByLayer
370
13
48
1
60
0
100
AcDbCircle
39
0
10
19.880913
20
-3.589039
30
0
40
39.8722183614811
210
0
220
0
230
1
100
AcDbArc
50
313.1097
51
322.517427
0
ARC
5
C7
100
AcDbEntity
8
1
62
256
6
ByLayer
370
13
48
1
60
0
100
AcDbCircle
39
0
10
47.891779
20
-24.326826
30
0
40
8
210
0
220
0
230
1
100
AcDbArc
50
317.5
51
330
0
ARC
5
C8
100
AcDbEntity
8
1
62
256
6
ByLayer
370
13
48
1
60
0
100
AcDbCircle
39
0
10
-57.976091
20
-24.460284
30
0
40
0.8
210
0
220
0
230
-1
100
AcDbArc
50
30
51
175
0
ARC
5
C9
100
AcDbEntity
8
1
62
256
6
ByLayer
370
13
48
1
60
0
100
AcDbCircle
39
0
10
48.919529
20
-48.520205
30
0
40
8
210
0
220
0
230
1
100
AcDbArc
50
77.5
51
90
0
ARC
5
CA
100
AcDbEntity
8
1
62
256
6
ByLayer
370
13
48
1
60
0
100
AcDbCircle
39
0
10
-43.99295
20
-39.720205
30
0
40
0.8
210
0
220
0
230
-1
100
AcDbArc
50
270
51
55
0
ARC
5
CB
100
AcDbEntity
8
1
62
256
6
ByLayer
370
13
48
1
60
0
100
AcDbCircle
39
0
10
69.357734
20
-35.533458
30
0
40
8
210
0
220
0
230
1
100
AcDbArc
50
197.5
51
210
0
ARC
5
CC
100
AcDbEntity
8
1
62
256
6
ByLayer
370
13
48
1
60
0
100
AcDbCircle
39
0
10
42.981094
20
-29.685898
30
0
40
8
210
0
220
0
230
1
100
AcDbArc
50
305
51
317.5
0
ARC
5
CD
100
AcDbEntity
8
1
62
256
6
ByLayer
370
13
48
1
60
0
100
AcDbCircle
39
0
10
67.171984
20
-28.601145
30
0
40
8
210
0
220
0
230
1
100
AcDbArc
50
185
51
197.5
0
ARC
5
CE
100
AcDbEntity
8
1
62
256
6
ByLayer
370
13
48
1
60
0
100
AcDbCircle
39
0
10
56.015963
20
-50.093446
30
0
40
8
210
0
220
0
230
1
100
AcDbArc
50
65
51
77.5
0
ARC
5
D2
100
AcDbEntity
8
1
62
256
6
ByLayer
370
13
48
1
60
0
100
AcDbCircle
39
0
10
-64.2
20
-44.2
30
0
40
0.8
210
0
220
0
230
-1
100
AcDbArc
50
150
51
295
0
ARC
5
D3
100
AcDbEntity
8
1
62
256
6
ByLayer
370
13
48
1
60
0
100
AcDbCircle
39
0
10
55.38968
20
-36.12683
30
0
40
1.2903
210
0
220
0
230
1
100
AcDbArc
50
257.5
51
317.5
0
ARC
5
D5
100
AcDbEntity
8
1
62
256
6
ByLayer
370
13
48
1
60
0
100
AcDbCircle
39
0
10
-55.38968
20
-36.12683
30
0
40
1.6764
210
0
220
0
230
-1
100
AcDbArc
50
72.5
51
132.5
0
ARC
5
D6
100
AcDbEntity
8
1
62
256
6
ByLayer
370
13
48
1
60
0
100
AcDbCircle
39
0
10
-55.38968
20
-36.12683
30
0
40
1.6764
210
0
220
0
230
-1
100
AcDbArc
50
252.5
51
312.5
0
ARC
5
D7
100
AcDbEntity
8
1
62
256
6
ByLayer
370
13
48
1
60
0
100
AcDbCircle
39
0
10
-55.38968
20
-36.12683
30
0
40
1.6764
210
0
220
0
230
-1
100
AcDbArc
50
132.5
51
192.5
0
ARC
5
D8
100
AcDbEntity
8
1
62
256
6
ByLayer
370
13
48
1
60
0
100
AcDbCircle
39
0
10
-55.38968
20
-36.12683
30
0
40
1.2903
210
0
220
0
230
-1
100
AcDbArc
50
342.5
51
42.5
0
ARC
5
D9
100
AcDbEntity
8
1
62
256
6
ByLayer
370
13
48
1
60
0
100
AcDbCircle
39
0
10
-55.38968
20
-36.12683
30
0
40
1.2903
210
0
220
0
230
-1
100
AcDbArc
50
282.5
51
342.5
0
ARC
5
DA
100
AcDbEntity
8
1
62
256
6
ByLayer
370
13
48
1
60
0
100
AcDbCircle
39
0
10
-55.38968
20
-36.12683
30
0
40
1.6764
210
0
220
0
230
-1
100
AcDbArc
50
312.5
51
12.5
0
ARC
5
DC
100
AcDbEntity
8
1
62
256
6
ByLayer
370
13
48
1
60
0
100
AcDbCircle
39
0
10
-55.38968
20
-36.12683
30
0
40
1.2903
210
0
220
0
230
-1
100
AcDbArc
50
102.5
51
162.5
0
ARC
5
DD
100
AcDbEntity
8
1
62
256
6
ByLayer
370
13
48
1
60
0
100
AcDbCircle
39
0
10
-55.38968
20
-36.12683
30
0
40
1.2903
210
0
220
0
230
-1
100
AcDbArc
50
162.5
51
222.5
0
ARC
5
DE
100
AcDbEntity
8
1
62
256
6
ByLayer
370
13
48
1
60
0
100
AcDbCircle
39
0
10
-55.38968
20
-36.12683
30
0
40
1.2903
210
0
220
0
230
-1
100
AcDbArc
50
42.5
51
102.5
0
ARC
5
DF
100
AcDbEntity
8
1
62
256
6
ByLayer
370
13
48
1
60
0
100
AcDbCircle
39
0
10
-55.38968
20
-36.12683
30
0
40
1.6764
210
0
220
0
230
-1
100
AcDbArc
50
12.5
51
72.5
0
ARC
5
E0
100
AcDbEntity
8
1
62
256
6
ByLayer
370
13
48
1
60
0
100
AcDbCircle
39
0
10
-55.38968
20
-36.12683
30
0
40
1.6764
210
0
220
0
230
-1
100
AcDbArc
50
192.5
51
252.5
0
CIRCLE
5
CF
100
AcDbEntity
8
1
62
256
6
ByLayer
370
13
48
1
60
0
100
AcDbCircle
10
-55.38968
20
-36.12683
30
0
40
3
39
0
210
0
220
0
230
-1
0
CIRCLE
5
D0
100
AcDbEntity
8
1
62
256
6
ByLayer
370
13
48
1
60
0
100
AcDbCircle
10
-55.38968
20
-36.12683
30
0
40
2.87330486655119
39
0
210
0
220
0
230
-1
0
CIRCLE
5
D1
100
AcDbEntity
8
1
62
256
6
ByLayer
370
13
48
1
60
0
100
AcDbCircle
10
55.38968
20
-36.12683
30
0
40
3.06293413074916
39
0
210
0
220
0
230
1
0
CIRCLE
5
D4
100
AcDbEntity
8
1
62
256
6
ByLayer
370
13
48
1
60
0
100
AcDbCircle
10
55.38968
20
-36.12683
30
0
40
2.625
39
0
210
0
220
0
230
1
0
CIRCLE
5
DB
100
AcDbEntity
8
1
62
256
6
ByLayer
370
13
48
1
60
0
100
AcDbCircle
10
55.38968
20
-36.12683
30
0
40
1.8
39
0
210
0
220
0
230
1
0
ELLIPSE
5
E1
100
AcDbEntity
8
1
62
256
6
ByLayer
370
13
48
1
60
0
100
AcDbEllipse
10
50.487161
20
-34.275171
30
0
11
-0.580702955710938
21
0.814115518356322
31
0
210
0
220
0
230
1
40
0.082518
41
0.604595897445939
42
0.882592188079041
0
ELLIPSE
5
E2
100
AcDbEntity
8
1
62
256
6
ByLayer
370
13
48
1
60
0
100
AcDbEllipse
10
53.117786
20
-31.404348
30
0
11
0.861629160441523
21
-0.507538362960712
31
0
210
0
220
0
230
1
40
0.082518
41
2.2590005876233
42
2.53699692127963
0
ELLIPSE
5
E3
100
AcDbEntity
8
1
62
256
6
ByLayer
370
13
48
1
60
0
100
AcDbEllipse
10
26.347154
20
0
30
0
11
14.7536831606565
21
31.0932549155812
31
0
210
0
220
0
230
-1
40
0.341999
41
-2.98378646694436
42
-2.05035306783698
0
ELLIPSE
5
E4
100
AcDbEntity
8
1
62
256
6
ByLayer
370
13
48
1
60
0
100
AcDbEllipse
10
24.755893
20
0
30
0
11
-1.92875500726617E-15
21
31.4999999999335
31
0
210
0
220
0
230
-1
40
0.087489
41
-2.02482592733753
42
-1.44656381473788
0
ELLIPSE
5
E5
100
AcDbEntity
8
1
62
256
6
ByLayer
370
13
48
1
60
0
100
AcDbEllipse
10
-2.347154
20
0
30
0
11
14.7536831606582
21
31.0932549155836
31
0
210
0
220
0
230
-1
40
0.341999
41
0.157806186645426
42
1.09123958575276
0
ELLIPSE
5
E6
100
AcDbEntity
8
1
62
256
6
ByLayer
370
13
48
1
60
0
100
AcDbEllipse
10
26.347154
20
0
30
0
11
14.7536831606567
21
-31.0932549155815
31
0
210
0
220
0
230
-1
40
0.341999
41
2.05035306783698
42
2.98378646694436
0
ELLIPSE
5
E7
100
AcDbEntity
8
1
62
256
6
ByLayer
370
13
48
1
60
0
100
AcDbEllipse
10
-2.347154
20
0
30
0
11
14.753683160659
21
-31.0932549155847
31
0
210
0
220
0
230
-1
40
0.341999
41
-1.09123958575274
42
-0.157806186645425
0
POINT
5
6C
100
AcDbEntity
8
80
62
256
6
ByLayer
370
18
48
1
60
0
100
AcDbPoint
10
0
20
0
30
0
39
0
210
0
220
0
230
1
50
360
0
POINT
5
6E
100
AcDbEntity
8
81
62
256
6
ByLayer
370
18
48
1
60
0
100
AcDbPoint
10
65
20
-45
30
0
39
0
210
0
220
0
230
1
50
360
0
SPLINE
5
E8
100
AcDbEntity
8
SK1
62
256
6
ByLayer
370
13
48
1
60
0
100
AcDbSpline
70
4
71
2
72
6
73
3
40
0
40
0
40
0
40
1
40
1
40
1
41
1
10
-38
20
-20.2898799013383
30
0
41
1
10
-37.2499998580829
20
-20.722636690256
30
0
41
1
10
-36.5
20
-21.155390865424
30
0
0
SPLINE
5
E9
100
AcDbEntity
8
SK1
62
256
6
ByLayer
370
13
48
1
60
0
100
AcDbSpline
70
4
71
2
72
6
73
3
40
0
40
0
40
0
40
1
40
1
40
1
41
1
10
-0.194976888875288
20
-21.8704745864116
30
0
41
1
10
-0.0503947065853652
20
-21.8819450508703
30
0
41
1
10
-0.0284432080893282
20
-21.9541250634294
30
0
0
SPLINE
5
EA
100
AcDbEntity
8
SK1
62
256
6
ByLayer
370
13
48
1
60
0
100
AcDbSpline
70
4
71
2
72
6
73
3
40
0
40
0
40
0
40
1
40
1
40
1
41
1
10
-0.0279011200788375
20
21.9549109072108
30
0
41
1
10
-0.049732104938613
20
21.8821483995747
30
0
41
1
10
-0.194976888875288
20
21.8704747460203
30
0
0
SPLINE
5
EB
100
AcDbEntity
8
SK1
62
256
6
ByLayer
370
13
48
1
60
0
100
AcDbSpline
70
4
71
2
72
6
73
3
40
0
40
0
40
0
40
1
40
1
40
1
41
1
10
-36.5
20
21.15539096789
30
0
41
1
10
-37.2499998580851
20
20.7226367943926
30
0
41
1
10
-38
20
20.2898800072422
30
0
0
SPLINE
5
EC
100
AcDbEntity
8
SK1
62
256
6
ByLayer
370
13
48
1
60
0
100
AcDbSpline
70
4
71
3
72
13
73
9
40
0
40
0
40
0
40
0
40
0.239505866431059
40
0.368426377934232
40
0.500072087388597
40
0.631705829080742
40
0.76059332446694
40
1
40
1
40
1
40
1
41
1
10
-1.7950399779393
20
21.8302933674113
30
0
41
1
10
-1.82110926269925
20
21.8298912593851
30
0
41
1
10
-1.85883864366619
20
21.8360608861174
30
0
41
1
10
-1.90627568046548
20
21.8590943224455
30
0
41
1
10
-1.93886244237069
20
21.8842503451972
30
0
41
1
10
-1.96563491014865
20
21.9155180963752
30
0
41
1
10
-1.99103207881225
20
21.9617163884142
30
0
41
1
10
-1.99909122094999
20
21.9990737575566
30
0
41
1
10
-2
20
22.0251209952818
30
0
0
SPLINE
5
ED
100
AcDbEntity
8
SK1
62
256
6
ByLayer
370
13
48
1
60
0
100
AcDbSpline
70
4
71
3
72
13
73
9
40
0
40
0
40
0
40
0
40
0.23940667609059
40
0.368294171659915
40
0.499927913414145
40
0.631573622795275
40
0.760494134109871
40
1
40
1
40
1
40
1
41
1
10
-2
20
-22.0251208364275
30
0
41
1
10
-1.99909122095849
20
-21.9990735985877
30
0
41
1
10
-1.99103207882064
20
-21.9617162292748
30
0
41
1
10
-1.96563491016025
20
-21.9155179370029
30
0
41
1
10
-1.93886244238612
20
-21.8842501856704
30
0
41
1
10
-1.90627568048194
20
-21.8590941627914
30
0
41
1
10
-1.85883864368745
20
-21.8360607263469
30
0
41
1
10
-1.82110926271048
20
-21.8298910995853
30
0
41
1
10
-1.7950399779393
20
-21.8302932076066
30
0
0
SPLINE
5
EE
100
AcDbEntity
8
SK1
62
256
6
ByLayer
370
13
48
1
60
0
100
AcDbSpline
70
4
71
2
72
6
73
3
40
0
40
0
40
0
40
1
40
1
40
1
41
1
10
-2
20
22.0186362439356
30
0
41
1
10
-19.2499999976426
20
21.5855495141177
30
0
41
1
10
-36.5
20
21.1524613224033
30
0
0
SPLINE
5
EF
100
AcDbEntity
8
SK1
62
256
6
ByLayer
370
13
48
1
60
0
100
AcDbSpline
70
4
71
2
72
6
73
3
40
0
40
0
40
0
40
1
40
1
40
1
41
1
10
-36.5
20
-21.1524609537578
30
0
41
1
10
-19.2499999976431
20
-21.5855491455244
30
0
41
1
10
-2
20
-22.018635875508
30
0
0
SPLINE
5
F0
100
AcDbEntity
8
SK1
62
256
6
ByLayer
370
13
48
1
60
0
100
AcDbSpline
70
4
71
2
72
6
73
3
40
0
40
0
40
0
40
1
40
1
40
1
41
1
10
-1.7950399779393
20
-21.8237832115739
30
0
41
1
10
-0.995008433397771
20
-21.8438664509463
30
0
41
1
10
-0.194976888875288
20
-21.8639496970129
30
0
0
SPLINE
5
F1
100
AcDbEntity
8
SK1
62
256
6
ByLayer
370
13
48
1
60
0
100
AcDbSpline
70
4
71
2
72
6
73
3
40
0
40
0
40
0
40
1
40
1
40
1
41
1
10
-0.194976888875288
20
21.8639497134275
30
0
41
1
10
-0.995008433397771
20
21.8438664676549
30
0
41
1
10
-1.7950399779393
20
21.8237832285766
30
0
0
SPLINE
5
F2
100
AcDbEntity
8
SK1
62
256
6
ByLayer
370
13
48
1
60
0
100
AcDbSpline
70
4
71
3
72
20
73
16
40
0
40
0
40
0
40
0
40
0.0043037080544781
40
0.0712861922520557
40
0.138268676449633
40
0.205251160647211
40
0.339216129042366
40
0.406198613239944
40
0.473181097437522
40
0.607146065832677
40
0.741111034227832
40
0.80809351842541
40
0.875076002622987
40
0.942058486820565
40
1
40
1
40
1
40
1
41
1
10
-0.194976888875288
20
6.03119623886747
30
0
41
1
10
-0.194976888875288
20
6.07248438694879
30
0
41
1
10
-0.194976888875288
20
6.7552262401928
30
0
41
1
10
-0.194976888875288
20
8.04231567916281
30
0
41
1
10
-0.194976888875288
20
9.80801688319883
30
0
41
1
10
-0.194976888875288
20
12.0209589146812
30
0
41
1
10
-0.194976888875288
20
14.0161341032345
30
0
41
1
10
-0.194976888875288
20
15.788964627033
30
0
41
1
10
-0.194976888875288
20
17.4090439325775
30
0
41
1
10
-0.194976888875288
20
19.1375804507264
30
0
41
1
10
-0.194976888875288
20
20.4405044941378
30
0
41
1
10
-0.194976888875288
20
21.1957612581816
30
0
41
1
10
-0.194976888875288
20
21.6069523286528
30
0
41
1
10
-0.194976888875288
20
21.8372259081568
30
0
41
1
10
-0.19497688887526
20
21.8768660878725
30
0
41
1
10
-0.19497688887526
20
21.8685012533256
30
0
0
SPLINE
5
F3
100
AcDbEntity
8
SK1
62
256
6
ByLayer
370
13
48
1
60
0
100
AcDbSpline
70
4
71
3
72
23
73
19
40
0
40
0
40
0
40
0
40
0.0151805133826442
40
0.0437410009205078
40
0.100861975996235
40
0.157982951071962
40
0.21510392614769
40
0.272224901223417
40
0.329345876299144
40
0.443587826450599
40
0.500708801526326
40
0.557829776602053
40
0.672071726753508
40
0.786313676904962
40
0.843434651980689
40
0.900555627056416
40
0.957676602132144
40
1
40
1
40
1
40
1
41
1
10
-1.7950399779393
20
0.497935257504821
30
0
41
1
10
-1.7950399779393
20
0.686148227369159
30
0
41
1
10
-1.7950399779393
20
1.2279675200129
30
0
41
1
10
-1.7950399779393
20
2.47030998023922
30
0
41
1
10
-1.7950399779393
20
4.18621515342139
30
0
41
1
10
-1.7950399779393
20
6.15385395841673
30
0
41
1
10
-1.7950399779393
20
8.02089392647389
30
0
41
1
10
-1.7950399779393
20
9.78370691003113
30
0
41
1
10
-1.7950399779393
20
11.9936132714088
30
0
41
1
10
-1.7950399779393
20
13.9857840732081
30
0
41
1
10
-1.7950399779393
20
15.7565284847275
30
0
41
1
10
-1.7950399779393
20
17.3747492708666
30
0
41
1
10
-1.7950399779393
20
19.1010732050206
30
0
41
1
10
-1.7950399779393
20
20.4022771684283
30
0
41
1
10
-1.7950399779393
20
21.1565874478056
30
0
41
1
10
-1.7950399779393
20
21.567186866652
30
0
41
1
10
-1.7950399779393
20
21.7871401602392
30
0
41
1
10
-1.7950399779393
20
21.8309162568482
30
0
41
1
10
-1.79503997793927
20
21.8302774776098
30
0
0
SPLINE
5
F4
100
AcDbEntity
8
SK1
62
256
6
ByLayer
370
13
48
1
60
0
100
AcDbSpline
70
4
71
3
72
20
73
16
40
0
40
0
40
0
40
0
40
0.0579409452764
40
0.124923477999247
40
0.191906010722094
40
0.258888543444941
40
0.392853608890636
40
0.52681867433633
40
0.593801207059177
40
0.660783739782024
40
0.794748805227718
40
0.861731337950566
40
0.928713870673413
40
0.99569640339626
40
1
40
1
40
1
40
1
41
1
10
-0.194976888875288
20
-21.868501385888
30
0
41
1
10
-0.194976888875288
20
-21.8768655440929
30
0
41
1
10
-0.194976888875288
20
-21.8372244539128
30
0
41
1
10
-0.194976888875288
20
-21.6069519109193
30
0
41
1
10
-0.194976888875288
20
-21.1957614261541
30
0
41
1
10
-0.194976888875288
20
-20.4405035302762
30
0
41
1
10
-0.194976888875288
20
-19.1375809778665
30
0
41
1
10
-0.194976888875288
20
-17.4090434636518
30
0
41
1
10
-0.194976888875288
20
-15.7889648215842
30
0
41
1
10
-0.194976888875288
20
-14.0161341102769
30
0
41
1
10
-0.194976888875288
20
-12.0209591616842
30
0
41
1
10
-0.194976888875288
20
-9.80801707431959
30
0
41
1
10
-0.194976888875288
20
-8.04231555647985
30
0
41
1
10
-0.194976888875288
20
-6.75522752997537
30
0
41
1
10
-0.194976888875288
20
-6.07248683105715
30
0
41
1
10
-0.194976888875288
20
-6.03119978687542
30
0
0
SPLINE
5
F5
100
AcDbEntity
8
SK1
62
256
6
ByLayer
370
13
48
1
60
0
100
AcDbSpline
70
4
71
3
72
23
73
19
40
0
40
0
40
0
40
0
40
0.0423096436580175
40
0.0994314488890818
40
0.156553254120146
40
0.21367505935121
40
0.327918669813339
40
0.442162280275467
40
0.499284085506532
40
0.556405890737596
40
0.670649501199724
40
0.727771306430788
40
0.784893111661853
40
0.842014916892917
40
0.899136722123981
40
0.956258527355045
40
0.984819429970578
40
1
40
1
40
1
40
1
41
1
10
-1.7950399779393
20
-21.8302779653983
30
0
41
1
10
-1.79503997793932
20
-21.8309033752695
30
0
41
1
10
-1.79503997793932
20
-21.787119265161
30
0
41
1
10
-1.7950399779393
20
-21.5671864477184
30
0
41
1
10
-1.7950399779393
20
-21.1565876158885
30
0
41
1
10
-1.7950399779393
20
-20.4022762052016
30
0
41
1
10
-1.7950399779393
20
-19.101073730141
30
0
41
1
10
-1.7950399779393
20
-17.3747488027599
30
0
41
1
10
-1.7950399779393
20
-15.7565286767833
30
0
41
1
10
-1.7950399779393
20
-13.9857840798917
30
0
41
1
10
-1.7950399779393
20
-11.9936135169182
30
0
41
1
10
-1.7950399779393
20
-9.78370710557337
30
0
41
1
10
-1.7950399779393
20
-8.02089380010176
30
0
41
1
10
-1.7950399779393
20
-6.15385433510392
30
0
41
1
10
-1.7950399779393
20
-4.18621524287374
30
0
41
1
10
-1.7950399779393
20
-2.47030995483456
30
0
41
1
10
-1.7950399779393
20
-1.22796960685088
30
0
41
1
10
-1.7950399779393
20
-0.686152378390659
30
0
41
1
10
-1.7950399779393
20
-0.497941450133766
30
0
0
SPLINE
5
F6
100
AcDbEntity
8
SK1
62
256
6
ByLayer
370
13
48
1
60
0
100
AcDbSpline
70
4
71
3
72
39
73
35
40
0
40
0
40
0
40
0
40
0.0136745857316874
40
0.0422819836157756
40
0.0708893814998638
40
0.0994967793839521
40
0.156711575152128
40
0.213926370920305
40
0.242533768804393
40
0.271141166688481
40
0.328355962456658
40
0.356963360340746
40
0.385570758224834
40
0.414178156108922
40
0.442785553993011
40
0.471392951877099
40
0.485696650819143
40
0.500000349761187
40
0.514304048703231
40
0.528607747645275
40
0.557215145529363
40
0.585822543413452
40
0.61442994129754
40
0.643037339181628
40
0.671644737065716
40
0.728859532833893
40
0.757466930717981
40
0.786074328602069
40
0.843289124370246
40
0.900503920138422
40
0.92911131802251
40
0.957718715906599
40
0.986326113790687
40
1
40
1
40
1
40
1
41
1
10
-2
20
-22.0185530021799
30
0
41
1
10
-2
20
-22.0102354298533
30
0
41
1
10
-2
20
-21.9603732591041
30
0
41
1
10
-2
20
-21.7599974084889
30
0
41
1
10
-2
20
-21.3465298267009
30
0
41
1
10
-2
20
-20.5876291894755
30
0
41
1
10
-2
20
-19.2780865684795
30
0
41
1
10
-2
20
-17.5410334624521
30
0
41
1
10
-2
20
-15.9138019420577
30
0
41
1
10
-2
20
-14.1329423938392
30
0
41
1
10
-2
20
-12.1262044542746
30
0
41
1
10
-2
20
-9.90157894844808
30
0
41
1
10
-2
20
-8.12476155609352
30
0
41
1
10
-2
20
-6.24074256492972
30
0
41
1
10
-2
20
-4.25159967761499
30
0
41
1
10
-2
20
-2.5111868964961
30
0
41
1
10
-2
20
-1.08235400424977
30
0
41
1
10
-2
20
-2.27208261E-08
30
0
41
1
10
-2
20
1.08235390921519
30
0
41
1
10
-2
20
2.51118690843629
30
0
41
1
10
-2
20
4.25159964823044
30
0
41
1
10
-2
20
6.24074217144337
30
0
41
1
10
-2
20
8.12476166457805
30
0
41
1
10
-2
20
9.90157877434436
30
0
41
1
10
-2
20
12.1262042015232
30
0
41
1
10
-2
20
14.1329423854158
30
0
41
1
10
-2
20
15.9138017379025
30
0
41
1
10
-2
20
17.5410339345301
30
0
41
1
10
-2
20
19.2780860335662
30
0
41
1
10
-2
20
20.5876301557807
30
0
41
1
10
-2
20
21.346529659153
30
0
41
1
10
-2
20
21.7599978216034
30
0
41
1
10
-2
20
21.9603719654137
30
0
41
1
10
-2
20
22.010234139143
30
0
41
1
10
-1.99999999999997
20
22.0185519974751
30
0
0
SPLINE
5
F7
100
AcDbEntity
8
SK1
62
256
6
ByLayer
370
13
48
1
60
0
100
AcDbSpline
70
4
71
3
72
39
73
35
40
0
40
0
40
0
40
0
40
0.0160534735686323
40
0.0445209271610035
40
0.0729883807533746
40
0.101455834345746
40
0.158390741530488
40
0.21532564871523
40
0.243793102307601
40
0.272260555899973
40
0.329195463084715
40
0.357662916677086
40
0.386130370269457
40
0.414597823861828
40
0.443065277454199
40
0.471532731046571
40
0.485766457842756
40
0.500000184638942
40
0.514233911435127
40
0.528467638231313
40
0.556935091823684
40
0.585402545416055
40
0.613869999008426
40
0.642337452600797
40
0.670804906193168
40
0.72773981337791
40
0.756207266970282
40
0.784674720562653
40
0.841609627747395
40
0.898544534932137
40
0.927011988524509
40
0.95547944211688
40
0.983946895709251
40
1
40
1
40
1
40
1
41
1
10
-36.5
20
21.1559493316548
30
0
41
1
10
-36.5
20
21.1496537962048
30
0
41
1
10
-36.5
20
21.1029065889072
30
0
41
1
10
-36.5
20
20.9025888554179
30
0
41
1
10
-36.5
20
20.5018776781105
30
0
41
1
10
-36.5
20
19.7633859456667
30
0
41
1
10
-36.5
20
18.4909295861375
30
0
41
1
10
-36.5
20
16.8015844483731
30
0
41
1
10
-36.5
20
15.2144249963299
30
0
41
1
10
-36.5
20
13.4785456662698
30
0
41
1
10
-36.5
20
11.53658701746
30
0
41
1
10
-36.5
20
9.37741564601666
30
0
41
1
10
-36.5
20
7.66287333478689
30
0
41
1
10
-36.5
20
5.85435990948278
30
0
41
1
10
-36.5
20
3.96084204001809
30
0
41
1
10
-36.5
20
2.32941173515778
30
0
41
1
10
-36.5
20
0.997014040356845
30
0
41
1
10
-36.5
20
-1.676932584E-07
30
0
41
1
10
-36.5
20
-0.997014065912424
30
0
41
1
10
-36.5
20
-2.32941166334251
30
0
41
1
10
-36.5
20
-3.9608423365176
30
0
41
1
10
-36.5
20
-5.85436022826511
30
0
41
1
10
-36.5
20
-7.66287314675827
30
0
41
1
10
-36.5
20
-9.37741591545509
30
0
41
1
10
-36.5
20
-11.5365872380067
30
0
41
1
10
-36.5
20
-13.4785456669563
30
0
41
1
10
-36.5
20
-15.2144251466802
30
0
41
1
10
-36.5
20
-16.801583993955
30
0
41
1
10
-36.5
20
-18.4909300775028
30
0
41
1
10
-36.5
20
-19.763384993051
30
0
41
1
10
-36.5
20
-20.5018778480376
30
0
41
1
10
-36.5
20
-20.9025884164263
30
0
41
1
10
-36.5
20
-21.102904896721
30
0
41
1
10
-36.5
20
-21.1496527027403
30
0
41
1
10
-36.5
20
-21.1559486684891
30
0
0
SPLINE
5
F8
100
AcDbEntity
8
SK1
62
256
6
ByLayer
370
13
48
1
60
0
100
AcDbSpline
70
4
71
3
72
39
73
35
40
0
40
0
40
0
40
0
40
0.0209212303753164
40
0.0491024219894662
40
0.0772836136036161
40
0.105464805217766
40
0.161827188446066
40
0.218189571674365
40
0.246370763288515
40
0.274551954902665
40
0.330914338130965
40
0.359095529745114
40
0.387276721359264
40
0.415457912973414
40
0.443639104587564
40
0.471820296201714
40
0.485910892008789
40
0.500001487815864
40
0.514092083622939
40
0.528182679430014
40
0.556363871044164
40
0.584545062658313
40
0.612726254272463
40
0.640907445886613
40
0.669088637500763
40
0.725451020729062
40
0.753632212343212
40
0.781813403957362
40
0.838175787185662
40
0.894538170413962
40
0.922719362028111
40
0.950900553642261
40
0.979081745256411
40
1
40
1
40
1
40
1
41
1
10
-38
20
20.2930936923575
30
0
41
1
10
-38
20
20.293569662861
30
0
41
1
10
-38
20
20.252680368493
30
0
41
1
10
-38
20
20.0459066437045
30
0
41
1
10
-38
20
19.6579416385018
30
0
41
1
10
-38
20
18.9398403790117
30
0
41
1
10
-38
20
17.704440345947
30
0
41
1
10
-38
20
16.0627617322199
30
0
41
1
10
-38
20
14.5156410584188
30
0
41
1
10
-38
20
12.8247036249508
30
0
41
1
10
-38
20
10.9474696029843
30
0
41
1
10
-38
20
8.85369680730176
30
0
41
1
10
-38
20
7.20137650942658
30
0
41
1
10
-38
20
5.46830515172132
30
0
41
1
10
-38
20
3.67033088291649
30
0
41
1
10
-38
20
2.14779063761824
30
0
41
1
10
-38
20
0.911746507027772
30
0
41
1
10
-38
20
-3.12542852E-07
30
0
41
1
10
-38
20
-0.911746463163183
30
0
41
1
10
-38
20
-2.14779050597869
30
0
41
1
10
-38
20
-3.67033144630452
30
0
41
1
10
-38
20
-5.46830539586296
30
0
41
1
10
-38
20
-7.20137624192125
30
0
41
1
10
-38
20
-8.85369717199413
30
0
41
1
10
-38
20
-10.9474697913536
30
0
41
1
10
-38
20
-12.8247036179069
30
0
41
1
10
-38
20
-14.5156411550098
30
0
41
1
10
-38
20
-16.0627612954467
30
0
41
1
10
-38
20
-17.7044407938012
30
0
41
1
10
-38
20
-18.9398394400737
30
0
41
1
10
-38
20
-19.657941810806
30
0
41
1
10
-38
20
-20.0459061788578
30
0
41
1
10
-38
20
-20.2526717288003
30
0
41
1
10
-38
20
-20.2935644761324
30
0
41
1
10
-38
20
-20.2930937297003
30
0
0
SPLINE
5
F9
100
AcDbEntity
8
1
62
256
6
ByLayer
370
13
48
1
60
0
100
AcDbSpline
70
4
71
3
72
8
73
4
40
0
40
0
40
0
40
0
40
1
40
1
40
1
40
1
41
1
10
58.0019245138147
20
-22.6696362166812
30
0
41
1
10
58.0056173393511
20
-22.6749963324845
30
0
41
1
10
58.0092936375881
20
-22.6803846607489
30
0
41
1
10
58.012953411861
20
-22.6858011957816
30
0
0
SPLINE
5
FA
100
AcDbEntity
8
1
62
256
6
ByLayer
370
13
48
1
60
0
100
AcDbSpline
70
4
71
3
72
57
73
53
40
0
40
0
40
0
40
0
40
0.0452890021905106
40
0.0452890021905106
40
0.0718087521296631
40
0.0718087521296631
40
0.0983285020688155
40
0.0983285020688155
40
0.15136800194712
40
0.15136800194712
40
0.177887751886273
40
0.177887751886273
40
0.204407501825425
40
0.204407501825425
40
0.25744700170373
40
0.25744700170373
40
0.310486501582035
40
0.310486501582035
40
0.36352600146034
40
0.416565501338645
40
0.416565501338645
40
0.443085251277798
40
0.443085251277798
40
0.46960500121695
40
0.46960500121695
40
0.522644501095255
40
0.522644501095255
40
0.549164251034407
40
0.549164251034407
40
0.57568400097356
40
0.57568400097356
40
0.628723500851865
40
0.628723500851865
40
0.681763000730169
40
0.681763000730169
40
0.734802500608475
40
0.734802500608475
40
0.761322250547627
40
0.761322250547627
40
0.787842000486779
40
0.787842000486779
40
0.840881500365084
40
0.840881500365084
40
0.867401250304237
40
0.867401250304237
40
0.893921000243389
40
0.893921000243389
40
0.946960500121695
40
0.946960500121695
40
0.973480250060847
40
0.973480250060847
40
1
40
1
40
1
40
1
41
1
10
21.4013501835507
20
31.4999934010259
30
0
41
1
10
21.4013517565373
20
31.499488534266
30
0
41
1
10
21.401425362789
20
31.4764722705519
30
0
41
1
10
21.4016573623928
20
31.4043374965392
30
0
41
1
10
21.4017680556522
20
31.3699812997522
30
0
41
1
10
21.4020407414717
20
31.2857475370423
30
0
41
1
10
21.4022028234508
20
31.2358429628406
30
0
41
1
10
21.4027661732438
20
31.0634667380191
30
0
41
1
10
21.40324466988
20
30.9182111954526
30
0
41
1
10
21.4041291684585
20
30.6550241863673
30
0
41
1
10
21.4044518839249
20
30.5597362347912
30
0
41
1
10
21.4051563311278
20
30.3539760241642
30
0
41
1
10
21.4055385199374
20
30.2433729907279
30
0
41
1
10
21.4067757511321
20
29.8897544087262
30
0
41
1
10
21.4077206472268
20
29.6250360053792
30
0
41
1
10
21.409886060939
20
29.0380720446375
30
0
41
1
10
21.4111065878535
20
28.7157733710214
30
0
41
1
10
21.4138764394558
20
28.0132612261304
30
0
41
1
10
21.416958002479
20
27.2571109503554
30
0
41
1
10
21.4207948525678
20
26.3947532759531
30
0
41
1
10
21.424028351231
20
25.7078504168927
30
0
41
1
10
21.4251656726297
20
25.4722401265169
30
0
41
1
10
21.427565037532
20
24.9896162328264
30
0
41
1
10
21.4288281541311
20
24.7423667358618
30
0
41
1
10
21.432833416546
20
23.9828798180922
30
0
41
1
10
21.4357889738457
20
23.4529300550423
30
0
41
1
10
21.4407898774336
20
22.6223939769989
30
0
41
1
10
21.4425540224848
20
22.3393066170599
30
0
41
1
10
21.4462908074586
20
21.7632217913995
30
0
41
1
10
21.4482638109951
20
21.4701313749551
30
0
41
1
10
21.4545490845727
20
20.5758003577642
30
0
41
1
10
21.4592215708815
20
19.959521993152
30
0
41
1
10
21.4699266168072
20
18.6867663867639
30
0
41
1
10
21.4759666062473
20
18.0293546250741
30
0
41
1
10
21.4899193202336
20
16.6849087457072
30
0
41
1
10
21.4978308765566
20
15.9967480240763
30
0
41
1
10
21.5118577965741
20
14.9406237260214
30
0
41
1
10
21.516897318275
20
14.5845974342458
30
0
41
1
10
21.5279009037569
20
13.8645268176881
30
0
41
1
10
21.5338609285257
20
13.5007639179752
30
0
41
1
10
21.5534403599397
20
12.4019872960016
30
0
41
1
10
21.5686956881603
20
11.6581240127012
30
0
41
1
10
21.597478729533
20
10.5254295734177
30
0
41
1
10
21.6080728301284
20
10.1450454379278
30
0
41
1
10
21.6320379700345
20
9.37862881361372
30
0
41
1
10
21.6454217136174
20
8.9921527091671
30
0
41
1
10
21.6913004517755
20
7.82983128345796
30
0
41
1
10
21.7288947689567
20
7.04981196229642
30
0
41
1
10
21.8103062019509
20
5.87359033436874
30
0
41
1
10
21.8417250027494
20
5.48049362060723
30
0
41
1
10
21.9185917830822
20
4.69278653901372
30
0
41
1
10
21.9639402853661
20
4.29816630820645
30
0
41
1
10
22.0212394975099
20
3.90326570531133
30
0
0
SPLINE
5
FB
100
AcDbEntity
8
1
62
256
6
ByLayer
370
13
48
1
60
0
100
AcDbSpline
70
4
71
3
72
12
73
8
40
0
40
0
40
0
40
0
40
0.104253977468142
40
0.104253977468142
40
0.40283598497876
40
0.40283598497876
40
1
40
1
40
1
40
1
41
1
10
50.2032088347205
20
-33.6427352667694
30
0
41
1
10
50.2007137989462
20
-33.6348147967586
30
0
41
1
10
50.1986794006239
20
-33.6268772819676
30
0
41
1
10
50.1924789881109
20
-33.596438002939
30
0
41
1
10
50.1912407456558
20
-33.5740683452582
30
0
41
1
10
50.195649054731
20
-33.5084650428794
30
0
41
1
10
50.2089237359858
20
-33.4688091600495
30
0
41
1
10
50.2301192387499
20
-33.4334753185241
30
0
0
SPLINE
5
FC
100
AcDbEntity
8
1
62
256
6
ByLayer
370
13
48
1
60
0
100
AcDbSpline
70
4
71
3
72
12
73
8
40
0
40
0
40
0
40
0
40
0.59716401502088
40
0.59716401502088
40
0.895746022531319
40
0.895746022531319
40
1
40
1
40
1
40
1
41
1
10
52.2568898615968
20
-31.2216433080938
30
0
41
1
10
52.2902419374014
20
-31.1974489134144
30
0
41
1
10
52.3285899529202
20
-31.1807685084072
30
0
41
1
10
52.3935594054756
20
-31.1706592697334
30
0
41
1
10
52.4159518597961
20
-31.1699431561719
30
0
41
1
10
52.446815709736
20
-31.1734670162709
30
0
41
1
10
52.4549003293837
20
-31.1748018730963
30
0
41
1
10
52.463008116311
20
-31.1765971000595
30
0
0
SPLINE
5
FD
100
AcDbEntity
8
1
62
256
6
ByLayer
370
13
48
1
60
0
100
AcDbSpline
70
4
71
3
72
16
73
12
40
0
40
0
40
0
40
0
40
0.125
40
0.125
40
0.249999999999999
40
0.249999999999999
40
0.499999999999999
40
0.499999999999999
40
0.75
40
0.75
40
1
40
1
40
1
40
1
41
1
10
10.5386751345948
20
9.34922131452524
30
0
41
1
10
10.5072412025891
20
9.34922131452524
30
0
41
1
10
10.4761894743047
20
9.35548920253871
30
0
41
1
10
10.4185844965197
20
9.37745951316364
30
0
41
1
10
10.3915918423741
20
9.39323398486476
30
0
41
1
10
10.3189381439131
20
9.44778039735229
30
0
41
1
10
10.2791799968771
20
9.49465699870649
30
0
41
1
10
10.2124982207835
20
9.59456078532628
30
0
41
1
10
10.185486409689
20
9.64780841973413
30
0
41
1
10
10.1399018475136
20
9.75655023082987
30
0
41
1
10
10.1212498345488
20
9.81243201498822
30
0
41
1
10
10.1056624327026
20
9.86941261896635
30
0
0
SPLINE
5
FE
100
AcDbEntity
8
1
62
256
6
ByLayer
370
13
48
1
60
0
100
AcDbSpline
70
4
71
3
72
10
73
6
40
0
40
0
40
0
40
0
40
0.5
40
0.5
40
1
40
1
40
1
40
1
41
1
10
50.3584017452946
20
-33.2840527005636
30
0
41
1
10
50.3348698465396
20
-33.2859994549964
30
0
41
1
10
50.314026611865
20
-33.290074751517
30
0
41
1
10
50.2802521659729
20
-33.3019640996786
30
0
41
1
10
50.2670186077929
20
-33.3097705337275
30
0
41
1
10
50.2581701973311
20
-33.3194268792854
30
0
0
SPLINE
5
FF
100
AcDbEntity
8
1
62
256
6
ByLayer
370
13
48
1
60
0
100
AcDbSpline
70
4
71
3
72
10
73
6
40
0
40
0
40
0
40
0
40
0.5
40
0.5
40
1
40
1
40
1
40
1
41
1
10
57.9870324046153
20
-23.0480840678634
30
0
41
1
10
57.9851051588451
20
-23.051422155456
30
0
41
1
10
57.9859809994209
20
-23.0589446305397
30
0
41
1
10
57.9928176994435
20
-23.0810557785466
30
0
41
1
10
57.9987205294258
20
-23.0955871125373
30
0
41
1
10
58.0070220458424
20
-23.1134609936332
30
0
0
SPLINE
5
100
100
AcDbEntity
8
1
62
256
6
ByLayer
370
13
48
1
60
0
100
AcDbSpline
70
4
71
3
72
30
73
26
40
0
40
0
40
0
40
0
40
0.0078125000000004
40
0.0078125000000004
40
0.0156250000000009
40
0.0156250000000009
40
0.0312500000000009
40
0.0312500000000009
40
0.0625000000000009
40
0.0625000000000009
40
0.0937500000000008
40
0.0937500000000008
40
0.125000000000001
40
0.125000000000001
40
0.187500000000001
40
0.187500000000001
40
0.250000000000001
40
0.250000000000001
40
0.375000000000001
40
0.375000000000001
40
0.5
40
0.5
40
0.75
40
0.75
40
1
40
1
40
1
40
1
41
1
10
41.7313581088192
20
1.37274324879294
30
0
41
1
10
41.7381057981544
20
1.36394634159618
30
0
41
1
10
41.7465796032723
20
1.35245983400586
30
0
41
1
10
41.7656673490857
20
1.32615239187268
30
0
41
1
10
41.7763425126278
20
1.31123989856078
30
0
41
1
10
41.8094079087676
20
1.26470852480719
30
0
41
1
10
41.8332153733531
20
1.23079030909471
30
0
41
1
10
41.9071867059691
20
1.12485068967038
30
0
41
1
10
41.9601332943503
20
1.04830061479433
30
0
41
1
10
42.0676830534999
20
0.892261780834502
30
0
41
1
10
42.1224201905724
20
0.812556199211514
30
0
41
1
10
42.2329760882628
20
0.651254775310974
30
0
41
1
10
42.2886865985064
20
0.569811657179969
30
0
41
1
10
42.456567429926
20
0.324076156959137
30
0
41
1
10
42.5695934252361
20
0.158227934042856
30
0
41
1
10
42.7963613934031
20
-0.174945872566383
30
0
41
1
10
42.9101739039155
20
-0.342383008508648
30
0
41
1
10
43.2524995487018
20
-0.846417589956303
30
0
41
1
10
43.4816648386665
20
-1.18438214158149
30
0
41
1
10
43.9408482824252
20
-1.86210430840998
30
0
41
1
10
44.1709860093832
20
-2.20205050913691
30
0
41
1
10
44.8619229222336
20
-3.22313177629644
30
0
41
1
10
45.3237590072766
20
-3.90625241474481
30
0
41
1
10
46.2481471588358
20
-5.27389634145138
30
0
41
1
10
46.7106578257581
20
-5.95836771317147
30
0
41
1
10
47.1736025550501
20
-6.64353385858416
30
0
0
SPLINE
5
101
100
AcDbEntity
8
1
62
256
6
ByLayer
370
13
48
1
60
0
100
AcDbSpline
70
4
71
3
72
24
73
20
40
0
40
0
40
0
40
0
40
0.125
40
0.125
40
0.250000000000001
40
0.250000000000001
40
0.375000000000001
40
0.375000000000001
40
0.500000000000002
40
0.500000000000002
40
0.625000000000002
40
0.625000000000002
40
0.750000000000003
40
0.750000000000003
40
0.8125
40
0.8125
40
0.874999999999996
40
0.874999999999996
40
1
40
1
40
1
40
1
41
1
10
44.3815519489147
20
-32.6448706856723
30
0
41
1
10
44.4684754617624
20
-32.6840162742397
30
0
41
1
10
44.5592523400249
20
-32.7178626291649
30
0
41
1
10
44.7458026316857
20
-32.7731137416949
30
0
41
1
10
44.8413241554424
20
-32.7945199413774
30
0
41
1
10
45.0370164427194
20
-32.8242247837715
30
0
41
1
10
45.1372912573289
20
-32.8325348055533
30
0
41
1
10
45.3424895459478
20
-32.8345209207407
30
0
41
1
10
45.4455213186126
20
-32.8281869726405
30
0
41
1
10
45.6524092678394
20
-32.8001014860316
30
0
41
1
10
45.7565726866126
20
-32.7782732845881
30
0
41
1
10
45.9644383551267
20
-32.7177019695373
30
0
41
1
10
46.0661718666872
20
-32.6795735736175
30
0
41
1
10
46.2153078521464
20
-32.6101741180838
30
0
41
1
10
46.2644401809725
20
-32.5849981412338
30
0
41
1
10
46.361485926543
20
-32.530370959527
30
0
41
1
10
46.4096287826441
20
-32.5007539080353
30
0
41
1
10
46.5497172539062
20
-32.4067340902625
30
0
41
1
10
46.6377135752964
20
-32.337101931953
30
0
41
1
10
46.7202888511183
20
-32.2604909263092
30
0
0
SPLINE
5
102
100
AcDbEntity
8
1
62
256
6
ByLayer
370
13
48
1
60
0
100
AcDbSpline
70
4
71
3
72
8
73
4
40
0
40
0
40
0
40
0
40
1
40
1
40
1
40
1
41
1
10
26.5962666587139
20
-33.7931263831214
30
0
41
1
10
28.1483465942391
20
-35.6428313209313
30
0
41
1
10
29.7004271715715
20
-37.4925357202131
30
0
41
1
10
31.2525081527011
20
-39.3422397806651
30
0
0
SPLINE
5
103
100
AcDbEntity
8
1
62
256
6
ByLayer
370
13
48
1
60
0
100
AcDbSpline
70
4
71
3
72
10
73
6
40
0
40
0
40
0
40
0
40
0.5
40
0.5
40
1
40
1
40
1
40
1
41
1
10
22.9883692334924
20
-30.5721975142786
30
0
41
1
10
23.308340904177
20
-30.4671093471771
30
0
41
1
10
23.6137762182507
20
-30.3679127450356
30
0
41
1
10
24.205452982624
20
-30.1782897581228
30
0
41
1
10
24.4912008274653
20
-30.0879576160844
30
0
41
1
10
24.7664893396152
20
-30.0014096456368
30
0
0
SPLINE
5
104
100
AcDbEntity
8
1
62
256
6
ByLayer
370
13
48
1
60
0
100
AcDbSpline
70
4
71
3
72
38
73
34
40
0
40
0
40
0
40
0
40
0.0312499999999997
40
0.0312499999999997
40
0.0624999999999996
40
0.0624999999999996
40
0.124999999999999
40
0.124999999999999
40
0.249999999999998
40
0.249999999999998
40
0.312499999999998
40
0.312499999999998
40
0.343749999999998
40
0.343749999999998
40
0.374999999999997
40
0.374999999999997
40
0.499999999999996
40
0.499999999999996
40
0.531249999999996
40
0.531249999999996
40
0.562499999999996
40
0.562499999999996
40
0.624999999999996
40
0.624999999999996
40
0.656249999999996
40
0.656249999999996
40
0.687499999999996
40
0.687499999999996
40
0.749999999999997
40
0.749999999999997
40
0.874999999999999
40
0.874999999999999
40
1
40
1
40
1
40
1
41
1
10
22.0212394975041
20
3.90326570531101
30
0
41
1
10
22.0253452316723
20
4.19229030004325
30
0
41
1
10
22.0298275073765
20
4.48088431588323
30
0
41
1
10
22.039558355091
20
5.05719608031731
30
0
41
1
10
22.0448079994847
20
5.34489645308577
30
0
41
1
10
22.0616328049259
20
6.20215671431637
30
0
41
1
10
22.0743071752462
20
6.76739202533435
30
0
41
1
10
22.1167046188506
20
8.44427978732648
30
0
41
1
10
22.1507869086072
20
9.53717909628702
30
0
41
1
10
22.2109019042956
20
11.1378467915639
30
0
41
1
10
22.2324424890551
20
11.6649400695934
30
0
41
1
10
22.2670762854597
20
12.4455868983975
30
0
41
1
10
22.2790083087895
20
12.7041358260976
30
0
41
1
10
22.3036622946401
20
13.2178354006543
30
0
41
1
10
22.316399981323
20
13.4732732546271
30
0
41
1
10
22.3817787602847
20
14.7355962732368
30
0
41
1
10
22.4396254961512
20
15.7015859607281
30
0
41
1
10
22.5189848212623
20
16.8532775665302
30
0
41
1
10
22.5352242854759
20
17.0809961964675
30
0
41
1
10
22.5683040029705
20
17.5292597778413
30
0
41
1
10
22.585152764535
20
17.749941463544
30
0
41
1
10
22.6366226190507
20
18.4016712607386
30
0
41
1
10
22.6721664765995
20
18.8224131057939
30
0
41
1
10
22.7273302131302
20
19.4328863004528
30
0
41
1
10
22.7460263180895
20
19.6329351906631
30
0
41
1
10
22.7840376881063
20
20.0261176332421
30
0
41
1
10
22.8033799785564
20
20.2195024882922
30
0
41
1
10
22.8620455735291
20
20.7864021892223
30
0
41
1
10
22.9020533494686
20
21.1472335902125
30
0
41
1
10
23.0246899686318
20
22.1799252056006
30
0
41
1
10
23.109923363089
20
22.8021493963763
30
0
41
1
10
23.2871514977802
20
23.9177439798654
30
0
41
1
10
23.3791465765118
20
24.4111079216864
30
0
41
1
10
23.4745670824775
20
24.8391920621665
30
0
0
SPLINE
5
105
100
AcDbEntity
8
1
62
256
6
ByLayer
370
13
48
1
60
0
100
AcDbSpline
70
4
71
3
72
12
73
8
40
0
40
0
40
0
40
0
40
0.250000000000001
40
0.250000000000001
40
0.500000000000003
40
0.500000000000003
40
1
40
1
40
1
40
1
41
1
10
58.0037603165267
20
-23.1191104745284
30
0
41
1
10
58.001869855909
20
-23.1223848483679
30
0
41
1
10
58.0023942243803
20
-23.1292336485524
30
0
41
1
10
58.0077797663031
20
-23.1489197286983
30
0
41
1
10
58.0126154912396
20
-23.161777804338
30
0
41
1
10
58.0334204147819
20
-23.2091829009263
30
0
41
1
10
58.0545931514828
20
-23.2502130127725
30
0
41
1
10
58.0818896317374
20
-23.2988106687666
30
0
0
SPLINE
5
106
100
AcDbEntity
8
1
62
256
6
ByLayer
370
13
48
1
60
0
100
AcDbSpline
70
4
71
3
72
30
73
26
40
0
40
0
40
0
40
0
40
0.124999999999999
40
0.124999999999999
40
0.187499999999999
40
0.187499999999999
40
0.249999999999999
40
0.249999999999999
40
0.374999999999999
40
0.374999999999999
40
0.437499999999999
40
0.437499999999999
40
0.499999999999999
40
0.499999999999999
40
0.624999999999999
40
0.624999999999999
40
0.687499999999999
40
0.687499999999999
40
0.718749999999999
40
0.718749999999999
40
0.749999999999999
40
0.749999999999999
40
0.875
40
0.875
40
1
40
1
40
1
40
1
41
1
10
41.8396441835094
20
-0.719923916119484
30
0
41
1
10
41.7463561230223
20
-0.461512287272143
30
0
41
1
10
41.65747108066
20
-0.21194347300036
30
0
41
1
10
41.5334300007493
20
0.145198953975466
30
0
41
1
10
41.4936161353312
20
0.261448748269061
30
0
41
1
10
41.4184550502409
20
0.485026819999007
30
0
41
1
10
41.3830079800642
20
0.592638477701911
30
0
41
1
10
41.2839716655564
20
0.901503264943244
30
0
41
1
10
41.2276302030387
20
1.08888706559858
30
0
41
1
10
41.1621557183311
20
1.33485886692083
30
0
41
1
10
41.1435171982976
20
1.41097541847847
30
0
41
1
10
41.1135526778675
20
1.54990595059809
30
0
41
1
10
41.1022460456622
20
1.61280097206154
30
0
41
1
10
41.08111797886
20
1.7759399357424
30
0
41
1
10
41.0837758009865
20
1.85197119950587
30
0
41
1
10
41.1147043116165
20
1.91387208753162
30
0
41
1
10
41.1294955362891
20
1.92582597904485
30
0
41
1
10
41.1585442568858
20
1.9304750820323
30
0
41
1
10
41.1693701288118
20
1.92981208911581
30
0
41
1
10
41.1933224909463
20
1.92402871426532
30
0
41
1
10
41.2064827046458
20
1.91888369047658
30
0
41
1
10
41.2772453206983
20
1.88244651681936
30
0
41
1
10
41.3500648298785
20
1.81913799487566
30
0
41
1
10
41.522163906446
20
1.63593710305554
30
0
41
1
10
41.62143953661
20
1.51604318909776
30
0
41
1
10
41.7313581088194
20
1.37274324879269
30
0
0
SPLINE
5
107
100
AcDbEntity
8
1
62
256
6
ByLayer
370
13
48
1
60
0
100
AcDbSpline
70
4
71
3
72
8
73
4
40
0
40
0
40
0
40
0
40
1
40
1
40
1
40
1
41
1
10
50.2301192387499
20
-33.4334753185241
30
0
41
1
10
50.2410220534983
20
-33.4152998436231
30
0
41
1
10
50.2534711795069
20
-33.3985643190297
30
0
41
1
10
50.2674835772465
20
-33.3832724702561
30
0
0
SPLINE
5
108
100
AcDbEntity
8
1
62
256
6
ByLayer
370
13
48
1
60
0
100
AcDbSpline
70
4
71
3
72
12
73
8
40
0
40
0
40
0
40
0
40
0.499999999999996
40
0.499999999999996
40
0.749999999999998
40
0.749999999999998
40
1
40
1
40
1
40
1
41
1
10
22.9883692335089
20
-31.727977653946
30
0
41
1
10
22.8866683261699
20
-31.6521693318425
30
0
41
1
10
22.7780554119226
20
-31.5945616909132
30
0
41
1
10
22.6015030252582
20
-31.5323765718317
30
0
41
1
10
22.5412000029347
20
-31.5160878056994
30
0
41
1
10
22.4154284019512
20
-31.4927939035651
30
0
41
1
10
22.3501171652268
20
-31.4856773493616
30
0
41
1
10
22.2792076144253
20
-31.4848104283884
30
0
0
SPLINE
5
109
100
AcDbEntity
8
1
62
256
6
ByLayer
370
13
48
1
60
0
100
AcDbSpline
70
4
71
3
72
16
73
12
40
0
40
0
40
0
40
0
40
0.0625000000000008
40
0.0625000000000008
40
0.125000000000002
40
0.125000000000002
40
0.250000000000001
40
0.250000000000001
40
0.5
40
0.5
40
1
40
1
40
1
40
1
41
1
10
22.2792076144169
20
-30.9182954314802
30
0
41
1
10
22.3061698057255
20
-30.9089850945921
30
0
41
1
10
22.3297972061688
20
-30.9002368281117
30
0
41
1
10
22.3739286077882
20
-30.8832718944132
30
0
41
1
10
22.3943332369066
20
-30.8750718156478
30
0
41
1
10
22.4525449066952
20
-30.8509872970081
30
0
41
1
10
22.487409310902
20
-30.8356086230469
30
0
41
1
10
22.586133784894
20
-30.7905050678652
30
0
41
1
10
22.6441276105345
20
-30.7618123663313
30
0
41
1
10
22.8076160376432
20
-30.677654191713
30
0
41
1
10
22.9022458741309
20
-30.6241739489007
30
0
41
1
10
22.988369233591
20
-30.5721975142647
30
0
0
SPLINE
5
10A
100
AcDbEntity
8
1
62
256
6
ByLayer
370
13
48
1
60
0
100
AcDbSpline
70
4
71
3
72
16
73
12
40
0
40
0
40
0
40
0
40
0.249999999999999
40
0.249999999999999
40
0.499999999999999
40
0.499999999999999
40
0.749999999999998
40
0.749999999999998
40
0.874999999999999
40
0.874999999999999
40
1
40
1
40
1
40
1
41
1
10
13.8943375672975
20
-29.913954846469
30
0
41
1
10
13.8787443055274
20
-29.9327613369587
30
0
41
1
10
13.8599440812239
20
-29.9511519005795
30
0
41
1
10
13.8142652669257
20
-29.9863830332716
30
0
41
1
10
13.7874862877332
20
-30.0032932993814
30
0
41
1
10
13.7208296342408
20
-30.0350452819074
30
0
41
1
10
13.6817632688741
20
-30.0496472407049
30
0
41
1
10
13.6079581046676
20
-30.0669872793661
30
0
41
1
10
13.5815263070003
20
-30.0717959485601
30
0
41
1
10
13.5234304266403
20
-30.078685990659
30
0
41
1
10
13.4928040273173
20
-30.0805927603169
30
0
41
1
10
13.4613248654052
20
-30.0805927603169
30
0
0
SPLINE
5
10B
100
AcDbEntity
8
1
62
256
6
ByLayer
370
13
48
1
60
0
100
AcDbSpline
70
4
71
3
72
8
73
4
40
0
40
0
40
0
40
0
40
1
40
1
40
1
40
1
41
1
10
50.3959697782453
20
-22.7287121658303
30
0
41
1
10
50.7265296832917
20
-23.6318598593933
30
0
41
1
10
51.0516621939421
20
-24.5595292907361
30
0
41
1
10
51.370059344116
20
-25.5112696522587
30
0
0
SPLINE
5
10C
100
AcDbEntity
8
1
62
256
6
ByLayer
370
13
48
1
60
0
100
AcDbSpline
70
4
71
3
72
16
73
12
40
0
40
0
40
0
40
0
40
0.125
40
0.125
40
0.249999999999999
40
0.249999999999999
40
0.499999999999999
40
0.499999999999999
40
0.75
40
0.75
40
1
40
1
40
1
40
1
41
1
10
10.5386751345948
20
-30.0805927603169
30
0
41
1
10
10.5072412025891
20
-30.0805927603169
30
0
41
1
10
10.4761894743047
20
-30.07864614904
30
0
41
1
10
10.4185844965197
20
-30.0718038277879
30
0
41
1
10
10.3915918423741
20
-30.0668840803112
30
0
41
1
10
10.3189381439131
20
-30.0498069467437
30
0
41
1
10
10.2791799968771
20
-30.0350501233766
30
0
41
1
10
10.2124982207835
20
-30.0032856662984
30
0
41
1
10
10.185486409689
20
-29.9862144781928
30
0
41
1
10
10.1399018475136
20
-29.9510098933135
30
0
41
1
10
10.1212498345488
20
-29.9327542695083
30
0
41
1
10
10.1056624327026
20
-29.913954846469
30
0
0
SPLINE
5
10D
100
AcDbEntity
8
1
62
256
6
ByLayer
370
13
48
1
60
0
100
AcDbSpline
70
4
71
3
72
18
73
14
40
0
40
0
40
0
40
0
40
0.25
40
0.25
40
0.375
40
0.375
40
0.5
40
0.5
40
0.75
40
0.75
40
0.875
40
0.875
40
1
40
1
40
1
40
1
41
1
10
22.9883692335122
20
-24.4695930682819
30
0
41
1
10
22.9156451219229
20
-23.7142059884013
30
0
41
1
10
22.8458182082524
20
-22.9275847999645
30
0
41
1
10
22.7459353215074
20
-21.6952854610227
30
0
41
1
10
22.7134467637717
20
-21.2758325169087
30
0
41
1
10
22.6501434988307
20
-20.4188811824817
30
0
41
1
10
22.6192928692185
20
-19.980840812593
30
0
41
1
10
22.5296355893835
20
-18.64305239164
30
0
41
1
10
22.4737656828289
20
-17.7206288741629
30
0
41
1
10
22.3960318559486
20
-16.2894341663151
30
0
41
1
10
22.3711141753243
20
-15.8040091856386
30
0
41
1
10
22.3235028658326
20
-14.8199963121319
30
0
41
1
10
22.3007968188217
20
-14.3212302793375
30
0
41
1
10
22.2792076144253
20
-13.8155987028809
30
0
0
SPLINE
5
10E
100
AcDbEntity
8
1
62
256
6
ByLayer
370
13
48
1
60
0
100
AcDbSpline
70
4
71
3
72
12
73
8
40
0
40
0
40
0
40
0
40
0.250000000000001
40
0.250000000000001
40
0.500000000000002
40
0.500000000000002
40
1
40
1
40
1
40
1
41
1
10
25.0681714411195
20
-32.4936533418946
30
0
41
1
10
25.2128921449606
20
-32.5797692130301
30
0
41
1
10
25.3538998752079
20
-32.6719112972795
30
0
41
1
10
25.6284390857045
20
-32.8683295342393
30
0
41
1
10
25.7621877981974
20
-32.9728605899658
30
0
41
1
10
26.1462210701769
20
-33.2999145192311
30
0
41
1
10
26.3814487831872
20
-33.537115287303
30
0
41
1
10
26.5962666587139
20
-33.7931263831214
30
0
0
SPLINE
5
10F
100
AcDbEntity
8
1
62
256
6
ByLayer
370
13
48
1
60
0
100
AcDbSpline
70
4
71
3
72
16
73
12
40
0
40
0
40
0
40
0
40
0.125000000000002
40
0.125000000000002
40
0.250000000000003
40
0.250000000000003
40
0.500000000000002
40
0.500000000000002
40
0.750000000000001
40
0.750000000000001
40
1
40
1
40
1
40
1
41
1
10
13.4613248654053
20
-9.34922131452515
30
0
41
1
10
13.492758797411
20
-9.34922131452515
30
0
41
1
10
13.5238105256954
20
-9.35548920253865
30
0
41
1
10
13.5814155034804
20
-9.37745951316356
30
0
41
1
10
13.608408157626
20
-9.39323398486471
30
0
41
1
10
13.681061856087
20
-9.4477803973522
30
0
41
1
10
13.720820003123
20
-9.4946569987064
30
0
41
1
10
13.7875017792166
20
-9.59456078532622
30
0
41
1
10
13.8145135903111
20
-9.64780841973405
30
0
41
1
10
13.8600981524865
20
-9.75655023082982
30
0
41
1
10
13.8787501654513
20
-9.81243201498819
30
0
41
1
10
13.8943375672974
20
-9.86941261896632
30
0
0
SPLINE
5
110
100
AcDbEntity
8
1
62
256
6
ByLayer
370
13
48
1
60
0
100
AcDbSpline
70
4
71
3
72
18
73
14
40
0
40
0
40
0
40
0
40
0.124999999999998
40
0.124999999999998
40
0.249999999999996
40
0.249999999999996
40
0.374999999999994
40
0.374999999999994
40
0.499999999999992
40
0.499999999999992
40
0.749999999999996
40
0.749999999999996
40
1
40
1
40
1
40
1
41
1
10
21.5485217602025
20
-31.4613203976629
30
0
41
1
10
21.5561478066607
20
-31.4633061139548
30
0
41
1
10
21.5710631286998
20
-31.4650950950662
30
0
41
1
10
21.6110126425008
20
-31.4683520610606
30
0
41
1
10
21.6353137313938
20
-31.4697701739805
30
0
41
1
10
21.6894504679191
20
-31.4723421376957
30
0
41
1
10
21.7192765472641
20
-31.4734885690179
30
0
41
1
10
21.7814239966814
20
-31.4755526909393
30
0
41
1
10
21.8139574024177
20
-31.4764784120727
30
0
41
1
10
21.9147018450603
20
-31.4790317633195
30
0
41
1
10
21.9855512872201
20
-31.4804282415247
30
0
41
1
10
22.1300423882853
20
-31.482857362301
30
0
41
1
10
22.2040353510186
20
-31.4838913926448
30
0
41
1
10
22.2792076144252
20
-31.4848104283884
30
0
0
SPLINE
5
111
100
AcDbEntity
8
1
62
256
6
ByLayer
370
13
48
1
60
0
100
AcDbSpline
70
4
71
3
72
9
73
5
40
0
40
0
40
0
40
0
40
0.5
40
1
40
1
40
1
40
1
41
1
10
51.0442793506313
20
-27.4864751483088
30
0
41
1
10
50.3930074218321
20
-28.3447997221633
30
0
41
1
10
49.0206433982499
20
-29.9984114373086
30
0
41
1
10
47.5103579126896
20
-31.5274871944712
30
0
41
1
10
46.7202888511183
20
-32.2604909263092
30
0
0
SPLINE
5
112
100
AcDbEntity
8
1
62
256
6
ByLayer
370
13
48
1
60
0
100
AcDbSpline
70
4
71
3
72
16
73
12
40
0
40
0
40
0
40
0
40
0.250000000000001
40
0.250000000000001
40
0.375000000000001
40
0.375000000000001
40
0.500000000000001
40
0.500000000000001
40
0.75
40
0.75
40
1
40
1
40
1
40
1
41
1
10
24.7664893396156
20
-30.0014096456368
30
0
41
1
10
24.5905263733382
20
-29.8386209052291
30
0
41
1
10
24.4262918907677
20
-29.684853860172
30
0
41
1
10
24.2030083309415
20
-29.4605475004604
30
0
41
1
10
24.1324208256115
20
-29.3868423836153
30
0
41
1
10
23.9998415119516
20
-29.240431572775
30
0
41
1
10
23.9381226229403
20
-29.1679712550542
30
0
41
1
10
23.7700977940823
20
-28.9546131546652
30
0
41
1
10
23.6796361717892
20
-28.8162938366637
30
0
41
1
10
23.5430612215653
20
-28.5407283466617
30
0
41
1
10
23.4968745809474
20
-28.4034907335823
30
0
41
1
10
23.4745670824775
20
-28.2650040678121
30
0
0
SPLINE
5
113
100
AcDbEntity
8
1
62
256
6
ByLayer
370
13
48
1
60
0
100
AcDbSpline
70
2053
71
3
72
97
73
93
40
0
40
0
40
0
40
0
40
0.0312500000000023
40
0.0312500000000023
40
0.0468750000000033
40
0.0468750000000033
40
0.0625000000000042
40
0.0625000000000042
40
0.0937500000000053
40
0.0937500000000053
40
0.125000000000006
40
0.125000000000006
40
0.140625000000006
40
0.140625000000006
40
0.156250000000006
40
0.156250000000006
40
0.187500000000006
40
0.187500000000006
40
0.203125000000006
40
0.203125000000006
40
0.218750000000006
40
0.218750000000006
40
0.250000000000006
40
0.250000000000006
40
0.265625000000006
40
0.265625000000006
40
0.281250000000006
40
0.281250000000006
40
0.312500000000007
40
0.312500000000007
40
0.343750000000007
40
0.343750000000007
40
0.359375000000007
40
0.359375000000007
40
0.375000000000007
40
0.375000000000007
40
0.406250000000006
40
0.406250000000006
40
0.421875000000006
40
0.421875000000006
40
0.437500000000006
40
0.437500000000006
40
0.468750000000006
40
0.468750000000006
40
0.500000000000006
40
0.500000000000006
40
0.515625000000005
40
0.515625000000005
40
0.531250000000004
40
0.531250000000004
40
0.562500000000002
40
0.562500000000002
40
0.578125000000002
40
0.578125000000002
40
0.593750000000002
40
0.593750000000002
40
0.625
40
0.625
40
0.640625
40
0.640625
40
0.65625
40
0.65625
40
0.687499999999999
40
0.687499999999999
40
0.718749999999998
40
0.718749999999998
40
0.734374999999998
40
0.734374999999998
40
0.749999999999998
40
0.749999999999998
40
0.781249999999997
40
0.781249999999997
40
0.796874999999997
40
0.796874999999997
40
0.812499999999996
40
0.812499999999996
40
0.843749999999996
40
0.843749999999996
40
0.859374999999996
40
0.859374999999996
40
0.874999999999996
40
0.890624999999996
40
0.890624999999996
40
0.906249999999996
40
0.906249999999996
40
0.937499999999998
40
0.937499999999998
40
0.953124999999999
40
0.953124999999999
40
0.968749999999999
40
0.968749999999999
40
1
40
1
40
1
40
1
41
1
10
48.7294978817118
20
-31.0182165845152
30
0
41
1
10
48.6351564984291
20
-31.1108668770461
30
0
41
1
10
48.5443759073309
20
-31.1971756759577
30
0
41
1
10
48.4135513581828
20
-31.3176414580409
30
0
41
1
10
48.3708219905064
20
-31.3562953783687
30
0
41
1
10
48.2888402740008
20
-31.4291568313621
30
0
41
1
10
48.249360531289
20
-31.4635760653028
30
0
41
1
10
48.1353466720803
20
-31.5610644428692
30
0
41
1
10
48.0651955037143
20
-31.6184181266182
30
0
41
1
10
47.9370823829532
20
-31.7178855795461
30
0
41
1
10
47.8812181149213
20
-31.7583753044295
30
0
41
1
10
47.8091620642074
20
-31.8062565643743
30
0
41
1
10
47.7871116851261
20
-31.8200594940015
30
0
41
1
10
47.7470129585583
20
-31.8433291898654
30
0
41
1
10
47.7288883994745
20
-31.8528267067977
30
0
41
1
10
47.6814631376103
20
-31.8743033503175
30
0
41
1
10
47.6589684446084
20
-31.879439734911
30
0
41
1
10
47.6386577839499
20
-31.8737446233964
30
0
41
1
10
47.634140759719
20
-31.8695967104876
30
0
41
1
10
47.6297515964641
20
-31.8566641284918
30
0
41
1
10
47.6299123188148
20
-31.8478611571184
30
0
41
1
10
47.6373922207825
20
-31.8149691681583
30
0
41
1
10
47.6515828094456
20
-31.7843514266111
30
0
41
1
10
47.6868078660583
20
-31.7250759173619
30
0
41
1
10
47.7009714518596
20
-31.7029554157149
30
0
41
1
10
47.7337622462467
20
-31.654598211385
30
0
41
1
10
47.7523089784758
20
-31.6284659904926
30
0
41
1
10
47.8142594406451
20
-31.5442539868074
30
0
41
1
10
47.8639139760728
20
-31.4804189639992
30
0
41
1
10
47.9805564849069
20
-31.3362289607473
30
0
41
1
10
48.046129445538
20
-31.2576349495744
30
0
41
1
10
48.1539094473018
20
-31.1311949545105
30
0
41
1
10
48.1914697535531
20
-31.0875492948904
30
0
41
1
10
48.2699212987714
20
-30.9971312355725
30
0
41
1
10
48.3109201927795
20
-30.950240237259
30
0
41
1
10
48.4361862704187
20
-30.8079024780582
30
0
41
1
10
48.5235290639444
20
-30.7098396139063
30
0
41
1
10
48.6601787445358
20
-30.557804436984
30
0
41
1
10
48.7069578265719
20
-30.5059867974726
30
0
41
1
10
48.8007816706187
20
-30.4024754195134
30
0
41
1
10
48.8478283951808
20
-30.3507761124621
30
0
41
1
10
48.9893515413123
20
-30.1958325590871
30
0
41
1
10
49.0843788779799
20
-30.0925471628038
30
0
41
1
10
49.2748026553314
20
-29.8872065730939
30
0
41
1
10
49.3671503232505
20
-29.7884383758378
30
0
41
1
10
49.501697324353
20
-29.6459766739696
30
0
41
1
10
49.5458793348875
20
-29.5994459625264
30
0
41
1
10
49.6329110099086
20
-29.508367101115
30
0
41
1
10
49.6757149833556
20
-29.4638717327159
30
0
41
1
10
49.7991715288638
20
-29.3365315889262
30
0
41
1
10
49.8759747971174
20
-29.2586599704908
30
0
41
1
10
49.9833341132688
20
-29.152370118565
30
0
41
1
10
50.0179598553208
20
-29.118556138027
30
0
41
1
10
50.0837782064003
20
-29.0553337604917
30
0
41
1
10
50.1147893400235
20
-29.0260941436395
30
0
41
1
10
50.2024233800081
20
-28.9452424408635
30
0
41
1
10
50.2536957078884
20
-28.9004381868056
30
0
41
1
10
50.3200838955337
20
-28.8470431792872
30
0
41
1
10
50.3404785433087
20
-28.8315517978963
30
0
41
1
10
50.3768945076588
20
-28.805882422338
30
0
41
1
10
50.3930414748523
20
-28.7955978774853
30
0
41
1
10
50.4355087605418
20
-28.7721964537356
30
0
41
1
10
50.455912572149
20
-28.7664669992989
30
0
41
1
10
50.4806093666485
20
-28.7752823842975
30
0
41
1
10
50.4845476629378
20
-28.7897856499108
30
0
41
1
10
50.4782712608745
20
-28.8258212614704
30
0
41
1
10
50.4741436317216
20
-28.8402332059834
30
0
41
1
10
50.4617395943106
20
-28.8739187242027
30
0
41
1
10
50.4534087396447
20
-28.8933023290273
30
0
41
1
10
50.4223114867175
20
-28.9581726467751
30
0
41
1
10
50.3936923314026
20
-29.0100078985657
30
0
41
1
10
50.3388516223403
20
-29.1003948807768
30
0
41
1
10
50.3185719939393
20
-29.1326437815966
30
0
41
1
10
50.2738172836528
20
-29.2015215579382
30
0
41
1
10
50.2494393763546
20
-29.2379902230882
30
0
41
1
10
50.1713215757041
20
-29.3518453128941
30
0
41
1
10
50.1122794150809
20
-29.4342101320061
30
0
41
1
10
50.0125834388925
20
-29.5676678971881
30
0
41
1
10
49.9773343875861
20
-29.6140016100679
30
0
41
1
10
49.9044196990556
20
-29.7081344792462
30
0
41
1
10
49.8288076787412
20
-29.8041210004209
30
0
41
1
10
49.7477432204667
20
-29.9037521955474
30
0
41
1
10
49.663846213829
20
-30.0052329160656
30
0
41
1
10
49.6202129859466
20
-30.0572094883649
30
0
41
1
10
49.4873153477445
20
-30.2130883615921
30
0
41
1
10
49.3959730345019
20
-30.3170991250376
30
0
41
1
10
49.2547896497732
20
-30.4731905852895
30
0
41
1
10
49.2067956011287
20
-30.5254848519531
30
0
41
1
10
49.1104557980754
20
-30.6289161002614
30
0
41
1
10
49.0624476565896
20
-30.6796988944172
30
0
41
1
10
48.9189039223703
20
-30.8293578683362
30
0
41
1
10
48.8238392649945
20
-30.9255662919843
30
0
41
1
10
48.7294978817118
20
-31.0182165845152
30
0
0
SPLINE
5
114
100
AcDbEntity
8
1
62
256
6
ByLayer
370
13
48
1
60
0
100
AcDbSpline
70
4
71
3
72
8
73
4
40
0
40
0
40
0
40
0
40
1
40
1
40
1
40
1
41
1
10
52.2101345669972
20
-31.2632409305306
30
0
41
1
10
52.2241469647368
20
-31.247949081757
30
0
41
1
10
52.2397337927827
20
-31.2340887313552
30
0
41
1
10
52.2568898615968
20
-31.2216433080937
30
0
0
SPLINE
5
115
100
AcDbEntity
8
1
62
256
6
ByLayer
370
13
48
1
60
0
100
AcDbSpline
70
4
71
3
72
16
73
12
40
0
40
0
40
0
40
0
40
0.124999999999998
40
0.124999999999998
40
0.249999999999996
40
0.249999999999996
40
0.499999999999997
40
0.499999999999997
40
0.749999999999999
40
0.749999999999999
40
1
40
1
40
1
40
1
41
1
10
13.4613248654053
20
30.0805927603169
30
0
41
1
10
13.492758797411
20
30.0805927603169
30
0
41
1
10
13.5238105256954
20
30.0786461490401
30
0
41
1
10
13.5814155034804
20
30.0718038277879
30
0
41
1
10
13.608408157626
20
30.0668840803112
30
0
41
1
10
13.681061856087
20
30.0498069467437
30
0
41
1
10
13.720820003123
20
30.0350501233766
30
0
41
1
10
13.7875017792166
20
30.0032856662984
30
0
41
1
10
13.8145135903111
20
29.9862144781928
30
0
41
1
10
13.8600981524865
20
29.9510098933135
30
0
41
1
10
13.8787501654513
20
29.9327542695084
30
0
41
1
10
13.8943375672974
20
29.913954846469
30
0
0
SPLINE
5
116
100
AcDbEntity
8
1
62
256
6
ByLayer
370
13
48
1
60
0
100
AcDbSpline
70
4
71
3
72
18
73
14
40
0
40
0
40
0
40
0
40
0.25
40
0.25
40
0.500000000000001
40
0.500000000000001
40
0.562500000000001
40
0.562500000000001
40
0.625
40
0.625
40
0.75
40
0.75
40
1
40
1
40
1
40
1
41
1
10
22.2792076144169
20
-30.9182954314801
30
0
41
1
10
22.0893463201714
20
-30.9838565941921
30
0
41
1
10
21.9311176273307
20
-31.0459486842024
30
0
41
1
10
21.6768233505194
20
-31.161028799617
30
0
41
1
10
21.580733727422
20
-31.2140260222993
30
0
41
1
10
21.5017627713315
20
-31.2732558151762
30
0
41
1
10
21.4880430986764
20
-31.2847567741686
30
0
41
1
10
21.4650568540944
20
-31.3067912967478
30
0
41
1
10
21.4557431314087
20
-31.3173573410392
30
0
41
1
10
21.4342355994285
20
-31.3477069071318
30
0
41
1
10
21.428464661913
20
-31.3661420112694
30
0
41
1
10
21.4364238631882
20
-31.4160883537821
30
0
41
1
10
21.4752536716476
20
-31.4422424077881
30
0
41
1
10
21.5485217602027
20
-31.4613203976629
30
0
0
SPLINE
5
117
100
AcDbEntity
8
1
62
256
6
ByLayer
370
13
48
1
60
0
100
AcDbSpline
70
4
71
3
72
8
73
4
40
0
40
0
40
0
40
0
40
1
40
1
40
1
40
1
41
1
10
44.3815519489147
20
-32.6448706856723
30
0
41
1
10
43.637822107202
20
-32.3099355060511
30
0
41
1
10
42.8976053904422
20
-32.000725854513
30
0
41
1
10
42.1615244120592
20
-31.7150323955396
30
0
0
SPLINE
5
118
100
AcDbEntity
8
1
62
256
6
ByLayer
370
13
48
1
60
0
100
AcDbSpline
70
4
71
3
72
18
73
14
40
0
40
0
40
0
40
0
40
0.124999999999998
40
0.124999999999998
40
0.249999999999995
40
0.249999999999995
40
0.499999999999994
40
0.499999999999994
40
0.624999999999995
40
0.624999999999995
40
0.749999999999996
40
0.749999999999996
40
1
40
1
40
1
40
1
41
1
10
27.4593458748445
20
-29.8530452903904
30
0
41
1
10
27.3352618427189
20
-29.8599962405504
30
0
41
1
10
27.2116002431383
20
-29.8669852805542
30
0
41
1
10
26.965114821522
20
-29.8810245521997
30
0
41
1
10
26.8418795943175
20
-29.8880987075397
30
0
41
1
10
26.4782157719459
20
-29.9090731710814
30
0
41
1
10
26.2428010437488
20
-29.9227938092481
30
0
41
1
10
25.8999924634217
20
-29.9425077345751
30
0
41
1
10
25.7874526034262
20
-29.948931235875
30
0
41
1
10
25.5659275267542
20
-29.9613572682778
30
0
41
1
10
25.4574520049628
20
-29.9673292866031
30
0
41
1
10
25.1438371811441
20
-29.9840575220509
30
0
41
1
10
24.9483671303177
20
-29.9937573599318
30
0
41
1
10
24.7664893396155
20
-30.0014096456367
30
0
0
SPLINE
5
119
100
AcDbEntity
8
1
62
256
6
ByLayer
370
13
48
1
60
0
100
AcDbSpline
70
4
71
3
72
10
73
6
40
0
40
0
40
0
40
0
40
0.5
40
0.5
40
1
40
1
40
1
40
1
41
1
10
23.4745670824775
20
-28.2650040678122
30
0
41
1
10
23.3879204939094
20
-27.727095383549
30
0
41
1
10
23.3040867462393
20
-27.1417550423907
30
0
41
1
10
23.1420051023324
20
-25.8768826875798
30
0
41
1
10
23.0637569205798
20
-25.1973554884477
30
0
41
1
10
22.9883692335082
20
-24.4695930683501
30
0
0
SPLINE
5
11A
100
AcDbEntity
8
1
62
256
6
ByLayer
370
13
48
1
60
0
100
AcDbSpline
70
4
71
3
72
16
73
12
40
0
40
0
40
0
40
0
40
0.250000000000002
40
0.250000000000002
40
0.500000000000004
40
0.500000000000004
40
0.750000000000006
40
0.750000000000006
40
0.875000000000003
40
0.875000000000003
40
1
40
1
40
1
40
1
41
1
10
10.1056624327026
20
-9.86941261896635
30
0
41
1
10
10.1212556944726
20
-9.81241059371445
30
0
41
1
10
10.1400559187761
20
-9.75611455014894
30
0
41
1
10
10.1857347330744
20
-9.64728479257954
30
0
41
1
10
10.2125137122669
20
-9.5945368034692
30
0
41
1
10
10.2791703657593
20
-9.49467220053432
30
0
41
1
10
10.3182367311259
20
-9.44829073160869
30
0
41
1
10
10.3920418953325
20
-9.39290424748327
30
0
41
1
10
10.4184736929998
20
-9.37748487924986
30
0
41
1
10
10.4765695733598
20
-9.35536120669477
30
0
41
1
10
10.5071959726827
20
-9.34922131452532
30
0
41
1
10
10.5386751345948
20
-9.34922131452532
30
0
0
SPLINE
5
11B
100
AcDbEntity
8
1
62
256
6
ByLayer
370
13
48
1
60
0
100
AcDbSpline
70
4
71
3
72
10
73
6
40
0
40
0
40
0
40
0
40
0.5
40
0.5
40
1
40
1
40
1
40
1
41
1
10
52.1457202132316
20
-31.2595275007398
30
0
41
1
10
52.1368718027698
20
-31.2691838462977
30
0
41
1
10
52.1302484551516
20
-31.2830474223512
30
0
41
1
10
52.1213479864669
20
-31.3177295712497
30
0
41
1
10
52.1191048052792
20
-31.3388486766188
30
0
41
1
10
52.1192163989491
20
-31.3624607002231
30
0
0
SPLINE
5
11C
100
AcDbEntity
8
1
62
256
6
ByLayer
370
13
48
1
60
0
100
AcDbSpline
70
4
71
3
72
16
73
12
40
0
40
0
40
0
40
0
40
0.250000000000002
40
0.250000000000002
40
0.500000000000003
40
0.500000000000003
40
0.750000000000005
40
0.750000000000005
40
0.875000000000002
40
0.875000000000002
40
1
40
1
40
1
40
1
41
1
10
10.1056624327026
20
29.913954846469
30
0
41
1
10
10.1212556944726
20
29.9327613369587
30
0
41
1
10
10.1400559187761
20
29.9511519005795
30
0
41
1
10
10.1857347330744
20
29.9863830332715
30
0
41
1
10
10.2125137122669
20
30.0032932993814
30
0
41
1
10
10.2791703657593
20
30.0350452819074
30
0
41
1
10
10.3182367311259
20
30.0496472407049
30
0
41
1
10
10.3920418953325
20
30.0669872793661
30
0
41
1
10
10.4184736929998
20
30.07179594856
30
0
41
1
10
10.4765695733598
20
30.078685990659
30
0
41
1
10
10.5071959726827
20
30.0805927603169
30
0
41
1
10
10.5386751345948
20
30.0805927603169
30
0
0
SPLINE
5
11D
100
AcDbEntity
8
1
62
256
6
ByLayer
370
13
48
1
60
0
100
AcDbSpline
70
4
71
3
72
37
73
33
40
0
40
0
40
0
40
0
40
0.0625000000000017
40
0.0625000000000017
40
0.0937500000000026
40
0.0937500000000026
40
0.125000000000003
40
0.156250000000004
40
0.156250000000004
40
0.187500000000005
40
0.187500000000005
40
0.250000000000006
40
0.250000000000006
40
0.281250000000005
40
0.281250000000005
40
0.312500000000005
40
0.312500000000005
40
0.375000000000004
40
0.375000000000004
40
0.437500000000004
40
0.437500000000004
40
0.500000000000004
40
0.500000000000004
40
0.562500000000003
40
0.562500000000003
40
0.625000000000003
40
0.625000000000003
40
0.750000000000002
40
0.750000000000002
40
0.875000000000001
40
0.875000000000001
40
1
40
1
40
1
40
1
41
1
10
23.4745670824775
20
24.8391920621663
30
0
41
1
10
23.4880976405879
20
24.8998940808812
30
0
41
1
10
23.5108517164276
20
24.946587820621
30
0
41
1
10
23.5610954189375
20
24.9923418601972
30
0
41
1
10
23.5805624447715
20
25.0034360500441
30
0
41
1
10
23.6240902785235
20
25.0166837716245
30
0
41
1
10
23.6724078135441
20
25.0212140543469
30
0
41
1
10
23.7302482342922
20
25.0085225969793
30
0
41
1
10
23.7928761986476
20
24.9872347908095
30
0
41
1
10
23.8266584839472
20
24.972203894836
30
0
41
1
10
23.9321985890225
20
24.9160514369546
30
0
41
1
10
24.0089552607519
20
24.8637376318889
30
0
41
1
10
24.1322880050617
20
24.7666297421407
30
0
41
1
10
24.1748627520887
20
24.731036264263
30
0
41
1
10
24.2608204212507
20
24.6556588480218
30
0
41
1
10
24.3044156901304
20
24.6157163564268
30
0
41
1
10
24.4368453541127
20
24.4900120439918
30
0
41
1
10
24.5273130230848
20
24.3984176510634
30
0
41
1
10
24.7118886210098
20
24.2027989757281
30
0
41
1
10
24.8062445239889
20
24.0984727601244
30
0
41
1
10
24.9971099811964
20
23.8805142756216
30
0
41
1
10
25.0928320695312
20
23.7678024507929
30
0
41
1
10
25.2848424805081
20
23.5362987466003
30
0
41
1
10
25.3811309002451
20
23.41749788918
30
0
41
1
10
25.5742678743999
20
23.174695123242
30
0
41
1
10
25.6713475434372
20
23.0503811088299
30
0
41
1
10
25.9604344706774
20
22.6744596639159
30
0
41
1
10
26.1510946232417
20
22.4189793573288
30
0
41
1
10
26.5294463099962
20
21.9005312910635
30
0
41
1
10
26.7171232699333
20
21.6375359072003
30
0
41
1
10
27.0900270541185
20
21.1050909188793
30
0
41
1
10
27.2752487176268
20
20.8356313591017
30
0
41
1
10
27.4593458748445
20
20.5631644065451
30
0
0
SPLINE
5
11E
100
AcDbEntity
8
1
62
256
6
ByLayer
370
13
48
1
60
0
100
AcDbSpline
70
4
71
3
72
20
73
16
40
0
40
0
40
0
40
0
40
0.124999999999999
40
0.124999999999999
40
0.249999999999999
40
0.249999999999999
40
0.374999999999998
40
0.374999999999998
40
0.499999999999998
40
0.499999999999998
40
0.624999999999997
40
0.624999999999997
40
0.749999999999997
40
0.749999999999997
40
1
40
1
40
1
40
1
41
1
10
51.0442793506313
20
-27.4864751483088
30
0
41
1
10
51.1005490505661
20
-27.4123161617446
30
0
41
1
10
51.1521313131081
20
-27.334140720622
30
0
41
1
10
51.2430427336075
20
-27.1751825571971
30
0
41
1
10
51.282829978717
20
-27.0938642347876
30
0
41
1
10
51.3516618120956
20
-26.9277580829148
30
0
41
1
10
51.3807036680947
20
-26.8429693334626
30
0
41
1
10
51.428102710812
20
-26.6699628798833
30
0
41
1
10
51.4459846204275
20
-26.5833819436896
30
0
41
1
10
51.4708853879231
20
-26.4115562620926
30
0
41
1
10
51.4779661300404
20
-26.3260638519492
30
0
41
1
10
51.4820017454408
20
-26.1559143221035
30
0
41
1
10
51.4788843830341
20
-26.0707214935143
30
0
41
1
10
51.4551411707359
20
-25.8210535718533
30
0
41
1
10
51.4206848303377
20
-25.6625973840934
30
0
41
1
10
51.3700593441163
20
-25.5112696522585
30
0
0
SPLINE
5
11F
100
AcDbEntity
8
1
62
256
6
ByLayer
370
13
48
1
60
0
100
AcDbSpline
70
4
71
3
72
16
73
12
40
0
40
0
40
0
40
0
40
0.250000000000001
40
0.250000000000001
40
0.500000000000001
40
0.500000000000001
40
0.750000000000002
40
0.750000000000002
40
0.875000000000001
40
0.875000000000001
40
1
40
1
40
1
40
1
41
1
10
13.8943375672975
20
9.86941261896629
30
0
41
1
10
13.8787443055274
20
9.81241059371439
30
0
41
1
10
13.8599440812239
20
9.75611455014888
30
0
41
1
10
13.8142652669257
20
9.64728479257946
30
0
41
1
10
13.7874862877332
20
9.59453680346914
30
0
41
1
10
13.7208296342408
20
9.49467220053424
30
0
41
1
10
13.6817632688741
20
9.44829073160861
30
0
41
1
10
13.6079581046676
20
9.39290424748322
30
0
41
1
10
13.5815263070003
20
9.37748487924978
30
0
41
1
10
13.5234304266403
20
9.35536120669468
30
0
41
1
10
13.4928040273173
20
9.34922131452524
30
0
41
1
10
13.4613248654052
20
9.34922131452524
30
0
0
SPLINE
5
120
100
AcDbEntity
8
1
62
256
6
ByLayer
370
13
48
1
60
0
100
AcDbSpline
70
4
71
3
72
14
73
10
40
0
40
0
40
0
40
0
40
0.250000000000001
40
0.250000000000001
40
0.375000000000004
40
0.375000000000004
40
0.500000000000006
40
0.500000000000006
40
1
40
1
40
1
40
1
41
1
10
25.0681714411195
20
-32.4936533418946
30
0
41
1
10
24.9054018235045
20
-32.3967974875263
30
0
41
1
10
24.7385143227503
20
-32.3078684628372
30
0
41
1
10
24.4819283653498
20
-32.1862530946231
30
0
41
1
10
24.3954441311704
20
-32.1477405571808
30
0
41
1
10
24.2225191696851
20
-32.075478862824
30
0
41
1
10
24.1358051408269
20
-32.041596701166
30
0
41
1
10
23.7007753007556
20
-31.882904585523
30
0
41
1
10
23.3481309724717
20
-31.7897897848461
30
0
41
1
10
22.988369233467
20
-31.7279776540306
30
0
0
SPLINE
5
121
100
AcDbEntity
8
SK1
62
256
6
ByLayer
370
13
48
1
60
0
100
AcDbSpline
70
4
71
3
72
12
73
8
40
0
40
0
40
0
40
0
40
0.25
40
0.25
40
0.5
40
0.5
40
1
40
1
40
1
40
1
41
1
10
-1.7950399779393
20
-0.497941450131322
30
0
41
1
10
-1.78580965608418
20
-0.871399451883292
30
0
41
1
10
-1.76632757819667
20
-1.24235044099939
30
0
41
1
10
-1.71004380309574
20
-1.97976364966934
30
0
41
1
10
-1.67354292465419
20
-2.34403832325549
30
0
41
1
10
-1.54570661522311
20
-3.42035952770561
30
0
41
1
10
-1.43626012329909
20
-4.1186725827593
30
0
41
1
10
-1.31543506509496
20
-4.80312611568499
30
0
0
SPLINE
5
122
100
AcDbEntity
8
SK1
62
256
6
ByLayer
370
13
48
1
60
0
100
AcDbSpline
70
4
71
3
72
12
73
8
40
0
40
0
40
0
40
0
40
0.25
40
0.25
40
0.5
40
0.5
40
1
40
1
40
1
40
1
41
1
10
-1.31543506509496
20
4.80312334332311
30
0
41
1
10
-1.37594200987354
20
4.46036222995889
30
0
41
1
10
-1.43359377497899
20
4.11326302552163
30
0
41
1
10
-1.54049044883092
20
3.40895792180348
30
0
41
1
10
-1.58941566267569
20
3.05322019189467
30
0
41
1
10
-1.71691620290051
20
1.97708756274542
30
0
41
1
10
-1.77653914765787
20
1.24647885525033
30
0
41
1
10
-1.7950399779393
20
0.497935257502491
30
0
0
SPLINE
5
123
100
AcDbEntity
8
SK1
62
256
6
ByLayer
370
13
48
1
60
0
100
AcDbSpline
70
4
71
3
72
34
73
30
40
0
40
0
40
0
40
0
40
0.0624999999999984
40
0.0624999999999984
40
0.124999999999997
40
0.124999999999997
40
0.156249999999997
40
0.156249999999997
40
0.187499999999997
40
0.187499999999997
40
0.218749999999997
40
0.218749999999997
40
0.249999999999997
40
0.249999999999997
40
0.281249999999997
40
0.281249999999997
40
0.312499999999997
40
0.312499999999997
40
0.374999999999997
40
0.374999999999997
40
0.437499999999998
40
0.437499999999998
40
0.499999999999998
40
0.499999999999998
40
0.624999999999998
40
0.624999999999998
40
0.749999999999998
40
0.749999999999998
40
1
40
1
40
1
40
1
41
1
10
-0.194976888875288
20
6.03119623886749
30
0
41
1
10
-0.216500221865886
20
6.07570340180663
30
0
41
1
10
-0.239753720745597
20
6.11925606078034
30
0
41
1
10
-0.29178765389338
20
6.20344548486361
30
0
41
1
10
-0.320680982469923
20
6.24445306808846
30
0
41
1
10
-0.371152284798484
20
6.30076160924691
30
0
41
1
10
-0.389101703365327
20
6.31856551845908
30
0
41
1
10
-0.428474238728938
20
6.35122331462841
30
0
41
1
10
-0.450155670808044
20
6.36621714270305
30
0
41
1
10
-0.497049378447912
20
6.38984048046493
30
0
41
1
10
-0.522989552413435
20
6.39866457153505
30
0
41
1
10
-0.576546297516217
20
6.40583055041179
30
0
41
1
10
-0.604455376714867
20
6.40405588022136
30
0
41
1
10
-0.657061527785288
20
6.39070441483318
30
0
41
1
10
-0.68173857912771
20
6.37945067836887
30
0
41
1
10
-0.727058777963265
20
6.35184085637619
30
0
41
1
10
-0.747673753868668
20
6.33558832520282
30
0
41
1
10
-0.804676882754393
20
6.28326452250002
30
0
41
1
10
-0.836953153828773
20
6.24322122891587
30
0
41
1
10
-0.894592329212259
20
6.16031286964636
30
0
41
1
10
-0.920216555099728
20
6.11675696317576
30
0
41
1
10
-0.966814489518924
20
6.02880810651172
30
0
41
1
10
-0.98787068595658
20
5.98422224022059
30
0
41
1
10
-1.04664150453084
20
5.84917331464339
30
0
41
1
10
-1.08003848556822
20
5.75743774220825
30
0
41
1
10
-1.14035853584559
20
5.5717248322027
30
0
41
1
10
-1.16716329233486
20
5.47771958584258
30
0
41
1
10
-1.24073415674675
20
5.19296336014659
30
0
41
1
10
-1.28076933939272
20
4.99949853266315
30
0
41
1
10
-1.31543506509496
20
4.80312334332308
30
0
0
SPLINE
5
124
100
AcDbEntity
8
SK1
62
256
6
ByLayer
370
13
48
1
60
0
100
AcDbSpline
70
4
71
3
72
32
73
28
40
0
40
0
40
0
40
0
40
0.250000000000001
40
0.250000000000001
40
0.375000000000002
40
0.375000000000002
40
0.500000000000002
40
0.500000000000002
40
0.625000000000003
40
0.625000000000003
40
0.687500000000003
40
0.687500000000003
40
0.718750000000003
40
0.718750000000003
40
0.750000000000003
40
0.750000000000003
40
0.781250000000002
40
0.781250000000002
40
0.812500000000002
40
0.812500000000002
40
0.843750000000002
40
0.843750000000002
40
0.875000000000001
40
0.875000000000001
40
0.937500000000001
40
0.937500000000001
40
1
40
1
40
1
40
1
41
1
10
-1.31543506509496
20
-4.80312611568496
30
0
41
1
10
-1.28071953801415
20
-4.99978370899402
30
0
41
1
10
-1.2405971019096
20
-5.19369530000947
30
0
41
1
10
-1.16668415065359
20
-5.47947740191023
30
0
41
1
10
-1.13972977881554
20
-5.57388459136638
30
0
41
1
10
-1.07895159342607
20
-5.76056093395738
30
0
41
1
10
-1.045189363764
20
-5.85301034838804
30
0
41
1
10
-0.965943709952796
20
-6.03409066956348
30
0
41
1
10
-0.921506342118278
20
-6.12206225293096
30
0
41
1
10
-0.83568841002986
20
-6.24480528404476
30
0
41
1
10
-0.803382549345429
20
-6.28469102570321
30
0
41
1
10
-0.746448452566767
20
-6.33659292416795
30
0
41
1
10
-0.725877330175422
20
-6.35269456289723
30
0
41
1
10
-0.680495529675085
20
-6.38007339116976
30
0
41
1
10
-0.656009192686156
20
-6.39111528441893
30
0
41
1
10
-0.603234088619899
20
-6.40422234597247
30
0
41
1
10
-0.575596942032803
20
-6.40582165908882
30
0
41
1
10
-0.522118777428233
20
-6.39843241706569
30
0
41
1
10
-0.496632487885364
20
-6.38968978046944
30
0
41
1
10
-0.449595574233285
20
-6.36588102483376
30
0
41
1
10
-0.428100636145331
20
-6.35095708010772
30
0
41
1
10
-0.388670018580569
20
-6.31816959811684
30
0
41
1
10
-0.370805753912293
20
-6.30039808325498
30
0
41
1
10
-0.320711864917797
20
-6.24445107140889
30
0
41
1
10
-0.291819645561901
20
-6.20350083003319
30
0
41
1
10
-0.239719927159598
20
-6.11920474651831
30
0
41
1
10
-0.216476406454348
20
-6.07565768385473
30
0
41
1
10
-0.194976888874976
20
-6.03119978686644
30
0
0
SPLINE
5
125
100
AcDbEntity
8
SK1
62
256
6
ByLayer
370
13
48
1
60
0
100
AcDbSpline
70
4
71
3
72
24
73
20
40
0
40
0
40
0
40
0
40
0.24999999999999
40
0.24999999999999
40
0.499999999999981
40
0.499999999999981
40
0.624999999999977
40
0.624999999999977
40
0.687499999999975
40
0.687499999999975
40
0.749999999999973
40
0.749999999999973
40
0.781249999999973
40
0.781249999999973
40
0.812499999999973
40
0.812499999999973
40
0.874999999999981
40
0.874999999999981
40
1
40
1
40
1
40
1
41
1
10
0
20
6.51832721803797
30
0
41
1
10
0
20
6.45536401799006
30
0
41
1
10
-0.001042547603106
20
6.39203713887798
30
0
41
1
10
-0.006612200335411
20
6.26501866588507
30
0
41
1
10
-0.0109168744474744
20
6.20134335264203
30
0
41
1
10
-0.0235393797223935
20
6.10541265446764
30
0
41
1
10
-0.0287511942329388
20
6.07321800743878
30
0
41
1
10
-0.0403569605128666
20
6.0252252501686
30
0
41
1
10
-0.0448248341425597
20
6.00940129377022
30
0
41
1
10
-0.0563081470613156
20
5.97849755947968
30
0
41
1
10
-0.0632480078929234
20
5.96296393824602
30
0
41
1
10
-0.0786743067568523
20
5.94375377374072
30
0
41
1
10
-0.0848219407658632
20
5.93812650477901
30
0
41
1
10
-0.0986246177406542
20
5.93160481011321
30
0
41
1
10
-0.106202335115597
20
5.93096261979079
30
0
41
1
10
-0.126980830635318
20
5.93562257036294
30
0
41
1
10
-0.138133823781544
20
5.94542998594065
30
0
41
1
10
-0.167547847547269
20
5.97777580689683
30
0
41
1
10
-0.181826598515812
20
6.00400332613484
30
0
41
1
10
-0.194976888875288
20
6.03119623886741
30
0
0
SPLINE
5
126
100
AcDbEntity
8
SK1
62
256
6
ByLayer
370
13
48
1
60
0
100
AcDbSpline
70
4
71
3
72
24
73
20
40
0
40
0
40
0
40
0
40
0.124999999999994
40
0.124999999999994
40
0.187499999999991
40
0.187499999999991
40
0.218749999999992
40
0.218749999999992
40
0.249999999999994
40
0.249999999999994
40
0.312499999999995
40
0.312499999999995
40
0.374999999999996
40
0.374999999999996
40
0.499999999999998
40
0.499999999999998
40
0.749999999999999
40
0.749999999999999
40
1
40
1
40
1
40
1
41
1
10
-0.194976888875288
20
-6.03119978687539
30
0
41
1
10
-0.181895441226715
20
-6.00414924260897
30
0
41
1
10
-0.167434784700134
20
-5.97774850300266
30
0
41
1
10
-0.138514088367032
20
-5.94580578265905
30
0
41
1
10
-0.127526205464363
20
-5.93601038404188
30
0
41
1
10
-0.106898903379999
20
-5.93100049064543
30
0
41
1
10
-0.0994753923273493
20
-5.93143825483574
30
0
41
1
10
-0.0856934027250418
20
-5.93751380390083
30
0
41
1
10
-0.0794665818771705
20
-5.94298022643105
30
0
41
1
10
-0.0639847666291757
20
-5.96167502038924
30
0
41
1
10
-0.0569504118185193
20
-5.97703582567357
30
0
41
1
10
-0.0452407421154533
20
-6.00804525610346
30
0
41
1
10
-0.040728769430018
20
-6.02387032550251
30
0
41
1
10
-0.0290317215906555
20
-6.07172605073291
30
0
41
1
10
-0.023743957536368
20
-6.10406413572977
30
0
41
1
10
-0.0109424945271996
20
-6.2007568986636
30
0
41
1
10
-0.0066331590536493
20
-6.26465457420898
30
0
41
1
10
-0.0010439778775151
20
-6.39189792494506
30
0
41
1
10
0
20
-6.45522053919643
30
0
41
1
10
0
20
-6.5183304588368
30
0
0
SPLINE
5
127
100
AcDbEntity
8
SK1
62
256
6
ByLayer
370
13
48
1
60
0
100
AcDbSpline
70
4
71
3
72
8
73
4
40
0
40
0
40
0
40
0
40
1
40
1
40
1
40
1
41
1
10
-1.7950399779393
20
0.497935257502405
30
0
41
1
10
-1.80323914652325
20
0.166196894573773
30
0
41
1
10
-1.8032393029755
20
-0.166197488024409
30
0
41
1
10
-1.7950399779393
20
-0.497941450131378
30
0
0
SPLINE
5
128
100
AcDbEntity
8
1
62
256
6
ByLayer
370
13
48
1
60
0
100
AcDbSpline
70
4
71
3
72
20
73
16
40
0
40
0
40
0
40
0
40
0.124999999999988
40
0.124999999999988
40
0.249999999999975
40
0.249999999999975
40
0.499999999999972
40
0.499999999999972
40
0.624999999999979
40
0.624999999999979
40
0.749999999999986
40
0.749999999999986
40
0.874999999999993
40
0.874999999999993
40
1
40
1
40
1
40
1
41
1
10
54.7117284781775
20
-37.4395184708372
30
0
41
1
10
54.7338608359041
20
-37.416404203184
30
0
41
1
10
54.7635014967553
20
-37.401104121734
30
0
41
1
10
54.8273577097809
20
-37.3794217939814
30
0
41
1
10
54.8617343376282
20
-37.3732325488281
30
0
41
1
10
54.9669798680815
20
-37.3642829739572
30
0
41
1
10
55.0400903210868
20
-37.3708889380189
30
0
41
1
10
55.146619710792
20
-37.3946057529236
30
0
41
1
10
55.1810720909117
20
-37.4047543134469
30
0
41
1
10
55.2478355007311
20
-37.4296645221455
30
0
41
1
10
55.2804881655522
20
-37.4445975176016
30
0
41
1
10
55.3412872481488
20
-37.4795048225609
30
0
41
1
10
55.3695967918596
20
-37.4994296966963
30
0
41
1
10
55.4184629232487
20
-37.5461054440099
30
0
41
1
10
55.4390284588517
20
-37.572658008974
30
0
41
1
10
55.4493473535811
20
-37.6030446385789
30
0
0
SPLINE
5
129
100
AcDbEntity
8
1
62
256
6
ByLayer
370
13
48
1
60
0
100
AcDbSpline
70
4
71
3
72
18
73
14
40
0
40
0
40
0
40
0
40
0.124999999999997
40
0.124999999999997
40
0.249999999999994
40
0.249999999999994
40
0.499999999999999
40
0.499999999999999
40
0.750000000000004
40
0.750000000000004
40
0.875000000000002
40
0.875000000000002
40
1
40
1
40
1
40
1
41
1
10
54.0814072892824
20
-35.4403950643183
30
0
41
1
10
54.1127585189957
20
-35.446627341924
30
0
41
1
10
54.1457749209608
20
-35.4421756863885
30
0
41
1
10
54.2104462999445
20
-35.4233574385316
30
0
41
1
10
54.2421236546996
20
-35.4087407298025
30
0
41
1
10
54.3333783382556
20
-35.3558119255063
30
0
41
1
10
54.3892146610445
20
-35.3087509910304
30
0
41
1
10
54.4874289590649
20
-35.2015885688489
30
0
41
1
10
54.5295780237658
20
-35.1416422382609
30
0
41
1
10
54.5742659250036
20
-35.0463196150619
30
0
41
1
10
54.5860634751668
20
-35.013566376862
30
0
41
1
10
54.5992248455522
20
-34.9473498935602
30
0
41
1
10
54.6007711710307
20
-34.9140352040254
30
0
41
1
10
54.591834542432
20
-34.8833614637787
30
0
0
SPLINE
5
12A
100
AcDbEntity
8
1
62
256
6
ByLayer
370
13
48
1
60
0
100
AcDbSpline
70
4
71
3
72
16
73
12
40
0
40
0
40
0
40
0
40
0.124999999999986
40
0.124999999999986
40
0.249999999999973
40
0.249999999999973
40
0.499999999999982
40
0.499999999999982
40
0.749999999999991
40
0.749999999999991
40
1
40
1
40
1
40
1
41
1
10
56.0814677833416
20
-34.7996915546879
30
0
41
1
10
56.0882341315843
20
-34.7815378970123
30
0
41
1
10
56.0998497061167
20
-34.7655782993208
30
0
41
1
10
56.1314935351796
20
-34.7426014196348
30
0
41
1
10
56.151285002908
20
-34.7356797565033
30
0
41
1
10
56.2138708816041
20
-34.7272432609019
30
0
41
1
10
56.2574756993499
20
-34.7362828834057
30
0
41
1
10
56.3404368804362
20
-34.7654127486501
30
0
41
1
10
56.3799098675479
20
-34.785923095749
30
0
41
1
10
56.4545250532361
20
-34.8336566342591
30
0
41
1
10
56.4896115152115
20
-34.8609594334934
30
0
41
1
10
56.5222399024098
20
-34.890857841841
30
0
0
SPLINE
5
12B
100
AcDbEntity
8
1
62
256
6
ByLayer
370
13
48
1
60
0
100
AcDbSpline
70
4
71
3
72
16
73
12
40
0
40
0
40
0
40
0
40
0.249999999999992
40
0.249999999999992
40
0.499999999999984
40
0.499999999999984
40
0.749999999999976
40
0.749999999999976
40
0.874999999999988
40
0.874999999999988
40
1
40
1
40
1
40
1
41
1
10
54.2571210543159
20
-37.362801296698
30
0
41
1
10
54.2897268759132
20
-37.3926790274821
30
0
41
1
10
54.3248944043554
20
-37.4200414238102
30
0
41
1
10
54.3994263420375
20
-37.4677187158381
30
0
41
1
10
54.438929385621
20
-37.4882382563658
30
0
41
1
10
54.5217005519268
20
-37.5173213762876
30
0
41
1
10
54.5652822434974
20
-37.5263104058524
30
0
41
1
10
54.6274031875266
20
-37.5181355684131
30
0
41
1
10
54.6474892709984
20
-37.5112585554487
30
0
41
1
10
54.6794064662129
20
-37.4882295573881
30
0
41
1
10
54.6911015787678
20
-37.4721889758507
30
0
41
1
10
54.6978931733841
20
-37.4539675838512
30
0
0
SPLINE
5
12C
100
AcDbEntity
8
1
62
256
6
ByLayer
370
13
48
1
60
0
100
AcDbSpline
70
4
71
3
72
8
73
4
40
0
40
0
40
0
40
0
40
1
40
1
40
1
40
1
41
1
10
54.591834542432
20
-34.8833614637787
30
0
41
1
10
54.5899690825029
20
-34.8769585308744
30
0
41
1
10
54.5881038700867
20
-34.8705564475241
30
0
41
1
10
54.5862388958965
20
-34.8641551818515
30
0
0
SPLINE
5
12D
100
AcDbEntity
8
1
62
256
6
ByLayer
370
13
48
1
60
0
100
AcDbSpline
70
4
71
3
72
16
73
12
40
0
40
0
40
0
40
0
40
0.249999999999995
40
0.249999999999995
40
0.49999999999999
40
0.49999999999999
40
0.749999999999985
40
0.749999999999985
40
0.874999999999992
40
0.874999999999992
40
1
40
1
40
1
40
1
41
1
10
54.8855772760739
20
-34.5280184730352
30
0
41
1
10
54.927755060739
20
-34.5147198686127
30
0
41
1
10
54.9711915139902
20
-34.5047835554884
30
0
41
1
10
55.0588896837758
20
-34.4930718124062
30
0
41
1
10
55.1033635323366
20
-34.4911695006522
30
0
41
1
10
55.190670742489
20
-34.4997918490222
30
0
41
1
10
55.2339680969811
20
-34.5100634402649
30
0
41
1
10
55.2868139567041
20
-34.5437258044773
30
0
41
1
10
55.3021117793008
20
-34.5584472405604
30
0
41
1
10
55.321306106734
20
-34.5928073903917
30
0
41
1
10
55.3251264356263
20
-34.6122876624864
30
0
41
1
10
55.3235810177
20
-34.6316721038574
30
0
0
SPLINE
5
12E
100
AcDbEntity
8
1
62
256
6
ByLayer
370
13
48
1
60
0
100
AcDbSpline
70
4
71
3
72
18
73
14
40
0
40
0
40
0
40
0
40
0.124999999999987
40
0.124999999999987
40
0.249999999999974
40
0.249999999999974
40
0.499999999999979
40
0.499999999999979
40
0.749999999999985
40
0.749999999999985
40
0.874999999999992
40
0.874999999999992
40
1
40
1
40
1
40
1
41
1
10
56.6979536674432
20
-36.8132640742208
30
0
41
1
10
56.66660243773
20
-36.8070317966151
30
0
41
1
10
56.6335860357648
20
-36.8114834521506
30
0
41
1
10
56.5689146567812
20
-36.8303017000074
30
0
41
1
10
56.5372373020261
20
-36.8449184087365
30
0
41
1
10
56.4459826184701
20
-36.8978472130327
30
0
41
1
10
56.3901462956811
20
-36.9449081475086
30
0
41
1
10
56.2919319976607
20
-37.0520705696902
30
0
41
1
10
56.2497829329598
20
-37.1120169002781
30
0
41
1
10
56.2050950317221
20
-37.2073395234771
30
0
41
1
10
56.1932974815588
20
-37.240092761677
30
0
41
1
10
56.1801361111734
20
-37.3063092449788
30
0
41
1
10
56.178589785695
20
-37.3396239345137
30
0
41
1
10
56.1875264142936
20
-37.3702976747604
30
0
0
SPLINE
5
12F
100
AcDbEntity
8
1
62
256
6
ByLayer
370
13
48
1
60
0
100
AcDbSpline
70
4
71
3
72
16
73
12
40
0
40
0
40
0
40
0
40
0.124999999999989
40
0.124999999999989
40
0.249999999999978
40
0.249999999999978
40
0.499999999999986
40
0.499999999999986
40
0.749999999999993
40
0.749999999999993
40
1
40
1
40
1
40
1
41
1
10
53.8944515909177
20
-36.1912931964332
30
0
41
1
10
53.8753468880777
20
-36.1945101958019
30
0
41
1
10
53.8557176837765
20
-36.1924306120231
30
0
41
1
10
53.8199972077372
20
-36.1765146920246
30
0
41
1
10
53.8041071377647
20
-36.1628356097594
30
0
41
1
10
53.765507978907
20
-36.1128528966911
30
0
41
1
10
53.751534112763
20
-36.0705702055439
30
0
41
1
10
53.7352807255303
20
-35.984158782573
30
0
41
1
10
53.7333067136025
20
-35.9397189994216
30
0
41
1
10
53.7373375777207
20
-35.8512335838525
30
0
41
1
10
53.7434392644643
20
-35.8071964168357
30
0
41
1
10
53.753017852027
20
-35.7639902004637
30
0
0
SPLINE
5
130
100
AcDbEntity
8
1
62
256
6
ByLayer
370
13
48
1
60
0
100
AcDbSpline
70
4
71
3
72
8
73
4
40
0
40
0
40
0
40
0
40
1
40
1
40
1
40
1
41
1
10
56.0676324785482
20
-34.8141406677018
30
0
41
1
10
56.0722448511375
20
-34.8093236655613
30
0
41
1
10
56.0768566117479
20
-34.8045073025503
30
0
41
1
10
56.0814677833416
20
-34.7996915546879
30
0
0
SPLINE
5
131
100
AcDbEntity
8
1
62
256
6
ByLayer
370
13
48
1
60
0
100
AcDbSpline
70
4
71
3
72
8
73
4
40
0
40
0
40
0
40
0
40
1
40
1
40
1
40
1
41
1
10
54.0617864003266
20
-35.4364946486739
30
0
41
1
10
54.0683258504615
20
-35.4377946190101
30
0
41
1
10
54.0748661359252
20
-35.4390947554004
30
0
41
1
10
54.0814072892824
20
-35.4403950643183
30
0
0
SPLINE
5
132
100
AcDbEntity
8
1
62
256
6
ByLayer
370
13
48
1
60
0
100
AcDbSpline
70
4
71
3
72
16
73
12
40
0
40
0
40
0
40
0
40
0.124999999999995
40
0.124999999999995
40
0.24999999999999
40
0.24999999999999
40
0.499999999999993
40
0.499999999999993
40
0.749999999999996
40
0.749999999999996
40
1
40
1
40
1
40
1
41
1
10
56.1931220608292
20
-37.3895039566875
30
0
41
1
10
56.2054604154265
20
-37.4044406149943
30
0
41
1
10
56.2134740451953
20
-37.4224797964647
30
0
41
1
10
56.2175506921717
20
-37.4613725961492
30
0
41
1
10
56.2136492944158
20
-37.4819733415459
30
0
41
1
10
56.1896625745774
20
-37.5403925502156
30
0
41
1
10
56.1600316229756
20
-37.5736356188589
30
0
41
1
10
56.093323829122
20
-37.6309171765854
30
0
41
1
10
56.0558248539381
20
-37.654846612638
30
0
41
1
10
55.9771788041318
20
-37.695598489697
30
0
41
1
10
55.9359906554126
20
-37.7123328574795
30
0
41
1
10
55.8937836806518
20
-37.7256406655039
30
0
0
SPLINE
5
133
100
AcDbEntity
8
1
62
256
6
ByLayer
370
13
48
1
60
0
100
AcDbSpline
70
4
71
3
72
18
73
14
40
0
40
0
40
0
40
0
40
0.125000000000012
40
0.125000000000012
40
0.250000000000024
40
0.250000000000024
40
0.500000000000016
40
0.500000000000016
40
0.750000000000008
40
0.750000000000008
40
0.875000000000004
40
0.875000000000004
40
1
40
1
40
1
40
1
41
1
10
53.9138825422466
20
-36.1960503653464
30
0
41
1
10
53.9451109803126
20
-36.2036958456041
30
0
41
1
10
53.9733973620766
20
-36.2219596209465
30
0
41
1
10
54.0237754859607
20
-36.2662055913476
30
0
41
1
10
54.0463648883373
20
-36.2929379607996
30
0
41
1
10
54.1062789734531
20
-36.378903511203
30
0
41
1
10
54.1370221173854
20
-36.4449662202373
30
0
41
1
10
54.1808646766187
20
-36.5837052451296
30
0
41
1
10
54.1937768805746
20
-36.6559260340311
30
0
41
1
10
54.1940339009489
20
-36.7613185113433
30
0
41
1
10
54.1908935147205
20
-36.7960264825589
30
0
41
1
10
54.174841115844
20
-36.861678401743
30
0
41
1
10
54.1621582767045
20
-36.8925625521109
30
0
41
1
10
54.1410741645007
20
-36.9166101336276
30
0
0
SPLINE
5
134
100
AcDbEntity
8
1
62
256
6
ByLayer
370
13
48
1
60
0
100
AcDbSpline
70
4
71
3
72
16
73
12
40
0
40
0
40
0
40
0
40
0.125000000000014
40
0.125000000000014
40
0.250000000000027
40
0.250000000000027
40
0.500000000000018
40
0.500000000000018
40
0.750000000000009
40
0.750000000000009
40
1
40
1
40
1
40
1
41
1
10
54.1278858609894
20
-36.9316521140861
30
0
41
1
10
54.1103910095688
20
-36.9399749098492
30
0
41
1
10
54.0955045069907
20
-36.9529372542044
30
0
41
1
10
54.0753730026941
20
-36.9864632359592
30
0
41
1
10
54.0702026186505
20
-37.006782653869
30
0
41
1
10
54.0672529452052
20
-37.0698656634418
30
0
41
1
10
54.0800585794943
20
-37.1125166966779
30
0
41
1
10
54.1163081401637
20
-37.192623350382
30
0
41
1
10
54.1401807367097
20
-37.2301585363251
30
0
41
1
10
54.1942357766235
20
-37.300329536702
30
0
41
1
10
54.2244926671177
20
-37.3329028883504
30
0
41
1
10
54.2571210543159
20
-37.362801296698
30
0
0
SPLINE
5
135
100
AcDbEntity
8
1
62
256
6
ByLayer
370
13
48
1
60
0
100
AcDbSpline
70
4
71
3
72
16
73
12
40
0
40
0
40
0
40
0
40
0.125000000000005
40
0.125000000000005
40
0.25000000000001
40
0.25000000000001
40
0.500000000000007
40
0.500000000000007
40
0.750000000000003
40
0.750000000000003
40
1
40
1
40
1
40
1
41
1
10
54.5862388958965
20
-34.8641551818515
30
0
41
1
10
54.5739005412992
20
-34.8492185235447
30
0
41
1
10
54.5658869115304
20
-34.8311793420744
30
0
41
1
10
54.561810264554
20
-34.7922865423898
30
0
41
1
10
54.5657116623099
20
-34.7716857969931
30
0
41
1
10
54.5896983821482
20
-34.7132665883234
30
0
41
1
10
54.61932933375
20
-34.6800235196801
30
0
41
1
10
54.6860371276036
20
-34.6227419619536
30
0
41
1
10
54.7235361027876
20
-34.598812525901
30
0
41
1
10
54.8021821525939
20
-34.5580606488421
30
0
41
1
10
54.843370301313
20
-34.5413262810595
30
0
41
1
10
54.8855772760739
20
-34.5280184730352
30
0
0
SPLINE
5
136
100
AcDbEntity
8
1
62
256
6
ByLayer
370
13
48
1
60
0
100
AcDbSpline
70
4
71
3
72
18
73
14
40
0
40
0
40
0
40
0
40
0.125
40
0.125
40
0.25
40
0.25
40
0.5
40
0.5
40
0.75
40
0.75
40
0.875
40
0.875
40
1
40
1
40
1
40
1
41
1
10
55.3300136031446
20
-34.6506144999602
30
0
41
1
10
55.3402919072713
20
-34.6808816001346
30
0
41
1
10
55.3606553550364
20
-34.7072488152102
30
0
41
1
10
55.409288125227
20
-34.7538467483794
30
0
41
1
10
55.4377852436837
20
-34.7739717879575
30
0
41
1
10
55.5292502745742
20
-34.8265362599831
30
0
41
1
10
55.5979244007506
20
-34.8513614667344
30
0
41
1
10
55.7398369297011
20
-34.8828363327441
30
0
41
1
10
55.8128265072044
20
-34.8893653282269
30
0
41
1
10
55.917722271069
20
-34.8804048743411
30
0
41
1
10
55.9519861824879
20
-34.8742452333849
30
0
41
1
10
56.0159120243692
20
-34.8525350728364
30
0
41
1
10
56.0455365545648
20
-34.8372168852158
30
0
41
1
10
56.0676324785482
20
-34.8141406677018
30
0
0
SPLINE
5
137
100
AcDbEntity
8
1
62
256
6
ByLayer
370
13
48
1
60
0
100
AcDbSpline
70
4
71
3
72
8
73
4
40
0
40
0
40
0
40
0
40
1
40
1
40
1
40
1
41
1
10
54.1410741645007
20
-36.9166101336276
30
0
41
1
10
54.1366774872663
20
-36.9216247841461
30
0
41
1
10
54.1322813933921
20
-36.9266387693105
30
0
41
1
10
54.1278858609894
20
-36.9316521140861
30
0
0
SPLINE
5
138
100
AcDbEntity
8
1
62
256
6
ByLayer
370
13
48
1
60
0
100
AcDbSpline
70
4
71
3
72
16
73
12
40
0
40
0
40
0
40
0
40
0.25
40
0.25
40
0.5
40
0.5
40
0.75
40
0.75
40
0.875
40
0.875
40
1
40
1
40
1
40
1
41
1
10
53.753017852027
20
-35.7639902004637
30
0
41
1
10
53.7625898150948
20
-35.7208138652571
30
0
41
1
10
53.7757029421348
20
-35.6782286367292
30
0
41
1
10
53.8094093599957
20
-35.5964239222883
30
0
41
1
10
53.8299988339713
20
-35.5569572837536
30
0
41
1
10
53.8811196117762
20
-35.485658196013
30
0
41
1
10
53.9116637479758
20
-35.4532973827276
30
0
41
1
10
53.9672391403966
20
-35.4243627078288
30
0
41
1
10
53.9876371893231
20
-35.4184751228791
30
0
41
1
10
54.0269911156714
20
-35.4190324226289
30
0
41
1
10
54.0457716906242
20
-35.4254640568049
30
0
41
1
10
54.0617864003266
20
-35.4364946486739
30
0
0
SPLINE
5
139
100
AcDbEntity
8
1
62
256
6
ByLayer
370
13
48
1
60
0
100
AcDbSpline
70
4
71
3
72
8
73
4
40
0
40
0
40
0
40
0
40
1
40
1
40
1
40
1
41
1
10
55.3235810177
20
-34.6316721038574
30
0
41
1
10
55.3257249354322
20
-34.6379854189691
30
0
41
1
10
55.3278691270216
20
-34.6442995405238
30
0
41
1
10
55.3300136031446
20
-34.6506144999602
30
0
0
SPLINE
5
13A
100
AcDbEntity
8
1
62
256
6
ByLayer
370
13
48
1
60
0
100
AcDbSpline
70
4
71
3
72
8
73
4
40
0
40
0
40
0
40
0
40
1
40
1
40
1
40
1
41
1
10
55.4557799390257
20
-37.6219870346817
30
0
41
1
10
55.4536360212935
20
-37.61567371957
30
0
41
1
10
55.451491829704
20
-37.6093595980152
30
0
41
1
10
55.4493473535811
20
-37.6030446385789
30
0
0
SPLINE
5
13B
100
AcDbEntity
8
1
62
256
6
ByLayer
370
13
48
1
60
0
100
AcDbSpline
70
4
71
3
72
8
73
4
40
0
40
0
40
0
40
0
40
1
40
1
40
1
40
1
41
1
10
54.6978931733841
20
-37.4539675838512
30
0
41
1
10
54.7025043449778
20
-37.4491518359887
30
0
41
1
10
54.7071161055882
20
-37.4443354729778
30
0
41
1
10
54.7117284781775
20
-37.4395184708372
30
0
0
SPLINE
5
13C
100
AcDbEntity
8
1
62
256
6
ByLayer
370
13
48
1
60
0
100
AcDbSpline
70
4
71
3
72
8
73
4
40
0
40
0
40
0
40
0
40
1
40
1
40
1
40
1
41
1
10
56.865478414479
20
-36.0576087731927
30
0
41
1
10
56.8719562469975
20
-36.0591947039565
30
0
41
1
10
56.878433220024
20
-36.0607804242957
30
0
41
1
10
56.884909365808
20
-36.0623659421059
30
0
0
SPLINE
5
13D
100
AcDbEntity
8
1
62
256
6
ByLayer
370
13
48
1
60
0
100
AcDbSpline
70
4
71
3
72
18
73
14
40
0
40
0
40
0
40
0
40
0.12499999999999
40
0.12499999999999
40
0.249999999999979
40
0.249999999999979
40
0.499999999999982
40
0.499999999999982
40
0.749999999999984
40
0.749999999999984
40
0.874999999999992
40
0.874999999999992
40
1
40
1
40
1
40
1
41
1
10
56.638286792225
20
-35.3370490049114
30
0
41
1
10
56.6172138666384
20
-35.3610838274802
30
0
41
1
10
56.6045609124385
20
-35.3919026980913
30
0
41
1
10
56.5885223036454
20
-35.4573188791173
30
0
41
1
10
56.585342067347
20
-35.4920606274245
30
0
41
1
10
56.5855524146814
20
-35.5975539037463
30
0
41
1
10
56.5983902180689
20
-35.6694400449735
30
0
41
1
10
56.642088448999
20
-35.8080773331648
30
0
41
1
10
56.6729289618013
20
-35.8745526592355
30
0
41
1
10
56.7331368244282
20
-35.9609148285487
30
0
41
1
10
56.7556031856839
20
-35.9875084257924
30
0
41
1
10
56.8063676571799
20
-36.0320147485457
30
0
41
1
10
56.834445861897
20
-36.05001125046
30
0
41
1
10
56.865478414479
20
-36.0576087731927
30
0
0
SPLINE
5
13E
100
AcDbEntity
8
1
62
256
6
ByLayer
370
13
48
1
60
0
100
AcDbSpline
70
4
71
3
72
8
73
4
40
0
40
0
40
0
40
0
40
1
40
1
40
1
40
1
41
1
10
56.6514750957363
20
-35.322007024453
30
0
41
1
10
56.6470795633335
20
-35.3270203692285
30
0
41
1
10
56.6426834694593
20
-35.332034354393
30
0
41
1
10
56.638286792225
20
-35.3370490049114
30
0
0
SPLINE
5
13F
100
AcDbEntity
8
1
62
256
6
ByLayer
370
13
48
1
60
0
100
AcDbSpline
70
4
71
3
72
16
73
12
40
0
40
0
40
0
40
0
40
0.25
40
0.25
40
0.5
40
0.5
40
0.75
40
0.75
40
0.875
40
0.875
40
1
40
1
40
1
40
1
41
1
10
57.0263431046987
20
-36.4896689380754
30
0
41
1
10
57.0167711416309
20
-36.532845273282
30
0
41
1
10
57.0036580145909
20
-36.5754305018099
30
0
41
1
10
56.9699515967299
20
-36.6572352162507
30
0
41
1
10
56.9493621227543
20
-36.6967018547855
30
0
41
1
10
56.8982413449495
20
-36.768000942526
30
0
41
1
10
56.8676972087499
20
-36.8003617558115
30
0
41
1
10
56.8121218163291
20
-36.8292964307103
30
0
41
1
10
56.7917237674025
20
-36.83518401566
30
0
41
1
10
56.7523698410542
20
-36.8346267159101
30
0
41
1
10
56.7335892661014
20
-36.8281950817342
30
0
41
1
10
56.7175745563991
20
-36.8171644898651
30
0
0
SPLINE
5
140
100
AcDbEntity
8
1
62
256
6
ByLayer
370
13
48
1
60
0
100
AcDbSpline
70
4
71
3
72
8
73
4
40
0
40
0
40
0
40
0
40
1
40
1
40
1
40
1
41
1
10
56.1875264142936
20
-37.3702976747604
30
0
41
1
10
56.1893918742228
20
-37.3767006076647
30
0
41
1
10
56.191257086639
20
-37.3831026910149
30
0
41
1
10
56.1931220608292
20
-37.3895039566875
30
0
0
SPLINE
5
141
100
AcDbEntity
8
1
62
256
6
ByLayer
370
13
48
1
60
0
100
AcDbSpline
70
4
71
3
72
16
73
12
40
0
40
0
40
0
40
0
40
0.249999999999995
40
0.249999999999995
40
0.49999999999999
40
0.49999999999999
40
0.749999999999985
40
0.749999999999985
40
0.874999999999992
40
0.874999999999992
40
1
40
1
40
1
40
1
41
1
10
55.8937836806518
20
-37.7256406655039
30
0
41
1
10
55.8516058959867
20
-37.7389392699264
30
0
41
1
10
55.8081694427355
20
-37.7488755830506
30
0
41
1
10
55.7204712729499
20
-37.7605873261329
30
0
41
1
10
55.6759974243891
20
-37.7624896378868
30
0
41
1
10
55.5886902142367
20
-37.7538672895169
30
0
41
1
10
55.5453928597446
20
-37.7435956982741
30
0
41
1
10
55.4925470000215
20
-37.7099333340618
30
0
41
1
10
55.4772491774249
20
-37.6952118979786
30
0
41
1
10
55.4580548499916
20
-37.6608517481474
30
0
41
1
10
55.4542345210995
20
-37.6413714760526
30
0
41
1
10
55.4557799390257
20
-37.6219870346817
30
0
0
SPLINE
5
142
100
AcDbEntity
8
1
62
256
6
ByLayer
370
13
48
1
60
0
100
AcDbSpline
70
4
71
3
72
16
73
12
40
0
40
0
40
0
40
0
40
0.124999999999998
40
0.124999999999998
40
0.249999999999995
40
0.249999999999995
40
0.499999999999997
40
0.499999999999997
40
0.749999999999998
40
0.749999999999998
40
1
40
1
40
1
40
1
41
1
10
56.884909365808
20
-36.0623659421059
30
0
41
1
10
56.9040140686479
20
-36.0591489427371
30
0
41
1
10
56.9236432729492
20
-36.061228526516
30
0
41
1
10
56.9593637489884
20
-36.0771444465144
30
0
41
1
10
56.9752538189609
20
-36.0908235287797
30
0
41
1
10
57.0138529778187
20
-36.140806241848
30
0
41
1
10
57.0278268439627
20
-36.1830889329951
30
0
41
1
10
57.0440802311953
20
-36.269500355966
30
0
41
1
10
57.0460542431232
20
-36.3139401391175
30
0
41
1
10
57.042023379005
20
-36.4024255546865
30
0
41
1
10
57.0359216922613
20
-36.4464627217034
30
0
41
1
10
57.0263431046987
20
-36.4896689380754
30
0
0
SPLINE
5
143
100
AcDbEntity
8
1
62
256
6
ByLayer
370
13
48
1
60
0
100
AcDbSpline
70
4
71
3
72
8
73
4
40
0
40
0
40
0
40
0
40
1
40
1
40
1
40
1
41
1
10
53.9138825422466
20
-36.1960503653464
30
0
41
1
10
53.9074047097282
20
-36.1944644345826
30
0
41
1
10
53.9009277367016
20
-36.1928787142433
30
0
41
1
10
53.8944515909177
20
-36.1912931964332
30
0
0
SPLINE
5
144
100
AcDbEntity
8
1
62
256
6
ByLayer
370
13
48
1
60
0
100
AcDbSpline
70
4
71
3
72
8
73
4
40
0
40
0
40
0
40
0
40
1
40
1
40
1
40
1
41
1
10
56.7175745563991
20
-36.8171644898651
30
0
41
1
10
56.7110351062642
20
-36.815864519529
30
0
41
1
10
56.7044948208004
20
-36.8145643831387
30
0
41
1
10
56.6979536674432
20
-36.8132640742208
30
0
0
SPLINE
5
145
100
AcDbEntity
8
1
62
256
6
ByLayer
370
13
48
1
60
0
100
AcDbSpline
70
4
71
3
72
16
73
12
40
0
40
0
40
0
40
0
40
0.25000000000001
40
0.25000000000001
40
0.500000000000019
40
0.500000000000019
40
0.750000000000029
40
0.750000000000029
40
0.875000000000014
40
0.875000000000014
40
1
40
1
40
1
40
1
41
1
10
56.5222399024098
20
-34.890857841841
30
0
41
1
10
56.5548457240071
20
-34.9207355726251
30
0
41
1
10
56.5851690502182
20
-34.9533844880288
30
0
41
1
10
56.6391608021428
20
-35.0234774593874
30
0
41
1
10
56.6630451767281
20
-35.0610417861682
30
0
41
1
10
56.6992316090756
20
-35.1409632222786
30
0
41
1
10
56.7119848273682
20
-35.1835956268069
30
0
41
1
10
56.7092552946704
20
-35.246192665918
30
0
41
1
10
56.7041550683405
20
-35.2668016869509
30
0
41
1
10
56.6839954694254
20
-35.3006045370323
30
0
41
1
10
56.6690352233648
20
-35.3136531749511
30
0
41
1
10
56.6514750957363
20
-35.322007024453
30
0
0
LINE
5
70
100
AcDbEntity
8
1
62
256
6
ByLayer
370
13
48
1
60
0
100
AcDbLine
10
58.012992
20
-22.685858
30
0
11
21.413515
21
31.481995
31
0
39
0
210
0
220
0
230
1
0
LINE
5
72
100
AcDbEntity
8
1
62
256
6
ByLayer
370
13
48
1
60
0
100
AcDbLine
10
21.401434
20
31.5
30
0
11
0.3
21
31.5
31
0
39
0
210
0
220
0
230
1
0
LINE
5
73
100
AcDbEntity
8
1
62
256
6
ByLayer
370
13
48
1
60
0
100
AcDbLine
10
0.3
20
-31.5
30
0
11
22.279208
21
-31.5
31
0
39
0
210
0
220
0
230
1
0
LINE
5
74
100
AcDbEntity
8
81
62
256
6
ByLayer
370
18
48
1
60
0
100
AcDbLine
10
65
20
-45
30
0
11
75
21
-45
31
0
39
0
210
0
220
0
230
1
0
LINE
5
75
100
AcDbEntity
8
80
62
256
6
ByLayer
370
18
48
1
60
0
100
AcDbLine
10
0
20
0
30
0
11
-10
21
0
31
0
39
0
210
0
220
0
230
1
0
LINE
5
76
100
AcDbEntity
8
1
62
256
6
ByLayer
370
13
48
1
60
0
100
AcDbLine
10
0
20
-31.2
30
0
11
0.3
21
-31.5
31
0
39
0
210
0
220
0
230
1
0
LINE
5
77
100
AcDbEntity
8
1
62
256
6
ByLayer
370
13
48
1
60
0
100
AcDbLine
10
0.3
20
31.5
30
0
11
0
21
31.2
31
0
39
0
210
0
220
0
230
1
0
LINE
5
78
100
AcDbEntity
8
1
62
256
6
ByLayer
370
13
48
1
60
0
100
AcDbLine
10
26.596267
20
-33.793274
30
0
11
31.253637
21
-39.343712
31
0
39
0
210
0
220
0
230
1
0
LINE
5
79
100
AcDbEntity
8
1
62
256
6
ByLayer
370
13
48
1
60
0
100
AcDbLine
10
0.3
20
31.5
30
0
11
0.3
21
-31.5
31
0
39
0
210
0
220
0
230
1
0
LINE
5
7A
100
AcDbEntity
8
1
62
256
6
ByLayer
370
13
48
1
60
0
100
AcDbLine
10
22.279208
20
-31.5
30
0
11
22.279208
21
-31.48481
31
0
39
0
210
0
220
0
230
1
0
LINE
5
7B
100
AcDbEntity
8
1
62
256
6
ByLayer
370
13
48
1
60
0
100
AcDbLine
10
0
20
-31.2
30
0
11
0
21
31.2
31
0
39
0
210
0
220
0
230
1
0
LINE
5
7C
100
AcDbEntity
8
1
62
256
6
ByLayer
370
13
48
1
60
0
100
AcDbLine
10
22.988369
20
-31.727978
30
0
11
22.988369
21
-31.731966
31
0
39
0
210
0
220
0
230
1
0
LINE
5
7D
100
AcDbEntity
8
1
62
256
6
ByLayer
370
13
48
1
60
0
100
AcDbLine
10
26.596267
20
-33.793274
30
0
11
26.596267
21
-33.793126
31
0
39
0
210
0
220
0
230
1
0
LINE
5
7E
100
AcDbEntity
8
1
62
256
6
ByLayer
370
13
48
1
60
0
100
AcDbLine
10
31.252508
20
-39.34224
30
0
11
31.252398
21
-39.342235
31
0
39
0
210
0
220
0
230
1
0
LINE
5
7F
100
AcDbEntity
8
1
62
256
6
ByLayer
370
13
48
1
60
0
100
AcDbLine
10
54.977356
20
-27.908342
30
0
11
55.03654
21
-27.951737
31
0
39
0
210
0
220
0
230
1
0
LINE
5
80
100
AcDbEntity
8
1
62
256
6
ByLayer
370
13
48
1
60
0
100
AcDbLine
10
54.797254
20
-28.365886
30
0
11
47.606636
21
-36.213068
31
0
39
0
210
0
220
0
230
1
0
LINE
5
81
100
AcDbEntity
8
1
62
256
6
ByLayer
370
13
48
1
60
0
100
AcDbLine
10
47.214919
20
-36.487539
30
0
11
47.16653
21
-36.432363
31
0
39
0
210
0
220
0
230
1
0
LINE
5
82
100
AcDbEntity
8
1
62
256
6
ByLayer
370
13
48
1
60
0
100
AcDbLine
10
58.050358
20
-22.938401
30
0
11
57.569434
21
-23.771387
31
0
39
0
210
0
220
0
230
1
0
LINE
5
83
100
AcDbEntity
8
1
62
256
6
ByLayer
370
13
48
1
60
0
100
AcDbLine
10
43.271231
20
-39.375136
30
0
11
42.663567
21
-39.800627
31
0
39
0
210
0
220
0
230
1
0
LINE
5
84
100
AcDbEntity
8
1
62
256
6
ByLayer
370
13
48
1
60
0
100
AcDbLine
10
42.74601
20
-39.803939
30
0
11
43.236239
21
-39.460677
31
0
39
0
210
0
220
0
230
1
0
LINE
5
85
100
AcDbEntity
8
1
62
256
6
ByLayer
370
13
48
1
60
0
100
AcDbLine
10
57.651604
20
-23.729063
30
0
11
58.007022
21
-23.113461
31
0
39
0
210
0
220
0
230
1
0
LINE
5
86
100
AcDbEntity
8
1
62
256
6
ByLayer
370
13
48
1
60
0
100
AcDbLine
10
58.114571
20
-23.67236
30
0
11
58.08189
21
-23.298811
31
0
39
0
210
0
220
0
230
1
0
LINE
5
87
100
AcDbEntity
8
1
62
256
6
ByLayer
370
13
48
1
60
0
100
AcDbLine
10
42.74601
20
-39.803939
30
0
11
43.199458
21
-39.822154
31
0
39
0
210
0
220
0
230
1
0
LINE
5
88
100
AcDbEntity
8
1
62
256
6
ByLayer
370
13
48
1
60
0
100
AcDbLine
10
52.348045
20
-31.305172
30
0
11
52.25689
21
-31.221643
31
0
39
0
210
0
220
0
230
1
0
LINE
5
89
100
AcDbEntity
8
1
62
256
6
ByLayer
370
13
48
1
60
0
100
AcDbLine
10
50.230119
20
-33.433475
30
0
11
50.321274
21
-33.517004
31
0
39
0
210
0
220
0
230
1
0
LINE
5
8A
100
AcDbEntity
8
1
62
256
6
ByLayer
370
13
48
1
60
0
100
AcDbLine
10
10.538675
20
9.349221
30
0
11
10.538675
21
30.080593
31
0
39
0
210
0
220
0
230
1
0
LINE
5
8B
100
AcDbEntity
8
1
62
256
6
ByLayer
370
13
48
1
60
0
100
AcDbLine
10
50.358402
20
-33.284053
30
0
11
52.119216
21
-31.362461
31
0
39
0
210
0
220
0
230
1
0
LINE
5
8C
100
AcDbEntity
8
1
62
256
6
ByLayer
370
13
48
1
60
0
100
AcDbLine
10
53.544072
20
-24.905498
30
0
11
52.008652
21
-25.333331
31
0
39
0
210
0
220
0
230
1
0
LINE
5
8D
100
AcDbEntity
8
1
62
256
6
ByLayer
370
13
48
1
60
0
100
AcDbLine
10
58.050358
20
-22.938401
30
0
11
58.030576
21
-22.712296
31
0
39
0
210
0
220
0
230
1
0
LINE
5
8E
100
AcDbEntity
8
1
62
256
6
ByLayer
370
13
48
1
60
0
100
AcDbLine
10
10.105662
20
-29.913955
30
0
11
10.105662
21
-9.869413
31
0
39
0
210
0
220
0
230
1
0
LINE
5
8F
100
AcDbEntity
8
1
62
256
6
ByLayer
370
13
48
1
60
0
100
AcDbLine
10
52.210135
20
-31.263241
30
0
11
52.119216
21
-31.362461
31
0
39
0
210
0
220
0
230
1
0
LINE
5
90
100
AcDbEntity
8
1
62
256
6
ByLayer
370
13
48
1
60
0
100
AcDbLine
10
13.461325
20
9.349221
30
0
11
13.461325
21
30.080593
31
0
39
0
210
0
220
0
230
1
0
LINE
5
91
100
AcDbEntity
8
1
62
256
6
ByLayer
370
13
48
1
60
0
100
AcDbLine
10
51.370059
20
-25.51127
30
0
11
52.008652
21
-25.333331
31
0
39
0
210
0
220
0
230
1
0
LINE
5
92
100
AcDbEntity
8
1
62
256
6
ByLayer
370
13
48
1
60
0
100
AcDbLine
10
27.459346
20
20.563164
30
0
11
27.459346
21
-29.853045
31
0
39
0
210
0
220
0
230
1
0
LINE
5
93
100
AcDbEntity
8
1
62
256
6
ByLayer
370
13
48
1
60
0
100
AcDbLine
10
44.136842
20
-33.282032
30
0
11
44.381552
21
-32.644871
31
0
39
0
210
0
220
0
230
1
0
LINE
5
94
100
AcDbEntity
8
1
62
256
6
ByLayer
370
13
48
1
60
0
100
AcDbLine
10
42.663567
20
-39.800627
30
0
11
42.74601
21
-39.803939
31
0
39
0
210
0
220
0
230
1
0
LINE
5
95
100
AcDbEntity
8
1
62
256
6
ByLayer
370
13
48
1
60
0
100
AcDbLine
10
27.459346
20
20.563164
30
0
11
41.839644
21
-0.719924
31
0
39
0
210
0
220
0
230
1
0
LINE
5
96
100
AcDbEntity
8
1
62
256
6
ByLayer
370
13
48
1
60
0
100
AcDbLine
10
51.521052
20
-27.852085
30
0
11
51.044279
21
-27.486475
31
0
39
0
210
0
220
0
230
1
0
LINE
5
97
100
AcDbEntity
8
1
62
256
6
ByLayer
370
13
48
1
60
0
100
AcDbLine
10
10.538675
20
-30.080593
30
0
11
10.538675
21
-9.349221
31
0
39
0
210
0
220
0
230
1
0
LINE
5
98
100
AcDbEntity
8
1
62
256
6
ByLayer
370
13
48
1
60
0
100
AcDbLine
10
47.129482
20
-32.697616
30
0
11
48.218757
21
-33.861246
31
0
39
0
210
0
220
0
230
1
0
LINE
5
99
100
AcDbEntity
8
1
62
256
6
ByLayer
370
13
48
1
60
0
100
AcDbLine
10
47.16653
20
-36.432363
30
0
11
42.37283
21
-39.788948
31
0
39
0
210
0
220
0
230
1
0
LINE
5
9A
100
AcDbEntity
8
1
62
256
6
ByLayer
370
13
48
1
60
0
100
AcDbLine
10
13.461325
20
9.349221
30
0
11
10.538675
21
9.349221
31
0
39
0
210
0
220
0
230
1
0
LINE
5
9B
100
AcDbEntity
8
1
62
256
6
ByLayer
370
13
48
1
60
0
100
AcDbLine
10
58.001925
20
-22.669636
30
0
11
54.977356
21
-27.908342
31
0
39
0
210
0
220
0
230
1
0
LINE
5
9C
100
AcDbEntity
8
1
62
256
6
ByLayer
370
13
48
1
60
0
100
AcDbLine
10
22.988369
20
-30.572198
30
0
11
22.988369
21
-24.469593
31
0
39
0
210
0
220
0
230
1
0
LINE
5
9D
100
AcDbEntity
8
1
62
256
6
ByLayer
370
13
48
1
60
0
100
AcDbLine
10
22.279208
20
-13.815599
30
0
11
22.279208
21
-30.918295
31
0
39
0
210
0
220
0
230
1
0
LINE
5
9E
100
AcDbEntity
8
1
62
256
6
ByLayer
370
13
48
1
60
0
100
AcDbLine
10
10.538675
20
-9.349221
30
0
11
13.461325
21
-9.349221
31
0
39
0
210
0
220
0
230
1
0
LINE
5
9F
100
AcDbEntity
8
1
62
256
6
ByLayer
370
13
48
1
60
0
100
AcDbLine
10
13.894338
20
-29.913955
30
0
11
13.894338
21
-9.869413
31
0
39
0
210
0
220
0
230
1
0
LINE
5
A0
100
AcDbEntity
8
1
62
256
6
ByLayer
370
13
48
1
60
0
100
AcDbLine
10
50.358402
20
-33.284053
30
0
11
50.267484
21
-33.383272
31
0
39
0
210
0
220
0
230
1
0
LINE
5
A1
100
AcDbEntity
8
1
62
256
6
ByLayer
370
13
48
1
60
0
100
AcDbLine
10
46.720289
20
-32.260491
30
0
11
47.129482
21
-32.697616
31
0
39
0
210
0
220
0
230
1
0
LINE
5
A2
100
AcDbEntity
8
1
62
256
6
ByLayer
370
13
48
1
60
0
100
AcDbLine
10
58.001925
20
-22.669636
30
0
11
47.173603
21
-6.643534
31
0
39
0
210
0
220
0
230
1
0
LINE
5
A3
100
AcDbEntity
8
1
62
256
6
ByLayer
370
13
48
1
60
0
100
AcDbLine
10
13.894338
20
9.869413
30
0
11
13.894338
21
29.913955
31
0
39
0
210
0
220
0
230
1
0
LINE
5
A4
100
AcDbEntity
8
1
62
256
6
ByLayer
370
13
48
1
60
0
100
AcDbLine
10
44.136842
20
-33.282032
30
0
11
43.565379
21
-34.769978
31
0
39
0
210
0
220
0
230
1
0
LINE
5
A5
100
AcDbEntity
8
1
62
256
6
ByLayer
370
13
48
1
60
0
100
AcDbLine
10
10.538675
20
30.080593
30
0
11
13.461325
21
30.080593
31
0
39
0
210
0
220
0
230
1
0
LINE
5
A6
100
AcDbEntity
8
1
62
256
6
ByLayer
370
13
48
1
60
0
100
AcDbLine
10
54.977356
20
-27.908342
30
0
11
47.16653
21
-36.432363
31
0
39
0
210
0
220
0
230
1
0
LINE
5
A7
100
AcDbEntity
8
1
62
256
6
ByLayer
370
13
48
1
60
0
100
AcDbLine
10
10.105662
20
9.869413
30
0
11
10.105662
21
29.913955
31
0
39
0
210
0
220
0
230
1
0
LINE
5
A8
100
AcDbEntity
8
1
62
256
6
ByLayer
370
13
48
1
60
0
100
AcDbLine
10
42.37283
20
-39.788948
30
0
11
31.252508
21
-39.34224
31
0
39
0
210
0
220
0
230
1
0
LINE
5
A9
100
AcDbEntity
8
1
62
256
6
ByLayer
370
13
48
1
60
0
100
AcDbLine
10
42.161524
20
-31.715032
30
0
11
50.39597
21
-22.728712
31
0
39
0
210
0
220
0
230
1
0
LINE
5
AA
100
AcDbEntity
8
1
62
256
6
ByLayer
370
13
48
1
60
0
100
AcDbLine
10
13.461325
20
-30.080593
30
0
11
10.538675
21
-30.080593
31
0
39
0
210
0
220
0
230
1
0
LINE
5
AB
100
AcDbEntity
8
1
62
256
6
ByLayer
370
13
48
1
60
0
100
AcDbLine
10
13.461325
20
-30.080593
30
0
11
13.461325
21
-9.349221
31
0
39
0
210
0
220
0
230
1
0
LINE
5
AC
100
AcDbEntity
8
1
62
256
6
ByLayer
370
13
48
1
60
0
100
AcDbLine
10
23.474567
20
-28.265004
30
0
11
23.474567
21
24.839192
31
0
39
0
210
0
220
0
230
1
0
LINE
5
AD
100
AcDbEntity
8
1
62
256
6
ByLayer
370
13
48
1
60
0
100
AcDbLine
10
42.37283
20
-39.788948
30
0
11
42.663567
21
-39.800627
31
0
39
0
210
0
220
0
230
1
0
LINE
5
AE
100
AcDbEntity
8
1
62
256
6
ByLayer
370
13
48
1
60
0
100
AcDbLine
10
51.521052
20
-27.852085
30
0
11
52.785882
21
-28.822012
31
0
39
0
210
0
220
0
230
1
0
LINE
5
AF
100
AcDbEntity
8
SK1
62
256
6
ByLayer
370
13
48
1
60
0
100
AcDbLine
10
-1.315435
20
4.803123
30
0
11
-1.315435
21
-4.803126
31
0
39
0
210
0
220
0
230
1
0
LINE
5
B1
100
AcDbEntity
8
1
62
256
6
ByLayer
370
13
48
1
60
0
100
AcDbLine
10
48.879313
20
-35.090619
30
0
11
53.789997
21
-29.731548
31
0
39
0
210
0
220
0
230
1
0
LINE
5
B2
100
AcDbEntity
8
1
62
256
6
ByLayer
370
13
48
1
60
0
100
AcDbLine
10
54.819982
20
-28.326826
30
0
11
57.283271
21
-24.060284
31
0
39
0
210
0
220
0
230
1
0
LINE
5
B3
100
AcDbEntity
8
1
62
256
6
ByLayer
370
13
48
1
60
0
100
AcDbLine
10
63.861905
20
-44.925046
30
0
11
59.396909
21
-42.842984
31
0
39
0
210
0
220
0
230
1
0
LINE
5
B4
100
AcDbEntity
8
1
62
256
6
ByLayer
370
13
48
1
60
0
100
AcDbLine
10
48.919529
20
-40.520205
30
0
11
43.99295
21
-40.520205
31
0
39
0
210
0
220
0
230
1
0
LINE
5
B5
100
AcDbEntity
8
1
62
256
6
ByLayer
370
13
48
1
60
0
100
AcDbLine
10
59.542249
20
-31.006791
30
0
11
61.727999
21
-37.939104
31
0
39
0
210
0
220
0
230
1
0
LINE
5
B6
100
AcDbEntity
8
1
62
256
6
ByLayer
370
13
48
1
60
0
100
AcDbLine
10
58.773047
20
-24.390559
30
0
11
59.202427
21
-29.298391
31
0
39
0
210
0
220
0
230
1
0
LINE
5
B7
100
AcDbEntity
8
1
62
256
6
ByLayer
370
13
48
1
60
0
100
AcDbLine
10
57.74748
20
-42.283078
30
0
11
50.651046
21
-40.709837
31
0
39
0
210
0
220
0
230
1
0
LINE
5
B8
100
AcDbEntity
8
1
62
256
6
ByLayer
370
13
48
1
60
0
100
AcDbLine
10
43.534089
20
-39.064883
30
0
11
47.569706
21
-36.239114
31
0
39
0
210
0
220
0
230
1
0
LINE
5
B9
100
AcDbEntity
8
1
62
256
6
ByLayer
370
13
48
1
60
0
100
AcDbLine
10
62.429531
20
-39.533458
30
0
11
64.89282
21
-43.8
31
0
39
0
210
0
220
0
230
1
0
MTEXT
5
146
100
AcDbEntity
8
SK6
62
256
6
ByLayer
370
13
48
1
60
0
100
AcDbMText
10
0.902534
20
39.850079
30
0
210
0
220
0
230
1
1
\W0.7289;C6-CP-30AL-45065-11C
40
3.5
41
0
44
1.084337
50
0
71
7
72
5
7
iso_b_vert
0
DIMENSION
5
158
100
AcDbEntity
8
SK2
62
256
6
ByLayer
370
13
48
1
60
0
100
AcDbDimension
2
DimnDraft3D1
10
-44.85
20
-31.5
30
0
11
-44.85
21
0
31
0
70
32
71
5
72
1
41
1
210
0
220
0
230
1
3
Standard
100
AcDbAlignedDimension
13
-1.5875
23
31.5
33
0
14
-1.5875
24
-31.5
34
0
50
90
100
AcDbRotatedDimension
1001
ACAD
1000
DSTYLE
1002
{
1070
    74
1070
     0
1070
   279
1070
     0
1070
   172
1070
     1
1070
   173
1070
     1
1070
   340
1005
147
1070
   271
1070
     1
1070
   272
1070
     2
1070
    77
1070
     1
1070
    73
1070
     0
1070
   171
1070
     3
1070
   274
1070
     4
1070
   177
1070
   150
1070
   176
1070
     9
1070
   178
1070
    43
1070
    78
1070
     8
1070
    48
1040
-0.005
1070
    41
1041
3.175
1070
   147
1041
2.25
1070
    42
1041
1.5875
1070
    44
1041
3.175
1070
   140
1041
4.5
1070
   343
1005
159
1070
   344
1005
159
1002
}
0
DIMENSION
5
16E
100
AcDbEntity
8
2
62
256
6
ByLayer
370
13
48
1
60
0
100
AcDbDimension
2
DimnDraft3D2
10
90.85
20
0
30
0
11
90.85
21
-22.5
31
0
70
32
71
5
72
1
41
1
210
0
220
0
230
1
3
Standard
100
AcDbAlignedDimension
13
66.5875
23
-45
33
0
14
66.5875
24
0
34
0
50
90
100
AcDbRotatedDimension
1001
ACAD
1000
DSTYLE
1002
{
1070
    74
1070
     0
1070
   279
1070
     0
1070
   172
1070
     1
1070
   173
1070
     1
1070
   340
1005
147
1070
   271
1070
     1
1070
   272
1070
     2
1070
    77
1070
     1
1070
    73
1070
     0
1070
   171
1070
     3
1070
   274
1070
     4
1070
   177
1070
   150
1070
   176
1070
     9
1070
   178
1070
    43
1070
    78
1070
     8
1070
    48
1040
-0.005
1070
    41
1041
3.175
1070
   147
1041
2.25
1070
    42
1041
1.5875
1070
    44
1041
3.175
1070
   140
1041
4.5
1070
   343
1005
159
1070
   344
1005
159
1002
}
0
DIMENSION
5
17C
100
AcDbEntity
8
2
62
256
6
ByLayer
370
13
48
1
60
0
100
AcDbDimension
2
DimnDraft3D3
10
65
20
-71.5
30
0
11
32.5
21
-71.5
31
0
70
32
71
5
72
1
41
1
210
0
220
0
230
1
3
Standard
100
AcDbAlignedDimension
13
0
23
-33.0875
33
0
14
65
24
-46.5875
34
0
50
0
100
AcDbRotatedDimension
1001
ACAD
1000
DSTYLE
1002
{
1070
   279
1070
     0
1070
   172
1070
     1
1070
   173
1070
     1
1070
   340
1005
147
1070
   271
1070
     1
1070
   272
1070
     2
1070
    77
1070
     1
1070
    73
1070
     0
1070
   171
1070
     3
1070
   274
1070
     4
1070
   177
1070
   150
1070
   176
1070
     9
1070
   178
1070
    43
1070
    78
1070
     8
1070
    48
1040
-0.005
1070
    41
1041
3.175
1070
   147
1041
2.25
1070
    42
1041
1.5875
1070
    44
1041
3.175
1070
   140
1041
4.5
1070
   343
1005
159
1070
   344
1005
159
1002
}
0
DIMENSION
5
18A
100
AcDbEntity
8
2
62
256
6
ByLayer
370
13
48
1
60
0
100
AcDbDimension
2
DimnDraft3D4
10
62.811955
20
-39.330366
30
0
11
54.334512
21
4.086264
31
0
70
34
71
5
72
1
41
1
210
0
220
0
230
1
3
Standard
100
AcDb2LineAngularDimension
13
65
23
-45
33
0
14
65
24
-43.4
34
0
15
64.925046
25
-43.861905
35
0
16
55.30849
26
-0.307068
36
0
40
0
0
ENDSEC
0
SECTION
2
OBJECTS
0
DICTIONARY
5
1f4
330
0
100
AcDbDictionary
280
0
281
1
3
ACAD_GROUP
350
1f5
3
ACAD_MLINESTYLE
350
1f6
0
DICTIONARY
5
1f5
330
0
100
AcDbDictionary
280
0
281
1
0
DICTIONARY
5
1f6
330
0
100
AcDbDictionary
280
0
281
1
3
Standard
350
18
0
MLINESTYLE
5
18
330
1f6
100
AcDbMlineStyle
2
Standard
70
0
3

62
256
51
90
52
90
71
2
49
-0.5
62
256
6
ByLayer
49
0.5
62
256
6
ByLayer
0
RASTERVARIABLES
5
1e3
330

100
AcDbRasterVariables
90
0
70
1
71
1
72
1
0
ENDSEC
0
EOF
