0
SECTION
2
HEADER
9
$ACADVER
1
AC1015
9
$DWGCODEPAGE
3
ANSI_1252
9
$HANDSEED
5
249
9
$ANGBASE
50
0
9
$ANGDIR
70
0
9
$ATTMODE
70
1
9
$AUNITS
70
0
9
$AUPREC
70
0
9
$CECOLOR
62
256
9
$CELTSCALE
40
1
9
$CELTYPE
6
ByLayer
9
$CELWEIGHT
370
18
9
$CLAYER
8
0
9
$CMLJUST
70
0
9
$CMLSCALE
40
1
9
$CMLSTYLE
2
Standard
9
$DIMSTYLE
2
Standard
9
$TEXTSIZE
40
0.2
9
$TEXTSTYLE
7
Standard
9
$LUNITS
70
2
9
$LUPREC
70
4
9
$EXTNAMES
290
1
9
$INSUNITS
70
4
9
$LTSCALE
40
1
9
$LWDISPLAY
290
1
9
$PDMODE
70
0
9
$PDSIZE
40
0
9
$PLINEGEN
70
0
0
ENDSEC
0
SECTION
2
CLASSES
0
CLASS
1
RASTERVARIABLES
2
AcDbRasterVariables
3
ISM
90
0
280
0
281
0
0
ENDSEC
0
SECTION
2
TABLES
0
TABLE
2
VPORT
5
23f
100
AcDbSymbolTable
0
VPORT
5
1
100
AcDbSymbolTableRecord
100
AcDbViewportTableRecord
2
*Active
70
0
10
0
20
0
11
1
21
1
12
-1
22
1
13
0
23
0
14
0.5
24
0.5
15
10
25
10
16
0
26
0
36
1
17
0
27
0
37
0
0
ENDTAB
0
TABLE
2
LTYPE
5
240
100
AcDbSymbolTable
0
LTYPE
5
14
100
AcDbSymbolTableRecord
100
AcDbLinetypeTableRecord
70
0
2
ByBlock
3

72
65
73
0
40
0
0
LTYPE
5
15
100
AcDbSymbolTableRecord
100
AcDbLinetypeTableRecord
70
0
2
ByLayer
3

72
65
73
0
40
0
0
LTYPE
5
16
100
AcDbSymbolTableRecord
100
AcDbLinetypeTableRecord
70
0
2
CONTINUOUS
3
Solid line
72
65
73
0
40
0
0
LTYPE
5
6A
100
AcDbSymbolTableRecord
100
AcDbLinetypeTableRecord
70
0
2
CENTER
3
____ _ ____ _ ____ _ ____
72
65
73
4
40
47.5
49
22
74
0
49
-8.5
74
0
49
8.5
74
0
49
-8.5
74
0
0
LTYPE
5
6B
100
AcDbSymbolTableRecord
100
AcDbLinetypeTableRecord
70
0
2
DASHED
3
__ __ __ __ __ __ __ __ __
72
65
73
2
40
25.72
49
12.86
74
0
49
-12.86
74
0
0
ENDTAB
0
TABLE
2
LAYER
5
241
100
AcDbSymbolTable
0
LAYER
5
10
100
AcDbSymbolTableRecord
100
AcDbLayerTableRecord
2
0
70
0
62
7
6
CONTINUOUS
290
1
370
-3
390
0
0
LAYER
5
6D
100
AcDbSymbolTableRecord
100
AcDbLayerTableRecord
2
80
70
0
62
-6
6
CONTINUOUS
290
1
370
-3
390
0
0
LAYER
5
6F
100
AcDbSymbolTableRecord
100
AcDbLayerTableRecord
2
81
70
0
62
-3
6
CONTINUOUS
290
1
370
-3
390
0
0
LAYER
5
73
100
AcDbSymbolTableRecord
100
AcDbLayerTableRecord
2
1
70
0
62
4
6
CONTINUOUS
290
1
370
-3
390
0
0
LAYER
5
D6
100
AcDbSymbolTableRecord
100
AcDbLayerTableRecord
2
2
70
0
62
7
6
CONTINUOUS
290
1
370
-3
390
0
0
LAYER
5
22c
100
AcDbSymbolTableRecord
100
AcDbLayerTableRecord
2
SK1
70
0
62
4
6
CONTINUOUS
290
1
370
-3
390
0
0
LAYER
5
22d
100
AcDbSymbolTableRecord
100
AcDbLayerTableRecord
2
SK6
70
0
62
5
6
CONTINUOUS
290
1
370
-3
390
0
0
LAYER
5
22e
100
AcDbSymbolTableRecord
100
AcDbLayerTableRecord
2
SK2
70
0
62
7
6
CONTINUOUS
290
1
370
-3
390
0
0
ENDTAB
0
TABLE
2
STYLE
5
242
100
AcDbSymbolTable
0
STYLE
5
11
100
AcDbSymbolTableRecord
100
AcDbTextStyleTableRecord
2
Standard
3
txt
70
0
71
0
40
0
41
1
42
0
50
0
0
STYLE
5
190
100
AcDbSymbolTableRecord
100
AcDbTextStyleTableRecord
2
iso_b_vert
3
simplex.shx
70
0
71
0
40
0
41
1
42
0
50
0
0
STYLE
5
191
100
AcDbSymbolTableRecord
100
AcDbTextStyleTableRecord
2
DWGDirectTextStyle
3
simplex
70
0
71
0
40
0
41
1
42
0
50
0
0
ENDTAB
0
TABLE
2
DIMSTYLE
5
243
100
AcDbSymbolTable
100
AcDbDimStyleTable
0
DIMSTYLE
105
27
100
AcDbSymbolTableRecord
100
AcDbDimStyleTableRecord
2
Standard
70
0
3
<>
41
0.18
42
0.0625
44
0.18
140
0.18
147
0.09
73
0
74
0
77
1
271
2
275
0
278
52
280
0
340
11
0
ENDTAB
0
TABLE
2
VIEW
5
244
100
AcDbSymbolTable
0
ENDTAB
0
TABLE
2
UCS
5
245
100
AcDbSymbolTable
0
ENDTAB
0
TABLE
2
APPID
5
246
100
AcDbSymbolTable
0
APPID
5
12
100
AcDbSymbolTableRecord
100
AcDbRegAppTableRecord
2
ACAD
70
0
0
ENDTAB
0
TABLE
2
BLOCK_RECORD
5
247
100
AcDbSymbolTable
0
BLOCK_RECORD
5
1F
100
AcDbSymbolTableRecord
100
AcDbBlockTableRecord
2
*Model_Space
340
0
70
0
0
BLOCK_RECORD
5
1B
100
AcDbSymbolTableRecord
100
AcDbBlockTableRecord
2
*Paper_Space
340
0
70
0
0
BLOCK_RECORD
5
23
100
AcDbSymbolTableRecord
100
AcDbBlockTableRecord
2
*Paper_Space0
340
0
70
0
0
BLOCK_RECORD
5
193
100
AcDbSymbolTableRecord
100
AcDbBlockTableRecord
2
DimnDraft3D11
340
0
70
0
0
BLOCK_RECORD
5
1A1
100
AcDbSymbolTableRecord
100
AcDbBlockTableRecord
2
DimnDraft3D2
340
0
70
0
0
BLOCK_RECORD
5
1B0
100
AcDbSymbolTableRecord
100
AcDbBlockTableRecord
2
_CLOSED
340
0
70
0
0
BLOCK_RECORD
5
1B7
100
AcDbSymbolTableRecord
100
AcDbBlockTableRecord
2
DimnDraft3D3
340
0
70
0
0
BLOCK_RECORD
5
1C5
100
AcDbSymbolTableRecord
100
AcDbBlockTableRecord
2
DimnDraft3D4
340
0
70
0
0
ENDTAB
0
ENDSEC
0
SECTION
2
BLOCKS
0
BLOCK
5
20
100
AcDbEntity
8
0
100
AcDbBlockBegin
2
*Model_Space
70
0
10
0
20
0
30
0
3
*Model_Space
0
ENDBLK
5
21
100
AcDbEntity
8
0
100
AcDbBlockEnd
0
BLOCK
5
1C
100
AcDbEntity
8
0
100
AcDbBlockBegin
2
*Paper_Space
70
0
10
0
20
0
30
0
3
*Paper_Space
0
ENDBLK
5
1D
100
AcDbEntity
8
0
100
AcDbBlockEnd
0
BLOCK
5
24
100
AcDbEntity
8
0
100
AcDbBlockBegin
2
*Paper_Space0
70
0
10
0
20
0
30
0
3
*Paper_Space0
0
ENDBLK
5
25
100
AcDbEntity
8
0
100
AcDbBlockEnd
0
BLOCK
5
194
100
AcDbEntity
8
0
100
AcDbBlockBegin
2
DimnDraft3D11
70
0
10
0
20
0
30
0
3
DimnDraft3D11
0
LINE
5
196
100
AcDbEntity
8
2
62
256
6
ByLayer
370
25
48
1
60
0
100
AcDbLine
10
66.5875
20
0
30
0
11
91.775
21
0
31
0
39
0
210
0
220
0
230
1
0
LINE
5
197
100
AcDbEntity
8
2
62
256
6
ByLayer
370
25
48
1
60
0
100
AcDbLine
10
66.5875
20
45
30
0
11
91.775
21
45
31
0
39
0
210
0
220
0
230
1
0
LINE
5
198
100
AcDbEntity
8
2
62
256
6
ByLayer
370
25
48
1
60
0
100
AcDbLine
10
88.6
20
0
30
0
11
88.6
21
45
31
0
39
0
210
0
220
0
230
1
0
LINE
5
199
100
AcDbEntity
8
2
62
256
6
ByLayer
370
25
48
1
60
0
100
AcDbLine
10
88.6
20
0
30
0
11
87.749261
21
3.174997
31
0
39
0
210
0
220
0
230
1
0
LINE
5
19A
100
AcDbEntity
8
2
62
256
6
ByLayer
370
25
48
1
60
0
100
AcDbLine
10
88.6
20
0
30
0
11
89.450739
21
3.175003
31
0
39
0
210
0
220
0
230
1
0
LINE
5
19B
100
AcDbEntity
8
2
62
256
6
ByLayer
370
25
48
1
60
0
100
AcDbLine
10
87.749261
20
3.174997
30
0
11
89.450739
21
3.175003
31
0
39
0
210
0
220
0
230
1
0
LINE
5
19C
100
AcDbEntity
8
2
62
256
6
ByLayer
370
25
48
1
60
0
100
AcDbLine
10
88.6
20
45
30
0
11
89.450739
21
41.825003
31
0
39
0
210
0
220
0
230
1
0
LINE
5
19D
100
AcDbEntity
8
2
62
256
6
ByLayer
370
25
48
1
60
0
100
AcDbLine
10
88.6
20
45
30
0
11
87.749261
21
41.824997
31
0
39
0
210
0
220
0
230
1
0
LINE
5
19E
100
AcDbEntity
8
2
62
256
6
ByLayer
370
25
48
1
60
0
100
AcDbLine
10
89.450739
20
41.825003
30
0
11
87.749261
21
41.824997
31
0
39
0
210
0
220
0
230
1
0
MTEXT
5
19F
100
AcDbEntity
8
2
62
256
6
ByLayer
370
13
48
1
60
0
100
AcDbMText
10
87.475
20
18.106579
30
0
210
0
220
0
230
1
1
\W0.7640;45.0
40
4.5
41
0
44
1.084337
50
90
71
7
72
5
7
iso_b_vert
0
ENDBLK
5
195
100
AcDbEntity
8
0
100
AcDbBlockEnd
0
BLOCK
5
1AD
100
AcDbEntity
8
0
100
AcDbBlockBegin
2
DimnDraft3D2
70
0
10
0
20
0
30
0
3
DimnDraft3D2
0
MTEXT
5
1A2
100
AcDbEntity
8
SK2
62
256
6
ByLayer
370
13
48
1
60
0
100
AcDbMText
10
-48.225
20
-4.156579
30
0
210
0
220
0
230
1
1
\W0.7346;63.0
40
4.5
41
0
44
1.084337
50
90
71
7
72
5
7
iso_b_vert
0
LINE
5
1A4
100
AcDbEntity
8
SK2
62
256
6
ByLayer
370
13
48
1
60
0
100
AcDbLine
10
-1.5875
20
31.5
30
0
11
-50.275
21
31.5
31
0
39
0
210
0
220
0
230
1
0
LINE
5
1A5
100
AcDbEntity
8
SK2
62
256
6
ByLayer
370
13
48
1
60
0
100
AcDbLine
10
-1.5875
20
-31.5
30
0
11
-50.275
21
-31.5
31
0
39
0
210
0
220
0
230
1
0
LINE
5
1A6
100
AcDbEntity
8
SK2
62
256
6
ByLayer
370
13
48
1
60
0
100
AcDbLine
10
-47.1
20
31.5
30
0
11
-47.1
21
-31.5
31
0
39
0
210
0
220
0
230
1
0
LINE
5
1A7
100
AcDbEntity
8
SK2
62
256
6
ByLayer
370
13
48
1
60
0
100
AcDbLine
10
-47.1
20
31.5
30
0
11
-46.249261
21
28.325003
31
0
39
0
210
0
220
0
230
1
0
LINE
5
1A8
100
AcDbEntity
8
SK2
62
256
6
ByLayer
370
13
48
1
60
0
100
AcDbLine
10
-47.1
20
31.5
30
0
11
-47.950739
21
28.324997
31
0
39
0
210
0
220
0
230
1
0
LINE
5
1A9
100
AcDbEntity
8
SK2
62
256
6
ByLayer
370
13
48
1
60
0
100
AcDbLine
10
-46.249261
20
28.325003
30
0
11
-47.950739
21
28.324997
31
0
39
0
210
0
220
0
230
1
0
LINE
5
1AA
100
AcDbEntity
8
SK2
62
256
6
ByLayer
370
13
48
1
60
0
100
AcDbLine
10
-47.1
20
-31.5
30
0
11
-47.950739
21
-28.325003
31
0
39
0
210
0
220
0
230
1
0
LINE
5
1AB
100
AcDbEntity
8
SK2
62
256
6
ByLayer
370
13
48
1
60
0
100
AcDbLine
10
-47.1
20
-31.5
30
0
11
-46.249261
21
-28.324997
31
0
39
0
210
0
220
0
230
1
0
LINE
5
1AC
100
AcDbEntity
8
SK2
62
256
6
ByLayer
370
13
48
1
60
0
100
AcDbLine
10
-47.950739
20
-28.325003
30
0
11
-46.249261
21
-28.324997
31
0
39
0
210
0
220
0
230
1
0
ENDBLK
5
1AE
100
AcDbEntity
8
0
100
AcDbBlockEnd
0
BLOCK
5
1B1
100
AcDbEntity
8
0
100
AcDbBlockBegin
2
_CLOSED
70
0
10
0
20
0
30
0
3
_CLOSED
0
LINE
5
1B3
100
AcDbEntity
8
0
62
256
6
ByLayer
370
-2
48
1
60
0
100
AcDbLine
10
-1
20
0.166667
30
0
11
0
21
0
31
0
39
0
210
0
220
0
230
1
0
LINE
5
1B4
100
AcDbEntity
8
0
62
256
6
ByLayer
370
-2
48
1
60
0
100
AcDbLine
10
0
20
0
30
0
11
-1
21
-0.166667
31
0
39
0
210
0
220
0
230
1
0
LINE
5
1B5
100
AcDbEntity
8
0
62
256
6
ByLayer
370
-2
48
1
60
0
100
AcDbLine
10
-1
20
0.166667
30
0
11
-1
21
-0.166667
31
0
39
0
210
0
220
0
230
1
0
LINE
5
1B6
100
AcDbEntity
8
0
62
256
6
ByLayer
370
-2
48
1
60
0
100
AcDbLine
10
0
20
0
30
0
11
-1
21
0
31
0
39
0
210
0
220
0
230
1
0
ENDBLK
5
1B2
100
AcDbEntity
8
0
100
AcDbBlockEnd
0
BLOCK
5
1C2
100
AcDbEntity
8
0
100
AcDbBlockBegin
2
DimnDraft3D3
70
0
10
0
20
0
30
0
3
DimnDraft3D3
0
MTEXT
5
1B8
100
AcDbEntity
8
2
62
256
6
ByLayer
370
13
48
1
60
0
100
AcDbMText
10
28.343421
20
63.625
30
0
210
0
220
0
230
1
1
\W0.7346;65.0
40
4.5
41
0
44
1.084337
50
0
71
7
72
5
7
iso_b_vert
0
LINE
5
1B9
100
AcDbEntity
8
2
62
256
6
ByLayer
370
13
48
1
60
0
100
AcDbLine
10
65
20
46.5875
30
0
11
65
21
65.675
31
0
39
0
210
0
220
0
230
1
0
LINE
5
1BA
100
AcDbEntity
8
2
62
256
6
ByLayer
370
13
48
1
60
0
100
AcDbLine
10
0
20
33.0875
30
0
11
0
21
65.675
31
0
39
0
210
0
220
0
230
1
0
LINE
5
1BB
100
AcDbEntity
8
2
62
256
6
ByLayer
370
13
48
1
60
0
100
AcDbLine
10
65
20
62.5
30
0
11
0
21
62.5
31
0
39
0
210
0
220
0
230
1
0
LINE
5
1BC
100
AcDbEntity
8
2
62
256
6
ByLayer
370
13
48
1
60
0
100
AcDbLine
10
65
20
62.5
30
0
11
61.825003
21
61.649261
31
0
39
0
210
0
220
0
230
1
0
LINE
5
1BD
100
AcDbEntity
8
2
62
256
6
ByLayer
370
13
48
1
60
0
100
AcDbLine
10
65
20
62.5
30
0
11
61.824997
21
63.350739
31
0
39
0
210
0
220
0
230
1
0
LINE
5
1BE
100
AcDbEntity
8
2
62
256
6
ByLayer
370
13
48
1
60
0
100
AcDbLine
10
61.825003
20
61.649261
30
0
11
61.824997
21
63.350739
31
0
39
0
210
0
220
0
230
1
0
LINE
5
1BF
100
AcDbEntity
8
2
62
256
6
ByLayer
370
13
48
1
60
0
100
AcDbLine
10
0
20
62.5
30
0
11
3.174997
21
63.350739
31
0
39
0
210
0
220
0
230
1
0
LINE
5
1C0
100
AcDbEntity
8
2
62
256
6
ByLayer
370
13
48
1
60
0
100
AcDbLine
10
0
20
62.5
30
0
11
3.175003
21
61.649261
31
0
39
0
210
0
220
0
230
1
0
LINE
5
1C1
100
AcDbEntity
8
2
62
256
6
ByLayer
370
13
48
1
60
0
100
AcDbLine
10
3.174997
20
63.350739
30
0
11
3.175003
21
61.649261
31
0
39
0
210
0
220
0
230
1
0
ENDBLK
5
1C3
100
AcDbEntity
8
0
100
AcDbBlockEnd
0
BLOCK
5
1D0
100
AcDbEntity
8
0
100
AcDbBlockBegin
2
DimnDraft3D4
70
0
10
0
20
0
30
0
3
DimnDraft3D4
0
MTEXT
5
1C6
100
AcDbEntity
8
2
62
256
6
ByLayer
370
13
48
1
60
0
100
AcDbMText
10
49.545977
20
-6.481614
30
0
210
0
220
0
230
1
1
\W0.7346;25.0
40
4.5
41
0
44
1.084337
50
347.500000000422
71
7
72
5
7
iso_b_vert
0
LINE
5
1C7
100
AcDbEntity
8
2
62
256
6
ByLayer
370
13
48
1
60
0
100
AcDbLine
10
65
20
42.013633
30
0
11
65
21
-12.929325
31
0
39
0
210
0
220
0
230
1
0
LINE
5
1C8
100
AcDbEntity
8
2
62
256
6
ByLayer
370
13
48
1
60
0
100
AcDbLine
10
63.460387
20
40.720933
30
0
11
40.931058
21
-7.593369
31
0
39
0
210
0
220
0
230
1
0
ARC
5
1C9
100
AcDbEntity
8
2
62
256
6
ByLayer
370
13
48
1
60
0
100
AcDbCircle
39
0
10
65
20
44.022644
30
0
40
53.7769687705996
210
0
220
0
230
1
100
AcDbArc
50
245
51
270
0
LINE
5
1CA
100
AcDbEntity
8
2
62
256
6
ByLayer
370
13
48
1
60
0
100
AcDbLine
10
65
20
-9.754325
30
0
11
61.812796
21
-10.558123
31
0
39
0
210
0
220
0
230
1
0
LINE
5
1CB
100
AcDbEntity
8
2
62
256
6
ByLayer
370
13
48
1
60
0
100
AcDbLine
10
65
20
-9.754325
30
0
11
61.837895
21
-8.856831
31
0
39
0
210
0
220
0
230
1
0
LINE
5
1CC
100
AcDbEntity
8
2
62
256
6
ByLayer
370
13
48
1
60
0
100
AcDbLine
10
61.812796
20
-10.558123
30
0
11
61.837895
21
-8.856831
31
0
39
0
210
0
220
0
230
1
0
LINE
5
1CD
100
AcDbEntity
8
2
62
256
6
ByLayer
370
13
48
1
60
0
100
AcDbLine
10
42.272871
20
-4.715841
30
0
11
45.518003
21
-5.238796
31
0
39
0
210
0
220
0
230
1
0
LINE
5
1CE
100
AcDbEntity
8
2
62
256
6
ByLayer
370
13
48
1
60
0
100
AcDbLine
10
42.272871
20
-4.715841
30
0
11
44.821765
21
-6.791303
31
0
39
0
210
0
220
0
230
1
0
LINE
5
1CF
100
AcDbEntity
8
2
62
256
6
ByLayer
370
13
48
1
60
0
100
AcDbLine
10
45.518003
20
-5.238796
30
0
11
44.821765
21
-6.791303
31
0
39
0
210
0
220
0
230
1
0
ENDBLK
5
1D1
100
AcDbEntity
8
0
100
AcDbBlockEnd
0
ENDSEC
0
SECTION
2
ENTITIES
0
ARC
5
D8
100
AcDbEntity
8
1
62
256
6
ByLayer
370
13
48
1
60
0
100
AcDbCircle
39
0
10
-22
20
37.65
30
0
40
6
210
0
220
0
230
-1
100
AcDbArc
50
224.880875
51
260.518554
0
ARC
5
D9
100
AcDbEntity
8
1
62
256
6
ByLayer
370
13
48
1
60
0
100
AcDbCircle
39
0
10
-22.279208
20
32.7
30
0
40
1.2
210
0
220
0
230
-1
100
AcDbArc
50
233.774268
51
270
0
ARC
5
DA
100
AcDbEntity
8
1
62
256
6
ByLayer
370
13
48
1
60
0
100
AcDbCircle
39
0
10
55.490786
20
36.259901
30
0
40
5.28674538575878
210
0
220
0
230
1
100
AcDbArc
50
114
51
130.385269
0
ARC
5
DB
100
AcDbEntity
8
1
62
256
6
ByLayer
370
13
48
1
60
0
100
AcDbCircle
39
0
10
47.665252
20
28.881553
30
0
40
1.9867453857588
210
0
220
0
230
1
100
AcDbArc
50
236.259686
51
275
0
ARC
5
DC
100
AcDbEntity
8
1
62
256
6
ByLayer
370
13
48
1
60
0
100
AcDbCircle
39
0
10
-47.665252
20
28.881553
30
0
40
1.69999999999999
210
0
220
0
230
-1
100
AcDbArc
50
276.675923
51
295.054893
0
ARC
5
DD
100
AcDbEntity
8
1
62
256
6
ByLayer
370
13
48
1
60
0
100
AcDbCircle
39
0
10
-49.469647
20
32.352022
30
0
40
5
210
0
220
0
230
-1
100
AcDbArc
50
245
51
254.320316
0
ARC
5
DE
100
AcDbEntity
8
1
62
256
6
ByLayer
370
13
48
1
60
0
100
AcDbCircle
39
0
10
49.469647
20
32.352022
30
0
40
5.28674538575881
210
0
220
0
230
1
100
AcDbArc
50
275
51
295
0
ARC
5
DF
100
AcDbEntity
8
1
62
256
6
ByLayer
370
13
48
1
60
0
100
AcDbCircle
39
0
10
-47.884498
20
27.884498
30
0
40
0.807357296468598
210
0
220
0
230
-1
100
AcDbArc
50
270
51
327.224508
0
ARC
5
E0
100
AcDbEntity
8
1
62
256
6
ByLayer
370
13
48
1
60
0
100
AcDbCircle
39
0
10
-56.03857
20
36.03857
30
0
40
2.578
210
0
220
0
230
-1
100
AcDbArc
50
180.000002
51
246.510001
0
ARC
5
E1
100
AcDbEntity
8
1
62
256
6
ByLayer
370
13
48
1
60
0
100
AcDbCircle
39
0
10
-56.03857
20
36.03857
30
0
40
2.578
210
0
220
0
230
-1
100
AcDbArc
50
93.493132
51
180.000002
0
ARC
5
E2
100
AcDbEntity
8
1
62
256
6
ByLayer
370
18
48
1
60
0
100
AcDbCircle
39
0
10
56.03857
20
36.03857
30
0
40
2.39894876836046
210
0
220
0
230
1
100
AcDbArc
50
303.395615
51
76.601235
0
ARC
5
E3
100
AcDbEntity
8
1
62
256
6
ByLayer
370
18
48
1
60
0
100
AcDbCircle
39
0
10
-56.03857
20
36.03857
30
0
40
2.3603546462382
210
0
220
0
230
-1
100
AcDbArc
50
180.000005
51
225
0
ARC
5
E4
100
AcDbEntity
8
1
62
256
6
ByLayer
370
18
48
1
60
0
100
AcDbCircle
39
0
10
-56.03857
20
36.03857
30
0
40
2.3603546462382
210
0
220
0
230
-1
100
AcDbArc
50
225
51
233.735614
0
ARC
5
E5
100
AcDbEntity
8
1
62
256
6
ByLayer
370
18
48
1
60
0
100
AcDbCircle
39
0
10
-56.03857
20
36.03857
30
0
40
2.3603546462382
210
0
220
0
230
-1
100
AcDbArc
50
106.267508
51
180.000005
0
ARC
5
E6
100
AcDbEntity
8
1
62
256
6
ByLayer
370
13
48
1
60
0
100
AcDbCircle
39
0
10
-56.03857
20
36.03857
30
0
40
5.51786771999517
210
0
220
0
230
-1
100
AcDbArc
50
50.048745
51
65
0
ARC
5
E7
100
AcDbEntity
8
1
62
256
6
ByLayer
370
18
48
1
60
0
100
AcDbCircle
39
0
10
-56.168565
20
36.061492
30
0
40
2.19999999999998
210
0
220
0
230
-1
100
AcDbArc
50
170
51
219
0
ARC
5
E8
100
AcDbEntity
8
1
62
256
6
ByLayer
370
18
48
1
60
0
100
AcDbCircle
39
0
10
-56.168565
20
36.061492
30
0
40
2.19999999999829
210
0
220
0
230
-1
100
AcDbArc
50
121
51
170
0
ARC
5
E9
100
AcDbEntity
8
1
62
256
6
ByLayer
370
13
48
1
60
0
100
AcDbCircle
39
0
10
56.086026
20
45.439411
30
0
40
2.9926427035314
210
0
220
0
230
1
100
AcDbArc
50
290.552151
51
295
0
ARC
5
EA
100
AcDbEntity
8
1
62
256
6
ByLayer
370
13
48
1
60
0
100
AcDbCircle
39
0
10
-56.03857
20
36.03857
30
0
40
5.51786771999517
210
0
220
0
230
-1
100
AcDbArc
50
205
51
245
0
ARC
5
EB
100
AcDbEntity
8
1
62
256
6
ByLayer
370
13
48
1
60
0
100
AcDbCircle
39
0
10
-62.992643
20
44.192643
30
0
40
2.00735729646859
210
0
220
0
230
-1
100
AcDbArc
50
180
51
185
0
ARC
5
EC
100
AcDbEntity
8
1
62
256
6
ByLayer
370
13
48
1
60
0
100
AcDbCircle
39
0
10
65.439411
20
36.086026
30
0
40
2.9926427035314
210
0
220
0
230
1
100
AcDbArc
50
155
51
159.447849
0
ARC
5
ED
100
AcDbEntity
8
1
62
256
6
ByLayer
370
13
48
1
60
0
100
AcDbCircle
39
0
10
-63.106682
20
39.886174
30
0
40
5.0073572964686
210
0
220
0
230
-1
100
AcDbArc
50
65
51
85
0
ARC
5
EE
100
AcDbEntity
8
1
62
256
6
ByLayer
370
13
48
1
60
0
100
AcDbCircle
39
0
10
-64.192643
20
42.992643
30
0
40
2.00735729646859
210
0
220
0
230
-1
100
AcDbArc
50
85
51
90
0
ARC
5
EF
100
AcDbEntity
8
1
62
256
6
ByLayer
370
13
48
1
60
0
100
AcDbCircle
39
0
10
-48.970458
20
32.190966
30
0
40
5.0073572964686
210
0
220
0
230
-1
100
AcDbArc
50
245
51
265
0
ARC
5
F0
100
AcDbEntity
8
1
62
256
6
ByLayer
370
13
48
1
60
0
100
AcDbCircle
39
0
10
-59.886174
20
43.106682
30
0
40
5.0073572964686
210
0
220
0
230
-1
100
AcDbArc
50
185
51
205
0
ARC
5
F1
100
AcDbEntity
8
1
62
256
6
ByLayer
370
13
48
1
60
0
100
AcDbCircle
39
0
10
55.991115
20
26.637729
30
0
40
2.9926427035314
210
0
220
0
230
1
100
AcDbArc
50
110.552151
51
115
0
ARC
5
F2
100
AcDbEntity
8
1
62
256
6
ByLayer
370
13
48
1
60
0
100
AcDbCircle
39
0
10
-47.884498
20
29.084498
30
0
40
2.00735729646859
210
0
220
0
230
-1
100
AcDbArc
50
265
51
270
0
ARC
5
F3
100
AcDbEntity
8
1
62
256
6
ByLayer
370
13
48
1
60
0
100
AcDbCircle
39
0
10
-64.192643
20
44.192643
30
0
40
0.807357296468598
210
0
220
0
230
-1
100
AcDbArc
50
90
51
180
0
ARC
5
F4
100
AcDbEntity
8
1
62
256
6
ByLayer
370
18
48
1
60
0
100
AcDbCircle
39
0
10
-41.958337
20
31.940187
30
0
40
0.425
210
0
220
0
230
-1
100
AcDbArc
50
90.063185
51
131.215103
0
ARC
5
F6
100
AcDbEntity
8
1
62
256
6
ByLayer
370
18
48
1
60
0
100
AcDbCircle
39
0
10
-40.186886
20
34.05132
30
0
40
0.425
210
0
220
0
230
-1
100
AcDbArc
50
210.063185
51
251.215103
0
ARC
5
F7
100
AcDbEntity
8
1
62
256
6
ByLayer
370
18
48
1
60
0
100
AcDbCircle
39
0
10
42.111278
20
34.686441
30
0
40
0.38
210
0
220
0
230
1
100
AcDbArc
50
348.784897
51
151.215103
0
ARC
5
F8
100
AcDbEntity
8
1
62
256
6
ByLayer
370
18
48
1
60
0
100
AcDbCircle
39
0
10
-40.46318
20
32.48438
30
0
40
0.425
210
0
220
0
230
-1
100
AcDbArc
50
88.784897
51
129.936815
0
ARC
5
F9
100
AcDbEntity
8
1
62
256
6
ByLayer
370
18
48
1
60
0
100
AcDbCircle
39
0
10
41.252807
20
32.327813
30
0
40
0.38
210
0
220
0
230
1
100
AcDbArc
50
168.784897
51
331.215103
0
ARC
5
FA
100
AcDbEntity
8
1
62
256
6
ByLayer
370
18
48
1
60
0
100
AcDbCircle
39
0
10
-43.177199
20
32.962934
30
0
40
0.425
210
0
220
0
230
-1
100
AcDbArc
50
328.784897
51
9.936815
0
ARC
5
FB
100
AcDbEntity
8
1
62
256
6
ByLayer
370
18
48
1
60
0
100
AcDbCircle
39
0
10
-43.177199
20
32.962934
30
0
40
0.425
210
0
220
0
230
-1
100
AcDbArc
50
30.063185
51
71.215103
0
ARC
5
FC
100
AcDbEntity
8
1
62
256
6
ByLayer
370
18
48
1
60
0
100
AcDbCircle
39
0
10
-41.682043
20
33.507127
30
0
40
1.175
210
0
220
0
230
-1
100
AcDbArc
50
196.376394
51
203.623606
0
ARC
5
FD
100
AcDbEntity
8
1
62
256
6
ByLayer
370
18
48
1
60
0
100
AcDbCircle
39
0
10
42.488741
20
32.545741
30
0
40
0.38
210
0
220
0
230
1
100
AcDbArc
50
228.784897
51
31.215103
0
ARC
5
FE
100
AcDbEntity
8
1
62
256
6
ByLayer
370
18
48
1
60
0
100
AcDbCircle
39
0
10
-41.405749
20
35.074067
30
0
40
0.425
210
0
220
0
230
-1
100
AcDbArc
50
208.784897
51
249.936815
0
ARC
5
100
100
AcDbEntity
8
1
62
256
6
ByLayer
370
18
48
1
60
0
100
AcDbCircle
39
0
10
-41.682043
20
33.507127
30
0
40
1.175
210
0
220
0
230
-1
100
AcDbArc
50
16.376394
51
23.623606
0
ARC
5
101
100
AcDbEntity
8
1
62
256
6
ByLayer
370
18
48
1
60
0
100
AcDbCircle
39
0
10
-41.682043
20
33.507127
30
0
40
1.175
210
0
220
0
230
-1
100
AcDbArc
50
76.376394
51
83.623606
0
ARC
5
102
100
AcDbEntity
8
1
62
256
6
ByLayer
370
18
48
1
60
0
100
AcDbCircle
39
0
10
-41.682043
20
33.507127
30
0
40
1.175
210
0
220
0
230
-1
100
AcDbArc
50
136.376394
51
143.623606
0
ARC
5
103
100
AcDbEntity
8
1
62
256
6
ByLayer
370
18
48
1
60
0
100
AcDbCircle
39
0
10
-41.958337
20
31.940187
30
0
40
0.425
210
0
220
0
230
-1
100
AcDbArc
50
28.784897
51
69.936815
0
ARC
5
104
100
AcDbEntity
8
1
62
256
6
ByLayer
370
18
48
1
60
0
100
AcDbCircle
39
0
10
40.875344
20
34.468513
30
0
40
0.38
210
0
220
0
230
1
100
AcDbArc
50
48.784897
51
211.215103
0
ARC
5
105
100
AcDbEntity
8
1
62
256
6
ByLayer
370
18
48
1
60
0
100
AcDbCircle
39
0
10
-42.900906
20
34.529874
30
0
40
0.425
210
0
220
0
230
-1
100
AcDbArc
50
268.784897
51
309.936815
0
ARC
5
106
100
AcDbEntity
8
1
62
256
6
ByLayer
370
18
48
1
60
0
100
AcDbCircle
39
0
10
-42.900906
20
34.529874
30
0
40
0.425
210
0
220
0
230
-1
100
AcDbArc
50
330.063185
51
11.215103
0
ARC
5
107
100
AcDbEntity
8
1
62
256
6
ByLayer
370
18
48
1
60
0
100
AcDbCircle
39
0
10
-41.682043
20
33.507127
30
0
40
1.175
210
0
220
0
230
-1
100
AcDbArc
50
256.376394
51
263.623606
0
ARC
5
108
100
AcDbEntity
8
1
62
256
6
ByLayer
370
18
48
1
60
0
100
AcDbCircle
39
0
10
-40.186886
20
34.05132
30
0
40
0.425
210
0
220
0
230
-1
100
AcDbArc
50
148.784897
51
189.936815
0
ARC
5
109
100
AcDbEntity
8
1
62
256
6
ByLayer
370
18
48
1
60
0
100
AcDbCircle
39
0
10
-41.682043
20
33.507127
30
0
40
1.175
210
0
220
0
230
-1
100
AcDbArc
50
316.376394
51
323.623606
0
ARC
5
10B
100
AcDbEntity
8
1
62
256
6
ByLayer
370
18
48
1
60
0
100
AcDbCircle
39
0
10
42.917976
20
33.725055
30
0
40
0.38
210
0
220
0
230
1
100
AcDbArc
50
288.784897
51
91.215103
0
ARC
5
10C
100
AcDbEntity
8
1
62
256
6
ByLayer
370
18
48
1
60
0
100
AcDbCircle
39
0
10
40.446109
20
33.289199
30
0
40
0.38
210
0
220
0
230
1
100
AcDbArc
50
108.784897
51
271.215103
0
ARC
5
10D
100
AcDbEntity
8
1
62
256
6
ByLayer
370
18
48
1
60
0
100
AcDbCircle
39
0
10
-40.46318
20
32.48438
30
0
40
0.425
210
0
220
0
230
-1
100
AcDbArc
50
150.063185
51
191.215103
0
ARC
5
10E
100
AcDbEntity
8
1
62
256
6
ByLayer
370
18
48
1
60
0
100
AcDbCircle
39
0
10
-41.405749
20
35.074067
30
0
40
0.425
210
0
220
0
230
-1
100
AcDbArc
50
270.063185
51
311.215103
0
CIRCLE
5
F5
100
AcDbEntity
8
1
62
256
6
ByLayer
370
18
48
1
60
0
100
AcDbCircle
10
-41.682043
20
33.507127
30
0
40
1.15
39
0
210
0
220
0
230
-1
0
CIRCLE
5
FF
100
AcDbEntity
8
1
62
256
6
ByLayer
370
18
48
1
60
0
100
AcDbCircle
10
41.682043
20
33.507127
30
0
40
4
39
0
210
0
220
0
230
1
0
CIRCLE
5
10A
100
AcDbEntity
8
1
62
256
6
ByLayer
370
18
48
1
60
0
100
AcDbCircle
10
41.682043
20
33.507127
30
0
40
2.3
39
0
210
0
220
0
230
1
0
ELLIPSE
5
10F
100
AcDbEntity
8
1
62
256
6
ByLayer
370
13
48
1
60
0
100
AcDbEllipse
10
21.401365
20
0
30
0
11
-1.92875500724625E-15
21
31.4999999996081
31
0
210
0
220
0
230
-1
40
0.012343
41
2.98975434706833
42
-3.14159023836305
0
ELLIPSE
5
110
100
AcDbEntity
8
1
62
256
6
ByLayer
370
13
48
1
60
0
100
AcDbEllipse
10
32.106679
20
24.710746
30
0
11
6.96364240320019
21
1.22787803968973
31
8.94620291908272E-16
210
1.28470165483676E-16
220
-1.23259516440783E-32
230
-1
40
0.707107
41
0.0400373780301521
42
1.71168376662788
0
ELLIPSE
5
111
100
AcDbEntity
8
1
62
256
6
ByLayer
370
13
48
1
60
0
100
AcDbEllipse
10
31.617756
20
24.624535
30
0
11
-0.868240888334651
21
4.92403876506104
31
0
210
0
220
0
230
1
40
0.707107
41
-3.09475647119858
42
-1.5707963267949
0
ELLIPSE
5
112
100
AcDbEntity
8
1
62
256
6
ByLayer
370
13
48
1
60
0
100
AcDbEllipse
10
58.707539
20
43.344459
30
0
11
0.499999403878407
21
0.0175346332331424
31
0
210
0
220
0
230
-1
40
0.044032
41
1.74517750463922
42
-3.14004847922761
0
ELLIPSE
5
113
100
AcDbEntity
8
1
62
256
6
ByLayer
370
13
48
1
60
0
100
AcDbEllipse
10
-2.347154
20
0
30
0
11
14.753683160657
21
-31.0932549155822
31
0
210
0
220
0
230
-1
40
0.341999
41
-1.0912395857528
42
-0.157806186645432
0
ELLIPSE
5
114
100
AcDbEntity
8
1
62
256
6
ByLayer
370
13
48
1
60
0
100
AcDbEllipse
10
24.055893
20
0
30
0
11
-1.92875500727027E-15
21
31.5000000000004
31
0
210
0
220
0
230
-1
40
0.087489
41
-2.08339871985384
42
-0.700612322979878
0
ELLIPSE
5
115
100
AcDbEntity
8
1
62
256
6
ByLayer
370
13
48
1
60
0
100
AcDbEllipse
10
30.921391
20
24.501748
30
0
11
0.694592710667719
21
-3.93923101204883
31
0
210
0
220
0
230
1
40
0.707107
41
-0.439544460619358
42
1.5707963267949
0
ELLIPSE
5
116
100
AcDbEntity
8
1
62
256
6
ByLayer
370
13
48
1
60
0
100
AcDbEllipse
10
-31.106294
20
74.959451
30
0
11
70.7214493379364
21
-70.7214493379355
31
0
210
-1.28470165483676E-16
220
-1.23259516440783E-32
230
1
40
0.999848
41
0.20940853605499
42
0.325146789269203
0
ELLIPSE
5
117
100
AcDbEntity
8
1
62
256
6
ByLayer
370
13
48
1
60
0
100
AcDbEllipse
10
-28.486195
20
72.332856
30
0
11
16.1420651738519
21
100.728991539239
31
0
210
0
220
0
230
-1
40
0.941649
41
1.84009767557032
42
1.84385012612571
0
ELLIPSE
5
118
100
AcDbEntity
8
1
62
256
6
ByLayer
370
13
48
1
60
0
100
AcDbEllipse
10
26.347154
20
0
30
0
11
14.7536831606538
21
31.0932549155781
31
0
210
0
220
0
230
-1
40
0.341999
41
-2.98378646694435
42
-2.0503530678369
0
ELLIPSE
5
119
100
AcDbEntity
8
1
62
256
6
ByLayer
370
13
48
1
60
0
100
AcDbEllipse
10
31.346385
20
42.451817
30
0
11
1.00922659926446
21
0.0350534883432088
31
0
210
0
220
0
230
-1
40
0.043629
41
0.779258205775416
42
1.09739466552308
0
ELLIPSE
5
11A
100
AcDbEntity
8
1
62
256
6
ByLayer
370
13
48
1
60
0
100
AcDbEllipse
10
27.721218
20
-18.214125
30
0
11
3.99958991599629
21
6.16062388939639
31
0
210
0
220
0
230
-1
40
0.009297
41
-3.04000678087124
42
-1.55647691667623
0
ELLIPSE
5
11B
100
AcDbEntity
8
1
62
256
6
ByLayer
370
13
48
1
60
0
100
AcDbEllipse
10
26.347154
20
0
30
0
11
14.7536831606541
21
-31.0932549155785
31
0
210
0
220
0
230
-1
40
0.341999
41
2.05035306783691
42
2.98378646694435
0
ELLIPSE
5
11C
100
AcDbEntity
8
1
62
256
6
ByLayer
370
13
48
1
60
0
100
AcDbEllipse
10
31.370311
20
-30.048559
30
0
11
3.97726286914088
21
10.5814703054494
31
0
210
0
220
0
230
-1
40
0.829952
41
-1.54161376687642
42
-1.42013103626893
0
ELLIPSE
5
11D
100
AcDbEntity
8
1
62
256
6
ByLayer
370
13
48
1
60
0
100
AcDbEllipse
10
-2.347154
20
0
30
0
11
14.753683160659
21
31.0932549155847
31
0
210
0
220
0
230
-1
40
0.341999
41
0.157806186645424
42
1.09123958575274
0
ELLIPSE
5
11E
100
AcDbEntity
8
1
62
256
6
ByLayer
370
18
48
1
60
0
100
AcDbEllipse
10
35.216895
20
36.638567
30
0
11
-0.91363760783042
21
-1.77911953548881
31
0
210
0
220
0
230
1
40
0.848036
41
-2.41183863393648
42
-0.999163139676877
0
ELLIPSE
5
11F
100
AcDbEntity
8
1
62
256
6
ByLayer
370
18
48
1
60
0
100
AcDbEllipse
10
39.865664
20
28.317231
30
0
11
5.41644255146769
21
0.955064970619867
31
0
210
0
220
0
230
-1
40
0.240328
41
-2.73264228474861
42
-2.67964997951985
0
ELLIPSE
5
120
100
AcDbEntity
8
1
62
256
6
ByLayer
370
18
48
1
60
0
100
AcDbEllipse
10
37.875257
20
39.605389
30
0
11
3.44682713554488
21
0.607768621834841
31
0
210
0
220
0
230
-1
40
0.377658
41
2.67964998362423
42
-2.88031721715677
0
ELLIPSE
5
121
100
AcDbEntity
8
1
62
256
6
ByLayer
370
18
48
1
60
0
100
AcDbEllipse
10
36.677806
20
28.353325
30
0
11
1.46703323667211
21
-1.35934303341701
31
0
210
0
220
0
230
1
40
0.848036
41
-2.14242951391291
42
-0.72975401965331
0
ELLIPSE
5
122
100
AcDbEntity
8
1
62
256
6
ByLayer
370
18
48
1
60
0
100
AcDbEllipse
10
36.920354
20
36.932305
30
0
11
3.07230256561601
21
-1.75516444410259
31
0
210
0
220
0
230
-1
40
0.724269
41
-2.7845421273672
42
-2.42492639401506
0
ELLIPSE
5
123
100
AcDbEntity
8
1
62
256
6
ByLayer
370
18
48
1
60
0
100
AcDbEllipse
10
38.200156
20
37.762796
30
0
11
5.41644245743923
21
0.955064923460324
31
0
210
0
220
0
230
-1
40
0.240328
41
2.67964997496905
42
2.73264228073988
0
ELLIPSE
5
124
100
AcDbEntity
8
1
62
256
6
ByLayer
370
18
48
1
60
0
100
AcDbEllipse
10
42.407217
20
33.634995
30
0
11
-0.720639937317761
21
4.08695217500066
31
0
210
0
220
0
230
1
40
0.999848
41
-3.14159265358977
42
2.22613489416206E-14
0
ELLIPSE
5
125
100
AcDbEntity
8
1
62
256
6
ByLayer
370
18
48
1
60
0
100
AcDbEllipse
10
35.51309
20
36.684166
30
0
11
-2.97661046204352
21
-0.524856735517363
31
0
210
-8.54184564237123E-16
220
-1.50615785179708E-16
230
1
40
0.992546
41
-1.05168906306426
42
0
0
ELLIPSE
5
126
100
AcDbEntity
8
1
62
256
6
ByLayer
370
18
48
1
60
0
100
AcDbEllipse
10
36.971734
20
28.411781
30
0
11
-2.97661046204355
21
-0.524856735517371
31
-2.62162641975114E-15
210
8.54184564237123E-16
220
1.50615785179708E-16
230
-1
40
0.992546
41
-1.05168906306426
42
0
0
ELLIPSE
5
127
100
AcDbEntity
8
1
62
256
6
ByLayer
370
18
48
1
60
0
100
AcDbEllipse
10
40.190563
20
26.474638
30
0
11
3.44682713555588
21
0.607768621835944
31
0
210
0
220
0
230
-1
40
0.377658
41
2.88031721715718
42
-2.67964998362502
0
ELLIPSE
5
128
100
AcDbEntity
8
1
62
256
6
ByLayer
370
18
48
1
60
0
100
AcDbEllipse
10
38.378999
20
28.65992
30
0
11
2.28671845499268
21
2.70010444013016
31
0
210
0
220
0
230
-1
40
0.724269
41
2.42492639399652
42
2.78454212735289
0
POINT
5
6C
100
AcDbEntity
8
80
62
256
6
ByLayer
370
18
48
1
60
0
100
AcDbPoint
10
0
20
0
30
0
39
0
210
0
220
0
230
1
50
360
0
POINT
5
6E
100
AcDbEntity
8
81
62
256
6
ByLayer
370
18
48
1
60
0
100
AcDbPoint
10
65
20
45
30
0
39
0
210
0
220
0
230
1
50
360
0
SPLINE
5
129
100
AcDbEntity
8
SK1
62
256
6
ByLayer
370
13
48
1
60
0
100
AcDbSpline
70
4
71
2
72
6
73
3
40
0
40
0
40
0
40
1
40
1
40
1
41
1
10
-0.194976888875288
20
21.8639496970129
30
0
41
1
10
-0.995008433397771
20
21.8438664509463
30
0
41
1
10
-1.7950399779393
20
21.8237832115739
30
0
0
SPLINE
5
12A
100
AcDbEntity
8
SK1
62
256
6
ByLayer
370
13
48
1
60
0
100
AcDbSpline
70
4
71
2
72
6
73
3
40
0
40
0
40
0
40
1
40
1
40
1
41
1
10
-0.0284432080893282
20
21.9541250634294
30
0
41
1
10
-0.0503947065853652
20
21.8819450508703
30
0
41
1
10
-0.194976888875288
20
21.8704745864116
30
0
0
SPLINE
5
12B
100
AcDbEntity
8
SK1
62
256
6
ByLayer
370
13
48
1
60
0
100
AcDbSpline
70
4
71
2
72
6
73
3
40
0
40
0
40
0
40
1
40
1
40
1
41
1
10
-0.194976888875288
20
-21.8704747460203
30
0
41
1
10
-0.049732104938613
20
-21.8821483995747
30
0
41
1
10
-0.0279011200788375
20
-21.9549109072108
30
0
0
SPLINE
5
12C
100
AcDbEntity
8
SK1
62
256
6
ByLayer
370
13
48
1
60
0
100
AcDbSpline
70
4
71
2
72
6
73
3
40
0
40
0
40
0
40
1
40
1
40
1
41
1
10
-36.5
20
21.155390865424
30
0
41
1
10
-37.2499998580829
20
20.722636690256
30
0
41
1
10
-38
20
20.2898799013383
30
0
0
SPLINE
5
12D
100
AcDbEntity
8
SK1
62
256
6
ByLayer
370
13
48
1
60
0
100
AcDbSpline
70
4
71
2
72
6
73
3
40
0
40
0
40
0
40
1
40
1
40
1
41
1
10
-38
20
-20.2898800072422
30
0
41
1
10
-37.2499998580851
20
-20.7226367943926
30
0
41
1
10
-36.5
20
-21.15539096789
30
0
0
SPLINE
5
12E
100
AcDbEntity
8
SK1
62
256
6
ByLayer
370
13
48
1
60
0
100
AcDbSpline
70
4
71
3
72
13
73
9
40
0
40
0
40
0
40
0
40
0.239505865890129
40
0.368426377204725
40
0.500072086585855
40
0.631705828340085
40
0.76059332390941
40
1
40
1
40
1
40
1
41
1
10
-1.7950399779393
20
21.8302932076066
30
0
41
1
10
-1.82110926271048
20
21.8298910995853
30
0
41
1
10
-1.85883864368745
20
21.8360607263469
30
0
41
1
10
-1.90627568048194
20
21.8590941627914
30
0
41
1
10
-1.93886244238612
20
21.8842501856704
30
0
41
1
10
-1.96563491016025
20
21.9155179370029
30
0
41
1
10
-1.99103207882064
20
21.9617162292748
30
0
41
1
10
-1.99909122095849
20
21.9990735985877
30
0
41
1
10
-2
20
22.0251208364275
30
0
0
SPLINE
5
12F
100
AcDbEntity
8
SK1
62
256
6
ByLayer
370
13
48
1
60
0
100
AcDbSpline
70
4
71
3
72
13
73
9
40
0
40
0
40
0
40
0
40
0.23940667553306
40
0.368294170919258
40
0.499927912611403
40
0.631573622065768
40
0.760494133568941
40
1
40
1
40
1
40
1
41
1
10
-2
20
-22.0251209952818
30
0
41
1
10
-1.99909122094999
20
-21.9990737575566
30
0
41
1
10
-1.99103207881225
20
-21.9617163884142
30
0
41
1
10
-1.96563491014865
20
-21.9155180963752
30
0
41
1
10
-1.93886244237069
20
-21.8842503451972
30
0
41
1
10
-1.90627568046548
20
-21.8590943224455
30
0
41
1
10
-1.85883864366619
20
-21.8360608861174
30
0
41
1
10
-1.82110926269925
20
-21.8298912593851
30
0
41
1
10
-1.7950399779393
20
-21.8302933674114
30
0
0
SPLINE
5
130
100
AcDbEntity
8
SK1
62
256
6
ByLayer
370
13
48
1
60
0
100
AcDbSpline
70
4
71
2
72
6
73
3
40
0
40
0
40
0
40
1
40
1
40
1
41
1
10
-1.7950399779393
20
-21.8237832285766
30
0
41
1
10
-0.995008433397771
20
-21.8438664676548
30
0
41
1
10
-0.194976888875288
20
-21.8639497134275
30
0
0
SPLINE
5
131
100
AcDbEntity
8
SK1
62
256
6
ByLayer
370
13
48
1
60
0
100
AcDbSpline
70
4
71
2
72
6
73
3
40
0
40
0
40
0
40
1
40
1
40
1
41
1
10
-2
20
22.018635875508
30
0
41
1
10
-19.2499999976431
20
21.5855491455244
30
0
41
1
10
-36.5
20
21.1524609537578
30
0
0
SPLINE
5
132
100
AcDbEntity
8
SK1
62
256
6
ByLayer
370
13
48
1
60
0
100
AcDbSpline
70
4
71
2
72
6
73
3
40
0
40
0
40
0
40
1
40
1
40
1
41
1
10
-36.5
20
-21.1524613224033
30
0
41
1
10
-19.2499999976426
20
-21.5855495141177
30
0
41
1
10
-2
20
-22.0186362439356
30
0
0
SPLINE
5
133
100
AcDbEntity
8
SK1
62
256
6
ByLayer
370
13
48
1
60
0
100
AcDbSpline
70
4
71
3
72
39
73
35
40
0
40
0
40
0
40
0
40
0.0209207212687851
40
0.0491019128388537
40
0.0772831044089225
40
0.105464295978991
40
0.161826679119129
40
0.218189062259266
40
0.246370253829335
40
0.274551445399403
40
0.330913828539541
40
0.359095020109609
40
0.387276211679678
40
0.415457403249747
40
0.443638594819815
40
0.471819786389884
40
0.485910382174919
40
0.500000977959953
40
0.514091573744987
40
0.528182169530022
40
0.55636336110009
40
0.584544552670159
40
0.612725744240228
40
0.640906935810296
40
0.669088127380365
40
0.725450510520502
40
0.753631702090571
40
0.78181289366064
40
0.838175276800777
40
0.894537659940915
40
0.922718851510983
40
0.950900043081052
40
0.979081234651121
40
1
40
1
40
1
40
1
41
1
10
-38
20
20.293093562431
30
0
41
1
10
-38
20
20.2935685844771
30
0
41
1
10
-38
20
20.2526783281145
30
0
41
1
10
-38
20
20.0459061788578
30
0
41
1
10
-38
20
19.657941810806
30
0
41
1
10
-38
20
18.9398394400737
30
0
41
1
10
-38
20
17.7044407938012
30
0
41
1
10
-38
20
16.0627612954467
30
0
41
1
10
-38
20
14.5156411550098
30
0
41
1
10
-38
20
12.8247036179069
30
0
41
1
10
-38
20
10.9474697913536
30
0
41
1
10
-38
20
8.85369717199413
30
0
41
1
10
-38
20
7.20137624192125
30
0
41
1
10
-38
20
5.46830539586296
30
0
41
1
10
-38
20
3.67033144630452
30
0
41
1
10
-38
20
2.14779050597869
30
0
41
1
10
-38
20
0.911746463163183
30
0
41
1
10
-38
20
3.12542852E-07
30
0
41
1
10
-38
20
-0.911746507027772
30
0
41
1
10
-38
20
-2.14779063761824
30
0
41
1
10
-38
20
-3.67033088291649
30
0
41
1
10
-38
20
-5.46830515172132
30
0
41
1
10
-38
20
-7.20137650942658
30
0
41
1
10
-38
20
-8.85369680730176
30
0
41
1
10
-38
20
-10.9474696029843
30
0
41
1
10
-38
20
-12.8247036249508
30
0
41
1
10
-38
20
-14.5156410584188
30
0
41
1
10
-38
20
-16.0627617322199
30
0
41
1
10
-38
20
-17.704440345947
30
0
41
1
10
-38
20
-18.9398403790117
30
0
41
1
10
-38
20
-19.6579416385018
30
0
41
1
10
-38
20
-20.0459066437045
30
0
41
1
10
-38
20
-20.2526737733571
30
0
41
1
10
-38
20
-20.2935655572611
30
0
41
1
10
-38
20
-20.2930938598525
30
0
0
SPLINE
5
134
100
AcDbEntity
8
1
62
256
6
ByLayer
370
13
48
1
60
0
100
AcDbSpline
70
4
71
3
72
18
73
14
40
0
40
0
40
0
40
0
40
0.192729076878737
40
0.192729076878737
40
0.385458153757473
40
0.385458153757473
40
0.57818723063621
40
0.57818723063621
40
0.770916307514947
40
0.770916307514947
40
0.963645384393683
40
0.963645384393683
40
1
40
1
40
1
40
1
41
1
10
58.6176339053174
20
30.9538526552593
30
0
41
1
10
58.6172977660464
20
30.9545735082522
30
0
41
1
10
58.6193256012758
20
30.9600719760416
30
0
41
1
10
58.6276935434775
20
30.9797950626961
30
0
41
1
10
58.6340863704537
20
30.9941194604893
30
0
41
1
10
58.6501176609108
20
31.0292125172972
30
0
41
1
10
58.6599484884822
20
31.0504038931935
30
0
41
1
10
58.6817879576107
20
31.0970535523298
30
0
41
1
10
58.6938273198799
20
31.1225840989175
30
0
41
1
10
58.7198485880422
20
31.1775029549995
30
0
41
1
10
58.7338000672166
20
31.2068243996155
30
0
41
1
10
58.7508310412202
20
31.2425149203787
30
0
41
1
10
58.753551605969
20
31.2482132578325
30
0
41
1
10
58.7562897080412
20
31.2539455154902
30
0
0
SPLINE
5
135
100
AcDbEntity
8
SK1
62
256
6
ByLayer
370
13
48
1
60
0
100
AcDbSpline
70
4
71
3
72
23
73
19
40
0
40
0
40
0
40
0
40
0.0151805133247903
40
0.0437410007538082
40
0.100861975611844
40
0.15798295046988
40
0.215103925327915
40
0.272224900185951
40
0.329345875043986
40
0.443587824760058
40
0.500708799618093
40
0.557829774476129
40
0.672071724192201
40
0.786313673908272
40
0.843434648766307
40
0.900555623624343
40
0.957676598482379
40
1
40
1
40
1
40
1
41
1
10
-1.7950399779393
20
-0.497935257504821
30
0
41
1
10
-1.7950399779393
20
-0.686148227369159
30
0
41
1
10
-1.7950399779393
20
-1.2279675200129
30
0
41
1
10
-1.7950399779393
20
-2.47030998023922
30
0
41
1
10
-1.7950399779393
20
-4.18621515342139
30
0
41
1
10
-1.7950399779393
20
-6.15385395841673
30
0
41
1
10
-1.7950399779393
20
-8.02089392647389
30
0
41
1
10
-1.7950399779393
20
-9.78370691003113
30
0
41
1
10
-1.7950399779393
20
-11.9936132714088
30
0
41
1
10
-1.7950399779393
20
-13.9857840732081
30
0
41
1
10
-1.7950399779393
20
-15.7565284847275
30
0
41
1
10
-1.7950399779393
20
-17.3747492708666
30
0
41
1
10
-1.7950399779393
20
-19.1010732050206
30
0
41
1
10
-1.7950399779393
20
-20.4022771684283
30
0
41
1
10
-1.7950399779393
20
-21.1565874478056
30
0
41
1
10
-1.7950399779393
20
-21.567186866652
30
0
41
1
10
-1.79503997793932
20
-21.7871401655933
30
0
41
1
10
-1.79503997793932
20
-21.8309162602034
30
0
41
1
10
-1.79503997793927
20
-21.8302774774372
30
0
0
SPLINE
5
136
100
AcDbEntity
8
SK1
62
256
6
ByLayer
370
13
48
1
60
0
100
AcDbSpline
70
4
71
3
72
20
73
16
40
0
40
0
40
0
40
0
40
0.0043037080537155
40
0.0712861922394243
40
0.138268676425133
40
0.205251160610842
40
0.339216128982259
40
0.406198613167968
40
0.473181097353677
40
0.607146065725094
40
0.741111034096512
40
0.80809351828222
40
0.875076002467929
40
0.942058486653638
40
1
40
1
40
1
40
1
41
1
10
-0.194976888875288
20
-6.03119623886747
30
0
41
1
10
-0.194976888875288
20
-6.07248438694879
30
0
41
1
10
-0.194976888875288
20
-6.7552262401928
30
0
41
1
10
-0.194976888875288
20
-8.04231567916281
30
0
41
1
10
-0.194976888875288
20
-9.80801688319883
30
0
41
1
10
-0.194976888875288
20
-12.0209589146812
30
0
41
1
10
-0.194976888875288
20
-14.0161341032345
30
0
41
1
10
-0.194976888875288
20
-15.788964627033
30
0
41
1
10
-0.194976888875288
20
-17.4090439325775
30
0
41
1
10
-0.194976888875288
20
-19.1375804507264
30
0
41
1
10
-0.194976888875288
20
-20.4405044941378
30
0
41
1
10
-0.194976888875288
20
-21.1957612581816
30
0
41
1
10
-0.194976888875288
20
-21.6069523286528
30
0
41
1
10
-0.194976888875288
20
-21.8372259083695
30
0
41
1
10
-0.19497688887526
20
-21.8768660879849
30
0
41
1
10
-0.194976888875288
20
-21.8685012532488
30
0
0
SPLINE
5
137
100
AcDbEntity
8
SK1
62
256
6
ByLayer
370
13
48
1
60
0
100
AcDbSpline
70
4
71
3
72
23
73
19
40
0
40
0
40
0
40
0
40
0.0423096467910929
40
0.0994314518352837
40
0.156553256879474
40
0.213675061923665
40
0.327918672012047
40
0.442162282100428
40
0.499284087144619
40
0.55640589218881
40
0.670649502277191
40
0.727771307321382
40
0.784893112365573
40
0.842014917409764
40
0.899136722453954
40
0.956258527498145
40
0.984819430020241
40
1
40
1
40
1
40
1
41
1
10
-1.7950399779393
20
21.8302779652531
30
0
41
1
10
-1.7950399779393
20
21.8309033781507
30
0
41
1
10
-1.7950399779393
20
21.7871192697569
30
0
41
1
10
-1.7950399779393
20
21.5671864477184
30
0
41
1
10
-1.7950399779393
20
21.1565876158885
30
0
41
1
10
-1.7950399779393
20
20.4022762052016
30
0
41
1
10
-1.7950399779393
20
19.101073730141
30
0
41
1
10
-1.7950399779393
20
17.3747488027599
30
0
41
1
10
-1.7950399779393
20
15.7565286767833
30
0
41
1
10
-1.7950399779393
20
13.9857840798917
30
0
41
1
10
-1.7950399779393
20
11.9936135169182
30
0
41
1
10
-1.7950399779393
20
9.78370710557337
30
0
41
1
10
-1.7950399779393
20
8.02089380010176
30
0
41
1
10
-1.7950399779393
20
6.15385433510392
30
0
41
1
10
-1.7950399779393
20
4.18621524287374
30
0
41
1
10
-1.7950399779393
20
2.47030995483456
30
0
41
1
10
-1.7950399779393
20
1.22796960685088
30
0
41
1
10
-1.7950399779393
20
0.686152378390659
30
0
41
1
10
-1.7950399779393
20
0.497941450133766
30
0
0
SPLINE
5
138
100
AcDbEntity
8
SK1
62
256
6
ByLayer
370
13
48
1
60
0
100
AcDbSpline
70
4
71
3
72
20
73
16
40
0
40
0
40
0
40
0
40
0.0579409455204925
40
0.124923478225984
40
0.191906010931476
40
0.258888543636967
40
0.392853609047951
40
0.526818674458934
40
0.593801207164425
40
0.660783739869917
40
0.7947488052809
40
0.861731337986392
40
0.928713870691883
40
0.995696403397375
40
1
40
1
40
1
40
1
41
1
10
-0.19497688887526
20
21.8685013857758
30
0
41
1
10
-0.194976888875288
20
21.8768655442573
30
0
41
1
10
-0.194976888875288
20
21.8372244542237
30
0
41
1
10
-0.194976888875288
20
21.6069519109193
30
0
41
1
10
-0.194976888875288
20
21.1957614261541
30
0
41
1
10
-0.194976888875288
20
20.4405035302762
30
0
41
1
10
-0.194976888875288
20
19.1375809778665
30
0
41
1
10
-0.194976888875288
20
17.4090434636518
30
0
41
1
10
-0.194976888875288
20
15.7889648215842
30
0
41
1
10
-0.194976888875288
20
14.0161341102769
30
0
41
1
10
-0.194976888875288
20
12.0209591616842
30
0
41
1
10
-0.194976888875288
20
9.80801707431959
30
0
41
1
10
-0.194976888875288
20
8.04231555647985
30
0
41
1
10
-0.194976888875288
20
6.75522752997537
30
0
41
1
10
-0.194976888875288
20
6.07248683105715
30
0
41
1
10
-0.194976888875288
20
6.03119978687542
30
0
0
SPLINE
5
139
100
AcDbEntity
8
SK1
62
256
6
ByLayer
370
13
48
1
60
0
100
AcDbSpline
70
4
71
3
72
39
73
35
40
0
40
0
40
0
40
0
40
0.0136745863522962
40
0.0422819842333119
40
0.0708893821143276
40
0.0994967799953432
40
0.156711575757375
40
0.213926371519406
40
0.242533769400422
40
0.271141167281437
40
0.328355963043469
40
0.356963360924484
40
0.3855707588055
40
0.414178156686516
40
0.442785554567531
40
0.471392952448547
40
0.485696651389055
40
0.500000350329563
40
0.514304049270071
40
0.528607748210578
40
0.557215146091594
40
0.58582254397261
40
0.614429941853626
40
0.643037339734641
40
0.671644737615657
40
0.728859533377688
40
0.757466931258704
40
0.78607432913972
40
0.843289124901751
40
0.900503920663782
40
0.929111318544798
40
0.957718716425814
40
0.986326114306829
40
1
40
1
40
1
40
1
41
1
10
-2
20
22.018553003315
30
0
41
1
10
-2
20
22.0102354313204
30
0
41
1
10
-2
20
21.9603732608624
30
0
41
1
10
-2
20
21.7599974084889
30
0
41
1
10
-2
20
21.3465298267009
30
0
41
1
10
-2
20
20.5876291894755
30
0
41
1
10
-2
20
19.2780865684795
30
0
41
1
10
-2
20
17.5410334624521
30
0
41
1
10
-2
20
15.9138019420577
30
0
41
1
10
-2
20
14.1329423938392
30
0
41
1
10
-2
20
12.1262044542746
30
0
41
1
10
-2
20
9.90157894844808
30
0
41
1
10
-2
20
8.12476155609352
30
0
41
1
10
-2
20
6.24074256492972
30
0
41
1
10
-2
20
4.25159967761499
30
0
41
1
10
-2
20
2.5111868964961
30
0
41
1
10
-2
20
1.08235400424977
30
0
41
1
10
-2
20
2.27208261E-08
30
0
41
1
10
-2
20
-1.08235390921519
30
0
41
1
10
-2
20
-2.51118690843629
30
0
41
1
10
-2
20
-4.25159964823044
30
0
41
1
10
-2
20
-6.24074217144337
30
0
41
1
10
-2
20
-8.12476166457805
30
0
41
1
10
-2
20
-9.90157877434436
30
0
41
1
10
-2
20
-12.1262042015232
30
0
41
1
10
-2
20
-14.1329423854158
30
0
41
1
10
-2
20
-15.9138017379025
30
0
41
1
10
-2
20
-17.5410339345301
30
0
41
1
10
-2
20
-19.2780860335662
30
0
41
1
10
-2
20
-20.5876301557806
30
0
41
1
10
-2
20
-21.346529659153
30
0
41
1
10
-2
20
-21.7599978216034
30
0
41
1
10
-2
20
-21.9603719639589
30
0
41
1
10
-2.00000000000003
20
-22.0102341379291
30
0
41
1
10
-2.00000000000003
20
-22.0185519965358
30
0
0
SPLINE
5
13A
100
AcDbEntity
8
SK1
62
256
6
ByLayer
370
13
48
1
60
0
100
AcDbSpline
70
4
71
3
72
39
73
35
40
0
40
0
40
0
40
0
40
0.0160534733314941
40
0.0445209269260511
40
0.072988380520608
40
0.101455834115165
40
0.158390741304279
40
0.215325648493393
40
0.24379310208795
40
0.272260555682507
40
0.32919546287162
40
0.357662916466177
40
0.386130370060734
40
0.414597823655291
40
0.443065277249848
40
0.471532730844405
40
0.485766457641684
40
0.500000184438962
40
0.514233911236241
40
0.528467638033519
40
0.556935091628076
40
0.585402545222633
40
0.61386999881719
40
0.642337452411747
40
0.670804906006304
40
0.727739813195418
40
0.756207266789975
40
0.784674720384532
40
0.841609627573646
40
0.89854453476276
40
0.927011988357316
40
0.955479441951874
40
0.983946895546431
40
1
40
1
40
1
40
1
41
1
10
-36.5
20
-21.1559493313743
30
0
41
1
10
-36.5
20
-21.1496537957043
30
0
41
1
10
-36.5
20
-21.102906588253
30
0
41
1
10
-36.5
20
-20.9025888554179
30
0
41
1
10
-36.5
20
-20.5018776781105
30
0
41
1
10
-36.5
20
-19.7633859456667
30
0
41
1
10
-36.5
20
-18.4909295861375
30
0
41
1
10
-36.5
20
-16.8015844483731
30
0
41
1
10
-36.5
20
-15.2144249963299
30
0
41
1
10
-36.5
20
-13.4785456662698
30
0
41
1
10
-36.5
20
-11.53658701746
30
0
41
1
10
-36.5
20
-9.37741564601666
30
0
41
1
10
-36.5
20
-7.66287333478689
30
0
41
1
10
-36.5
20
-5.85435990948278
30
0
41
1
10
-36.5
20
-3.96084204001809
30
0
41
1
10
-36.5
20
-2.32941173515778
30
0
41
1
10
-36.5
20
-0.997014040356845
30
0
41
1
10
-36.5
20
1.676932584E-07
30
0
41
1
10
-36.5
20
0.997014065912424
30
0
41
1
10
-36.5
20
2.32941166334251
30
0
41
1
10
-36.5
20
3.9608423365176
30
0
41
1
10
-36.5
20
5.85436022826511
30
0
41
1
10
-36.5
20
7.66287314675827
30
0
41
1
10
-36.5
20
9.37741591545509
30
0
41
1
10
-36.5
20
11.5365872380067
30
0
41
1
10
-36.5
20
13.4785456669563
30
0
41
1
10
-36.5
20
15.2144251466802
30
0
41
1
10
-36.5
20
16.801583993955
30
0
41
1
10
-36.5
20
18.4909300775028
30
0
41
1
10
-36.5
20
19.763384993051
30
0
41
1
10
-36.5
20
20.5018778480376
30
0
41
1
10
-36.5
20
20.9025884164263
30
0
41
1
10
-36.5
20
21.1029048971645
30
0
41
1
10
-36.5
20
21.1496527030797
30
0
41
1
10
-36.5
20
21.1559486686792
30
0
0
SPLINE
5
13B
100
AcDbEntity
8
SK1
62
256
6
ByLayer
370
13
48
1
60
0
100
AcDbSpline
70
4
71
3
72
12
73
8
40
0
40
0
40
0
40
0
40
0.5
40
0.5
40
0.75
40
0.75
40
1
40
1
40
1
40
1
41
1
10
-1.7950399779393
20
-0.497935257502491
30
0
41
1
10
-1.77653914765787
20
-1.24647885525033
30
0
41
1
10
-1.71691620290051
20
-1.97708756274542
30
0
41
1
10
-1.58941566267569
20
-3.05322019189467
30
0
41
1
10
-1.54049044883092
20
-3.40895792180348
30
0
41
1
10
-1.43359377497899
20
-4.11326302552163
30
0
41
1
10
-1.37594200987354
20
-4.46036222995889
30
0
41
1
10
-1.31543506509496
20
-4.80312334332311
30
0
0
SPLINE
5
13C
100
AcDbEntity
8
SK1
62
256
6
ByLayer
370
13
48
1
60
0
100
AcDbSpline
70
4
71
3
72
8
73
4
40
0
40
0
40
0
40
0
40
1
40
1
40
1
40
1
41
1
10
-1.7950399779393
20
0.497941450131378
30
0
41
1
10
-1.8032393029755
20
0.166197488024409
30
0
41
1
10
-1.80323914652325
20
-0.166196894573773
30
0
41
1
10
-1.7950399779393
20
-0.497935257502405
30
0
0
SPLINE
5
13D
100
AcDbEntity
8
SK1
62
256
6
ByLayer
370
13
48
1
60
0
100
AcDbSpline
70
4
71
3
72
24
73
20
40
0
40
0
40
0
40
0
40
0.250000000000001
40
0.250000000000001
40
0.500000000000002
40
0.500000000000002
40
0.625000000000004
40
0.625000000000004
40
0.687500000000005
40
0.687500000000005
40
0.750000000000006
40
0.750000000000006
40
0.781250000000008
40
0.781250000000008
40
0.81250000000001
40
0.81250000000001
40
0.875000000000006
40
0.875000000000006
40
1
40
1
40
1
40
1
41
1
10
0
20
6.5183304588368
30
0
41
1
10
0
20
6.45522053919643
30
0
41
1
10
-0.0010439778775151
20
6.39189792494506
30
0
41
1
10
-0.0066331590536493
20
6.26465457420898
30
0
41
1
10
-0.0109424945271996
20
6.2007568986636
30
0
41
1
10
-0.023743957536368
20
6.10406413572977
30
0
41
1
10
-0.0290317215906555
20
6.07172605073291
30
0
41
1
10
-0.040728769430018
20
6.02387032550251
30
0
41
1
10
-0.0452407421154533
20
6.00804525610346
30
0
41
1
10
-0.0569504118185193
20
5.97703582567357
30
0
41
1
10
-0.0639847666291757
20
5.96167502038924
30
0
41
1
10
-0.0794665818771705
20
5.94298022643105
30
0
41
1
10
-0.0856934027250418
20
5.93751380390083
30
0
41
1
10
-0.0994753923273493
20
5.93143825483574
30
0
41
1
10
-0.106898903379999
20
5.93100049064543
30
0
41
1
10
-0.127526205464363
20
5.93601038404188
30
0
41
1
10
-0.138514088367032
20
5.94580578265905
30
0
41
1
10
-0.167434784700134
20
5.97774850300266
30
0
41
1
10
-0.181895441226715
20
6.00414924260897
30
0
41
1
10
-0.194976888875288
20
6.03119978687539
30
0
0
SPLINE
5
13E
100
AcDbEntity
8
SK1
62
256
6
ByLayer
370
13
48
1
60
0
100
AcDbSpline
70
4
71
3
72
12
73
8
40
0
40
0
40
0
40
0
40
0.500000000000001
40
0.500000000000001
40
0.75
40
0.75
40
1
40
1
40
1
40
1
41
1
10
-1.31543506509496
20
4.80312611568499
30
0
41
1
10
-1.43626012329909
20
4.1186725827593
30
0
41
1
10
-1.54570661522311
20
3.42035952770564
30
0
41
1
10
-1.67354292465419
20
2.34403832325549
30
0
41
1
10
-1.71004380309574
20
1.97976364966934
30
0
41
1
10
-1.76632757819667
20
1.24235044099939
30
0
41
1
10
-1.78580965608418
20
0.871399451883292
30
0
41
1
10
-1.7950399779393
20
0.497941450131322
30
0
0
SPLINE
5
13F
100
AcDbEntity
8
SK1
62
256
6
ByLayer
370
13
48
1
60
0
100
AcDbSpline
70
4
71
3
72
32
73
28
40
0
40
0
40
0
40
0
40
0.0625000000000006
40
0.0625000000000006
40
0.125000000000001
40
0.125000000000001
40
0.156250000000001
40
0.156250000000001
40
0.1875
40
0.1875
40
0.21875
40
0.21875
40
0.25
40
0.25
40
0.281249999999999
40
0.281249999999999
40
0.312499999999999
40
0.312499999999999
40
0.374999999999999
40
0.374999999999999
40
0.499999999999999
40
0.499999999999999
40
0.624999999999999
40
0.624999999999999
40
0.75
40
0.75
40
1
40
1
40
1
40
1
41
1
10
-0.194976888874976
20
6.03119978686644
30
0
41
1
10
-0.216476406454348
20
6.07565768385473
30
0
41
1
10
-0.239719927159598
20
6.11920474651831
30
0
41
1
10
-0.291819645561901
20
6.20350083003319
30
0
41
1
10
-0.320711864917797
20
6.24445107140889
30
0
41
1
10
-0.370805753912265
20
6.300398083255
30
0
41
1
10
-0.388670018580569
20
6.31816959811684
30
0
41
1
10
-0.428100636145331
20
6.35095708010772
30
0
41
1
10
-0.449595574233285
20
6.36588102483373
30
0
41
1
10
-0.496632487885364
20
6.38968978046941
30
0
41
1
10
-0.522118777428233
20
6.39843241706569
30
0
41
1
10
-0.575596942032803
20
6.40582165908882
30
0
41
1
10
-0.603234088619899
20
6.40422234597244
30
0
41
1
10
-0.656009192686156
20
6.3911152844189
30
0
41
1
10
-0.680495529675085
20
6.38007339116976
30
0
41
1
10
-0.725877330175422
20
6.35269456289723
30
0
41
1
10
-0.746448452566767
20
6.33659292416795
30
0
41
1
10
-0.803382549345429
20
6.28469102570321
30
0
41
1
10
-0.83568841002986
20
6.24480528404476
30
0
41
1
10
-0.921506342118278
20
6.12206225293096
30
0
41
1
10
-0.965943709952796
20
6.03409066956348
30
0
41
1
10
-1.045189363764
20
5.85301034838804
30
0
41
1
10
-1.07895159342607
20
5.76056093395741
30
0
41
1
10
-1.13972977881554
20
5.57388459136638
30
0
41
1
10
-1.16668415065359
20
5.47947740191023
30
0
41
1
10
-1.2405971019096
20
5.19369530000947
30
0
41
1
10
-1.28071953801415
20
4.99978370899402
30
0
41
1
10
-1.31543506509496
20
4.80312611568496
30
0
0
SPLINE
5
140
100
AcDbEntity
8
SK1
62
256
6
ByLayer
370
13
48
1
60
0
100
AcDbSpline
70
4
71
3
72
34
73
30
40
0
40
0
40
0
40
0
40
0.250000000000002
40
0.250000000000002
40
0.375000000000002
40
0.375000000000002
40
0.500000000000002
40
0.500000000000002
40
0.562500000000002
40
0.562500000000002
40
0.625000000000003
40
0.625000000000003
40
0.687500000000003
40
0.687500000000003
40
0.718750000000003
40
0.718750000000003
40
0.750000000000003
40
0.750000000000003
40
0.781250000000003
40
0.781250000000003
40
0.812500000000003
40
0.812500000000003
40
0.843750000000003
40
0.843750000000003
40
0.875000000000003
40
0.875000000000003
40
0.937500000000002
40
0.937500000000002
40
1
40
1
40
1
40
1
41
1
10
-1.31543506509496
20
-4.80312334332308
30
0
41
1
10
-1.28076933939272
20
-4.99949853266315
30
0
41
1
10
-1.24073415674675
20
-5.19296336014659
30
0
41
1
10
-1.16716329233486
20
-5.47771958584258
30
0
41
1
10
-1.14035853584559
20
-5.5717248322027
30
0
41
1
10
-1.08003848556822
20
-5.75743774220825
30
0
41
1
10
-1.04664150453084
20
-5.84917331464339
30
0
41
1
10
-0.98787068595658
20
-5.98422224022059
30
0
41
1
10
-0.966814489518924
20
-6.02880810651172
30
0
41
1
10
-0.920216555099728
20
-6.11675696317576
30
0
41
1
10
-0.894592329212259
20
-6.16031286964636
30
0
41
1
10
-0.836953153828773
20
-6.24322122891587
30
0
41
1
10
-0.804676882754393
20
-6.28326452250002
30
0
41
1
10
-0.747673753868668
20
-6.33558832520282
30
0
41
1
10
-0.727058777963265
20
-6.35184085637619
30
0
41
1
10
-0.68173857912771
20
-6.37945067836887
30
0
41
1
10
-0.657061527785288
20
-6.39070441483318
30
0
41
1
10
-0.604455376714867
20
-6.40405588022136
30
0
41
1
10
-0.576546297516217
20
-6.40583055041179
30
0
41
1
10
-0.522989552413435
20
-6.39866457153505
30
0
41
1
10
-0.497049378447912
20
-6.38984048046493
30
0
41
1
10
-0.450155670808044
20
-6.36621714270305
30
0
41
1
10
-0.428474238728938
20
-6.35122331462841
30
0
41
1
10
-0.389101703365327
20
-6.31856551845908
30
0
41
1
10
-0.371152284798484
20
-6.30076160924691
30
0
41
1
10
-0.320680982469923
20
-6.24445306808846
30
0
41
1
10
-0.29178765389338
20
-6.20344548486361
30
0
41
1
10
-0.239753720745597
20
-6.11925606078034
30
0
41
1
10
-0.216500221865886
20
-6.07570340180663
30
0
41
1
10
-0.194976888875288
20
-6.03119623886749
30
0
0
SPLINE
5
141
100
AcDbEntity
8
SK1
62
256
6
ByLayer
370
13
48
1
60
0
100
AcDbSpline
70
4
71
3
72
24
73
20
40
0
40
0
40
0
40
0
40
0.125000000000019
40
0.125000000000019
40
0.187500000000027
40
0.187500000000027
40
0.218750000000027
40
0.218750000000027
40
0.250000000000027
40
0.250000000000027
40
0.312500000000025
40
0.312500000000025
40
0.375000000000023
40
0.375000000000023
40
0.50000000000002
40
0.50000000000002
40
0.75000000000001
40
0.75000000000001
40
1
40
1
40
1
40
1
41
1
10
-0.194976888875288
20
-6.03119623886741
30
0
41
1
10
-0.181826598515812
20
-6.00400332613484
30
0
41
1
10
-0.167547847547269
20
-5.97777580689683
30
0
41
1
10
-0.138133823781544
20
-5.94542998594065
30
0
41
1
10
-0.126980830635318
20
-5.93562257036294
30
0
41
1
10
-0.106202335115597
20
-5.93096261979079
30
0
41
1
10
-0.0986246177406542
20
-5.93160481011321
30
0
41
1
10
-0.0848219407658632
20
-5.93812650477901
30
0
41
1
10
-0.0786743067568523
20
-5.94375377374072
30
0
41
1
10
-0.0632480078929234
20
-5.96296393824602
30
0
41
1
10
-0.0563081470613156
20
-5.97849755947968
30
0
41
1
10
-0.0448248341425597
20
-6.00940129377022
30
0
41
1
10
-0.0403569605128666
20
-6.0252252501686
30
0
41
1
10
-0.0287511942329388
20
-6.07321800743878
30
0
41
1
10
-0.0235393797223935
20
-6.10541265446764
30
0
41
1
10
-0.0109168744474744
20
-6.20134335264203
30
0
41
1
10
-0.006612200335411
20
-6.26501866588507
30
0
41
1
10
-0.001042547603106
20
-6.39203713887798
30
0
41
1
10
0
20
-6.45536401799006
30
0
41
1
10
0
20
-6.51832721803797
30
0
0
SPLINE
5
142
100
AcDbEntity
8
1
62
256
6
ByLayer
370
13
48
1
60
0
100
AcDbSpline
70
4
71
3
72
16
73
12
40
0
40
0
40
0
40
0
40
0.125000000000001
40
0.125000000000001
40
0.250000000000002
40
0.250000000000002
40
0.500000000000001
40
0.500000000000001
40
0.750000000000001
40
0.750000000000001
40
1
40
1
40
1
40
1
41
1
10
13.4613248654052
20
-9.34922131452527
30
0
41
1
10
13.4928040273173
20
-9.34922131452527
30
0
41
1
10
13.5234304266403
20
-9.35536120669471
30
0
41
1
10
13.5815263070003
20
-9.37748487924981
30
0
41
1
10
13.6079581046676
20
-9.39290424748322
30
0
41
1
10
13.6817632688741
20
-9.44829073160864
30
0
41
1
10
13.7208296342408
20
-9.49467220053427
30
0
41
1
10
13.7874862877332
20
-9.59453680346914
30
0
41
1
10
13.8142652669257
20
-9.64728479257948
30
0
41
1
10
13.8599440812239
20
-9.75611455014891
30
0
41
1
10
13.8787443055274
20
-9.81241059371445
30
0
41
1
10
13.8943375672975
20
-9.86941261896635
30
0
0
SPLINE
5
143
100
AcDbEntity
8
1
62
256
6
ByLayer
370
13
48
1
60
0
100
AcDbSpline
70
4
71
3
72
16
73
12
40
0
40
0
40
0
40
0
40
0.124999999999999
40
0.124999999999999
40
0.249999999999998
40
0.249999999999998
40
0.499999999999999
40
0.499999999999999
40
0.749999999999999
40
0.749999999999999
40
1
40
1
40
1
40
1
41
1
10
10.5386751345948
20
9.34922131452524
30
0
41
1
10
10.5071959726827
20
9.34922131452524
30
0
41
1
10
10.4765695733598
20
9.35536120669468
30
0
41
1
10
10.4184736929998
20
9.37748487924978
30
0
41
1
10
10.3920418953325
20
9.39290424748322
30
0
41
1
10
10.3182367311259
20
9.44829073160864
30
0
41
1
10
10.2791703657593
20
9.49467220053424
30
0
41
1
10
10.2125137122669
20
9.59453680346914
30
0
41
1
10
10.1857347330744
20
9.64728479257948
30
0
41
1
10
10.1400559187761
20
9.75611455014891
30
0
41
1
10
10.1212556944726
20
9.81241059371442
30
0
41
1
10
10.1056624327026
20
9.86941261896635
30
0
0
SPLINE
5
144
100
AcDbEntity
8
1
62
256
6
ByLayer
370
13
48
1
60
0
100
AcDbSpline
70
4
71
3
72
8
73
4
40
0
40
0
40
0
40
0
40
1
40
1
40
1
40
1
41
1
10
30.9060032849982
20
40.8772799226339
30
0
41
1
10
29.8314635492848
20
39.1412051112021
30
0
41
1
10
28.7746356732675
20
37.3840131888679
30
0
41
1
10
27.7428693253786
20
35.5969414527846
30
0
0
SPLINE
5
145
100
AcDbEntity
8
1
62
256
6
ByLayer
370
13
48
1
60
0
100
AcDbSpline
70
4
71
3
72
8
73
4
40
0
40
0
40
0
40
0
40
1
40
1
40
1
40
1
41
1
10
27.1961524227066
20
34.6499827135507
30
0
41
1
10
27.3709750309434
20
34.9528076272496
30
0
41
1
10
27.5460030696918
20
35.2559590956392
30
0
41
1
10
27.7212175971363
20
35.5594395593972
30
0
0
SPLINE
5
146
100
AcDbEntity
8
1
62
256
6
ByLayer
370
13
48
1
60
0
100
AcDbSpline
70
4
71
3
72
24
73
20
40
0
40
0
40
0
40
0
40
0.125
40
0.125
40
0.1875
40
0.1875
40
0.25
40
0.25
40
0.375000000000001
40
0.375000000000001
40
0.500000000000001
40
0.500000000000001
40
0.562500000000001
40
0.562500000000001
40
0.625000000000001
40
0.625000000000001
40
0.750000000000001
40
0.750000000000001
40
1
40
1
40
1
40
1
41
1
10
22.7079868034932
20
-26.4402763180232
30
0
41
1
10
22.5601621059578
20
-26.731725813938
30
0
41
1
10
22.4340176339186
20
-27.0111255687644
30
0
41
1
10
22.2695243440436
20
-27.4127385897342
30
0
41
1
10
22.2187004311621
20
-27.5441053921043
30
0
41
1
10
22.1253804889101
20
-27.7981506993044
30
0
41
1
10
22.0827859031002
20
-27.9210179560723
30
0
41
1
10
21.9652381649778
20
-28.278062820933
30
0
41
1
10
21.9004375974567
20
-28.5007242630914
30
0
41
1
10
21.7902916126411
20
-28.9187889433406
30
0
41
1
10
21.74498666971
20
-29.1141724248676
30
0
41
1
10
21.6876391203685
20
-29.388543716307
30
0
41
1
10
21.6703055842024
20
-29.476876621382
30
0
41
1
10
21.6386687634196
20
-29.6475198376757
30
0
41
1
10
21.6243496443262
20
-29.7299321962342
30
0
41
1
10
21.5853738628434
20
-29.967600764836
30
0
41
1
10
21.5646753303999
20
-30.1131686258021
30
0
41
1
10
21.5133192617464
20
-30.5149500327291
30
0
41
1
10
21.4931256448852
20
-30.7364704889438
30
0
41
1
10
21.4782937808627
20
-30.9177329026813
30
0
0
SPLINE
5
147
100
AcDbEntity
8
1
62
256
6
ByLayer
370
13
48
1
60
0
100
AcDbSpline
70
4
71
3
72
31
73
27
40
0
40
0
40
0
40
0
40
0.0625000000000003
40
0.0625000000000003
40
0.0937500000000002
40
0.0937500000000002
40
0.125
40
0.125
40
0.25
40
0.25
40
0.375000000000001
40
0.375000000000001
40
0.437500000000001
40
0.437500000000001
40
0.500000000000001
40
0.500000000000001
40
0.625000000000001
40
0.625000000000001
40
0.6875
40
0.6875
40
0.75
40
0.8125
40
0.8125
40
0.875
40
0.875
40
1
40
1
40
1
40
1
41
1
10
21.6542118150394
20
-15.449074687974
30
0
41
1
10
21.6430632122439
20
-15.944882620093
30
0
41
1
10
21.6331224932053
20
-16.4328393016359
30
0
41
1
10
21.619546752849
20
-17.1529808581236
30
0
41
1
10
21.6152461476133
20
-17.3910614290063
30
0
41
1
10
21.607035300371
20
-17.8632739331067
30
0
41
1
10
21.6031214446542
20
-18.0976419679883
30
0
41
1
10
21.5844658434929
20
-19.2557723151578
30
0
41
1
10
21.5723792398671
20
-20.1392793283996
30
0
41
1
10
21.5515818615289
20
-21.8227006327392
30
0
41
1
10
21.5429002283658
20
-22.6226098128519
30
0
41
1
10
21.5315561632555
20
-23.7593634517565
30
0
41
1
10
21.5280604204965
20
-24.1277406133157
30
0
41
1
10
21.5215443327128
20
-24.8430657313739
30
0
41
1
10
21.518521497837
20
-25.190389620801
30
0
41
1
10
21.5101228820322
20
-26.1913206474469
30
0
41
1
10
21.5053825849401
20
-26.8068032899822
30
0
41
1
10
21.4992044530762
20
-27.6522976870322
30
0
41
1
10
21.497300742076
20
-27.9214262416476
30
0
41
1
10
21.4937877455703
20
-28.4306371946515
30
0
41
1
10
21.4905642051273
20
-28.9114584799878
30
0
41
1
10
21.4878486215524
20
-29.3357752234601
30
0
41
1
10
21.4853604003412
20
-29.7317277499272
30
0
41
1
10
21.4842287311208
20
-29.9157391154518
30
0
41
1
10
21.4811607145648
20
-30.4221886939132
30
0
41
1
10
21.4795438811127
20
-30.699873017711
30
0
41
1
10
21.4782937808627
20
-30.9177329026813
30
0
0
SPLINE
5
148
100
AcDbEntity
8
1
62
256
6
ByLayer
370
13
48
1
60
0
100
AcDbSpline
70
4
71
3
72
16
73
12
40
0
40
0
40
0
40
0
40
0.249999999999999
40
0.249999999999999
40
0.499999999999998
40
0.499999999999998
40
0.749999999999997
40
0.749999999999997
40
0.874999999999998
40
0.874999999999998
40
1
40
1
40
1
40
1
41
1
10
13.8943375672974
20
-29.913954846469
30
0
41
1
10
13.8787501654513
20
-29.9327542695084
30
0
41
1
10
13.8600981524865
20
-29.9510098933135
30
0
41
1
10
13.8145135903111
20
-29.9862144781928
30
0
41
1
10
13.7875017792166
20
-30.0032856662984
30
0
41
1
10
13.720820003123
20
-30.0350501233766
30
0
41
1
10
13.681061856087
20
-30.0498069467437
30
0
41
1
10
13.608408157626
20
-30.0668840803112
30
0
41
1
10
13.5814155034804
20
-30.0718038277879
30
0
41
1
10
13.5238105256954
20
-30.07864614904
30
0
41
1
10
13.492758797411
20
-30.0805927603169
30
0
41
1
10
13.4613248654053
20
-30.0805927603169
30
0
0
SPLINE
5
149
100
AcDbEntity
8
1
62
256
6
ByLayer
370
13
48
1
60
0
100
AcDbSpline
70
4
71
3
72
14
73
10
40
0
40
0
40
0
40
0
40
0.25
40
0.25
40
0.5
40
0.5
40
0.75
40
0.75
40
1
40
1
40
1
40
1
41
1
10
22.2792076144253
20
24.0800986008599
30
0
41
1
10
22.3332126371757
20
24.6006730325288
30
0
41
1
10
22.3887003992245
20
25.099702307312
30
0
41
1
10
22.5025277519882
20
26.0555712627175
30
0
41
1
10
22.5606390551069
20
26.5104862148026
30
0
41
1
10
22.6791335828446
20
27.3766476256381
30
0
41
1
10
22.7395185448378
20
27.7878606904013
30
0
41
1
10
22.8624119978607
20
28.5694705709656
30
0
41
1
10
22.9249255160434
20
28.9397707601006
30
0
41
1
10
22.9883692335613
20
29.2921916327799
30
0
0
SPLINE
5
14A
100
AcDbEntity
8
1
62
256
6
ByLayer
370
13
48
1
60
0
100
AcDbSpline
70
4
71
3
72
16
73
12
40
0
40
0
40
0
40
0
40
0.250000000000001
40
0.250000000000001
40
0.500000000000001
40
0.500000000000001
40
0.750000000000002
40
0.750000000000002
40
0.875000000000001
40
0.875000000000001
40
1
40
1
40
1
40
1
41
1
10
10.1056624327026
20
-9.86941261896635
30
0
41
1
10
10.1212498345488
20
-9.81243201498819
30
0
41
1
10
10.1399018475136
20
-9.75655023082984
30
0
41
1
10
10.1854864096889
20
-9.64780841973408
30
0
41
1
10
10.2124982207834
20
-9.59456078532625
30
0
41
1
10
10.279179996877
20
-9.49465699870643
30
0
41
1
10
10.3189381439131
20
-9.44778039735223
30
0
41
1
10
10.3915918423741
20
-9.39323398486471
30
0
41
1
10
10.4185844965197
20
-9.37745951316356
30
0
41
1
10
10.4761894743047
20
-9.35548920253865
30
0
41
1
10
10.5072412025891
20
-9.34922131452515
30
0
41
1
10
10.5386751345948
20
-9.34922131452515
30
0
0
SPLINE
5
14B
100
AcDbEntity
8
1
62
256
6
ByLayer
370
13
48
1
60
0
100
AcDbSpline
70
4
71
3
72
10
73
6
40
0
40
0
40
0
40
0
40
0.5
40
0.5
40
1
40
1
40
1
40
1
41
1
10
22.98836923356
20
29.2921916328329
30
0
41
1
10
23.1083541624835
20
29.8851790047378
30
0
41
1
10
23.2307301710612
20
30.3802669292843
30
0
41
1
10
23.4800988712754
20
31.1814190796952
30
0
41
1
10
23.6070919478173
20
31.487467546136
30
0
41
1
10
23.7364388047693
20
31.6971437311477
30
0
0
SPLINE
5
14C
100
AcDbEntity
8
1
62
256
6
ByLayer
370
13
48
1
60
0
100
AcDbSpline
70
4
71
3
72
8
73
4
40
0
40
0
40
0
40
0
40
1
40
1
40
1
40
1
41
1
10
21.4782937808627
20
-30.9177329026813
30
0
41
1
10
21.4712523094516
20
-30.9995510366163
30
0
41
1
10
21.4653942720388
20
-31.0728448221881
30
0
41
1
10
21.4601723652831
20
-31.1375828700032
30
0
0
SPLINE
5
14D
100
AcDbEntity
8
1
62
256
6
ByLayer
370
13
48
1
60
0
100
AcDbSpline
70
4
71
3
72
18
73
14
40
0
40
0
40
0
40
0
40
0.249999999999994
40
0.249999999999994
40
0.374999999999991
40
0.374999999999991
40
0.499999999999991
40
0.499999999999991
40
0.624999999999991
40
0.624999999999991
40
0.749999999999991
40
0.749999999999991
40
1
40
1
40
1
40
1
41
1
10
30.9060032849982
20
40.8772799226339
30
0
41
1
10
30.974778184268
20
40.988395748613
30
0
41
1
10
31.0480807977648
20
41.1096171199376
30
0
41
1
10
31.1624759050561
20
41.301674235486
30
0
41
1
10
31.2011123716244
20
41.3670229614888
30
0
41
1
10
31.2780889818094
20
41.498063813228
30
0
41
1
10
31.3166194790135
20
41.5640760937968
30
0
41
1
10
31.3937556068213
20
41.6970079389801
30
0
41
1
10
31.4323613115205
20
41.7639279792402
30
0
41
1
10
31.5096497643604
20
41.8986631205929
30
0
41
1
10
31.5484204367061
20
41.9666372280891
30
0
41
1
10
31.6625017050486
20
42.1677768257321
30
0
41
1
10
31.7363902883716
20
42.2995390381238
30
0
41
1
10
31.8078692027509
20
42.4286088707509
30
0
0
SPLINE
5
14E
100
AcDbEntity
8
1
62
256
6
ByLayer
370
13
48
1
60
0
100
AcDbSpline
70
4
71
3
72
16
73
12
40
0
40
0
40
0
40
0
40
0.125000000000002
40
0.125000000000002
40
0.250000000000005
40
0.250000000000005
40
0.500000000000003
40
0.500000000000003
40
0.750000000000002
40
0.750000000000002
40
1
40
1
40
1
40
1
41
1
10
10.5386751345948
20
-30.0805927603169
30
0
41
1
10
10.5071959726827
20
-30.0805927603169
30
0
41
1
10
10.4765695733598
20
-30.078685990659
30
0
41
1
10
10.4184736929998
20
-30.0717959485601
30
0
41
1
10
10.3920418953325
20
-30.0669872793661
30
0
41
1
10
10.3182367311259
20
-30.0496472407049
30
0
41
1
10
10.2791703657593
20
-30.0350452819074
30
0
41
1
10
10.2125137122669
20
-30.0032932993814
30
0
41
1
10
10.1857347330744
20
-29.9863830332716
30
0
41
1
10
10.1400559187761
20
-29.9511519005795
30
0
41
1
10
10.1212556944726
20
-29.9327613369587
30
0
41
1
10
10.1056624327026
20
-29.913954846469
30
0
0
SPLINE
5
14F
100
AcDbEntity
8
1
62
256
6
ByLayer
370
13
48
1
60
0
100
AcDbSpline
70
4
71
3
72
18
73
14
40
0
40
0
40
0
40
0
40
0.249999999999999
40
0.249999999999999
40
0.499999999999999
40
0.499999999999999
40
0.562499999999999
40
0.562499999999999
40
0.624999999999999
40
0.624999999999999
40
0.749999999999999
40
0.749999999999999
40
1
40
1
40
1
40
1
41
1
10
22.7079868034932
20
-26.4402763180232
30
0
41
1
10
22.5990335434836
20
-25.83967570387
30
0
41
1
10
22.4942538148457
20
-25.1523049193842
30
0
41
1
10
22.2932713865727
20
-23.6004636376534
30
0
41
1
10
22.1982952010451
20
-22.7454772195503
30
0
41
1
10
22.0864927710092
20
-21.5775676702483
30
0
41
1
10
22.0644522838505
20
-21.3386793601066
30
0
41
1
10
22.0213136324462
20
-20.8536263900163
30
0
41
1
10
22.0001921128812
20
-20.6072405968426
30
0
41
1
10
21.938151359294
20
-19.8566743254194
30
0
41
1
10
21.8985543957846
20
-19.3410981808006
30
0
41
1
10
21.7849554317453
20
-17.7496243930156
30
0
41
1
10
21.7161222876663
20
-16.6291802194256
30
0
41
1
10
21.6542118150393
20
-15.449074687974
30
0
0
SPLINE
5
150
100
AcDbEntity
8
1
62
256
6
ByLayer
370
13
48
1
60
0
100
AcDbSpline
70
4
71
3
72
26
73
22
40
0
40
0
40
0
40
0
40
0.124999999999997
40
0.124999999999997
40
0.249999999999994
40
0.249999999999994
40
0.374999999999991
40
0.374999999999991
40
0.499999999999993
40
0.499999999999993
40
0.624999999999995
40
0.624999999999995
40
0.749999999999996
40
0.749999999999996
40
0.812499999999997
40
0.812499999999997
40
0.874999999999998
40
0.874999999999998
40
0.937499999999999
40
0.937499999999999
40
1
40
1
40
1
40
1
41
1
10
31.9884700331087
20
19.663074665535
30
0
41
1
10
31.9001077343037
20
19.6564723386344
30
0
41
1
10
31.8118222363065
20
19.6569392189706
30
0
41
1
10
31.6371259533817
20
19.6712498161061
30
0
41
1
10
31.5504261935383
20
19.6850742185139
30
0
41
1
10
31.3783576012789
20
19.7264126359813
30
0
41
1
10
31.2942046351952
20
19.7537123804975
30
0
41
1
10
31.132426315319
20
19.8204582045152
30
0
41
1
10
31.0543397805693
20
19.8600024848164
30
0
41
1
10
30.9041452980389
20
19.9522558675314
30
0
41
1
10
30.8322360008178
20
20.0050545527357
30
0
41
1
10
30.7007721202531
20
20.12061357094
30
0
41
1
10
30.6404118641787
20
20.1837808257017
30
0
41
1
10
30.5591144755203
20
20.2878023400532
30
0
41
1
10
30.5334204774958
20
20.3242974235577
30
0
41
1
10
30.4865912474345
20
20.3991838630067
30
0
41
1
10
30.4653527558009
20
20.4376580144985
30
0
41
1
10
30.4275823645601
20
20.5168360509804
30
0
41
1
10
30.4110448754512
20
20.5575372879614
30
0
41
1
10
30.3833633084971
20
20.6414948739234
30
0
41
1
10
30.3723056848298
20
20.6846668315876
30
0
41
1
10
30.3646720127665
20
20.7279595371773
30
0
0
SPLINE
5
151
100
AcDbEntity
8
1
62
256
6
ByLayer
370
13
48
1
60
0
100
AcDbSpline
70
4
71
3
72
28
73
24
40
0
40
0
40
0
40
0
40
0.125000000000001
40
0.125000000000001
40
0.187500000000002
40
0.187500000000002
40
0.250000000000002
40
0.250000000000002
40
0.375000000000002
40
0.375000000000002
40
0.437500000000003
40
0.437500000000003
40
0.500000000000003
40
0.500000000000003
40
0.625000000000002
40
0.625000000000002
40
0.750000000000001
40
0.750000000000001
40
0.8125
40
0.8125
40
0.875
40
0.875
40
1
40
1
40
1
40
1
41
1
10
23.7364388047693
20
31.6971437311475
30
0
41
1
10
23.7596965383364
20
31.7348454036989
30
0
41
1
10
23.808869946731
20
31.7761540527718
30
0
41
1
10
23.9191526045842
20
31.8467802985741
30
0
41
1
10
23.9620430697797
20
31.8718085833236
30
0
41
1
10
24.060137935603
20
31.9259321372704
30
0
41
1
10
24.1155086751558
20
31.9551039038727
30
0
41
1
10
24.2958868725659
20
32.0486413513702
30
0
41
1
10
24.4361128904348
20
32.1194921554505
30
0
41
1
10
24.6726070654562
20
32.2468639382832
30
0
41
1
10
24.7563193580664
20
32.2931607712343
30
0
41
1
10
24.929398945004
20
32.3931292537085
30
0
41
1
10
25.0183712372239
20
32.4465598631573
30
0
41
1
10
25.290786066578
20
32.6187012268447
30
0
41
1
10
25.479719733373
20
32.7492465582685
30
0
41
1
10
25.8634220448651
20
33.0500925758872
30
0
41
1
10
26.0522464710378
20
33.215892540905
30
0
41
1
10
26.3242572994913
20
33.4876924092333
30
0
41
1
10
26.4131599481715
20
33.5822084317501
30
0
41
1
10
26.5866918757712
20
33.7792864388379
30
0
41
1
10
26.6711090540567
20
33.8816625049475
30
0
41
1
10
26.913499758478
20
34.1963020676906
30
0
41
1
10
27.0619223647778
20
34.4174715634293
30
0
41
1
10
27.1961524227072
20
34.6499827135503
30
0
0
SPLINE
5
152
100
AcDbEntity
8
1
62
256
6
ByLayer
370
13
48
1
60
0
100
AcDbSpline
70
4
71
3
72
16
73
12
40
0
40
0
40
0
40
0
40
0.124999999999998
40
0.124999999999998
40
0.249999999999995
40
0.249999999999995
40
0.499999999999997
40
0.499999999999997
40
0.749999999999998
40
0.749999999999998
40
1
40
1
40
1
40
1
41
1
10
13.4613248654052
20
30.0805927603169
30
0
41
1
10
13.4928040273173
20
30.0805927603169
30
0
41
1
10
13.5234304266403
20
30.078685990659
30
0
41
1
10
13.5815263070003
20
30.0717959485601
30
0
41
1
10
13.6079581046676
20
30.0669872793661
30
0
41
1
10
13.6817632688741
20
30.0496472407049
30
0
41
1
10
13.7208296342408
20
30.0350452819074
30
0
41
1
10
13.7874862877332
20
30.0032932993814
30
0
41
1
10
13.8142652669257
20
29.9863830332716
30
0
41
1
10
13.8599440812239
20
29.9511519005795
30
0
41
1
10
13.8787443055274
20
29.9327613369587
30
0
41
1
10
13.8943375672975
20
29.913954846469
30
0
0
SPLINE
5
153
100
AcDbEntity
8
1
62
256
6
ByLayer
370
13
48
1
60
0
100
AcDbSpline
70
4
71
3
72
16
73
12
40
0
40
0
40
0
40
0
40
0.25
40
0.25
40
0.5
40
0.5
40
0.75
40
0.75
40
0.875
40
0.875
40
1
40
1
40
1
40
1
41
1
10
13.8943375672974
20
9.86941261896635
30
0
41
1
10
13.8787501654513
20
9.81243201498822
30
0
41
1
10
13.8600981524865
20
9.75655023082987
30
0
41
1
10
13.8145135903111
20
9.6478084197341
30
0
41
1
10
13.7875017792166
20
9.59456078532625
30
0
41
1
10
13.720820003123
20
9.49465699870643
30
0
41
1
10
13.681061856087
20
9.44778039735226
30
0
41
1
10
13.608408157626
20
9.39323398486474
30
0
41
1
10
13.5814155034804
20
9.37745951316359
30
0
41
1
10
13.5238105256954
20
9.35548920253868
30
0
41
1
10
13.492758797411
20
9.34922131452518
30
0
41
1
10
13.4613248654053
20
9.34922131452518
30
0
0
SPLINE
5
154
100
AcDbEntity
8
1
62
256
6
ByLayer
370
13
48
1
60
0
100
AcDbSpline
70
4
71
3
72
16
73
12
40
0
40
0
40
0
40
0
40
0.250000000000001
40
0.250000000000001
40
0.500000000000001
40
0.500000000000001
40
0.750000000000002
40
0.750000000000002
40
0.875000000000001
40
0.875000000000001
40
1
40
1
40
1
40
1
41
1
10
10.1056624327026
20
29.913954846469
30
0
41
1
10
10.1212498345488
20
29.9327542695084
30
0
41
1
10
10.1399018475136
20
29.9510098933135
30
0
41
1
10
10.1854864096889
20
29.9862144781928
30
0
41
1
10
10.2124982207834
20
30.0032856662984
30
0
41
1
10
10.279179996877
20
30.0350501233766
30
0
41
1
10
10.3189381439131
20
30.0498069467437
30
0
41
1
10
10.3915918423741
20
30.0668840803112
30
0
41
1
10
10.4185844965197
20
30.0718038277879
30
0
41
1
10
10.4761894743047
20
30.0786461490401
30
0
41
1
10
10.5072412025891
20
30.0805927603169
30
0
41
1
10
10.5386751345948
20
30.0805927603169
30
0
0
SPLINE
5
155
100
AcDbEntity
8
1
62
256
6
ByLayer
370
18
48
1
60
0
100
AcDbSpline
70
4
71
3
72
10
73
6
40
0
40
0
40
0
40
0
40
0.5
40
0.5
40
1
40
1
40
1
40
1
41
1
10
37.364585402941
20
30.0335633844581
30
0
41
1
10
37.2446289106213
20
30.0374081527934
30
0
41
1
10
37.1263527779295
20
30.0345964354024
30
0
41
1
10
36.8934044667291
20
30.0171513689832
30
0
41
1
10
36.7791853557831
20
30.0025117844057
30
0
41
1
10
36.6684378983428
20
29.9829840196141
30
0
0
SPLINE
5
156
100
AcDbEntity
8
1
62
256
6
ByLayer
370
18
48
1
60
0
100
AcDbSpline
70
4
71
3
72
8
73
4
40
0
40
0
40
0
40
0
40
1
40
1
40
1
40
1
41
1
10
52.4775903098278
20
40.2854821978959
30
0
41
1
10
52.5924954642538
20
40.2902632303985
30
0
41
1
10
52.7076546836652
20
40.2925042498775
30
0
41
1
10
52.823047350346
20
40.2924113818144
30
0
0
SPLINE
5
157
100
AcDbEntity
8
1
62
256
6
ByLayer
370
18
48
1
60
0
100
AcDbSpline
70
4
71
3
72
8
73
4
40
0
40
0
40
0
40
0
40
1
40
1
40
1
40
1
41
1
10
37.5471200044488
20
36.0785201061879
30
0
41
1
10
37.4985653369448
20
36.0216791622237
30
0
41
1
10
37.4478013412406
20
35.9669610999496
30
0
41
1
10
37.3949042185997
20
35.9143509343709
30
0
0
SPLINE
5
158
100
AcDbEntity
8
1
62
256
6
ByLayer
370
18
48
1
60
0
100
AcDbSpline
70
4
71
3
72
10
73
6
40
0
40
0
40
0
40
0
40
0.5
40
0.5
40
1
40
1
40
1
40
1
41
1
10
42.7590073433899
20
37.8227317094648
30
0
41
1
10
42.6796412423079
20
38.2728392356251
30
0
41
1
10
42.6084508928856
20
38.6765797700361
30
0
41
1
10
42.4897796024172
20
39.3495981021799
30
0
41
1
10
42.4423203513468
20
39.6187528899483
30
0
41
1
10
42.4091900787179
20
39.8066440027873
30
0
0
SPLINE
5
159
100
AcDbEntity
8
1
62
256
6
ByLayer
370
18
48
1
60
0
100
AcDbSpline
70
4
71
3
72
8
73
4
40
0
40
0
40
0
40
0
40
1
40
1
40
1
40
1
41
1
10
54.6888302233922
20
39.5171993939939
30
0
41
1
10
55.0351310279521
20
39.3091208781963
30
0
41
1
10
55.3834216089389
20
39.0998467841031
30
0
41
1
10
55.7337195341194
20
38.8893665559351
30
0
0
SPLINE
5
15A
100
AcDbEntity
8
1
62
256
6
ByLayer
370
18
48
1
60
0
100
AcDbSpline
70
4
71
2
72
6
73
3
40
0
40
0
40
0
40
1
40
1
40
1
41
1.02805999725224
10
44.5198994315614
20
27.836216423509
30
0
41
1.02805999725224
10
44.6171708965182
20
27.2845625327317
30
0
41
1.02805999725224
10
44.7144423614751
20
26.7329086419544
30
0
0
SPLINE
5
15B
100
AcDbEntity
8
1
62
256
6
ByLayer
370
18
48
1
60
0
100
AcDbSpline
70
4
71
3
72
14
73
10
40
0
40
0
40
0
40
0
40
0.25
40
0.25
40
0.5
40
0.5
40
0.75
40
0.75
40
1
40
1
40
1
40
1
41
1
10
37.364585402941
20
30.0335633844581
30
0
41
1
10
37.455345804281
20
30.0306543904518
30
0
41
1
10
37.5472065031517
20
30.0238648043871
30
0
41
1
10
37.733381515181
20
30.0012900904689
30
0
41
1
10
37.8282189333368
20
29.9853983265894
30
0
41
1
10
38.0185183067893
20
29.9432868591544
30
0
41
1
10
38.1123611777432
20
29.9174659573684
30
0
41
1
10
38.2972814164623
20
29.8557067721145
30
0
41
1
10
38.3889880817141
20
29.8194315279286
30
0
41
1
10
38.4767693771718
20
29.7787887292826
30
0
0
SPLINE
5
15C
100
AcDbEntity
8
1
62
256
6
ByLayer
370
18
48
1
60
0
100
AcDbSpline
70
4
71
3
72
16
73
12
40
0
40
0
40
0
40
0
40
0.250000000000003
40
0.250000000000003
40
0.375000000000003
40
0.375000000000003
40
0.500000000000003
40
0.500000000000003
40
0.750000000000001
40
0.750000000000001
40
1
40
1
40
1
40
1
41
1
10
34.8919956506047
20
38.4811598058796
30
0
41
1
10
35.0218462192337
20
38.365643921845
30
0
41
1
10
35.1766144261943
20
38.2179345845286
30
0
41
1
10
35.4424166859055
20
37.955049127273
30
0
41
1
10
35.5366850524829
20
37.8604462914824
30
0
41
1
10
35.7365574000306
20
37.6575865739393
30
0
41
1
10
35.8405648335797
20
37.550950238256
30
0
41
1
10
36.1633576776447
20
37.2174757731339
30
0
41
1
10
36.3931166515236
20
36.9768969233376
30
0
41
1
10
36.880869806744
20
36.4620395648381
30
0
41
1
10
37.1337150947718
20
36.1931869464048
30
0
41
1
10
37.3949042185997
20
35.9143509343709
30
0
0
SPLINE
5
15D
100
AcDbEntity
8
1
62
256
6
ByLayer
370
18
48
1
60
0
100
AcDbSpline
70
4
71
3
72
8
73
4
40
0
40
0
40
0
40
0
40
1
40
1
40
1
40
1
41
1.02417048289515
10
54.6887467937478
20
39.5172389556891
30
0
41
1.02233815481013
10
54.030417183496
20
39.8294116867374
30
0
41
1.02059845255999
10
53.3641581391376
20
40.0955776977718
30
0
41
1.01923193651471
10
52.8230972782873
20
40.2923932201657
30
0
0
SPLINE
5
15E
100
AcDbEntity
8
1
62
256
6
ByLayer
370
18
48
1
60
0
100
AcDbSpline
70
4
71
3
72
8
73
4
40
0
40
0
40
0
40
0
40
1
40
1
40
1
40
1
41
1
10
54.4718664922305
20
30.9414933585623
30
0
41
1
10
54.3634646176045
20
30.9019394747385
30
0
41
1
10
54.2544838751032
20
30.8646585714845
30
0
41
1
10
54.1448731399757
20
30.8298513950685
30
0
0
SPLINE
5
15F
100
AcDbEntity
8
1
62
256
6
ByLayer
370
18
48
1
60
0
100
AcDbSpline
70
4
71
3
72
8
73
4
40
0
40
0
40
0
40
0
40
1
40
1
40
1
40
1
41
1
10
44.1700821703649
20
29.8201286971214
30
0
41
1
10
43.9037520178366
20
29.714961259757
30
0
41
1
10
43.6287973291878
20
29.6363719342778
30
0
41
1
10
43.3444324620616
20
29.5862307358379
30
0
0
SPLINE
5
160
100
AcDbEntity
8
1
62
256
6
ByLayer
370
18
48
1
60
0
100
AcDbSpline
70
4
71
3
72
12
73
8
40
0
40
0
40
0
40
0
40
0.108853985813151
40
0.5026292242874
40
0.699516843524524
40
0.896404462761648
40
1
40
1
40
1
40
1
41
1.02441262532196
10
46.4063300478476
20
35.5651604011733
30
0
41
1.02394775681994
10
46.7539501511442
20
35.5984321674737
30
0
41
1.02173322384664
10
48.4049205924788
20
35.7505260329764
30
0
41
1.01876555595691
10
50.7714289411499
20
35.9328236646922
30
0
41
1.01610930227499
10
52.3850623949429
20
36.0342167819087
30
0
41
1.01814069316835
10
53.1186917736253
20
36.1730863369382
30
0
41
1.02005196039548
10
53.7803934311996
20
36.2785702383761
30
0
41
1.02076673287779
10
54.0233578789422
20
36.31496868785
30
0
0
SPLINE
5
161
100
AcDbEntity
8
1
62
256
6
ByLayer
370
18
48
1
60
0
100
AcDbSpline
70
4
71
3
72
8
73
4
40
0
40
0
40
0
40
0
40
1
40
1
40
1
40
1
41
1
10
42.7590073399145
20
37.8227317291749
30
0
41
1
10
42.4727694788903
20
37.8304665170734
30
0
41
1
10
42.1875174545523
20
37.8102762842791
30
0
41
1
10
41.9031525874261
20
37.7601350858392
30
0
0
SPLINE
5
162
100
AcDbEntity
8
1
62
256
6
ByLayer
370
18
48
1
60
0
100
AcDbSpline
70
4
71
3
72
8
73
4
40
0
40
0
40
0
40
0
40
1
40
1
40
1
40
1
41
1
10
38.4767693771717
20
29.7787887292826
30
0
41
1
10
38.5446861492176
20
29.7473432182936
30
0
41
1
10
38.6110970926502
20
29.713268749275
30
0
41
1
10
38.6759545915759
20
29.6765810348581
30
0
0
SPLINE
5
163
100
AcDbEntity
8
1
62
256
6
ByLayer
370
18
48
1
60
0
100
AcDbSpline
70
4
71
3
72
16
73
12
40
0
40
0
40
0
40
0
40
0.25
40
0.25
40
0.5
40
0.5
40
0.625
40
0.625
40
0.75
40
0.75
40
1
40
1
40
1
40
1
41
1
10
46.4063300477596
20
35.5651604011649
30
0
41
1
10
46.4981702260229
20
35.3823618327623
30
0
41
1
10
46.5761476580531
20
35.1939454931225
30
0
41
1
10
46.7045973852858
20
34.8059518030053
30
0
41
1
10
46.7546087329154
20
34.6074737870664
30
0
41
1
10
46.8076947411161
20
34.305819996386
30
0
41
1
10
46.8217803899956
20
34.2042352250699
30
0
41
1
10
46.8424329822906
20
34.001302308869
30
0
41
1
10
46.8490423746948
20
33.8998153783013
30
0
41
1
10
46.8578502928995
20
33.5952928177378
30
0
41
1
10
46.8490903612522
20
33.3921959959368
30
0
41
1
10
46.8253095353779
20
33.1890096502434
30
0
0
SPLINE
5
164
100
AcDbEntity
8
1
62
256
6
ByLayer
370
18
48
1
60
0
100
AcDbSpline
70
4
71
3
72
26
73
22
40
0
40
0
40
0
40
0
40
0.0624999999999999
40
0.0624999999999999
40
0.125
40
0.125
40
0.1875
40
0.1875
40
0.25
40
0.25
40
0.3125
40
0.3125
40
0.375
40
0.375
40
0.5
40
0.5
40
0.625
40
0.625
40
0.75
40
0.75
40
1
40
1
40
1
40
1
41
1
10
52.7164971491644
20
37.5187785887804
30
0
41
1
10
52.701996530585
20
37.4956078674839
30
0
41
1
10
52.6901350362288
20
37.4708294027657
30
0
41
1
10
52.6729881375258
20
37.4172663468416
30
0
41
1
10
52.6676858233405
20
37.3881627662971
30
0
41
1
10
52.6658865352505
20
37.3262546600356
30
0
41
1
10
52.6693212506426
20
37.2937572227799
30
0
41
1
10
52.6863682846976
20
37.2251382945766
30
0
41
1
10
52.699936749735
20
37.1896872019075
30
0
41
1
10
52.7360827605382
20
37.1189944395577
30
0
41
1
10
52.7591100085035
20
37.0829866153169
30
0
41
1
10
52.8115409473738
20
37.0137328564679
30
0
41
1
10
52.8412329132277
20
36.9799493302989
30
0
41
1
10
52.937071120645
20
36.8827679984743
30
0
41
1
10
53.0080312731771
20
36.8249406259224
30
0
41
1
10
53.1580271548447
20
36.7182596724339
30
0
41
1
10
53.2347366987116
20
36.6711224562467
30
0
41
1
10
53.3901943787751
20
36.5842363721895
30
0
41
1
10
53.4691363955633
20
36.5444852328862
30
0
41
1
10
53.7069415022747
20
36.4335375774695
30
0
41
1
10
53.8652215689436
20
36.3710382245941
30
0
41
1
10
54.0233576990002
20
36.3149686608929
30
0
0
SPLINE
5
165
100
AcDbEntity
8
1
62
256
6
ByLayer
370
18
48
1
60
0
100
AcDbSpline
70
4
71
3
72
8
73
4
40
0
40
0
40
0
40
0
40
1
40
1
40
1
40
1
41
1
10
55.2880362388915
20
35.9062307679104
30
0
41
1
10
54.935649974695
20
35.6502441152447
30
0
41
1
10
54.5860756553372
20
35.3757059697685
30
0
41
1
10
54.2394237400306
20
35.0895972505648
30
0
0
SPLINE
5
166
100
AcDbEntity
8
1
62
256
6
ByLayer
370
18
48
1
60
0
100
AcDbSpline
70
4
71
3
72
11
73
7
40
0
40
0
40
0
40
0
40
0.423407924939097
40
0.74096386864342
40
0.899741840495581
40
1
40
1
40
1
40
1
41
1.02805999725224
10
44.5198994315614
20
27.836216423509
30
0
41
1.02767136955276
10
45.3403913526763
20
28.0905972153987
30
0
41
1.02349884684922
10
48.035500517502
20
29.8214743333981
30
0
41
1.01876555595691
10
51.4054137390999
20
32.3694477747253
30
0
41
1.01635405201137
10
52.7095923685905
20
33.3287122875721
30
0
41
1.01722454828226
10
53.2116211410649
20
33.4637787142061
30
0
41
1.01774327987905
10
53.4231037690199
20
33.5114133119327
30
0
0
SPLINE
5
167
100
AcDbEntity
8
1
62
256
6
ByLayer
370
18
48
1
60
0
100
AcDbSpline
70
4
71
3
72
18
73
14
40
0
40
0
40
0
40
0
40
0.250000000000009
40
0.250000000000009
40
0.375000000000009
40
0.375000000000009
40
0.500000000000009
40
0.500000000000009
40
0.625000000000008
40
0.625000000000008
40
0.750000000000008
40
0.750000000000008
40
1
40
1
40
1
40
1
41
1
10
37.5471200044487
20
36.0785201061879
30
0
41
1
10
37.6940920268183
20
36.2505741829071
30
0
41
1
10
37.8533757652419
20
36.4076643547384
30
0
41
1
10
38.1115461670211
20
36.6221458237381
30
0
41
1
10
38.2008298504377
20
36.6900908164695
30
0
41
1
10
38.3862273128245
20
36.8188231611056
30
0
41
1
10
38.4826485392322
20
36.8797832599374
30
0
41
1
10
38.681410495227
20
36.9934633451267
30
0
41
1
10
38.7833330750187
20
37.0459811885698
30
0
41
1
10
38.9924265618004
20
37.1423770425346
30
0
41
1
10
39.099892787852
20
37.1863339974312
30
0
41
1
10
39.4262538620255
20
37.3035594792438
30
0
41
1
10
39.6501068057561
20
37.3628623257594
30
0
41
1
10
39.8802779971283
20
37.4034477169801
30
0
0
SPLINE
5
168
100
AcDbEntity
8
1
62
256
6
ByLayer
370
18
48
1
60
0
100
AcDbSpline
70
4
71
3
72
14
73
10
40
0
40
0
40
0
40
0
40
0.5
40
0.5
40
0.624999999999999
40
0.624999999999999
40
0.749999999999997
40
0.749999999999997
40
1
40
1
40
1
40
1
41
1
10
37.6751834738954
20
25.4895380126185
30
0
41
1
10
37.4345398121306
20
25.4471060423129
30
0
41
1
10
37.1689037744079
20
25.4211035191034
30
0
41
1
10
36.8047612846955
20
25.4323205458925
30
0
41
1
10
36.7303184022395
20
25.4367929901207
30
0
41
1
10
36.5781411213788
20
25.4510144886735
30
0
41
1
10
36.5005649707969
20
25.4607735891306
30
0
41
1
10
36.2665853342692
20
25.4986125611472
30
0
41
1
10
36.1078487000204
20
25.5352830346641
30
0
41
1
10
35.9473390013223
20
25.5861819571711
30
0
0
SPLINE
5
169
100
AcDbEntity
8
1
62
256
6
ByLayer
370
18
48
1
60
0
100
AcDbSpline
70
4
71
3
72
28
73
24
40
0
40
0
40
0
40
0
40
0.125
40
0.125
40
0.249999999999999
40
0.249999999999999
40
0.374999999999999
40
0.374999999999999
40
0.499999999999998
40
0.499999999999998
40
0.562499999999998
40
0.562499999999998
40
0.624999999999999
40
0.624999999999999
40
0.749999999999999
40
0.749999999999999
40
0.812499999999999
40
0.812499999999999
40
0.875
40
0.875
40
0.9375
40
0.9375
40
1
40
1
40
1
40
1
41
1
10
36.9200067180281
20
25.5512440328023
30
0
41
1
10
36.7977633552845
20
25.5794891611089
30
0
41
1
10
36.6850148957082
20
25.6158501857356
30
0
41
1
10
36.4708732797334
20
25.7022693500535
30
0
41
1
10
36.3694874234375
20
25.7523583574599
30
0
41
1
10
36.1719633026374
20
25.8674691158476
30
0
41
1
10
36.0758140370981
20
25.9324883552972
30
0
41
1
10
35.8842084512167
20
26.0819296324416
30
0
41
1
10
35.7896411997095
20
26.1657415322685
30
0
41
1
10
35.6497450181473
20
26.3078266579536
30
0
41
1
10
35.6033976721854
20
26.3579799785379
30
0
41
1
10
35.5113566324752
20
26.4646951515761
30
0
41
1
10
35.4654675420939
20
26.5215197907806
30
0
41
1
10
35.3305991882034
20
26.7012213162252
30
0
41
1
10
35.2452257388307
20
26.8319761087293
30
0
41
1
10
35.1265658368067
20
27.0476397485449
30
0
41
1
10
35.08836159903
20
27.1233179678508
30
0
41
1
10
35.0168792901697
20
27.2794588792398
30
0
41
1
10
34.9837173583723
20
27.3595638934913
30
0
41
1
10
34.9227668252341
20
27.5240680519871
30
0
41
1
10
34.8949790142233
20
27.6084614814802
30
0
41
1
10
34.8450213126114
20
27.7820319562106
30
0
41
1
10
34.8232207220614
20
27.8700169209224
30
0
41
1
10
34.8045967644824
20
27.9585469603045
30
0
0
SPLINE
5
16A
100
AcDbEntity
8
1
62
256
6
ByLayer
370
18
48
1
60
0
100
AcDbSpline
70
4
71
3
72
24
73
20
40
0
40
0
40
0
40
0
40
0.125000000000004
40
0.125000000000004
40
0.250000000000008
40
0.250000000000008
40
0.312500000000009
40
0.312500000000009
40
0.375000000000009
40
0.375000000000009
40
0.500000000000008
40
0.500000000000008
40
0.625000000000006
40
0.625000000000006
40
0.750000000000004
40
0.750000000000004
40
0.875000000000002
40
0.875000000000002
40
1
40
1
40
1
40
1
41
1
10
55.7337195341194
20
38.8893665559351
30
0
41
1
10
55.5415463789005
20
38.9402714443632
30
0
41
1
10
55.353810393937
20
38.9734632534696
30
0
41
1
10
54.9901385565663
20
39.0015289642718
30
0
41
1
10
54.820388171805
20
38.9957956507434
30
0
41
1
10
54.5811233188282
20
38.9620728624901
30
0
41
1
10
54.5038677261626
20
38.9467441749963
30
0
41
1
10
54.353786531253
20
38.9088414487005
30
0
41
1
10
54.2813812364485
20
38.8863498075375
30
0
41
1
10
54.0730314365292
20
38.810474811421
30
0
41
1
10
53.9448787172588
20
38.748535114373
30
0
41
1
10
53.7049747222759
20
38.6073245350782
30
0
41
1
10
53.593272112881
20
38.528002227787
30
0
41
1
10
53.3834158765972
20
38.3550405853014
30
0
41
1
10
53.2855858363763
20
38.2615711303832
30
0
41
1
10
53.1036611822784
20
38.0647444062607
30
0
41
1
10
53.0194183226403
20
37.9609772310445
30
0
41
1
10
52.8615850251158
20
37.7449554407278
30
0
41
1
10
52.7878507320206
20
37.6328154439239
30
0
41
1
10
52.7164971491645
20
37.5187785887804
30
0
0
SPLINE
5
16B
100
AcDbEntity
8
1
62
256
6
ByLayer
370
18
48
1
60
0
100
AcDbSpline
70
4
71
3
72
18
73
14
40
0
40
0
40
0
40
0
40
0.124999999999998
40
0.124999999999998
40
0.249999999999996
40
0.249999999999996
40
0.499999999999993
40
0.499999999999993
40
0.624999999999995
40
0.624999999999995
40
0.749999999999996
40
0.749999999999996
40
1
40
1
40
1
40
1
41
1
10
41.3215578717638
20
29.2295433669788
30
0
41
1
10
41.2064652286077
20
29.2092494287093
30
0
41
1
10
41.0910348881829
20
29.1938801635655
30
0
41
1
10
40.8594889370077
20
29.1730301330739
30
0
41
1
10
40.7429088856693
20
29.1675554587874
30
0
41
1
10
40.3956951045794
20
29.1662951539113
30
0
41
1
10
40.1686949625133
20
29.1853675777635
30
0
41
1
10
39.8338791518549
20
29.2426850770009
30
0
41
1
10
39.7232238231848
20
29.2666032717678
30
0
41
1
10
39.5036727156484
20
29.3242008522645
30
0
41
1
10
39.3951524417287
20
29.3578224407044
30
0
41
1
10
39.0769093114725
20
29.4716821235162
30
0
41
1
10
38.8728607610893
20
29.5651978111187
30
0
41
1
10
38.6759545915759
20
29.6765810348581
30
0
0
SPLINE
5
16C
100
AcDbEntity
8
1
62
256
6
ByLayer
370
18
48
1
60
0
100
AcDbSpline
70
4
71
3
72
8
73
4
40
0
40
0
40
0
40
0
40
1
40
1
40
1
40
1
41
1
10
57.5454845834723
20
34.3142946622704
30
0
41
1
10
57.6097414697258
20
34.370703722545
30
0
41
1
10
57.6716996825089
20
34.4311251749641
30
0
41
1
10
57.7313630777782
20
34.4955522888584
30
0
0
SPLINE
5
16D
100
AcDbEntity
8
1
62
256
6
ByLayer
370
18
48
1
60
0
100
AcDbSpline
70
4
71
3
72
10
73
6
40
0
40
0
40
0
40
0
40
0.5
40
0.5
40
1
40
1
40
1
40
1
41
1
10
36.4369312091374
20
35.2945517486682
30
0
41
1
10
36.3255239667063
20
35.2499113115389
30
0
41
1
10
36.2134190936158
20
35.2121006417676
30
0
41
1
10
35.9885527204392
20
35.1488206271666
30
0
41
1
10
35.8762148319151
20
35.1235121000692
30
0
41
1
10
35.7654673744748
20
35.1039843352776
30
0
0
SPLINE
5
16E
100
AcDbEntity
8
1
62
256
6
ByLayer
370
18
48
1
60
0
100
AcDbSpline
70
4
71
3
72
20
73
16
40
0
40
0
40
0
40
0
40
0.25
40
0.25
40
0.375000000000002
40
0.375000000000002
40
0.500000000000003
40
0.500000000000003
40
0.750000000000003
40
0.750000000000003
40
0.812500000000002
40
0.812500000000002
40
0.875000000000002
40
0.875000000000002
40
1
40
1
40
1
40
1
41
1
10
38.4767693771729
20
29.7787887292849
30
0
41
1
10
38.326562176467
20
29.4271153280806
30
0
41
1
10
38.1814929147967
20
29.0893505210448
30
0
41
1
10
37.9712610697382
20
28.6046942016995
30
0
41
1
10
37.9024130949462
20
28.4468155453712
30
0
41
1
10
37.767271529042
20
28.1390848382703
30
0
41
1
10
37.7020712824431
20
27.991724179639
30
0
41
1
10
37.5134050075899
20
27.5693054608614
30
0
41
1
10
37.3968003778348
20
27.3136393396595
30
0
41
1
10
37.2629782571552
20
27.0305250848393
30
0
41
1
10
37.2368163952123
20
26.9757473630615
30
0
41
1
10
37.1857353736259
20
26.870083626292
30
0
41
1
10
37.1608012021989
20
26.8191720629135
30
0
41
1
10
37.0887245567551
20
26.6742120741641
30
0
41
1
10
37.0440174868445
20
26.5873184589382
30
0
41
1
10
37.0027050034482
20
26.5107322266012
30
0
0
SPLINE
5
16F
100
AcDbEntity
8
1
62
256
6
ByLayer
370
18
48
1
60
0
100
AcDbSpline
70
4
71
3
72
12
73
8
40
0
40
0
40
0
40
0
40
0.108853988597824
40
0.502629237150056
40
0.699516861426172
40
0.896404485702288
40
1
40
1
40
1
40
1
41
1.02441262532194
10
46.8253095354634
20
33.1890096502655
30
0
41
1.02394775681993
10
47.1633451956428
20
33.276637494544
30
0
41
1.02173322384663
10
48.7667691021748
20
33.698381158435
30
0
41
1.01876555595691
10
51.0529089965809
20
34.3364709437191
30
0
41
1.01610930227499
10
52.6039069342503
20
34.7930877248145
30
0
41
1.01814069306383
10
53.3407891950643
20
34.9135090477624
30
0
41
1.02005196006992
10
53.9986629049241
20
35.0407018842902
30
0
41
1.02076673234807
10
54.2394237400319
20
35.089597250565
30
0
0
SPLINE
5
170
100
AcDbEntity
8
1
62
256
6
ByLayer
370
18
48
1
60
0
100
AcDbSpline
70
4
71
3
72
11
73
7
40
0
40
0
40
0
40
0
40
0.423407924937775
40
0.740963868641106
40
0.899741840492772
40
1
40
1
40
1
40
1
41
1.02805999725224
10
42.4091900787179
20
39.8066440027873
30
0
41
1.02767136955276
10
43.2672036373438
20
39.8482290142468
30
0
41
1.02349884684922
10
46.3917726717707
20
39.1435181818267
30
0
41
1.01876555595691
10
50.4299135003251
20
37.9017845440807
30
0
41
1.01635405201136
10
51.9835283207973
20
37.4464261217452
30
0
41
1.01722454828229
10
52.5014764923116
20
37.4912091500357
30
0
41
1.0177432798791
10
52.7164971491749
20
37.5187785887818
30
0
0
SPLINE
5
171
100
AcDbEntity
8
1
62
256
6
ByLayer
370
18
48
1
60
0
100
AcDbSpline
70
4
71
3
72
8
73
4
40
0
40
0
40
0
40
0
40
1
40
1
40
1
40
1
41
1
10
54.0233576990002
20
36.3149686608929
30
0
41
1
10
54.4470328953777
20
36.164650089941
30
0
41
1
10
54.8689913918091
20
36.0263588159896
30
0
41
1
10
55.2880362388706
20
35.9062307679164
30
0
0
SPLINE
5
172
100
AcDbEntity
8
1
62
256
6
ByLayer
370
18
48
1
60
0
100
AcDbSpline
70
4
71
3
72
16
73
12
40
0
40
0
40
0
40
0
40
0.250000000000002
40
0.250000000000002
40
0.500000000000004
40
0.500000000000004
40
0.625000000000005
40
0.625000000000005
40
0.750000000000006
40
0.750000000000006
40
1
40
1
40
1
40
1
41
1
10
52.4775903098278
20
40.2854821978959
30
0
41
1
10
52.2992832311388
20
40.2780631056635
30
0
41
1
10
52.1159333865576
20
40.2750960652341
30
0
41
1
10
51.7398451213951
20
40.2817969160015
30
0
41
1
10
51.5471115007878
20
40.2927304910079
30
0
41
1
10
51.2512880151129
20
40.3242907824738
30
0
41
1
10
51.1512591929948
20
40.3370787142934
30
0
41
1
10
50.9516501527352
20
40.3660415385994
30
0
41
1
10
50.8518060983515
20
40.3822335808935
30
0
41
1
10
50.5520478713859
20
40.4350754096292
30
0
41
1
10
50.3518905332623
20
40.4758697679358
30
0
41
1
10
50.1512998735934
20
40.5212972689893
30
0
0
SPLINE
5
173
100
AcDbEntity
8
1
62
256
6
ByLayer
370
18
48
1
60
0
100
AcDbSpline
70
4
71
3
72
14
73
10
40
0
40
0
40
0
40
0
40
0.25
40
0.25
40
0.5
40
0.5
40
0.75
40
0.75
40
1
40
1
40
1
40
1
41
1
10
37.3949042185997
20
35.9143509343709
30
0
41
1
10
37.3263768185247
20
35.8461952827091
30
0
41
1
10
37.2539314200666
20
35.7818722370804
30
0
41
1
10
37.1015672394132
20
35.6606360188319
30
0
41
1
10
37.0208323042867
20
35.603254885157
30
0
41
1
10
36.8572578511543
20
35.4990682902766
30
0
41
1
10
36.7742562220917
20
35.4519859125311
30
0
41
1
10
36.6061408842154
20
35.3665393221871
30
0
41
1
10
36.5212288846987
20
35.3283294906168
30
0
41
1
10
36.4369312091374
20
35.2945517486682
30
0
0
SPLINE
5
174
100
AcDbEntity
8
1
62
256
6
ByLayer
370
18
48
1
60
0
100
AcDbSpline
70
4
71
3
72
14
73
10
40
0
40
0
40
0
40
0
40
0.499999999999997
40
0.499999999999997
40
0.624999999999998
40
0.624999999999998
40
0.749999999999999
40
0.749999999999999
40
1
40
1
40
1
40
1
41
1
10
35.1746497154916
20
39.6707696559943
30
0
41
1
10
34.9344289298292
20
39.6284122501551
30
0
41
1
10
34.6764053259382
20
39.5621497718425
30
0
41
1
10
34.3387072151098
20
39.4274885691908
30
0
41
1
10
34.2704148817044
20
39.3979213508625
30
0
41
1
10
34.1325443623203
20
39.3327316461598
30
0
41
1
10
34.0630779940097
20
39.2971387058839
30
0
41
1
10
33.8559408859771
20
39.1816181388804
30
0
41
1
10
33.7186610043284
20
39.0926307040476
30
0
41
1
10
33.5840611905163
20
38.9889964403007
30
0
0
SPLINE
5
175
100
AcDbEntity
8
1
62
256
6
ByLayer
370
18
48
1
60
0
100
AcDbSpline
70
4
71
3
72
8
73
4
40
0
40
0
40
0
40
0
40
1
40
1
40
1
40
1
41
1
10
33.3326596896729
20
36.2996972805894
30
0
41
1
10
33.3285753347067
20
36.3228608086543
30
0
41
1
10
33.3249055052587
20
36.3459137383817
30
0
41
1
10
33.32163136149
20
36.3688616894171
30
0
0
SPLINE
5
176
100
AcDbEntity
8
1
62
256
6
ByLayer
370
18
48
1
60
0
100
AcDbSpline
70
4
71
3
72
16
73
12
40
0
40
0
40
0
40
0
40
0.250000000000003
40
0.250000000000003
40
0.500000000000006
40
0.500000000000006
40
0.625000000000004
40
0.625000000000004
40
0.750000000000003
40
0.750000000000003
40
1
40
1
40
1
40
1
41
1
10
52.0395286876434
20
29.8126195245892
30
0
41
1
10
52.2122586156443
20
29.923767700974
30
0
41
1
10
52.3856197774749
20
30.0300704437926
30
0
41
1
10
52.7343365660145
20
30.2314972053688
30
0
41
1
10
52.9096928621641
20
30.3266299341044
30
0
41
1
10
53.1758892382368
20
30.4573789301745
30
0
41
1
10
53.2653376575518
20
30.4989793591768
30
0
41
1
10
53.4449940993048
20
30.577010200061
30
0
41
1
10
53.5343523945874
20
30.6132263864361
30
0
41
1
10
53.8002686326384
20
30.7155343412675
30
0
41
1
10
53.9745262350202
20
30.7757572886306
30
0
41
1
10
54.1448731399836
20
30.829851395071
30
0
0
SPLINE
5
177
100
AcDbEntity
8
1
62
256
6
ByLayer
370
18
48
1
60
0
100
AcDbSpline
70
4
71
3
72
26
73
22
40
0
40
0
40
0
40
0
40
0.25
40
0.25
40
0.375
40
0.375
40
0.5
40
0.5
40
0.625
40
0.625
40
0.6875
40
0.6875
40
0.75
40
0.75
40
0.8125
40
0.8125
40
0.875
40
0.875
40
0.9375
40
0.9375
40
1
40
1
40
1
40
1
41
1
10
54.2394237400306
20
35.0895972505648
30
0
41
1
10
54.1099792213908
20
34.9828051337744
30
0
41
1
10
53.9827540595157
20
34.8700303779409
30
0
41
1
10
53.7977854041372
20
34.6850471593655
30
0
41
1
10
53.7368281309765
20
34.620351810434
30
0
41
1
10
53.619767953334
20
34.4847232242754
30
0
41
1
10
53.5636412457371
20
34.4139092007364
30
0
41
1
10
53.4593042703992
20
34.262400413338
30
0
41
1
10
53.4125065420158
20
34.1838909672851
30
0
41
1
10
53.3557591756508
20
34.0597614696018
30
0
41
1
10
53.3395232498833
20
34.0180511635459
30
0
41
1
10
53.3140740727283
20
33.9353715688028
30
0
41
1
10
53.3047474815868
20
33.8936398201598
30
0
41
1
10
53.2949821986997
20
33.814894619238
30
0
41
1
10
53.2943397258549
20
33.7775356272825
30
0
41
1
10
53.3017567704368
20
33.7069501209409
30
0
41
1
10
53.3096848058592
20
33.6750823266457
30
0
41
1
10
53.3324856068116
20
33.6176206305802
30
0
41
1
10
53.3474422061395
20
33.5920050003637
30
0
41
1
10
53.3819187774449
20
33.5474629707643
30
0
41
1
10
53.4015539598516
20
33.5282262524336
30
0
41
1
10
53.4231037690164
20
33.5114133119319
30
0
0
SPLINE
5
178
100
AcDbEntity
8
1
62
256
6
ByLayer
370
18
48
1
60
0
100
AcDbSpline
70
4
71
3
72
24
73
20
40
0
40
0
40
0
40
0
40
0.124999999999997
40
0.124999999999997
40
0.187499999999997
40
0.187499999999997
40
0.249999999999997
40
0.249999999999997
40
0.374999999999998
40
0.374999999999998
40
0.5
40
0.5
40
0.625
40
0.625
40
0.75
40
0.75
40
0.875
40
0.875
40
1
40
1
40
1
40
1
41
1
10
46.8253095353779
20
33.1890096502434
30
0
41
1
10
46.8031475544695
20
32.9996933007619
30
0
41
1
10
46.7670922862701
20
32.8143660282816
30
0
41
1
10
46.6935123141556
20
32.5418533646486
30
0
41
1
10
46.6657218015773
20
32.4519329173818
30
0
41
1
10
46.6036771588584
20
32.2738861557125
30
0
41
1
10
46.5692796558334
20
32.1854496012188
30
0
41
1
10
46.4576656385494
20
31.9257635635159
30
0
41
1
10
46.3721191390337
20
31.7598383756326
30
0
41
1
10
46.1799472941548
20
31.4408963533415
30
0
41
1
10
46.0729132371693
20
31.2873951604488
30
0
41
1
10
45.8392181454734
20
30.9951416446648
30
0
41
1
10
45.713305684813
20
30.8571785460883
30
0
41
1
10
45.4431039951986
20
30.5970544107801
30
0
41
1
10
45.300528171535
20
30.4765912940812
30
0
41
1
10
45.0016038458064
20
30.2550584422391
30
0
41
1
10
44.8450870324555
20
30.1538423956003
30
0
41
1
10
44.5176107836927
20
29.971224404261
30
0
41
1
10
44.3459931735089
20
29.8896667475435
30
0
41
1
10
44.1700821703649
20
29.8201286971214
30
0
0
SPLINE
5
179
100
AcDbEntity
8
1
62
256
6
ByLayer
370
18
48
1
60
0
100
AcDbSpline
70
4
71
3
72
18
73
14
40
0
40
0
40
0
40
0
40
0.250000000000002
40
0.250000000000002
40
0.375000000000002
40
0.375000000000002
40
0.500000000000002
40
0.500000000000002
40
0.750000000000002
40
0.750000000000002
40
0.875000000000001
40
0.875000000000001
40
1
40
1
40
1
40
1
41
1
10
34.9146292326254
20
28.0424297451092
30
0
41
1
10
35.0514398272504
20
28.1409814441788
30
0
41
1
10
35.209182364174
20
28.2610996045773
30
0
41
1
10
35.4748003377024
20
28.4697675565654
30
0
41
1
10
35.5683654390675
20
28.5442407363573
30
0
41
1
10
35.7645726133382
20
28.7020445201542
30
0
41
1
10
35.8660273543548
20
28.7844165505018
30
0
41
1
10
36.1798366267557
20
29.0410661924385
30
0
41
1
10
36.4015673830596
20
29.2248021527599
30
0
41
1
10
36.7520412273022
20
29.5176354377389
30
0
41
1
10
36.872039345547
20
29.6182882446712
30
0
41
1
10
37.1153741838613
20
29.8230224062746
30
0
41
1
10
37.2390089027218
20
29.9273519814428
30
0
41
1
10
37.364585402941
20
30.0335633844581
30
0
0
SPLINE
5
17A
100
AcDbEntity
8
1
62
256
6
ByLayer
370
18
48
1
60
0
100
AcDbSpline
70
4
71
1
72
4
73
2
40
0
40
0
40
1
40
1
41
1
10
42.4091900787179
20
39.8066440027873
30
0
41
1
10
42.2146471488042
20
40.9099517843419
30
0
0
SPLINE
5
17B
100
AcDbEntity
8
1
62
256
6
ByLayer
370
18
48
1
60
0
100
AcDbSpline
70
4
71
3
72
8
73
4
40
0
40
0
40
0
40
0
40
1
40
1
40
1
40
1
41
1
10
34.7913043820752
20
28.0273121552868
30
0
41
1
10
34.7953887370414
20
28.0041486272219
30
0
41
1
10
34.799824791719
20
27.9812308036757
30
0
41
1
10
34.8045967644824
20
27.9585469603046
30
0
0
SPLINE
5
17C
100
AcDbEntity
8
1
62
256
6
ByLayer
370
18
48
1
60
0
100
AcDbSpline
70
4
71
3
72
20
73
16
40
0
40
0
40
0
40
0
40
0.0625000000000001
40
0.0625000000000001
40
0.125
40
0.125
40
0.25
40
0.25
40
0.5
40
0.5
40
0.75
40
0.75
40
0.875
40
0.875
40
1
40
1
40
1
40
1
41
1
10
42.2146471488042
20
40.9099517843419
30
0
41
1
10
42.3795560585377
20
40.9374367211813
30
0
41
1
10
42.544833689165
20
40.9590463888155
30
0
41
1
10
42.87573617762
20
40.9967329394972
30
0
41
1
10
43.0413762856421
20
41.0125668230316
30
0
41
1
10
43.5386981583429
20
41.0536701209353
30
0
41
1
10
43.8707770583805
20
41.0726115045796
30
0
41
1
10
44.8682749338874
20
41.1093398457016
30
0
41
1
10
45.5361735312433
20
41.1072334232697
30
0
41
1
10
46.8652887329615
20
41.0402660017416
30
0
41
1
10
47.5271297969033
20
40.9723964495922
30
0
41
1
10
48.5168686699882
20
40.8323305880706
30
0
41
1
10
48.845896264482
20
40.779226520858
30
0
41
1
10
49.5007918560846
20
40.6604093778301
30
0
41
1
10
49.8268916542209
20
40.5947655688175
30
0
41
1
10
50.1512998735931
20
40.5212972689894
30
0
0
SPLINE
5
17D
100
AcDbEntity
8
1
62
256
6
ByLayer
370
18
48
1
60
0
100
AcDbSpline
70
4
71
3
72
8
73
4
40
0
40
0
40
0
40
0
40
1
40
1
40
1
40
1
41
1.01923193626848
10
54.471907117949
20
30.9415274345663
30
0
41
1.02059843516864
10
54.9130176192259
20
31.3115226049238
30
0
41
1.0223381109506
10
55.4480543299507
20
31.7895035277934
30
0
41
1.0241704137769
10
55.9599066340042
20
32.3080044343143
30
0
0
SPLINE
5
17E
100
AcDbEntity
8
1
62
256
6
ByLayer
370
18
48
1
60
0
100
AcDbSpline
70
4
71
2
72
6
73
3
40
0
40
0
40
0
40
1
40
1
40
1
41
0.937301687733887
10
44.1700821698549
20
29.8201287000134
30
0
41
0.930554445970897
10
44.4168779661658
20
28.4204801872374
30
0
41
1.02805999725224
10
44.5198994315614
20
27.836216423509
30
0
0
SPLINE
5
17F
100
AcDbEntity
8
1
62
256
6
ByLayer
370
18
48
1
60
0
100
AcDbSpline
70
4
71
3
72
18
73
14
40
0
40
0
40
0
40
0
40
0.250000000000002
40
0.250000000000002
40
0.500000000000004
40
0.500000000000004
40
0.625000000000003
40
0.625000000000003
40
0.750000000000002
40
0.750000000000002
40
0.875000000000001
40
0.875000000000001
40
1
40
1
40
1
40
1
41
1
10
36.4369312091374
20
35.2945517486682
30
0
41
1
10
36.1279903730256
20
35.408368153454
30
0
41
1
10
35.8314412965998
20
35.516845969363
30
0
41
1
10
35.2635165076846
20
35.7222408354107
30
0
41
1
10
34.9921141719082
20
35.8191801500677
30
0
41
1
10
34.6060471982299
20
35.9542576660754
30
0
41
1
10
34.4813309561046
20
35.9973862466933
30
0
41
1
10
34.2443181101617
20
36.0781406578559
30
0
41
1
10
34.1314018828902
20
36.1159847892147
30
0
41
1
10
33.9170944455631
20
36.1863002235249
30
0
41
1
10
33.8157008696161
20
36.2187733283349
30
0
41
1
10
33.6251136240415
20
36.2778546950656
30
0
41
1
10
33.535612051723
20
36.3045479141778
30
0
41
1
10
33.4537176619323
20
36.3276709760499
30
0
0
SPLINE
5
180
100
AcDbEntity
8
1
62
256
6
ByLayer
370
18
48
1
60
0
100
AcDbSpline
70
4
71
3
72
22
73
18
40
0
40
0
40
0
40
0
40
0.125
40
0.125
40
0.25
40
0.25
40
0.500000000000002
40
0.500000000000002
40
0.625000000000001
40
0.625000000000001
40
0.750000000000001
40
0.750000000000001
40
0.875
40
0.875
40
0.9375
40
0.9375
40
1
40
1
40
1
40
1
41
1
10
52.039528687643
20
29.8126195245889
30
0
41
1
10
51.7597646855359
20
29.6325971103368
30
0
41
1
10
51.4757043996192
20
29.4593325023118
30
0
41
1
10
50.9007327949072
20
29.1235795651788
30
0
41
1
10
50.6095180771549
20
28.9610478916785
30
0
41
1
10
49.7277973881798
20
28.4911639997743
30
0
41
1
10
49.1291904500888
20
28.2010622837496
30
0
41
1
10
48.2094065193186
20
27.8128343253621
30
0
41
1
10
47.8991178512806
20
27.6906254718138
30
0
41
1
10
47.2739703688364
20
27.45960547328
30
0
41
1
10
46.9593797299997
20
27.3508500484167
30
0
41
1
10
46.3262765409759
20
27.1464736492574
30
0
41
1
10
46.00780582525
20
27.0507125716772
30
0
41
1
10
45.5264619600376
20
26.9192538911217
30
0
41
1
10
45.3654026764037
20
26.8774816655335
30
0
41
1
10
45.0415583610334
20
26.7997167313114
30
0
41
1
10
44.8788431353086
20
26.7634902428885
30
0
41
1
10
44.7144423614751
20
26.7329086419544
30
0
0
SPLINE
5
181
100
AcDbEntity
8
1
62
256
6
ByLayer
370
18
48
1
60
0
100
AcDbSpline
70
4
71
3
72
26
73
22
40
0
40
0
40
0
40
0
40
0.125000000000001
40
0.125000000000001
40
0.250000000000002
40
0.250000000000002
40
0.375000000000003
40
0.375000000000003
40
0.500000000000003
40
0.500000000000003
40
0.625000000000004
40
0.625000000000004
40
0.687500000000003
40
0.687500000000003
40
0.750000000000002
40
0.750000000000002
40
0.874999999999999
40
0.874999999999999
40
0.937499999999999
40
0.937499999999999
40
1
40
1
40
1
40
1
41
1
10
42.7590073399144
20
37.8227317291749
30
0
41
1
10
42.9484355834567
20
37.817543059758
30
0
41
1
10
43.1356810057722
20
37.7997668234107
30
0
41
1
10
43.5046943605566
20
37.7405464409597
30
0
41
1
10
43.6865375832271
20
37.6991162453476
30
0
41
1
10
44.0448074739787
20
37.5928730737173
30
0
41
1
10
44.2223710370538
20
37.5274697081967
30
0
41
1
10
44.5635028985019
20
37.376166579635
30
0
41
1
10
44.7277742017403
20
37.2902396049364
30
0
41
1
10
45.0443019020031
20
37.0977534765109
30
0
41
1
10
45.1965621950617
20
36.9912027873668
30
0
41
1
10
45.4157701670396
20
36.8145953456246
30
0
41
1
10
45.4872617753255
20
36.7529066548743
30
0
41
1
10
45.6250163835616
20
36.6255571441095
30
0
41
1
10
45.6915546044226
20
36.5596836858836
30
0
41
1
10
45.8841379732361
20
36.3553432789119
30
0
41
1
10
46.0031967677308
20
36.2102005431582
30
0
41
1
10
46.1669727798721
20
35.9778871994109
30
0
41
1
10
46.2192354005139
20
35.8977331900494
30
0
41
1
10
46.3174301347694
20
35.7340834858794
30
0
41
1
10
46.3634466662997
20
35.650510446022
30
0
41
1
10
46.4063300477596
20
35.5651604011649
30
0
0
SPLINE
5
182
100
AcDbEntity
8
1
62
256
6
ByLayer
370
18
48
1
60
0
100
AcDbSpline
70
4
71
3
72
8
73
4
40
0
40
0
40
0
40
0
40
1
40
1
40
1
40
1
41
1
10
55.9599907742186
20
32.3080896680277
30
0
41
1
10
56.2142400410948
20
32.6220613647443
30
0
41
1
10
56.469950174338
20
32.9378370811834
30
0
41
1
10
56.7271340719598
20
33.2554327450632
30
0
0
SPLINE
5
183
100
AcDbEntity
8
1
62
256
6
ByLayer
370
18
48
1
60
0
100
AcDbSpline
70
4
71
3
72
8
73
4
40
0
40
0
40
0
40
0
40
1
40
1
40
1
40
1
41
1
10
57.1015319839697
20
38.0675019206045
30
0
41
1
10
57.023011229618
20
38.1078534249473
30
0
41
1
10
56.9441200586119
20
38.143389394161
30
0
41
1
10
56.8648695750832
20
38.1742541855066
30
0
0
SPLINE
5
184
100
AcDbEntity
8
1
62
256
6
ByLayer
370
18
48
1
60
0
100
AcDbSpline
70
4
71
3
72
25
73
21
40
0
40
0
40
0
40
0
40
0.125
40
0.125
40
0.249999999999999
40
0.249999999999999
40
0.374999999999998
40
0.374999999999998
40
0.499999999999998
40
0.499999999999998
40
0.624999999999997
40
0.624999999999997
40
0.749999999999996
40
0.749999999999996
40
0.812499999999997
40
0.812499999999997
40
0.874999999999998
40
0.937499999999999
40
0.937499999999999
40
1
40
1
40
1
40
1
41
1
10
53.4231037690164
20
33.5114133119319
30
0
41
1
10
53.5290319396353
20
33.4287557526072
30
0
41
1
10
53.6364556567081
20
33.3487673269222
30
0
41
1
10
53.8577461003367
20
33.2002894519355
30
0
41
1
10
53.9717000932291
20
33.1319557487252
30
0
41
1
10
54.207850068013
20
33.0099979957827
30
0
41
1
10
54.329931858185
20
32.9561701456544
30
0
41
1
10
54.5836503952554
20
32.8655673803698
30
0
41
1
10
54.7152661356608
20
32.8287549744779
30
0
41
1
10
54.9906639854973
20
32.7768437408697
30
0
41
1
10
55.1350642110922
20
32.7618644867025
30
0
41
1
10
55.4312296250465
20
32.7612486484163
30
0
41
1
10
55.5837686054725
20
32.7752596518521
30
0
41
1
10
55.8215406300135
20
32.8250778981536
30
0
41
1
10
55.902805609887
20
32.8467389018514
30
0
41
1
10
56.0662747993779
20
32.9007008943328
30
0
41
1
10
56.2302638346459
20
32.9649137331916
30
0
41
1
10
56.3952944384435
20
33.0496652769153
30
0
41
1
10
56.5608500086631
20
33.1447686410885
30
0
41
1
10
56.6441308070139
20
33.1976657832582
30
0
41
1
10
56.7271340719549
20
33.2554327450653
30
0
0
SPLINE
5
185
100
AcDbEntity
8
1
62
256
6
ByLayer
370
18
48
1
60
0
100
AcDbSpline
70
4
71
3
72
30
73
26
40
0
40
0
40
0
40
0
40
0.0625000000000007
40
0.0625000000000007
40
0.125000000000001
40
0.125000000000001
40
0.187500000000002
40
0.187500000000002
40
0.250000000000003
40
0.250000000000003
40
0.312500000000004
40
0.312500000000004
40
0.375000000000004
40
0.375000000000004
40
0.500000000000006
40
0.500000000000006
40
0.562500000000004
40
0.562500000000004
40
0.625000000000002
40
0.625000000000002
40
0.750000000000002
40
0.750000000000002
40
0.875000000000001
40
0.875000000000001
40
1
40
1
40
1
40
1
41
1
10
33.3216313614901
20
36.3688616894171
30
0
41
1
10
33.3088224766405
20
36.4586371186949
30
0
41
1
10
33.2993376470853
20
36.5479000926455
30
0
41
1
10
33.2869910475792
20
36.7257074935285
30
0
41
1
10
33.2841261830061
20
36.8142466528572
30
0
41
1
10
33.2850035876392
20
36.9907085585373
30
0
41
1
10
33.2888094925383
20
37.0787622253269
30
0
41
1
10
33.3024850893279
20
37.2494538410601
30
0
41
1
10
33.3123396339986
20
37.3327441076751
30
0
41
1
10
33.3375005580687
20
37.4955103241121
30
0
41
1
10
33.3529120882265
20
37.5754046631024
30
0
41
1
10
33.3881881178064
20
37.7292606215058
30
0
41
1
10
33.4079712095921
20
37.8030632816204
30
0
41
1
10
33.4726991751504
20
38.0161374870354
30
0
41
1
10
33.5229308901221
20
38.1470892573601
30
0
41
1
10
33.6064692165762
20
38.3300176011048
30
0
41
1
10
33.6355906348526
20
38.3884590447303
30
0
41
1
10
33.6955721819095
20
38.4998561039602
30
0
41
1
10
33.7265269797134
20
38.5530200719513
30
0
41
1
10
33.8223651097045
20
38.7061760082765
30
0
41
1
10
33.890130215773
20
38.7998928201882
30
0
41
1
10
34.0362267101561
20
38.9757349692923
30
0
41
1
10
34.1145874138446
20
39.0578980454516
30
0
41
1
10
34.287525979484
20
39.2135794768683
30
0
41
1
10
34.3813708495944
20
39.2864475209548
30
0
41
1
10
34.4861203924815
20
39.3544993018916
30
0
0
SPLINE
5
186
100
AcDbEntity
8
1
62
256
6
ByLayer
370
13
48
1
60
0
100
AcDbSpline
70
4
71
3
72
8
73
4
40
0
40
0
40
0
40
0
40
1
40
1
40
1
40
1
41
1
10
57.1010389110194
20
42.6223008694639
30
0
41
1
10
57.1126978008272
20
42.6277374990668
30
0
41
1
10
57.1245767454408
20
42.6327251118872
30
0
41
1
10
57.1366221422729
20
42.6372412018051
30
0
0
SPLINE
5
187
100
AcDbEntity
8
1
62
256
6
ByLayer
370
13
48
1
60
0
100
AcDbSpline
70
4
71
3
72
8
73
4
40
0
40
0
40
0
40
0
40
1
40
1
40
1
40
1
41
1
10
54.9761013801796
20
29.4548394217351
30
0
41
1
10
54.9644424903719
20
29.4494027921322
30
0
41
1
10
54.9525635457583
20
29.4444151793118
30
0
41
1
10
54.9405181489262
20
29.4398990893939
30
0
0
SPLINE
5
188
100
AcDbEntity
8
1
62
256
6
ByLayer
370
13
48
1
60
0
100
AcDbSpline
70
4
71
3
72
8
73
4
40
0
40
0
40
0
40
0
40
1
40
1
40
1
40
1
41
1
10
62.6372412018052
20
37.1366221422729
30
0
41
1
10
62.6327251118872
20
37.1245767454408
30
0
41
1
10
62.6277374990669
20
37.1126978008272
30
0
41
1
10
62.6223008694639
20
37.1010389110195
30
0
0
SPLINE
5
189
100
AcDbEntity
8
1
62
256
6
ByLayer
370
18
48
1
60
0
100
AcDbSpline
70
4
71
3
72
10
73
6
40
0
40
0
40
0
40
0
40
0.5
40
0.5
40
1
40
1
40
1
40
1
41
1
10
41.9588052063727
20
32.3651867647334
30
0
41
1
10
41.9349897263457
20
32.365213028297
30
0
41
1
10
41.9096451106043
20
32.3631558420239
30
0
41
1
10
41.8594878689453
20
32.3543155289833
30
0
41
1
10
41.8349332981197
20
32.3475751829961
30
0
41
1
10
41.8125376249811
20
32.339395843731
30
0
0
SPLINE
5
18A
100
AcDbEntity
8
1
62
256
6
ByLayer
370
18
48
1
60
0
100
AcDbSpline
70
4
71
3
72
10
73
6
40
0
40
0
40
0
40
0
40
0.5
40
0.5
40
1
40
1
40
1
40
1
41
1
10
41.4052802380024
20
34.6490672584087
30
0
41
1
10
41.4290957180294
20
34.6490409948451
30
0
41
1
10
41.4544403337708
20
34.6510981811181
30
0
41
1
10
41.5045975754298
20
34.6599384941588
30
0
41
1
10
41.5291521462555
20
34.6666788401459
30
0
41
1
10
41.551547819394
20
34.674858179411
30
0
0
SPLINE
5
18B
100
AcDbEntity
8
1
62
256
6
ByLayer
370
18
48
1
60
0
100
AcDbSpline
70
4
71
3
72
10
73
6
40
0
40
0
40
0
40
0
40
0.5
40
0.5
40
1
40
1
40
1
40
1
41
1
10
42.5326107434586
20
34.3177804771091
30
0
41
1
10
42.5443665718378
20
34.2973668288114
30
0
41
1
10
42.5588055303224
20
34.2763967939431
30
0
41
1
10
42.5917872426672
20
34.2370789161135
30
0
41
1
10
42.6099585415071
20
34.2191762883705
30
0
41
1
10
42.6280801269313
20
34.2040044963733
30
0
0
SPLINE
5
18C
100
AcDbEntity
8
1
62
256
6
ByLayer
370
18
48
1
60
0
100
AcDbSpline
70
4
71
3
72
10
73
6
40
0
40
0
40
0
40
0
40
0.5
40
0.5
40
1
40
1
40
1
40
1
41
1
10
40.8314747009165
20
32.6964735460329
30
0
41
1
10
40.8197188725373
20
32.7168871943306
30
0
41
1
10
40.8052799140527
20
32.7378572291989
30
0
41
1
10
40.7722982017079
20
32.7771751070286
30
0
41
1
10
40.7541269028679
20
32.7950777347715
30
0
41
1
10
40.7360053174438
20
32.8102495267687
30
0
0
SPLINE
5
18D
100
AcDbEntity
8
1
62
256
6
ByLayer
370
18
48
1
60
0
100
AcDbSpline
70
4
71
3
72
10
73
6
40
0
40
0
40
0
40
0
40
0.5
40
0.5
40
1
40
1
40
1
40
1
41
1
10
40.5547122167299
20
33.8384137928697
30
0
41
1
10
40.5665518783565
20
33.8588685610976
30
0
41
1
10
40.5775042544799
20
33.881906478514
30
0
41
1
10
40.5950494199807
20
33.9301336081588
30
0
41
1
10
40.6014454283893
20
33.9547774098325
30
0
41
1
10
40.6055104146519
20
33.9779806946083
30
0
0
SPLINE
5
18E
100
AcDbEntity
8
1
62
256
6
ByLayer
370
18
48
1
60
0
100
AcDbSpline
70
4
71
3
72
10
73
6
40
0
40
0
40
0
40
0
40
0.5
40
0.5
40
1
40
1
40
1
40
1
41
1
10
42.8093732276452
20
33.1758402302723
30
0
41
1
10
42.7975335660186
20
33.1553854620444
30
0
41
1
10
42.7865811898952
20
33.132347544628
30
0
41
1
10
42.7690360243944
20
33.0841204149832
30
0
41
1
10
42.7626400159858
20
33.0594766133095
30
0
41
1
10
42.7585750297232
20
33.0362733285337
30
0
0
INSERT
5
1A0
100
AcDbEntity
8
2
62
256
6
ByLayer
370
25
48
1
60
0
100
AcDbBlockReference
2
DimnDraft3D11
10
0
20
0
30
0
41
1
42
1
43
1
50
0
210
0
220
0
230
1
0
LINE
5
70
100
AcDbEntity
8
81
62
256
6
ByLayer
370
18
48
1
60
0
100
AcDbLine
10
65
20
45
30
0
11
75
21
45
31
0
39
0
210
0
220
0
230
1
0
LINE
5
71
100
AcDbEntity
8
80
62
256
6
ByLayer
370
18
48
1
60
0
100
AcDbLine
10
0
20
0
30
0
11
-10
21
0
31
0
39
0
210
0
220
0
230
1
0
LINE
5
72
100
AcDbEntity
8
1
62
256
6
ByLayer
370
13
48
1
60
0
100
AcDbLine
10
0
20
-31.2
30
0
11
0.3
21
-31.5
31
0
39
0
210
0
220
0
230
1
0
LINE
5
74
100
AcDbEntity
8
1
62
256
6
ByLayer
370
13
48
1
60
0
100
AcDbLine
10
0.3
20
31.5
30
0
11
0
21
31.2
31
0
39
0
210
0
220
0
230
1
0
LINE
5
75
100
AcDbEntity
8
1
62
256
6
ByLayer
370
13
48
1
60
0
100
AcDbLine
10
22.279208
20
31.5
30
0
11
0.3
21
31.5
31
0
39
0
210
0
220
0
230
1
0
LINE
5
76
100
AcDbEntity
8
1
62
256
6
ByLayer
370
13
48
1
60
0
100
AcDbLine
10
0.3
20
-31.5
30
0
11
21.401365
21
-31.5
31
0
39
0
210
0
220
0
230
1
0
LINE
5
77
100
AcDbEntity
8
1
62
256
6
ByLayer
370
13
48
1
60
0
100
AcDbLine
10
51.558375
20
27.872729
30
0
11
51.582738
21
27.820483
31
0
39
0
210
0
220
0
230
1
0
LINE
5
78
100
AcDbEntity
8
1
62
256
6
ByLayer
370
13
48
1
60
0
100
AcDbLine
10
0.3
20
-31.5
30
0
11
0.3
21
31.5
31
0
39
0
210
0
220
0
230
1
0
LINE
5
79
100
AcDbEntity
8
1
62
256
6
ByLayer
370
13
48
1
60
0
100
AcDbLine
10
22.279208
20
31.5
30
0
11
22.279208
21
24.080099
31
0
39
0
210
0
220
0
230
1
0
LINE
5
7A
100
AcDbEntity
8
1
62
256
6
ByLayer
370
13
48
1
60
0
100
AcDbLine
10
0
20
31.2
30
0
11
0
21
-31.2
31
0
39
0
210
0
220
0
230
1
0
LINE
5
7B
100
AcDbEntity
8
1
62
256
6
ByLayer
370
13
48
1
60
0
100
AcDbLine
10
22.988369
20
31.731966
30
0
11
22.988369
21
29.292192
31
0
39
0
210
0
220
0
230
1
0
LINE
5
7C
100
AcDbEntity
8
1
62
256
6
ByLayer
370
13
48
1
60
0
100
AcDbLine
10
36.604528
20
39.922837
30
0
11
36.103395
21
42.7649
31
0
39
0
210
0
220
0
230
1
0
LINE
5
7D
100
AcDbEntity
8
1
62
256
6
ByLayer
370
13
48
1
60
0
100
AcDbLine
10
36.460674
20
25.478472
30
0
11
35.099577
21
25.238474
31
0
39
0
210
0
220
0
230
1
0
LINE
5
7E
100
AcDbEntity
8
1
62
256
6
ByLayer
370
13
48
1
60
0
100
AcDbLine
10
35.099577
20
25.238474
30
0
11
34.931183
21
26.193482
31
0
39
0
210
0
220
0
230
1
0
LINE
5
7F
100
AcDbEntity
8
1
62
256
6
ByLayer
370
13
48
1
60
0
100
AcDbLine
10
32.836883
20
38.070846
30
0
11
32.065459
21
42.445812
31
0
39
0
210
0
220
0
230
1
0
LINE
5
80
100
AcDbEntity
8
1
62
256
6
ByLayer
370
13
48
1
60
0
100
AcDbLine
10
47.822912
20
27.079491
30
0
11
47.838408
21
26.902368
31
0
39
0
210
0
220
0
230
1
0
LINE
5
81
100
AcDbEntity
8
1
62
256
6
ByLayer
370
13
48
1
60
0
100
AcDbLine
10
49.913977
20
27.273302
30
0
11
49.930417
21
27.085395
31
0
39
0
210
0
220
0
230
1
0
LINE
5
82
100
AcDbEntity
8
1
62
256
6
ByLayer
370
13
48
1
60
0
100
AcDbLine
10
58.207539
20
43.126676
30
0
11
58.207539
21
43.494486
31
0
39
0
210
0
220
0
230
1
0
LINE
5
83
100
AcDbEntity
8
1
62
256
6
ByLayer
370
13
48
1
60
0
100
AcDbLine
10
58.042611
20
43.049764
30
0
11
57.920793
21
43.128874
31
0
39
0
210
0
220
0
230
1
0
LINE
5
84
100
AcDbEntity
8
1
62
256
6
ByLayer
370
13
48
1
60
0
100
AcDbLine
10
53.425545
20
40.898508
30
0
11
53.340472
21
41.089583
31
0
39
0
210
0
220
0
230
1
0
LINE
5
85
100
AcDbEntity
8
SK1
62
256
6
ByLayer
370
13
48
1
60
0
100
AcDbLine
10
-1.315435
20
4.803126
30
0
11
-1.315435
21
-4.803123
31
0
39
0
210
0
220
0
230
1
0
LINE
5
87
100
AcDbEntity
8
1
62
256
6
ByLayer
370
13
48
1
60
0
100
AcDbLine
10
13.461325
20
-30.080593
30
0
11
10.538675
21
-30.080593
31
0
39
0
210
0
220
0
230
1
0
LINE
5
88
100
AcDbEntity
8
1
62
256
6
ByLayer
370
13
48
1
60
0
100
AcDbLine
10
58.651699
20
30.880799
30
0
11
58.561308
21
31.074644
31
0
39
0
210
0
220
0
230
1
0
LINE
5
89
100
AcDbEntity
8
1
62
256
6
ByLayer
370
13
48
1
60
0
100
AcDbLine
10
23.736439
20
31.697144
30
0
11
23.736439
21
-24.339217
31
0
39
0
210
0
220
0
230
1
0
LINE
5
8A
100
AcDbEntity
8
1
62
256
6
ByLayer
370
13
48
1
60
0
100
AcDbLine
10
27.721218
20
-18.088731
30
0
11
52.769612
21
20.482414
31
0
39
0
210
0
220
0
230
1
0
LINE
5
8B
100
AcDbEntity
8
1
62
256
6
ByLayer
370
13
48
1
60
0
100
AcDbLine
10
57.920793
20
43.528535
30
0
11
58.207539
21
43.494486
31
0
39
0
210
0
220
0
230
1
0
LINE
5
8C
100
AcDbEntity
8
1
62
256
6
ByLayer
370
13
48
1
60
0
100
AcDbLine
10
58.422612
20
30.693581
30
0
11
58.498
21
30.53191
31
0
39
0
210
0
220
0
230
1
0
LINE
5
8D
100
AcDbEntity
8
1
62
256
6
ByLayer
370
13
48
1
60
0
100
AcDbLine
10
30.906003
20
40.87728
30
0
11
33.706848
21
24.992899
31
0
39
0
210
0
220
0
230
1
0
LINE
5
8E
100
AcDbEntity
8
1
62
256
6
ByLayer
370
13
48
1
60
0
100
AcDbLine
10
57.920793
20
43.528535
30
0
11
57.920793
21
43.128874
31
0
39
0
210
0
220
0
230
1
0
LINE
5
8F
100
AcDbEntity
8
1
62
256
6
ByLayer
370
13
48
1
60
0
100
AcDbLine
10
13.461325
20
9.349221
30
0
11
10.538675
21
9.349221
31
0
39
0
210
0
220
0
230
1
0
LINE
5
90
100
AcDbEntity
8
1
62
256
6
ByLayer
370
13
48
1
60
0
100
AcDbLine
10
13.894338
20
-29.913955
30
0
11
13.894338
21
-9.869413
31
0
39
0
210
0
220
0
230
1
0
LINE
5
91
100
AcDbEntity
8
1
62
256
6
ByLayer
370
13
48
1
60
0
100
AcDbLine
10
58.561308
20
31.074644
30
0
11
58.422612
21
30.693581
31
0
39
0
210
0
220
0
230
1
0
LINE
5
92
100
AcDbEntity
8
1
62
256
6
ByLayer
370
13
48
1
60
0
100
AcDbLine
10
10.538675
20
30.080593
30
0
11
13.461325
21
30.080593
31
0
39
0
210
0
220
0
230
1
0
LINE
5
93
100
AcDbEntity
8
1
62
256
6
ByLayer
370
13
48
1
60
0
100
AcDbLine
10
33.706848
20
24.992899
30
0
11
35.099577
21
25.238474
31
0
39
0
210
0
220
0
230
1
0
LINE
5
94
100
AcDbEntity
8
1
62
256
6
ByLayer
370
13
48
1
60
0
100
AcDbLine
10
13.461325
20
9.349221
30
0
11
13.461325
21
30.080593
31
0
39
0
210
0
220
0
230
1
0
LINE
5
95
100
AcDbEntity
8
1
62
256
6
ByLayer
370
13
48
1
60
0
100
AcDbLine
10
10.105662
20
9.869413
30
0
11
10.105662
21
29.913955
31
0
39
0
210
0
220
0
230
1
0
LINE
5
96
100
AcDbEntity
8
1
62
256
6
ByLayer
370
13
48
1
60
0
100
AcDbLine
10
13.894338
20
9.869413
30
0
11
13.894338
21
29.913955
31
0
39
0
210
0
220
0
230
1
0
LINE
5
97
100
AcDbEntity
8
1
62
256
6
ByLayer
370
13
48
1
60
0
100
AcDbLine
10
51.703922
20
27.560604
30
0
11
58.422612
21
30.693581
31
0
39
0
210
0
220
0
230
1
0
LINE
5
98
100
AcDbEntity
8
1
62
256
6
ByLayer
370
13
48
1
60
0
100
AcDbLine
10
47.838408
20
26.902368
30
0
11
49.930417
21
27.085395
31
0
39
0
210
0
220
0
230
1
0
LINE
5
99
100
AcDbEntity
8
1
62
256
6
ByLayer
370
13
48
1
60
0
100
AcDbLine
10
23.284657
20
-25.196781
30
0
11
23.736439
21
-24.339217
31
0
39
0
210
0
220
0
230
1
0
LINE
5
9A
100
AcDbEntity
8
1
62
256
6
ByLayer
370
13
48
1
60
0
100
AcDbLine
10
27.742869
20
35.596941
30
0
11
30.364672
21
20.72796
31
0
39
0
210
0
220
0
230
1
0
LINE
5
9B
100
AcDbEntity
8
1
62
256
6
ByLayer
370
13
48
1
60
0
100
AcDbLine
10
10.538675
20
9.349221
30
0
11
10.538675
21
30.080593
31
0
39
0
210
0
220
0
230
1
0
LINE
5
9C
100
AcDbEntity
8
1
62
256
6
ByLayer
370
13
48
1
60
0
100
AcDbLine
10
10.538675
20
-30.080593
30
0
11
10.538675
21
-9.349221
31
0
39
0
210
0
220
0
230
1
0
LINE
5
9D
100
AcDbEntity
8
1
62
256
6
ByLayer
370
13
48
1
60
0
100
AcDbLine
10
13.461325
20
-30.080593
30
0
11
13.461325
21
-9.349221
31
0
39
0
210
0
220
0
230
1
0
LINE
5
9E
100
AcDbEntity
8
1
62
256
6
ByLayer
370
13
48
1
60
0
100
AcDbLine
10
10.538675
20
-9.349221
30
0
11
13.461325
21
-9.349221
31
0
39
0
210
0
220
0
230
1
0
LINE
5
9F
100
AcDbEntity
8
1
62
256
6
ByLayer
370
13
48
1
60
0
100
AcDbLine
10
51.582738
20
27.820483
30
0
11
51.703922
21
27.560604
31
0
39
0
210
0
220
0
230
1
0
LINE
5
A0
100
AcDbEntity
8
1
62
256
6
ByLayer
370
13
48
1
60
0
100
AcDbLine
10
27.721218
20
-18.088731
30
0
11
27.721218
21
35.55944
31
0
39
0
210
0
220
0
230
1
0
LINE
5
A1
100
AcDbEntity
8
1
62
256
6
ByLayer
370
13
48
1
60
0
100
AcDbLine
10
32.065459
20
42.445812
30
0
11
36.103395
21
42.7649
31
0
39
0
210
0
220
0
230
1
0
LINE
5
A2
100
AcDbEntity
8
1
62
256
6
ByLayer
370
13
48
1
60
0
100
AcDbLine
10
27.721218
20
35.55944
30
0
11
27.742869
21
35.596941
31
0
39
0
210
0
220
0
230
1
0
LINE
5
A3
100
AcDbEntity
8
1
62
256
6
ByLayer
370
13
48
1
60
0
100
AcDbLine
10
57.920793
20
43.528535
30
0
11
36.103395
21
42.7649
31
0
39
0
210
0
220
0
230
1
0
LINE
5
A4
100
AcDbEntity
8
1
62
256
6
ByLayer
370
13
48
1
60
0
100
AcDbLine
10
10.105662
20
-29.913955
30
0
11
10.105662
21
-9.869413
31
0
39
0
210
0
220
0
230
1
0
LINE
5
A5
100
AcDbEntity
8
1
62
256
6
ByLayer
370
13
48
1
60
0
100
AcDbLine
10
57.920793
20
43.128874
30
0
11
53.340472
21
41.089583
31
0
39
0
210
0
220
0
230
1
0
LINE
5
A6
100
AcDbEntity
8
1
62
256
6
ByLayer
370
13
48
1
60
0
100
AcDbLine
10
58.561308
20
31.074644
30
0
11
51.582738
21
27.820483
31
0
39
0
210
0
220
0
230
1
0
LINE
5
A7
100
AcDbEntity
8
1
62
256
6
ByLayer
370
18
48
1
60
0
100
AcDbLine
10
56.675871
20
38.323265
30
0
11
55.73372
21
38.889367
31
0
39
0
210
0
220
0
230
1
0
LINE
5
A8
100
AcDbEntity
8
1
62
256
6
ByLayer
370
18
48
1
60
0
100
AcDbLine
10
36.856825
20
39.967383
30
0
11
35.438865
21
39.717358
31
0
39
0
210
0
220
0
230
1
0
LINE
5
A9
100
AcDbEntity
8
1
62
256
6
ByLayer
370
18
48
1
60
0
100
AcDbLine
10
39.880278
20
37.403448
30
0
11
41.903153
21
37.760135
31
0
39
0
210
0
220
0
230
1
0
LINE
5
AA
100
AcDbEntity
8
1
62
256
6
ByLayer
370
18
48
1
60
0
100
AcDbLine
10
57.418849
20
34.109629
30
0
11
57.545485
21
34.314295
31
0
39
0
210
0
220
0
230
1
0
LINE
5
AB
100
AcDbEntity
8
1
62
256
6
ByLayer
370
18
48
1
60
0
100
AcDbLine
10
33.33266
20
36.299697
30
0
11
34.791304
21
28.027312
31
0
39
0
210
0
220
0
230
1
0
LINE
5
AC
100
AcDbEntity
8
1
62
256
6
ByLayer
370
18
48
1
60
0
100
AcDbLine
10
34.791304
20
28.027312
30
0
11
33.995124
21
27.886924
31
0
39
0
210
0
220
0
230
1
0
LINE
5
AD
100
AcDbEntity
8
1
62
256
6
ByLayer
370
18
48
1
60
0
100
AcDbLine
10
43.344432
20
29.586231
30
0
11
41.321558
21
29.229543
31
0
39
0
210
0
220
0
230
1
0
LINE
5
AE
100
AcDbEntity
8
1
62
256
6
ByLayer
370
18
48
1
60
0
100
AcDbLine
10
33.333713
20
34.725972
30
0
11
33.195137
21
34.549223
31
0
39
0
210
0
220
0
230
1
0
LINE
5
AF
100
AcDbEntity
8
1
62
256
6
ByLayer
370
18
48
1
60
0
100
AcDbLine
10
33.917998
20
29.447236
30
0
11
34.254048
21
29.506491
31
0
39
0
210
0
220
0
230
1
0
LINE
5
B0
100
AcDbEntity
8
1
62
256
6
ByLayer
370
18
48
1
60
0
100
AcDbLine
10
35.765467
20
35.103984
30
0
11
34.057629
21
34.802846
31
0
39
0
210
0
220
0
230
1
0
LINE
5
B1
100
AcDbEntity
8
1
62
256
6
ByLayer
370
18
48
1
60
0
100
AcDbLine
10
36.668438
20
29.982984
30
0
11
34.9606
21
29.681846
31
0
39
0
210
0
220
0
230
1
0
LINE
5
B2
100
AcDbEntity
8
1
62
256
6
ByLayer
370
18
48
1
60
0
100
AcDbLine
10
32.895092
20
34.496317
30
0
11
33.195137
21
34.549223
31
0
39
0
210
0
220
0
230
1
0
LINE
5
B3
100
AcDbEntity
8
1
62
256
6
ByLayer
370
18
48
1
60
0
100
AcDbLine
10
33.763333
20
29.572278
30
0
11
34.063378
21
29.625184
31
0
39
0
210
0
220
0
230
1
0
LINE
5
B4
100
AcDbEntity
8
1
62
256
6
ByLayer
370
18
48
1
60
0
100
AcDbLine
10
36.856825
20
39.967383
30
0
11
36.861527
21
39.966052
31
0
39
0
210
0
220
0
230
1
0
LINE
5
B5
100
AcDbEntity
8
1
62
256
6
ByLayer
370
18
48
1
60
0
100
AcDbLine
10
57.878286
20
34.676987
30
0
11
57.731363
21
34.495552
31
0
39
0
210
0
220
0
230
1
0
LINE
5
B6
100
AcDbEntity
8
1
62
256
6
ByLayer
370
18
48
1
60
0
100
AcDbLine
10
42.214647
20
40.909952
30
0
11
36.861527
21
39.966052
31
0
39
0
210
0
220
0
230
1
0
LINE
5
B7
100
AcDbEntity
8
1
62
256
6
ByLayer
370
18
48
1
60
0
100
AcDbLine
10
34.057629
20
34.802846
30
0
11
34.9606
21
29.681846
31
0
39
0
210
0
220
0
230
1
0
LINE
5
B8
100
AcDbEntity
8
1
62
256
6
ByLayer
370
18
48
1
60
0
100
AcDbLine
10
32.895092
20
34.496317
30
0
11
33.763333
21
29.572278
31
0
39
0
210
0
220
0
230
1
0
LINE
5
B9
100
AcDbEntity
8
1
62
256
6
ByLayer
370
18
48
1
60
0
100
AcDbLine
10
34.891996
20
38.48116
30
0
11
42.40919
21
39.806644
31
0
39
0
210
0
220
0
230
1
0
LINE
5
BA
100
AcDbEntity
8
1
62
256
6
ByLayer
370
18
48
1
60
0
100
AcDbLine
10
33.33266
20
36.299697
30
0
11
32.536479
21
36.159309
31
0
39
0
210
0
220
0
230
1
0
LINE
5
BB
100
AcDbEntity
8
1
62
256
6
ByLayer
370
18
48
1
60
0
100
AcDbLine
10
37.939399
20
25.536126
30
0
11
39.357359
21
25.786151
31
0
39
0
210
0
220
0
230
1
0
LINE
5
BC
100
AcDbEntity
8
1
62
256
6
ByLayer
370
18
48
1
60
0
100
AcDbLine
10
39.357359
20
25.786151
30
0
11
39.361322
21
25.789009
31
0
39
0
210
0
220
0
230
1
0
LINE
5
BD
100
AcDbEntity
8
1
62
256
6
ByLayer
370
18
48
1
60
0
100
AcDbLine
10
57.301649
20
37.94726
30
0
11
57.101532
21
38.067502
31
0
39
0
210
0
220
0
230
1
0
LINE
5
BE
100
AcDbEntity
8
1
62
256
6
ByLayer
370
18
48
1
60
0
100
AcDbLine
10
56.86487
20
38.174254
30
0
11
56.675871
21
38.323265
31
0
39
0
210
0
220
0
230
1
0
LINE
5
BF
100
AcDbEntity
8
1
62
256
6
ByLayer
370
18
48
1
60
0
100
AcDbLine
10
32.997663
20
34.666717
30
0
11
33.333713
21
34.725972
31
0
39
0
210
0
220
0
230
1
0
LINE
5
C0
100
AcDbEntity
8
1
62
256
6
ByLayer
370
18
48
1
60
0
100
AcDbLine
10
33.195137
20
34.549223
30
0
11
34.063378
21
29.625184
31
0
39
0
210
0
220
0
230
1
0
LINE
5
C1
100
AcDbEntity
8
1
62
256
6
ByLayer
370
18
48
1
60
0
100
AcDbLine
10
55.288036
20
35.906231
30
0
11
58.335142
21
36.443518
31
0
39
0
210
0
220
0
230
1
0
LINE
5
C2
100
AcDbEntity
8
1
62
256
6
ByLayer
370
18
48
1
60
0
100
AcDbLine
10
33.917998
20
29.447236
30
0
11
33.763333
21
29.572278
31
0
39
0
210
0
220
0
230
1
0
LINE
5
C3
100
AcDbEntity
8
1
62
256
6
ByLayer
370
18
48
1
60
0
100
AcDbLine
10
35.438865
20
39.717358
30
0
11
35.17465
21
39.67077
31
0
39
0
210
0
220
0
230
1
0
LINE
5
C4
100
AcDbEntity
8
1
62
256
6
ByLayer
370
18
48
1
60
0
100
AcDbLine
10
33.995124
20
27.886924
30
0
11
32.536479
21
36.159309
31
0
39
0
210
0
220
0
230
1
0
LINE
5
C5
100
AcDbEntity
8
1
62
256
6
ByLayer
370
18
48
1
60
0
100
AcDbLine
10
34.254048
20
29.506491
30
0
11
34.063378
21
29.625184
31
0
39
0
210
0
220
0
230
1
0
LINE
5
C6
100
AcDbEntity
8
1
62
256
6
ByLayer
370
18
48
1
60
0
100
AcDbLine
10
37.002705
20
26.510732
30
0
11
44.519899
21
27.836216
31
0
39
0
210
0
220
0
230
1
0
LINE
5
C7
100
AcDbEntity
8
1
62
256
6
ByLayer
370
18
48
1
60
0
100
AcDbLine
10
44.714442
20
26.732909
30
0
11
39.361322
21
25.789009
31
0
39
0
210
0
220
0
230
1
0
LINE
5
C8
100
AcDbEntity
8
1
62
256
6
ByLayer
370
18
48
1
60
0
100
AcDbLine
10
57.418849
20
34.109629
30
0
11
56.727134
21
33.255433
31
0
39
0
210
0
220
0
230
1
0
LINE
5
C9
100
AcDbEntity
8
1
62
256
6
ByLayer
370
18
48
1
60
0
100
AcDbLine
10
33.333713
20
34.725972
30
0
11
34.254048
21
29.506491
31
0
39
0
210
0
220
0
230
1
0
LINE
5
CA
100
AcDbEntity
8
1
62
256
6
ByLayer
370
18
48
1
60
0
100
AcDbLine
10
32.997663
20
34.666717
30
0
11
32.895092
21
34.496317
31
0
39
0
210
0
220
0
230
1
0
LINE
5
CB
100
AcDbEntity
8
1
62
256
6
ByLayer
370
18
48
1
60
0
100
AcDbLine
10
37.939399
20
25.536126
30
0
11
37.675183
21
25.489538
31
0
39
0
210
0
220
0
230
1
0
LINE
5
CC
100
AcDbEntity
8
1
62
256
6
ByLayer
370
13
48
1
60
0
100
AcDbLine
10
64.424381
20
40.990482
30
0
11
62.727156
21
37.350771
31
0
39
0
210
0
220
0
230
1
0
LINE
5
CD
100
AcDbEntity
8
1
62
256
6
ByLayer
370
13
48
1
60
0
100
AcDbLine
10
62.622301
20
37.101039
30
0
11
61.039457
21
33.706618
31
0
39
0
210
0
220
0
230
1
0
LINE
5
CE
100
AcDbEntity
8
1
62
256
6
ByLayer
370
13
48
1
60
0
100
AcDbLine
10
58.370522
20
31.037684
30
0
11
54.976101
21
29.454839
31
0
39
0
210
0
220
0
230
1
0
LINE
5
CF
100
AcDbEntity
8
1
62
256
6
ByLayer
370
13
48
1
60
0
100
AcDbLine
10
57.350771
20
42.727156
30
0
11
60.990482
21
44.424381
31
0
39
0
210
0
220
0
230
1
0
LINE
5
D0
100
AcDbEntity
8
1
62
256
6
ByLayer
370
13
48
1
60
0
100
AcDbLine
10
64.992361
20
44.01769
30
0
11
64.874477
21
42.670262
31
0
39
0
210
0
220
0
230
1
0
LINE
5
D1
100
AcDbEntity
8
1
62
256
6
ByLayer
370
13
48
1
60
0
100
AcDbLine
10
49.406878
20
27.202664
30
0
11
48.05945
21
27.084779
31
0
39
0
210
0
220
0
230
1
0
LINE
5
D2
100
AcDbEntity
8
1
62
256
6
ByLayer
370
13
48
1
60
0
100
AcDbLine
10
62.670262
20
44.874477
30
0
11
64.01769
21
44.992361
31
0
39
0
210
0
220
0
230
1
0
LINE
5
D3
100
AcDbEntity
8
1
62
256
6
ByLayer
370
13
48
1
60
0
100
AcDbLine
10
53.706618
20
41.039457
30
0
11
57.101039
21
42.622301
31
0
39
0
210
0
220
0
230
1
0
LINE
5
D4
100
AcDbEntity
8
1
62
256
6
ByLayer
370
13
48
1
60
0
100
AcDbLine
10
54.726369
20
29.349984
30
0
11
51.086659
21
27.652759
31
0
39
0
210
0
220
0
230
1
0
LINE
5
D5
100
AcDbEntity
8
2
62
256
6
ByLayer
370
18
48
1
60
1
100
AcDbLine
10
65
20
43.602133
30
0
11
65
21
43.601133
31
0
39
0
210
0
220
0
230
1
0
LINE
5
D7
100
AcDbEntity
8
2
62
256
6
ByLayer
370
18
48
1
60
1
100
AcDbLine
10
64.131716
20
42.160603
30
0
11
64.131293
21
42.159697
31
0
39
0
210
0
220
0
230
1
0
MTEXT
5
18F
100
AcDbEntity
8
SK6
62
256
6
ByLayer
370
13
48
1
60
0
100
AcDbMText
10
1.042524
20
-46.33489
30
0
210
0
220
0
230
1
1
\W0.7216;C6-CP-25BR-45065-11B
40
3.5
41
0
44
1.084337
50
0
71
7
72
5
7
iso_b_vert
0
DIMENSION
5
1AF
100
AcDbEntity
8
SK2
62
256
6
ByLayer
370
13
48
1
60
0
100
AcDbDimension
2
DimnDraft3D2
10
-47.1
20
-31.5
30
0
11
-47.1
21
0
31
0
70
32
71
5
72
1
41
1
210
0
220
0
230
1
3
Standard
100
AcDbAlignedDimension
13
-1.5875
23
31.5
33
0
14
-1.5875
24
-31.5
34
0
50
90
100
AcDbRotatedDimension
1001
ACAD
1000
DSTYLE
1002
{
1070
    74
1070
     0
1070
   279
1070
     0
1070
   172
1070
     1
1070
   173
1070
     1
1070
   340
1005
190
1070
   271
1070
     1
1070
   272
1070
     2
1070
    77
1070
     1
1070
    73
1070
     0
1070
   171
1070
     3
1070
   274
1070
     4
1070
   177
1070
   150
1070
   176
1070
     9
1070
   178
1070
    43
1070
    78
1070
     8
1070
    48
1040
-0.005
1070
    41
1041
3.175
1070
   147
1041
2.25
1070
    42
1041
1.5875
1070
    44
1041
3.175
1070
   140
1041
4.5
1070
   343
1005
1B0
1070
   344
1005
1B0
1002
}
0
DIMENSION
5
1C4
100
AcDbEntity
8
2
62
256
6
ByLayer
370
13
48
1
60
0
100
AcDbDimension
2
DimnDraft3D3
10
0
20
62.5
30
0
11
32.5
21
62.5
31
0
70
32
71
5
72
1
41
1
210
0
220
0
230
1
3
Standard
100
AcDbAlignedDimension
13
65
23
46.5875
33
0
14
0
24
33.0875
34
0
50
0
100
AcDbRotatedDimension
1001
ACAD
1000
DSTYLE
1002
{
1070
   279
1070
     0
1070
   172
1070
     1
1070
   173
1070
     1
1070
   340
1005
190
1070
   271
1070
     1
1070
   272
1070
     2
1070
    77
1070
     1
1070
    73
1070
     0
1070
   171
1070
     3
1070
   274
1070
     4
1070
   177
1070
   150
1070
   176
1070
     9
1070
   178
1070
    43
1070
    78
1070
     8
1070
    48
1040
-0.005
1070
    41
1041
3.175
1070
   147
1041
2.25
1070
    42
1041
1.5875
1070
    44
1041
3.175
1070
   140
1041
4.5
1070
   343
1005
1B0
1070
   344
1005
1B0
1002
}
0
DIMENSION
5
1D2
100
AcDbEntity
8
2
62
256
6
ByLayer
370
13
48
1
60
0
100
AcDbDimension
2
DimnDraft3D4
10
64.131293
20
42.159697
30
0
11
54.334512
21
-4.086264
31
0
70
34
71
5
72
1
41
1
210
0
220
0
230
1
3
Standard
100
AcDb2LineAngularDimension
13
65
23
43.602133
33
0
14
65
24
43.601133
34
0
15
64.131716
25
42.160603
35
0
16
53.360534
26
-8.479596
36
0
40
0
0
ENDSEC
0
SECTION
2
OBJECTS
0
DICTIONARY
5
23c
330
0
100
AcDbDictionary
280
0
281
1
3
ACAD_GROUP
350
23d
3
ACAD_MLINESTYLE
350
23e
0
DICTIONARY
5
23d
330
0
100
AcDbDictionary
280
0
281
1
0
DICTIONARY
5
23e
330
0
100
AcDbDictionary
280
0
281
1
3
Standard
350
18
0
MLINESTYLE
5
18
330
23e
100
AcDbMlineStyle
2
Standard
70
0
3

62
256
51
90
52
90
71
2
49
-0.5
62
256
6
ByLayer
49
0.5
62
256
6
ByLayer
0
RASTERVARIABLES
5
22b
330

100
AcDbRasterVariables
90
0
70
1
71
1
72
1
0
ENDSEC
0
EOF
