0
SECTION
2
HEADER
9
$ACADVER
1
AC1015
9
$DWGCODEPAGE
3
ANSI_1252
9
$HANDSEED
5
2c4
9
$ANGBASE
50
0
9
$ANGDIR
70
0
9
$ATTMODE
70
1
9
$AUNITS
70
0
9
$AUPREC
70
0
9
$CECOLOR
62
256
9
$CELTSCALE
40
1
9
$CELTYPE
6
ByLayer
9
$CELWEIGHT
370
18
9
$CLAYER
8
0
9
$CMLJUST
70
0
9
$CMLSCALE
40
1
9
$CMLSTYLE
2
Standard
9
$DIMSTYLE
2
Standard
9
$TEXTSIZE
40
0.2
9
$TEXTSTYLE
7
Standard
9
$LUNITS
70
2
9
$LUPREC
70
4
9
$EXTNAMES
290
1
9
$INSUNITS
70
4
9
$LTSCALE
40
1
9
$LWDISPLAY
290
1
9
$PDMODE
70
0
9
$PDSIZE
40
0
9
$PLINEGEN
70
0
0
ENDSEC
0
SECTION
2
CLASSES
0
CLASS
1
RASTERVARIABLES
2
AcDbRasterVariables
3
ISM
90
0
280
0
281
0
0
ENDSEC
0
SECTION
2
TABLES
0
TABLE
2
VPORT
5
2ba
100
AcDbSymbolTable
0
VPORT
5
1
100
AcDbSymbolTableRecord
100
AcDbViewportTableRecord
2
*Active
70
0
10
0
20
0
11
1
21
1
12
-1
22
1
13
0
23
0
14
0.5
24
0.5
15
10
25
10
16
0
26
0
36
1
17
0
27
0
37
0
0
ENDTAB
0
TABLE
2
LTYPE
5
2bb
100
AcDbSymbolTable
0
LTYPE
5
14
100
AcDbSymbolTableRecord
100
AcDbLinetypeTableRecord
70
0
2
ByBlock
3

72
65
73
0
40
0
0
LTYPE
5
15
100
AcDbSymbolTableRecord
100
AcDbLinetypeTableRecord
70
0
2
ByLayer
3

72
65
73
0
40
0
0
LTYPE
5
16
100
AcDbSymbolTableRecord
100
AcDbLinetypeTableRecord
70
0
2
CONTINUOUS
3
Solid line
72
65
73
0
40
0
0
LTYPE
5
6A
100
AcDbSymbolTableRecord
100
AcDbLinetypeTableRecord
70
0
2
CENTER
3
____ _ ____ _ ____ _ ____
72
65
73
4
40
47.5
49
22
74
0
49
-8.5
74
0
49
8.5
74
0
49
-8.5
74
0
0
LTYPE
5
6B
100
AcDbSymbolTableRecord
100
AcDbLinetypeTableRecord
70
0
2
DASHED
3
__ __ __ __ __ __ __ __ __
72
65
73
2
40
25.72
49
12.86
74
0
49
-12.86
74
0
0
ENDTAB
0
TABLE
2
LAYER
5
2bc
100
AcDbSymbolTable
0
LAYER
5
10
100
AcDbSymbolTableRecord
100
AcDbLayerTableRecord
2
0
70
0
62
7
6
CONTINUOUS
290
1
370
-3
390
0
0
LAYER
5
6D
100
AcDbSymbolTableRecord
100
AcDbLayerTableRecord
2
2
70
0
62
7
6
CONTINUOUS
290
1
370
-3
390
0
0
LAYER
5
6F
100
AcDbSymbolTableRecord
100
AcDbLayerTableRecord
2
80
70
0
62
-6
6
CONTINUOUS
290
1
370
-3
390
0
0
LAYER
5
71
100
AcDbSymbolTableRecord
100
AcDbLayerTableRecord
2
81
70
0
62
-3
6
CONTINUOUS
290
1
370
-3
390
0
0
LAYER
5
74
100
AcDbSymbolTableRecord
100
AcDbLayerTableRecord
2
1
70
0
62
4
6
CONTINUOUS
290
1
370
-3
390
0
0
LAYER
5
8B
100
AcDbSymbolTableRecord
100
AcDbLayerTableRecord
2
4
70
0
62
-2
6
CENTER
290
1
370
-3
390
0
0
LAYER
5
2a6
100
AcDbSymbolTableRecord
100
AcDbLayerTableRecord
2
SK4
70
0
62
2
6
CENTER
290
1
370
-3
390
0
0
LAYER
5
2a7
100
AcDbSymbolTableRecord
100
AcDbLayerTableRecord
2
SK1
70
0
62
4
6
CONTINUOUS
290
1
370
-3
390
0
0
LAYER
5
2a8
100
AcDbSymbolTableRecord
100
AcDbLayerTableRecord
2
SK6
70
0
62
5
6
CONTINUOUS
290
1
370
-3
390
0
0
LAYER
5
2a9
100
AcDbSymbolTableRecord
100
AcDbLayerTableRecord
2
SK2
70
0
62
7
6
CONTINUOUS
290
1
370
-3
390
0
0
ENDTAB
0
TABLE
2
STYLE
5
2bd
100
AcDbSymbolTable
0
STYLE
5
11
100
AcDbSymbolTableRecord
100
AcDbTextStyleTableRecord
2
Standard
3
txt
70
0
71
0
40
0
41
1
42
0
50
0
0
STYLE
5
20A
100
AcDbSymbolTableRecord
100
AcDbTextStyleTableRecord
2
iso_b_vert
3
simplex.shx
70
0
71
0
40
0
41
1
42
0
50
0
0
STYLE
5
20B
100
AcDbSymbolTableRecord
100
AcDbTextStyleTableRecord
2
DWGDirectTextStyle
3
simplex
70
0
71
0
40
0
41
1
42
0
50
0
0
ENDTAB
0
TABLE
2
DIMSTYLE
5
2be
100
AcDbSymbolTable
100
AcDbDimStyleTable
0
DIMSTYLE
105
27
100
AcDbSymbolTableRecord
100
AcDbDimStyleTableRecord
2
Standard
70
0
3
<>
41
0.18
42
0.0625
44
0.18
140
0.18
147
0.09
73
0
74
0
77
1
271
2
275
0
278
52
280
0
340
11
0
ENDTAB
0
TABLE
2
VIEW
5
2bf
100
AcDbSymbolTable
0
ENDTAB
0
TABLE
2
UCS
5
2c0
100
AcDbSymbolTable
0
ENDTAB
0
TABLE
2
APPID
5
2c1
100
AcDbSymbolTable
0
APPID
5
12
100
AcDbSymbolTableRecord
100
AcDbRegAppTableRecord
2
ACAD
70
0
0
ENDTAB
0
TABLE
2
BLOCK_RECORD
5
2c2
100
AcDbSymbolTable
0
BLOCK_RECORD
5
1F
100
AcDbSymbolTableRecord
100
AcDbBlockTableRecord
2
*Model_Space
340
0
70
0
0
BLOCK_RECORD
5
1B
100
AcDbSymbolTableRecord
100
AcDbBlockTableRecord
2
*Paper_Space
340
0
70
0
0
BLOCK_RECORD
5
23
100
AcDbSymbolTableRecord
100
AcDbBlockTableRecord
2
*Paper_Space0
340
0
70
0
0
BLOCK_RECORD
5
20D
100
AcDbSymbolTableRecord
100
AcDbBlockTableRecord
2
DimnDraft3D11
340
0
70
0
0
BLOCK_RECORD
5
21B
100
AcDbSymbolTableRecord
100
AcDbBlockTableRecord
2
DimnDraft3D2
340
0
70
0
0
BLOCK_RECORD
5
229
100
AcDbSymbolTableRecord
100
AcDbBlockTableRecord
2
_CLOSED
340
0
70
0
0
BLOCK_RECORD
5
230
100
AcDbSymbolTableRecord
100
AcDbBlockTableRecord
2
DimnDraft3D3
340
0
70
0
0
BLOCK_RECORD
5
23F
100
AcDbSymbolTableRecord
100
AcDbBlockTableRecord
2
DimnDraft3D4
340
0
70
0
0
ENDTAB
0
ENDSEC
0
SECTION
2
BLOCKS
0
BLOCK
5
20
100
AcDbEntity
8
0
100
AcDbBlockBegin
2
*Model_Space
70
0
10
0
20
0
30
0
3
*Model_Space
0
ENDBLK
5
21
100
AcDbEntity
8
0
100
AcDbBlockEnd
0
BLOCK
5
1C
100
AcDbEntity
8
0
100
AcDbBlockBegin
2
*Paper_Space
70
0
10
0
20
0
30
0
3
*Paper_Space
0
ENDBLK
5
1D
100
AcDbEntity
8
0
100
AcDbBlockEnd
0
BLOCK
5
24
100
AcDbEntity
8
0
100
AcDbBlockBegin
2
*Paper_Space0
70
0
10
0
20
0
30
0
3
*Paper_Space0
0
ENDBLK
5
25
100
AcDbEntity
8
0
100
AcDbBlockEnd
0
BLOCK
5
20E
100
AcDbEntity
8
0
100
AcDbBlockBegin
2
DimnDraft3D11
70
0
10
0
20
0
30
0
3
DimnDraft3D11
0
LINE
5
210
100
AcDbEntity
8
2
62
256
6
ByLayer
370
25
48
1
60
0
100
AcDbLine
10
65
20
47
30
0
11
65
21
75.75
31
0
39
0
210
0
220
0
230
1
0
LINE
5
211
100
AcDbEntity
8
2
62
256
6
ByLayer
370
25
48
1
60
0
100
AcDbLine
10
0
20
33.5
30
0
11
0
21
75.75
31
0
39
0
210
0
220
0
230
1
0
LINE
5
212
100
AcDbEntity
8
2
62
256
6
ByLayer
370
25
48
1
60
0
100
AcDbLine
10
65
20
73.75
30
0
11
0
21
73.75
31
0
39
0
210
0
220
0
230
1
0
LINE
5
213
100
AcDbEntity
8
2
62
256
6
ByLayer
370
25
48
1
60
0
100
AcDbLine
10
65
20
73.75
30
0
11
61.825002
21
73.332003
31
0
39
0
210
0
220
0
230
1
0
LINE
5
214
100
AcDbEntity
8
2
62
256
6
ByLayer
370
25
48
1
60
0
100
AcDbLine
10
65
20
73.75
30
0
11
61.824998
21
74.167997
31
0
39
0
210
0
220
0
230
1
0
LINE
5
215
100
AcDbEntity
8
2
62
256
6
ByLayer
370
25
48
1
60
0
100
AcDbLine
10
61.825002
20
73.332003
30
0
11
61.824998
21
74.167997
31
0
39
0
210
0
220
0
230
1
0
LINE
5
216
100
AcDbEntity
8
2
62
256
6
ByLayer
370
25
48
1
60
0
100
AcDbLine
10
0
20
73.75
30
0
11
3.174998
21
74.167997
31
0
39
0
210
0
220
0
230
1
0
LINE
5
217
100
AcDbEntity
8
2
62
256
6
ByLayer
370
25
48
1
60
0
100
AcDbLine
10
0
20
73.75
30
0
11
3.175002
21
73.332003
31
0
39
0
210
0
220
0
230
1
0
LINE
5
218
100
AcDbEntity
8
2
62
256
6
ByLayer
370
25
48
1
60
0
100
AcDbLine
10
3.174998
20
74.167997
30
0
11
3.175002
21
73.332003
31
0
39
0
210
0
220
0
230
1
0
MTEXT
5
219
100
AcDbEntity
8
2
62
256
6
ByLayer
370
18
48
1
60
0
100
AcDbMText
10
28.343421
20
74.875
30
0
210
0
220
0
230
1
1
\W0.7346;65.0
40
4.5
41
0
44
1.084337
50
0
71
7
72
5
7
iso_b_vert
0
ENDBLK
5
20F
100
AcDbEntity
8
0
100
AcDbBlockEnd
0
BLOCK
5
226
100
AcDbEntity
8
0
100
AcDbBlockBegin
2
DimnDraft3D2
70
0
10
0
20
0
30
0
3
DimnDraft3D2
0
MTEXT
5
21C
100
AcDbEntity
8
2
62
256
6
ByLayer
370
18
48
1
60
0
100
AcDbMText
10
53.150642
20
52.263071
30
0
210
0
220
0
230
1
1
\W0.7399;93%%d
40
4.5
41
0
44
1.084337
50
46.4999999999996
71
7
72
5
7
iso_b_vert
0
LINE
5
21D
100
AcDbEntity
8
2
62
256
6
ByLayer
370
13
48
1
60
0
100
AcDbLine
10
65
20
47
30
0
11
65
21
59.483093
31
0
39
0
210
0
220
0
230
1
0
LINE
5
21E
100
AcDbEntity
8
2
62
256
6
ByLayer
370
13
48
1
60
0
100
AcDbLine
10
61.16882
20
44.841904
30
0
11
50.579385
21
44.286936
31
0
39
0
210
0
220
0
230
1
0
ARC
5
21F
100
AcDbEntity
8
2
62
256
6
ByLayer
370
13
48
1
60
0
100
AcDbCircle
39
0
10
65
20
45.042688
30
0
40
12.440404683847
210
0
220
0
230
1
100
AcDbArc
50
90
51
183
0
LINE
5
220
100
AcDbEntity
8
2
62
256
6
ByLayer
370
13
48
1
60
0
100
AcDbLine
10
65
20
57.483093
30
0
11
61.857902
21
56.864583
31
0
39
0
210
0
220
0
230
1
0
LINE
5
221
100
AcDbEntity
8
2
62
256
6
ByLayer
370
13
48
1
60
0
100
AcDbLine
10
65
20
57.483093
30
0
11
61.804881
21
57.698894
31
0
39
0
210
0
220
0
230
1
0
LINE
5
222
100
AcDbEntity
8
2
62
256
6
ByLayer
370
13
48
1
60
0
100
AcDbLine
10
61.857902
20
56.864583
30
0
11
61.804881
21
57.698894
31
0
39
0
210
0
220
0
230
1
0
LINE
5
223
100
AcDbEntity
8
2
62
256
6
ByLayer
370
13
48
1
60
0
100
AcDbLine
10
52.576644
20
44.391607
30
0
11
52.19392
21
47.571051
31
0
39
0
210
0
220
0
230
1
0
LINE
5
224
100
AcDbEntity
8
2
62
256
6
ByLayer
370
13
48
1
60
0
100
AcDbLine
10
52.576644
20
44.391607
30
0
11
53.029861
21
47.561773
31
0
39
0
210
0
220
0
230
1
0
LINE
5
225
100
AcDbEntity
8
2
62
256
6
ByLayer
370
13
48
1
60
0
100
AcDbLine
10
52.19392
20
47.571051
30
0
11
53.029861
21
47.561773
31
0
39
0
210
0
220
0
230
1
0
ENDBLK
5
227
100
AcDbEntity
8
0
100
AcDbBlockEnd
0
BLOCK
5
22A
100
AcDbEntity
8
0
100
AcDbBlockBegin
2
_CLOSED
70
0
10
0
20
0
30
0
3
_CLOSED
0
LINE
5
22C
100
AcDbEntity
8
0
62
256
6
ByLayer
370
-2
48
1
60
0
100
AcDbLine
10
-1
20
0.166667
30
0
11
0
21
0
31
0
39
0
210
0
220
0
230
1
0
LINE
5
22D
100
AcDbEntity
8
0
62
256
6
ByLayer
370
-2
48
1
60
0
100
AcDbLine
10
0
20
0
30
0
11
-1
21
-0.166667
31
0
39
0
210
0
220
0
230
1
0
LINE
5
22E
100
AcDbEntity
8
0
62
256
6
ByLayer
370
-2
48
1
60
0
100
AcDbLine
10
-1
20
0.166667
30
0
11
-1
21
-0.166667
31
0
39
0
210
0
220
0
230
1
0
LINE
5
22F
100
AcDbEntity
8
0
62
256
6
ByLayer
370
-2
48
1
60
0
100
AcDbLine
10
0
20
0
30
0
11
-1
21
0
31
0
39
0
210
0
220
0
230
1
0
ENDBLK
5
22B
100
AcDbEntity
8
0
100
AcDbBlockEnd
0
BLOCK
5
23C
100
AcDbEntity
8
0
100
AcDbBlockBegin
2
DimnDraft3D3
70
0
10
0
20
0
30
0
3
DimnDraft3D3
0
MTEXT
5
231
100
AcDbEntity
8
SK2
62
256
6
ByLayer
370
18
48
1
60
0
100
AcDbMText
10
-46.875
20
-1.563158
30
0
210
0
220
0
230
1
1
\W0.6740;63
40
4.5
41
0
44
1.084337
50
90
71
7
72
5
7
iso_b_vert
0
LINE
5
233
100
AcDbEntity
8
SK2
62
256
6
ByLayer
370
13
48
1
60
0
100
AcDbLine
10
-2
20
-31.5
30
0
11
-47.75
21
-31.5
31
0
39
0
210
0
220
0
230
1
0
LINE
5
234
100
AcDbEntity
8
SK2
62
256
6
ByLayer
370
13
48
1
60
0
100
AcDbLine
10
-2
20
31.5
30
0
11
-47.75
21
31.5
31
0
39
0
210
0
220
0
230
1
0
LINE
5
235
100
AcDbEntity
8
SK2
62
256
6
ByLayer
370
13
48
1
60
0
100
AcDbLine
10
-45.75
20
-31.5
30
0
11
-45.75
21
31.5
31
0
39
0
210
0
220
0
230
1
0
LINE
5
236
100
AcDbEntity
8
SK2
62
256
6
ByLayer
370
13
48
1
60
0
100
AcDbLine
10
-45.75
20
-31.5
30
0
11
-46.167997
21
-28.325002
31
0
39
0
210
0
220
0
230
1
0
LINE
5
237
100
AcDbEntity
8
SK2
62
256
6
ByLayer
370
13
48
1
60
0
100
AcDbLine
10
-45.75
20
-31.5
30
0
11
-45.332003
21
-28.324998
31
0
39
0
210
0
220
0
230
1
0
LINE
5
238
100
AcDbEntity
8
SK2
62
256
6
ByLayer
370
13
48
1
60
0
100
AcDbLine
10
-46.167997
20
-28.325002
30
0
11
-45.332003
21
-28.324998
31
0
39
0
210
0
220
0
230
1
0
LINE
5
239
100
AcDbEntity
8
SK2
62
256
6
ByLayer
370
13
48
1
60
0
100
AcDbLine
10
-45.75
20
31.5
30
0
11
-45.332003
21
28.325002
31
0
39
0
210
0
220
0
230
1
0
LINE
5
23A
100
AcDbEntity
8
SK2
62
256
6
ByLayer
370
13
48
1
60
0
100
AcDbLine
10
-45.75
20
31.5
30
0
11
-46.167997
21
28.324998
31
0
39
0
210
0
220
0
230
1
0
LINE
5
23B
100
AcDbEntity
8
SK2
62
256
6
ByLayer
370
13
48
1
60
0
100
AcDbLine
10
-45.332003
20
28.325002
30
0
11
-46.167997
21
28.324998
31
0
39
0
210
0
220
0
230
1
0
ENDBLK
5
23D
100
AcDbEntity
8
0
100
AcDbBlockEnd
0
BLOCK
5
24A
100
AcDbEntity
8
0
100
AcDbBlockBegin
2
DimnDraft3D4
70
0
10
0
20
0
30
0
3
DimnDraft3D4
0
MTEXT
5
240
100
AcDbEntity
8
2
62
256
6
ByLayer
370
18
48
1
60
0
100
AcDbMText
10
86.125
20
18.106579
30
0
210
0
220
0
230
1
1
\W0.7640;45.0
40
4.5
41
0
44
1.084337
50
90
71
7
72
5
7
iso_b_vert
0
LINE
5
241
100
AcDbEntity
8
2
62
256
6
ByLayer
370
13
48
1
60
0
100
AcDbLine
10
67
20
0
30
0
11
89.25
21
0
31
0
39
0
210
0
220
0
230
1
0
LINE
5
242
100
AcDbEntity
8
2
62
256
6
ByLayer
370
13
48
1
60
0
100
AcDbLine
10
67
20
45
30
0
11
89.25
21
45
31
0
39
0
210
0
220
0
230
1
0
LINE
5
243
100
AcDbEntity
8
2
62
256
6
ByLayer
370
13
48
1
60
0
100
AcDbLine
10
87.25
20
0
30
0
11
87.25
21
45
31
0
39
0
210
0
220
0
230
1
0
LINE
5
244
100
AcDbEntity
8
2
62
256
6
ByLayer
370
13
48
1
60
0
100
AcDbLine
10
87.25
20
0
30
0
11
86.832003
21
3.174998
31
0
39
0
210
0
220
0
230
1
0
LINE
5
245
100
AcDbEntity
8
2
62
256
6
ByLayer
370
13
48
1
60
0
100
AcDbLine
10
87.25
20
0
30
0
11
87.667997
21
3.175002
31
0
39
0
210
0
220
0
230
1
0
LINE
5
246
100
AcDbEntity
8
2
62
256
6
ByLayer
370
13
48
1
60
0
100
AcDbLine
10
86.832003
20
3.174998
30
0
11
87.667997
21
3.175002
31
0
39
0
210
0
220
0
230
1
0
LINE
5
247
100
AcDbEntity
8
2
62
256
6
ByLayer
370
13
48
1
60
0
100
AcDbLine
10
87.25
20
45
30
0
11
87.667997
21
41.825002
31
0
39
0
210
0
220
0
230
1
0
LINE
5
248
100
AcDbEntity
8
2
62
256
6
ByLayer
370
13
48
1
60
0
100
AcDbLine
10
87.25
20
45
30
0
11
86.832003
21
41.824998
31
0
39
0
210
0
220
0
230
1
0
LINE
5
249
100
AcDbEntity
8
2
62
256
6
ByLayer
370
13
48
1
60
0
100
AcDbLine
10
87.667997
20
41.825002
30
0
11
86.832003
21
41.824998
31
0
39
0
210
0
220
0
230
1
0
ENDBLK
5
24B
100
AcDbEntity
8
0
100
AcDbBlockEnd
0
ENDSEC
0
SECTION
2
ENTITIES
0
ARC
5
120
100
AcDbEntity
8
SK1
62
256
6
ByLayer
370
18
48
1
60
0
100
AcDbCircle
39
0
10
0.6
20
-23.45
30
0
40
0.999999999999999
210
0
220
0
230
-1
100
AcDbArc
50
113.578178
51
126.869898
0
ARC
5
121
100
AcDbEntity
8
SK1
62
256
6
ByLayer
370
18
48
1
60
0
100
AcDbCircle
39
0
10
0.6
20
23.45
30
0
40
0.999999999999999
210
0
220
0
230
-1
100
AcDbArc
50
233.130102
51
246.421822
0
ELLIPSE
5
122
100
AcDbEntity
8
1
62
256
6
ByLayer
370
18
48
1
60
0
100
AcDbEllipse
10
-2.347154
20
0
30
0
11
-14.7536831606548
21
31.0932549155792
31
0
210
0
220
0
230
1
40
0.341999
41
-2.98378646694435
42
-2.05035306783692
0
ELLIPSE
5
123
100
AcDbEntity
8
1
62
256
6
ByLayer
370
18
48
1
60
0
100
AcDbEllipse
10
32.570291
20
24.419692
30
0
11
-5.49637707604214
21
-1.10563046684237
31
0
210
0
220
0
230
1
40
0.710897
41
2.46808781437281
42
-3.12541268684198
0
ELLIPSE
5
124
100
AcDbEntity
8
1
62
256
6
ByLayer
370
18
48
1
60
0
100
AcDbEllipse
10
12
20
-18.185217
30
0
11
-1.87686272356242
21
2.86780973811654
31
0
210
0
220
0
230
1
40
0.240927
41
-3.11536358140556
42
-2.46235164835362
0
ELLIPSE
5
125
100
AcDbEntity
8
1
62
256
6
ByLayer
370
18
48
1
60
0
100
AcDbEllipse
10
19.640695
20
-12.96521
30
0
11
-0.0107660334581978
21
2.82966792465419
31
0
210
0
220
0
230
1
40
0.065127
41
2.93476748140937
42
-1.77762149897531
0
ELLIPSE
5
126
100
AcDbEntity
8
1
62
256
6
ByLayer
370
18
48
1
60
0
100
AcDbEllipse
10
12
20
-20.403367
30
0
11
-2.00000000000004
21
2.02127811016477E-15
31
0
210
0
220
0
230
1
40
0.707538
41
0.751504621492329
42
2.39008803209746
0
ELLIPSE
5
127
100
AcDbEntity
8
1
62
256
6
ByLayer
370
18
48
1
60
0
100
AcDbEllipse
10
20.755893
20
0
30
0
11
1.92875500727024E-15
21
31.5
31
0
210
0
220
0
230
1
40
0.087489
41
0.311401384074102
42
2.6762114018791
0
ELLIPSE
5
128
100
AcDbEntity
8
1
62
256
6
ByLayer
370
18
48
1
60
0
100
AcDbEllipse
10
19.381116
20
-12.140001
30
0
11
-0.0107660334581697
21
2.82966792465472
31
0
210
0
220
0
230
1
40
0.065127
41
1.36397115461468
42
2.93476748140931
0
ELLIPSE
5
129
100
AcDbEntity
8
1
62
256
6
ByLayer
370
18
48
1
60
0
100
AcDbEllipse
10
44.319852
20
29.860033
30
0
11
1.65314319602559
21
-1.69677243339753
31
0
210
0
220
0
230
1
40
0.987534
41
-1.6924786934658
42
-1.3246667515184
0
ELLIPSE
5
12A
100
AcDbEntity
8
1
62
256
6
ByLayer
370
18
48
1
60
0
100
AcDbEllipse
10
44.574596
20
29.702005
30
0
11
1.65314319602559
21
-1.69677243339753
31
0
210
0
220
0
230
1
40
0.987534
41
-1.32466675151838
42
0.2461295752765
0
ELLIPSE
5
12B
100
AcDbEntity
8
1
62
256
6
ByLayer
370
18
48
1
60
0
100
AcDbEllipse
10
12
20
-20.403367
30
0
11
-1.99999999999995
21
2.02127811016468E-15
31
0
210
0
220
0
230
1
40
0.707538
41
-2.3900880320975
42
-0.751504621492278
0
ELLIPSE
5
12C
100
AcDbEntity
8
1
62
256
6
ByLayer
370
18
48
1
60
0
100
AcDbEllipse
10
12
20
-18.185217
30
0
11
-1.87686272356697
21
-2.86780973812225
31
0
210
0
220
0
230
1
40
0.240927
41
-0.679241005235342
42
-0.0262290721842159
0
ELLIPSE
5
12D
100
AcDbEntity
8
1
62
256
6
ByLayer
370
18
48
1
60
0
100
AcDbEllipse
10
26.347154
20
0
30
0
11
-14.7536831606553
21
-31.0932549155799
31
0
210
0
220
0
230
1
40
0.341999
41
-1.09123958575286
42
-0.157806186645435
0
ELLIPSE
5
12E
100
AcDbEntity
8
1
62
256
6
ByLayer
370
18
48
1
60
0
100
AcDbEllipse
10
12
20
-19.981782
30
0
11
-1.64999999999999
21
2.02060048380691E-16
31
0
210
0
220
0
230
1
40
0.681998
41
-0.539372507029148
42
0
0
ELLIPSE
5
12F
100
AcDbEntity
8
1
62
256
6
ByLayer
370
18
48
1
60
0
100
AcDbEllipse
10
12
20
-19.981782
30
0
11
-1.64999999999999
21
2.02060048380691E-16
31
0
210
0
220
0
230
1
40
0.681998
41
0
42
1.57079606964742
0
ELLIPSE
5
130
100
AcDbEntity
8
1
62
256
6
ByLayer
370
18
48
1
60
0
100
AcDbEllipse
10
12
20
-19.981782
30
0
11
-1.64999999999999
21
2.02060048380691E-16
31
0
210
0
220
0
230
1
40
0.681998
41
1.57079649217664
42
-2.60222026442106
0
ELLIPSE
5
131
100
AcDbEntity
8
1
62
256
6
ByLayer
370
18
48
1
60
0
100
AcDbEllipse
10
26.347154
20
0
30
0
11
-14.7536831606555
21
31.0932549155802
31
0
210
0
220
0
230
1
40
0.341999
41
0.157806186645435
42
1.09123958575285
0
ELLIPSE
5
132
100
AcDbEntity
8
1
62
256
6
ByLayer
370
18
48
1
60
0
100
AcDbEllipse
10
24.525473
20
70.381756
30
0
11
-6.64644222755119E-15
21
-36.1827412637842
31
0
210
0
220
0
230
1
40
0.11055
41
-0.156747552555783
42
-0.112984309937162
0
ELLIPSE
5
133
100
AcDbEntity
8
1
62
256
6
ByLayer
370
18
48
1
60
0
100
AcDbEllipse
10
12
20
-19.981782
30
0
11
-1.99999999999999
21
2.44921270764474E-16
31
0
210
0
220
0
230
1
40
0.681998
41
0.241608078834302
42
1.57079618914633
0
ELLIPSE
5
134
100
AcDbEntity
8
1
62
256
6
ByLayer
370
18
48
1
60
0
100
AcDbEllipse
10
12
20
-19.981782
30
0
11
-1.99999999999999
21
2.44921270764474E-16
31
0
210
0
220
0
230
1
40
0.681998
41
1.57079618914633
42
2.89998418375822
0
ELLIPSE
5
135
100
AcDbEntity
8
1
62
256
6
ByLayer
370
18
48
1
60
0
100
AcDbEllipse
10
-2.347154
20
0
30
0
11
-14.7536831606537
21
-31.0932549155779
31
0
210
0
220
0
230
1
40
0.341999
41
2.05035306783689
42
2.98378646694435
0
ELLIPSE
5
136
100
AcDbEntity
8
1
62
256
6
ByLayer
370
18
48
1
60
0
100
AcDbEllipse
10
9.658656
20
-19.168867
30
0
11
-1.64324839203876
21
1.46278321089012
31
0
210
0
220
0
230
1
40
0.147927
41
-2.62131217512958
42
-1.97123251968303
0
ELLIPSE
5
137
100
AcDbEntity
8
1
62
256
6
ByLayer
370
18
48
1
60
0
100
AcDbEllipse
10
22.613109
20
-4.616209
30
0
11
1.64324839203875
21
-1.46278321089013
31
0
210
0
220
0
230
1
40
0.147927
41
5.96557239037373E-06
42
3.14159042467961
0
ELLIPSE
5
138
100
AcDbEntity
8
1
62
256
6
ByLayer
370
18
48
1
60
0
100
AcDbEllipse
10
12
20
-16.538669
30
0
11
-0.976998250139518
21
-3.76111415131
31
0
210
0
220
0
230
1
40
0.377339
41
0.114825115478161
42
0.174466243749789
0
ELLIPSE
5
139
100
AcDbEntity
8
1
62
256
6
ByLayer
370
18
48
1
60
0
100
AcDbEllipse
10
22.777505
20
-4.431531
30
0
11
-1.45651562021618
21
1.29655784601625
31
0
210
0
220
0
230
1
40
0.147927
41
-2.99141778345441
42
-0.150205815810155
0
ELLIPSE
5
13A
100
AcDbEntity
8
1
62
256
6
ByLayer
370
18
48
1
60
0
100
AcDbEllipse
10
41.867716
20
36.953632
30
0
11
0.296581257676345
21
-0.304408537322983
31
0
210
0
220
0
230
1
40
0.987534
41
-2.49779160083167
42
-0.710047262843262
0
ELLIPSE
5
13B
100
AcDbEntity
8
1
62
256
6
ByLayer
370
18
48
1
60
0
100
AcDbEllipse
10
39.743384
20
35.883347
30
0
11
-0.265178536275319
21
0.272177045135845
31
0
210
0
220
0
230
1
40
0.987534
41
-0.403396498438467
42
2.43154539074649
0
ELLIPSE
5
13C
100
AcDbEntity
8
1
62
256
6
ByLayer
370
18
48
1
60
0
100
AcDbEllipse
10
40.611818
20
37.689573
30
0
11
0.296581257676345
21
-0.304408537322983
31
0
210
0
220
0
230
1
40
0.987534
41
-1.4505940496351
42
-0.732357599189311
0
ELLIPSE
5
13D
100
AcDbEntity
8
1
62
256
6
ByLayer
370
18
48
1
60
0
100
AcDbEllipse
10
40.862075
20
36.047417
30
0
11
-2.79135301342441
21
2.86502152774573
31
0
210
0
220
0
230
1
40
0.987534
41
0
42
6.28318530717959
0
ELLIPSE
5
13E
100
AcDbEntity
8
1
62
256
6
ByLayer
370
18
48
1
60
0
100
AcDbEllipse
10
40.9598
20
36.14263
30
0
11
-1.60502798271903
21
1.64738737845379
31
0
210
0
220
0
230
1
40
0.987534
41
0
42
6.28318530717959
0
ELLIPSE
5
13F
100
AcDbEntity
8
1
62
256
6
ByLayer
370
18
48
1
60
0
100
AcDbEllipse
10
42.12139
20
37.200784
30
0
11
0.296581257676345
21
-0.304408537322983
31
0
210
0
220
0
230
1
40
0.987534
41
-1.42828371328901
42
-0.710047262843262
0
ELLIPSE
5
140
100
AcDbEntity
8
1
62
256
6
ByLayer
370
18
48
1
60
0
100
AcDbEllipse
10
39.798211
20
35.084475
30
0
11
0.296581257676345
21
-0.304408537322983
31
0
210
0
220
0
230
1
40
0.987534
41
0.643801052758167
42
1.36203750320389
0
ELLIPSE
5
141
100
AcDbEntity
8
1
62
256
6
ByLayer
370
18
48
1
60
0
100
AcDbEllipse
10
39.860217
20
36.822527
30
0
11
-0.265178536275319
21
0.272177045135845
31
0
210
0
220
0
230
1
40
0.987534
41
-1.450594049635
42
-0.491408143513454
0
ELLIPSE
5
142
100
AcDbEntity
8
1
62
256
6
ByLayer
370
18
48
1
60
0
100
AcDbEllipse
10
40.610294
20
35.80211
30
0
11
0.802513991359521
21
-0.823693689226894
31
0
210
0
220
0
230
1
40
0.987534
41
0.0589321786421822
42
3.06897028004885
0
ELLIPSE
5
143
100
AcDbEntity
8
1
62
256
6
ByLayer
370
18
48
1
60
0
100
AcDbEllipse
10
40.589293
20
34.956298
30
0
11
-0.265178536275319
21
0.272177045135845
31
0
210
0
220
0
230
1
40
0.987534
41
0.643801052758138
42
-2.80444236523647
0
ELLIPSE
5
144
100
AcDbEntity
8
1
62
256
6
ByLayer
370
18
48
1
60
0
100
AcDbEllipse
10
39.450229
20
36.631419
30
0
11
0.296581257676345
21
-0.304408537322983
31
0
210
0
220
0
230
1
40
0.987534
41
-0.403396498438432
42
0.314839952007311
0
ELLIPSE
5
145
100
AcDbEntity
8
1
62
256
6
ByLayer
370
18
48
1
60
0
100
AcDbEllipse
10
42.469372
20
35.653841
30
0
11
0.296581257676345
21
-0.304408537322983
31
0
210
0
220
0
230
1
40
0.987534
41
2.73819615515135
42
-2.8267527015825
0
ELLIPSE
5
146
100
AcDbEntity
8
1
62
256
6
ByLayer
370
18
48
1
60
0
100
AcDbEllipse
10
40.113892
20
37.069679
30
0
11
-0.265178536275319
21
0.272177045135845
31
0
210
0
220
0
230
1
40
0.987534
41
-1.45059404963506
42
1.38434783954996
0
ELLIPSE
5
147
100
AcDbEntity
8
1
62
256
6
ByLayer
370
18
48
1
60
0
100
AcDbEllipse
10
42.12139
20
37.200784
30
0
11
0.296581257676345
21
-0.304408537322983
31
0
210
0
220
0
230
1
40
0.987534
41
-2.49779160083165
42
-1.7795551503859
0
ELLIPSE
5
148
100
AcDbEntity
8
1
62
256
6
ByLayer
370
18
48
1
60
0
100
AcDbEllipse
10
41.076634
20
37.08181
30
0
11
-0.265178536275319
21
0.272177045135845
31
0
210
0
220
0
230
1
40
0.987534
41
-2.49779160083166
42
-0.455261491284173
0
ELLIPSE
5
149
100
AcDbEntity
8
1
62
256
6
ByLayer
370
18
48
1
60
0
100
AcDbEllipse
10
42.215698
20
35.406689
30
0
11
0.296581257676345
21
-0.304408537322983
31
0
210
0
220
0
230
1
40
0.987534
41
-3.14157244993314
42
-1.75724481403989
0
ELLIPSE
5
14A
100
AcDbEntity
8
1
62
256
6
ByLayer
370
18
48
1
60
0
100
AcDbEllipse
10
40.587745
20
35.780141
30
0
11
2.79135301342442
21
-2.86502152774572
31
0
210
0
220
0
230
1
40
0.987534
41
3.14152162621429
42
-0.778646137219359
0
ELLIPSE
5
14B
100
AcDbEntity
8
1
62
256
6
ByLayer
370
18
48
1
60
0
100
AcDbEllipse
10
40.587745
20
35.780141
30
0
11
2.79135301342442
21
-2.86502152774572
31
0
210
0
220
0
230
1
40
0.987534
41
-0.368226324105858
42
0
0
ELLIPSE
5
14C
100
AcDbEntity
8
1
62
256
6
ByLayer
370
18
48
1
60
0
100
AcDbEllipse
10
40.587745
20
35.780141
30
0
11
2.79135301342442
21
-2.86502152774572
31
0
210
0
220
0
230
1
40
0.987534
41
-0.778645885634937
42
-0.773197135605382
0
ELLIPSE
5
14D
100
AcDbEntity
8
1
62
256
6
ByLayer
370
18
48
1
60
0
100
AcDbEllipse
10
40.9598
20
36.14263
30
0
11
0.819959947693424
21
-0.841600073775305
31
0
210
0
220
0
230
1
40
0.987534
41
-0.619965732339561
42
-0.493478028942166
0
ELLIPSE
5
14E
100
AcDbEntity
8
1
62
256
6
ByLayer
370
18
48
1
60
0
100
AcDbEllipse
10
40.9598
20
36.14263
30
0
11
0.819959947693424
21
-0.841600073775305
31
0
210
0
220
0
230
1
40
0.987534
41
1.47442937005363
42
1.60091707345103
0
ELLIPSE
5
14F
100
AcDbEntity
8
1
62
256
6
ByLayer
370
18
48
1
60
0
100
AcDbEllipse
10
40.706126
20
35.895478
30
0
11
0.802513991359521
21
-0.823693689226894
31
0
210
0
220
0
230
1
40
0.987534
41
-1.21429663963752
42
-0.778646487249863
0
ELLIPSE
5
150
100
AcDbEntity
8
1
62
256
6
ByLayer
370
18
48
1
60
0
100
AcDbEllipse
10
40.706126
20
35.895478
30
0
11
0.802513991359521
21
-0.823693689226894
31
0
210
0
220
0
230
1
40
0.987534
41
-2.58854668707934
42
-2.0064681052557
0
ELLIPSE
5
151
100
AcDbEntity
8
1
62
256
6
ByLayer
370
18
48
1
60
0
100
AcDbEllipse
10
40.706126
20
35.895478
30
0
11
0.802513991359521
21
-0.823693689226894
31
0
210
0
220
0
230
1
40
0.987534
41
-0.0961840397393287
42
0
0
ELLIPSE
5
152
100
AcDbEntity
8
1
62
256
6
ByLayer
370
18
48
1
60
0
100
AcDbEllipse
10
40.706126
20
35.895478
30
0
11
0.802513991359521
21
-0.823693689226894
31
0
210
0
220
0
230
1
40
0.987534
41
0
42
-3.08266019789669
0
ELLIPSE
5
153
100
AcDbEntity
8
1
62
256
6
ByLayer
370
18
48
1
60
0
100
AcDbEllipse
10
40.706126
20
35.895478
30
0
11
0.802513991359521
21
-0.823693689226894
31
0
210
0
220
0
230
1
40
0.987534
41
-0.778645612173612
42
-0.634966971337274
0
ELLIPSE
5
154
100
AcDbEntity
8
1
62
256
6
ByLayer
370
18
48
1
60
0
100
AcDbEllipse
10
40.9598
20
36.14263
30
0
11
0.819959947693424
21
-0.841600073775305
31
0
210
0
220
0
230
1
40
0.987534
41
-2.71436083473276
42
-2.58787313133536
0
ELLIPSE
5
155
100
AcDbEntity
8
1
62
256
6
ByLayer
370
18
48
1
60
0
100
AcDbEllipse
10
39.196555
20
36.384267
30
0
11
0.296581257676345
21
-0.304408537322983
31
0
210
0
220
0
230
1
40
0.987534
41
-0.318981273367241
42
2.02036566692946E-05
0
ELLIPSE
5
156
100
AcDbEntity
8
1
62
256
6
ByLayer
370
18
48
1
60
0
100
AcDbEllipse
10
41.330308
20
37.328961
30
0
11
-0.265178536275319
21
0.272177045135845
31
0
210
0
220
0
230
1
40
0.987534
41
-2.49779160083163
42
0.337150288353281
0
ELLIPSE
5
157
100
AcDbEntity
8
1
62
256
6
ByLayer
370
18
48
1
60
0
100
AcDbEllipse
10
39.798211
20
35.084475
30
0
11
0.296581257676345
21
-0.304408537322983
31
0
210
0
220
0
230
1
40
0.987534
41
1.7133089403008
42
2.43154539074656
0
ELLIPSE
5
158
100
AcDbEntity
8
1
62
256
6
ByLayer
370
18
48
1
60
0
100
AcDbEllipse
10
40.9598
20
36.14263
30
0
11
0.819959947693424
21
-0.841600073775305
31
0
210
0
220
0
230
1
40
0.987534
41
0.427231818857037
42
0.553719522254416
0
ELLIPSE
5
159
100
AcDbEntity
8
1
62
256
6
ByLayer
370
18
48
1
60
0
100
AcDbEllipse
10
41.307782
20
34.595686
30
0
11
0.296581257676345
21
-0.304408537322983
31
0
210
0
220
0
230
1
40
0.987534
41
2.76050649149737
42
-2.8044423652365
0
ELLIPSE
5
15A
100
AcDbEntity
8
1
62
256
6
ByLayer
370
18
48
1
60
0
100
AcDbEllipse
10
40.611818
20
37.689573
30
0
11
0.296581257676345
21
-0.304408537322983
31
0
210
0
220
0
230
1
40
0.987534
41
-0.381086162092453
42
0.337150288353332
0
ELLIPSE
5
15B
100
AcDbEntity
8
1
62
256
6
ByLayer
370
18
48
1
60
0
100
AcDbEllipse
10
41.054108
20
34.348535
30
0
11
0.296581257676345
21
-0.304408537322983
31
0
210
0
220
0
230
1
40
0.987534
41
3.14158584376968
42
-2.96486386761355
0
ELLIPSE
5
15C
100
AcDbEntity
8
1
62
256
6
ByLayer
370
18
48
1
60
0
100
AcDbEllipse
10
39.450229
20
36.631419
30
0
11
0.296581257676345
21
-0.304408537322983
31
0
210
0
220
0
230
1
40
0.987534
41
0.666111389104225
42
1.38434783954995
0
ELLIPSE
5
15D
100
AcDbEntity
8
1
62
256
6
ByLayer
370
18
48
1
60
0
100
AcDbEllipse
10
41.805709
20
35.21558
30
0
11
-0.265178536275319
21
0.272177045135845
31
0
210
0
220
0
230
1
40
0.987534
41
1.69099860395473
42
-1.75724481403986
0
ELLIPSE
5
15E
100
AcDbEntity
8
1
62
256
6
ByLayer
370
18
48
1
60
0
100
AcDbEllipse
10
41.552035
20
34.968429
30
0
11
-0.265178536275319
21
0.272177045135845
31
0
210
0
220
0
230
1
40
0.987534
41
-2.64431519716665
42
-1.75724481403983
0
ELLIPSE
5
15F
100
AcDbEntity
8
1
62
256
6
ByLayer
370
18
48
1
60
0
100
AcDbEllipse
10
41.922543
20
36.154761
30
0
11
-0.265178536275319
21
0.272177045135845
31
0
210
0
220
0
230
1
40
0.987534
41
-2.66026584144792
42
-0.710047262843277
0
ELLIPSE
5
160
100
AcDbEntity
8
1
62
256
6
ByLayer
370
18
48
1
60
0
100
AcDbEllipse
10
42.176217
20
36.401912
30
0
11
-0.265178536275319
21
0.272177045135845
31
0
210
0
220
0
230
1
40
0.987534
41
2.73819615515134
42
-0.710047262843265
0
ELLIPSE
5
161
100
AcDbEntity
8
1
62
256
6
ByLayer
370
18
48
1
60
0
100
AcDbEllipse
10
41.307782
20
34.595686
30
0
11
0.296581257676345
21
-0.304408537322983
31
0
210
0
220
0
230
1
40
0.987534
41
1.69099860395473
42
2.40923505440051
0
ELLIPSE
5
162
100
AcDbEntity
8
1
62
256
6
ByLayer
370
18
48
1
60
0
100
AcDbEllipse
10
42.469372
20
35.653841
30
0
11
0.296581257676345
21
-0.304408537322983
31
0
210
0
220
0
230
1
40
0.987534
41
-2.47548126448568
42
-1.75724481403988
0
ELLIPSE
5
163
100
AcDbEntity
8
1
62
256
6
ByLayer
370
18
48
1
60
0
100
AcDbEllipse
10
40.9598
20
36.14263
30
0
11
0.819959947693424
21
-0.841600073775305
31
0
210
0
220
0
230
1
40
0.987534
41
-1.66716328353617
42
-1.54067558013876
0
ELLIPSE
5
164
100
AcDbEntity
8
1
62
256
6
ByLayer
370
18
48
1
60
0
100
AcDbEllipse
10
40.358144
20
37.442421
30
0
11
0.296581257676345
21
-0.304408537322983
31
0
210
0
220
0
230
1
40
0.987534
41
-1.45059404963506
42
-6.81496147787582E-06
0
ELLIPSE
5
165
100
AcDbEntity
8
1
62
256
6
ByLayer
370
18
48
1
60
0
100
AcDbEllipse
10
40.9598
20
36.14263
30
0
11
0.819959947693424
21
-0.841600073775305
31
0
210
0
220
0
230
1
40
0.987534
41
2.52162692125023
42
2.64811462464763
0
ELLIPSE
5
166
100
AcDbEntity
8
1
62
256
6
ByLayer
370
18
48
1
60
0
100
AcDbEllipse
10
53.255298
20
34.580681
30
0
11
-0.874174793418518
21
-0.639360654028292
31
0
210
0
220
0
230
1
40
0.269943
41
0.795829369506532
42
1.31942814512812
0
ELLIPSE
5
167
100
AcDbEntity
8
1
62
256
6
ByLayer
370
18
48
1
60
0
100
AcDbEllipse
10
51.657216
20
41.684907
30
0
11
-1.06317309325649
21
0.176011767010507
31
0
210
0
220
0
230
1
40
0.129407
41
-1.38384831382882
42
-0.860249538201828
0
ELLIPSE
5
168
100
AcDbEntity
8
1
62
256
6
ByLayer
370
18
48
1
60
0
100
AcDbEllipse
10
34.153884
20
29.914687
30
0
11
-1.1941401004289
21
2.75739460362958
31
0
210
0
220
0
230
1
40
0.878834
41
1.35826320117686
42
2.92905952797175
0
ELLIPSE
5
169
100
AcDbEntity
8
1
62
256
6
ByLayer
370
18
48
1
60
0
100
AcDbEllipse
10
30.737906
20
26.097968
30
0
11
6.82934418825402
21
1.53624801329765
31
0
210
0
220
0
230
1
40
0.083175
41
-1.20499421451595
42
-0.797732830958265
0
ELLIPSE
5
16A
100
AcDbEntity
8
1
62
256
6
ByLayer
370
18
48
1
60
0
100
AcDbEllipse
10
43.093045
20
32.574674
30
0
11
-8.49922139975332
21
-5.27626763399792
31
0
210
0
220
0
230
1
40
0.148963
41
-0.326870117707594
42
0.392330782238334
0
ELLIPSE
5
16B
100
AcDbEntity
8
1
62
256
6
ByLayer
370
18
48
1
60
0
100
AcDbEllipse
10
32.560864
20
28.984261
30
0
11
-2.67010084197743
21
1.38716900800197
31
0
210
0
220
0
230
1
40
0.988503
41
1.91430569943213
42
1.92041735495207
0
ELLIPSE
5
16C
100
AcDbEntity
8
1
62
256
6
ByLayer
370
18
48
1
60
0
100
AcDbEllipse
10
32.325523
20
38.042613
30
0
11
-1.19414010042888
21
2.75739460362949
31
0
210
0
220
0
230
1
40
0.878834
41
-0.105080969455144
42
1.35826320117685
0
ELLIPSE
5
16D
100
AcDbEntity
8
1
62
256
6
ByLayer
370
18
48
1
60
0
100
AcDbEllipse
10
55.780249
20
36.388275
30
0
11
-1.22554654086567
21
-7.61912922503851
31
0
210
0
220
0
230
1
40
0.541677
41
-1.04501690236938
42
-0.965278634160216
0
ELLIPSE
5
16E
100
AcDbEntity
8
1
62
256
6
ByLayer
370
18
48
1
60
0
100
AcDbEllipse
10
36.500195
20
36.54046
30
0
11
-5.95213369018611
21
3.81312139071941
31
0
210
0
220
0
230
1
40
0.108476
41
-1.40270320849242
42
-0.93863968016371
0
ELLIPSE
5
16F
100
AcDbEntity
8
1
62
256
6
ByLayer
370
18
48
1
60
0
100
AcDbEllipse
10
41.419525
20
36.001299
30
0
11
2.73274769807008
21
-3.12323390393558
31
0
210
0
220
0
230
1
40
0.985051
41
-0.0694205677493308
42
2.63769971642131
0
ELLIPSE
5
170
100
AcDbEntity
8
1
62
256
6
ByLayer
370
18
48
1
60
0
100
AcDbEllipse
10
33.912718
20
40.116531
30
0
11
1.97548026366512
21
-2.25775944862813
31
0
210
0
220
0
230
1
40
0.985051
41
-0.503892937168485
42
-0.187717665000393
0
ELLIPSE
5
171
100
AcDbEntity
8
1
62
256
6
ByLayer
370
18
48
1
60
0
100
AcDbEllipse
10
37.265657
20
33.13762
30
0
11
-3.7918563563178
21
-5.91893980131279
31
0
210
0
220
0
230
1
40
0.025532
41
1.02266647874878
42
1.48673000705628
0
ELLIPSE
5
172
100
AcDbEntity
8
1
62
256
6
ByLayer
370
18
48
1
60
0
100
AcDbEllipse
10
39.436886
20
35.581764
30
0
11
2.73274769807008
21
-3.12323390393558
31
0
210
0
220
0
230
1
40
0.985051
41
2.63769971642131
42
2.90094142426122
0
ELLIPSE
5
173
100
AcDbEntity
8
1
62
256
6
ByLayer
370
18
48
1
60
0
100
AcDbEllipse
10
37.451555
20
32.311216
30
0
11
-4.87810299161002
21
-1.09732000949832
31
0
210
0
220
0
230
1
40
0.083175
41
-1.33720124371409
42
-0.896170138357792
0
ELLIPSE
5
174
100
AcDbEntity
8
1
62
256
6
ByLayer
370
18
48
1
60
0
100
AcDbEllipse
10
30.733247
20
37.112335
30
0
11
-2.65442625457392
21
1.42033819513163
31
0
210
0
220
0
230
1
40
0.98855
41
-0.518692912716095
42
-0.512583525550205
0
ELLIPSE
5
175
100
AcDbEntity
8
1
62
256
6
ByLayer
370
18
48
1
60
0
100
AcDbEllipse
10
54.704715
20
41.169531
30
0
11
-5.17505400639472
21
2.27361691533812
31
0
210
0
220
0
230
1
40
0.479203
41
0.370445235538081
42
0.450183502696807
0
ELLIPSE
5
176
100
AcDbEntity
8
1
62
256
6
ByLayer
370
18
48
1
60
0
100
AcDbEllipse
10
41.264683
20
40.702601
30
0
11
-9.71589580078353
21
0.086546947718986
31
0
210
0
220
0
230
1
40
0.099543
41
-0.420704590404548
42
0.298496309540085
0
ELLIPSE
5
177
100
AcDbEntity
8
1
62
256
6
ByLayer
370
18
48
1
60
0
100
AcDbEllipse
10
36.314297
20
37.366864
30
0
11
-4.87810299161002
21
-1.09732000949832
31
0
210
0
220
0
230
1
40
0.083175
41
-1.33720124371409
42
-0.896170138357812
0
ELLIPSE
5
178
100
AcDbEntity
8
1
62
256
6
ByLayer
370
18
48
1
60
0
100
AcDbEllipse
10
57.1247
20
38.306382
30
0
11
-1.11139394241298
21
2.32089560889169
31
0
210
0
220
0
230
1
40
0.561537
41
2.58916296905142
42
-2.67306477768136
0
ELLIPSE
5
179
100
AcDbEntity
8
1
62
256
6
ByLayer
370
18
48
1
60
0
100
AcDbEllipse
10
54.567494
20
38.2653
30
0
11
-3.14027214010246
21
3.22314921871395
31
0
210
0
220
0
230
1
40
0.987534
41
-1.51665296923774
42
-0.993054193639439
0
ELLIPSE
5
17A
100
AcDbEntity
8
1
62
256
6
ByLayer
370
18
48
1
60
0
100
AcDbEllipse
10
54.36927
20
38.514814
30
0
11
2.34065081979869
21
-2.40242454301113
31
0
210
0
220
0
230
1
40
0.987534
41
1.33354782556866
42
2.20962498377015
0
ELLIPSE
5
17B
100
AcDbEntity
8
1
62
256
6
ByLayer
370
18
48
1
60
0
100
AcDbEllipse
10
54.36927
20
38.514814
30
0
11
2.34065081979869
21
-2.40242454301113
31
0
210
0
220
0
230
1
40
0.987534
41
1.17039280367085
42
1.31240177681842
0
ELLIPSE
5
17C
100
AcDbEntity
8
1
62
256
6
ByLayer
370
18
48
1
60
0
100
AcDbEllipse
10
54.36927
20
38.514814
30
0
11
2.34065081979869
21
-2.40242454301113
31
0
210
0
220
0
230
1
40
0.987534
41
-0.181476091462081
42
0.841130640091008
0
ELLIPSE
5
17D
100
AcDbEntity
8
1
62
256
6
ByLayer
370
18
48
1
60
0
100
AcDbEllipse
10
54.950824
20
38.638774
30
0
11
-2.5045224722258
21
2.57062104475529
31
0
210
0
220
0
230
1
40
0.987534
41
-1.0868186931974
42
-0.993054193639443
0
ELLIPSE
5
17E
100
AcDbEntity
8
1
62
256
6
ByLayer
370
18
48
1
60
0
100
AcDbEllipse
10
54.290349
20
38.437922
30
0
11
3.33325036308593
21
-3.42122046250672
31
0
210
0
220
0
230
1
40
0.987534
41
-1.1065550821855
42
-1.08658207670532
0
ELLIPSE
5
17F
100
AcDbEntity
8
1
62
256
6
ByLayer
370
18
48
1
60
0
100
AcDbEllipse
10
54.290349
20
38.437922
30
0
11
3.33325036308593
21
-3.42122046250672
31
0
210
0
220
0
230
1
40
0.987534
41
3.1147309690134
42
3.1282630392771
0
ELLIPSE
5
180
100
AcDbEntity
8
1
62
256
6
ByLayer
370
18
48
1
60
0
100
AcDbEllipse
10
53.98594
20
38.141341
30
0
11
-3.83811039345856
21
3.93940460065038
31
0
210
0
220
0
230
1
40
0.987534
41
-0.12038956764228
42
0.0142190332852102
0
ELLIPSE
5
181
100
AcDbEntity
8
1
62
256
6
ByLayer
370
18
48
1
60
0
100
AcDbEllipse
10
53.98594
20
38.141341
30
0
11
-3.83811039345856
21
3.93940460065038
31
0
210
0
220
0
230
1
40
0.987534
41
1.92223062084995
42
2.14853845995035
0
ELLIPSE
5
182
100
AcDbEntity
8
1
62
256
6
ByLayer
370
18
48
1
60
0
100
AcDbEllipse
10
54.567494
20
38.2653
30
0
11
-3.14027214010246
21
3.22314921871395
31
0
210
0
220
0
230
1
40
0.987534
41
-2.73838344563378
42
-1.51665296923774
0
ELLIPSE
5
183
100
AcDbEntity
8
1
62
256
6
ByLayer
370
18
48
1
60
0
100
AcDbEllipse
10
56.645982
20
40.434511
30
0
11
-1.18002972418102
21
1.30251822454913
31
0
210
0
220
0
230
1
40
0.817891
41
-1.46121266042788
42
-0.440255099981863
0
ELLIPSE
5
184
100
AcDbEntity
8
1
62
256
6
ByLayer
370
18
48
1
60
0
100
AcDbEllipse
10
52.452773
20
33.621443
30
0
11
-3.87493674155284
21
-8.82516442983191
31
0
210
0
220
0
230
1
40
0.705728
41
-2.45604993322208
42
-2.39247927404878
0
ELLIPSE
5
185
100
AcDbEntity
8
1
62
256
6
ByLayer
370
18
48
1
60
0
100
AcDbEllipse
10
54.567494
20
38.2653
30
0
11
-3.14027214010246
21
3.22314921871395
31
0
210
0
220
0
230
1
40
0.987534
41
3.02120308594751
42
-2.73838344563378
0
ELLIPSE
5
186
100
AcDbEntity
8
1
62
256
6
ByLayer
370
18
48
1
60
0
100
AcDbEllipse
10
54.950824
20
38.638774
30
0
11
-2.5045224722258
21
2.57062104475529
31
0
210
0
220
0
230
1
40
0.987534
41
3.02120308594751
42
3.11496758550547
0
ELLIPSE
5
187
100
AcDbEntity
8
1
62
256
6
ByLayer
370
18
48
1
60
0
100
AcDbEllipse
10
50.973358
20
40.198138
30
0
11
-8.06038494854177
21
2.11288387069369
31
0
210
0
220
0
230
1
40
0.734404
41
1.99187658296695
42
2.05544724242404
0
ELLIPSE
5
188
100
AcDbEntity
8
1
62
256
6
ByLayer
370
18
48
1
60
0
100
AcDbEllipse
10
54.950824
20
38.638774
30
0
11
2.27669814141908
21
-2.33678404557731
31
0
210
0
220
0
230
1
40
0.987534
41
0.403209207956018
42
1.62493968435205
0
ELLIPSE
5
189
100
AcDbEntity
8
1
62
256
6
ByLayer
370
18
48
1
60
0
100
AcDbEllipse
10
56.543437
20
31.517903
30
0
11
-0.276954556800702
21
0.284263854706022
31
0
210
0
220
0
230
1
40
0.987534
41
2.42779114026938
42
3.14158892711813
0
ELLIPSE
5
18A
100
AcDbEntity
8
1
62
256
6
ByLayer
370
18
48
1
60
0
100
AcDbEllipse
10
64.211311
20
44.211053
30
0
11
-0.553909113601406
21
0.568527709412044
31
0
210
0
220
0
230
1
40
0.987534
41
-2.89546307831328
42
-0.713801513320353
0
ELLIPSE
5
18B
100
AcDbEntity
8
1
62
256
6
ByLayer
370
18
48
1
60
0
100
AcDbEllipse
10
49.631303
20
43.013847
30
0
11
-0.276954556800703
21
0.284263854706022
31
0
210
0
220
0
230
1
40
0.987534
41
-1.59105421219081E-06
42
0.246129575276596
0
ELLIPSE
5
18C
100
AcDbEntity
8
1
62
256
6
ByLayer
370
18
48
1
60
0
100
AcDbEllipse
10
50.529873
20
43.889313
30
0
11
-0.276954556800703
21
0.284263854706022
31
0
210
0
220
0
230
1
40
0.987534
41
-0.713801513320346
42
0.246129575276521
0
ELLIPSE
5
18D
100
AcDbEntity
8
1
62
256
6
ByLayer
370
18
48
1
60
0
100
AcDbEllipse
10
57.442008
20
32.393369
30
0
11
-0.276954556800702
21
0.284263854706022
31
0
210
0
220
0
230
1
40
0.987534
41
2.42779114026941
42
-2.89546307831329
0
ELLIPSE
5
18E
100
AcDbEntity
8
1
62
256
6
ByLayer
370
18
48
1
60
0
100
AcDbEllipse
10
50.007678
20
41.55751
30
0
11
1.1078182272028
21
-1.13705541882406
31
0
210
0
220
0
230
1
40
0.987534
41
3.14158978678914
42
-2.97507775732424
0
ELLIPSE
5
18F
100
AcDbEntity
8
1
62
256
6
ByLayer
370
18
48
1
60
0
100
AcDbEllipse
10
55.537386
20
32.360755
30
0
11
1.10781822720281
21
-1.13705541882408
31
0
210
0
220
0
230
1
40
0.987534
41
-0.713801513320348
42
-0.0982156062388764
0
POINT
5
6C
100
AcDbEntity
8
2
62
256
6
ByLayer
370
18
48
1
60
0
100
AcDbPoint
10
65
20
45
30
0
39
0
210
0
220
0
230
1
50
360
0
POINT
5
6E
100
AcDbEntity
8
80
62
256
6
ByLayer
370
18
48
1
60
0
100
AcDbPoint
10
0
20
0
30
0
39
0
210
0
220
0
230
1
50
360
0
POINT
5
70
100
AcDbEntity
8
81
62
256
6
ByLayer
370
18
48
1
60
0
100
AcDbPoint
10
65
20
45
30
0
39
0
210
0
220
0
230
1
50
360
0
SPLINE
5
190
100
AcDbEntity
8
SK1
62
256
6
ByLayer
370
18
48
1
60
0
100
AcDbSpline
70
4
71
3
72
13
73
9
40
0
40
0
40
0
40
0
40
0.239456135763718
40
0.368359721933656
40
0.499998984021097
40
0.63163841528373
40
0.760542467778167
40
1
40
1
40
1
40
1
41
1
10
-2.19999999999999
20
-22.0200986606755
30
0
41
1
10
-2.19909198642273
20
-21.9940411845603
30
0
41
1
10
-2.19103284106941
20
-21.9566686002238
30
0
41
1
10
-2.16563592203337
20
-21.9104494263858
30
0
41
1
10
-2.1388637867926
20
-21.8791678725253
30
0
41
1
10
-2.10627712749869
20
-21.8540005023229
30
0
41
1
10
-2.05884064234078
20
-21.8309566998545
30
0
41
1
10
-2.02111030873027
20
-21.8247844448324
30
0
41
1
10
-1.99503997793928
20
-21.825186084775
30
0
0
SPLINE
5
191
100
AcDbEntity
8
SK1
62
256
6
ByLayer
370
18
48
1
60
0
100
AcDbSpline
70
4
71
3
72
13
73
9
40
0
40
0
40
0
40
0
40
0.239457532152995
40
0.368361584623188
40
0.500001015876169
40
0.631640277971204
40
0.760543864164266
40
1
40
1
40
1
40
1
41
1
10
-1.99503997793928
20
21.8251861015554
30
0
41
1
10
-2.02111030873166
20
21.8247844616134
30
0
41
1
10
-2.05884064234343
20
21.8309567166392
30
0
41
1
10
-2.10627712750076
20
21.854000519123
30
0
41
1
10
-2.13886378679456
20
21.8791678893421
30
0
41
1
10
-2.16563592203485
20
21.9104494432231
30
0
41
1
10
-2.19103284107055
20
21.9566686170919
30
0
41
1
10
-2.19909198642387
20
21.9940412014509
30
0
41
1
10
-2.19999999999999
20
22.0200986775813
30
0
0
SPLINE
5
192
100
AcDbEntity
8
SK1
62
256
6
ByLayer
370
18
48
1
60
0
100
AcDbSpline
70
4
71
2
72
6
73
3
40
0
40
0
40
0
40
1
40
1
40
1
41
1
10
-36.5
20
-21.1521177089669
30
0
41
1
10
-19.3499999999701
20
-21.5828554470541
30
0
41
1
10
-2.19999999999999
20
-22.0135928951589
30
0
0
SPLINE
5
193
100
AcDbEntity
8
SK1
62
256
6
ByLayer
370
18
48
1
60
0
100
AcDbSpline
70
4
71
2
72
6
73
3
40
0
40
0
40
0
40
1
40
1
40
1
41
1
10
-2.19999999999999
20
22.0135927638551
30
0
41
1
10
-19.3499999999869
20
21.5828539542124
30
0
41
1
10
-36.5
20
21.1521149580209
30
0
0
SPLINE
5
194
100
AcDbEntity
8
SK1
62
256
6
ByLayer
370
18
48
1
60
0
100
AcDbSpline
70
4
71
2
72
6
73
3
40
0
40
0
40
0
40
1
40
1
40
1
41
1
10
-1.99503997793928
20
-21.8251812553753
30
0
41
1
10
-1.19500843340728
20
-21.8452807024746
30
0
41
1
10
-0.394976888875277
20
-21.8653801495793
30
0
0
SPLINE
5
195
100
AcDbEntity
8
SK1
62
256
6
ByLayer
370
18
48
1
60
0
100
AcDbSpline
70
4
71
2
72
6
73
3
40
0
40
0
40
0
40
1
40
1
40
1
41
1
10
-0.394976888875277
20
21.8653802062992
30
0
41
1
10
-1.19500843340728
20
21.8452807593862
30
0
41
1
10
-1.99503997793928
20
21.8251813124779
30
0
0
SPLINE
5
196
100
AcDbEntity
8
SK1
62
256
6
ByLayer
370
18
48
1
60
0
100
AcDbSpline
70
4
71
2
72
6
73
3
40
0
40
0
40
0
40
1
40
1
40
1
41
1
10
-38
20
-20.289405225553
30
0
41
1
10
-37.2500000000012
20
-20.7223540793632
30
0
41
1
10
-36.5
20
-21.1553029418638
30
0
0
SPLINE
5
197
100
AcDbEntity
8
SK1
62
256
6
ByLayer
370
18
48
1
60
0
100
AcDbSpline
70
4
71
2
72
6
73
3
40
0
40
0
40
0
40
1
40
1
40
1
41
1
10
-36.5
20
21.155302724897
30
0
41
1
10
-37.2500000000012
20
20.7223538609616
30
0
41
1
10
-38
20
20.2894050057151
30
0
0
SPLINE
5
198
100
AcDbEntity
8
SK1
62
256
6
ByLayer
370
18
48
1
60
0
100
AcDbSpline
70
4
71
2
72
6
73
3
40
0
40
0
40
0
40
1
40
1
40
1
41
1
10
-0.394976888875277
20
-21.8653849865467
30
0
41
1
10
-0.265172990617003
20
-21.8689012906761
30
0
41
1
10
-0.240502439654279
20
-21.9465691723769
30
0
0
SPLINE
5
199
100
AcDbEntity
8
SK1
62
256
6
ByLayer
370
18
48
1
60
0
100
AcDbSpline
70
4
71
2
72
6
73
3
40
0
40
0
40
0
40
1
40
1
40
1
41
1
10
-0.239684768755779
20
21.9481214799355
30
0
41
1
10
-0.264174311740362
20
21.8692639605625
30
0
41
1
10
-0.394976888875277
20
21.865385003355
30
0
0
SPLINE
5
19A
100
AcDbEntity
8
SK1
62
256
6
ByLayer
370
18
48
1
60
0
100
AcDbSpline
70
4
71
3
72
303
73
299
40
0
40
0
40
0
40
0
40
0.0005133416335904
40
0.0040062580191204
40
0.0074991744046504
40
0.0109920907901804
40
0.0144850071757105
40
0.0179779235612405
40
0.0214708399467705
40
0.0249637563323006
40
0.0284566727178306
40
0.0319495891033606
40
0.0389354218744207
40
0.0459212546454808
40
0.0529070874165408
40
0.0564000038020709
40
0.0598929201876009
40
0.0633858365731309
40
0.0668787529586609
40
0.073864585729721
40
0.077357502115251
40
0.0808504185007811
40
0.0843433348863111
40
0.0878362512718411
40
0.0913291676573711
40
0.0948220840429011
40
0.101807916813961
40
0.105300833199491
40
0.108793749585021
40
0.112286665970551
40
0.115779582356081
40
0.119272498741611
40
0.122765415127141
40
0.126258331512671
40
0.129751247898201
40
0.133244164283731
40
0.136737080669261
40
0.140229997054791
40
0.143722913440322
40
0.147215829825851
40
0.150708746211381
40
0.157694578982442
40
0.161187495367972
40
0.164680411753502
40
0.166426869946267
40
0.168173328139032
40
0.171666244524562
40
0.178652077295622
40
0.182144993681152
40
0.185637910066682
40
0.189130826452212
40
0.192623742837742
40
0.199609575608802
40
0.203102491994332
40
0.206595408379862
40
0.208341866572627
40
0.210088324765392
40
0.213581241150922
40
0.220567073921982
40
0.224059990307512
40
0.227552906693042
40
0.231045823078572
40
0.234538739464102
40
0.241524572235162
40
0.245017488620692
40
0.248510405006222
40
0.250256863198987
40
0.252003321391752
40
0.255496237777282
40
0.258989154162812
40
0.262482070548342
40
0.264228528741108
40
0.265974986933872
40
0.269467903319403
40
0.272960819704932
40
0.276453736090462
40
0.279946652475992
40
0.283439568861523
40
0.286932485247053
40
0.290425401632583
40
0.293918318018113
40
0.297411234403643
40
0.300904150789173
40
0.304397067174703
40
0.307889983560233
40
0.311382899945763
40
0.314875816331293
40
0.318368732716823
40
0.325354565487883
40
0.328847481873413
40
0.332340398258943
40
0.335833314644473
40
0.339326231030003
40
0.342819147415533
40
0.346312063801063
40
0.349804980186593
40
0.353297896572123
40
0.360283729343183
40
0.367269562114243
40
0.374255394885303
40
0.377748311270833
40
0.381241227656363
40
0.384734144041893
40
0.388227060427423
40
0.391719976812953
40
0.395212893198483
40
0.398705809584014
40
0.402198725969543
40
0.405691642355073
40
0.409184558740604
40
0.412677475126134
40
0.416170391511664
40
0.419663307897194
40
0.423156224282724
40
0.426649140668254
40
0.430142057053784
40
0.433634973439314
40
0.435381431632079
40
0.437127889824844
40
0.438874348017609
40
0.440620806210374
40
0.444113722595904
40
0.447606638981434
40
0.449353097174199
40
0.451099555366964
40
0.452846013559729
40
0.454592471752494
40
0.458085388138024
40
0.459831846330789
40
0.461578304523554
40
0.463324762716319
40
0.465071220909084
40
0.466817679101849
40
0.468564137294614
40
0.470310595487379
40
0.472057053680144
40
0.473803511872909
40
0.475549970065674
40
0.477296428258439
40
0.479042886451204
40
0.480789344643969
40
0.482535802836734
40
0.484282261029499
40
0.486028719222264
40
0.487775177415029
40
0.489521635607794
40
0.491268093800559
40
0.493014551993324
40
0.494761010186089
40
0.496507468378854
40
0.498253926571619
40
0.500000384764384
40
0.501746842957149
40
0.503493301149914
40
0.505239759342679
40
0.506986217535444
40
0.508732675728209
40
0.510479133920974
40
0.512225592113739
40
0.513972050306504
40
0.515718508499269
40
0.517464966692034
40
0.519211424884799
40
0.520957883077564
40
0.522704341270329
40
0.524450799463094
40
0.526197257655859
40
0.527943715848624
40
0.52969017404139
40
0.531436632234154
40
0.533183090426919
40
0.534929548619685
40
0.53667600681245
40
0.538422465005215
40
0.54016892319798
40
0.541915381390744
40
0.545408297776275
40
0.54715475596904
40
0.548901214161805
40
0.55064767235457
40
0.552394130547335
40
0.555887046932865
40
0.559379963318395
40
0.56112642151116
40
0.562872879703925
40
0.56461933789669
40
0.566365796089455
40
0.569858712474985
40
0.573351628860515
40
0.576844545246045
40
0.580337461631575
40
0.583830378017105
40
0.587323294402635
40
0.590816210788165
40
0.594309127173695
40
0.597802043559225
40
0.601294959944755
40
0.604787876330285
40
0.608280792715815
40
0.611773709101345
40
0.615266625486875
40
0.618759541872405
40
0.622252458257935
40
0.625745374643465
40
0.632731207414525
40
0.639717040185586
40
0.646702872956646
40
0.650195789342176
40
0.653688705727706
40
0.657181622113236
40
0.660674538498766
40
0.664167454884296
40
0.667660371269826
40
0.671153287655356
40
0.674646204040886
40
0.681632036811946
40
0.685124953197476
40
0.688617869583006
40
0.692110785968536
40
0.695603702354066
40
0.699096618739596
40
0.702589535125126
40
0.706082451510656
40
0.709575367896186
40
0.713068284281716
40
0.716561200667246
40
0.720054117052776
40
0.723547033438306
40
0.730532866209366
40
0.734025782594896
40
0.737518698980426
40
0.744504531751486
40
0.747997448137016
40
0.751490364522546
40
0.754983280908076
40
0.758476197293606
40
0.765462030064667
40
0.768954946450196
40
0.772447862835727
40
0.775940779221256
40
0.779433695606787
40
0.786419528377847
40
0.789912444763377
40
0.793405361148907
40
0.796898277534437
40
0.800391193919967
40
0.807377026691027
40
0.810869943076557
40
0.814362859462087
40
0.817855775847617
40
0.821348692233147
40
0.828334525004207
40
0.831827441389737
40
0.835320357775267
40
0.838813274160797
40
0.842306190546327
40
0.849292023317387
40
0.852784939702917
40
0.856277856088447
40
0.859770772473977
40
0.863263688859507
40
0.866756605245037
40
0.870249521630567
40
0.873742438016097
40
0.877235354401627
40
0.880728270787157
40
0.884221187172688
40
0.887714103558217
40
0.891207019943748
40
0.894699936329277
40
0.898192852714807
40
0.905178685485867
40
0.908671601871398
40
0.912164518256928
40
0.915657434642458
40
0.919150351027988
40
0.922643267413518
40
0.926136183799048
40
0.933122016570108
40
0.936614932955638
40
0.940107849341168
40
0.943600765726698
40
0.947093682112228
40
0.954079514883288
40
0.957572431268818
40
0.961065347654348
40
0.964558264039878
40
0.968051180425408
40
0.971544096810938
40
0.975037013196468
40
0.978529929581998
40
0.982022845967528
40
0.985515762353058
40
0.989008678738588
40
0.992501595124118
40
0.995994511509648
40
0.999487427895178
40
1
40
1
40
1
40
1
41
1
10
-36.5
20
21.155577609117
30
0
41
1
10
-36.5
20
21.1557858221586
30
0
41
1
10
-36.5
20
21.1573191514119
30
0
41
1
10
-36.5
20
21.1588544331657
30
0
41
1
10
-36.5
20
21.1578038223016
30
0
41
1
10
-36.5
20
21.1536126358382
30
0
41
1
10
-36.5
20
21.1463317213717
30
0
41
1
10
-36.5
20
21.1360112678938
30
0
41
1
10
-36.5
20
21.1226986497682
30
0
41
1
10
-36.5
20
21.1064402158535
30
0
41
1
10
-36.5
20
21.0872797426226
30
0
41
1
10
-36.5
20
21.0578537406018
30
0
41
1
10
-36.5
20
21.0141777773224
30
0
41
1
10
-36.5
20
20.950713074722
30
0
41
1
10
-36.5
20
20.8890285612071
30
0
41
1
10
-36.5
20
20.8342802658871
30
0
41
1
10
-36.5
20
20.7907267804185
30
0
41
1
10
-36.5
20
20.7446291690672
30
0
41
1
10
-36.5
20
20.6796864194097
30
0
41
1
10
-36.5
20
20.6101652524536
30
0
41
1
10
-36.5
20
20.5353747251341
30
0
41
1
10
-36.5
20
20.4769783324059
30
0
41
1
10
-36.5
20
20.4161995895793
30
0
41
1
10
-36.5
20
20.3530628196555
30
0
41
1
10
-36.5
20
20.2875896826626
30
0
41
1
10
-36.5
20
20.1970436182683
30
0
41
1
10
-36.5
20
20.1024192722933
30
0
41
1
10
-36.5
20
20.0027815031752
30
0
41
1
10
-36.5
20
19.9259535572617
30
0
41
1
10
-36.5
20
19.8469141355251
30
0
41
1
10
-36.5
20
19.7656833730651
30
0
41
1
10
-36.5
20
19.6822775189499
30
0
41
1
10
-36.5
20
19.5967148149262
30
0
41
1
10
-36.5
20
19.5090135394173
30
0
41
1
10
-36.5
20
19.4191882696517
30
0
41
1
10
-36.5
20
19.3272561697677
30
0
41
1
10
-36.5
20
19.2332338822713
30
0
41
1
10
-36.5
20
19.1371346902893
30
0
41
1
10
-36.5
20
19.0389746878943
30
0
41
1
10
-36.5
20
18.9387689752275
30
0
41
1
10
-36.5
20
18.8022215100789
30
0
41
1
10
-36.5
20
18.6623317385554
30
0
41
1
10
-36.5
20
18.5177544284038
30
0
41
1
10
-36.5
20
18.4260133905722
30
0
41
1
10
-36.5
20
18.3514175898237
30
0
41
1
10
-36.5
20
18.2761667145511
30
0
41
1
10
-36.5
20
18.1428549391526
30
0
41
1
10
-36.5
20
17.987269645424
30
0
41
1
10
-36.5
20
17.8270700659299
30
0
41
1
10
-36.5
20
17.705205542109
30
0
41
1
10
-36.5
20
17.5814423770725
30
0
41
1
10
-36.5
20
17.4136311437529
30
0
41
1
10
-36.5
20
17.2428939764416
30
0
41
1
10
-36.5
20
17.0675963011876
30
0
41
1
10
-36.5
20
16.9568152899196
30
0
41
1
10
-36.5
20
16.867008999151
30
0
41
1
10
-36.5
20
16.7765898513273
30
0
41
1
10
-36.5
20
16.6168596157572
30
0
41
1
10
-36.5
20
16.4314438788638
30
0
41
1
10
-36.5
20
16.2414991337765
30
0
41
1
10
-36.5
20
16.097474719741
30
0
41
1
10
-36.5
20
15.9516616651348
30
0
41
1
10
-36.5
20
15.7545445351489
30
0
41
1
10
-36.5
20
15.5548613446891
30
0
41
1
10
-36.5
20
15.350663385132
30
0
41
1
10
-36.5
20
15.2219600388738
30
0
41
1
10
-36.5
20
15.1178164480938
30
0
41
1
10
-36.5
20
15.0130920883853
30
0
41
1
10
-36.5
20
14.8814910451208
30
0
41
1
10
-36.5
20
14.7216281332594
30
0
41
1
10
-36.5
20
14.5871530954062
30
0
41
1
10
-36.5
20
14.4783873813363
30
0
41
1
10
-36.5
20
14.3690494022437
30
0
41
1
10
-36.5
20
14.2317235183089
30
0
41
1
10
-36.5
20
14.0650028858775
30
0
41
1
10
-36.5
20
13.8965816080865
30
0
41
1
10
-36.5
20
13.7264689694465
30
0
41
1
10
-36.5
20
13.5546710496343
30
0
41
1
10
-36.5
20
13.3811910773122
30
0
41
1
10
-36.5
20
13.2060373742644
30
0
41
1
10
-36.5
20
13.0292149133303
30
0
41
1
10
-36.5
20
12.850728177302
30
0
41
1
10
-36.5
20
12.6705857874604
30
0
41
1
10
-36.5
20
12.4887914218501
30
0
41
1
10
-36.5
20
12.3053503484466
30
0
41
1
10
-36.5
20
12.1202706879328
30
0
41
1
10
-36.5
20
11.9335555855444
30
0
41
1
10
-36.5
20
11.6819759204348
30
0
41
1
10
-36.5
20
11.4285505376587
30
0
41
1
10
-36.5
20
11.1704660874499
30
0
41
1
10
-36.5
20
10.9756651586938
30
0
41
1
10
-36.5
20
10.7792636737398
30
0
41
1
10
-36.5
20
10.5812696725585
30
0
41
1
10
-36.5
20
10.3816871154457
30
0
41
1
10
-36.5
20
10.180523710493
30
0
41
1
10
-36.5
20
9.9777855843503
30
0
41
1
10
-36.5
20
9.70483576808863
30
0
41
1
10
-36.5
20
9.36101276272154
30
0
41
1
10
-36.5
20
8.94153438933262
30
0
41
1
10
-36.5
20
8.58745787193689
30
0
41
1
10
-36.5
20
8.30004464023602
30
0
41
1
10
-36.5
20
8.08346950394392
30
0
41
1
10
-36.5
20
7.86540102208474
30
0
41
1
10
-36.5
20
7.64585131899614
30
0
41
1
10
-36.5
20
7.42483318088833
30
0
41
1
10
-36.5
20
7.20235735193418
30
0
41
1
10
-36.5
20
6.97843755879967
30
0
41
1
10
-36.5
20
6.75308981071325
30
0
41
1
10
-36.5
20
6.52633035082275
30
0
41
1
10
-36.5
20
6.29817753233076
30
0
41
1
10
-36.5
20
6.06865022444896
30
0
41
1
10
-36.5
20
5.83776884649418
30
0
41
1
10
-36.5
20
5.60555660448861
30
0
41
1
10
-36.5
20
5.37203985998678
30
0
41
1
10
-36.5
20
5.13724579696884
30
0
41
1
10
-36.5
20
4.90120595303733
30
0
41
1
10
-36.5
20
4.70396583147405
30
0
41
1
10
-36.5
20
4.54469638576828
30
0
41
1
10
-36.5
20
4.42533999597057
30
0
41
1
10
-36.5
20
4.30569972295402
30
0
41
1
10
-36.5
20
4.14529336499854
30
0
41
1
10
-36.5
20
3.94531865595207
30
0
41
1
10
-36.5
20
3.74444957084984
30
0
41
1
10
-36.5
20
3.58224076117995
30
0
41
1
10
-36.5
20
3.46078958963511
30
0
41
1
10
-36.5
20
3.33910702605107
30
0
41
1
10
-36.5
20
3.17597085922344
30
0
41
1
10
-36.5
20
3.01425651604552
30
0
41
1
10
-36.5
20
2.85023149996007
30
0
41
1
10
-36.5
20
2.72752154931175
30
0
41
1
10
-36.5
20
2.60463052157442
30
0
41
1
10
-36.5
20
2.48157378937663
30
0
41
1
10
-36.5
20
2.35835621123036
30
0
41
1
10
-36.5
20
2.23499061660055
30
0
41
1
10
-36.5
20
2.11148761081347
30
0
41
1
10
-36.5
20
1.9878545152765
30
0
41
1
10
-36.5
20
1.86410632124097
30
0
41
1
10
-36.5
20
1.74024827700825
30
0
41
1
10
-36.5
20
1.61629526151512
30
0
41
1
10
-36.5
20
1.49225310041959
30
0
41
1
10
-36.5
20
1.3681347814894
30
0
41
1
10
-36.5
20
1.2439473222278
30
0
41
1
10
-36.5
20
1.11970117534864
30
0
41
1
10
-36.5
20
0.995403485642782
30
0
41
1
10
-36.5
20
0.8710629170684
30
0
41
1
10
-36.5
20
0.746686102657719
30
0
41
1
10
-36.5
20
0.622280124115576
30
0
41
1
10
-36.5
20
0.497850420758397
30
0
41
1
10
-36.5
20
0.373402935182185
30
0
41
1
10
-36.5
20
0.248942238793177
30
0
41
1
10
-36.5
20
0.124473257200918
30
0
41
1
10
-36.5
20
9.2462358E-09
30
0
41
1
10
-36.5
20
-0.124473254673973
30
0
41
1
10
-36.5
20
-0.248942266430618
30
0
41
1
10
-36.5
20
-0.373402960091397
30
0
41
1
10
-36.5
20
-0.497850400790554
30
0
41
1
10
-36.5
20
-0.622280094010847
30
0
41
1
10
-36.5
20
-0.746686131491799
30
0
41
1
10
-36.5
20
-0.871062970095124
30
0
41
1
10
-36.5
20
-0.995403468230791
30
0
41
1
10
-36.5
20
-1.11970111692671
30
0
41
1
10
-36.5
20
-1.2439473407681
30
0
41
1
10
-36.5
20
-1.36813486147517
30
0
41
1
10
-36.5
20
-1.49225310642996
30
0
41
1
10
-36.5
20
-1.61629518356963
30
0
41
1
10
-36.5
20
-1.74024825464127
30
0
41
1
10
-36.5
20
-1.86410640329151
30
0
41
1
10
-36.5
20
-1.98785458048855
30
0
41
1
10
-36.5
20
-2.11148756075909
30
0
41
1
10
-36.5
20
-2.2349905278607
30
0
41
1
10
-36.5
20
-2.3583562279822
30
0
41
1
10
-36.5
20
-2.48157389743915
30
0
41
1
10
-36.5
20
-2.60463057106841
30
0
41
1
10
-36.5
20
-2.72752148004804
30
0
41
1
10
-36.5
20
-2.8502314065623
30
0
41
1
10
-36.5
20
-3.01425656877106
30
0
41
1
10
-36.5
20
-3.17597095993784
30
0
41
1
10
-36.5
20
-3.33910698167958
30
0
41
1
10
-36.5
20
-3.46078948211164
30
0
41
1
10
-36.5
20
-3.58224072191865
30
0
41
1
10
-36.5
20
-3.74444967050349
30
0
41
1
10
-36.5
20
-3.94531869048151
30
0
41
1
10
-36.5
20
-4.14529326648051
30
0
41
1
10
-36.5
20
-4.30569969171859
30
0
41
1
10
-36.5
20
-4.42534006396792
30
0
41
1
10
-36.5
20
-4.54469650094606
30
0
41
1
10
-36.5
20
-4.70396584910503
30
0
41
1
10
-36.5
20
-4.90120586463618
30
0
41
1
10
-36.5
20
-5.1372458114655
30
0
41
1
10
-36.5
20
-5.37203995090806
30
0
41
1
10
-36.5
20
-5.6055565552935
30
0
41
1
10
-36.5
20
-5.83776875015036
30
0
41
1
10
-36.5
20
-6.06865017711209
30
0
41
1
10
-36.5
20
-6.29817748211653
30
0
41
1
10
-36.5
20
-6.52633051401983
30
0
41
1
10
-36.5
20
-6.75309051279777
30
0
41
1
10
-36.5
20
-6.97843834484934
30
0
41
1
10
-36.5
20
-7.20235684280951
30
0
41
1
10
-36.5
20
-7.42483229470756
30
0
41
1
10
-36.5
20
-7.64585158611578
30
0
41
1
10
-36.5
20
-7.86540128403743
30
0
41
1
10
-36.5
20
-8.08346945831602
30
0
41
1
10
-36.5
20
-8.3000445299389
30
0
41
1
10
-36.5
20
-8.58745782596952
30
0
41
1
10
-36.5
20
-8.94153442741853
30
0
41
1
10
-36.5
20
-9.36101273737586
30
0
41
1
10
-36.5
20
-9.70483575174822
30
0
41
1
10
-36.5
20
-9.97778564072317
30
0
41
1
10
-36.5
20
-10.18052371466
30
0
41
1
10
-36.5
20
-10.3816870614505
30
0
41
1
10
-36.5
20
-10.5812696339219
30
0
41
1
10
-36.5
20
-10.7792636942327
30
0
41
1
10
-36.5
20
-10.9756652058486
30
0
41
1
10
-36.5
20
-11.1704660987636
30
0
41
1
10
-36.5
20
-11.4285504962004
30
0
41
1
10
-36.5
20
-11.6819759007756
30
0
41
1
10
-36.5
20
-11.9335556252714
30
0
41
1
10
-36.5
20
-12.1202707134412
30
0
41
1
10
-36.5
20
-12.3053503320752
30
0
41
1
10
-36.5
20
-12.4887913848281
30
0
41
1
10
-36.5
20
-12.6705857704289
30
0
41
1
10
-36.5
20
-12.8507281979538
30
0
41
1
10
-36.5
20
-13.0292149436136
30
0
41
1
10
-36.5
20
-13.2060373895955
30
0
41
1
10
-36.5
20
-13.3811911431361
30
0
41
1
10
-36.5
20
-13.5546713888901
30
0
41
1
10
-36.5
20
-13.7264696827893
30
0
41
1
10
-36.5
20
-13.9536769173599
30
0
41
1
10
-36.5
20
-14.176348576809
30
0
41
1
10
-36.5
20
-14.3967384349213
30
0
41
1
10
-36.5
20
-14.6148460432235
30
0
41
1
10
-36.5
20
-14.8284315021107
30
0
41
1
10
-36.5
20
-15.0396227184095
30
0
41
1
10
-36.5
20
-15.1960147192182
30
0
41
1
10
-36.5
20
-15.3506631330603
30
0
41
1
10
-36.5
20
-15.5548624364723
30
0
41
1
10
-36.5
20
-15.7545451164335
30
0
41
1
10
-36.5
20
-15.9516609547094
30
0
41
1
10
-36.5
20
-16.0974737380165
30
0
41
1
10
-36.5
20
-16.241498813278
30
0
41
1
10
-36.5
20
-16.4314450331352
30
0
41
1
10
-36.5
20
-16.6168608854212
30
0
41
1
10
-36.5
20
-16.7995343923805
30
0
41
1
10
-36.5
20
-16.9344844206004
30
0
41
1
10
-36.5
20
-17.0675955495037
30
0
41
1
10
-36.5
20
-17.2428947983014
30
0
41
1
10
-36.5
20
-17.4136313821348
30
0
41
1
10
-36.5
20
-17.5814422063202
30
0
41
1
10
-36.5
20
-17.7052052466277
30
0
41
1
10
-36.5
20
-17.827069915531
30
0
41
1
10
-36.5
20
-17.9872703841193
30
0
41
1
10
-36.5
20
-18.1428562465544
30
0
41
1
10
-36.5
20
-18.2953166794047
30
0
41
1
10
-36.5
20
-18.4075180436267
30
0
41
1
10
-36.5
20
-18.5177535555592
30
0
41
1
10
-36.5
20
-18.6623326618876
30
0
41
1
10
-36.5
20
-18.8022222651529
30
0
41
1
10
-36.5
20
-18.9387686023437
30
0
41
1
10
-36.5
20
-19.0389739868785
30
0
41
1
10
-36.5
20
-19.1371342717784
30
0
41
1
10
-36.5
20
-19.2332339353276
30
0
41
1
10
-36.5
20
-19.3272562516113
30
0
41
1
10
-36.5
20
-19.4191882978898
30
0
41
1
10
-36.5
20
-19.5090135437133
30
0
41
1
10
-36.5
20
-19.5967148362678
30
0
41
1
10
-36.5
20
-19.6822775521962
30
0
41
1
10
-36.5
20
-19.7656833992675
30
0
41
1
10
-36.5
20
-19.8469141406672
30
0
41
1
10
-36.5
20
-19.9259535527381
30
0
41
1
10
-36.5
20
-20.0027815100322
30
0
41
1
10
-36.5
20
-20.1024193061391
30
0
41
1
10
-36.5
20
-20.1970436522849
30
0
41
1
10
-36.5
20
-20.287589681624
30
0
41
1
10
-36.5
20
-20.353062816238
30
0
41
1
10
-36.5
20
-20.4161996091986
30
0
41
1
10
-36.5
20
-20.4769783724375
30
0
41
1
10
-36.5
20
-20.5353747607017
30
0
41
1
10
-36.5
20
-20.6101652553123
30
0
41
1
10
-36.5
20
-20.6796864153796
30
0
41
1
10
-36.5
20
-20.7446292080422
30
0
41
1
10
-36.5
20
-20.7907268231738
30
0
41
1
10
-36.5
20
-20.8342802793506
30
0
41
1
10
-36.5
20
-20.8890285523336
30
0
41
1
10
-36.5
20
-20.9382580424269
30
0
41
1
10
-36.5
20
-20.9824409225429
30
0
41
1
10
-36.5
20
-21.0128017234864
30
0
41
1
10
-36.5
20
-21.0404207944711
30
0
41
1
10
-36.5
20
-21.0652596303332
30
0
41
1
10
-36.5
20
-21.0872797892674
30
0
41
1
10
-36.5
20
-21.1064402531507
30
0
41
1
10
-36.5
20
-21.1226986516191
30
0
41
1
10
-36.5
20
-21.1360112646484
30
0
41
1
10
-36.5
20
-21.1463317710584
30
0
41
1
10
-36.5
20
-21.1536128319466
30
0
41
1
10
-36.5
20
-21.1578041644649
30
0
41
1
10
-36.5
20
-21.1588543296933
30
0
41
1
10
-36.5
20
-21.1573189708369
30
0
41
1
10
-36.5
20
-21.1557860274099
30
0
41
1
10
-36.5
20
-21.1555781571767
30
0
0
SPLINE
5
19B
100
AcDbEntity
8
SK1
62
256
6
ByLayer
370
18
48
1
60
0
100
AcDbSpline
70
4
71
3
72
299
73
295
40
0
40
0
40
0
40
0
40
0.0032949380651732
40
0.0068176650782896
40
0.010340392091406
40
0.0138631191045224
40
0.0173858461176388
40
0.0209085731307552
40
0.0244313001438716
40
0.0279540271569881
40
0.0349994811832209
40
0.0420449352094537
40
0.0490903892356865
40
0.0526131162488029
40
0.0561358432619194
40
0.0596585702750358
40
0.0631812972881522
40
0.070226751314385
40
0.0737494783275014
40
0.0772722053406178
40
0.0807949323537343
40
0.0843176593668507
40
0.0878403863799671
40
0.0913631133930835
40
0.0984085674193163
40
0.101931294432433
40
0.105454021445549
40
0.108976748458666
40
0.112499475471782
40
0.116022202484898
40
0.119544929498015
40
0.123067656511131
40
0.126590383524248
40
0.130113110537364
40
0.13363583755048
40
0.137158564563597
40
0.140681291576713
40
0.14420401858983
40
0.147726745602946
40
0.154772199629179
40
0.158294926642295
40
0.161817653655412
40
0.16357901716197
40
0.165340380668528
40
0.168863107681645
40
0.175908561707877
40
0.179431288720994
40
0.18295401573411
40
0.186476742747227
40
0.189999469760343
40
0.197044923786576
40
0.200567650799692
40
0.204090377812809
40
0.205851741319367
40
0.207613104825925
40
0.211135831839041
40
0.218181285865274
40
0.221704012878391
40
0.225226739891507
40
0.228749466904624
40
0.23227219391774
40
0.239317647943973
40
0.242840374957089
40
0.246363101970206
40
0.248124465476764
40
0.249885828983322
40
0.253408555996439
40
0.256931283009555
40
0.260454010022671
40
0.26221537352923
40
0.263976737035788
40
0.267499464048904
40
0.271022191062021
40
0.274544918075137
40
0.278067645088253
40
0.28159037210137
40
0.285113099114486
40
0.288635826127603
40
0.292158553140719
40
0.295681280153835
40
0.299204007166952
40
0.302726734180068
40
0.306249461193185
40
0.309772188206301
40
0.313294915219417
40
0.316817642232534
40
0.323863096258767
40
0.327385823271883
40
0.330908550284999
40
0.334431277298116
40
0.337954004311232
40
0.341476731324349
40
0.344999458337465
40
0.348522185350582
40
0.352044912363698
40
0.359090366389931
40
0.366135820416164
40
0.373181274442397
40
0.376704001455513
40
0.380226728468629
40
0.383749455481746
40
0.387272182494862
40
0.390794909507979
40
0.394317636521095
40
0.397840363534211
40
0.401363090547328
40
0.404885817560444
40
0.408408544573561
40
0.411931271586677
40
0.415453998599793
40
0.41897672561291
40
0.422499452626026
40
0.426022179639143
40
0.429544906652259
40
0.433067633665375
40
0.434828997171934
40
0.436590360678492
40
0.43835172418505
40
0.440113087691608
40
0.443635814704725
40
0.447158541717841
40
0.448919905224399
40
0.450681268730958
40
0.452442632237516
40
0.454203995744074
40
0.457726722757191
40
0.459488086263749
40
0.461249449770307
40
0.463010813276865
40
0.464772176783423
40
0.466533540289981
40
0.46829490379654
40
0.470056267303098
40
0.471817630809656
40
0.473578994316214
40
0.475340357822773
40
0.477101721329331
40
0.478863084835889
40
0.480624448342447
40
0.482385811849005
40
0.484147175355564
40
0.485908538862122
40
0.48766990236868
40
0.489431265875238
40
0.491192629381796
40
0.492953992888355
40
0.494715356394913
40
0.496476719901471
40
0.498238083408029
40
0.499999446914587
40
0.501760810421146
40
0.503522173927704
40
0.505283537434262
40
0.50704490094082
40
0.508806264447378
40
0.510567627953937
40
0.512328991460495
40
0.514090354967053
40
0.515851718473611
40
0.517613081980169
40
0.519374445486728
40
0.521135808993286
40
0.522897172499844
40
0.524658536006402
40
0.526419899512961
40
0.528181263019519
40
0.529942626526077
40
0.531703990032635
40
0.533465353539193
40
0.535226717045752
40
0.53698808055231
40
0.538749444058868
40
0.540510807565426
40
0.542272171071984
40
0.545794898085101
40
0.547556261591659
40
0.549317625098217
40
0.551078988604775
40
0.552840352111334
40
0.55636307912445
40
0.559885806137566
40
0.561647169644125
40
0.563408533150683
40
0.565169896657241
40
0.566931260163799
40
0.570453987176916
40
0.573976714190032
40
0.577499441203148
40
0.581022168216265
40
0.584544895229381
40
0.588067622242498
40
0.591590349255614
40
0.595113076268731
40
0.598635803281847
40
0.602158530294963
40
0.60568125730808
40
0.609203984321196
40
0.612726711334313
40
0.616249438347429
40
0.619772165360545
40
0.623294892373662
40
0.626817619386778
40
0.633863073413011
40
0.640908527439244
40
0.647953981465477
40
0.651476708478593
40
0.654999435491709
40
0.658522162504826
40
0.662044889517942
40
0.665567616531059
40
0.669090343544175
40
0.672613070557292
40
0.676135797570408
40
0.683181251596641
40
0.686703978609757
40
0.690226705622874
40
0.69374943263599
40
0.697272159649106
40
0.700794886662223
40
0.704317613675339
40
0.707840340688456
40
0.711363067701572
40
0.714885794714688
40
0.718408521727805
40
0.721931248740921
40
0.725453975754038
40
0.732499429780271
40
0.736022156793387
40
0.739544883806503
40
0.746590337832736
40
0.750113064845853
40
0.753635791858969
40
0.757158518872086
40
0.760681245885202
40
0.767726699911435
40
0.771249426924551
40
0.774772153937668
40
0.778294880950784
40
0.7818176079639
40
0.788863061990133
40
0.79238578900325
40
0.795908516016366
40
0.799431243029482
40
0.802953970042599
40
0.809999424068832
40
0.813522151081948
40
0.817044878095065
40
0.820567605108181
40
0.824090332121297
40
0.83113578614753
40
0.834658513160647
40
0.838181240173763
40
0.841703967186879
40
0.845226694199996
40
0.852272148226229
40
0.855794875239345
40
0.859317602252462
40
0.862840329265578
40
0.866363056278694
40
0.869885783291811
40
0.873408510304927
40
0.876931237318044
40
0.88045396433116
40
0.883976691344276
40
0.887499418357393
40
0.891022145370509
40
0.894544872383626
40
0.898067599396742
40
0.901590326409858
40
0.908635780436091
40
0.912158507449208
40
0.915681234462324
40
0.919203961475441
40
0.922726688488557
40
0.926249415501673
40
0.92977214251479
40
0.936817596541022
40
0.940340323554139
40
0.943863050567255
40
0.947385777580372
40
0.950908504593488
40
0.957953958619721
40
0.961476685632837
40
0.964999412645954
40
0.96852213965907
40
0.972044866672187
40
0.975567593685303
40
0.97909032069842
40
0.982613047711536
40
0.986135774724652
40
0.989658501737769
40
0.993181228750885
40
0.996703955764002
40
1
40
1
40
1
40
1
41
1
10
-1.99503997793928
20
21.8251672716172
30
0
41
1
10
-1.99503997793928
20
21.8252770368205
30
0
41
1
10
-1.99503997793928
20
21.8245105470277
30
0
41
1
10
-1.99503997793928
20
21.8202836860757
30
0
41
1
10
-1.99503997793928
20
21.812783044142
30
0
41
1
10
-1.99503997793928
20
21.8021565364934
30
0
41
1
10
-1.99503997793928
20
21.7884557330328
30
0
41
1
10
-1.99503997793928
20
21.7717308612526
30
0
41
1
10
-1.99503997793928
20
21.7520291985819
30
0
41
1
10
-1.99503997793928
20
21.7218385059106
30
0
41
1
10
-1.99503997793928
20
21.6769140218914
30
0
41
1
10
-1.99503997793928
20
21.6117670092986
30
0
41
1
10
-1.99503997793928
20
21.5484022523455
30
0
41
1
10
-1.99503997793928
20
21.4923512863894
30
0
41
1
10
-1.99503997793928
20
21.4477036012609
30
0
41
1
10
-1.99503997793928
20
21.4004602751572
30
0
41
1
10
-1.99503997793928
20
21.3340243579833
30
0
41
1
10
-1.99503997793928
20
21.2626002065085
30
0
41
1
10
-1.99503997793928
20
21.1861355372814
30
0
41
1
10
-1.99503997793928
20
21.126355615456
30
0
41
1
10
-1.99503997793928
20
21.0641493981766
30
0
41
1
10
-1.99503997793928
20
20.9995415089612
30
0
41
1
10
-1.99503997793928
20
20.9325549476398
30
0
41
1
10
-1.99503997793928
20
20.8400664063016
30
0
41
1
10
-1.99503997793928
20
20.7430171949632
30
0
41
1
10
-1.99503997793928
20
20.6412830606924
30
0
41
1
10
-1.99503997793928
20
20.5627395849404
30
0
41
1
10
-1.99503997793928
20
20.4819464711493
30
0
41
1
10
-1.99503997793928
20
20.3989234016943
30
0
41
1
10
-1.99503997793928
20
20.3136873945745
30
0
41
1
10
-1.99503997793928
20
20.2262576082901
30
0
41
1
10
-1.99503997793928
20
20.136651569995
30
0
41
1
10
-1.99503997793928
20
20.0448848271876
30
0
41
1
10
-1.99503997793928
20
19.9509751576252
30
0
41
1
10
-1.99503997793928
20
19.8549383078336
30
0
41
1
10
-1.99503997793928
20
19.7567886026657
30
0
41
1
10
-1.99503997793928
20
19.6565424313982
30
0
41
1
10
-1.99503997793928
20
19.5542139601407
30
0
41
1
10
-1.99503997793928
20
19.4149698127943
30
0
41
1
10
-1.99503997793928
20
19.2717622924356
30
0
41
1
10
-1.99503997793928
20
19.1243520606764
30
0
41
1
10
-1.99503997793928
20
19.0305969699326
30
0
41
1
10
-1.99503997793928
20
18.9545457436666
30
0
41
1
10
-1.99503997793928
20
18.877828345234
30
0
41
1
10
-1.99503997793928
20
18.7418485706132
30
0
41
1
10
-1.99503997793928
20
18.5826225030747
30
0
41
1
10
-1.99503997793928
20
18.4193199892891
30
0
41
1
10
-1.99503997793928
20
18.2949375082747
30
0
41
1
10
-1.99503997793928
20
18.1686188381619
30
0
41
1
10
-1.99503997793928
20
17.9975681157064
30
0
41
1
10
-1.99503997793928
20
17.8228588844704
30
0
41
1
10
-1.99503997793928
20
17.6441795672679
30
0
41
1
10
-1.99503997793928
20
17.5309981410348
30
0
41
1
10
-1.99503997793928
20
17.4394590341184
30
0
41
1
10
-1.99503997793928
20
17.3472945498449
30
0
41
1
10
-1.99503997793928
20
17.1843913435575
30
0
41
1
10
-1.99503997793928
20
16.9946548235122
30
0
41
1
10
-1.99503997793928
20
16.8010333841432
30
0
41
1
10
-1.99503997793928
20
16.654027023888
30
0
41
1
10
-1.99503997793928
20
16.5051894370887
30
0
41
1
10
-1.99503997793928
20
16.3042392155796
30
0
41
1
10
-1.99503997793928
20
16.0998599858609
30
0
41
1
10
-1.99503997793928
20
15.8916662065006
30
0
41
1
10
-1.99503997793928
20
15.7601264684356
30
0
41
1
10
-1.99503997793928
20
15.6539352235828
30
0
41
1
10
-1.99503997793928
20
15.5471478788444
30
0
41
1
10
-1.99503997793928
20
15.4126292313156
30
0
41
1
10
-1.99503997793928
20
15.2493853238091
30
0
41
1
10
-1.99503997793928
20
15.1119089381336
30
0
41
1
10
-1.99503997793928
20
15.0009760777421
30
0
41
1
10
-1.99503997793928
20
14.8894548819647
30
0
41
1
10
-1.99503997793928
20
14.7490386600655
30
0
41
1
10
-1.99503997793928
20
14.578735707937
30
0
41
1
10
-1.99503997793928
20
14.4066808882548
30
0
41
1
10
-1.99503997793928
20
14.2328806917249
30
0
41
1
10
-1.99503997793928
20
14.0573388809364
30
0
41
1
10
-1.99503997793928
20
13.8800596938692
30
0
41
1
10
-1.99503997793928
20
13.7010488098078
30
0
41
1
10
-1.99503997793928
20
13.5203096364964
30
0
41
1
10
-1.99503997793928
20
13.3378467409434
30
0
41
1
10
-1.99503997793928
20
13.1536651576331
30
0
41
1
10
-1.99503997793928
20
12.967767664355
30
0
41
1
10
-1.99503997793928
20
12.7801589185361
30
0
41
1
10
-1.99503997793928
20
12.5908431445087
30
0
41
1
10
-1.99503997793928
20
12.3998230002593
30
0
41
1
10
-1.99503997793928
20
12.1427688173785
30
0
41
1
10
-1.99503997793928
20
11.8826118718573
30
0
41
1
10
-1.99503997793928
20
11.6187779306707
30
0
41
1
10
-1.99503997793928
20
11.4192921752591
30
0
41
1
10
-1.99503997793928
20
11.2181233733031
30
0
41
1
10
-1.99503997793928
20
11.0152750188843
30
0
41
1
10
-1.99503997793928
20
10.8107494713072
30
0
41
1
10
-1.99503997793928
20
10.6045508021232
30
0
41
1
10
-1.99503997793928
20
10.3966814407573
30
0
41
1
10
-1.99503997793928
20
10.1171870033238
30
0
41
1
10
-1.99503997793928
20
9.76392166117952
30
0
41
1
10
-1.99503997793928
20
9.33322608836653
30
0
41
1
10
-1.99503997793928
20
8.96893242084855
30
0
41
1
10
-1.99503997793928
20
8.67397578579323
30
0
41
1
10
-1.99503997793928
20
8.45121977200662
30
0
41
1
10
-1.99503997793928
20
8.22682776167494
30
0
41
1
10
-1.99503997793928
20
8.00080467620245
30
0
41
1
10
-1.99503997793928
20
7.77315513008728
30
0
41
1
10
-1.99503997793928
20
7.54388372935193
30
0
41
1
10
-1.99503997793928
20
7.31299637479285
30
0
41
1
10
-1.99503997793928
20
7.08049945458953
30
0
41
1
10
-1.99503997793928
20
6.8463997482805
30
0
41
1
10
-1.99503997793928
20
6.61070495432838
30
0
41
1
10
-1.99503997793928
20
6.37342319970753
30
0
41
1
10
-1.99503997793928
20
6.13456384015993
30
0
41
1
10
-1.99503997793928
20
5.89413749968628
30
0
41
1
10
-1.99503997793928
20
5.65215638001948
30
0
41
1
10
-1.99503997793928
20
5.4086336510897
30
0
41
1
10
-1.99503997793928
20
5.16358499073451
30
0
41
1
10
-1.99503997793928
20
4.95821799704331
30
0
41
1
10
-1.99503997793928
20
4.79299516838267
30
0
41
1
10
-1.99503997793928
20
4.66878842905288
30
0
41
1
10
-1.99503997793928
20
4.5442150281373
30
0
41
1
10
-1.99503997793928
20
4.37752561794156
30
0
41
1
10
-1.99503997793928
20
4.16851547631595
30
0
41
1
10
-1.99503997793928
20
3.95832363498766
30
0
41
1
10
-1.99503997793928
20
3.78926935835412
30
0
41
1
10
-1.99503997793928
20
3.66223142121836
30
0
41
1
10
-1.99503997793928
20
3.53485872774326
30
0
41
1
10
-1.99503997793928
20
3.36446603264318
30
0
41
1
10
-1.99503997793928
20
3.19381064862623
30
0
41
1
10
-1.99503997793928
20
3.02213557666008
30
0
41
1
10
-1.99503997793928
20
2.8931784837302
30
0
41
1
10
-1.99503997793928
20
2.76392442628162
30
0
41
1
10
-1.99503997793928
20
2.63438251344519
30
0
41
1
10
-1.99503997793928
20
2.50455988721876
30
0
41
1
10
-1.99503997793928
20
2.37446636334928
30
0
41
1
10
-1.99503997793928
20
2.24411116870439
30
0
41
1
10
-1.99503997793928
20
2.11350398186613
30
0
41
1
10
-1.99503997793928
20
1.98265625862297
30
0
41
1
10
-1.99503997793928
20
1.85157817347522
30
0
41
1
10
-1.99503997793928
20
1.72028262405345
30
0
41
1
10
-1.99503997793928
20
1.58878098022359
30
0
41
1
10
-1.99503997793928
20
1.45708718468359
30
0
41
1
10
-1.99503997793928
20
1.32521409071333
30
0
41
1
10
-1.99503997793928
20
1.19317647053177
30
0
41
1
10
-1.99503997793928
20
1.06098852682439
30
0
41
1
10
-1.99503997793928
20
0.928665923975672
30
0
41
1
10
-1.99503997793928
20
0.796224037396229
30
0
41
1
10
-1.99503997793928
20
0.663679321648374
30
0
41
1
10
-1.99503997793928
20
0.531048033506266
30
0
41
1
10
-1.99503997793928
20
0.398347293868937
30
0
41
1
10
-1.99503997793928
20
0.265594055935196
30
0
41
1
10
-1.99503997793928
20
0.132805828560237
30
0
41
1
10
-1.99503997793928
20
-2.0604887E-09
30
0
41
1
10
-1.99503997793928
20
-0.132805835966792
30
0
41
1
10
-1.99503997793928
20
-0.265594069601519
30
0
41
1
10
-1.99503997793928
20
-0.398347307093388
30
0
41
1
10
-1.99503997793928
20
-0.531048037421954
30
0
41
1
10
-1.99503997793928
20
-0.663679323049081
30
0
41
1
10
-1.99503997793928
20
-0.796224050825089
30
0
41
1
10
-1.99503997793928
20
-0.92866594303203
30
0
41
1
10
-1.99503997793928
20
-1.06098853158755
30
0
41
1
10
-1.99503997793928
20
-1.1931764657121
30
0
41
1
10
-1.99503997793928
20
-1.32521410103647
30
0
41
1
10
-1.99503997793928
20
-1.45708720896539
30
0
41
1
10
-1.99503997793928
20
-1.58878099035152
30
0
41
1
10
-1.99503997793928
20
-1.72028261530932
30
0
41
1
10
-1.99503997793928
20
-1.85157817419835
30
0
41
1
10
-1.99503997793928
20
-1.98265628188182
30
0
41
1
10
-1.99503997793928
20
-2.11350400419804
30
0
41
1
10
-1.99503997793928
20
-2.24411116714702
30
0
41
1
10
-1.99503997793928
20
-2.37446635053539
30
0
41
1
10
-1.99503997793928
20
-2.50455989433328
30
0
41
1
10
-1.99503997793928
20
-2.63438254221708
30
0
41
1
10
-1.99503997793928
20
-2.76392444618182
30
0
41
1
10
-1.99503997793928
20
-2.89317847799558
30
0
41
1
10
-1.99503997793928
20
-3.02213556164864
30
0
41
1
10
-1.99503997793928
20
-3.19381066067948
30
0
41
1
10
-1.99503997793928
20
-3.36446606295527
30
0
41
1
10
-1.99503997793928
20
-3.53485872835634
30
0
41
1
10
-1.99503997793928
20
-3.66223140396673
30
0
41
1
10
-1.99503997793928
20
-3.78926935085312
30
0
41
1
10
-1.99503997793928
20
-3.95832365779984
30
0
41
1
10
-1.99503997793928
20
-4.16851549788919
30
0
41
1
10
-1.99503997793928
20
-4.37752560184694
30
0
41
1
10
-1.99503997793928
20
-4.54421502107886
30
0
41
1
10
-1.99503997793928
20
-4.66878844332788
30
0
41
1
10
-1.99503997793928
20
-4.79299519854527
30
0
41
1
10
-1.99503997793928
20
-4.95821801342223
30
0
41
1
10
-1.99503997793928
20
-5.16358497720142
30
0
41
1
10
-1.99503997793928
20
-5.40863364784667
30
0
41
1
10
-1.99503997793928
20
-5.65215640891225
30
0
41
1
10
-1.99503997793928
20
-5.89413750153935
30
0
41
1
10
-1.99503997793928
20
-6.13456381441384
30
0
41
1
10
-1.99503997793928
20
-6.37342317953835
30
0
41
1
10
-1.99503997793928
20
-6.61070492919379
30
0
41
1
10
-1.99503997793928
20
-6.84639976314463
30
0
41
1
10
-1.99503997793928
20
-7.08049963775395
30
0
41
1
10
-1.99503997793928
20
-7.31299670603016
30
0
41
1
10
-1.99503997793928
20
-7.54388383469134
30
0
41
1
10
-1.99503997793928
20
-7.77315487290267
30
0
41
1
10
-1.99503997793928
20
-8.00080468509063
30
0
41
1
10
-1.99503997793928
20
-8.22682785520686
30
0
41
1
10
-1.99503997793928
20
-8.4512197921853
30
0
41
1
10
-1.99503997793928
20
-8.67397577159846
30
0
41
1
10
-1.99503997793928
20
-8.96893239301764
30
0
41
1
10
-1.99503997793928
20
-9.33322609823665
30
0
41
1
10
-1.99503997793928
20
-9.76392165975841
30
0
41
1
10
-1.99503997793928
20
-10.1171869828061
30
0
41
1
10
-1.99503997793928
20
-10.3966814549587
30
0
41
1
10
-1.99503997793928
20
-10.6045508126063
30
0
41
1
10
-1.99503997793928
20
-10.8107494592904
30
0
41
1
10
-1.99503997793928
20
-11.0152749978462
30
0
41
1
10
-1.99503997793928
20
-11.2181233670389
30
0
41
1
10
-1.99503997793928
20
-11.4192921870092
30
0
41
1
10
-1.99503997793928
20
-11.6187779427602
30
0
41
1
10
-1.99503997793928
20
-11.8826118620781
30
0
41
1
10
-1.99503997793928
20
-12.1427687977971
30
0
41
1
10
-1.99503997793928
20
-12.3998230071702
30
0
41
1
10
-1.99503997793928
20
-12.5908431584255
30
0
41
1
10
-1.99503997793928
20
-12.7801589212449
30
0
41
1
10
-1.99503997793928
20
-12.9677676529033
30
0
41
1
10
-1.99503997793928
20
-13.1536651432542
30
0
41
1
10
-1.99503997793928
20
-13.3378467396349
30
0
41
1
10
-1.99503997793928
20
-13.520309646993
30
0
41
1
10
-1.99503997793928
20
-13.7010488212408
30
0
41
1
10
-1.99503997793928
20
-13.8800597145162
30
0
41
1
10
-1.99503997793928
20
-14.0573389921213
30
0
41
1
10
-1.99503997793928
20
-14.2328810143213
30
0
41
1
10
-1.99503997793928
20
-14.4646959102749
30
0
41
1
10
-1.99503997793928
20
-14.6927797943809
30
0
41
1
10
-1.99503997793928
20
-14.9175842595472
30
0
41
1
10
-1.99503997793928
20
-15.1400402265273
30
0
41
1
10
-1.99503997793928
20
-15.3587351142266
30
0
41
1
10
-1.99503997793928
20
-15.574095422854
30
0
41
1
10
-1.99503997793928
20
-15.733775855726
30
0
41
1
10
-1.99503997793928
20
-15.8916657661057
30
0
41
1
10
-1.99503997793928
20
-16.0998603532658
30
0
41
1
10
-1.99503997793928
20
-16.3042398246232
30
0
41
1
10
-1.99503997793928
20
-16.5051894037979
30
0
41
1
10
-1.99503997793928
20
-16.6540265683948
30
0
41
1
10
-1.99503997793928
20
-16.8010329188422
30
0
41
1
10
-1.99503997793928
20
-16.9946550481209
30
0
41
1
10
-1.99503997793928
20
-17.1843924611907
30
0
41
1
10
-1.99503997793928
20
-17.3705928023913
30
0
41
1
10
-1.99503997793928
20
-17.5083251903719
30
0
41
1
10
-1.99503997793928
20
-17.6441786252734
30
0
41
1
10
-1.99503997793928
20
-17.8228590748674
30
0
41
1
10
-1.99503997793928
20
-17.9975683374733
30
0
41
1
10
-1.99503997793928
20
-18.1686188521771
30
0
41
1
10
-1.99503997793928
20
-18.2949373683468
30
0
41
1
10
-1.99503997793928
20
-18.4193198181252
30
0
41
1
10
-1.99503997793928
20
-18.5826226298873
30
0
41
1
10
-1.99503997793928
20
-18.7418497326446
30
0
41
1
10
-1.99503997793928
20
-18.8972761707097
30
0
41
1
10
-1.99503997793928
20
-19.0118150097952
30
0
41
1
10
-1.99503997793928
20
-19.1243510467918
30
0
41
1
10
-1.99503997793928
20
-19.2717625055688
30
0
41
1
10
-1.99503997793928
20
-19.414970513124
30
0
41
1
10
-1.99503997793928
20
-19.5542140249085
30
0
41
1
10
-1.99503997793928
20
-19.6565420567613
30
0
41
1
10
-1.99503997793928
20
-19.7567881415466
30
0
41
1
10
-1.99503997793928
20
-19.8549381550126
30
0
41
1
10
-1.99503997793928
20
-19.9509751416388
30
0
41
1
10
-1.99503997793928
20
-20.0448848362119
30
0
41
1
10
-1.99503997793928
20
-20.1366515718167
30
0
41
1
10
-1.99503997793928
20
-20.2262576202058
30
0
41
1
10
-1.99503997793928
20
-20.3136874196731
30
0
41
1
10
-1.99503997793928
20
-20.398923430088
30
0
41
1
10
-1.99503997793928
20
-20.4819464863244
30
0
41
1
10
-1.99503997793928
20
-20.5627395868944
30
0
41
1
10
-1.99503997793928
20
-20.6412830627252
30
0
41
1
10
-1.99503997793928
20
-20.7430172190698
30
0
41
1
10
-1.99503997793928
20
-20.8400664428987
30
0
41
1
10
-1.99503997793928
20
-20.9325549572362
30
0
41
1
10
-1.99503997793928
20
-20.9995415068112
30
0
41
1
10
-1.99503997793928
20
-21.064149408511
30
0
41
1
10
-1.99503997793928
20
-21.1263556466612
30
0
41
1
10
-1.99503997793928
20
-21.1861355753666
30
0
41
1
10
-1.99503997793928
20
-21.262600218376
30
0
41
1
10
-1.99503997793928
20
-21.3340243512753
30
0
41
1
10
-1.99503997793928
20
-21.4004603045828
30
0
41
1
10
-1.99503997793928
20
-21.4477036445725
30
0
41
1
10
-1.99503997793928
20
-21.4923513092323
30
0
41
1
10
-1.99503997793928
20
-21.5484022410126
30
0
41
1
10
-1.99503997793928
20
-21.5990695510926
30
0
41
1
10
-1.99503997793928
20
-21.6443396610233
30
0
41
1
10
-1.99503997793928
20
-21.6755105092645
30
0
41
1
10
-1.99503997793928
20
-21.7038764495607
30
0
41
1
10
-1.99503997793928
20
-21.7293964429163
30
0
41
1
10
-1.99503997793928
20
-21.7520292420694
30
0
41
1
10
-1.99503997793928
20
-21.7717309018817
30
0
41
1
10
-1.99503997793928
20
-21.7884557380592
30
0
41
1
10
-1.99503997793928
20
-21.8021565310045
30
0
41
1
10
-1.99503997793928
20
-21.8127830851058
30
0
41
1
10
-1.99503997793928
20
-21.8202838734724
30
0
41
1
10
-1.99503997793928
20
-21.8245113461877
30
0
41
1
10
-1.99503997793928
20
-21.8252773504997
30
0
41
1
10
-1.99503997793928
20
-21.8251671007396
30
0
0
SPLINE
5
19C
100
AcDbEntity
8
SK1
62
256
6
ByLayer
370
18
48
1
60
0
100
AcDbSpline
70
4
71
3
72
22
73
18
40
0
40
0
40
0
40
0
40
0.038427246458711
40
0.038427246458711
40
0.0775026456766427
40
0.0775026456766427
40
0.106475059033524
40
0.106475059033524
40
0.135305917881828
40
0.135305917881828
40
0.182167074412018
40
0.182167074412018
40
0.275660663800869
40
0.275660663800869
40
0.616530102228659
40
0.616530102228659
40
1
40
1
40
1
40
1
41
1
10
-0.394976888875306
20
-6.32694279392757
30
0
41
1
10
-0.414867561016194
20
-6.34445862132063
30
0
41
1
10
-0.436644357284194
20
-6.36058691921457
30
0
41
1
10
-0.484524151203374
20
-6.3868168818706
30
0
41
1
10
-0.511419954277358
20
-6.39702622866628
30
0
41
1
10
-0.560078773491597
20
-6.40490957850619
30
0
41
1
10
-0.58185248496946
20
-6.40512642059926
30
0
41
1
10
-0.623683911276856
20
-6.39912423041605
30
0
41
1
10
-0.644207278837683
20
-6.39293597600829
30
0
41
1
10
-0.694134540330907
20
-6.37121870092642
30
0
41
1
10
-0.722113964046542
20
-6.35215911803172
30
0
41
1
10
-0.796598131612939
20
-6.28903777408343
30
0
41
1
10
-0.836555557792792
20
-6.23798237717094
30
0
41
1
10
-0.997773060879837
20
-5.995390913813
30
0
41
1
10
-1.07178904300878
20
-5.77805690787602
30
0
41
1
10
-1.20827315239353
20
-5.31693201445015
30
0
41
1
10
-1.26212533694985
20
-5.06551762472202
30
0
41
1
10
-1.30710678118655
20
-4.81101321788441
30
0
0
SPLINE
5
19D
100
AcDbEntity
8
SK1
62
256
6
ByLayer
370
18
48
1
60
0
100
AcDbSpline
70
4
71
3
72
115
73
111
40
0
40
0
40
0
40
0
40
0.0065652117875795
40
0.0151093795811985
40
0.0236535473748174
40
0.0321977151684364
40
0.0407418829620553
40
0.0492860507556743
40
0.0578302185492932
40
0.0663743863429122
40
0.0834627219301501
40
0.100551057517388
40
0.117639393104626
40
0.126183560898245
40
0.134727728691864
40
0.143271896485483
40
0.151816064279102
40
0.16890439986634
40
0.177448567659959
40
0.185992735453577
40
0.194536903247196
40
0.203081071040815
40
0.211625238834434
40
0.220169406628053
40
0.237257742215291
40
0.24580191000891
40
0.254346077802529
40
0.262890245596148
40
0.271434413389767
40
0.279978581183386
40
0.288522748977005
40
0.297066916770624
40
0.305611084564243
40
0.314155252357862
40
0.322699420151481
40
0.3312435879451
40
0.339787755738719
40
0.348331923532338
40
0.356876091325956
40
0.373964426913194
40
0.382508594706813
40
0.391052762500432
40
0.395324846397242
40
0.399596930294051
40
0.40814109808767
40
0.425229433674908
40
0.433773601468527
40
0.442317769262146
40
0.450861937055765
40
0.459406104849384
40
0.476494440436622
40
0.485038608230241
40
0.49358277602386
40
0.497854859920669
40
0.502126943817479
40
0.510671111611098
40
0.527759447198335
40
0.536303614991954
40
0.544847782785573
40
0.553391950579192
40
0.561936118372811
40
0.579024453960049
40
0.587568621753668
40
0.596112789547287
40
0.600384873444097
40
0.604656957340906
40
0.613201125134525
40
0.621745292928144
40
0.630289460721763
40
0.634561544618572
40
0.638833628515382
40
0.647377796309001
40
0.65592196410262
40
0.664466131896239
40
0.673010299689858
40
0.681554467483476
40
0.690098635277096
40
0.698642803070714
40
0.707186970864333
40
0.715731138657952
40
0.724275306451571
40
0.73281947424519
40
0.741363642038809
40
0.749907809832428
40
0.758451977626047
40
0.766996145419666
40
0.784084481006904
40
0.792628648800523
40
0.801172816594142
40
0.809716984387761
40
0.81826115218138
40
0.826805319974999
40
0.835349487768618
40
0.843893655562237
40
0.852437823355856
40
0.869526158943093
40
0.886614494530331
40
0.903702830117569
40
0.912246997911188
40
0.920791165704807
40
0.929335333498426
40
0.937879501292045
40
0.946423669085664
40
0.954967836879283
40
0.963512004672902
40
0.972056172466521
40
0.98060034026014
40
0.989144508053759
40
0.997688675847378
40
1
40
1
40
1
40
1
41
1
10
-0.394976888875277
20
21.8653790905408
30
0
41
1
10
-0.394976888875249
20
21.8653285663343
30
0
41
1
10
-0.394976888875249
20
21.8644673808657
30
0
41
1
10
-0.394976888875277
20
21.8604737650697
30
0
41
1
10
-0.394976888875277
20
21.8529598769268
30
0
41
1
10
-0.394976888875277
20
21.8423149188875
30
0
41
1
10
-0.394976888875277
20
21.8285907137819
30
0
41
1
10
-0.394976888875277
20
21.8118377229246
30
0
41
1
10
-0.394976888875277
20
21.7921034347989
30
0
41
1
10
-0.394976888875277
20
21.7618666429643
30
0
41
1
10
-0.394976888875277
20
21.7168668922192
30
0
41
1
10
-0.394976888875277
20
21.651618462036
30
0
41
1
10
-0.394976888875277
20
21.5881524120742
30
0
41
1
10
-0.394976888875277
20
21.5320229149808
30
0
41
1
10
-0.394976888875277
20
21.4873092663299
30
0
41
1
10
-0.394976888875277
20
21.4399968711307
30
0
41
1
10
-0.394976888875277
20
21.3734709387681
30
0
41
1
10
-0.394976888875277
20
21.3019320664004
30
0
41
1
10
-0.394976888875277
20
21.2253664719936
30
0
41
1
10
-0.394976888875277
20
21.1655031445011
30
0
41
1
10
-0.394976888875277
20
21.1032108723211
30
0
41
1
10
-0.394976888875277
20
21.038514297088
30
0
41
1
10
-0.394976888875277
20
20.9714364994015
30
0
41
1
10
-0.394976888875277
20
20.8788308563806
30
0
41
1
10
-0.394976888875277
20
20.7816354627076
30
0
41
1
10
-0.394976888875277
20
20.6797749496461
30
0
41
1
10
-0.394976888875277
20
20.6011280536546
30
0
41
1
10
-0.394976888875277
20
20.5202292190253
30
0
41
1
10
-0.394976888875277
20
20.4370981008412
30
0
41
1
10
-0.394976888875277
20
20.3517517634561
30
0
41
1
10
-0.394976888875277
20
20.2642094206366
30
0
41
1
10
-0.394976888875277
20
20.1744885542463
30
0
41
1
10
-0.394976888875277
20
20.082604770276
30
0
41
1
10
-0.394976888875277
20
19.9885758834751
30
0
41
1
10
-0.394976888875277
20
19.8924175863555
30
0
41
1
10
-0.394976888875277
20
19.79414426657
30
0
41
1
10
-0.394976888875277
20
19.6937723311917
30
0
41
1
10
-0.394976888875277
20
19.5913158900225
30
0
41
1
10
-0.394976888875277
20
19.4519091739392
30
0
41
1
10
-0.394976888875277
20
19.308501644014
30
0
41
1
10
-0.394976888875277
20
19.160920630363
30
0
41
1
10
-0.394976888875277
20
19.0670441229991
30
0
41
1
10
-0.394976888875277
20
18.9909051568102
30
0
41
1
10
-0.394976888875277
20
18.9140993494365
30
0
41
1
10
-0.394976888875277
20
18.777958735224
30
0
41
1
10
-0.394976888875277
20
18.6185131846482
30
0
41
1
10
-0.394976888875277
20
18.4550236113311
30
0
41
1
10
-0.394976888875277
20
18.330489335967
30
0
41
1
10
-0.394976888875277
20
18.2040166079408
30
0
41
1
10
-0.394976888875277
20
18.0327705937831
30
0
41
1
10
-0.394976888875277
20
17.8578219077773
30
0
41
1
10
-0.394976888875277
20
17.6789387292296
30
0
41
1
10
-0.394976888875277
20
17.5656125946474
30
0
41
1
10
-0.394976888875277
20
17.4739690253912
30
0
41
1
10
-0.394976888875277
20
17.3816993239948
30
0
41
1
10
-0.394976888875277
20
17.2186048360495
30
0
41
1
10
-0.394976888875277
20
17.0286078387926
30
0
41
1
10
-0.394976888875277
20
16.8347647509306
30
0
41
1
10
-0.394976888875277
20
16.6875786248762
30
0
41
1
10
-0.394976888875277
20
16.5385587049943
30
0
41
1
10
-0.394976888875277
20
16.3373774066279
30
0
41
1
10
-0.394976888875277
20
16.1327150774874
30
0
41
1
10
-0.394976888875277
20
15.9242804112408
30
0
41
1
10
-0.394976888875277
20
15.7925696820839
30
0
41
1
10
-0.394976888875277
20
15.6862549949744
30
0
41
1
10
-0.394976888875277
20
15.5793432837569
30
0
41
1
10
-0.394976888875277
20
15.4446487492657
30
0
41
1
10
-0.394976888875277
20
15.2812010193763
30
0
41
1
10
-0.394976888875277
20
15.1435436982815
30
0
41
1
10
-0.394976888875277
20
15.0324801920763
30
0
41
1
10
-0.394976888875277
20
14.9208273816877
30
0
41
1
10
-0.394976888875277
20
14.7802248596231
30
0
41
1
10
-0.394976888875277
20
14.6097059483473
30
0
41
1
10
-0.394976888875277
20
14.4374320816019
30
0
41
1
10
-0.394976888875277
20
14.2634095816694
30
0
41
1
10
-0.394976888875277
20
14.0876420714538
30
0
41
1
10
-0.394976888875277
20
13.9101338497815
30
0
41
1
10
-0.394976888875277
20
13.7308904366346
30
0
41
1
10
-0.394976888875277
20
13.549915145406
30
0
41
1
10
-0.394976888875277
20
13.3672125481811
30
0
41
1
10
-0.394976888875277
20
13.182787463215
30
0
41
1
10
-0.394976888875277
20
12.9966426140257
30
0
41
1
10
-0.394976888875277
20
12.8087826212334
30
0
41
1
10
-0.394976888875277
20
12.6192114742801
30
0
41
1
10
-0.394976888875277
20
12.4279318017785
30
0
41
1
10
-0.394976888875277
20
12.1705475891153
30
0
41
1
10
-0.394976888875277
20
11.9099848332047
30
0
41
1
10
-0.394976888875277
20
11.6458042855523
30
0
41
1
10
-0.394976888875277
20
11.4460361066677
30
0
41
1
10
-0.394976888875277
20
11.2445799083311
30
0
41
1
10
-0.394976888875277
20
11.0414389105764
30
0
41
1
10
-0.394976888875277
20
10.8366153761928
30
0
41
1
10
-0.394976888875277
20
10.630113157504
30
0
41
1
10
-0.394976888875277
20
10.4219344610486
30
0
41
1
10
-0.394976888875277
20
10.1420454829465
30
0
41
1
10
-0.394976888875277
20
9.78821091215369
30
0
41
1
10
-0.394976888875277
20
9.3568391135907
30
0
41
1
10
-0.394976888875277
20
8.99192950801697
30
0
41
1
10
-0.394976888875277
20
8.69651812098675
30
0
41
1
10
-0.394976888875277
20
8.47338949471808
30
0
41
1
10
-0.394976888875277
20
8.24861627222975
30
0
41
1
10
-0.394976888875277
20
8.0222029406992
30
0
41
1
10
-0.394976888875277
20
7.79415362199521
30
0
41
1
10
-0.394976888875277
20
7.56447255210355
30
0
41
1
10
-0.394976888875277
20
7.33316516004027
30
0
41
1
10
-0.394976888875277
20
7.10023725398264
30
0
41
1
10
-0.394976888875277
20
6.86569504295815
30
0
41
1
10
-0.394976888875277
20
6.62954558311137
30
0
41
1
10
-0.394976888875277
20
6.44960786563362
30
0
41
1
10
-0.394976888875277
20
6.34849183540922
30
0
41
1
10
-0.394976888875277
20
6.32694309067119
30
0
0
SPLINE
5
19E
100
AcDbEntity
8
SK1
62
256
6
ByLayer
370
18
48
1
60
0
100
AcDbSpline
70
4
71
3
72
299
73
295
40
0
40
0
40
0
40
0
40
0.0029484216110837
40
0.0064734917350979
40
0.0099985618591122
40
0.0135236319831265
40
0.0170487021071407
40
0.020573772231155
40
0.0240988423551692
40
0.0276239124791835
40
0.034674052727212
40
0.0417241929752405
40
0.048774333223269
40
0.0522994033472833
40
0.0558244734712975
40
0.0593495435953118
40
0.062874613719326
40
0.0699247539673545
40
0.0734498240913688
40
0.076974894215383
40
0.0804999643393973
40
0.0840250344634115
40
0.0875501045874258
40
0.0910751747114401
40
0.0981253149594685
40
0.101650385083483
40
0.105175455207497
40
0.108700525331511
40
0.112225595455526
40
0.11575066557954
40
0.119275735703554
40
0.122800805827568
40
0.126325875951583
40
0.129850946075597
40
0.133376016199611
40
0.136901086323625
40
0.14042615644764
40
0.143951226571654
40
0.147476296695668
40
0.154526436943697
40
0.158051507067711
40
0.161576577191725
40
0.163339112253732
40
0.165101647315739
40
0.168626717439754
40
0.175676857687782
40
0.179201927811797
40
0.182726997935811
40
0.186252068059825
40
0.189777138183839
40
0.196827278431868
40
0.200352348555882
40
0.203877418679896
40
0.205639953741903
40
0.207402488803911
40
0.210927558927925
40
0.217977699175953
40
0.221502769299968
40
0.225027839423982
40
0.228552909547996
40
0.23207797967201
40
0.239128119920039
40
0.242653190044053
40
0.246178260168067
40
0.247940795230075
40
0.249703330292081
40
0.253228400416096
40
0.25675347054011
40
0.260278540664124
40
0.262041075726131
40
0.263803610788139
40
0.267328680912153
40
0.270853751036167
40
0.274378821160181
40
0.277903891284196
40
0.28142896140821
40
0.284954031532224
40
0.288479101656238
40
0.292004171780253
40
0.295529241904267
40
0.299054312028281
40
0.302579382152295
40
0.30610445227631
40
0.309629522400324
40
0.313154592524338
40
0.316679662648352
40
0.323729802896381
40
0.327254873020395
40
0.330779943144409
40
0.334305013268424
40
0.337830083392438
40
0.341355153516452
40
0.344880223640466
40
0.348405293764481
40
0.351930363888495
40
0.358980504136523
40
0.366030644384552
40
0.37308078463258
40
0.376605854756595
40
0.380130924880609
40
0.383655995004623
40
0.387181065128637
40
0.390706135252652
40
0.394231205376666
40
0.39775627550068
40
0.401281345624694
40
0.404806415748709
40
0.408331485872723
40
0.411856555996737
40
0.415381626120752
40
0.418906696244766
40
0.42243176636878
40
0.425956836492794
40
0.429481906616809
40
0.433006976740823
40
0.43476951180283
40
0.436532046864837
40
0.438294581926844
40
0.440057116988851
40
0.443582187112866
40
0.44710725723688
40
0.448869792298887
40
0.450632327360894
40
0.452394862422901
40
0.454157397484908
40
0.457682467608923
40
0.45944500267093
40
0.461207537732937
40
0.462970072794944
40
0.464732607856951
40
0.466495142918958
40
0.468257677980965
40
0.470020213042972
40
0.47178274810498
40
0.473545283166987
40
0.475307818228994
40
0.477070353291001
40
0.478832888353008
40
0.480595423415015
40
0.482357958477022
40
0.48412049353903
40
0.485883028601037
40
0.487645563663044
40
0.489408098725051
40
0.491170633787058
40
0.492933168849065
40
0.494695703911072
40
0.496458238973079
40
0.498220774035087
40
0.499983309097094
40
0.501745844159101
40
0.503508379221108
40
0.505270914283115
40
0.507033449345122
40
0.508795984407129
40
0.510558519469136
40
0.512321054531144
40
0.514083589593151
40
0.515846124655158
40
0.517608659717165
40
0.519371194779172
40
0.521133729841179
40
0.522896264903186
40
0.524658799965193
40
0.526421335027201
40
0.528183870089208
40
0.529946405151215
40
0.531708940213222
40
0.533471475275229
40
0.535234010337236
40
0.536996545399243
40
0.53875908046125
40
0.540521615523258
40
0.542284150585265
40
0.545809220709279
40
0.547571755771286
40
0.549334290833293
40
0.551096825895301
40
0.552859360957307
40
0.556384431081322
40
0.559909501205336
40
0.561672036267343
40
0.56343457132935
40
0.565197106391357
40
0.566959641453365
40
0.570484711577379
40
0.574009781701393
40
0.577534851825407
40
0.581059921949421
40
0.584584992073436
40
0.58811006219745
40
0.591635132321464
40
0.595160202445479
40
0.598685272569493
40
0.602210342693507
40
0.605735412817521
40
0.609260482941535
40
0.61278555306555
40
0.616310623189564
40
0.619835693313578
40
0.623360763437593
40
0.626885833561607
40
0.633935973809635
40
0.640986114057664
40
0.648036254305692
40
0.651561324429707
40
0.655086394553721
40
0.658611464677735
40
0.662136534801749
40
0.665661604925764
40
0.669186675049778
40
0.672711745173792
40
0.676236815297806
40
0.683286955545835
40
0.686812025669849
40
0.690337095793863
40
0.693862165917878
40
0.697387236041892
40
0.700912306165906
40
0.70443737628992
40
0.707962446413935
40
0.711487516537949
40
0.715012586661963
40
0.718537656785977
40
0.722062726909992
40
0.725587797034006
40
0.732637937282034
40
0.736163007406049
40
0.739688077530063
40
0.746738217778092
40
0.750263287902106
40
0.75378835802612
40
0.757313428150134
40
0.760838498274149
40
0.767888638522177
40
0.771413708646191
40
0.774938778770206
40
0.77846384889422
40
0.781988919018234
40
0.789039059266263
40
0.792564129390277
40
0.796089199514291
40
0.799614269638306
40
0.80313933976232
40
0.810189480010348
40
0.813714550134362
40
0.817239620258377
40
0.820764690382391
40
0.824289760506405
40
0.831339900754434
40
0.834864970878448
40
0.838390041002462
40
0.841915111126476
40
0.845440181250491
40
0.852490321498519
40
0.856015391622533
40
0.859540461746548
40
0.863065531870562
40
0.866590601994576
40
0.87011567211859
40
0.873640742242605
40
0.877165812366619
40
0.880690882490633
40
0.884215952614648
40
0.887741022738662
40
0.891266092862676
40
0.89479116298669
40
0.898316233110705
40
0.901841303234719
40
0.908891443482747
40
0.912416513606761
40
0.915941583730776
40
0.91946665385479
40
0.922991723978804
40
0.926516794102819
40
0.930041864226833
40
0.937092004474861
40
0.940617074598875
40
0.94414214472289
40
0.947667214846904
40
0.951192284970918
40
0.958242425218947
40
0.961767495342961
40
0.965292565466975
40
0.96881763559099
40
0.972342705715004
40
0.975867775839018
40
0.979392845963032
40
0.982917916087047
40
0.986442986211061
40
0.989968056335075
40
0.993493126459089
40
0.997018196583104
40
1
40
1
40
1
40
1
41
1
10
-38
20
20.2923486425708
30
0
41
1
10
-38
20
20.2923552205563
30
0
41
1
10
-38
20
20.2915872482167
30
0
41
1
10
-38
20
20.2877827415225
30
0
41
1
10
-38
20
20.2807871950942
30
0
41
1
10
-38
20
20.270864225278
30
0
41
1
10
-38
20
20.2580557575388
30
0
41
1
10
-38
20
20.2424031034125
30
0
41
1
10
-38
20
20.2239454925533
30
0
41
1
10
-38
20
20.19551262204
30
0
41
1
10
-38
20
20.153458157969
30
0
41
1
10
-38
20
20.0921783324266
30
0
41
1
10
-38
20
20.0326760120608
30
0
41
1
10
-38
20
19.9796195423852
30
0
41
1
10
-38
20
19.9374871337363
30
0
41
1
10
-38
20
19.8928775037255
30
0
41
1
10
-38
20
19.8298739849263
30
0
41
1
10
-38
20
19.7628242930463
30
0
41
1
10
-38
20
19.6902080345968
30
0
41
1
10
-38
20
19.6336084813315
30
0
41
1
10
-38
20
19.5746836513967
30
0
41
1
10
-38
20
19.5134574775013
30
0
41
1
10
-38
20
19.4499498796239
30
0
41
1
10
-38
20
19.361926580552
30
0
41
1
10
-38
20
19.2704514952516
30
0
41
1
10
-38
20
19.1735363516591
30
0
41
1
10
-38
20
19.0989364266239
30
0
41
1
10
-38
20
19.0221745884206
30
0
41
1
10
-38
20
18.9432715601189
30
0
41
1
10
-38
20
18.8622425921487
30
0
41
1
10
-38
20
18.7791047356355
30
0
41
1
10
-38
20
18.6938772447032
30
0
41
1
10
-38
20
18.6065734364562
30
0
41
1
10
-38
20
18.5172096781029
30
0
41
1
10
-38
20
18.4258037757915
30
0
41
1
10
-38
20
18.3323676597213
30
0
41
1
10
-38
20
18.236917040573
30
0
41
1
10
-38
20
18.1394682315479
30
0
41
1
10
-38
20
18.006423045464
30
0
41
1
10
-38
20
17.870842154793
30
0
41
1
10
-38
20
17.7299440627733
30
0
41
1
10
-38
20
17.6408187485726
30
0
41
1
10
-38
20
17.5681131617785
30
0
41
1
10
-38
20
17.4947669133713
30
0
41
1
10
-38
20
17.3649201654158
30
0
41
1
10
-38
20
17.2140632768009
30
0
41
1
10
-38
20
17.0578935907134
30
0
41
1
10
-38
20
16.9392992293059
30
0
41
1
10
-38
20
16.8188549914818
30
0
41
1
10
-38
20
16.6552510003021
30
0
41
1
10
-38
20
16.489672496603
30
0
41
1
10
-38
20
16.3187666825072
30
0
41
1
10
-38
20
16.2111031772939
30
0
41
1
10
-38
20
16.1235473577608
30
0
41
1
10
-38
20
16.0353949417433
30
0
41
1
10
-38
20
15.8797855584285
30
0
41
1
10
-38
20
15.6999813794666
30
0
41
1
10
-38
20
15.5148116907138
30
0
41
1
10
-38
20
15.3746600384839
30
0
41
1
10
-38
20
15.2327750536327
30
0
41
1
10
-38
20
15.0406360987563
30
0
41
1
10
-38
20
14.8470518249568
30
0
41
1
10
-38
20
14.6480433816337
30
0
41
1
10
-38
20
14.5230237603812
30
0
41
1
10
-38
20
14.4215395322791
30
0
41
1
10
-38
20
14.319494446119
30
0
41
1
10
-38
20
14.1916826014269
30
0
41
1
10
-38
20
14.0362107113462
30
0
41
1
10
-38
20
13.905633632864
30
0
41
1
10
-38
20
13.7996824703933
30
0
41
1
10
-38
20
13.6931799140641
30
0
41
1
10
-38
20
13.5598675642285
30
0
41
1
10
-38
20
13.3977994204325
30
0
41
1
10
-38
20
13.2340971553998
30
0
41
1
10
-38
20
13.0687736820565
30
0
41
1
10
-38
20
12.9018380893652
30
0
41
1
10
-38
20
12.7332922951509
30
0
41
1
10
-38
20
12.5631480531082
30
0
41
1
10
-38
20
12.3914123687224
30
0
41
1
10
-38
20
12.2180896154105
30
0
41
1
10
-38
20
12.0431930727568
30
0
41
1
10
-38
20
11.8667275879997
30
0
41
1
10
-38
20
11.6886992220563
30
0
41
1
10
-38
20
11.5091211559413
30
0
41
1
10
-38
20
11.3279971676986
30
0
41
1
10
-38
20
11.0835274575533
30
0
41
1
10
-38
20
10.8388445996823
30
0
41
1
10
-38
20
10.5882272221232
30
0
41
1
10
-38
20
10.3995106478125
30
0
41
1
10
-38
20
10.2093006505112
30
0
41
1
10
-38
20
10.0176111741013
30
0
41
1
10
-38
20
9.82444825814403
30
0
41
1
10
-38
20
9.62982433363783
30
0
41
1
10
-38
20
9.43375032895256
30
0
41
1
10
-38
20
9.16930024978848
30
0
41
1
10
-38
20
8.83774034996793
30
0
41
1
10
-38
20
8.43283016067576
30
0
41
1
10
-38
20
8.09202302704495
30
0
41
1
10
-38
20
7.81440668711983
30
0
41
1
10
-38
20
7.60585888080689
30
0
41
1
10
-38
20
7.39600299493051
30
0
41
1
10
-38
20
7.18486050853949
30
0
41
1
10
-38
20
6.972454820743
30
0
41
1
10
-38
20
6.75880464755275
30
0
41
1
10
-38
20
6.54393387937549
30
0
41
1
10
-38
20
6.32787102064523
30
0
41
1
10
-38
20
6.11064460524281
30
0
41
1
10
-38
20
5.89228682406826
30
0
41
1
10
-38
20
5.67283049766701
30
0
41
1
10
-38
20
5.45231041402207
30
0
41
1
10
-38
20
5.2307661198837
30
0
41
1
10
-38
20
5.00824236668089
30
0
41
1
10
-38
20
4.78478453894905
30
0
41
1
10
-38
20
4.56044477194348
30
0
41
1
10
-38
20
4.3737593142329
30
0
41
1
10
-38
20
4.22222174308931
30
0
41
1
10
-38
20
4.10916467830541
30
0
41
1
10
-38
20
3.99593123757288
30
0
41
1
10
-38
20
3.84368490764803
30
0
41
1
10
-38
20
3.65544484289478
30
0
41
1
10
-38
20
3.46668355973628
30
0
41
1
10
-38
20
3.31336520651504
30
0
41
1
10
-38
20
3.19916977025284
30
0
41
1
10
-38
20
3.0848771849204
30
0
41
1
10
-38
20
2.93116533478539
30
0
41
1
10
-38
20
2.7810630459212
30
0
41
1
10
-38
20
2.62697343511894
30
0
41
1
10
-38
20
2.51237687493429
30
0
41
1
10
-38
20
2.39774974487253
30
0
41
1
10
-38
20
2.28311555219403
30
0
41
1
10
-38
20
2.16847618976473
30
0
41
1
10
-38
20
2.05384840107453
30
0
41
1
10
-38
20
1.93924458170406
30
0
41
1
10
-38
20
1.82466899171223
30
0
41
1
10
-38
20
1.71014121398446
30
0
41
1
10
-38
20
1.59566009898879
30
0
41
1
10
-38
20
1.48124309885608
30
0
41
1
10
-38
20
1.36688883878045
30
0
41
1
10
-38
20
1.25260906632701
30
0
41
1
10
-38
20
1.13840321986405
30
0
41
1
10
-38
20
1.02427614220741
30
0
41
1
10
-38
20
0.910225811803912
30
0
41
1
10
-38
20
0.796251800903974
30
0
41
1
10
-38
20
0.682349388495624
30
0
41
1
10
-38
20
0.568513483413511
30
0
41
1
10
-38
20
0.454735475948979
30
0
41
1
10
-38
20
0.341006791030111
30
0
41
1
10
-38
20
0.227315919379521
30
0
41
1
10
-38
20
0.113651444289076
30
0
41
1
10
-38
20
2.39307099E-08
30
0
41
1
10
-38
20
-0.113651428861147
30
0
41
1
10
-38
20
-0.227315965161807
30
0
41
1
10
-38
20
-0.341006831114754
30
0
41
1
10
-38
20
-0.454735424962735
30
0
41
1
10
-38
20
-0.568513412391525
30
0
41
1
10
-38
20
-0.682349437337052
30
0
41
1
10
-38
20
-0.796251898049235
30
0
41
1
10
-38
20
-0.910225765592202
30
0
41
1
10
-38
20
-1.02427601417025
30
0
41
1
10
-38
20
-1.13840324907633
30
0
41
1
10
-38
20
-1.25260921865757
30
0
41
1
10
-38
20
-1.36688883944314
30
0
41
1
10
-38
20
-1.48124293103632
30
0
41
1
10
-38
20
-1.59566004663384
30
0
41
1
10
-38
20
-1.71014137238996
30
0
41
1
10
-38
20
-1.82466911261432
30
0
41
1
10
-38
20
-1.93924446866484
30
0
41
1
10
-38
20
-2.05384821372689
30
0
41
1
10
-38
20
-2.16847621903287
30
0
41
1
10
-38
20
-2.28311576323418
30
0
41
1
10
-38
20
-2.39774983280105
30
0
41
1
10
-38
20
-2.51237672316307
30
0
41
1
10
-38
20
-2.62697323991799
30
0
41
1
10
-38
20
-2.78106315146928
30
0
41
1
10
-38
20
-2.93116552693385
30
0
41
1
10
-38
20
-3.08487708212581
30
0
41
1
10
-38
20
-3.19916954549007
30
0
41
1
10
-38
20
-3.31336512600546
30
0
41
1
10
-38
20
-3.46668375918677
30
0
41
1
10
-38
20
-3.65544489425085
30
0
41
1
10
-38
20
-3.84368470208372
30
0
41
1
10
-38
20
-3.99593117493791
30
0
41
1
10
-38
20
-4.10916481607396
30
0
41
1
10
-38
20
-4.22222196867938
30
0
41
1
10
-38
20
-4.37375933349006
30
0
41
1
10
-38
20
-4.56044458630845
30
0
41
1
10
-38
20
-4.78478457648492
30
0
41
1
10
-38
20
-5.00824253816086
30
0
41
1
10
-38
20
-5.23076600439052
30
0
41
1
10
-38
20
-5.45231022599046
30
0
41
1
10
-38
20
-5.67283041504652
30
0
41
1
10
-38
20
-5.89228674128222
30
0
41
1
10
-38
20
-6.11064496108523
30
0
41
1
10
-38
20
-6.32787239667013
30
0
41
1
10
-38
20
-6.54393525610644
30
0
41
1
10
-38
20
-6.75880334040127
30
0
41
1
10
-38
20
-6.97245311766207
30
0
41
1
10
-38
20
-7.18486111103374
30
0
41
1
10
-38
20
-7.39600347561742
30
0
41
1
10
-38
20
-7.60585874971361
30
0
41
1
10
-38
20
-7.8144064520111
30
0
41
1
10
-38
20
-8.09202295752311
30
0
41
1
10
-38
20
-8.43283023540656
30
0
41
1
10
-38
20
-8.83774029355055
30
0
41
1
10
-38
20
-9.16930023887323
30
0
41
1
10
-38
20
-9.43375044009511
30
0
41
1
10
-38
20
-9.62982432960192
30
0
41
1
10
-38
20
-9.82444814962994
30
0
41
1
10
-38
20
-10.0176111126089
30
0
41
1
10
-38
20
-10.2093007057547
30
0
41
1
10
-38
20
-10.3995107409486
30
0
41
1
10
-38
20
-10.5882272324294
30
0
41
1
10
-38
20
-10.8388445170812
30
0
41
1
10
-38
20
-11.0835274377931
30
0
41
1
10
-38
20
-11.327997250045
30
0
41
1
10
-38
20
-11.5091211965041
30
0
41
1
10
-38
20
-11.6886991809046
30
0
41
1
10
-38
20
-11.8667275177687
30
0
41
1
10
-38
20
-12.0431930522803
30
0
41
1
10
-38
20
-12.2180896645831
30
0
41
1
10
-38
20
-12.3914124247035
30
0
41
1
10
-38
20
-12.5631480735019
30
0
41
1
10
-38
20
-12.7332924196477
30
0
41
1
10
-38
20
-12.9018387248249
30
0
41
1
10
-38
20
-13.068774902876
30
0
41
1
10
-38
20
-13.2899980003418
30
0
41
1
10
-38
20
-13.5056406071554
30
0
41
1
10
-38
20
-13.7202970548285
30
0
41
1
10
-38
20
-13.9327572918622
30
0
41
1
10
-38
20
-14.1397069500695
30
0
41
1
10
-38
20
-14.3454836148157
30
0
41
1
10
-38
20
-14.4976048095277
30
0
41
1
10
-38
20
-14.6480433741443
30
0
41
1
10
-38
20
-14.8470538575164
30
0
41
1
10
-38
20
-15.0406366439893
30
0
41
1
10
-38
20
-15.2327734637881
30
0
41
1
10
-38
20
-15.3746583733236
30
0
41
1
10
-38
20
-15.5148115582755
30
0
41
1
10
-38
20
-15.6999837411247
30
0
41
1
10
-38
20
-15.8797870255403
30
0
41
1
10
-38
20
-16.0578801048401
30
0
41
1
10
-38
20
-16.189216581434
30
0
41
1
10
-38
20
-16.3187661779867
30
0
41
1
10
-38
20
-16.4896741385663
30
0
41
1
10
-38
20
-16.6552512602625
30
0
41
1
10
-38
20
-16.8188545807649
30
0
41
1
10
-38
20
-16.9392987318018
30
0
41
1
10
-38
20
-17.0578934672827
30
0
41
1
10
-38
20
-17.2140648101705
30
0
41
1
10
-38
20
-17.3649216616153
30
0
41
1
10
-38
20
-17.513530035822
30
0
41
1
10
-38
20
-17.6226956365842
30
0
41
1
10
-38
20
-17.7299433731025
30
0
41
1
10
-38
20
-17.8708440004863
30
0
41
1
10
-38
20
-18.0064238716364
30
0
41
1
10
-38
20
-18.1394672902698
30
0
41
1
10
-38
20
-18.236915915677
30
0
41
1
10
-38
20
-18.3323672965474
30
0
41
1
10
-38
20
-18.4258040962282
30
0
41
1
10
-38
20
-18.517209887002
30
0
41
1
10
-38
20
-18.6065734896479
30
0
41
1
10
-38
20
-18.6938772522127
30
0
41
1
10
-38
20
-18.7791047692188
30
0
41
1
10
-38
20
-18.8622426359768
30
0
41
1
10
-38
20
-18.9432715834756
30
0
41
1
10
-38
20
-19.0221745805325
30
0
41
1
10
-38
20
-19.0989364136873
30
0
41
1
10
-38
20
-19.1735363647814
30
0
41
1
10
-38
20
-19.2704515417461
30
0
41
1
10
-38
20
-19.3619266112172
30
0
41
1
10
-38
20
-19.4499498647732
30
0
41
1
10
-38
20
-19.5134574724377
30
0
41
1
10
-38
20
-19.5746836830748
30
0
41
1
10
-38
20
-19.6336085328263
30
0
41
1
10
-38
20
-19.6902080668946
30
0
41
1
10
-38
20
-19.7628242842049
30
0
41
1
10
-38
20
-19.829873984374
30
0
41
1
10
-38
20
-19.8928775551026
30
0
41
1
10
-38
20
-19.9374871757691
30
0
41
1
10
-38
20
-19.9796195436673
30
0
41
1
10
-38
20
-20.0326760063813
30
0
41
1
10
-38
20
-20.0800381474625
30
0
41
1
10
-38
20
-20.1228090027496
30
0
41
1
10
-38
20
-20.1521177658612
30
0
41
1
10
-38
20
-20.1787668505585
30
0
41
1
10
-38
20
-20.2027210424566
30
0
41
1
10
-38
20
-20.2239455432986
30
0
41
1
10
-38
20
-20.2424031363825
30
0
41
1
10
-38
20
-20.2580557552655
30
0
41
1
10
-38
20
-20.2708642249464
30
0
41
1
10
-38
20
-20.2807872561095
30
0
41
1
10
-38
20
-20.2877829489451
30
0
41
1
10
-38
20
-20.2916002751604
30
0
41
1
10
-38
20
-20.2923631820379
30
0
41
1
10
-38
20
-20.292348259652
30
0
0
SPLINE
5
19F
100
AcDbEntity
8
SK1
62
256
6
ByLayer
370
18
48
1
60
0
100
AcDbSpline
70
4
71
3
72
295
73
291
40
0
40
0
40
0
40
0
40
0.0029463014488455
40
0.0065222263404649
40
0.0100981512320843
40
0.0136740761237037
40
0.0172500010153231
40
0.0208259259069425
40
0.0279777756901813
40
0.03512962547342
40
0.0422814752566588
40
0.0458574001482782
40
0.0494333250398976
40
0.053009249931517
40
0.0565851748231364
40
0.0637370246063752
40
0.0673129494979946
40
0.070888874389614
40
0.0744647992812334
40
0.0780407241728527
40
0.0816166490644721
40
0.0851925739560915
40
0.0923444237393303
40
0.0959203486309497
40
0.0994962735225691
40
0.103072198414189
40
0.106648123305808
40
0.110224048197427
40
0.113799973089047
40
0.117375897980666
40
0.120951822872285
40
0.124527747763905
40
0.128103672655524
40
0.131679597547144
40
0.135255522438763
40
0.138831447330382
40
0.142407372222002
40
0.14955922200524
40
0.15313514689686
40
0.156711071788479
40
0.158499034234289
40
0.160286996680099
40
0.163862921571718
40
0.171014771354957
40
0.174590696246576
40
0.178166621138196
40
0.181742546029815
40
0.185318470921434
40
0.192470320704673
40
0.196046245596293
40
0.199622170487912
40
0.201410132933722
40
0.203198095379531
40
0.206774020271151
40
0.21392587005439
40
0.217501794946009
40
0.221077719837628
40
0.224653644729248
40
0.228229569620867
40
0.235381419404106
40
0.238957344295725
40
0.242533269187345
40
0.244321231633154
40
0.246109194078964
40
0.249685118970583
40
0.253261043862203
40
0.256836968753822
40
0.258624931199632
40
0.260412893645442
40
0.263988818537061
40
0.26756474342868
40
0.2711406683203
40
0.274716593211919
40
0.278292518103539
40
0.281868442995158
40
0.285444367886777
40
0.289020292778397
40
0.292596217670016
40
0.296172142561635
40
0.299748067453255
40
0.303323992344874
40
0.306899917236494
40
0.310475842128113
40
0.314051767019732
40
0.321203616802971
40
0.324779541694591
40
0.32835546658621
40
0.33193139147783
40
0.335507316369449
40
0.339083241261068
40
0.342659166152688
40
0.346235091044307
40
0.349811015935927
40
0.356962865719165
40
0.364114715502404
40
0.371266565285643
40
0.374842490177262
40
0.378418415068882
40
0.381994339960501
40
0.38557026485212
40
0.38914618974374
40
0.392722114635359
40
0.396298039526979
40
0.399873964418598
40
0.403449889310217
40
0.407025814201837
40
0.410601739093456
40
0.414177663985075
40
0.417753588876695
40
0.421329513768314
40
0.424905438659934
40
0.428481363551553
40
0.432057288443172
40
0.433845250888982
40
0.435633213334792
40
0.437421175780602
40
0.439209138226411
40
0.442785063118031
40
0.44636098800965
40
0.44814895045546
40
0.449936912901269
40
0.451724875347079
40
0.453512837792889
40
0.457088762684508
40
0.458876725130318
40
0.460664687576128
40
0.462452650021937
40
0.464240612467747
40
0.466028574913557
40
0.467816537359366
40
0.469604499805176
40
0.471392462250986
40
0.473180424696795
40
0.474968387142605
40
0.476756349588415
40
0.478544312034224
40
0.480332274480034
40
0.482120236925844
40
0.483908199371654
40
0.485696161817463
40
0.487484124263273
40
0.489272086709083
40
0.491060049154892
40
0.492848011600702
40
0.494635974046512
40
0.496423936492322
40
0.498211898938131
40
0.499999861383941
40
0.501787823829751
40
0.50357578627556
40
0.50536374872137
40
0.50715171116718
40
0.508939673612989
40
0.510727636058799
40
0.512515598504609
40
0.514303560950419
40
0.516091523396228
40
0.517879485842038
40
0.519667448287848
40
0.521455410733657
40
0.523243373179467
40
0.525031335625277
40
0.526819298071086
40
0.528607260516896
40
0.530395222962706
40
0.532183185408515
40
0.533971147854325
40
0.535759110300135
40
0.537547072745944
40
0.539335035191754
40
0.541122997637564
40
0.542910960083374
40
0.546486884974993
40
0.548274847420803
40
0.550062809866612
40
0.551850772312422
40
0.553638734758232
40
0.557214659649851
40
0.560790584541471
40
0.56257854698728
40
0.56436650943309
40
0.5661544718789
40
0.567942434324709
40
0.571518359216329
40
0.575094284107948
40
0.578670208999568
40
0.582246133891187
40
0.585822058782806
40
0.589397983674426
40
0.592973908566045
40
0.596549833457664
40
0.600125758349284
40
0.603701683240903
40
0.607277608132523
40
0.610853533024142
40
0.614429457915761
40
0.618005382807381
40
0.621581307699
40
0.62515723259062
40
0.628733157482239
40
0.635885007265478
40
0.643036857048716
40
0.650188706831955
40
0.653764631723575
40
0.657340556615194
40
0.660916481506813
40
0.664492406398433
40
0.668068331290052
40
0.671644256181672
40
0.675220181073291
40
0.67879610596491
40
0.685947955748149
40
0.689523880639769
40
0.693099805531388
40
0.696675730423007
40
0.700251655314627
40
0.703827580206246
40
0.707403505097866
40
0.710979429989485
40
0.714555354881104
40
0.718131279772724
40
0.721707204664343
40
0.725283129555963
40
0.728859054447582
40
0.736010904230821
40
0.73958682912244
40
0.743162754014059
40
0.750314603797298
40
0.753890528688918
40
0.757466453580537
40
0.761042378472156
40
0.764618303363776
40
0.771770153147015
40
0.775346078038634
40
0.778922002930253
40
0.782497927821873
40
0.786073852713492
40
0.793225702496731
40
0.79680162738835
40
0.80037755227997
40
0.803953477171589
40
0.807529402063208
40
0.814681251846447
40
0.818257176738067
40
0.821833101629686
40
0.825409026521305
40
0.828984951412925
40
0.836136801196164
40
0.839712726087783
40
0.843288650979402
40
0.846864575871022
40
0.850440500762641
40
0.85759235054588
40
0.861168275437499
40
0.864744200329119
40
0.868320125220738
40
0.871896050112357
40
0.875471975003977
40
0.879047899895596
40
0.882623824787216
40
0.886199749678835
40
0.889775674570454
40
0.893351599462074
40
0.896927524353693
40
0.900503449245313
40
0.904079374136932
40
0.907655299028551
40
0.91480714881179
40
0.91838307370341
40
0.921958998595029
40
0.925534923486648
40
0.929110848378268
40
0.932686773269887
40
0.936262698161507
40
0.943414547944745
40
0.946990472836365
40
0.950566397727984
40
0.954142322619604
40
0.957718247511223
40
0.964870097294462
40
0.968446022186081
40
0.972021947077701
40
0.97559787196932
40
0.979173796860939
40
0.982749721752559
40
0.986325646644178
40
0.989901571535798
40
0.993477496427417
40
0.997053421319036
40
1
40
1
40
1
40
1
41
1
10
-2.19999999999996
20
22.013519664144
30
0
41
1
10
-2.19999999999996
20
22.0117275997277
30
0
41
1
10
-2.20000000000002
20
22.0069596837567
30
0
41
1
10
-2.19999999999999
20
21.9968726461305
30
0
41
1
10
-2.19999999999999
20
21.9830583750197
30
0
41
1
10
-2.19999999999999
20
21.9661971621578
30
0
41
1
10
-2.19999999999999
20
21.9463373083127
30
0
41
1
10
-2.19999999999999
20
21.9159230944434
30
0
41
1
10
-2.19999999999999
20
21.870633664349
30
0
41
1
10
-2.19999999999999
20
21.8049949078793
30
0
41
1
10
-2.19999999999999
20
21.7411390111089
30
0
41
1
10
-2.19999999999999
20
21.6847072709128
30
0
41
1
10
-2.19999999999999
20
21.6397397481888
30
0
41
1
10
-2.19999999999999
20
21.5921615264853
30
0
41
1
10
-2.19999999999999
20
21.5252891523049
30
0
41
1
10
-2.19999999999999
20
21.453308753177
30
0
41
1
10
-2.19999999999999
20
21.3763547276269
30
0
41
1
10
-2.19999999999999
20
21.3161703964091
30
0
41
1
10
-2.19999999999999
20
21.2535469243879
30
0
41
1
10
-2.19999999999999
20
21.1885090229233
30
0
41
1
10
-2.19999999999999
20
21.121080083473
30
0
41
1
10
-2.19999999999999
20
21.0280237507364
30
0
41
1
10
-2.19999999999999
20
20.9302657445266
30
0
41
1
10
-2.19999999999999
20
20.8279188369072
30
0
41
1
10
-2.19999999999999
20
20.7488739070252
30
0
41
1
10
-2.19999999999999
20
20.6675681841826
30
0
41
1
10
-2.19999999999999
20
20.5840212184218
30
0
41
1
10
-2.19999999999999
20
20.4982502525025
30
0
41
1
10
-2.19999999999999
20
20.4102747128949
30
0
41
1
10
-2.19999999999999
20
20.3201119071544
30
0
41
1
10
-2.19999999999999
20
20.2277776663919
30
0
41
1
10
-2.19999999999999
20
20.1332899477274
30
0
41
1
10
-2.19999999999999
20
20.0366642357894
30
0
41
1
10
-2.19999999999999
20
19.9379151599299
30
0
41
1
10
-2.19999999999999
20
19.8370591957147
30
0
41
1
10
-2.19999999999999
20
19.7341102362335
30
0
41
1
10
-2.19999999999999
20
19.5940778412012
30
0
41
1
10
-2.19999999999999
20
19.4499005336558
30
0
41
1
10
-2.19999999999999
20
19.3016622310533
30
0
41
1
10
-2.19999999999999
20
19.2073184270571
30
0
41
1
10
-2.19999999999999
20
19.1308417758755
30
0
41
1
10
-2.19999999999999
20
19.0536957086557
30
0
41
1
10
-2.19999999999999
20
18.9169360704622
30
0
41
1
10
-2.19999999999999
20
18.756645794641
30
0
41
1
10
-2.19999999999999
20
18.5924362845557
30
0
41
1
10
-2.19999999999999
20
18.4673177976698
30
0
41
1
10
-2.19999999999999
20
18.3402521463352
30
0
41
1
10
-2.19999999999999
20
18.1682545122203
30
0
41
1
10
-2.19999999999999
20
17.9923842356821
30
0
41
1
10
-2.19999999999999
20
17.8127164551587
30
0
41
1
10
-2.19999999999999
20
17.6988333809735
30
0
41
1
10
-2.19999999999999
20
17.606787767091
30
0
41
1
10
-2.19999999999999
20
17.5141131161323
30
0
41
1
10
-2.19999999999999
20
17.3502824417036
30
0
41
1
10
-2.19999999999999
20
17.1592829447589
30
0
41
1
10
-2.19999999999999
20
16.9645867974536
30
0
41
1
10
-2.19999999999999
20
16.8167088060477
30
0
41
1
10
-2.19999999999999
20
16.6669871400996
30
0
41
1
10
-2.19999999999999
20
16.4649164953067
30
0
41
1
10
-2.19999999999999
20
16.2591646002876
30
0
41
1
10
-2.19999999999999
20
16.049802831716
30
0
41
1
10
-2.19999999999999
20
15.9174340084588
30
0
41
1
10
-2.19999999999999
20
15.8106442286412
30
0
41
1
10
-2.19999999999999
20
15.7032538676567
30
0
41
1
10
-2.19999999999999
20
15.567882396309
30
0
41
1
10
-2.19999999999999
20
15.4036502143979
30
0
41
1
10
-2.19999999999999
20
15.2652965264295
30
0
41
1
10
-2.19999999999999
20
15.1537302031574
30
0
41
1
10
-2.19999999999999
20
15.0415708470876
30
0
41
1
10
-2.19999999999999
20
14.90025131083
30
0
41
1
10
-2.19999999999999
20
14.7289012367181
30
0
41
1
10
-2.19999999999999
20
14.5557843226631
30
0
41
1
10
-2.19999999999999
20
14.3809062427341
30
0
41
1
10
-2.19999999999999
20
14.2042700822291
30
0
41
1
10
-2.19999999999999
20
14.0258803741545
30
0
41
1
10
-2.19999999999999
20
13.8457420253844
30
0
41
1
10
-2.19999999999999
20
13.6638579861817
30
0
41
1
10
-2.19999999999999
20
13.4802328481714
30
0
41
1
10
-2.19999999999999
20
13.2948705974071
30
0
41
1
10
-2.19999999999999
20
13.1077737485311
30
0
41
1
10
-2.19999999999999
20
12.9189467805057
30
0
41
1
10
-2.19999999999999
20
12.728392778749
30
0
41
1
10
-2.19999999999999
20
12.5361142588231
30
0
41
1
10
-2.19999999999999
20
12.2774598592137
30
0
41
1
10
-2.19999999999999
20
12.0153352592314
30
0
41
1
10
-2.19999999999999
20
11.7498207258852
30
0
41
1
10
-2.19999999999999
20
11.5489655826483
30
0
41
1
10
-2.19999999999999
20
11.3464032807099
30
0
41
1
10
-2.19999999999999
20
11.1421359853758
30
0
41
1
10
-2.19999999999999
20
10.9361655879759
30
0
41
1
10
-2.19999999999999
20
10.7284950970913
30
0
41
1
10
-2.19999999999999
20
10.5191258614377
30
0
41
1
10
-2.19999999999999
20
10.2377184130835
30
0
41
1
10
-2.19999999999999
20
9.88169304970987
30
0
41
1
10
-2.19999999999999
20
9.44771865839311
30
0
41
1
10
-2.19999999999999
20
9.08043848955603
30
0
41
1
10
-2.19999999999999
20
8.78327689677775
30
0
41
1
10
-2.19999999999999
20
8.55871419535617
30
0
41
1
10
-2.19999999999999
20
8.33247380011301
30
0
41
1
10
-2.19999999999999
20
8.10455852701506
30
0
41
1
10
-2.19999999999999
20
7.87497060194644
30
0
41
1
10
-2.19999999999999
20
7.6437128367312
30
0
41
1
10
-2.19999999999999
20
7.41078884464241
30
0
41
1
10
-2.19999999999999
20
7.17620220160032
30
0
41
1
10
-2.19999999999999
20
6.93995692090419
30
0
41
1
10
-2.19999999999999
20
6.70205758660663
30
0
41
1
10
-2.19999999999999
20
6.46250918569618
30
0
41
1
10
-2.19999999999999
20
6.2213178400012
30
0
41
1
10
-2.19999999999999
20
5.97849049576266
30
0
41
1
10
-2.19999999999999
20
5.73403521575827
30
0
41
1
10
-2.19999999999999
20
5.48796107357256
30
0
41
1
10
-2.19999999999999
20
5.24027911118978
30
0
41
1
10
-2.19999999999999
20
5.03253661023487
30
0
41
1
10
-2.19999999999999
20
4.86557359122418
30
0
41
1
10
-2.19999999999999
20
4.73994908127321
30
0
41
1
10
-2.19999999999999
20
4.61393371339017
30
0
41
1
10
-2.19999999999999
20
4.44540774959788
30
0
41
1
10
-2.19999999999999
20
4.23375652596863
30
0
41
1
10
-2.19999999999999
20
4.02083961713782
30
0
41
1
10
-2.19999999999999
20
3.84978439152417
30
0
41
1
10
-2.19999999999999
20
3.72111342731068
30
0
41
1
10
-2.19999999999999
20
3.59207749308624
30
0
41
1
10
-2.19999999999999
20
3.41956369464535
30
0
41
1
10
-2.19999999999999
20
3.24629481959221
30
0
41
1
10
-2.19999999999999
20
3.0723836150739
30
0
41
1
10
-2.19999999999999
20
2.94160046512798
30
0
41
1
10
-2.19999999999999
20
2.81048647644627
30
0
41
1
10
-2.19999999999999
20
2.67904892732182
30
0
41
1
10
-2.19999999999999
20
2.54729562722176
30
0
41
1
10
-2.19999999999999
20
2.41523551097489
30
0
41
1
10
-2.19999999999999
20
2.28287740252156
30
0
41
1
10
-2.19999999999999
20
2.15023166945255
30
0
41
1
10
-2.19999999999999
20
2.01730873413072
30
0
41
1
10
-2.19999999999999
20
1.88412021099791
30
0
41
1
10
-2.19999999999999
20
1.75067841854351
30
0
41
1
10
-2.19999999999999
20
1.61699634722072
30
0
41
1
10
-2.19999999999999
20
1.48308821885627
30
0
41
1
10
-2.19999999999999
20
1.34896859254377
30
0
41
1
10
-2.19999999999999
20
1.21465350310541
30
0
41
1
10
-2.19999999999999
20
1.0801592162689
30
0
41
1
10
-2.19999999999999
20
0.945503442662783
30
0
41
1
10
-2.19999999999999
20
0.810704113119073
30
0
41
1
10
-2.19999999999999
20
0.675780421912322
30
0
41
1
10
-2.19999999999999
20
0.540751787789588
30
0
41
1
10
-2.19999999999999
20
0.405638599098921
30
0
41
1
10
-2.19999999999999
20
0.270461428271432
30
0
41
1
10
-2.19999999999999
20
0.135241462279822
30
0
41
1
10
-2.19999999999999
20
-5.3654787E-09
30
0
41
1
10
-2.19999999999999
20
-0.135241472589996
30
0
41
1
10
-2.19999999999999
20
-0.270461437853925
30
0
41
1
10
-2.19999999999999
20
-0.405638608907907
30
0
41
1
10
-2.19999999999999
20
-0.540751798686529
30
0
41
1
10
-2.19999999999999
20
-0.675780432522174
30
0
41
1
10
-2.19999999999999
20
-0.810704122044939
30
0
41
1
10
-2.19999999999999
20
-0.945503451789534
30
0
41
1
10
-2.19999999999999
20
-1.08015922751395
30
0
41
1
10
-2.19999999999999
20
-1.21465351395383
30
0
41
1
10
-2.19999999999999
20
-1.34896860046499
30
0
41
1
10
-2.19999999999999
20
-1.48308822685564
30
0
41
1
10
-2.19999999999999
20
-1.61699635855226
30
0
41
1
10
-2.19999999999999
20
-1.75067843002711
30
0
41
1
10
-2.19999999999999
20
-1.88412021847037
30
0
41
1
10
-2.19999999999999
20
-2.01730874020455
30
0
41
1
10
-2.19999999999999
20
-2.15023167925048
30
0
41
1
10
-2.19999999999999
20
-2.28287741514001
30
0
41
1
10
-2.19999999999999
20
-2.41523552035437
30
0
41
1
10
-2.19999999999999
20
-2.54729563151926
30
0
41
1
10
-2.19999999999999
20
-2.67904893291683
30
0
41
1
10
-2.19999999999999
20
-2.81048648769612
30
0
41
1
10
-2.19999999999999
20
-2.94160047796311
30
0
41
1
10
-2.19999999999999
20
-3.072383622975
30
0
41
1
10
-2.19999999999999
20
-3.24629481975686
30
0
41
1
10
-2.19999999999999
20
-3.41956370437865
30
0
41
1
10
-2.19999999999999
20
-3.59207750684843
30
0
41
1
10
-2.19999999999999
20
-3.72111343644576
30
0
41
1
10
-2.19999999999999
20
-3.84978439330678
30
0
41
1
10
-2.19999999999999
20
-4.020839617489
30
0
41
1
10
-2.19999999999999
20
-4.23375654375474
30
0
41
1
10
-2.19999999999999
20
-4.44540775759583
30
0
41
1
10
-2.19999999999999
20
-4.61393371339872
30
0
41
1
10
-2.19999999999999
20
-4.73994907984499
30
0
41
1
10
-2.19999999999999
20
-4.86557359653659
30
0
41
1
10
-2.19999999999999
20
-5.03253662624778
30
0
41
1
10
-2.19999999999999
20
-5.24027911954084
30
0
41
1
10
-2.19999999999999
20
-5.48796106514416
30
0
41
1
10
-2.19999999999999
20
-5.73403522651989
30
0
41
1
10
-2.19999999999999
20
-5.97849051253721
30
0
41
1
10
-2.19999999999999
20
-6.22131783489101
30
0
41
1
10
-2.19999999999999
20
-6.46250917346816
30
0
41
1
10
-2.19999999999999
20
-6.70205756880287
30
0
41
1
10
-2.19999999999999
20
-6.93995689241024
30
0
41
1
10
-2.19999999999999
20
-7.17620223308296
30
0
41
1
10
-2.19999999999999
20
-7.41078904293681
30
0
41
1
10
-2.19999999999999
20
-7.64371312168015
30
0
41
1
10
-2.19999999999999
20
-7.87497052861914
30
0
41
1
10
-2.19999999999999
20
-8.10455846042146
30
0
41
1
10
-2.19999999999999
20
-8.33247384441506
30
0
41
1
10
-2.19999999999999
20
-8.55871423477029
30
0
41
1
10
-2.19999999999999
20
-8.78327691067398
30
0
41
1
10
-2.19999999999999
20
-9.08043846702645
30
0
41
1
10
-2.19999999999999
20
-9.44771866001565
30
0
41
1
10
-2.19999999999999
20
-9.88169305528194
30
0
41
1
10
-2.19999999999999
20
-10.2377183913447
30
0
41
1
10
-2.19999999999999
20
-10.5191258633122
30
0
41
1
10
-2.19999999999999
20
-10.7284951094206
30
0
41
1
10
-2.19999999999999
20
-10.9361655882296
30
0
41
1
10
-2.19999999999999
20
-11.1421359694817
30
0
41
1
10
-2.19999999999999
20
-11.3464032666245
30
0
41
1
10
-2.19999999999999
20
-11.5489655840494
30
0
41
1
10
-2.19999999999999
20
-11.7498207382014
30
0
41
1
10
-2.19999999999999
20
-12.015335258712
30
0
41
1
10
-2.19999999999999
20
-12.277459839655
30
0
41
1
10
-2.19999999999999
20
-12.5361142561418
30
0
41
1
10
-2.19999999999999
20
-12.7283927892775
30
0
41
1
10
-2.19999999999999
20
-12.9189467887917
30
0
41
1
10
-2.19999999999999
20
-13.1077737445537
30
0
41
1
10
-2.19999999999999
20
-13.2948705838035
30
0
41
1
10
-2.19999999999999
20
-13.4802328404438
30
0
41
1
10
-2.19999999999999
20
-13.6638579908945
30
0
41
1
10
-2.19999999999999
20
-13.845742035678
30
0
41
1
10
-2.19999999999999
20
-14.0258803815961
30
0
41
1
10
-2.19999999999999
20
-14.2042701267483
30
0
41
1
10
-2.19999999999999
20
-14.3809064511142
30
0
41
1
10
-2.19999999999999
20
-14.61406817927
30
0
41
1
10
-2.19999999999999
20
-14.8437340716545
30
0
41
1
10
-2.19999999999999
20
-15.069828938707
30
0
41
1
10
-2.19999999999999
20
-15.2935559429894
30
0
41
1
10
-2.19999999999999
20
-15.513744330902
30
0
41
1
10
-2.19999999999999
20
-15.7303232767805
30
0
41
1
10
-2.19999999999999
20
-15.8909649274654
30
0
41
1
10
-2.19999999999999
20
-16.0498023362736
30
0
41
1
10
-2.19999999999999
20
-16.2591647559547
30
0
41
1
10
-2.19999999999999
20
-16.4649171124643
30
0
41
1
10
-2.19999999999999
20
-16.666987304737
30
0
41
1
10
-2.19999999999999
20
-16.8167085043733
30
0
41
1
10
-2.19999999999999
20
-16.9645862898264
30
0
41
1
10
-2.19999999999999
20
-17.1592828976246
30
0
41
1
10
-2.19999999999999
20
-17.3502835148979
30
0
41
1
10
-2.19999999999999
20
-17.5375147595292
30
0
41
1
10
-2.19999999999999
20
-17.676060438985
30
0
41
1
10
-2.19999999999999
20
-17.8127154575359
30
0
41
1
10
-2.19999999999999
20
-17.9923842415009
30
0
41
1
10
-2.19999999999999
20
-18.1682547291306
30
0
41
1
10
-2.19999999999999
20
-18.3402522143585
30
0
41
1
10
-2.19999999999999
20
-18.4673177032107
30
0
41
1
10
-2.19999999999999
20
-18.5924361073221
30
0
41
1
10
-2.19999999999999
20
-18.7566457425986
30
0
41
1
10
-2.19999999999999
20
-18.9169371900015
30
0
41
1
10
-2.19999999999999
20
-19.0732305996174
30
0
41
1
10
-2.19999999999999
20
-19.1884526890887
30
0
41
1
10
-2.19999999999999
20
-19.3016611759423
30
0
41
1
10
-2.19999999999999
20
-19.4499005391959
30
0
41
1
10
-2.19999999999999
20
-19.5940785255289
30
0
41
1
10
-2.19999999999999
20
-19.7341104289282
30
0
41
1
10
-2.19999999999999
20
-19.8370589164793
30
0
41
1
10
-2.19999999999999
20
-19.9379146863563
30
0
41
1
10
-2.19999999999999
20
-20.0366640227898
30
0
41
1
10
-2.19999999999999
20
-20.133289903145
30
0
41
1
10
-2.19999999999999
20
-20.2277776697998
30
0
41
1
10
-2.19999999999999
20
-20.3201119082527
30
0
41
1
10
-2.19999999999999
20
-20.4102747220553
30
0
41
1
10
-2.19999999999999
20
-20.4982502752196
30
0
41
1
10
-2.19999999999999
20
-20.5840212474559
30
0
41
1
10
-2.19999999999999
20
-20.6675682022903
30
0
41
1
10
-2.19999999999999
20
-20.7488739108727
30
0
41
1
10
-2.19999999999999
20
-20.82791883753
30
0
41
1
10
-2.19999999999999
20
-20.9302657657864
30
0
41
1
10
-2.19999999999999
20
-21.0280237880878
30
0
41
1
10
-2.19999999999999
20
-21.1210800961781
30
0
41
1
10
-2.19999999999999
20
-21.1885090211437
30
0
41
1
10
-2.19999999999999
20
-21.2535469320083
30
0
41
1
10
-2.19999999999999
20
-21.3161704250344
30
0
41
1
10
-2.19999999999999
20
-21.3763547664481
30
0
41
1
10
-2.19999999999999
20
-21.4533087676779
30
0
41
1
10
-2.19999999999999
20
-21.5252891448141
30
0
41
1
10
-2.19999999999999
20
-21.5921615531195
30
0
41
1
10
-2.19999999999999
20
-21.6397397916631
30
0
41
1
10
-2.19999999999999
20
-21.6847072964973
30
0
41
1
10
-2.19999999999999
20
-21.7411389990572
30
0
41
1
10
-2.19999999999999
20
-21.7922265879071
30
0
41
1
10
-2.19999999999999
20
-21.8378144981283
30
0
41
1
10
-2.19999999999999
20
-21.8692221254414
30
0
41
1
10
-2.19999999999999
20
-21.8978063777089
30
0
41
1
10
-2.19999999999999
20
-21.9235254752891
30
0
41
1
10
-2.19999999999999
20
-21.9463373508774
30
0
41
1
10
-2.19999999999999
20
-21.9661972037607
30
0
41
1
10
-2.19999999999999
20
-21.9830583809744
30
0
41
1
10
-2.19999999999999
20
-21.9968726399857
30
0
41
1
10
-2.19999999999999
20
-22.0069599964837
30
0
41
1
10
-2.20000000000002
20
-22.0117281244349
30
0
41
1
10
-2.20000000000002
20
-22.013520331195
30
0
0
SPLINE
5
1A0
100
AcDbEntity
8
SK1
62
256
6
ByLayer
370
18
48
1
60
0
100
AcDbSpline
70
4
71
3
72
22
73
18
40
0
40
0
40
0
40
0
40
0.025518692999354
40
0.025518692999354
40
0.0515625307794633
40
0.0515625307794633
40
0.0689220502117165
40
0.0689220502117165
40
0.0862030429090035
40
0.0862030429090035
40
0.113761926258803
40
0.113761926258803
40
0.167639902693809
40
0.167639902693809
40
0.357269752158031
40
0.357269752158031
40
1
40
1
40
1
40
1
41
1
10
-0.394976888875277
20
6.326943090669
30
0
41
1
10
-0.389699799773268
20
6.32229605774103
30
0
41
1
10
-0.38394554029108
20
6.31808234313019
30
0
41
1
10
-0.371336208800898
20
6.31155719556298
30
0
41
1
10
-0.364237316839024
20
6.30923328231674
30
0
41
1
10
-0.35209572007625
20
6.30844589498398
30
0
41
1
10
-0.347038791108759
20
6.3089739150856
30
0
41
1
10
-0.337436838154161
20
6.31166640764118
30
0
41
1
10
-0.332782752688161
20
6.31383711710231
30
0
41
1
10
-0.321723955926899
20
6.32078578121266
30
0
41
1
10
-0.315689795621665
20
6.32640446307903
30
0
41
1
10
-0.300083216036057
20
6.3442802085479
30
0
41
1
10
-0.292057158925616
20
6.35806878925098
30
0
41
1
10
-0.261294067338724
20
6.42092251611513
30
0
41
1
10
-0.248999237994838
20
6.47445017323312
30
0
41
1
10
-0.204624309665832
20
6.70435570668306
30
0
41
1
10
-0.200000000000955
20
6.88379158154922
30
0
41
1
10
-0.200000000000955
20
7.05951756777665
30
0
0
SPLINE
5
1A1
100
AcDbEntity
8
SK1
62
256
6
ByLayer
370
18
48
1
60
0
100
AcDbSpline
70
4
71
3
72
22
73
18
40
0
40
0
40
0
40
0
40
0.366862607601256
40
0.366862607601256
40
0.737339621375052
40
0.737339621375052
40
0.838459586400285
40
0.838459586400285
40
0.872990642836393
40
0.872990642836393
40
0.908114554314301
40
0.908114554314301
40
0.93841147631739
40
0.93841147631739
40
0.978567405872927
40
0.978567405872927
40
1
40
1
40
1
40
1
41
1
10
-1.30710678118655
20
4.81101329740289
30
0
41
1
10
-1.26411319574365
20
5.05427021725674
30
0
41
1
10
-1.21291926611929
20
5.29463858107241
30
0
41
1
10
-1.07751639291712
20
5.76447191425098
30
0
41
1
10
-0.99999394263088
20
6.0024064332149
30
0
41
1
10
-0.818580317119483
20
6.26150782359156
30
0
41
1
10
-0.772786229091963
20
6.31609141287933
30
0
41
1
10
-0.693958175551444
20
6.37002132562083
30
0
41
1
10
-0.67174289599555
20
6.38213989760789
30
0
41
1
10
-0.624176343099663
20
6.39933264200099
30
0
41
1
10
-0.598041368844491
20
6.40433410743103
30
0
41
1
10
-0.550095873812666
20
6.4042038836908
30
0
41
1
10
-0.52764508925199
20
6.40038614973912
30
0
41
1
10
-0.479150674129698
20
6.38487542657816
30
0
41
1
10
-0.453444961156862
20
6.37100758594852
30
0
41
1
10
-0.417985764291785
20
6.34622757774423
30
0
41
1
10
-0.406197231050186
20
6.33682378409867
30
0
41
1
10
-0.394976888874737
20
6.32694309068151
30
0
0
SPLINE
5
1A2
100
AcDbEntity
8
SK1
62
256
6
ByLayer
370
18
48
1
60
0
100
AcDbSpline
70
4
71
3
72
26
73
22
40
0
40
0
40
0
40
0
40
0.462420532187944
40
0.462420532187944
40
0.662465761698283
40
0.662465761698283
40
0.830433309169693
40
0.830433309169693
40
0.87601894963741
40
0.87601894963741
40
0.905535493032455
40
0.905535493032455
40
0.92577818311669
40
0.92577818311669
40
0.946307111163799
40
0.946307111163799
40
0.963675313617857
40
0.963675313617857
40
0.991859972782862
40
0.991859972782862
40
1
40
1
40
1
40
1
41
1
10
-0.199999999999989
20
-7.05951749342083
30
0
41
1
10
-0.199999999999989
20
-6.93273416480454
30
0
41
1
10
-0.203968014086513
20
-6.80463429773329
30
0
41
1
10
-0.223222206303944
20
-6.62063667774228
30
0
41
1
10
-0.230822389897867
20
-6.56482953243432
30
0
41
1
10
-0.252035566714568
20
-6.46316921019911
30
0
41
1
10
-0.263798801619998
20
-6.41617607028249
30
0
41
1
10
-0.290531391619595
20
-6.36108887379029
30
0
41
1
10
-0.29710300077241
20
-6.34947181616241
30
0
41
1
10
-0.310313928765424
20
-6.33213067856883
30
0
41
1
10
-0.316208846631128
20
-6.32567949173321
30
0
41
1
10
-0.327595492701022
20
-6.31681373578161
30
0
41
1
10
-0.332739264568545
20
-6.31372817209197
30
0
41
1
10
-0.343644708736434
20
-6.30958040401461
30
0
41
1
10
-0.349575964479982
20
-6.30853210514005
30
0
41
1
10
-0.360183897281416
20
-6.30881607347521
30
0
41
1
10
-0.365032052617437
20
-6.30978620719449
30
0
41
1
10
-0.376922909163994
20
-6.31387292952667
30
0
41
1
10
-0.383695246431131
20
-6.3179475897727
30
0
41
1
10
-0.39156461480826
20
-6.32402624429125
30
0
41
1
10
-0.393293161608796
20
-6.32546009510432
30
0
41
1
10
-0.394976888875277
20
-6.32694279392757
30
0
0
SPLINE
5
1A3
100
AcDbEntity
8
SK1
62
256
6
ByLayer
370
18
48
1
60
0
100
AcDbSpline
70
4
71
3
72
10
73
6
40
0
40
0
40
0
40
0
40
0.5
40
0.5
40
1
40
1
40
1
40
1
41
1
10
-1.30710678118655
20
4.81101329740289
30
0
41
1
10
-1.57713284158248
20
3.28321078789992
30
0
41
1
10
-1.79449339715788
20
1.64680798700616
30
0
41
1
10
-1.79438545511854
20
-1.6481258022005
30
0
41
1
10
-1.57704898370505
20
-3.28368386467716
30
0
41
1
10
-1.30710678118663
20
-4.81101321788435
30
0
0
SPLINE
5
1A4
100
AcDbEntity
8
SK1
62
256
6
ByLayer
370
18
48
1
60
0
100
AcDbSpline
70
4
71
3
72
111
73
107
40
0
40
0
40
0
40
0
40
0.0023113641462741
40
0.0108556431734735
40
0.019399922200673
40
0.0279442012278724
40
0.0364884802550719
40
0.0450327592822714
40
0.0535770383094708
40
0.0621213173366703
40
0.0706655963638697
40
0.0792098753910692
40
0.0877541544182686
40
0.0962984334454681
40
0.113386991499867
40
0.130475549554266
40
0.147564107608665
40
0.156108386635864
40
0.164652665663064
40
0.173196944690263
40
0.181741223717463
40
0.190285502744662
40
0.198829781771862
40
0.207374060799061
40
0.21591833982626
40
0.233006897880659
40
0.241551176907859
40
0.250095455935058
40
0.258639734962258
40
0.267184013989457
40
0.275728293016657
40
0.284272572043856
40
0.292816851071056
40
0.301361130098255
40
0.309905409125455
40
0.318449688152654
40
0.326993967179853
40
0.335538246207053
40
0.352626804261452
40
0.361171083288651
40
0.369715362315851
40
0.38680392037025
40
0.395348199397449
40
0.403892478424648
40
0.412436757451848
40
0.420981036479047
40
0.438069594533446
40
0.446613873560646
40
0.455158152587845
40
0.463702431615045
40
0.472246710642244
40
0.489335268696643
40
0.497879547723843
40
0.506423826751042
40
0.514968105778241
40
0.523512384805441
40
0.54060094285984
40
0.549145221887039
40
0.557689500914239
40
0.566233779941438
40
0.574778058968638
40
0.591866617023037
40
0.600410896050236
40
0.608955175077436
40
0.617499454104635
40
0.626043733131834
40
0.643132291186233
40
0.651676570213433
40
0.660220849240632
40
0.668765128267832
40
0.677309407295031
40
0.685853686322231
40
0.69439796534943
40
0.702942244376629
40
0.711486523403829
40
0.720030802431028
40
0.728575081458228
40
0.737119360485427
40
0.745663639512627
40
0.754207918539826
40
0.762752197567026
40
0.779840755621425
40
0.788385034648624
40
0.796929313675824
40
0.805473592703023
40
0.814017871730222
40
0.822562150757422
40
0.831106429784621
40
0.84819498783902
40
0.85673926686622
40
0.865283545893419
40
0.873827824920619
40
0.882372103947818
40
0.899460662002217
40
0.908004941029416
40
0.916549220056616
40
0.925093499083815
40
0.933637778111015
40
0.942182057138214
40
0.950726336165414
40
0.959270615192613
40
0.967814894219813
40
0.976359173247012
40
0.984903452274212
40
0.993447731301411
40
1
40
1
40
1
40
1
41
1
10
-0.394976888875277
20
-6.32694279392976
30
0
41
1
10
-0.394976888875277
20
-6.3484916311391
30
0
41
1
10
-0.394976888875277
20
-6.44960775400912
30
0
41
1
10
-0.394976888875277
20
-6.62954555948869
30
0
41
1
10
-0.394976888875277
20
-6.8656950488801
30
0
41
1
10
-0.394976888875277
20
-7.10023740586411
30
0
41
1
10
-0.394976888875277
20
-7.33316546385933
30
0
41
1
10
-0.394976888875277
20
-7.56447269448574
30
0
41
1
10
-0.394976888875277
20
-7.79415340272945
30
0
41
1
10
-0.394976888875277
20
-8.02220293401996
30
0
41
1
10
-0.394976888875277
20
-8.24861635560848
30
0
41
1
10
-0.394976888875277
20
-8.47338951886385
30
0
41
1
10
-0.394976888875277
20
-8.69651811258549
30
0
41
1
10
-0.394976888875277
20
-8.99192948127941
30
0
41
1
10
-0.394976888875277
20
-9.35683912175983
30
0
41
1
10
-0.394976888875277
20
-9.78821091217483
30
0
41
1
10
-0.394976888875277
20
-10.142045462177
30
0
41
1
10
-0.394976888875277
20
-10.4219344727077
30
0
41
1
10
-0.394976888875277
20
-10.6301131683678
30
0
41
1
10
-0.394976888875277
20
-10.8366153667066
30
0
41
1
10
-0.394976888875277
20
-11.0414388905992
30
0
41
1
10
-0.394976888875277
20
-11.2445799004538
30
0
41
1
10
-0.394976888875277
20
-11.4460361162834
30
0
41
1
10
-0.394976888875277
20
-11.6458042976885
30
0
41
1
10
-0.394976888875277
20
-11.9099848253352
30
0
41
1
10
-0.394976888875277
20
-12.1705475695385
30
0
41
1
10
-0.394976888875277
20
-12.4279318067111
30
0
41
1
10
-0.394976888875277
20
-12.6192114874981
30
0
41
1
10
-0.394976888875277
20
-12.8087826250924
30
0
41
1
10
-0.394976888875277
20
-12.9966426041155
30
0
41
1
10
-0.394976888875277
20
-13.182787448996
30
0
41
1
10
-0.394976888875277
20
-13.3672125455487
30
0
41
1
10
-0.394976888875277
20
-13.5499151547097
30
0
41
1
10
-0.394976888875277
20
-13.7308904478326
30
0
41
1
10
-0.394976888875277
20
-13.910133867705
30
0
41
1
10
-0.394976888875277
20
-14.0876421688895
30
0
41
1
10
-0.394976888875277
20
-14.2634098807097
30
0
41
1
10
-0.394976888875277
20
-14.4955025482493
30
0
41
1
10
-0.394976888875277
20
-14.7239127068147
30
0
41
1
10
-0.394976888875277
20
-14.9489833053404
30
0
41
1
10
-0.394976888875277
20
-15.171701411915
30
0
41
1
10
-0.394976888875277
20
-15.3907043201103
30
0
41
1
10
-0.394976888875277
20
-15.6063159613101
30
0
41
1
10
-0.394976888875277
20
-15.7661946363952
30
0
41
1
10
-0.394976888875277
20
-15.9242799594928
30
0
41
1
10
-0.394976888875277
20
-16.1327154012234
30
0
41
1
10
-0.394976888875277
20
-16.3373780173449
30
0
41
1
10
-0.394976888875277
20
-16.5385587125243
30
0
41
1
10
-0.394976888875277
20
-16.6875782011067
30
0
41
1
10
-0.394976888875277
20
-16.8347642769002
30
0
41
1
10
-0.394976888875277
20
-17.0286080073569
30
0
41
1
10
-0.394976888875277
20
-17.2186059445175
30
0
41
1
10
-0.394976888875277
20
-17.4050188999402
30
0
41
1
10
-0.394976888875277
20
-17.5429190217058
30
0
41
1
10
-0.394976888875277
20
-17.6789377757623
30
0
41
1
10
-0.394976888875277
20
-17.8578220601067
30
0
41
1
10
-0.394976888875277
20
-18.0327708145484
30
0
41
1
10
-0.394976888875277
20
-18.2040166330947
30
0
41
1
10
-0.394976888875277
20
-18.3304892054167
30
0
41
1
10
-0.394976888875277
20
-18.4550234389153
30
0
41
1
10
-0.394976888875277
20
-18.6185132745736
30
0
41
1
10
-0.394976888875277
20
-18.7779598884918
30
0
41
1
10
-0.394976888875277
20
-18.933565131357
30
0
41
1
10
-0.394976888875277
20
-19.048244884465
30
0
41
1
10
-0.394976888875277
20
-19.1609196079758
30
0
41
1
10
-0.394976888875277
20
-19.3085018143331
30
0
41
1
10
-0.394976888875277
20
-19.4519098709686
30
0
41
1
10
-0.394976888875277
20
-19.5913159811741
30
0
41
1
10
-0.394976888875277
20
-19.6937719762305
30
0
41
1
10
-0.394976888875277
20
-19.7941438028822
30
0
41
1
10
-0.394976888875277
20
-19.8924174211231
30
0
41
1
10
-0.394976888875277
20
-19.988575861591
30
0
41
1
10
-0.394976888875277
20
-20.082604778142
30
0
41
1
10
-0.394976888875277
20
-20.1744885559187
30
0
41
1
10
-0.394976888875277
20
-20.264209431984
30
0
41
1
10
-0.394976888875277
20
-20.3517517880635
30
0
41
1
10
-0.394976888875277
20
-20.437098129367
30
0
41
1
10
-0.394976888875277
20
-20.5202292348052
30
0
41
1
10
-0.394976888875277
20
-20.6011280559991
30
0
41
1
10
-0.394976888875277
20
-20.6797749513881
30
0
41
1
10
-0.394976888875277
20
-20.781635486227
30
0
41
1
10
-0.394976888875277
20
-20.8788308931333
30
0
41
1
10
-0.394976888875277
20
-20.9714365096391
30
0
41
1
10
-0.394976888875277
20
-21.0385142950144
30
0
41
1
10
-0.394976888875277
20
-21.1032108820957
30
0
41
1
10
-0.394976888875277
20
-21.1655031751743
30
0
41
1
10
-0.394976888875277
20
-21.2253665102307
30
0
41
1
10
-0.394976888875277
20
-21.301932078811
30
0
41
1
10
-0.394976888875277
20
-21.3734709318986
30
0
41
1
10
-0.394976888875277
20
-21.4399968999807
30
0
41
1
10
-0.394976888875277
20
-21.4873093096751
30
0
41
1
10
-0.394976888875277
20
-21.5320229383892
30
0
41
1
10
-0.394976888875277
20
-21.5881524005931
30
0
41
1
10
-0.394976888875277
20
-21.6389063892513
30
0
41
1
10
-0.394976888875277
20
-21.6842420425293
30
0
41
1
10
-0.394976888875277
20
-21.7154617242468
30
0
41
1
10
-0.394976888875277
20
-21.7438726893518
30
0
41
1
10
-0.394976888875277
20
-21.7694337460976
30
0
41
1
10
-0.394976888875277
20
-21.7921034780961
30
0
41
1
10
-0.394976888875277
20
-21.8118377637545
30
0
41
1
10
-0.394976888875277
20
-21.8285907189997
30
0
41
1
10
-0.394976888875277
20
-21.8423149132633
30
0
41
1
10
-0.394976888875277
20
-21.8529599173647
30
0
41
1
10
-0.394976888875277
20
-21.8604739519412
30
0
41
1
10
-0.394976888875249
20
-21.8644655194139
30
0
41
1
10
-0.394976888875249
20
-21.8653271913022
30
0
41
1
10
-0.394976888875249
20
-21.8653787939979
30
0
0
SPLINE
5
1A5
100
AcDbEntity
8
1
62
256
6
ByLayer
370
18
48
1
60
0
100
AcDbSpline
70
4
71
3
72
16
73
12
40
0
40
0
40
0
40
0
40
0.113316224833592
40
0.113316224833592
40
0.252990411571568
40
0.252990411571568
40
0.473309013928318
40
0.473309013928318
40
0.896716357718825
40
0.896716357718825
40
1
40
1
40
1
40
1
41
1
10
13.4613248654052
20
9.3492213145251
30
0
41
1
10
13.4894125595718
20
9.3492213145251
30
0
41
1
10
13.517849357763
20
9.35431657338981
30
0
41
1
10
13.5767970345725
20
9.37467777536565
30
0
41
1
10
13.6072473721288
20
9.39213979793414
30
0
41
1
10
13.6769143636602
20
9.44503542604383
30
0
41
1
10
13.7128266507651
20
9.4856938043188
30
0
41
1
10
13.8014637450836
20
9.61105923366807
30
0
41
1
10
13.842370839753
20
9.70465429390066
30
0
41
1
10
13.8809034737598
20
9.82244573862474
30
0
41
1
10
13.8878971837969
20
9.84586944318031
30
0
41
1
10
13.8943375672975
20
9.86941261896621
30
0
0
SPLINE
5
1A6
100
AcDbEntity
8
1
62
256
6
ByLayer
370
18
48
1
60
0
100
AcDbSpline
70
4
71
3
72
16
73
12
40
0
40
0
40
0
40
0
40
0.113316224833596
40
0.113316224833596
40
0.252990411571581
40
0.252990411571581
40
0.473309013928343
40
0.473309013928343
40
0.896716357718895
40
0.896716357718895
40
1
40
1
40
1
40
1
41
1
10
13.4613248654052
20
-30.0805927603169
30
0
41
1
10
13.4894125595718
20
-30.0805927603169
30
0
41
1
10
13.517849357763
20
-30.0790101689567
30
0
41
1
10
13.5767970345725
20
-30.0726712338969
30
0
41
1
10
13.6072473721288
20
-30.0672275748685
30
0
41
1
10
13.6769143636602
20
-30.0506647867052
30
0
41
1
10
13.7128266507651
20
-30.0378702684275
30
0
41
1
10
13.8014637450836
20
-29.9980833386355
30
0
41
1
10
13.842370839753
20
-29.967975934908
30
0
41
1
10
13.8809034737598
20
-29.9294196064672
30
0
41
1
10
13.8878971837969
20
-29.9217223689309
30
0
41
1
10
13.8943375672975
20
-29.9139548464691
30
0
0
SPLINE
5
1A7
100
AcDbEntity
8
1
62
256
6
ByLayer
370
18
48
1
60
0
100
AcDbSpline
70
4
71
2
72
7
73
4
40
0
40
0
40
0
40
0.55097834112502
40
1
40
1
40
1
41
1
10
26.6597055175588
20
39.3029230478899
30
0
41
1
10
26.1778239893113
20
39.2484880615595
30
0
41
1
10
25.4906659146059
20
38.619931904475
30
0
41
1
10
25.2889866890052
20
38.1788576140027
30
0
0
SPLINE
5
1A8
100
AcDbEntity
8
1
62
256
6
ByLayer
370
18
48
1
60
0
100
AcDbSpline
70
4
71
2
72
6
73
3
40
0
40
0
40
0
40
1
40
1
40
1
41
1
10
29.8124020017313
20
25.7018251511343
30
0
41
1
10
29.7669785885285
20
25.6966939669493
30
0
41
1
10
29.7215551753257
20
25.6915627827644
30
0
0
SPLINE
5
1A9
100
AcDbEntity
8
1
62
256
6
ByLayer
370
18
48
1
60
0
100
AcDbSpline
70
4
71
3
72
12
73
8
40
0
40
0
40
0
40
0
40
0.500000000041269
40
0.500000000041269
40
0.750000000163822
40
0.750000000163822
40
1
40
1
40
1
40
1
41
1
10
26.5778697872196
20
41.177146293062
30
0
41
1
10
26.592962764114
20
41.1779372824642
30
0
41
1
10
26.608055866447
20
41.1787282790115
30
0
41
1
10
26.6306957085722
20
41.1799147828612
30
0
41
1
10
26.6382423540811
20
41.1803102857936
30
0
41
1
10
26.6533357081688
20
41.1811012949636
30
0
41
1
10
26.6608824167475
20
41.1814968012014
30
0
41
1
10
26.6684291569294
20
41.1818923090954
30
0
0
SPLINE
5
1AA
100
AcDbEntity
8
1
62
256
6
ByLayer
370
18
48
1
60
0
100
AcDbSpline
70
4
71
3
72
12
73
8
40
0
40
0
40
0
40
0
40
0.499999999965757
40
0.499999999965757
40
0.750000000047509
40
0.750000000047509
40
1
40
1
40
1
40
1
41
1
10
26.4873134120111
20
41.172400434556
30
0
41
1
10
26.5024058920009
20
41.1731913979165
30
0
41
1
10
26.5174984963513
20
41.1739823683444
30
0
41
1
10
26.5401375898849
20
41.1751688329622
30
0
41
1
10
26.5476839855928
20
41.175564322803
30
0
41
1
10
26.5627768395353
20
41.1763553057616
30
0
41
1
10
26.5703232977699
20
41.1767507988793
30
0
41
1
10
26.5778697873353
20
41.177146293639
30
0
0
SPLINE
5
1AB
100
AcDbEntity
8
1
62
256
6
ByLayer
370
18
48
1
60
0
100
AcDbSpline
70
4
71
3
72
10
73
6
40
0
40
0
40
0
40
0
40
0.5
40
0.5
40
1
40
1
40
1
40
1
41
1
10
28.3895115170062
20
26.0781473815953
30
0
41
1
10
28.6650530001117
20
25.1364916545417
30
0
41
1
10
29.1958735336824
20
24.3012113061128
30
0
41
1
10
30.4611459103584
20
22.8132230195723
30
0
41
1
10
31.2608872785496
20
22.1998373462301
30
0
41
1
10
32.1801313483211
20
21.8258649151359
30
0
0
SPLINE
5
1AC
100
AcDbEntity
8
1
62
256
6
ByLayer
370
18
48
1
60
0
100
AcDbSpline
70
4
71
3
72
8
73
4
40
0
40
0
40
0
40
0
40
1
40
1
40
1
40
1
41
1
10
22.92079238
20
30.8996141556632
30
0
41
1
10
23.2426423178719
20
32.1401451848889
30
0
41
1
10
23.5684820644022
20
33.3829616943839
30
0
41
1
10
23.8962856159808
20
34.6245734699538
30
0
0
SPLINE
5
1AD
100
AcDbEntity
8
1
62
256
6
ByLayer
370
18
48
1
60
0
100
AcDbSpline
70
4
71
3
72
12
73
8
40
0
40
0
40
0
40
0
40
0.270028157303644
40
0.270028157303644
40
0.54005627170317
40
0.54005627170317
40
1
40
1
40
1
40
1
41
1
10
32.1801313482732
20
21.8258649151688
30
0
41
1
10
32.2032886025476
20
21.8164439409538
30
0
41
1
10
32.2264894282263
20
21.8071293721974
30
0
41
1
10
32.2729749068474
20
21.7887132715965
30
0
41
1
10
32.2962600468812
20
21.7796115466491
30
0
41
1
10
32.3593165635249
20
21.7552946064741
30
0
41
1
10
32.3991673047508
20
21.7402809595986
30
0
41
1
10
32.4391300249068
20
21.7255753312239
30
0
0
SPLINE
5
1AE
100
AcDbEntity
8
1
62
256
6
ByLayer
370
18
48
1
60
0
100
AcDbSpline
70
4
71
3
72
8
73
4
40
0
40
0
40
0
40
0
40
1
40
1
40
1
40
1
41
1
10
25.2891032735395
20
38.178587212152
30
0
41
1
10
25.1883106467239
20
38.6270076832568
30
0
41
1
10
25.1645366101745
20
39.0792763137724
30
0
41
1
10
25.1682445093256
20
39.5329180526392
30
0
0
SPLINE
5
1AF
100
AcDbEntity
8
1
62
256
6
ByLayer
370
18
48
1
60
0
100
AcDbSpline
70
4
71
3
72
16
73
12
40
0
40
0
40
0
40
0
40
0.463423600832241
40
0.463423600832241
40
0.646243952932834
40
0.646243952932834
40
0.831657283224497
40
0.831657283224497
40
0.947504344290847
40
0.947504344290847
40
1
40
1
40
1
40
1
41
1
10
13.8943375672974
20
29.9139548464691
30
0
41
1
10
13.8656609252734
20
29.9485407466772
30
0
41
1
10
13.8263500123909
20
29.982269090612
30
0
41
1
10
13.7453819366532
20
30.0239686896252
30
0
41
1
10
13.7190869808859
20
30.0352936109065
30
0
41
1
10
13.6579862203325
20
30.0555697561518
30
0
41
1
10
13.6222599905467
20
30.0647246060481
30
0
41
1
10
13.556648346355
20
30.0751823136668
30
0
41
1
10
13.5289597975987
20
30.0781795790239
30
0
41
1
10
13.4876776374751
20
30.0802576981002
30
0
41
1
10
13.47447899686
20
30.0805927603169
30
0
41
1
10
13.4613248654052
20
30.0805927603169
30
0
0
SPLINE
5
1B0
100
AcDbEntity
8
1
62
256
6
ByLayer
370
18
48
1
60
0
100
AcDbSpline
70
4
71
3
72
10
73
6
40
0
40
0
40
0
40
0
40
0.917501878246691
40
0.917501878246691
40
1
40
1
40
1
40
1
41
1
10
37.3567259947607
20
22.846762982856
30
0
41
1
10
37.0934449473492
20
22.4968178728525
30
0
41
1
10
36.7670931766076
20
22.1872415599411
30
0
41
1
10
36.3700156083424
20
21.9214743934871
30
0
41
1
10
36.3365668651543
20
21.899822385534
30
0
41
1
10
36.302794715719
20
21.8786899311824
30
0
0
SPLINE
5
1B1
100
AcDbEntity
8
1
62
256
6
ByLayer
370
18
48
1
60
0
100
AcDbSpline
70
4
71
2
72
7
73
4
40
0
40
0
40
0
40
0.32499673058778
40
1
40
1
40
1
41
1
10
28.3167730953518
20
38.8345987723044
30
0
41
1
10
28.081487020255
20
39.0138281057114
30
0
41
1
10
27.3232806986175
20
39.3778827709603
30
0
41
1
10
26.84139917037
20
39.3234477846298
30
0
0
SPLINE
5
1B2
100
AcDbEntity
8
1
62
256
6
ByLayer
370
18
48
1
60
0
100
AcDbSpline
70
4
71
3
72
8
73
4
40
0
40
0
40
0
40
0
40
1
40
1
40
1
40
1
41
1
10
23.8962856159808
20
34.6245734699538
30
0
41
1
10
23.8978726326042
20
34.6305845656792
30
0
41
1
10
23.8994596605127
20
34.6365956585138
30
0
41
1
10
23.9010466996893
20
34.6426067484622
30
0
0
SPLINE
5
1B3
100
AcDbEntity
8
1
62
256
6
ByLayer
370
18
48
1
60
0
100
AcDbSpline
70
4
71
3
72
10
73
6
40
0
40
0
40
0
40
0
40
0.41566530777211
40
0.41566530777211
40
1
40
1
40
1
40
1
41
1
10
10.5386751345948
20
-21.3694939161262
30
0
41
1
10
10.4549244770343
20
-21.3060777478789
30
0
41
1
10
10.3787459731137
20
-21.2515288076611
30
0
41
1
10
10.2245337544041
20
-21.1373152812055
30
0
41
1
10
10.1545345289015
20
-21.0803509409494
30
0
41
1
10
10.1056624327025
20
-21.0401816871769
30
0
0
SPLINE
5
1B4
100
AcDbEntity
8
1
62
256
6
ByLayer
370
18
48
1
60
0
100
AcDbSpline
70
4
71
2
72
10
73
7
40
0
40
0
40
0
40
0.23086361928653
40
0.45061687091895
40
0.67037012255137
40
0.78024674836758
40
1
40
1
40
1
41
1
10
32.4391300283093
20
21.7255753316082
30
0
41
1
10
31.9594560090669
20
22.027162649425
30
0
41
1
10
31.10995293846
20
22.8630835919649
30
0
41
1
10
30.3255561994315
20
24.1561036870216
30
0
41
1
10
30.1226719270034
20
24.670279968443
30
0
41
1
10
29.9092281373231
20
25.2715780883553
30
0
41
1
10
29.8124020017313
20
25.7018251511343
30
0
0
SPLINE
5
1B5
100
AcDbEntity
8
1
62
256
6
ByLayer
370
18
48
1
60
0
100
AcDbSpline
70
4
71
3
72
8
73
4
40
0
40
0
40
0
40
0
40
1
40
1
40
1
40
1
41
1
10
25.5731608926985
20
41.1244917316167
30
0
41
1
10
25.8307783175666
20
41.137992888766
30
0
41
1
10
26.1426602915809
20
41.1543379304314
30
0
41
1
10
26.4873134120982
20
41.1724004351104
30
0
0
SPLINE
5
1B6
100
AcDbEntity
8
1
62
256
6
ByLayer
370
18
48
1
60
0
100
AcDbSpline
70
4
71
2
72
6
73
3
40
0
40
0
40
0
40
1
40
1
40
1
41
1
10
29.903248828137
20
25.7120875195043
30
0
41
1
10
29.8578254149342
20
25.7069563353193
30
0
41
1
10
29.8124020017313
20
25.7018251511343
30
0
0
SPLINE
5
1B7
100
AcDbEntity
8
1
62
256
6
ByLayer
370
18
48
1
60
0
100
AcDbSpline
70
4
71
3
72
8
73
4
40
0
40
0
40
0
40
0
40
1
40
1
40
1
40
1
41
1
10
37.3537762633776
20
25.3838318149616
30
0
41
1
10
37.5548916145309
20
24.4897795898792
30
0
41
1
10
37.5559534325009
20
23.5765082009104
30
0
41
1
10
37.3567259947606
20
22.846762982856
30
0
0
SPLINE
5
1B8
100
AcDbEntity
8
1
62
256
6
ByLayer
370
18
48
1
60
0
100
AcDbSpline
70
4
71
3
72
14
73
10
40
0
40
0
40
0
40
0
40
0.264682281129105
40
0.264682281129105
40
0.529206797196864
40
0.529206797196864
40
0.796215005013496
40
0.796215005013496
40
1
40
1
40
1
40
1
41
1
10
22.92079238
20
30.8996141556632
30
0
41
1
10
22.4918347090298
20
30.8782470120691
30
0
41
1
10
22.0760939855286
20
30.8416690423415
30
0
41
1
10
21.3399746287024
20
30.7377355602684
30
0
41
1
10
21.0095242838747
20
30.6687823920308
30
0
41
1
10
20.4724242383792
20
30.4990243000185
30
0
41
1
10
20.2597267854547
20
30.3955004707743
30
0
41
1
10
20.0093210835962
20
30.1888506958789
30
0
41
1
10
19.9399854717531
20
30.0897854016817
30
0
41
1
10
19.9115068236138
20
29.9850116132027
30
0
0
SPLINE
5
1B9
100
AcDbEntity
8
1
62
256
6
ByLayer
370
18
48
1
60
0
100
AcDbSpline
70
4
71
3
72
12
73
8
40
0
40
0
40
0
40
0
40
0.500000000000001
40
0.500000000000001
40
0.75
40
0.75
40
1
40
1
40
1
40
1
41
1
10
26.6684291569026
20
41.1818923090939
30
0
41
1
10
27.2367487636147
20
41.2116766776209
30
0
41
1
10
27.8588521174641
20
41.2442797328983
30
0
41
1
10
29.0909779897098
20
41.3088527136949
30
0
41
1
10
29.5845999075606
20
41.3347223422289
30
0
41
1
10
30.5081514009848
20
41.383123625079
30
0
41
1
10
30.9152205715493
20
41.4044572163345
30
0
41
1
10
31.2918750718851
20
41.4241968422647
30
0
0
SPLINE
5
1BA
100
AcDbEntity
8
1
62
256
6
ByLayer
370
18
48
1
60
0
100
AcDbSpline
70
4
71
2
72
8
73
5
40
0
40
0
40
0
40
0.676206440903672
40
0.676206440903672
40
1
40
1
40
1
41
1
10
29.903248828137
20
25.7120875195043
30
0
41
1
10
30.3653407741741
20
25.7642870069124
30
0
41
1
10
30.7335662692251
20
26.0858719736447
30
0
41
1
10
30.9250126540467
20
26.2530691941558
30
0
41
1
10
31.0767583969796
20
26.4799792812551
30
0
0
SPLINE
5
1BB
100
AcDbEntity
8
1
62
256
6
ByLayer
370
18
48
1
60
0
100
AcDbSpline
70
4
71
2
72
8
73
5
40
0
40
0
40
0
40
0.288825390126987
40
0.525883593417991
40
1
40
1
40
1
41
1.02613459695995
10
26.4873134120682
20
41.1724004345443
30
0
41
1.02613459695995
10
26.4672358614665
20
40.7930085877201
30
0
41
1.02613459695995
10
26.4962297506646
20
40.3774000448865
30
0
41
1.02613459695995
10
26.5629598395736
20
39.7331936415169
30
0
41
1.02613459695995
10
26.6597055175588
20
39.3029230478899
30
0
0
SPLINE
5
1BC
100
AcDbEntity
8
1
62
256
6
ByLayer
370
18
48
1
60
0
100
AcDbSpline
70
4
71
3
72
16
73
12
40
0
40
0
40
0
40
0
40
0.113316224833594
40
0.113316224833594
40
0.252990411571577
40
0.252990411571577
40
0.473309013928351
40
0.473309013928351
40
0.896716357718897
40
0.896716357718897
40
1
40
1
40
1
40
1
41
1
10
10.5386751345948
20
30.0805927603169
30
0
41
1
10
10.5105874404281
20
30.0805927603169
30
0
41
1
10
10.482150642237
20
30.0790101689566
30
0
41
1
10
10.4232029654275
20
30.0726712338969
30
0
41
1
10
10.3927526278712
20
30.0672275748685
30
0
41
1
10
10.3230856363398
20
30.0506647867052
30
0
41
1
10
10.2871733492349
20
30.0378702684275
30
0
41
1
10
10.1985362549164
20
29.9980833386355
30
0
41
1
10
10.1576291602469
20
29.967975934908
30
0
41
1
10
10.1190965262402
20
29.9294196064672
30
0
41
1
10
10.112102816203
20
29.9217223689309
30
0
41
1
10
10.1056624327025
20
29.9139548464691
30
0
0
SPLINE
5
1BD
100
AcDbEntity
8
1
62
256
6
ByLayer
370
18
48
1
60
0
100
AcDbSpline
70
4
71
2
72
8
73
5
40
0
40
0
40
0
40
0.265445927027677
40
0.265445927027677
40
1
40
1
40
1
41
1
10
28.389599554836
20
26.077371775984
30
0
41
1
10
28.5757118612329
20
25.9519728531273
30
0
41
1
10
28.7683933534585
20
25.8638793166615
30
0
41
1
10
29.2594632292885
20
25.6393632953563
30
0
41
1
10
29.7215551753257
20
25.6915627827644
30
0
0
SPLINE
5
1BE
100
AcDbEntity
8
1
62
256
6
ByLayer
370
18
48
1
60
0
100
AcDbSpline
70
4
71
3
72
8
73
4
40
0
40
0
40
0
40
0
40
1
40
1
40
1
40
1
41
1
10
25.1682445093256
20
39.532918052639
30
0
41
1
10
24.8021278684882
20
38.1276967598325
30
0
41
1
10
24.4373703204076
20
36.7221039914879
30
0
41
1
10
24.0744962361218
20
35.3160035225273
30
0
0
SPLINE
5
1BF
100
AcDbEntity
8
1
62
256
6
ByLayer
370
18
48
1
60
0
100
AcDbSpline
70
4
71
3
72
8
73
4
40
0
40
0
40
0
40
0
40
1
40
1
40
1
40
1
41
1
10
24.0744962361218
20
35.3160035225273
30
0
41
1
10
24.0165202123714
20
35.091352279261
30
0
41
1
10
23.9587009420308
20
34.8668873555365
30
0
41
1
10
23.9010466996893
20
34.6426067484622
30
0
0
SPLINE
5
1C0
100
AcDbEntity
8
1
62
256
6
ByLayer
370
18
48
1
60
0
100
AcDbSpline
70
4
71
3
72
12
73
8
40
0
40
0
40
0
40
0
40
0.274566594150471
40
0.274566594150471
40
0.549133149228148
40
0.549133149228148
40
1
40
1
40
1
40
1
41
1
10
32.4391300256901
20
21.725575333255
30
0
41
1
10
32.462592169349
20
21.716941647548
30
0
41
1
10
32.4860935590261
20
21.7084138822625
30
0
41
1
10
32.5331715578857
20
21.6915701117185
30
0
41
1
10
32.5567486416376
20
21.683253934232
30
0
41
1
10
32.6191374267256
20
21.6615610173477
30
0
41
1
10
32.6580126489892
20
21.6483628929938
30
0
41
1
10
32.6969807039483
20
21.6354483951672
30
0
0
SPLINE
5
1C1
100
AcDbEntity
8
1
62
256
6
ByLayer
370
18
48
1
60
0
100
AcDbSpline
70
4
71
2
72
7
73
4
40
0
40
0
40
0
40
0.459336467299497
40
1
40
1
40
1
41
1.02613459695995
10
31.2918750718851
20
41.4241968422647
30
0
41
1.02613459695995
10
31.1562276003352
20
41.2560555773161
30
0
41
1.02613459695995
10
30.8825257303246
20
40.8524943739307
30
0
41
1.02613459695995
10
30.7528330344095
20
40.6171615570949
30
0
0
SPLINE
5
1C2
100
AcDbEntity
8
1
62
256
6
ByLayer
370
18
48
1
60
0
100
AcDbSpline
70
4
71
3
72
8
73
4
40
0
40
0
40
0
40
0
40
1
40
1
40
1
40
1
41
1
10
25.5731608926985
20
41.1244917316167
30
0
41
1
10
25.4304996962684
20
40.5760127793274
30
0
41
1
10
25.2917219871731
20
40.0342426771591
30
0
41
1
10
25.1682445093256
20
39.532918052639
30
0
0
SPLINE
5
1C3
100
AcDbEntity
8
1
62
256
6
ByLayer
370
18
48
1
60
0
100
AcDbSpline
70
4
71
3
72
16
73
12
40
0
40
0
40
0
40
0
40
0.463423600832262
40
0.463423600832262
40
0.646243952932856
40
0.646243952932856
40
0.831657283224518
40
0.831657283224518
40
0.94750434429086
40
0.94750434429086
40
1
40
1
40
1
40
1
41
1
10
10.1056624327026
20
-29.9139548464691
30
0
41
1
10
10.1343390747265
20
-29.9485407466772
30
0
41
1
10
10.1736499876091
20
-29.982269090612
30
0
41
1
10
10.2546180633468
20
-30.0239686896252
30
0
41
1
10
10.2809130191141
20
-30.0352936109065
30
0
41
1
10
10.3420137796675
20
-30.0555697561518
30
0
41
1
10
10.3777400094532
20
-30.0647246060481
30
0
41
1
10
10.4433516536449
20
-30.0751823136668
30
0
41
1
10
10.4710402024013
20
-30.0781795790239
30
0
41
1
10
10.5123223625249
20
-30.0802576981002
30
0
41
1
10
10.5255210031399
20
-30.0805927603169
30
0
41
1
10
10.5386751345948
20
-30.0805927603169
30
0
0
SPLINE
5
1C4
100
AcDbEntity
8
1
62
256
6
ByLayer
370
18
48
1
60
0
100
AcDbSpline
70
4
71
3
72
8
73
4
40
0
40
0
40
0
40
0
40
1
40
1
40
1
40
1
41
1
10
25.5013570413555
20
41.1207286512218
30
0
41
1
10
25.5012591888622
20
41.12072352299
30
0
41
1
10
25.5247795241109
20
41.121956171529
30
0
41
1
10
25.5731608926985
20
41.1244917316167
30
0
0
SPLINE
5
1C5
100
AcDbEntity
8
1
62
256
6
ByLayer
370
18
48
1
60
0
100
AcDbSpline
70
4
71
1
72
4
73
2
40
0
40
0
40
1
40
1
41
1
10
26.8413991703701
20
39.3234477846298
30
0
41
1
10
26.7505523439643
20
39.3131854162599
30
0
0
SPLINE
5
1C6
100
AcDbEntity
8
1
62
256
6
ByLayer
370
18
48
1
60
0
100
AcDbSpline
70
4
71
3
72
10
73
6
40
0
40
0
40
0
40
0
40
0.563253738015378
40
0.563253738015378
40
1
40
1
40
1
40
1
41
1
10
10.1056624327026
20
-20.1324515831236
30
0
41
1
10
10.1522667730003
20
-19.9760029585275
30
0
41
1
10
10.2181997150426
20
-19.8269086326718
30
0
41
1
10
10.3695745193898
20
-19.5962808154733
30
0
41
1
10
10.4493853955874
20
-19.5048499791108
30
0
41
1
10
10.5386751345948
20
-19.4372396071259
30
0
0
SPLINE
5
1C7
100
AcDbEntity
8
1
62
256
6
ByLayer
370
18
48
1
60
0
100
AcDbSpline
70
4
71
3
72
16
73
12
40
0
40
0
40
0
40
0
40
0.463423600832241
40
0.463423600832241
40
0.646243952932837
40
0.646243952932837
40
0.831657283224505
40
0.831657283224505
40
0.947504344290848
40
0.947504344290848
40
1
40
1
40
1
40
1
41
1
10
10.1056624327026
20
9.86941261896621
30
0
41
1
10
10.1343390747265
20
9.76458357826289
30
0
41
1
10
10.1736499876091
20
9.66039292789938
30
0
41
1
10
10.2546180633468
20
9.52957658281042
30
0
41
1
10
10.2809130191141
20
9.49380155568073
30
0
41
1
10
10.3420137796675
20
9.42941539787637
30
0
41
1
10
10.3777400094532
20
9.40014891155712
30
0
41
1
10
10.4433516536449
20
9.36662118733787
30
0
41
1
10
10.4710402024013
20
9.35698328824239
30
0
41
1
10
10.5123223625249
20
9.35029954873107
30
0
41
1
10
10.5255210031399
20
9.34922131452504
30
0
41
1
10
10.5386751345948
20
9.34922131452504
30
0
0
SPLINE
5
1C8
100
AcDbEntity
8
1
62
256
6
ByLayer
370
18
48
1
60
0
100
AcDbSpline
70
4
71
2
72
8
73
5
40
0
40
0
40
0
40
0.287326732258935
40
0.524884488172623
40
1
40
1
40
1
41
1
10
26.5778697872786
20
41.17714629305
30
0
41
1
10
26.5581986266938
20
40.801609048492
30
0
41
1
10
26.5870765770703
20
40.3876624132564
30
0
41
1
10
26.6538066659793
20
39.7434560098869
30
0
41
1
10
26.7505523439645
20
39.3131854162599
30
0
0
SPLINE
5
1C9
100
AcDbEntity
8
1
62
256
6
ByLayer
370
18
48
1
60
0
100
AcDbSpline
70
4
71
1
72
4
73
2
40
0
40
0
40
1
40
1
41
1
10
26.7505523439645
20
39.3131854162599
30
0
41
1
10
26.6597055175587
20
39.3029230478899
30
0
0
SPLINE
5
1CA
100
AcDbEntity
8
1
62
256
6
ByLayer
370
18
48
1
60
0
100
AcDbSpline
70
4
71
3
72
12
73
8
40
0
40
0
40
0
40
0
40
0.125662867415664
40
0.125662867415664
40
0.723391347187632
40
0.723391347187632
40
1
40
1
40
1
40
1
41
1
10
11.1192577964066
20
-20.2644918255164
30
0
41
1
10
11.0832051369709
20
-20.2736880398089
30
0
41
1
10
11.0469184483092
20
-20.2805545325224
30
0
41
1
10
10.8365818695359
20
-20.3053611439483
30
0
41
1
10
10.6547870327308
20
-20.2418303874514
30
0
41
1
10
10.4790692478555
20
-19.977089036001
30
0
41
1
10
10.4382167794303
20
-19.8746403083241
30
0
41
1
10
10.4092943554724
20
-19.7629012322242
30
0
0
SPLINE
5
1CB
100
AcDbEntity
8
1
62
256
6
ByLayer
370
18
48
1
60
0
100
AcDbSpline
70
4
71
3
72
14
73
10
40
0
40
0
40
0
40
0
40
0.0619845870765358
40
0.0619845870765358
40
0.374656391384357
40
0.374656391384357
40
0.687328195692179
40
0.687328195692179
40
1
40
1
40
1
40
1
41
1
10
12.6693028126036
20
-16.4731264290548
30
0
41
1
10
12.7664816599002
20
-16.5059028319177
30
0
41
1
10
12.8593194986252
20
-16.5459718455018
30
0
41
1
10
13.3778731345828
20
-16.8216451011497
30
0
41
1
10
13.6492968196797
20
-17.1692317997735
30
0
41
1
10
13.6507002409011
20
-17.8371136933824
30
0
41
1
10
13.3431194452923
20
-18.1893330002108
30
0
41
1
10
12.633087097064
20
-18.9841871481571
30
0
41
1
10
12.3171988415236
20
-19.3554969725947
30
0
41
1
10
12
20
-19.6634687087023
30
0
0
SPLINE
5
1CC
100
AcDbEntity
8
1
62
256
6
ByLayer
370
18
48
1
60
0
100
AcDbSpline
70
4
71
2
72
10
73
7
40
0
40
0
40
0
40
0.260353221278025
40
0.471680872341446
40
0.683008523404868
40
0.788672348936578
40
1
40
1
40
1
41
1
10
32.6969807129048
20
21.6354483921986
30
0
41
1
10
32.1254654790463
20
21.9634640987189
30
0
41
1
10
31.2007997648657
20
22.8733459603348
30
0
41
1
10
30.4164030258371
20
24.1663660553916
30
0
41
1
10
30.2135187534091
20
24.6805423368129
30
0
41
1
10
30.0000749637287
20
25.2818404567253
30
0
41
1
10
29.903248828137
20
25.7120875195043
30
0
0
SPLINE
5
1CD
100
AcDbEntity
8
1
62
256
6
ByLayer
370
18
48
1
60
0
100
AcDbSpline
70
4
71
3
72
10
73
6
40
0
40
0
40
0
40
0
40
0.573565230694858
40
0.573565230694858
40
1
40
1
40
1
40
1
41
1
10
13.8943375672974
20
-21.0401816871777
30
0
41
1
10
13.8463445787262
20
-21.0796283794037
30
0
41
1
10
13.7780102352029
20
-21.1353313584606
30
0
41
1
10
13.6250883068771
20
-21.2487586970678
30
0
41
1
10
13.5471921982104
20
-21.3044749970785
30
0
41
1
10
13.4613248654052
20
-21.3694939161262
30
0
0
SPLINE
5
1CE
100
AcDbEntity
8
1
62
256
6
ByLayer
370
18
48
1
60
0
100
AcDbSpline
70
4
71
2
72
8
73
5
40
0
40
0
40
0
40
0.285817388359016
40
0.523878258906011
40
1
40
1
40
1
41
1
10
26.6684291569026
20
41.181892309094
30
0
41
1
10
26.6491617268173
20
40.810204708746
30
0
41
1
10
26.6779234034759
20
40.3979247816264
30
0
41
1
10
26.744653492385
20
39.7537183782568
30
0
41
1
10
26.8413991703701
20
39.3234477846298
30
0
0
SPLINE
5
1CF
100
AcDbEntity
8
1
62
256
6
ByLayer
370
18
48
1
60
0
100
AcDbSpline
70
4
71
3
72
16
73
12
40
0
40
0
40
0
40
0
40
0.113316224833593
40
0.113316224833593
40
0.252990411571579
40
0.252990411571579
40
0.473309013928354
40
0.473309013928354
40
0.896716357718913
40
0.896716357718913
40
1
40
1
40
1
40
1
41
1
10
10.5386751345948
20
-9.34922131452512
30
0
41
1
10
10.5105874404281
20
-9.34922131452512
30
0
41
1
10
10.482150642237
20
-9.35431657338984
30
0
41
1
10
10.4232029654275
20
-9.37467777536568
30
0
41
1
10
10.3927526278712
20
-9.39213979793414
30
0
41
1
10
10.3230856363398
20
-9.44503542604386
30
0
41
1
10
10.2871733492349
20
-9.48569380431883
30
0
41
1
10
10.1985362549164
20
-9.6110592336681
30
0
41
1
10
10.1576291602469
20
-9.70465429390072
30
0
41
1
10
10.1190965262402
20
-9.82244573862477
30
0
41
1
10
10.112102816203
20
-9.84586944318031
30
0
41
1
10
10.1056624327025
20
-9.86941261896618
30
0
0
SPLINE
5
1D0
100
AcDbEntity
8
1
62
256
6
ByLayer
370
18
48
1
60
0
100
AcDbSpline
70
4
71
3
72
16
73
12
40
0
40
0
40
0
40
0
40
0.463423600832209
40
0.463423600832209
40
0.646243952932815
40
0.646243952932815
40
0.831657283224495
40
0.831657283224495
40
0.947504344290837
40
0.947504344290837
40
1
40
1
40
1
40
1
41
1
10
13.8943375672974
20
-9.86941261896621
30
0
41
1
10
13.8656609252734
20
-9.76458357826289
30
0
41
1
10
13.8263500123909
20
-9.66039292789941
30
0
41
1
10
13.7453819366532
20
-9.52957658281042
30
0
41
1
10
13.7190869808859
20
-9.49380155568073
30
0
41
1
10
13.6579862203325
20
-9.42941539787637
30
0
41
1
10
13.6222599905468
20
-9.40014891155712
30
0
41
1
10
13.556648346355
20
-9.36662118733784
30
0
41
1
10
13.5289597975987
20
-9.35698328824239
30
0
41
1
10
13.4876776374751
20
-9.35029954873104
30
0
41
1
10
13.4744789968601
20
-9.34922131452501
30
0
41
1
10
13.4613248654052
20
-9.34922131452501
30
0
0
SPLINE
5
1D1
100
AcDbEntity
8
1
62
256
6
ByLayer
370
18
48
1
60
0
100
AcDbSpline
70
4
71
3
72
8
73
4
40
0
40
0
40
0
40
0
40
1
40
1
40
1
40
1
41
1
10
32.6969807129036
20
21.6354483921993
30
0
41
1
10
33.88254284137
20
21.2425383665292
30
0
41
1
10
35.2098982541385
20
21.3054325143884
30
0
41
1
10
36.3027947157194
20
21.8786899311825
30
0
0
SPLINE
5
1D2
100
AcDbEntity
8
1
62
256
6
ByLayer
370
18
48
1
60
0
100
AcDbSpline
70
4
71
3
72
10
73
6
40
0
40
0
40
0
40
0
40
0.406434782913203
40
0.406434782913203
40
1
40
1
40
1
40
1
41
1
10
13.4613248654052
20
-19.4372396071259
30
0
41
1
10
13.5445600082495
20
-19.5002654265816
30
0
41
1
10
13.6195895752656
20
-19.5840144784503
30
0
41
1
10
13.7747384129069
20
-19.8110073784322
30
0
41
1
10
13.8452864320335
20
-19.9677891804822
30
0
41
1
10
13.8943375672975
20
-20.1324515831234
30
0
0
SPLINE
5
1D3
100
AcDbEntity
8
1
62
256
6
ByLayer
370
18
48
1
60
0
100
AcDbSpline
70
4
71
2
72
8
73
5
40
0
40
0
40
0
40
0.513379285075622
40
0.770068927613432
40
1
40
1
40
1
41
1.02613459695995
10
37.3537762633776
20
25.3838318149616
30
0
41
1.02613459695995
10
36.4222438606091
20
25.1128166909984
30
0
41
1.02613459695995
10
34.9709914102051
20
25.4281136369939
30
0
41
1.02613459695995
10
34.0710942219026
20
25.8745392295211
30
0
41
1.02613459695995
10
33.6782029779791
20
26.1775738516532
30
0
0
SPLINE
5
1D4
100
AcDbEntity
8
1
62
256
6
ByLayer
370
18
48
1
60
0
100
AcDbSpline
70
4
71
2
72
10
73
7
40
0
40
0
40
0
40
0.198148723876579
40
0.427249088483271
40
0.656349453089963
40
0.770899635393308
40
1
40
1
40
1
41
1.02613459695995
10
32.1801313483211
20
21.8258649151359
30
0
41
1.02613459695995
10
31.7916945062988
20
22.0925852208564
30
0
41
1.02613459695995
10
31.0191061120544
20
22.8528212235949
30
0
41
1.02613459695995
10
30.2347093730258
20
24.1458413186516
30
0
41
1.02613459695995
10
30.0318251005978
20
24.660017600073
30
0
41
1.02613459695995
10
29.8183813109174
20
25.2613157199854
30
0
41
1.02613459695995
10
29.7215551753256
20
25.6915627827643
30
0
0
SPLINE
5
1D5
100
AcDbEntity
8
1
62
256
6
ByLayer
370
18
48
1
60
0
100
AcDbSpline
70
4
71
3
72
10
73
6
40
0
40
0
40
0
40
0
40
0.472613018592766
40
0.472613018592766
40
1
40
1
40
1
40
1
41
1
10
10.4776548886058
20
-19.5627802575985
30
0
41
1
10
10.5745208783937
20
-19.7199841072375
30
0
41
1
10
10.6803294028695
20
-19.8627387727394
30
0
41
1
10
10.9183749881541
20
-20.12017753968
30
0
41
1
10
11.0537379712965
20
-20.2314787043774
30
0
41
1
10
11.1920390385362
20
-20.3172535622926
30
0
0
SPLINE
5
1D6
100
AcDbEntity
8
1
62
256
6
ByLayer
370
18
48
1
60
0
100
AcDbSpline
70
4
71
3
72
14
73
10
40
0
40
0
40
0
40
0
40
0.164525200330942
40
0.164525200330942
40
0.540804984924856
40
0.540804984924856
40
0.917041398719685
40
0.917041398719685
40
1
40
1
40
1
40
1
41
1
10
41.7658378066298
20
36.9773461274106
30
0
41
1
10
41.7696507746729
20
36.9704303332945
30
0
41
1
10
41.7737913451681
20
36.9635131894926
30
0
41
1
10
41.7883942069764
20
36.9411379687448
30
0
41
1
10
41.8004613867802
20
36.9257553681541
30
0
41
1
10
41.826810237785
20
36.898011329947
30
0
41
1
10
41.8413797453905
20
36.8853330681901
30
0
41
1
10
41.8593631338301
20
36.8721730881824
30
0
41
1
10
41.8626510212737
20
36.8698621623466
30
0
41
1
10
41.8659475705499
20
36.8676337183701
30
0
0
SPLINE
5
1D7
100
AcDbEntity
8
1
62
256
6
ByLayer
370
18
48
1
60
0
100
AcDbSpline
70
4
71
3
72
14
73
10
40
0
40
0
40
0
40
0
40
0.164525200330992
40
0.164525200330992
40
0.540804984924863
40
0.540804984924863
40
0.917041398719709
40
0.917041398719709
40
1
40
1
40
1
40
1
41
1
10
40.1537630358345
20
35.3079129553701
30
0
41
1
10
40.1492308034669
20
35.3141279796594
30
0
41
1
10
40.1444637327676
20
35.3204347325042
30
0
41
1
10
40.1281815490217
20
35.3411738118458
30
0
41
1
10
40.1155432379378
20
35.3559999666981
30
0
41
1
10
40.0894935546276
20
35.3840354800782
30
0
41
1
10
40.0757937956714
20
35.397561126572
30
0
41
1
10
40.0595340089715
20
35.4124003892181
30
0
41
1
10
40.0565860440466
20
35.4150424971192
30
0
41
1
10
40.0536532719146
20
35.4176253644108
30
0
0
SPLINE
5
1D8
100
AcDbEntity
8
1
62
256
6
ByLayer
370
18
48
1
60
0
100
AcDbSpline
70
4
71
3
72
12
73
8
40
0
40
0
40
0
40
0
40
0.392678099449946
40
0.392678099449946
40
0.79127933596615
40
0.79127933596615
40
1
40
1
40
1
40
1
41
1
10
41.2882422339089
20
35.0178738993044
30
0
41
1
10
41.2690461614379
20
35.0164222212116
30
0
41
1
10
41.24887931009
20
35.0139328423914
30
0
41
1
10
41.209351381468
20
35.0067755956513
30
0
41
1
10
41.1895322237039
20
35.0019721884617
30
0
41
1
10
41.1620492236191
20
34.9935725563277
30
0
41
1
10
41.1529158269652
20
34.9904461650627
30
0
41
1
10
41.1442844351562
20
34.9871888983874
30
0
0
SPLINE
5
1D9
100
AcDbEntity
8
1
62
256
6
ByLayer
370
18
48
1
60
0
100
AcDbSpline
70
4
71
3
72
14
73
10
40
0
40
0
40
0
40
0
40
0.0829586012802219
40
0.0829586012802219
40
0.459195015075147
40
0.459195015075147
40
0.835474799669109
40
0.835474799669109
40
1
40
1
40
1
40
1
41
1
10
42.0942796193077
20
35.8525904853255
30
0
41
1
10
42.0923008647583
20
35.8489607126072
30
0
41
1
10
42.0903614924011
20
35.8452768553165
30
0
41
1
10
42.0799550795741
20
35.8247536188668
30
0
41
1
10
42.072303835826
20
35.8066769473974
30
0
41
1
10
42.0603258513686
20
35.7705357319959
30
0
41
1
10
42.0558735401692
20
35.7520666639776
30
0
41
1
10
42.0519385381639
20
35.7270182358637
30
0
41
1
10
42.0510441170671
20
35.7195047204645
30
0
41
1
10
42.0504315844719
20
35.712193075367
30
0
0
SPLINE
5
1DA
100
AcDbEntity
8
1
62
256
6
ByLayer
370
18
48
1
60
0
100
AcDbSpline
70
4
71
3
72
14
73
10
40
0
40
0
40
0
40
0
40
0.0829586012802922
40
0.0829586012802922
40
0.45919501507513
40
0.45919501507513
40
0.835474799669014
40
0.835474799669014
40
1
40
1
40
1
40
1
41
1
10
39.8253212231568
20
36.4326685974554
30
0
41
1
10
39.826936200562
20
36.4359439468586
30
0
41
1
10
39.8285356504005
20
36.439296622084
30
0
41
1
10
39.8372184614878
20
36.4581405758953
30
0
41
1
10
39.8439999565865
20
36.4753698626279
30
0
41
1
10
39.8556787733494
20
36.5112196028562
30
0
41
1
10
39.860702215829
20
36.530245116613
30
0
41
1
10
39.8663165397718
20
36.5569296861331
30
0
41
1
10
39.8678374610726
20
36.5650535924894
30
0
41
1
10
39.8691692579924
20
36.5730660074136
30
0
0
SPLINE
5
1DB
100
AcDbEntity
8
1
62
256
6
ByLayer
370
18
48
1
60
0
100
AcDbSpline
70
4
71
3
72
12
73
8
40
0
40
0
40
0
40
0
40
0.392678099452529
40
0.392678099452529
40
0.79127933596873
40
0.79127933596873
40
1
40
1
40
1
40
1
41
1
10
40.631358608556
20
37.2673851834768
30
0
41
1
10
40.6488469479089
20
37.2671730395217
30
0
41
1
10
40.6678323616925
20
37.2685113591707
30
0
41
1
10
40.7065324920863
20
37.2748620929205
30
0
41
1
10
40.726731105064
20
37.2800351983634
30
0
41
1
10
40.7558682819801
20
37.2900464733553
30
0
41
1
10
40.765768110091
20
37.2939195887676
30
0
41
1
10
40.7753164073087
20
37.2980701843939
30
0
0
SPLINE
5
1DC
100
AcDbEntity
8
1
62
256
6
ByLayer
370
18
48
1
60
0
100
AcDbSpline
70
4
71
3
72
12
73
8
40
0
40
0
40
0
40
0
40
0.418782075282782
40
0.418782075282782
40
0.706182120811187
40
0.706182120811187
40
1
40
1
40
1
40
1
41
1
10
57.2124589927355
20
40.1807447667889
30
0
41
1
10
57.2391348682115
20
40.1506797171914
30
0
41
1
10
57.265494363152
20
40.1178847374624
30
0
41
1
10
57.307355102059
20
40.0605994464572
30
0
41
1
10
57.3238403452094
20
40.0365012711221
30
0
41
1
10
57.3554670204258
20
39.9871263291074
30
0
41
1
10
57.3706596222328
20
39.9616955607347
30
0
41
1
10
57.3848497736536
20
39.9362230900036
30
0
0
SPLINE
5
1DD
100
AcDbEntity
8
1
62
256
6
ByLayer
370
18
48
1
60
0
100
AcDbSpline
70
4
71
3
72
8
73
4
40
0
40
0
40
0
40
0
40
1
40
1
40
1
40
1
41
1
10
33.3000754350917
20
26.1170327936244
30
0
41
1
10
33.1497180443733
20
26.0781411406309
30
0
41
1
10
32.9966258348363
20
26.0484287084946
30
0
41
1
10
32.8407751030467
20
26.0289920666938
30
0
0
SPLINE
5
1DE
100
AcDbEntity
8
1
62
256
6
ByLayer
370
18
48
1
60
0
100
AcDbSpline
70
4
71
3
72
11
73
7
40
0
40
0
40
0
40
0
40
0.379738014043147
40
0.569607021064721
40
0.759476028086295
40
1
40
1
40
1
40
1
41
1.02830968163241
10
44.1358272653957
20
29.9760590882207
30
0
41
1.02566133279166
10
46.3901146448795
20
31.2099209007736
30
0
41
1.02050308371814
10
49.1984188607208
20
33.117489426882
30
0
41
1.01332460673153
10
53.4253855625392
20
36.6940698173655
30
0
41
1.0120630214142
10
55.3797595924796
20
37.0495099650777
30
0
41
1.00944729087555
10
56.9393708152837
20
37.979398897449
30
0
41
1.00885690313847
10
57.6407897730971
20
38.2766131738049
30
0
0
SPLINE
5
1DF
100
AcDbEntity
8
1
62
256
6
ByLayer
370
18
48
1
60
0
100
AcDbSpline
70
4
71
3
72
8
73
4
40
0
40
0
40
0
40
0
40
1
40
1
40
1
40
1
41
1
10
34.7914814251037
20
27.9842860605503
30
0
41
1
10
35.1114929217084
20
28.4508026015047
30
0
41
1
10
35.2121005969758
20
29.1360579751168
30
0
41
1
10
35.4187324075274
20
29.9706784470596
30
0
0
SPLINE
5
1E0
100
AcDbEntity
8
1
62
256
6
ByLayer
370
18
48
1
60
0
100
AcDbSpline
70
4
71
3
72
10
73
6
40
0
40
0
40
0
40
0
40
0.474805431212336
40
0.474805431212336
40
1
40
1
40
1
40
1
41
1
10
37.0978515111833
20
32.5441517850928
30
0
41
1
10
37.2834138889154
20
32.5310432697522
30
0
41
1
10
37.4683113520792
20
32.4993843251222
30
0
41
1
10
37.8435047756234
20
32.3948850127054
30
0
41
1
10
38.0347258948419
20
32.317271252185
30
0
41
1
10
38.2115570510689
20
32.2198927880477
30
0
0
SPLINE
5
1E1
100
AcDbEntity
8
1
62
256
6
ByLayer
370
18
48
1
60
0
100
AcDbSpline
70
4
71
3
72
8
73
4
40
0
40
0
40
0
40
0
40
1
40
1
40
1
40
1
41
1
10
36.2335985237975
20
32.4519291128415
30
0
41
1
10
36.5122581753534
20
32.5204328801203
30
0
41
1
10
36.8061219408821
20
32.5542793598226
30
0
41
1
10
37.0978515111833
20
32.5441517850928
30
0
0
SPLINE
5
1E2
100
AcDbEntity
8
1
62
256
6
ByLayer
370
18
48
1
60
0
100
AcDbSpline
70
4
71
2
72
6
73
3
40
0
40
0
40
0
40
1
40
1
40
1
41
1.02830968163241
10
40.9322605489569
20
42.9953653995529
30
0
41
1.02830968163241
10
41.1262497853998
20
42.7440185333605
30
0
41
1.02830968163241
10
41.3202390218428
20
42.492671667168
30
0
0
SPLINE
5
1E3
100
AcDbEntity
8
1
62
256
6
ByLayer
370
18
48
1
60
0
100
AcDbSpline
70
4
71
3
72
8
73
4
40
0
40
0
40
0
40
0
40
1
40
1
40
1
40
1
41
1
10
42.816334530036
20
32.251911043118
30
0
41
1
10
43.1995052523672
20
32.3335849369117
30
0
41
1
10
43.562975083865
20
32.4697388228583
30
0
41
1
10
43.9083630956899
20
32.6546489117621
30
0
0
SPLINE
5
1E4
100
AcDbEntity
8
1
62
256
6
ByLayer
370
18
48
1
60
0
100
AcDbSpline
70
4
71
3
72
8
73
4
40
0
40
0
40
0
40
0
40
1
40
1
40
1
40
1
41
1
10
35.0963400794841
20
37.5075772113167
30
0
41
1
10
35.37499973104
20
37.5760809785955
30
0
41
1
10
35.6535073475359
20
37.6781927554656
30
0
41
1
10
35.9121908534354
20
37.814970462899
30
0
0
SPLINE
5
1E5
100
AcDbEntity
8
1
62
256
6
ByLayer
370
18
48
1
60
0
100
AcDbSpline
70
4
71
3
72
12
73
8
40
0
40
0
40
0
40
0
40
0.499999999999995
40
0.499999999999995
40
0.749999999999997
40
0.749999999999997
40
1
40
1
40
1
40
1
41
1
10
33.3168633565536
20
39.3144738911771
30
0
41
1
10
33.2290790652846
20
39.1872493422085
30
0
41
1
10
33.1445098771335
20
39.0598558473823
30
0
41
1
10
33.0227379510399
20
38.8681684090576
30
0
41
1
10
32.9829445130271
20
38.8042332886868
30
0
41
1
10
32.9060245087185
20
38.675421552952
30
0
41
1
10
32.8323479862776
20
38.6155147824604
30
0
41
1
10
32.850579480517
20
38.5344672249427
30
0
0
SPLINE
5
1E6
100
AcDbEntity
8
1
62
256
6
ByLayer
370
18
48
1
60
0
100
AcDbSpline
70
4
71
3
72
16
73
12
40
0
40
0
40
0
40
0
40
0.0076436986798996
40
0.0076436986798996
40
0.0409116539642734
40
0.0409116539642734
40
0.185161591066359
40
0.185161591066359
40
0.76103989734915
40
0.76103989734915
40
1
40
1
40
1
40
1
41
1
10
30.095630139426
20
28.6317445393916
30
0
41
1
10
30.0964119864401
20
28.6282688620819
30
0
41
1
10
30.0971551312009
20
28.624762828171
30
0
41
1
10
30.1008806996187
20
28.6061179360558
30
0
41
1
10
30.1031201357844
20
28.5909108161154
30
0
41
1
10
30.1132406246606
20
28.513487959427
30
0
41
1
10
30.1184757695698
20
28.4555877081456
30
0
41
1
10
30.1557404717009
20
28.1665705555371
30
0
41
1
10
30.2061499262232
20
27.9431330559561
30
0
41
1
10
30.3126109447121
20
27.6391941859476
30
0
41
1
10
30.3481687885301
20
27.5513081404802
30
0
41
1
10
30.3881400941174
20
27.4653656548575
30
0
0
SPLINE
5
1E7
100
AcDbEntity
8
1
62
256
6
ByLayer
370
18
48
1
60
0
100
AcDbSpline
70
4
71
2
72
6
73
3
40
0
40
0
40
0
40
1
40
1
40
1
41
1.0087712828333
10
57.7051269954173
20
38.5744228024493
30
0
41
1.0087712828333
10
57.5520345125289
20
39.2549908157056
30
0
41
1.0087712828333
10
57.3989420296406
20
39.9355588289619
30
0
0
SPLINE
5
1E8
100
AcDbEntity
8
1
62
256
6
ByLayer
370
18
48
1
60
0
100
AcDbSpline
70
4
71
3
72
8
73
4
40
0
40
0
40
0
40
0
40
1
40
1
40
1
40
1
41
1
10
41.0010950900742
20
40.3215032002996
30
0
41
1
10
41.384265812531
20
40.4031770941201
30
0
41
1
10
41.7717784068086
20
40.4324496041624
30
0
41
1
10
42.1630093008269
20
40.4135665440847
30
0
0
SPLINE
5
1E9
100
AcDbEntity
8
1
62
256
6
ByLayer
370
18
48
1
60
0
100
AcDbSpline
70
4
71
2
72
6
73
3
40
0
40
0
40
0
40
1
40
1
40
1
41
1.02830968163241
10
41.3202390218428
20
42.492671667168
30
0
41
0.915286811692243
10
41.6784130466563
20
42.0285947918776
30
0
41
0.941103849220746
10
42.1630092999709
20
40.4135665547643
30
0
0
SPLINE
5
1EA
100
AcDbEntity
8
1
62
256
6
ByLayer
370
18
48
1
60
0
100
AcDbSpline
70
4
71
2
72
6
73
3
40
0
40
0
40
0
40
1
40
1
40
1
41
0.941103849192081
10
43.9083631003509
20
32.6546488990265
30
0
41
0.915286811754989
10
44.1939726424531
20
30.8457505127397
30
0
41
1.02830968163241
10
44.1358272653957
20
29.9760590882207
30
0
0
SPLINE
5
1EB
100
AcDbEntity
8
1
62
256
6
ByLayer
370
18
48
1
60
0
100
AcDbSpline
70
4
71
3
72
8
73
4
40
0
40
0
40
0
40
0
40
1
40
1
40
1
40
1
41
1
10
40.8254041379317
20
31.827538751816
30
0
41
1
10
39.9356662468364
20
31.6378886721348
30
0
41
1
10
38.9970670708935
20
31.7873233193689
30
0
41
1
10
38.211557051069
20
32.2198927880477
30
0
0
SPLINE
5
1EC
100
AcDbEntity
8
1
62
256
6
ByLayer
370
18
48
1
60
0
100
AcDbSpline
70
4
71
3
72
13
73
9
40
0
40
0
40
0
40
0
40
0.250661764437225
40
0.250661764437225
40
0.250661764437225
40
0.653096502165463
40
0.653096502165463
40
1
40
1
40
1
40
1
41
1
10
46.0651666250365
20
35.4794416015244
30
0
41
1
10
46.120931243419
20
35.7631940673014
30
0
41
1
10
46.1467060613501
20
36.0552724082927
30
0
41
1
10
46.1418753948523
20
36.3460680497884
30
0
41
1
10
46.134186884988
20
36.8088996609417
30
0
41
1
10
46.0475529077981
20
37.2789970458367
30
0
41
1
10
45.7523591558813
20
38.0968674751446
30
0
41
1
10
45.5591025583913
20
38.4611907593309
30
0
41
1
10
45.3210499798757
20
38.7873896945565
30
0
0
SPLINE
5
1ED
100
AcDbEntity
8
1
62
256
6
ByLayer
370
18
48
1
60
0
100
AcDbSpline
70
4
71
3
72
8
73
4
40
0
40
0
40
0
40
0
40
1
40
1
40
1
40
1
41
1
10
30.3881400941175
20
27.4653656548574
30
0
41
1
10
30.5397189642117
20
27.1394552380634
30
0
41
1
10
30.7295565194389
20
26.8544842235343
30
0
41
1
10
30.9710752044668
20
26.6144670575565
30
0
0
SPLINE
5
1EE
100
AcDbEntity
8
1
62
256
6
ByLayer
370
18
48
1
60
0
100
AcDbSpline
70
4
71
2
72
6
73
3
40
0
40
0
40
0
40
1
40
1
40
1
41
1.02830968163241
10
44.1358272653957
20
29.9760590882207
30
0
41
1.02830968163241
10
44.1043353745167
20
29.5050289079152
30
0
41
1.02830968163241
10
44.0728434836378
20
29.0339987276098
30
0
0
SPLINE
5
1EF
100
AcDbEntity
8
1
62
256
6
ByLayer
370
18
48
1
60
0
100
AcDbSpline
70
4
71
3
72
12
73
8
40
0
40
0
40
0
40
0
40
0.40717408471193
40
0.40717408471193
40
0.69951127243093
40
0.69951127243093
40
1
40
1
40
1
40
1
41
1
10
57.6922000869875
20
38.5699065460884
30
0
41
1
10
57.689155398726
20
38.5314647690427
30
0
41
1
10
57.6844632288577
20
38.4916229846891
30
0
41
1
10
57.6736421312664
20
38.4227973528354
30
0
41
1
10
57.6682591133965
20
38.3937046113958
30
0
41
1
10
57.6557933470657
20
38.3351696683776
30
0
41
1
10
57.6486184038072
20
38.3055187153821
30
0
41
1
10
57.6407897799505
20
38.2766131767089
30
0
0
SPLINE
5
1F0
100
AcDbEntity
8
1
62
256
6
ByLayer
370
18
48
1
60
0
100
AcDbSpline
70
4
71
3
72
8
73
4
40
0
40
0
40
0
40
0
40
1
40
1
40
1
40
1
41
1
10
56.8268423936927
20
40.5305854028394
30
0
41
1
10
56.9693874944072
20
40.4254127501225
30
0
41
1
10
57.1000334850482
20
40.3057905074702
30
0
41
1
10
57.2124589927355
20
40.1807447667889
30
0
0
SPLINE
5
1F1
100
AcDbEntity
8
1
62
256
6
ByLayer
370
18
48
1
60
0
100
AcDbSpline
70
4
71
3
72
14
73
10
40
0
40
0
40
0
40
0
40
0.0151857536690285
40
0.0151857536690285
40
0.065573031577496
40
0.065573031577496
40
0.287642754348332
40
0.287642754348332
40
1
40
1
40
1
40
1
41
1
10
28.2672684866452
20
36.7596710977095
30
0
41
1
10
28.265716324817
20
36.7665711862817
30
0
41
1
10
28.2639964372497
20
36.7733964377713
30
0
41
1
10
28.2562306351622
20
36.8016543644142
30
0
41
1
10
28.2494204362751
20
36.8211095619816
30
0
41
1
10
28.2140418018332
20
36.9214821293881
30
0
41
1
10
28.1874682323987
20
36.9955601819533
30
0
41
1
10
28.0926662597252
20
37.3150492844735
30
0
41
1
10
28.0554616750451
20
37.5632228413651
30
0
41
1
10
28.0604861811129
20
37.8128808903185
30
0
0
SPLINE
5
1F2
100
AcDbEntity
8
1
62
256
6
ByLayer
370
18
48
1
60
0
100
AcDbSpline
70
4
71
3
72
10
73
6
40
0
40
0
40
0
40
0
40
0.325288492889664
40
0.325288492889664
40
1
40
1
40
1
40
1
41
1
10
28.060486181113
20
37.8128808903187
30
0
41
1
10
28.0625793758262
20
37.9168877123061
30
0
41
1
10
28.0704112262973
20
38.0179403990278
30
0
41
1
10
28.1129237654592
20
38.3205424258416
30
0
41
1
10
28.1676171769639
20
38.5163103136051
30
0
41
1
10
28.2519380113391
20
38.7023094021602
30
0
0
SPLINE
5
1F3
100
AcDbEntity
8
1
62
256
6
ByLayer
370
18
48
1
60
0
100
AcDbSpline
70
4
71
3
72
12
73
8
40
0
40
0
40
0
40
0
40
0.252749620142204
40
0.252749620142204
40
0.674711209428769
40
0.674711209428769
40
1
40
1
40
1
40
1
41
1
10
30.9710752044466
20
26.6144670575628
30
0
41
1
10
31.0429107942109
20
26.5430780688821
30
0
41
1
10
31.1227786135734
20
26.4747321936565
30
0
41
1
10
31.3555183221475
20
26.306482780863
30
0
41
1
10
31.5249635556095
20
26.2142586210977
30
0
41
1
10
31.8538528201731
20
26.0934132379047
30
0
41
1
10
32.0099805987645
20
26.054161822735
30
0
41
1
10
32.169024634795
20
26.0318654802921
30
0
0
SPLINE
5
1F4
100
AcDbEntity
8
1
62
256
6
ByLayer
370
18
48
1
60
0
100
AcDbSpline
70
4
71
3
72
8
73
4
40
0
40
0
40
0
40
0
40
1
40
1
40
1
40
1
41
1
10
29.1958956709345
20
39.6899308783574
30
0
41
1
10
29.1716340997343
20
39.6757970529374
30
0
41
1
10
29.1476534799561
20
39.6613803439651
30
0
41
1
10
29.1240262772968
20
39.6467047574659
30
0
0
SPLINE
5
1F5
100
AcDbEntity
8
1
62
256
6
ByLayer
370
18
48
1
60
0
100
AcDbSpline
70
4
71
3
72
16
73
12
40
0
40
0
40
0
40
0
40
0.25
40
0.25
40
0.5
40
0.5
40
0.75
40
0.75
40
0.875
40
0.875
40
1
40
1
40
1
40
1
41
1
10
56.1238232612626
20
41.0401295714847
30
0
41
1
10
55.0122018499731
20
41.108767619572
30
0
41
1
10
53.8506898622656
20
41.1988908763795
30
0
41
1
10
51.323006992642
20
41.4672730535655
30
0
41
1
10
50.0496149397079
20
41.6040525028429
30
0
41
1
10
47.4661496193148
20
41.9064911425584
30
0
41
1
10
46.0937726183263
20
42.0923843122021
30
0
41
1
10
44.1395578002875
20
42.4436962451477
30
0
41
1
10
43.5063982686091
20
42.5735231225712
30
0
41
1
10
42.4003019997537
20
42.8445954222764
30
0
41
1
10
41.9389189290356
20
42.9833277586985
30
0
41
1
10
41.5630743973905
20
43.1176294123487
30
0
0
SPLINE
5
1F6
100
AcDbEntity
8
1
62
256
6
ByLayer
370
18
48
1
60
0
100
AcDbSpline
70
4
71
3
72
12
73
8
40
0
40
0
40
0
40
0
40
0.322961595764271
40
0.322961595764271
40
0.710971356423584
40
0.710971356423584
40
1
40
1
40
1
40
1
41
1
10
43.9083630981335
20
32.6546489130703
30
0
41
1
10
44.2554494579298
20
32.840191341322
30
0
41
1
10
44.5806456215656
20
33.0773177899302
30
0
41
1
10
45.2070345756797
20
33.6770620418019
30
0
41
1
10
45.5002822941523
20
34.0644125847703
30
0
41
1
10
45.8771333759366
20
34.7982632535001
30
0
41
1
10
45.9979533517056
20
35.1376314500897
30
0
41
1
10
46.0651666250365
20
35.4794416015244
30
0
0
SPLINE
5
1F7
100
AcDbEntity
8
1
62
256
6
ByLayer
370
18
48
1
60
0
100
AcDbSpline
70
4
71
3
72
12
73
8
40
0
40
0
40
0
40
0
40
0.252749620142201
40
0.252749620142201
40
0.674711209428768
40
0.674711209428768
40
1
40
1
40
1
40
1
41
1
10
28.2519380113243
20
38.702309402142
30
0
41
1
10
28.2892169236487
20
38.7845410803046
30
0
41
1
10
28.334903124749
20
38.8681485576651
30
0
41
1
10
28.4800222405317
20
39.0894138462554
30
0
41
1
10
28.5974238472617
20
39.2285480587589
30
0
41
1
10
28.8477932359671
20
39.4567604144294
30
0
41
1
10
28.9736491793761
20
39.5520815291384
30
0
41
1
10
29.108567192999
20
39.6370366913281
30
0
0
SPLINE
5
1F8
100
AcDbEntity
8
1
62
256
6
ByLayer
370
18
48
1
60
0
100
AcDbSpline
70
4
71
3
72
11
73
7
40
0
40
0
40
0
40
0
40
0.268536746003807
40
0.487975722202665
40
0.707414698401523
40
1
40
1
40
1
40
1
41
1.0249090909279
10
45.3210499286541
20
38.7873896853285
30
0
41
1.0229768070834
10
46.644930381817
20
39.0258976066324
30
0
41
1.0191099966158
10
48.9648859128246
20
39.3923604956539
30
0
41
1.01332460673153
10
52.7870482054184
20
39.675636903842
30
0
41
1.01203732298747
10
54.8237237138086
20
39.9280633553476
30
0
41
1.00929221524307
10
56.6068616316079
20
39.9733354508317
30
0
41
1.0087712828333
10
57.3989420296406
20
39.9355588289619
30
0
0
SPLINE
5
1F9
100
AcDbEntity
8
1
62
256
6
ByLayer
370
18
48
1
60
0
100
AcDbSpline
70
4
71
3
72
8
73
4
40
0
40
0
40
0
40
0
40
1
40
1
40
1
40
1
41
1
10
57.6407897799505
20
38.2766131767089
30
0
41
1
10
57.594476035288
20
38.1077610697251
30
0
41
1
10
57.528776526322
20
37.9386656877914
30
0
41
1
10
57.4453940865526
20
37.7808325164559
30
0
0
SPLINE
5
1FA
100
AcDbEntity
8
1
62
256
6
ByLayer
370
18
48
1
60
0
100
AcDbSpline
70
4
71
3
72
8
73
4
40
0
40
0
40
0
40
0
40
1
40
1
40
1
40
1
41
1
10
33.3168633565594
20
39.3144738911857
30
0
41
1
10
32.7955623158386
20
39.8921037093611
30
0
41
1
10
32.431563898774
20
40.3489844772793
30
0
41
1
10
31.9758931815508
20
40.5008986394977
30
0
0
SPLINE
5
1FB
100
AcDbEntity
8
1
62
256
6
ByLayer
370
18
48
1
60
0
100
AcDbSpline
70
4
71
3
72
18
73
14
40
0
40
0
40
0
40
0
40
0.148865436690718
40
0.148865436690718
40
0.336868556410374
40
0.336868556410374
40
0.519491108027854
40
0.519491108027854
40
0.711563055534807
40
0.711563055534807
40
0.930180979444766
40
0.930180979444766
40
1
40
1
40
1
40
1
41
1
10
51.5954928098971
20
33.138516207462
30
0
41
1
10
51.5944492881464
20
33.1456598217734
30
0
41
1
10
51.5958563855259
20
33.1544380235281
30
0
41
1
10
51.6047854692835
20
33.1771750811366
30
0
41
1
10
51.614002381481
20
33.1922375733323
30
0
41
1
10
51.6389322686883
20
33.2240534271512
30
0
41
1
10
51.6547443016058
20
33.2411366048398
30
0
41
1
10
51.6914589088875
20
33.2763098763192
30
0
41
1
10
51.7129933693139
20
33.2948213492887
30
0
41
1
10
51.7612746924835
20
33.3329228172854
30
0
41
1
10
51.7888797305796
20
33.3527619467795
30
0
41
1
10
51.8254849436377
20
33.3770547986273
30
0
41
1
10
51.8344252738608
20
33.3828341155275
30
0
41
1
10
51.8433707931811
20
33.3884708563071
30
0
0
SPLINE
5
1FC
100
AcDbEntity
8
1
62
256
6
ByLayer
370
18
48
1
60
0
100
AcDbSpline
70
4
71
3
72
8
73
4
40
0
40
0
40
0
40
0
40
1
40
1
40
1
40
1
41
1
10
36.7898310561338
20
38.5401327992669
30
0
41
1
10
37.3300706864397
20
39.2303514439213
30
0
41
1
10
38.1025137401574
20
39.7036626098562
30
0
41
1
10
39.0101646979699
20
39.8971309089976
30
0
0
SPLINE
5
1FD
100
AcDbEntity
8
1
62
256
6
ByLayer
370
18
48
1
60
0
100
AcDbSpline
70
4
71
3
72
10
73
6
40
0
40
0
40
0
40
0
40
0.494168352806885
40
0.494168352806885
40
1
40
1
40
1
40
1
41
1
10
32.8407751030468
20
26.0289920666938
30
0
41
1
10
32.7376453964004
20
26.0161304320766
30
0
41
1
10
32.6296399593305
20
26.0086100827973
30
0
41
1
10
32.4102225833362
20
26.0076677400574
30
0
41
1
10
32.2972790563319
20
26.0146208950832
30
0
41
1
10
32.1872196865066
20
26.0293708858471
30
0
0
SPLINE
5
1FE
100
AcDbEntity
8
1
62
256
6
ByLayer
370
18
48
1
60
0
100
AcDbSpline
70
4
71
3
72
8
73
4
40
0
40
0
40
0
40
0
40
1
40
1
40
1
40
1
41
1
10
41.5630743973948
20
43.1176294123498
30
0
41
1
10
41.3521094331489
20
43.0765373871838
30
0
41
1
10
41.141577063545
20
43.0356651167153
30
0
41
1
10
40.9322605489569
20
42.9953653995529
30
0
0
SPLINE
5
1FF
100
AcDbEntity
8
1
62
256
6
ByLayer
370
18
48
1
60
0
100
AcDbSpline
70
4
71
3
72
11
73
7
40
0
40
0
40
0
40
0
40
0.379738014043153
40
0.569607021064729
40
0.759476028086305
40
1
40
1
40
1
40
1
41
1.02830968163241
10
41.3202390218428
20
42.492671667168
30
0
41
1.02566133279165
10
43.8812793642365
20
42.3628724391712
30
0
41
1.02050308371814
10
47.2284175550618
20
41.8750707883274
30
0
41
1.01332460673153
10
52.6081630013059
20
40.3270080543876
30
0
41
1.0120630214142
10
54.5807598815248
20
40.6014390710299
30
0
41
1.00944729087556
10
56.4262211905328
20
40.2605900704694
30
0
41
1.00885690313847
10
57.2124589850533
20
40.1807447675691
30
0
0
SPLINE
5
200
100
AcDbEntity
8
1
62
256
6
ByLayer
370
18
48
1
60
0
100
AcDbSpline
70
4
71
3
72
13
73
9
40
0
40
0
40
0
40
0
40
0.287856992129663
40
0.287856992129663
40
0.605626331970862
40
0.605626331970862
40
0.605626331970862
40
1
40
1
40
1
40
1
41
1
10
45.3210499798757
20
38.7873896945565
30
0
41
1
10
45.1136356259919
20
39.0715203126593
30
0
41
1
10
44.8602054509157
20
39.3263659357418
30
0
41
1
10
44.2740822503445
20
39.7746132075237
30
0
41
1
10
43.9294163537639
20
39.9650349388941
30
0
41
1
10
43.5690699910955
20
40.1065094975885
30
0
41
1
10
43.1239472542289
20
40.2812678669994
30
0
41
1
10
42.6420113945651
20
40.3860215819567
30
0
41
1
10
42.1630093032098
20
40.4135665439697
30
0
0
SPLINE
5
201
100
AcDbEntity
8
1
62
256
6
ByLayer
370
18
48
1
60
0
100
AcDbSpline
70
4
71
3
72
12
73
8
40
0
40
0
40
0
40
0
40
0.500000000000008
40
0.500000000000008
40
0.750000000000004
40
0.750000000000004
40
1
40
1
40
1
40
1
41
1
10
35.4187324075185
20
29.9706784470641
30
0
41
1
10
35.2873130609462
20
30.0374322197998
30
0
41
1
10
35.158878645238
20
30.1050402704863
30
0
41
1
10
34.9707795417455
20
30.2082082979283
30
0
41
1
10
34.9088206112863
20
30.2428092054046
30
0
41
1
10
34.7869583316536
20
30.3137869985324
30
0
41
1
10
34.6971726275356
20
30.3254931091078
30
0
41
1
10
34.6789411332984
20
30.4065406666263
30
0
0
SPLINE
5
202
100
AcDbEntity
8
1
62
256
6
ByLayer
370
18
48
1
60
0
100
AcDbSpline
70
4
71
3
72
8
73
4
40
0
40
0
40
0
40
0
40
1
40
1
40
1
40
1
41
1
10
56.1238232612625
20
41.0401295714846
30
0
41
1
10
56.3572916709438
20
40.8735221899215
30
0
41
1
10
56.5920967561042
20
40.7037854728185
30
0
41
1
10
56.8268423936927
20
40.5305854028394
30
0
0
SPLINE
5
203
100
AcDbEntity
8
1
62
256
6
ByLayer
370
18
48
1
60
0
100
AcDbSpline
70
4
71
3
72
8
73
4
40
0
40
0
40
0
40
0
40
1
40
1
40
1
40
1
41
1
10
44.7036573320671
20
29.1562627404043
30
0
41
1
10
44.4926923678241
20
29.1151707152391
30
0
41
1
10
44.2821599982229
20
29.0742984447714
30
0
41
1
10
44.0728434836378
20
29.0339987276098
30
0
0
SPLINE
5
204
100
AcDbEntity
8
1
62
256
6
ByLayer
370
18
48
1
60
0
100
AcDbSpline
70
4
71
3
72
18
73
14
40
0
40
0
40
0
40
0
40
0.038443051382885
40
0.038443051382885
40
0.294505767099365
40
0.294505767099365
40
0.507931675708717
40
0.507931675708717
40
0.723079147095953
40
0.723079147095953
40
0.912685296049717
40
0.912685296049717
40
1
40
1
40
1
40
1
41
1
10
49.8939777130802
20
42.0544389727651
30
0
41
1
10
49.8881626653676
20
42.0552560195371
30
0
41
1
10
49.8823363389752
20
42.0560924859483
30
0
41
1
10
49.8380155102096
20
42.0625943142418
30
0
41
1
10
49.7987263075034
20
42.0691713452947
30
0
41
1
10
49.7311239419544
20
42.082267914985
30
0
41
1
10
49.7013430655567
20
42.0887672211269
30
0
41
1
10
49.6491480052946
20
42.1019399137798
30
0
41
1
10
49.6260519573365
20
42.1088170135349
30
0
41
1
10
49.5936475477151
20
42.1209110318488
30
0
41
1
10
49.5826021451745
20
42.1263897972168
30
0
41
1
10
49.5737470558199
20
42.133442942973
30
0
41
1
10
49.5719577945775
20
42.1355663402266
30
0
41
1
10
49.5711796581287
20
42.1375392418623
30
0
0
SPLINE
5
205
100
AcDbEntity
8
1
62
256
6
ByLayer
370
18
48
1
60
0
100
AcDbSpline
70
4
71
3
72
10
73
6
40
0
40
0
40
0
40
0
40
0.46599585446056
40
0.46599585446056
40
1
40
1
40
1
40
1
41
1
10
36.7898310561338
20
38.5401327992669
30
0
41
1
10
36.6829499093149
20
38.4035797658385
30
0
41
1
10
36.5594762095994
20
38.2752402874859
30
0
41
1
10
36.2686845590468
20
38.0278938772756
30
0
41
1
10
36.0956917484579
20
37.9113330653648
30
0
41
1
10
35.9121908534354
20
37.814970462899
30
0
0
SPLINE
5
206
100
AcDbEntity
8
1
62
256
6
ByLayer
370
18
48
1
60
0
100
AcDbSpline
70
4
71
3
72
11
73
7
40
0
40
0
40
0
40
0
40
0.268536746558077
40
0.487975722590654
40
0.707414698623231
40
1
40
1
40
1
40
1
41
1.02490909094425
10
46.0651665632914
20
35.4794415873277
30
0
41
1.02297680709541
10
47.3749550590845
20
35.7805948986055
30
0
41
1.019109996622
10
49.6546846349785
20
36.325881071953
30
0
41
1.01332460673153
10
53.299835852083
20
37.3960548934859
30
0
41
1.01203732298747
10
55.2984662801332
20
37.8176096016735
30
0
41
1.00929221524307
10
56.9786988595994
20
38.320344273627
30
0
41
1.0087712828333
10
57.7051269954173
20
38.5744228024493
30
0
0
SPLINE
5
207
100
AcDbEntity
8
1
62
256
6
ByLayer
370
18
48
1
60
0
100
AcDbSpline
70
4
71
3
72
16
73
12
40
0
40
0
40
0
40
0
40
0.125
40
0.125
40
0.25
40
0.25
40
0.5
40
0.5
40
0.75
40
0.75
40
1
40
1
40
1
40
1
41
1
10
44.7036573320773
20
29.1562627404063
30
0
41
1
10
44.9668148489662
20
29.5247629592987
30
0
41
1
10
45.3067197601154
20
29.9225283644624
30
0
41
1
10
46.1734093325023
20
30.7578614850278
30
0
41
1
10
46.6832764600962
20
31.1801632328674
30
0
41
1
10
48.3034625937353
20
32.3914886923004
30
0
41
1
10
49.4595616438883
20
33.1006070342517
30
0
41
1
10
51.6754203395185
20
34.3474218840942
30
0
41
1
10
52.7719534555887
20
34.9346181140519
30
0
41
1
10
54.9627729183508
20
36.1018715296042
30
0
41
1
10
56.0231894474225
20
36.5862347434065
30
0
41
1
10
57.0319397258824
20
37.003125229603
30
0
0
SPLINE
5
208
100
AcDbEntity
8
1
62
256
6
ByLayer
370
18
48
1
60
0
100
AcDbSpline
70
4
71
3
72
8
73
4
40
0
40
0
40
0
40
0
40
1
40
1
40
1
40
1
41
1
10
57.0319397258824
20
37.0031252296029
30
0
41
1
10
57.169877929937
20
37.2611944946137
30
0
41
1
10
57.3080785008947
20
37.5209102304431
30
0
41
1
10
57.4453940865526
20
37.7808325164559
30
0
0
INSERT
5
21A
100
AcDbEntity
8
2
62
256
6
ByLayer
370
25
48
1
60
0
100
AcDbBlockReference
2
DimnDraft3D11
10
0
20
0
30
0
41
1
42
1
43
1
50
0
210
0
220
0
230
1
0
LINE
5
72
100
AcDbEntity
8
80
62
256
6
ByLayer
370
18
48
1
60
0
100
AcDbLine
10
0
20
0
30
0
11
-5
21
0
31
0
39
0
210
0
220
0
230
1
0
LINE
5
73
100
AcDbEntity
8
1
62
256
6
ByLayer
370
18
48
1
60
0
100
AcDbLine
10
32.024315
20
41.082985
30
0
11
31.392195
21
40.894888
31
0
39
0
210
0
220
0
230
1
0
LINE
5
75
100
AcDbEntity
8
1
62
256
6
ByLayer
370
18
48
1
60
0
100
AcDbLine
10
30.883749
20
40.674697
30
0
11
29.196421
21
39.690257
31
0
39
0
210
0
220
0
230
1
0
LINE
5
76
100
AcDbEntity
8
1
62
256
6
ByLayer
370
18
48
1
60
0
100
AcDbLine
10
28.119827
20
37.243923
30
0
11
30.180966
21
28.081194
31
0
39
0
210
0
220
0
230
1
0
LINE
5
77
100
AcDbEntity
8
1
62
256
6
ByLayer
370
18
48
1
60
0
100
AcDbLine
10
0.3
20
31.5
30
0
11
0
21
31.2
31
0
39
0
210
0
220
0
230
1
0
LINE
5
78
100
AcDbEntity
8
1
62
256
6
ByLayer
370
18
48
1
60
0
100
AcDbLine
10
0
20
-31.2
30
0
11
0.3
21
-31.5
31
0
39
0
210
0
220
0
230
1
0
LINE
5
79
100
AcDbEntity
8
1
62
256
6
ByLayer
370
18
48
1
60
0
100
AcDbLine
10
0.3
20
-31.5
30
0
11
17.468416
21
-31.5
31
0
39
0
210
0
220
0
230
1
0
LINE
5
7A
100
AcDbEntity
8
1
62
256
6
ByLayer
370
18
48
1
60
0
100
AcDbLine
10
22.920792
20
31.5
30
0
11
0.3
21
31.5
31
0
39
0
210
0
220
0
230
1
0
LINE
5
7B
100
AcDbEntity
8
1
62
256
6
ByLayer
370
18
48
1
60
0
100
AcDbLine
10
25.499674
20
41.124519
30
0
11
22.920792
21
31.5
31
0
39
0
210
0
220
0
230
1
0
LINE
5
7C
100
AcDbEntity
8
1
62
256
6
ByLayer
370
18
48
1
60
0
100
AcDbLine
10
20.96986
20
-3.153426
30
0
11
19.26238
21
-5.07156
31
0
39
0
210
0
220
0
230
1
0
LINE
5
7D
100
AcDbEntity
8
1
62
256
6
ByLayer
370
18
48
1
60
0
100
AcDbLine
10
49.075808
20
42.865989
30
0
11
48.89986
21
42.694566
31
0
39
0
210
0
220
0
230
1
0
LINE
5
7E
100
AcDbEntity
8
1
62
256
6
ByLayer
370
18
48
1
60
0
100
AcDbLine
10
56.820392
20
31.23364
30
0
11
57.718962
21
32.109105
31
0
39
0
210
0
220
0
230
1
0
LINE
5
7F
100
AcDbEntity
8
1
62
256
6
ByLayer
370
18
48
1
60
0
100
AcDbLine
10
50.252918
20
44.173576
30
0
11
49.354348
21
43.298111
31
0
39
0
210
0
220
0
230
1
0
LINE
5
80
100
AcDbEntity
8
1
62
256
6
ByLayer
370
18
48
1
60
0
100
AcDbLine
10
41.011201
20
34.900095
30
0
11
40.757527
21
34.652943
31
0
39
0
210
0
220
0
230
1
0
LINE
5
81
100
AcDbEntity
8
1
62
256
6
ByLayer
370
18
48
1
60
0
100
AcDbLine
10
40.654726
20
37.138013
30
0
11
40.9084
21
37.385164
31
0
39
0
210
0
220
0
230
1
0
LINE
5
82
100
AcDbEntity
8
1
62
256
6
ByLayer
370
18
48
1
60
0
100
AcDbLine
10
43.379098
20
32.915119
30
0
11
43.653428
21
33.182395
31
0
39
0
210
0
220
0
230
1
0
LINE
5
83
100
AcDbEntity
8
1
62
256
6
ByLayer
370
18
48
1
60
0
100
AcDbLine
10
38.070722
20
38.912438
30
0
11
37.796392
21
38.645162
31
0
39
0
210
0
220
0
230
1
0
LINE
5
84
100
AcDbEntity
8
1
62
256
6
ByLayer
370
18
48
1
60
0
100
AcDbLine
10
42.172791
20
35.958249
30
0
11
41.919117
21
35.711098
31
0
39
0
210
0
220
0
230
1
0
LINE
5
85
100
AcDbEntity
8
1
62
256
6
ByLayer
370
18
48
1
60
0
100
AcDbLine
10
35.4379
20
37.534962
30
0
11
36.022766
21
37.876191
31
0
39
0
210
0
220
0
230
1
0
LINE
5
86
100
AcDbEntity
8
1
62
256
6
ByLayer
370
18
48
1
60
0
100
AcDbLine
10
19.196994
20
-11.762534
30
0
11
24.256357
21
-6.078992
31
0
39
0
210
0
220
0
230
1
0
LINE
5
87
100
AcDbEntity
8
1
62
256
6
ByLayer
370
18
48
1
60
0
100
AcDbLine
10
24.270237
20
-6.026179
30
0
11
24.246323
21
-5.681277
31
0
39
0
210
0
220
0
230
1
0
LINE
5
88
100
AcDbEntity
8
1
62
256
6
ByLayer
370
18
48
1
60
0
100
AcDbLine
10
21.366061
20
-3.117332
30
0
11
21.02071
21
-3.133523
31
0
39
0
210
0
220
0
230
1
0
LINE
5
89
100
AcDbEntity
8
1
62
256
6
ByLayer
370
18
48
1
60
0
100
AcDbLine
10
39.493136
20
36.079859
30
0
11
39.74681
21
36.32701
31
0
39
0
210
0
220
0
230
1
0
LINE
5
8A
100
AcDbEntity
8
4
62
256
6
ByLayer
370
18
48
0.05
60
0
100
AcDbLine
10
0
20
0
30
0
11
65
21
0
31
0
39
0
210
0
220
0
230
1
0
LINE
5
8C
100
AcDbEntity
8
81
62
256
6
ByLayer
370
18
48
1
60
0
100
AcDbLine
10
65
20
45
30
0
11
75
21
45
31
0
39
0
210
0
220
0
230
1
0
LINE
5
8D
100
AcDbEntity
8
SK4
62
256
6
ByLayer
370
18
48
0.05
60
0
100
AcDbLine
10
-43
20
0
30
0
11
65
21
0
31
0
39
0
210
0
220
0
230
1
0
LINE
5
8F
100
AcDbEntity
8
SK1
62
256
6
ByLayer
370
18
48
1
60
0
100
AcDbLine
10
-1.307107
20
-4.811013
30
0
11
-1.307107
21
4.811013
31
0
39
0
210
0
220
0
230
1
0
LINE
5
91
100
AcDbEntity
8
SK1
62
256
6
ByLayer
370
18
48
1
60
0
100
AcDbLine
10
-0.2
20
7.059518
30
0
11
-0.2
21
22.533485
31
0
39
0
210
0
220
0
230
1
0
LINE
5
92
100
AcDbEntity
8
SK1
62
256
6
ByLayer
370
18
48
1
60
0
100
AcDbLine
10
-0.2
20
-22.533485
30
0
11
-0.2
21
-7.059517
31
0
39
0
210
0
220
0
230
1
0
LINE
5
93
100
AcDbEntity
8
1
62
256
6
ByLayer
370
18
48
1
60
0
100
AcDbLine
10
13.894338
20
-29.913955
30
0
11
13.894338
21
-21.040182
31
0
39
0
210
0
220
0
230
1
0
LINE
5
94
100
AcDbEntity
8
1
62
256
6
ByLayer
370
18
48
1
60
0
100
AcDbLine
10
19.911507
20
29.985012
30
0
11
19.911507
21
-4.342151
31
0
39
0
210
0
220
0
230
1
0
LINE
5
95
100
AcDbEntity
8
1
62
256
6
ByLayer
370
18
48
1
60
0
100
AcDbLine
10
10.538675
20
-30.080593
30
0
11
10.538675
21
-21.369494
31
0
39
0
210
0
220
0
230
1
0
LINE
5
96
100
AcDbEntity
8
1
62
256
6
ByLayer
370
18
48
1
60
0
100
AcDbLine
10
13.461325
20
9.349221
30
0
11
13.461325
21
30.080593
31
0
39
0
210
0
220
0
230
1
0
LINE
5
97
100
AcDbEntity
8
1
62
256
6
ByLayer
370
18
48
1
60
0
100
AcDbLine
10
10.538675
20
9.349221
30
0
11
10.538675
21
30.080593
31
0
39
0
210
0
220
0
230
1
0
LINE
5
98
100
AcDbEntity
8
1
62
256
6
ByLayer
370
18
48
1
60
0
100
AcDbLine
10
13.894338
20
9.869413
30
0
11
13.894338
21
29.913955
31
0
39
0
210
0
220
0
230
1
0
LINE
5
99
100
AcDbEntity
8
1
62
256
6
ByLayer
370
18
48
1
60
0
100
AcDbLine
10
26.75018
20
31.683414
30
0
11
25.289024
21
38.178939
31
0
39
0
210
0
220
0
230
1
0
LINE
5
9A
100
AcDbEntity
8
1
62
256
6
ByLayer
370
18
48
1
60
0
100
AcDbLine
10
0.3
20
-31.5
30
0
11
0.3
21
31.5
31
0
39
0
210
0
220
0
230
1
0
LINE
5
9B
100
AcDbEntity
8
1
62
256
6
ByLayer
370
18
48
1
60
0
100
AcDbLine
10
45.474727
20
27.515243
30
0
11
46.636894
21
29.413721
31
0
39
0
210
0
220
0
230
1
0
LINE
5
9C
100
AcDbEntity
8
1
62
256
6
ByLayer
370
18
48
1
60
0
100
AcDbLine
10
10.538675
20
9.349221
30
0
11
13.461325
21
9.349221
31
0
39
0
210
0
220
0
230
1
0
LINE
5
9D
100
AcDbEntity
8
1
62
256
6
ByLayer
370
18
48
1
60
0
100
AcDbLine
10
44.803487
20
13.15365
30
0
11
56.20911
21
31.785489
31
0
39
0
210
0
220
0
230
1
0
LINE
5
9E
100
AcDbEntity
8
1
62
256
6
ByLayer
370
18
48
1
60
0
100
AcDbLine
10
43.352266
20
27.705248
30
0
11
43.097522
21
27.863276
31
0
39
0
210
0
220
0
230
1
0
LINE
5
9F
100
AcDbEntity
8
1
62
256
6
ByLayer
370
18
48
1
60
0
100
AcDbLine
10
0
20
-31.2
30
0
11
0
21
31.2
31
0
39
0
210
0
220
0
230
1
0
LINE
5
A0
100
AcDbEntity
8
1
62
256
6
ByLayer
370
18
48
1
60
0
100
AcDbLine
10
34.301016
20
41.581899
30
0
11
31.291875
21
41.424197
31
0
39
0
210
0
220
0
230
1
0
LINE
5
A1
100
AcDbEntity
8
1
62
256
6
ByLayer
370
18
48
1
60
0
100
AcDbLine
10
19.911507
20
-10.96022
30
0
11
19.911507
21
-27.509049
31
0
39
0
210
0
220
0
230
1
0
LINE
5
A2
100
AcDbEntity
8
1
62
256
6
ByLayer
370
18
48
1
60
0
100
AcDbLine
10
24.074496
20
34.429714
30
0
11
24.074496
21
35.316004
31
0
39
0
210
0
220
0
230
1
0
LINE
5
A3
100
AcDbEntity
8
1
62
256
6
ByLayer
370
18
48
1
60
0
100
AcDbLine
10
37.645172
20
27.402414
30
0
11
38.053232
21
25.588396
31
0
39
0
210
0
220
0
230
1
0
LINE
5
A4
100
AcDbEntity
8
1
62
256
6
ByLayer
370
18
48
1
60
0
100
AcDbLine
10
23.896286
20
-20.999649
30
0
11
19.911507
21
-27.509049
31
0
39
0
210
0
220
0
230
1
0
LINE
5
A5
100
AcDbEntity
8
1
62
256
6
ByLayer
370
18
48
1
60
0
100
AcDbLine
10
19.904936
20
-4.349731
30
0
11
19.830243
21
-4.283241
31
0
39
0
210
0
220
0
230
1
0
LINE
5
A6
100
AcDbEntity
8
1
62
256
6
ByLayer
370
18
48
1
60
0
100
AcDbLine
10
19.26402
20
-4.919319
30
0
11
19.198546
21
-11.559604
31
0
39
0
210
0
220
0
230
1
0
LINE
5
A7
100
AcDbEntity
8
1
62
256
6
ByLayer
370
18
48
1
60
0
100
AcDbLine
10
23.896286
20
34.624573
30
0
11
23.896286
21
-5.140662
31
0
39
0
210
0
220
0
230
1
0
LINE
5
A8
100
AcDbEntity
8
1
62
256
6
ByLayer
370
18
48
1
60
0
100
AcDbLine
10
23.896286
20
-6.483465
30
0
11
23.896286
21
-20.999649
31
0
39
0
210
0
220
0
230
1
0
LINE
5
A9
100
AcDbEntity
8
1
62
256
6
ByLayer
370
18
48
1
60
0
100
AcDbLine
10
13.894338
20
-20.132452
30
0
11
13.894338
21
-9.869413
31
0
39
0
210
0
220
0
230
1
0
LINE
5
AA
100
AcDbEntity
8
1
62
256
6
ByLayer
370
18
48
1
60
0
100
AcDbLine
10
19.874726
20
-4.23327
30
0
11
19.26402
21
-4.919319
31
0
39
0
210
0
220
0
230
1
0
LINE
5
AB
100
AcDbEntity
8
1
62
256
6
ByLayer
370
18
48
1
60
0
100
AcDbLine
10
26.75018
20
31.683414
30
0
11
28.389772
21
26.077255
31
0
39
0
210
0
220
0
230
1
0
LINE
5
AC
100
AcDbEntity
8
1
62
256
6
ByLayer
370
18
48
1
60
0
100
AcDbLine
10
10.105662
20
-20.132452
30
0
11
10.105662
21
-9.869413
31
0
39
0
210
0
220
0
230
1
0
LINE
5
AD
100
AcDbEntity
8
1
62
256
6
ByLayer
370
18
48
1
60
0
100
AcDbLine
10
19.823265
20
-13.545607
30
0
11
19.208748
21
-12.998578
31
0
39
0
210
0
220
0
230
1
0
LINE
5
AE
100
AcDbEntity
8
1
62
256
6
ByLayer
370
18
48
1
60
0
100
AcDbLine
10
19.911507
20
-27.509049
30
0
11
19.519149
21
-28.149992
31
0
39
0
210
0
220
0
230
1
0
LINE
5
AF
100
AcDbEntity
8
1
62
256
6
ByLayer
370
18
48
1
60
0
100
AcDbLine
10
49.825618
20
31.422959
30
0
11
56.20911
21
31.785489
31
0
39
0
210
0
220
0
230
1
0
LINE
5
B0
100
AcDbEntity
8
1
62
256
6
ByLayer
370
18
48
1
60
0
100
AcDbLine
10
10.538675
20
-30.080593
30
0
11
13.461325
21
-30.080593
31
0
39
0
210
0
220
0
230
1
0
LINE
5
B1
100
AcDbEntity
8
1
62
256
6
ByLayer
370
18
48
1
60
0
100
AcDbLine
10
44.803487
20
13.15365
30
0
11
23.896286
21
-20.999649
31
0
39
0
210
0
220
0
230
1
0
LINE
5
B2
100
AcDbEntity
8
1
62
256
6
ByLayer
370
18
48
1
60
0
100
AcDbLine
10
19.909682
20
-4.344397
30
0
11
19.874726
21
-4.23327
31
0
39
0
210
0
220
0
230
1
0
LINE
5
B3
100
AcDbEntity
8
1
62
256
6
ByLayer
370
18
48
1
60
0
100
AcDbLine
10
24.074496
20
34.429714
30
0
11
26.75018
21
31.683414
31
0
39
0
210
0
220
0
230
1
0
LINE
5
B4
100
AcDbEntity
8
1
62
256
6
ByLayer
370
18
48
1
60
0
100
AcDbLine
10
10.105662
20
9.869413
30
0
11
10.105662
21
29.913955
31
0
39
0
210
0
220
0
230
1
0
LINE
5
B5
100
AcDbEntity
8
1
62
256
6
ByLayer
370
18
48
1
60
0
100
AcDbLine
10
19.519149
20
-28.149992
30
0
11
17.468416
21
-31.5
31
0
39
0
210
0
220
0
230
1
0
LINE
5
B6
100
AcDbEntity
8
1
62
256
6
ByLayer
370
18
48
1
60
0
100
AcDbLine
10
46.586186
20
28.454139
30
0
11
47.510637
21
29.96429
31
0
39
0
210
0
220
0
230
1
0
LINE
5
B7
100
AcDbEntity
8
1
62
256
6
ByLayer
370
18
48
1
60
0
100
AcDbLine
10
13.461325
20
-30.080593
30
0
11
13.461325
21
-21.369494
31
0
39
0
210
0
220
0
230
1
0
LINE
5
B8
100
AcDbEntity
8
1
62
256
6
ByLayer
370
18
48
1
60
0
100
AcDbLine
10
13.461325
20
-19.43724
30
0
11
13.461325
21
-9.349221
31
0
39
0
210
0
220
0
230
1
0
LINE
5
B9
100
AcDbEntity
8
1
62
256
6
ByLayer
370
18
48
1
60
0
100
AcDbLine
10
38.053232
20
25.588396
30
0
11
37.353776
21
25.383832
31
0
39
0
210
0
220
0
230
1
0
LINE
5
BA
100
AcDbEntity
8
1
62
256
6
ByLayer
370
18
48
1
60
0
100
AcDbLine
10
13.461325
20
30.080593
30
0
11
10.538675
21
30.080593
31
0
39
0
210
0
220
0
230
1
0
LINE
5
BB
100
AcDbEntity
8
1
62
256
6
ByLayer
370
18
48
1
60
0
100
AcDbLine
10
45.732073
20
27.637401
30
0
11
46.934109
21
29.601006
31
0
39
0
210
0
220
0
230
1
0
LINE
5
BC
100
AcDbEntity
8
1
62
256
6
ByLayer
370
18
48
1
60
0
100
AcDbLine
10
19.823265
20
-13.545607
30
0
11
19.848058
21
-11.031094
31
0
39
0
210
0
220
0
230
1
0
LINE
5
BD
100
AcDbEntity
8
1
62
256
6
ByLayer
370
18
48
1
60
0
100
AcDbLine
10
10.105662
20
-29.913955
30
0
11
10.105662
21
-21.040182
31
0
39
0
210
0
220
0
230
1
0
LINE
5
BE
100
AcDbEntity
8
1
62
256
6
ByLayer
370
18
48
1
60
0
100
AcDbLine
10
10.538675
20
-19.43724
30
0
11
10.538675
21
-9.349221
31
0
39
0
210
0
220
0
230
1
0
LINE
5
BF
100
AcDbEntity
8
1
62
256
6
ByLayer
370
18
48
1
60
0
100
AcDbLine
10
36.302795
20
21.87869
30
0
11
44.803487
21
13.15365
31
0
39
0
210
0
220
0
230
1
0
LINE
5
C0
100
AcDbEntity
8
1
62
256
6
ByLayer
370
18
48
1
60
0
100
AcDbLine
10
46.04814
20
27.847513
30
0
11
46.586186
21
28.454139
31
0
39
0
210
0
220
0
230
1
0
LINE
5
C1
100
AcDbEntity
8
1
62
256
6
ByLayer
370
18
48
1
60
0
100
AcDbLine
10
56.20911
20
31.785489
30
0
11
56.275057
21
31.893218
31
0
39
0
210
0
220
0
230
1
0
LINE
5
C2
100
AcDbEntity
8
1
62
256
6
ByLayer
370
18
48
1
60
0
100
AcDbLine
10
19.353809
20
-14.909507
30
0
11
19.613387
21
-15.734715
31
0
39
0
210
0
220
0
230
1
0
LINE
5
C3
100
AcDbEntity
8
1
62
256
6
ByLayer
370
18
48
1
60
0
100
AcDbLine
10
50.016336
20
31.543128
30
0
11
54.357678
21
31.789681
31
0
39
0
210
0
220
0
230
1
0
LINE
5
C4
100
AcDbEntity
8
1
62
256
6
ByLayer
370
18
48
1
60
0
100
AcDbLine
10
22.920792
20
31.5
30
0
11
22.920792
21
30.899614
31
0
39
0
210
0
220
0
230
1
0
LINE
5
C5
100
AcDbEntity
8
1
62
256
6
ByLayer
370
18
48
1
60
0
100
AcDbLine
10
13.461325
20
-9.349221
30
0
11
10.538675
21
-9.349221
31
0
39
0
210
0
220
0
230
1
0
LINE
5
C6
100
AcDbEntity
8
1
62
256
6
ByLayer
370
18
48
1
60
0
100
AcDbLine
10
41.896662
20
36.531868
30
0
11
42.150336
21
36.779019
31
0
39
0
210
0
220
0
230
1
0
LINE
5
C7
100
AcDbEntity
8
1
62
256
6
ByLayer
370
18
48
1
60
0
100
AcDbLine
10
40.095264
20
37.115148
30
0
11
40.348938
21
37.3623
31
0
39
0
210
0
220
0
230
1
0
LINE
5
C8
100
AcDbEntity
8
1
62
256
6
ByLayer
370
18
48
1
60
0
100
AcDbLine
10
41.450064
20
37.021304
30
0
11
41.703738
21
37.268455
31
0
39
0
210
0
220
0
230
1
0
LINE
5
C9
100
AcDbEntity
8
1
62
256
6
ByLayer
370
18
48
1
60
0
100
AcDbLine
10
41.865317
20
35.175309
30
0
11
42.118991
21
35.422461
31
0
39
0
210
0
220
0
230
1
0
LINE
5
CA
100
AcDbEntity
8
1
62
256
6
ByLayer
370
18
48
1
60
0
100
AcDbLine
10
43.379098
20
32.915119
30
0
11
43.379175
21
32.915194
31
0
39
0
210
0
220
0
230
1
0
LINE
5
CB
100
AcDbEntity
8
1
62
256
6
ByLayer
370
18
48
1
60
0
100
AcDbLine
10
39.393983
20
36.030883
30
0
11
39.605
21
36.236474
31
0
39
0
210
0
220
0
230
1
0
LINE
5
CC
100
AcDbEntity
8
1
62
256
6
ByLayer
370
18
48
1
60
0
100
AcDbLine
10
40.75063
20
34.612818
30
0
11
40.928456
21
34.786071
31
0
39
0
210
0
220
0
230
1
0
LINE
5
CD
100
AcDbEntity
8
1
62
256
6
ByLayer
370
18
48
1
60
0
100
AcDbLine
10
34.678941
20
30.406541
30
0
11
31.53323
21
29.470485
31
0
39
0
210
0
220
0
230
1
0
LINE
5
CE
100
AcDbEntity
8
1
62
256
6
ByLayer
370
18
48
1
60
0
100
AcDbLine
10
52.743063
20
33.955384
30
0
11
51.843371
21
33.388471
31
0
39
0
210
0
220
0
230
1
0
LINE
5
CF
100
AcDbEntity
8
1
62
256
6
ByLayer
370
18
48
1
60
0
100
AcDbLine
10
31.53323
20
29.470485
30
0
11
29.704869
21
37.598412
31
0
39
0
210
0
220
0
230
1
0
LINE
5
D0
100
AcDbEntity
8
1
62
256
6
ByLayer
370
18
48
1
60
0
100
AcDbLine
10
52.766951
20
33.964733
30
0
11
52.743063
21
33.955384
31
0
39
0
210
0
220
0
230
1
0
LINE
5
D1
100
AcDbEntity
8
1
62
256
6
ByLayer
370
18
48
1
60
0
100
AcDbLine
10
33.196131
20
36.998328
30
0
11
32.850579
21
38.534467
31
0
39
0
210
0
220
0
230
1
0
LINE
5
D2
100
AcDbEntity
8
1
62
256
6
ByLayer
370
18
48
1
60
0
100
AcDbLine
10
35.598511
20
26.764196
30
0
11
37.825415
21
27.458517
31
0
39
0
210
0
220
0
230
1
0
LINE
5
D3
100
AcDbEntity
8
1
62
256
6
ByLayer
370
18
48
1
60
0
100
AcDbLine
10
34.791481
20
27.984286
30
0
11
44.135827
21
29.976059
31
0
39
0
210
0
220
0
230
1
0
LINE
5
D4
100
AcDbEntity
8
1
62
256
6
ByLayer
370
18
48
1
60
0
100
AcDbLine
10
46.452158
20
29.297331
30
0
11
51.689345
21
32.597382
31
0
39
0
210
0
220
0
230
1
0
LINE
5
D5
100
AcDbEntity
8
1
62
256
6
ByLayer
370
18
48
1
60
0
100
AcDbLine
10
34.568829
20
37.199811
30
0
11
32.160949
21
36.690293
31
0
39
0
210
0
220
0
230
1
0
LINE
5
D6
100
AcDbEntity
8
1
62
256
6
ByLayer
370
18
48
1
60
0
100
AcDbLine
10
35.09634
20
37.507577
30
0
11
34.568829
21
37.199811
31
0
39
0
210
0
220
0
230
1
0
LINE
5
D7
100
AcDbEntity
8
1
62
256
6
ByLayer
370
18
48
1
60
0
100
AcDbLine
10
44.703657
20
29.156263
30
0
11
46.452158
21
29.297331
31
0
39
0
210
0
220
0
230
1
0
LINE
5
D8
100
AcDbEntity
8
1
62
256
6
ByLayer
370
18
48
1
60
0
100
AcDbLine
10
53.879469
20
34.618068
30
0
11
53.205032
21
34.193092
31
0
39
0
210
0
220
0
230
1
0
LINE
5
D9
100
AcDbEntity
8
1
62
256
6
ByLayer
370
18
48
1
60
0
100
AcDbLine
10
32.160949
20
36.690293
30
0
11
33.196131
21
36.998328
31
0
39
0
210
0
220
0
230
1
0
LINE
5
DA
100
AcDbEntity
8
1
62
256
6
ByLayer
370
18
48
1
60
0
100
AcDbLine
10
37.825415
20
27.458517
30
0
11
46.452158
21
29.297331
31
0
39
0
210
0
220
0
230
1
0
LINE
5
DB
100
AcDbEntity
8
1
62
256
6
ByLayer
370
18
48
1
60
0
100
AcDbLine
10
34.678941
20
30.406541
30
0
11
34.33339
21
31.94268
31
0
39
0
210
0
220
0
230
1
0
LINE
5
DC
100
AcDbEntity
8
1
62
256
6
ByLayer
370
18
48
1
60
0
100
AcDbLine
10
56.123823
20
41.04013
30
0
11
55.665602
21
41.226716
31
0
39
0
210
0
220
0
230
1
0
LINE
5
DD
100
AcDbEntity
8
1
62
256
6
ByLayer
370
18
48
1
60
0
100
AcDbLine
10
41.563074
20
43.117629
30
0
11
43.311575
21
43.258698
31
0
39
0
210
0
220
0
230
1
0
LINE
5
DE
100
AcDbEntity
8
1
62
256
6
ByLayer
370
18
48
1
60
0
100
AcDbLine
10
33.298207
20
31.634645
30
0
11
34.33339
21
31.94268
31
0
39
0
210
0
220
0
230
1
0
LINE
5
DF
100
AcDbEntity
8
1
62
256
6
ByLayer
370
18
48
1
60
0
100
AcDbLine
10
39.010165
20
39.897131
30
0
11
38.529266
21
39.61656
31
0
39
0
210
0
220
0
230
1
0
LINE
5
E0
100
AcDbEntity
8
1
62
256
6
ByLayer
370
18
48
1
60
0
100
AcDbLine
10
31.975893
20
40.500899
30
0
11
41.320239
21
42.492672
31
0
39
0
210
0
220
0
230
1
0
LINE
5
E1
100
AcDbEntity
8
1
62
256
6
ByLayer
370
18
48
1
60
0
100
AcDbLine
10
39.010165
20
39.897131
30
0
11
41.001095
21
40.321503
31
0
39
0
210
0
220
0
230
1
0
LINE
5
E2
100
AcDbEntity
8
1
62
256
6
ByLayer
370
18
48
1
60
0
100
AcDbLine
10
44.072843
20
29.033999
30
0
11
35.540102
21
27.215221
31
0
39
0
210
0
220
0
230
1
0
LINE
5
E3
100
AcDbEntity
8
1
62
256
6
ByLayer
370
18
48
1
60
0
100
AcDbLine
10
35.540102
20
27.215221
30
0
11
34.809995
21
26.997967
31
0
39
0
210
0
220
0
230
1
0
LINE
5
E4
100
AcDbEntity
8
1
62
256
6
ByLayer
370
18
48
1
60
0
100
AcDbLine
10
49.486263
20
42.391119
30
0
11
43.311575
21
43.258698
31
0
39
0
210
0
220
0
230
1
0
LINE
5
E5
100
AcDbEntity
8
1
62
256
6
ByLayer
370
18
48
1
60
0
100
AcDbLine
10
30.09563
20
28.631745
30
0
11
28.267268
21
36.759671
31
0
39
0
210
0
220
0
230
1
0
LINE
5
E6
100
AcDbEntity
8
1
62
256
6
ByLayer
370
18
48
1
60
0
100
AcDbLine
10
51.481994
20
41.852806
30
0
11
52.277161
21
41.74108
31
0
39
0
210
0
220
0
230
1
0
LINE
5
E7
100
AcDbEntity
8
1
62
256
6
ByLayer
370
18
48
1
60
0
100
AcDbLine
10
41.001095
20
40.321503
30
0
11
40.511905
21
40.036095
31
0
39
0
210
0
220
0
230
1
0
LINE
5
E8
100
AcDbEntity
8
1
62
256
6
ByLayer
370
18
48
1
60
0
100
AcDbLine
10
57.03194
20
37.003125
30
0
11
56.727175
21
36.507525
31
0
39
0
210
0
220
0
230
1
0
LINE
5
E9
100
AcDbEntity
8
1
62
256
6
ByLayer
370
18
48
1
60
0
100
AcDbLine
10
30.09563
20
28.631745
30
0
11
31.53323
21
29.470485
31
0
39
0
210
0
220
0
230
1
0
LINE
5
EA
100
AcDbEntity
8
1
62
256
6
ByLayer
370
18
48
1
60
0
100
AcDbLine
10
28.267268
20
36.759671
30
0
11
29.704869
21
37.598412
31
0
39
0
210
0
220
0
230
1
0
LINE
5
EB
100
AcDbEntity
8
1
62
256
6
ByLayer
370
18
48
1
60
0
100
AcDbLine
10
32.850579
20
38.534467
30
0
11
29.704869
21
37.598412
31
0
39
0
210
0
220
0
230
1
0
LINE
5
EC
100
AcDbEntity
8
1
62
256
6
ByLayer
370
18
48
1
60
0
100
AcDbLine
10
49.893978
20
42.054439
30
0
11
50.954723
21
41.905398
31
0
39
0
210
0
220
0
230
1
0
LINE
5
ED
100
AcDbEntity
8
1
62
256
6
ByLayer
370
18
48
1
60
0
100
AcDbLine
10
32.399519
20
41.176588
30
0
11
40.932261
21
42.995365
31
0
39
0
210
0
220
0
230
1
0
LINE
5
EE
100
AcDbEntity
8
1
62
256
6
ByLayer
370
18
48
1
60
0
100
AcDbLine
10
33.300075
20
26.117033
30
0
11
34.809995
21
26.997967
31
0
39
0
210
0
220
0
230
1
0
LINE
5
EF
100
AcDbEntity
8
1
62
256
6
ByLayer
370
18
48
1
60
0
100
AcDbLine
10
50.954723
20
41.905398
30
0
11
50.981028
21
41.903998
31
0
39
0
210
0
220
0
230
1
0
LINE
5
F0
100
AcDbEntity
8
1
62
256
6
ByLayer
370
18
48
1
60
0
100
AcDbLine
10
38.529266
20
39.61656
30
0
11
39.706675
21
39.865705
31
0
39
0
210
0
220
0
230
1
0
LINE
5
F1
100
AcDbEntity
8
1
62
256
6
ByLayer
370
18
48
1
60
0
100
AcDbLine
10
32.160949
20
36.690293
30
0
11
33.298207
21
31.634645
31
0
39
0
210
0
220
0
230
1
0
LINE
5
F2
100
AcDbEntity
8
1
62
256
6
ByLayer
370
18
48
1
60
0
100
AcDbLine
10
42.816335
20
32.251911
30
0
11
40.825404
21
31.827539
31
0
39
0
210
0
220
0
230
1
0
LINE
5
F3
100
AcDbEntity
8
1
62
256
6
ByLayer
370
18
48
1
60
0
100
AcDbLine
10
53.812501
20
33.975343
30
0
11
53.660508
21
34.010355
31
0
39
0
210
0
220
0
230
1
0
LINE
5
F4
100
AcDbEntity
8
1
62
256
6
ByLayer
370
18
48
1
60
0
100
AcDbLine
10
53.355676
20
33.97588
30
0
11
53.660508
21
34.010355
31
0
39
0
210
0
220
0
230
1
0
LINE
5
F5
100
AcDbEntity
8
1
62
256
6
ByLayer
370
18
48
1
60
0
100
AcDbLine
10
53.214137
20
42.689388
30
0
11
52.827323
21
43.243379
31
0
39
0
210
0
220
0
230
1
0
LINE
5
F6
100
AcDbEntity
8
1
62
256
6
ByLayer
370
18
48
1
60
0
100
AcDbLine
10
51.914604
20
42.412389
30
0
11
51.79155
21
42.31875
31
0
39
0
210
0
220
0
230
1
0
LINE
5
F7
100
AcDbEntity
8
1
62
256
6
ByLayer
370
18
48
1
60
0
100
AcDbLine
10
53.660508
20
34.010355
30
0
11
56.243295
21
35.734663
31
0
39
0
210
0
220
0
230
1
0
LINE
5
F8
100
AcDbEntity
8
1
62
256
6
ByLayer
370
18
48
1
60
0
100
AcDbLine
10
57.386877
20
36.00322
30
0
11
57.950405
21
37.371561
31
0
39
0
210
0
220
0
230
1
0
LINE
5
F9
100
AcDbEntity
8
1
62
256
6
ByLayer
370
18
48
1
60
0
100
AcDbLine
10
51.509257
20
42.184077
30
0
11
50.642831
21
42.507438
31
0
39
0
210
0
220
0
230
1
0
LINE
5
FA
100
AcDbEntity
8
1
62
256
6
ByLayer
370
18
48
1
60
0
100
AcDbLine
10
56.243295
20
35.734663
30
0
11
55.972219
21
35.964256
31
0
39
0
210
0
220
0
230
1
0
LINE
5
FB
100
AcDbEntity
8
1
62
256
6
ByLayer
370
18
48
1
60
0
100
AcDbLine
10
53.432656
20
32.674406
30
0
11
53.812501
21
33.975343
31
0
39
0
210
0
220
0
230
1
0
LINE
5
FC
100
AcDbEntity
8
1
62
256
6
ByLayer
370
18
48
1
60
0
100
AcDbLine
10
54.878255
20
41.80291
30
0
11
54.753492
21
41.38207
31
0
39
0
210
0
220
0
230
1
0
LINE
5
FD
100
AcDbEntity
8
1
62
256
6
ByLayer
370
18
48
1
60
0
100
AcDbLine
10
57.950405
20
37.371561
30
0
11
58.704845
21
36.517422
31
0
39
0
210
0
220
0
230
1
0
LINE
5
FE
100
AcDbEntity
8
1
62
256
6
ByLayer
370
18
48
1
60
0
100
AcDbLine
10
57.302765
20
34.693039
30
0
11
55.12371
21
33.034859
31
0
39
0
210
0
220
0
230
1
0
LINE
5
FF
100
AcDbEntity
8
1
62
256
6
ByLayer
370
18
48
1
60
0
100
AcDbLine
10
53.879485
20
34.618079
30
0
11
52.851848
21
33.932013
31
0
39
0
210
0
220
0
230
1
0
LINE
5
100
100
AcDbEntity
8
1
62
256
6
ByLayer
370
18
48
1
60
0
100
AcDbLine
10
55.709578
20
42.114556
30
0
11
53.214137
21
42.689388
31
0
39
0
210
0
220
0
230
1
0
LINE
5
101
100
AcDbEntity
8
1
62
256
6
ByLayer
370
18
48
1
60
0
100
AcDbLine
10
56.032483
20
42.024138
30
0
11
57.131887
21
41.010255
31
0
39
0
210
0
220
0
230
1
0
LINE
5
102
100
AcDbEntity
8
1
62
256
6
ByLayer
370
18
48
1
60
0
100
AcDbLine
10
50.642831
20
42.507438
30
0
11
51.136268
21
42.882926
31
0
39
0
210
0
220
0
230
1
0
LINE
5
103
100
AcDbEntity
8
1
62
256
6
ByLayer
370
18
48
1
60
0
100
AcDbLine
10
57.132338
20
35.789718
30
0
11
57.302765
21
34.693039
31
0
39
0
210
0
220
0
230
1
0
LINE
5
104
100
AcDbEntity
8
1
62
256
6
ByLayer
370
18
48
1
60
0
100
AcDbLine
10
53.214137
20
42.689388
30
0
11
51.914604
21
42.412389
31
0
39
0
210
0
220
0
230
1
0
LINE
5
105
100
AcDbEntity
8
1
62
256
6
ByLayer
370
18
48
1
60
0
100
AcDbLine
10
57.131887
20
41.010255
30
0
11
57.575856
21
41.536308
31
0
39
0
210
0
220
0
230
1
0
LINE
5
106
100
AcDbEntity
8
1
62
256
6
ByLayer
370
18
48
1
60
0
100
AcDbLine
10
51.79155
20
42.31875
30
0
11
51.509257
21
42.184077
31
0
39
0
210
0
220
0
230
1
0
LINE
5
107
100
AcDbEntity
8
1
62
256
6
ByLayer
370
18
48
1
60
0
100
AcDbLine
10
52.27718
20
41.741077
30
0
11
51.049045
21
41.946319
31
0
39
0
210
0
220
0
230
1
0
LINE
5
108
100
AcDbEntity
8
1
62
256
6
ByLayer
370
18
48
1
60
0
100
AcDbLine
10
51.914604
20
42.412389
30
0
11
51.136268
21
42.882926
31
0
39
0
210
0
220
0
230
1
0
LINE
5
109
100
AcDbEntity
8
1
62
256
6
ByLayer
370
18
48
1
60
0
100
AcDbLine
10
55.112035
20
34.252342
30
0
11
53.812501
21
33.975343
31
0
39
0
210
0
220
0
230
1
0
LINE
5
10A
100
AcDbEntity
8
1
62
256
6
ByLayer
370
18
48
1
60
0
100
AcDbLine
10
55.12371
20
33.034859
30
0
11
53.432656
21
32.674406
31
0
39
0
210
0
220
0
230
1
0
LINE
5
10B
100
AcDbEntity
8
1
62
256
6
ByLayer
370
18
48
1
60
0
100
AcDbLine
10
55.709578
20
42.114556
30
0
11
55.518851
21
42.623377
31
0
39
0
210
0
220
0
230
1
0
LINE
5
10C
100
AcDbEntity
8
1
62
256
6
ByLayer
370
18
48
1
60
0
100
AcDbLine
10
57.132338
20
35.789718
30
0
11
55.112035
21
34.252342
31
0
39
0
210
0
220
0
230
1
0
LINE
5
10D
100
AcDbEntity
8
1
62
256
6
ByLayer
370
18
48
1
60
0
100
AcDbLine
10
52.823171
20
32.814803
30
0
11
53.432656
21
32.674406
31
0
39
0
210
0
220
0
230
1
0
LINE
5
10E
100
AcDbEntity
8
1
62
256
6
ByLayer
370
18
48
1
60
0
100
AcDbLine
10
53.355676
20
33.97588
30
0
11
52.823171
21
32.814803
31
0
39
0
210
0
220
0
230
1
0
LINE
5
10F
100
AcDbEntity
8
1
62
256
6
ByLayer
370
18
48
1
60
0
100
AcDbLine
10
55.518851
20
42.623377
30
0
11
52.827323
21
43.243379
31
0
39
0
210
0
220
0
230
1
0
LINE
5
110
100
AcDbEntity
8
1
62
256
6
ByLayer
370
18
48
1
60
0
100
AcDbLine
10
55.112035
20
34.252342
30
0
11
55.12371
21
33.034859
31
0
39
0
210
0
220
0
230
1
0
LINE
5
111
100
AcDbEntity
8
1
62
256
6
ByLayer
370
18
48
1
60
0
100
AcDbLine
10
52.827323
20
43.243379
30
0
11
51.136268
21
42.882926
31
0
39
0
210
0
220
0
230
1
0
LINE
5
112
100
AcDbEntity
8
1
62
256
6
ByLayer
370
18
48
1
60
0
100
AcDbLine
10
51.79155
20
42.31875
30
0
11
54.878255
21
41.80291
31
0
39
0
210
0
220
0
230
1
0
LINE
5
113
100
AcDbEntity
8
1
62
256
6
ByLayer
370
18
48
1
60
0
100
AcDbLine
10
50.130297
20
31.614905
30
0
11
57.467561
21
31.999435
31
0
39
0
210
0
220
0
230
1
0
LINE
5
114
100
AcDbEntity
8
1
62
256
6
ByLayer
370
18
48
1
60
0
100
AcDbLine
10
55.778656
20
31.08255
30
0
11
56.56899
21
31.123969
31
0
39
0
210
0
220
0
230
1
0
LINE
5
115
100
AcDbEntity
8
1
62
256
6
ByLayer
370
18
48
1
60
0
100
AcDbLine
10
56.56899
20
31.123969
30
0
11
57.467561
21
31.999435
31
0
39
0
210
0
220
0
230
1
0
LINE
5
116
100
AcDbEntity
8
1
62
256
6
ByLayer
370
18
48
1
60
0
100
AcDbLine
10
49.294297
20
43.222905
30
0
11
50.192867
21
44.09837
31
0
39
0
210
0
220
0
230
1
0
LINE
5
117
100
AcDbEntity
8
1
62
256
6
ByLayer
370
18
48
1
60
0
100
AcDbLine
10
64.160205
20
44.998921
30
0
11
50.50432
21
44.283246
31
0
39
0
210
0
220
0
230
1
0
LINE
5
118
100
AcDbEntity
8
1
62
256
6
ByLayer
370
18
48
1
60
0
100
AcDbLine
10
57.779014
20
32.184311
30
0
11
64.885323
21
43.792938
31
0
39
0
210
0
220
0
230
1
0
LINE
5
119
100
AcDbEntity
8
1
62
256
6
ByLayer
370
18
48
1
60
0
100
AcDbLine
10
49.294297
20
43.222905
30
0
11
48.840603
21
42.481767
31
0
39
0
210
0
220
0
230
1
0
LINE
5
11A
100
AcDbEntity
8
1
62
256
6
ByLayer
370
18
48
1
60
0
100
AcDbLine
10
50.192867
20
44.09837
30
0
11
49.174555
21
42.43489
31
0
39
0
210
0
220
0
230
1
0
LINE
5
11B
100
AcDbEntity
8
1
62
256
6
ByLayer
370
18
48
1
60
0
100
AcDbLine
10
48.841944
20
42.48154
30
0
11
48.978157
21
42.704053
31
0
39
0
210
0
220
0
230
1
0
LINE
5
11C
100
AcDbEntity
8
1
62
256
6
ByLayer
370
18
48
1
60
0
100
AcDbLine
10
55.958101
20
31.095332
30
0
11
55.639599
21
30.78502
31
0
39
0
210
0
220
0
230
1
0
LINE
5
11D
100
AcDbEntity
8
1
62
256
6
ByLayer
370
18
48
1
60
0
100
AcDbLine
10
48.978157
20
42.704053
30
0
11
48.761491
21
42.492958
31
0
39
0
210
0
220
0
230
1
0
LINE
5
11E
100
AcDbEntity
8
1
62
256
6
ByLayer
370
18
48
1
60
0
100
AcDbLine
10
55.639599
20
30.78502
30
0
11
55.595102
21
30.782688
31
0
39
0
210
0
220
0
230
1
0
LINE
5
11F
100
AcDbEntity
8
1
62
256
6
ByLayer
370
18
48
1
60
0
100
AcDbLine
10
55.958101
20
31.095332
30
0
11
55.780835
21
31.086042
31
0
39
0
210
0
220
0
230
1
0
MTEXT
5
209
100
AcDbEntity
8
SK6
62
256
6
ByLayer
370
18
48
1
60
0
100
AcDbMText
10
-8.125
20
-42.283852
30
0
210
0
220
0
230
1
1
\W0.7302;C6-CDJNR-45065-15-4
40
3.5
41
0
44
1.084337
50
0
71
7
72
5
7
iso_b_vert
0
DIMENSION
5
228
100
AcDbEntity
8
2
62
256
6
ByLayer
370
13
48
1
60
0
100
AcDbDimension
2
DimnDraft3D2
10
63.166079
20
44.946576
30
0
11
52.711865
21
56.703693
31
0
70
34
71
5
72
1
41
1
210
0
220
0
230
1
3
Standard
100
AcDb2LineAngularDimension
13
65
23
45
33
0
14
65
24
43.4125
34
0
15
64.164708
25
44.998912
35
0
16
55.976049
26
53.606097
36
0
40
0
0
DIMENSION
5
23E
100
AcDbEntity
8
SK2
62
256
6
ByLayer
370
13
48
1
60
0
100
AcDbDimension
2
DimnDraft3D3
10
-45.75
20
31.5
30
0
11
-45.75
21
-2.688158
31
0
70
32
71
5
72
1
41
1
210
0
220
0
230
1
3
Standard
100
AcDbAlignedDimension
13
-2
23
-31.5
33
0
14
-2
24
31.5
34
0
50
90
100
AcDbRotatedDimension
1001
ACAD
1000
DSTYLE
1002
{
1070
    74
1070
     0
1070
   279
1070
     0
1070
   172
1070
     1
1070
   173
1070
     1
1070
   340
1005
20A
1070
    77
1070
     1
1070
    73
1070
     0
1070
   171
1070
     3
1070
   274
1070
     4
1070
   177
1070
     2
1070
   176
1070
     2
1070
   178
1070
     7
1070
    78
1070
     8
1070
    41
1041
3.175
1070
   147
1041
2.25
1070
    42
1041
2.0
1070
    44
1041
2.0
1070
   140
1041
4.5
1070
   343
1005
229
1070
   344
1005
229
1002
}
0
DIMENSION
5
24C
100
AcDbEntity
8
2
62
256
6
ByLayer
370
13
48
1
60
0
100
AcDbDimension
2
DimnDraft3D4
10
87.25
20
45
30
0
11
87.25
21
16.981579
31
0
70
32
71
5
72
1
41
1
210
0
220
0
230
1
3
Standard
100
AcDbAlignedDimension
13
67
23
0
33
0
14
67
24
45
34
0
50
90
100
AcDbRotatedDimension
1001
ACAD
1000
DSTYLE
1002
{
1070
    74
1070
     0
1070
   279
1070
     0
1070
   172
1070
     1
1070
   173
1070
     1
1070
   340
1005
20A
1070
    77
1070
     1
1070
    73
1070
     0
1070
   171
1070
     3
1070
   274
1070
     4
1070
   177
1070
     2
1070
   176
1070
     2
1070
   178
1070
     7
1070
    78
1070
     8
1070
    41
1041
3.175
1070
   147
1041
2.25
1070
    42
1041
2.0
1070
    44
1041
2.0
1070
   140
1041
4.5
1070
   343
1005
229
1070
   344
1005
229
1002
}
0
ENDSEC
0
SECTION
2
OBJECTS
0
DICTIONARY
5
2b7
330
0
100
AcDbDictionary
280
0
281
1
3
ACAD_GROUP
350
2b8
3
ACAD_MLINESTYLE
350
2b9
0
DICTIONARY
5
2b8
330
0
100
AcDbDictionary
280
0
281
1
0
DICTIONARY
5
2b9
330
0
100
AcDbDictionary
280
0
281
1
3
Standard
350
18
0
MLINESTYLE
5
18
330
2b9
100
AcDbMlineStyle
2
Standard
70
0
3

62
256
51
90
52
90
71
2
49
-0.5
62
256
6
ByLayer
49
0.5
62
256
6
ByLayer
0
RASTERVARIABLES
5
2a5
330

100
AcDbRasterVariables
90
0
70
1
71
1
72
1
0
ENDSEC
0
EOF
