0
SECTION
2
HEADER
9
$ACADVER
1
AC1015
9
$DWGCODEPAGE
3
ANSI_1252
9
$HANDSEED
5
2cc
9
$ANGBASE
50
0
9
$ANGDIR
70
0
9
$ATTMODE
70
1
9
$AUNITS
70
0
9
$AUPREC
70
0
9
$CECOLOR
62
256
9
$CELTSCALE
40
1
9
$CELTYPE
6
ByLayer
9
$CELWEIGHT
370
18
9
$CLAYER
8
0
9
$CMLJUST
70
0
9
$CMLSCALE
40
1
9
$CMLSTYLE
2
Standard
9
$DIMSTYLE
2
Standard
9
$TEXTSIZE
40
0.2
9
$TEXTSTYLE
7
Standard
9
$LUNITS
70
2
9
$LUPREC
70
4
9
$EXTNAMES
290
1
9
$INSUNITS
70
4
9
$LTSCALE
40
1
9
$LWDISPLAY
290
1
9
$PDMODE
70
0
9
$PDSIZE
40
0
9
$PLINEGEN
70
0
0
ENDSEC
0
SECTION
2
CLASSES
0
CLASS
1
RASTERVARIABLES
2
AcDbRasterVariables
3
ISM
90
0
280
0
281
0
0
ENDSEC
0
SECTION
2
TABLES
0
TABLE
2
VPORT
5
2c2
100
AcDbSymbolTable
0
VPORT
5
1
100
AcDbSymbolTableRecord
100
AcDbViewportTableRecord
2
*Active
70
0
10
0
20
0
11
1
21
1
12
-1
22
1
13
0
23
0
14
0.5
24
0.5
15
10
25
10
16
0
26
0
36
1
17
0
27
0
37
0
0
ENDTAB
0
TABLE
2
LTYPE
5
2c3
100
AcDbSymbolTable
0
LTYPE
5
14
100
AcDbSymbolTableRecord
100
AcDbLinetypeTableRecord
70
0
2
ByBlock
3

72
65
73
0
40
0
0
LTYPE
5
15
100
AcDbSymbolTableRecord
100
AcDbLinetypeTableRecord
70
0
2
ByLayer
3

72
65
73
0
40
0
0
LTYPE
5
16
100
AcDbSymbolTableRecord
100
AcDbLinetypeTableRecord
70
0
2
CONTINUOUS
3
Solid line
72
65
73
0
40
0
0
LTYPE
5
6A
100
AcDbSymbolTableRecord
100
AcDbLinetypeTableRecord
70
0
2
CENTER
3
____ _ ____ _ ____ _ ____
72
65
73
4
40
47.5
49
22
74
0
49
-8.5
74
0
49
8.5
74
0
49
-8.5
74
0
0
LTYPE
5
6B
100
AcDbSymbolTableRecord
100
AcDbLinetypeTableRecord
70
0
2
DASHED
3
__ __ __ __ __ __ __ __ __
72
65
73
2
40
25.72
49
12.86
74
0
49
-12.86
74
0
0
ENDTAB
0
TABLE
2
LAYER
5
2c4
100
AcDbSymbolTable
0
LAYER
5
10
100
AcDbSymbolTableRecord
100
AcDbLayerTableRecord
2
0
70
0
62
7
6
CONTINUOUS
290
1
370
-3
390
0
0
LAYER
5
6D
100
AcDbSymbolTableRecord
100
AcDbLayerTableRecord
2
2
70
0
62
7
6
CONTINUOUS
290
1
370
-3
390
0
0
LAYER
5
6F
100
AcDbSymbolTableRecord
100
AcDbLayerTableRecord
2
80
70
0
62
-6
6
CONTINUOUS
290
1
370
-3
390
0
0
LAYER
5
71
100
AcDbSymbolTableRecord
100
AcDbLayerTableRecord
2
81
70
0
62
-3
6
CONTINUOUS
290
1
370
-3
390
0
0
LAYER
5
73
100
AcDbSymbolTableRecord
100
AcDbLayerTableRecord
2
1
70
0
62
4
6
CONTINUOUS
290
1
370
-3
390
0
0
LAYER
5
88
100
AcDbSymbolTableRecord
100
AcDbLayerTableRecord
2
4
70
0
62
-2
6
CENTER
290
1
370
-3
390
0
0
LAYER
5
2ae
100
AcDbSymbolTableRecord
100
AcDbLayerTableRecord
2
SK4
70
0
62
2
6
CENTER
290
1
370
-3
390
0
0
LAYER
5
2af
100
AcDbSymbolTableRecord
100
AcDbLayerTableRecord
2
SK1
70
0
62
4
6
CONTINUOUS
290
1
370
-3
390
0
0
LAYER
5
2b0
100
AcDbSymbolTableRecord
100
AcDbLayerTableRecord
2
SK6
70
0
62
5
6
CONTINUOUS
290
1
370
-3
390
0
0
LAYER
5
2b1
100
AcDbSymbolTableRecord
100
AcDbLayerTableRecord
2
SK2
70
0
62
7
6
CONTINUOUS
290
1
370
-3
390
0
0
ENDTAB
0
TABLE
2
STYLE
5
2c5
100
AcDbSymbolTable
0
STYLE
5
11
100
AcDbSymbolTableRecord
100
AcDbTextStyleTableRecord
2
Standard
3
txt
70
0
71
0
40
0
41
1
42
0
50
0
0
STYLE
5
212
100
AcDbSymbolTableRecord
100
AcDbTextStyleTableRecord
2
iso_b_vert
3
simplex.shx
70
0
71
0
40
0
41
1
42
0
50
0
0
STYLE
5
213
100
AcDbSymbolTableRecord
100
AcDbTextStyleTableRecord
2
DWGDirectTextStyle
3
simplex
70
0
71
0
40
0
41
1
42
0
50
0
0
ENDTAB
0
TABLE
2
DIMSTYLE
5
2c6
100
AcDbSymbolTable
100
AcDbDimStyleTable
0
DIMSTYLE
105
27
100
AcDbSymbolTableRecord
100
AcDbDimStyleTableRecord
2
Standard
70
0
3
<>
41
0.18
42
0.0625
44
0.18
140
0.18
147
0.09
73
0
74
0
77
1
271
2
275
0
278
52
280
0
340
11
0
ENDTAB
0
TABLE
2
VIEW
5
2c7
100
AcDbSymbolTable
0
ENDTAB
0
TABLE
2
UCS
5
2c8
100
AcDbSymbolTable
0
ENDTAB
0
TABLE
2
APPID
5
2c9
100
AcDbSymbolTable
0
APPID
5
12
100
AcDbSymbolTableRecord
100
AcDbRegAppTableRecord
2
ACAD
70
0
0
ENDTAB
0
TABLE
2
BLOCK_RECORD
5
2ca
100
AcDbSymbolTable
0
BLOCK_RECORD
5
1F
100
AcDbSymbolTableRecord
100
AcDbBlockTableRecord
2
*Model_Space
340
0
70
0
0
BLOCK_RECORD
5
1B
100
AcDbSymbolTableRecord
100
AcDbBlockTableRecord
2
*Paper_Space
340
0
70
0
0
BLOCK_RECORD
5
23
100
AcDbSymbolTableRecord
100
AcDbBlockTableRecord
2
*Paper_Space0
340
0
70
0
0
BLOCK_RECORD
5
215
100
AcDbSymbolTableRecord
100
AcDbBlockTableRecord
2
DimnDraft3D11
340
0
70
0
0
BLOCK_RECORD
5
223
100
AcDbSymbolTableRecord
100
AcDbBlockTableRecord
2
DimnDraft3D2
340
0
70
0
0
BLOCK_RECORD
5
231
100
AcDbSymbolTableRecord
100
AcDbBlockTableRecord
2
_CLOSED
340
0
70
0
0
BLOCK_RECORD
5
238
100
AcDbSymbolTableRecord
100
AcDbBlockTableRecord
2
DimnDraft3D3
340
0
70
0
0
BLOCK_RECORD
5
247
100
AcDbSymbolTableRecord
100
AcDbBlockTableRecord
2
DimnDraft3D4
340
0
70
0
0
ENDTAB
0
ENDSEC
0
SECTION
2
BLOCKS
0
BLOCK
5
20
100
AcDbEntity
8
0
100
AcDbBlockBegin
2
*Model_Space
70
0
10
0
20
0
30
0
3
*Model_Space
0
ENDBLK
5
21
100
AcDbEntity
8
0
100
AcDbBlockEnd
0
BLOCK
5
1C
100
AcDbEntity
8
0
100
AcDbBlockBegin
2
*Paper_Space
70
0
10
0
20
0
30
0
3
*Paper_Space
0
ENDBLK
5
1D
100
AcDbEntity
8
0
100
AcDbBlockEnd
0
BLOCK
5
24
100
AcDbEntity
8
0
100
AcDbBlockBegin
2
*Paper_Space0
70
0
10
0
20
0
30
0
3
*Paper_Space0
0
ENDBLK
5
25
100
AcDbEntity
8
0
100
AcDbBlockEnd
0
BLOCK
5
216
100
AcDbEntity
8
0
100
AcDbBlockBegin
2
DimnDraft3D11
70
0
10
0
20
0
30
0
3
DimnDraft3D11
0
LINE
5
218
100
AcDbEntity
8
2
62
256
6
ByLayer
370
25
48
1
60
0
100
AcDbLine
10
65
20
47
30
0
11
65
21
75.75
31
0
39
0
210
0
220
0
230
1
0
LINE
5
219
100
AcDbEntity
8
2
62
256
6
ByLayer
370
25
48
1
60
0
100
AcDbLine
10
0
20
33.5
30
0
11
0
21
75.75
31
0
39
0
210
0
220
0
230
1
0
LINE
5
21A
100
AcDbEntity
8
2
62
256
6
ByLayer
370
25
48
1
60
0
100
AcDbLine
10
65
20
73.75
30
0
11
0
21
73.75
31
0
39
0
210
0
220
0
230
1
0
LINE
5
21B
100
AcDbEntity
8
2
62
256
6
ByLayer
370
25
48
1
60
0
100
AcDbLine
10
65
20
73.75
30
0
11
61.825002
21
73.332003
31
0
39
0
210
0
220
0
230
1
0
LINE
5
21C
100
AcDbEntity
8
2
62
256
6
ByLayer
370
25
48
1
60
0
100
AcDbLine
10
65
20
73.75
30
0
11
61.824998
21
74.167997
31
0
39
0
210
0
220
0
230
1
0
LINE
5
21D
100
AcDbEntity
8
2
62
256
6
ByLayer
370
25
48
1
60
0
100
AcDbLine
10
61.825002
20
73.332003
30
0
11
61.824998
21
74.167997
31
0
39
0
210
0
220
0
230
1
0
LINE
5
21E
100
AcDbEntity
8
2
62
256
6
ByLayer
370
25
48
1
60
0
100
AcDbLine
10
0
20
73.75
30
0
11
3.174998
21
74.167997
31
0
39
0
210
0
220
0
230
1
0
LINE
5
21F
100
AcDbEntity
8
2
62
256
6
ByLayer
370
25
48
1
60
0
100
AcDbLine
10
0
20
73.75
30
0
11
3.175002
21
73.332003
31
0
39
0
210
0
220
0
230
1
0
LINE
5
220
100
AcDbEntity
8
2
62
256
6
ByLayer
370
25
48
1
60
0
100
AcDbLine
10
3.174998
20
74.167997
30
0
11
3.175002
21
73.332003
31
0
39
0
210
0
220
0
230
1
0
MTEXT
5
221
100
AcDbEntity
8
2
62
256
6
ByLayer
370
18
48
1
60
0
100
AcDbMText
10
28.343421
20
74.875
30
0
210
0
220
0
230
1
1
\W0.7346;65.0
40
4.5
41
0
44
1.084337
50
0
71
7
72
5
7
iso_b_vert
0
ENDBLK
5
217
100
AcDbEntity
8
0
100
AcDbBlockEnd
0
BLOCK
5
22E
100
AcDbEntity
8
0
100
AcDbBlockBegin
2
DimnDraft3D2
70
0
10
0
20
0
30
0
3
DimnDraft3D2
0
MTEXT
5
224
100
AcDbEntity
8
2
62
256
6
ByLayer
370
18
48
1
60
0
100
AcDbMText
10
53.075961
20
52.118216
30
0
210
0
220
0
230
1
1
\W0.7399;95%%d
40
4.5
41
0
44
1.084337
50
47.3457231600001
71
7
72
5
7
iso_b_vert
0
LINE
5
225
100
AcDbEntity
8
2
62
256
6
ByLayer
370
13
48
1
60
0
100
AcDbLine
10
65
20
47
30
0
11
65
21
59.500506
31
0
39
0
210
0
220
0
230
1
0
LINE
5
226
100
AcDbEntity
8
2
62
256
6
ByLayer
370
13
48
1
60
0
100
AcDbLine
10
60.722045
20
44.750642
30
0
11
50.649446
21
43.924037
31
0
39
0
210
0
220
0
230
1
0
ARC
5
227
100
AcDbEntity
8
2
62
256
6
ByLayer
370
13
48
1
60
0
100
AcDbCircle
39
0
10
65
20
45.101711
30
0
40
12.3987954559122
210
0
220
0
230
1
100
AcDbArc
50
90
51
184.691446
0
LINE
5
228
100
AcDbEntity
8
2
62
256
6
ByLayer
370
13
48
1
60
0
100
AcDbLine
10
65
20
57.500506
30
0
11
61.858032
21
56.881335
31
0
39
0
210
0
220
0
230
1
0
LINE
5
229
100
AcDbEntity
8
2
62
256
6
ByLayer
370
13
48
1
60
0
100
AcDbLine
10
65
20
57.500506
30
0
11
61.804836
21
57.715634
31
0
39
0
210
0
220
0
230
1
0
LINE
5
22A
100
AcDbEntity
8
2
62
256
6
ByLayer
370
13
48
1
60
0
100
AcDbLine
10
61.858032
20
56.881335
30
0
11
61.804836
21
57.715634
31
0
39
0
210
0
220
0
230
1
0
LINE
5
22B
100
AcDbEntity
8
2
62
256
6
ByLayer
370
13
48
1
60
0
100
AcDbLine
10
52.642745
20
44.087617
30
0
11
52.167007
21
47.254478
31
0
39
0
210
0
220
0
230
1
0
LINE
5
22C
100
AcDbEntity
8
2
62
256
6
ByLayer
370
13
48
1
60
0
100
AcDbLine
10
52.642745
20
44.087617
30
0
11
53.002861
21
47.269703
31
0
39
0
210
0
220
0
230
1
0
LINE
5
22D
100
AcDbEntity
8
2
62
256
6
ByLayer
370
13
48
1
60
0
100
AcDbLine
10
52.167007
20
47.254478
30
0
11
53.002861
21
47.269703
31
0
39
0
210
0
220
0
230
1
0
ENDBLK
5
22F
100
AcDbEntity
8
0
100
AcDbBlockEnd
0
BLOCK
5
232
100
AcDbEntity
8
0
100
AcDbBlockBegin
2
_CLOSED
70
0
10
0
20
0
30
0
3
_CLOSED
0
LINE
5
234
100
AcDbEntity
8
0
62
256
6
ByLayer
370
-2
48
1
60
0
100
AcDbLine
10
-1
20
0.166667
30
0
11
0
21
0
31
0
39
0
210
0
220
0
230
1
0
LINE
5
235
100
AcDbEntity
8
0
62
256
6
ByLayer
370
-2
48
1
60
0
100
AcDbLine
10
0
20
0
30
0
11
-1
21
-0.166667
31
0
39
0
210
0
220
0
230
1
0
LINE
5
236
100
AcDbEntity
8
0
62
256
6
ByLayer
370
-2
48
1
60
0
100
AcDbLine
10
-1
20
0.166667
30
0
11
-1
21
-0.166667
31
0
39
0
210
0
220
0
230
1
0
LINE
5
237
100
AcDbEntity
8
0
62
256
6
ByLayer
370
-2
48
1
60
0
100
AcDbLine
10
0
20
0
30
0
11
-1
21
0
31
0
39
0
210
0
220
0
230
1
0
ENDBLK
5
233
100
AcDbEntity
8
0
100
AcDbBlockEnd
0
BLOCK
5
244
100
AcDbEntity
8
0
100
AcDbBlockBegin
2
DimnDraft3D3
70
0
10
0
20
0
30
0
3
DimnDraft3D3
0
MTEXT
5
239
100
AcDbEntity
8
SK2
62
256
6
ByLayer
370
18
48
1
60
0
100
AcDbMText
10
-46.875
20
-1.563158
30
0
210
0
220
0
230
1
1
\W0.6740;63
40
4.5
41
0
44
1.084337
50
90
71
7
72
5
7
iso_b_vert
0
LINE
5
23B
100
AcDbEntity
8
SK2
62
256
6
ByLayer
370
13
48
1
60
0
100
AcDbLine
10
-2
20
-31.5
30
0
11
-47.75
21
-31.5
31
0
39
0
210
0
220
0
230
1
0
LINE
5
23C
100
AcDbEntity
8
SK2
62
256
6
ByLayer
370
13
48
1
60
0
100
AcDbLine
10
-2
20
31.5
30
0
11
-47.75
21
31.5
31
0
39
0
210
0
220
0
230
1
0
LINE
5
23D
100
AcDbEntity
8
SK2
62
256
6
ByLayer
370
13
48
1
60
0
100
AcDbLine
10
-45.75
20
-31.5
30
0
11
-45.75
21
31.5
31
0
39
0
210
0
220
0
230
1
0
LINE
5
23E
100
AcDbEntity
8
SK2
62
256
6
ByLayer
370
13
48
1
60
0
100
AcDbLine
10
-45.75
20
-31.5
30
0
11
-46.167997
21
-28.325002
31
0
39
0
210
0
220
0
230
1
0
LINE
5
23F
100
AcDbEntity
8
SK2
62
256
6
ByLayer
370
13
48
1
60
0
100
AcDbLine
10
-45.75
20
-31.5
30
0
11
-45.332003
21
-28.324998
31
0
39
0
210
0
220
0
230
1
0
LINE
5
240
100
AcDbEntity
8
SK2
62
256
6
ByLayer
370
13
48
1
60
0
100
AcDbLine
10
-46.167997
20
-28.325002
30
0
11
-45.332003
21
-28.324998
31
0
39
0
210
0
220
0
230
1
0
LINE
5
241
100
AcDbEntity
8
SK2
62
256
6
ByLayer
370
13
48
1
60
0
100
AcDbLine
10
-45.75
20
31.5
30
0
11
-45.332003
21
28.325002
31
0
39
0
210
0
220
0
230
1
0
LINE
5
242
100
AcDbEntity
8
SK2
62
256
6
ByLayer
370
13
48
1
60
0
100
AcDbLine
10
-45.75
20
31.5
30
0
11
-46.167997
21
28.324998
31
0
39
0
210
0
220
0
230
1
0
LINE
5
243
100
AcDbEntity
8
SK2
62
256
6
ByLayer
370
13
48
1
60
0
100
AcDbLine
10
-45.332003
20
28.325002
30
0
11
-46.167997
21
28.324998
31
0
39
0
210
0
220
0
230
1
0
ENDBLK
5
245
100
AcDbEntity
8
0
100
AcDbBlockEnd
0
BLOCK
5
252
100
AcDbEntity
8
0
100
AcDbBlockBegin
2
DimnDraft3D4
70
0
10
0
20
0
30
0
3
DimnDraft3D4
0
MTEXT
5
248
100
AcDbEntity
8
2
62
256
6
ByLayer
370
18
48
1
60
0
100
AcDbMText
10
86.125
20
18.106579
30
0
210
0
220
0
230
1
1
\W0.7640;45.0
40
4.5
41
0
44
1.084337
50
90
71
7
72
5
7
iso_b_vert
0
LINE
5
249
100
AcDbEntity
8
2
62
256
6
ByLayer
370
13
48
1
60
0
100
AcDbLine
10
67
20
0
30
0
11
89.25
21
0
31
0
39
0
210
0
220
0
230
1
0
LINE
5
24A
100
AcDbEntity
8
2
62
256
6
ByLayer
370
13
48
1
60
0
100
AcDbLine
10
67
20
45
30
0
11
89.25
21
45
31
0
39
0
210
0
220
0
230
1
0
LINE
5
24B
100
AcDbEntity
8
2
62
256
6
ByLayer
370
13
48
1
60
0
100
AcDbLine
10
87.25
20
0
30
0
11
87.25
21
45
31
0
39
0
210
0
220
0
230
1
0
LINE
5
24C
100
AcDbEntity
8
2
62
256
6
ByLayer
370
13
48
1
60
0
100
AcDbLine
10
87.25
20
0
30
0
11
86.832003
21
3.174998
31
0
39
0
210
0
220
0
230
1
0
LINE
5
24D
100
AcDbEntity
8
2
62
256
6
ByLayer
370
13
48
1
60
0
100
AcDbLine
10
87.25
20
0
30
0
11
87.667997
21
3.175002
31
0
39
0
210
0
220
0
230
1
0
LINE
5
24E
100
AcDbEntity
8
2
62
256
6
ByLayer
370
13
48
1
60
0
100
AcDbLine
10
86.832003
20
3.174998
30
0
11
87.667997
21
3.175002
31
0
39
0
210
0
220
0
230
1
0
LINE
5
24F
100
AcDbEntity
8
2
62
256
6
ByLayer
370
13
48
1
60
0
100
AcDbLine
10
87.25
20
45
30
0
11
87.667997
21
41.825002
31
0
39
0
210
0
220
0
230
1
0
LINE
5
250
100
AcDbEntity
8
2
62
256
6
ByLayer
370
13
48
1
60
0
100
AcDbLine
10
87.25
20
45
30
0
11
86.832003
21
41.824998
31
0
39
0
210
0
220
0
230
1
0
LINE
5
251
100
AcDbEntity
8
2
62
256
6
ByLayer
370
13
48
1
60
0
100
AcDbLine
10
87.667997
20
41.825002
30
0
11
86.832003
21
41.824998
31
0
39
0
210
0
220
0
230
1
0
ENDBLK
5
253
100
AcDbEntity
8
0
100
AcDbBlockEnd
0
ENDSEC
0
SECTION
2
ENTITIES
0
ARC
5
10B
100
AcDbEntity
8
SK1
62
256
6
ByLayer
370
18
48
1
60
0
100
AcDbCircle
39
0
10
0.6
20
-23.45
30
0
40
0.999999999999999
210
0
220
0
230
-1
100
AcDbArc
50
113.578178
51
126.869898
0
ARC
5
10C
100
AcDbEntity
8
SK1
62
256
6
ByLayer
370
18
48
1
60
0
100
AcDbCircle
39
0
10
0.6
20
23.45
30
0
40
0.999999999999999
210
0
220
0
230
-1
100
AcDbArc
50
233.130102
51
246.421822
0
ELLIPSE
5
10D
100
AcDbEntity
8
1
62
256
6
ByLayer
370
18
48
1
60
0
100
AcDbEllipse
10
50.246709
20
42.702281
30
0
11
-0.841899011352161
21
0.841899011348305
31
0
210
0
220
0
230
1
40
0.989133
41
-0.698131700797714
42
0.698131700797731
0
ELLIPSE
5
10E
100
AcDbEntity
8
1
62
256
6
ByLayer
370
18
48
1
60
0
100
AcDbEllipse
10
62.702281
20
30.246709
30
0
11
-0.841899011352161
21
0.841899011348305
31
0
210
0
220
0
230
1
40
0.989133
41
2.44346095279206
42
-2.44346095279207
0
ELLIPSE
5
10F
100
AcDbEntity
8
1
62
256
6
ByLayer
370
18
48
1
60
0
100
AcDbEllipse
10
63.815827
20
43.815827
30
0
11
-0.841899011352161
21
0.841899011348305
31
0
210
0
220
0
230
1
40
0.989133
41
-2.44346095279205
42
-0.698131700797735
0
ELLIPSE
5
110
100
AcDbEntity
8
1
62
256
6
ByLayer
370
18
48
1
60
0
100
AcDbEllipse
10
46.521054
20
0
30
0
11
-22.9998450269978
21
-31.6470389231096
31
0
210
0
220
0
230
1
40
0.018823
41
0.0136784504686034
42
0.204406774119319
0
ELLIPSE
5
111
100
AcDbEntity
8
1
62
256
6
ByLayer
370
18
48
1
60
0
100
AcDbEllipse
10
20.755893
20
0
30
0
11
1.92875500727024E-15
21
31.5
31
0
210
0
220
0
230
1
40
0.087489
41
0.311401384074101
42
2.83019126951569
0
ELLIPSE
5
112
100
AcDbEntity
8
1
62
256
6
ByLayer
370
18
48
1
60
0
100
AcDbEllipse
10
19.807168
20
25.478434
30
0
11
-0.0284771279158418
21
-2.88431306858131
31
0
210
0
220
0
230
1
40
0.077437
41
2.78657914346139
42
0.549437019819644
0
ELLIPSE
5
113
100
AcDbEntity
8
1
62
256
6
ByLayer
370
18
48
1
60
0
100
AcDbEllipse
10
26.347154
20
0
30
0
11
-14.7536831606555
21
31.0932549155802
31
0
210
0
220
0
230
1
40
0.341999
41
0.157806186645435
42
1.09123958575285
0
ELLIPSE
5
114
100
AcDbEntity
8
1
62
256
6
ByLayer
370
18
48
1
60
0
100
AcDbEllipse
10
12
20
24.018926
30
0
11
1.64999999999998
21
0
31
0
210
0
220
0
230
1
40
0.5
41
0.167191463980102
42
2.97577558800012
0
ELLIPSE
5
115
100
AcDbEntity
8
1
62
256
6
ByLayer
370
18
48
1
60
0
100
AcDbEllipse
10
12
20
24.9975
30
0
11
-1.99999999999996
21
2.02127811016469E-15
31
0
210
0
220
0
230
1
40
0.732051
41
0.751504621492287
42
2.3900880320975
0
ELLIPSE
5
116
100
AcDbEntity
8
1
62
256
6
ByLayer
370
18
48
1
60
0
100
AcDbEllipse
10
26.347154
20
0
30
0
11
-14.7536831606553
21
-31.0932549155799
31
0
210
0
220
0
230
1
40
0.341999
41
-1.09123958575286
42
-0.157806186645435
0
ELLIPSE
5
117
100
AcDbEntity
8
1
62
256
6
ByLayer
370
18
48
1
60
0
100
AcDbEllipse
10
12
20
22.2799
30
0
11
-1.88914494149012
21
-3.41434906401724
31
0
210
0
220
0
230
1
40
0.192308
41
2.48058027399185
42
3.13359220704443
0
ELLIPSE
5
118
100
AcDbEntity
8
1
62
256
6
ByLayer
370
18
48
1
60
0
100
AcDbEllipse
10
39.845025
20
12.693944
30
0
11
-4.60348651607449
21
-3.1839460154883
31
0
210
0
220
0
230
1
40
0.714389
41
1.93383703408644
42
-3.13614006881297
0
ELLIPSE
5
119
100
AcDbEntity
8
1
62
256
6
ByLayer
370
18
48
1
60
0
100
AcDbEllipse
10
-2.347154
20
0
30
0
11
-14.7536831606548
21
31.0932549155792
31
0
210
0
220
0
230
1
40
0.341999
41
-2.98378646694435
42
-2.05035306783692
0
ELLIPSE
5
11A
100
AcDbEntity
8
1
62
256
6
ByLayer
370
18
48
1
60
0
100
AcDbEllipse
10
12
20
24.9975
30
0
11
-2.00000000000002
21
2.02127811016475E-15
31
0
210
0
220
0
230
1
40
0.732051
41
-2.39008803209745
42
-0.751504621492315
0
ELLIPSE
5
11B
100
AcDbEntity
8
1
62
256
6
ByLayer
370
18
48
1
60
0
100
AcDbEllipse
10
28.346809
20
29.050298
30
0
11
-4.60348651607462
21
-3.18394601548882
31
0
210
0
220
0
230
1
40
0.714389
41
-3.13614006881301
42
-1.85998148090321
0
ELLIPSE
5
11C
100
AcDbEntity
8
1
62
256
6
ByLayer
370
18
48
1
60
0
100
AcDbEllipse
10
39.637895
20
12.542372
30
0
11
-5.4067073704157
21
-3.95647429459375
31
-3.34721397089054E-17
210
6.1908546950511E-18
220
3.85185988877447E-34
230
-1
40
0.59704
41
-1.89655398477407
42
-1.85006514822461
0
ELLIPSE
5
11D
100
AcDbEntity
8
1
62
256
6
ByLayer
370
18
48
1
60
0
100
AcDbEllipse
10
12
20
22.2799
30
0
11
-1.8891449414941
21
3.41434906402345
31
0
210
0
220
0
230
1
40
0.192308
41
0.00800044654536786
42
0.661012379597218
0
ELLIPSE
5
11E
100
AcDbEntity
8
1
62
256
6
ByLayer
370
18
48
1
60
0
100
AcDbEllipse
10
23.429872
20
27.264378
30
0
11
22.5259793613141
21
-32.043484467842
31
0
210
-6.1908546950511E-18
220
-2.69630192214213E-33
230
1
40
0.02553
41
-1.46454261950056
42
-1.08738291576809
0
ELLIPSE
5
11F
100
AcDbEntity
8
1
62
256
6
ByLayer
370
18
48
1
60
0
100
AcDbEllipse
10
-2.347154
20
0
30
0
11
-14.7536831606537
21
-31.0932549155779
31
0
210
0
220
0
230
1
40
0.341999
41
2.05035306783689
42
2.98378646694435
0
ELLIPSE
5
120
100
AcDbEntity
8
1
62
256
6
ByLayer
370
18
48
1
60
0
100
AcDbEllipse
10
12
20
24.018926
30
0
11
1.99999999999999
21
0
31
0
210
0
220
0
230
1
40
0.5
41
0.448462556004162
42
2.67722591773394
0
ELLIPSE
5
121
100
AcDbEntity
8
1
62
256
6
ByLayer
370
18
48
1
60
0
100
AcDbEllipse
10
24.494172
20
68.337981
30
0
11
-7.02934607980386E-15
21
-38.2672415935297
31
0
210
-6.1908546950511E-18
220
0
230
1
40
0.104528
41
-0.150033791857382
42
-0.125133830343003
0
ELLIPSE
5
122
100
AcDbEntity
8
1
62
256
6
ByLayer
370
18
48
1
60
0
100
AcDbEllipse
10
25.903414
20
28.921143
30
0
11
1.08181243135436
21
-1.915641371282
31
0
210
0
220
0
230
1
40
0.145707
41
0.103478557493321
42
3.14154536805373
0
ELLIPSE
5
123
100
AcDbEntity
8
1
62
256
6
ByLayer
370
18
48
1
60
0
100
AcDbEllipse
10
26.118778
20
29.042764
30
0
11
-0.958879200518633
21
1.69795485181815
31
0
210
0
220
0
230
1
40
0.145707
41
-2.99375941228707
42
-0.14781949685895
0
ELLIPSE
5
124
100
AcDbEntity
8
1
62
256
6
ByLayer
370
18
48
1
60
0
100
AcDbEllipse
10
42.432455
20
25.920154
30
0
11
0.353553390594081
21
-0.353553390592466
31
0
210
0
220
0
230
1
40
0.989133
41
2.29888598877629
42
2.812847640803
0
ELLIPSE
5
125
100
AcDbEntity
8
1
62
256
6
ByLayer
370
18
48
1
60
0
100
AcDbEllipse
10
41.862676
20
28.873261
30
0
11
0.353553390594081
21
-0.353553390592466
31
0
210
0
220
0
230
1
40
0.989133
41
-1.06751838880864
42
-0.43354397425721
0
ELLIPSE
5
126
100
AcDbEntity
8
1
62
256
6
ByLayer
370
18
48
1
60
0
100
AcDbEllipse
10
42.942044
20
27.337847
30
0
11
0.989949493663427
21
-0.989949493658906
31
0
210
0
220
0
230
1
40
0.989133
41
-0.786394179627355
42
-0.266134084374559
0
ELLIPSE
5
127
100
AcDbEntity
8
1
62
256
6
ByLayer
370
18
48
1
60
0
100
AcDbEllipse
10
43.212344
20
27.608147
30
0
11
1.00762716319313
21
-1.00762716318853
31
0
210
0
220
0
230
1
40
0.989133
41
2.83686282413256
42
3.09725663264818
0
ELLIPSE
5
128
100
AcDbEntity
8
1
62
256
6
ByLayer
370
18
48
1
60
0
100
AcDbEllipse
10
43.212344
20
27.608147
30
0
11
1.00762716319313
21
-1.00762716318853
31
0
210
0
220
0
230
1
40
0.989133
41
-2.39912493185043
42
-2.13873112333482
0
ELLIPSE
5
129
100
AcDbEntity
8
1
62
256
6
ByLayer
370
18
48
1
60
0
100
AcDbEllipse
10
42.942044
20
27.337847
30
0
11
0.989949493663427
21
-0.989949493658906
31
0
210
0
220
0
230
1
40
0.989133
41
0.964265785172291
42
1.82826101801866
0
ELLIPSE
5
12A
100
AcDbEntity
8
1
62
256
6
ByLayer
370
18
48
1
60
0
100
AcDbEllipse
10
44.27949
20
26.708482
30
0
11
-0.318198051534675
21
0.318198051533218
31
0
210
0
220
0
230
1
40
0.989133
41
-2.69779318789594
42
-1.37594256398337
0
ELLIPSE
5
12B
100
AcDbEntity
8
1
62
256
6
ByLayer
370
18
48
1
60
0
100
AcDbEllipse
10
43.212344
20
27.608147
30
0
11
1.00762716319313
21
-1.00762716318853
31
0
210
0
220
0
230
1
40
0.989133
41
-1.35192738065385
42
-1.09153357213821
0
ELLIPSE
5
12C
100
AcDbEntity
8
1
62
256
6
ByLayer
370
18
48
1
60
0
100
AcDbEllipse
10
43.078344
20
25.870789
30
0
11
-0.318198051534675
21
0.318198051533218
31
0
210
0
220
0
230
1
40
0.989133
41
-2.69778108161342
42
-2.42314011517999
0
ELLIPSE
5
12D
100
AcDbEntity
8
1
62
256
6
ByLayer
370
18
48
1
60
0
100
AcDbEllipse
10
44.291712
20
26.072733
30
0
11
0.353553390594081
21
-0.353553390592466
31
0
210
0
220
0
230
1
40
0.989133
41
-2.93710176720671
42
-2.42314011518002
0
ELLIPSE
5
12E
100
AcDbEntity
8
1
62
256
6
ByLayer
370
18
48
1
60
0
100
AcDbEllipse
10
41.353087
20
27.455568
30
0
11
0.353553390594081
21
-0.353553390592466
31
0
210
0
220
0
230
1
40
0.989133
41
-0.0203208376120489
42
0.493640814414652
0
ELLIPSE
5
12F
100
AcDbEntity
8
1
62
256
6
ByLayer
370
18
48
1
60
0
100
AcDbEllipse
10
45.071601
20
27.760727
30
0
11
0.353553390594081
21
-0.353553390592466
31
0
210
0
220
0
230
1
40
0.989133
41
-1.88990421601009
42
-1.37594256398342
0
ELLIPSE
5
130
100
AcDbEntity
8
1
62
256
6
ByLayer
370
18
48
1
60
0
100
AcDbEllipse
10
42.81729
20
27.213093
30
0
11
3.53553390594081
21
-3.53553390592466
31
0
210
0
220
0
230
1
40
0.989133
41
-3.14154532407039
42
-0.790861455160004
0
ELLIPSE
5
131
100
AcDbEntity
8
1
62
256
6
ByLayer
370
18
48
1
60
0
100
AcDbEllipse
10
42.81729
20
27.213093
30
0
11
3.53553390594081
21
-3.53553390592466
31
0
210
0
220
0
230
1
40
0.989133
41
-0.790861254082347
42
-5.07515202780684E-05
0
ELLIPSE
5
132
100
AcDbEntity
8
1
62
256
6
ByLayer
370
18
48
1
60
0
100
AcDbEllipse
10
41.874898
20
28.237512
30
0
11
-0.318198051534675
21
0.318198051533218
31
0
210
0
220
0
230
1
40
0.989133
41
-1.06751838880866
42
1.76565008960635
0
ELLIPSE
5
133
100
AcDbEntity
8
1
62
256
6
ByLayer
370
18
48
1
60
0
100
AcDbEllipse
10
42.853676
20
27.24948
30
0
11
0.989949493663427
21
-0.989949493658906
31
0
210
0
220
0
230
1
40
0.989133
41
3.09638126132799
42
-1.40718976785498
0
ELLIPSE
5
134
100
AcDbEntity
8
1
62
256
6
ByLayer
370
18
48
1
60
0
100
AcDbEllipse
10
42.853676
20
27.24948
30
0
11
0.989949493663427
21
-0.989949493658906
31
0
210
0
220
0
230
1
40
0.989133
41
0.181867346975212
42
3.09638198344489
0
ELLIPSE
5
135
100
AcDbEntity
8
1
62
256
6
ByLayer
370
18
48
1
60
0
100
AcDbEllipse
10
43.207842
20
27.603646
30
0
11
0.989949493663427
21
-0.989949493658906
31
0
210
0
220
0
230
1
40
0.989133
41
-2.36052918676775
42
-2.17732686841754
0
ELLIPSE
5
136
100
AcDbEntity
8
1
62
256
6
ByLayer
370
18
48
1
60
0
100
AcDbEllipse
10
42.942044
20
27.337847
30
0
11
0.989949493663427
21
-0.989949493658906
31
0
210
0
220
0
230
1
40
0.989133
41
0.136144695373208
42
0.781063466822048
0
ELLIPSE
5
137
100
AcDbEntity
8
1
62
256
6
ByLayer
370
18
48
1
60
0
100
AcDbEllipse
10
44.8013
20
27.490426
30
0
11
0.353553390594081
21
-0.353553390592466
31
0
210
0
220
0
230
1
40
0.989133
41
-2.00991697853485
42
-1.37594256398342
0
ELLIPSE
5
138
100
AcDbEntity
8
1
62
256
6
ByLayer
370
18
48
1
60
0
100
AcDbEllipse
10
43.207842
20
27.603646
30
0
11
0.989949493663427
21
-0.989949493658906
31
0
210
0
220
0
230
1
40
0.989133
41
1.82826101801865
42
2.01146333636886
0
ELLIPSE
5
139
100
AcDbEntity
8
1
62
256
6
ByLayer
370
18
48
1
60
0
100
AcDbEllipse
10
42.432455
20
25.920154
30
0
11
0.353553390594081
21
-0.353553390592466
31
0
210
0
220
0
230
1
40
0.989133
41
1.02687671358455
42
1.54083836561124
0
ELLIPSE
5
13A
100
AcDbEntity
8
1
62
256
6
ByLayer
370
18
48
1
60
0
100
AcDbEllipse
10
43.721933
20
29.02584
30
0
11
0.353553390594081
21
-0.353553390592466
31
0
210
0
220
0
230
1
40
0.989133
41
-2.11471594000525
42
-1.48074152545378
0
ELLIPSE
5
13B
100
AcDbEntity
8
1
62
256
6
ByLayer
370
18
48
1
60
0
100
AcDbEllipse
10
43.076043
20
29.075205
30
0
11
-0.318198051534675
21
0.318198051533218
31
0
210
0
220
0
230
1
40
0.989133
41
-2.11471594000526
42
0.718452538409773
0
ELLIPSE
5
13C
100
AcDbEntity
8
1
62
256
6
ByLayer
370
18
48
1
60
0
100
AcDbEllipse
10
43.212344
20
27.608147
30
0
11
1.00762716319313
21
-1.00762716318853
31
0
210
0
220
0
230
1
40
0.989133
41
0.742467721739352
42
1.00286153025499
0
ELLIPSE
5
13D
100
AcDbEntity
8
1
62
256
6
ByLayer
370
18
48
1
60
0
100
AcDbEllipse
10
43.212344
20
27.608147
30
0
11
1.00762716319313
21
-1.00762716318853
31
0
210
0
220
0
230
1
40
0.989133
41
-0.304729829457243
42
-0.0443360209416242
0
ELLIPSE
5
13E
100
AcDbEntity
8
1
62
256
6
ByLayer
370
18
48
1
60
0
100
AcDbEllipse
10
44.291712
20
26.072733
30
0
11
0.353553390594081
21
-0.353553390592466
31
0
210
0
220
0
230
1
40
0.989133
41
2.07407426478115
42
2.58803591680786
0
ELLIPSE
5
13F
100
AcDbEntity
8
1
62
256
6
ByLayer
370
18
48
1
60
0
100
AcDbEllipse
10
43.207842
20
27.603646
30
0
11
0.989949493663427
21
-0.989949493658906
31
0
210
0
220
0
230
1
40
0.989133
41
-0.266134084374992
42
-0.0829317660243306
0
ELLIPSE
5
140
100
AcDbEntity
8
1
62
256
6
ByLayer
370
18
48
1
60
0
100
AcDbEllipse
10
44.413489
20
28.445841
30
0
11
-0.318198051534675
21
0.318198051533218
31
0
210
0
220
0
230
1
40
0.989133
41
3.12127181597773
42
-0.328745012786831
0
ELLIPSE
5
141
100
AcDbEntity
8
1
62
256
6
ByLayer
370
18
48
1
60
0
100
AcDbEllipse
10
43.212344
20
27.608147
30
0
11
1.00762716319313
21
-1.00762716318853
31
0
210
0
220
0
230
1
40
0.989133
41
1.78966527293597
42
2.05005908145158
0
ELLIPSE
5
142
100
AcDbEntity
8
1
62
256
6
ByLayer
370
18
48
1
60
0
100
AcDbEllipse
10
43.992233
20
29.29614
30
0
11
0.353553390594081
21
-0.353553390592466
31
0
210
0
220
0
230
1
40
0.989133
41
-2.11471594000524
42
-1.60075428797855
0
ELLIPSE
5
143
100
AcDbEntity
8
1
62
256
6
ByLayer
370
18
48
1
60
0
100
AcDbEllipse
10
42.942044
20
27.337847
30
0
11
0.989949493663427
21
-0.989949493658906
31
0
210
0
220
0
230
1
40
0.989133
41
2.01146333636887
42
2.87545856921524
0
ELLIPSE
5
144
100
AcDbEntity
8
1
62
256
6
ByLayer
370
18
48
1
60
0
100
AcDbEllipse
10
43.207842
20
27.603646
30
0
11
0.989949493663427
21
-0.989949493658906
31
0
210
0
220
0
230
1
40
0.989133
41
-1.31333163557183
42
-1.13012931722092
0
ELLIPSE
5
145
100
AcDbEntity
8
1
62
256
6
ByLayer
370
18
48
1
60
0
100
AcDbEllipse
10
45.071601
20
27.760727
30
0
11
0.353553390594081
21
-0.353553390592466
31
0
210
0
220
0
230
1
40
0.989133
41
3.12127181597776
42
-2.64795183917514
0
ELLIPSE
5
146
100
AcDbEntity
8
1
62
256
6
ByLayer
370
18
48
1
60
0
100
AcDbEllipse
10
43.207842
20
27.603646
30
0
11
0.989949493663427
21
-0.989949493658906
31
0
210
0
220
0
230
1
40
0.989133
41
0.781063466822036
42
0.964265785172273
0
ELLIPSE
5
147
100
AcDbEntity
8
1
62
256
6
ByLayer
370
18
48
1
60
0
100
AcDbEllipse
10
43.992233
20
29.29614
30
0
11
0.353553390594081
21
-0.353553390592466
31
0
210
0
220
0
230
1
40
0.989133
41
-0.842706664813545
42
-0.32874501278683
0
ELLIPSE
5
148
100
AcDbEntity
8
1
62
256
6
ByLayer
370
18
48
1
60
0
100
AcDbEllipse
10
42.011199
20
26.770454
30
0
11
-0.318198051534675
21
0.318198051533218
31
0
210
0
220
0
230
1
40
0.989133
41
-0.0203208376120593
42
2.812847640803
0
ELLIPSE
5
149
100
AcDbEntity
8
1
62
256
6
ByLayer
370
18
48
1
60
0
100
AcDbEllipse
10
44.54979
20
26.978783
30
0
11
-0.318198051534675
21
0.318198051533218
31
0
210
0
220
0
230
1
40
0.989133
41
2.07407426478114
42
-1.37594256398338
0
ELLIPSE
5
14A
100
AcDbEntity
8
1
62
256
6
ByLayer
370
18
48
1
60
0
100
AcDbEllipse
10
44.8013
20
27.490426
30
0
11
0.353553390594081
21
-0.353553390592466
31
0
210
0
220
0
230
1
40
0.989133
41
-3.14158599185621
42
-2.52793907665043
0
ELLIPSE
5
14B
100
AcDbEntity
8
1
62
256
6
ByLayer
370
18
48
1
60
0
100
AcDbEllipse
10
42.132976
20
29.143561
30
0
11
0.353553390594081
21
-0.353553390592466
31
0
210
0
220
0
230
1
40
0.989133
41
-1.06751838880869
42
-0.553556736781968
0
ELLIPSE
5
14C
100
AcDbEntity
8
1
62
256
6
ByLayer
370
18
48
1
60
0
100
AcDbEllipse
10
44.021411
20
25.802433
30
0
11
0.353553390594081
21
-0.353553390592466
31
0
210
0
220
0
230
1
40
0.989133
41
-3.05711452973147
42
-2.42314011518002
0
ELLIPSE
5
14D
100
AcDbEntity
8
1
62
256
6
ByLayer
370
18
48
1
60
0
100
AcDbEllipse
10
42.132976
20
29.143561
30
0
11
0.353553390594081
21
-0.353553390592466
31
0
210
0
220
0
230
1
40
0.989133
41
0.204490886383086
42
0.718452538409798
0
ELLIPSE
5
14E
100
AcDbEntity
8
1
62
256
6
ByLayer
370
18
48
1
60
0
100
AcDbEllipse
10
42.805743
20
28.804905
30
0
11
-0.318198051534675
21
0.318198051533218
31
0
210
0
220
0
230
1
40
0.989133
41
-2.11471594000527
42
-0.443854278650352
0
ELLIPSE
5
14F
100
AcDbEntity
8
1
62
256
6
ByLayer
370
18
48
1
60
0
100
AcDbEllipse
10
43.207842
20
27.603646
30
0
11
0.989949493663427
21
-0.989949493658906
31
0
210
0
220
0
230
1
40
0.989133
41
2.87545856921482
42
3.0586608875659
0
ELLIPSE
5
150
100
AcDbEntity
8
1
62
256
6
ByLayer
370
18
48
1
60
0
100
AcDbEllipse
10
41.353087
20
27.455568
30
0
11
0.353553390594081
21
-0.353553390592466
31
0
210
0
220
0
230
1
40
0.989133
41
1.25168843757968
42
1.76565008960639
0
ELLIPSE
5
151
100
AcDbEntity
8
1
62
256
6
ByLayer
370
18
48
1
60
0
100
AcDbEllipse
10
44.143189
20
28.17554
30
0
11
-0.318198051534675
21
0.318198051533218
31
0
210
0
220
0
230
1
40
0.989133
41
-3.11202227657912
42
-0.328745012786803
0
ELLIPSE
5
152
100
AcDbEntity
8
1
62
256
6
ByLayer
370
18
48
1
60
0
100
AcDbEllipse
10
43.041912
20
27.437716
30
0
11
-3.53553390594083
21
3.53553390592464
31
0
210
0
220
0
230
1
40
0.989133
41
0
42
6.28318530717959
0
ELLIPSE
5
153
100
AcDbEntity
8
1
62
256
6
ByLayer
370
18
48
1
60
0
100
AcDbEllipse
10
42.942044
20
27.337847
30
0
11
0.989949493663427
21
-0.989949493658906
31
0
210
0
220
0
230
1
40
0.989133
41
3.05866088756548
42
-2.73183096890509
0
ELLIPSE
5
154
100
AcDbEntity
8
1
62
256
6
ByLayer
370
18
48
1
60
0
100
AcDbEllipse
10
42.942044
20
27.337847
30
0
11
0.989949493663427
21
-0.989949493658906
31
0
210
0
220
0
230
1
40
0.989133
41
-2.0782777171275
42
-1.53431143539198
0
ELLIPSE
5
155
100
AcDbEntity
8
1
62
256
6
ByLayer
370
18
48
1
60
0
100
AcDbEllipse
10
43.721933
20
29.02584
30
0
11
0.353553390594081
21
-0.353553390592466
31
0
210
0
220
0
230
1
40
0.989133
41
-0.962719427338322
42
-0.32874501278683
0
ELLIPSE
5
156
100
AcDbEntity
8
1
62
256
6
ByLayer
370
18
48
1
60
0
100
AcDbEllipse
10
43.348645
20
26.141089
30
0
11
-0.318198051534675
21
0.318198051533218
31
0
210
0
220
0
230
1
40
0.989133
41
1.02687671358454
42
-2.42314011518
0
ELLIPSE
5
157
100
AcDbEntity
8
1
62
256
6
ByLayer
370
18
48
1
60
0
100
AcDbEllipse
10
41.604598
20
27.967212
30
0
11
-0.318198051534675
21
0.318198051533218
31
0
210
0
220
0
230
1
40
0.989133
41
-1.06751838880866
42
-0.4438224072218
0
ELLIPSE
5
158
100
AcDbEntity
8
1
62
256
6
ByLayer
370
18
48
1
60
0
100
AcDbEllipse
10
43.212344
20
27.608147
30
0
11
-1.76776695297042
21
1.76776695296232
31
0
210
0
220
0
230
1
40
0.989133
41
0
42
6.28318530717959
0
ELLIPSE
5
159
100
AcDbEntity
8
1
62
256
6
ByLayer
370
18
48
1
60
0
100
AcDbEllipse
10
58.8594
20
40.218322
30
0
11
-1.36506935510024
21
1.83139511603943
31
0
210
0
220
0
230
1
40
0.75312
41
-0.858053350821379
42
0.176212956498132
0
ELLIPSE
5
15A
100
AcDbEntity
8
1
62
256
6
ByLayer
370
18
48
1
60
0
100
AcDbEllipse
10
57.234477
20
37.250233
30
0
11
-3.74766594029728
21
3.74766594028012
31
0
210
0
220
0
230
1
40
0.989133
41
-1.13446401379631
42
-0.610865238198011
0
ELLIPSE
5
15B
100
AcDbEntity
8
1
62
256
6
ByLayer
370
18
48
1
60
0
100
AcDbEllipse
10
56.578179
20
36.888625
30
0
11
2.63043722601996
21
-2.63043722600795
31
0
210
0
220
0
230
1
40
0.989133
41
2.59181393921158
42
2.94641924283481
0
ELLIPSE
5
15C
100
AcDbEntity
8
1
62
256
6
ByLayer
370
18
48
1
60
0
100
AcDbEllipse
10
60.341537
20
38.109964
30
0
11
-1.76487007451831
21
1.91981405081792
31
0
210
0
220
0
230
1
40
0.652432
41
2.72972696862331
42
-2.51919203123583
0
ELLIPSE
5
15D
100
AcDbEntity
8
1
62
256
6
ByLayer
370
18
48
1
60
0
100
AcDbEllipse
10
57.234477
20
37.250233
30
0
11
-3.74766594029728
21
3.74766594028012
31
0
210
0
220
0
230
1
40
0.989133
41
-2.87979326579064
42
-2.35619449019235
0
ELLIPSE
5
15E
100
AcDbEntity
8
1
62
256
6
ByLayer
370
18
48
1
60
0
100
AcDbEllipse
10
57.234477
20
37.250233
30
0
11
-3.74766594029728
21
3.74766594028012
31
0
210
0
220
0
230
1
40
0.989133
41
-2.35619449019235
42
-1.13446401379631
0
ELLIPSE
5
15F
100
AcDbEntity
8
1
62
256
6
ByLayer
370
18
48
1
60
0
100
AcDbEllipse
10
56.686819
20
36.997265
30
0
11
3.05705668955567
21
-3.05705668954171
31
0
210
0
220
0
230
1
40
0.989133
41
0.200712863979344
42
2.59181393921158
0
ELLIPSE
5
160
100
AcDbEntity
8
1
62
256
6
ByLayer
370
18
48
1
60
0
100
AcDbEllipse
10
57.66072
20
37.676476
30
0
11
-2.97084430727133
21
2.97084430725772
31
0
210
0
220
0
230
1
40
0.989133
41
-0.698105215001292
42
-0.610865238198016
0
ELLIPSE
5
161
100
AcDbEntity
8
1
62
256
6
ByLayer
370
18
48
1
60
0
100
AcDbEllipse
10
56.578179
20
36.888625
30
0
11
3.8759458705356
21
-3.8759458705179
31
0
210
0
220
0
230
1
40
0.989133
41
-2.86650736106133
42
-2.82526901493146
0
ELLIPSE
5
162
100
AcDbEntity
8
1
62
256
6
ByLayer
370
18
48
1
60
0
100
AcDbEllipse
10
56.260576
20
36.571023
30
0
11
-4.45477272148545
21
4.45477272146505
31
0
210
0
220
0
230
1
40
0.989133
41
2.48531338690477
42
2.53072741539177
0
ELLIPSE
5
163
100
AcDbEntity
8
1
62
256
6
ByLayer
370
18
48
1
60
0
100
AcDbEllipse
10
56.153052
20
31.322429
30
0
11
-1.75740095864137
21
-10.6350251256509
31
0
210
0
220
0
230
1
40
0.721982
41
-2.34099846869671
42
-2.33206420936547
0
ELLIPSE
5
164
100
AcDbEntity
8
1
62
256
6
ByLayer
370
18
48
1
60
0
100
AcDbEllipse
10
57.66072
20
37.676476
30
0
11
-2.69246607501615
21
2.69246607500382
31
0
210
0
220
0
230
1
40
0.989133
41
-2.35619449019235
42
-1.13446401379631
0
ELLIPSE
5
165
100
AcDbEntity
8
1
62
256
6
ByLayer
370
18
48
1
60
0
100
AcDbEllipse
10
56.260576
20
36.571023
30
0
11
-4.45477272148545
21
4.45477272146505
31
0
210
0
220
0
230
1
40
0.989133
41
0.26179938779915
42
0.280398039057482
0
ELLIPSE
5
166
100
AcDbEntity
8
1
62
256
6
ByLayer
370
18
48
1
60
0
100
AcDbEllipse
10
57.66072
20
37.676476
30
0
11
-2.97084430727133
21
2.97084430725772
31
0
210
0
220
0
230
1
40
0.989133
41
-2.87979326579065
42
-2.79255328898737
0
ELLIPSE
5
167
100
AcDbEntity
8
1
62
256
6
ByLayer
370
18
48
1
60
0
100
AcDbEllipse
10
57.015876
20
31.805602
30
0
11
-0.98911232702435
21
-2.01835934821282
31
0
210
0
220
0
230
1
40
0.319208
41
1.16864086659069
42
1.25182879525533
0
ELLIPSE
5
168
100
AcDbEntity
8
1
62
256
6
ByLayer
370
18
48
1
60
0
100
AcDbEllipse
10
43.643087
20
27.788781
30
0
11
-3.57369703919159
21
3.70825962846094
31
0
210
0
220
0
230
1
40
0.986455
41
3.0810818314058
42
-0.156280282981029
0
ELLIPSE
5
169
100
AcDbEntity
8
1
62
256
6
ByLayer
370
18
48
1
60
0
100
AcDbEllipse
10
30.897315
20
24.855896
30
0
11
-3.25817311325324
21
1.75811583963219
31
0
210
0
220
0
230
1
40
0.99535
41
1.03102404915098
42
1.10568310408461
0
ELLIPSE
5
16A
100
AcDbEntity
8
1
62
256
6
ByLayer
370
18
48
1
60
0
100
AcDbEllipse
10
33.954761
20
28.34886
30
0
11
2.0817652655485
21
-2.16015123988015
31
0
210
0
220
0
230
1
40
0.986455
41
-0.15628028298103
42
-0.0604792845384534
0
ELLIPSE
5
16B
100
AcDbEntity
8
1
62
256
6
ByLayer
370
18
48
1
60
0
100
AcDbEllipse
10
38.491345
20
13.142807
30
0
11
4.09042179648946
21
2.87549118009497
31
0
210
0
220
0
230
1
40
0.02553
41
-1.55587304395469
42
-0.852933224750647
0
ELLIPSE
5
16C
100
AcDbEntity
8
1
62
256
6
ByLayer
370
18
48
1
60
0
100
AcDbEllipse
10
52.102055
20
38.795574
30
0
11
-2.22261511008557
21
-0.277932744721593
31
0
210
0
220
0
230
1
40
0.280718
41
-1.27741145182273
42
-1.19422352042445
0
ELLIPSE
5
16D
100
AcDbEntity
8
1
62
256
6
ByLayer
370
18
48
1
60
0
100
AcDbEllipse
10
41.680607
20
20.521809
30
0
11
-2.77183407273047
21
-6.4909706705885
31
0
210
0
220
0
230
1
40
0.308803
41
-0.112864552383952
42
0.459238987230575
0
ELLIPSE
5
16E
100
AcDbEntity
8
1
62
256
6
ByLayer
370
18
48
1
60
0
100
AcDbEllipse
10
36.841893
20
16.399661
30
0
11
-3.25817422783462
21
1.75811384563732
31
0
210
0
220
0
230
1
40
0.99535
41
1.10568248765206
42
1.18034154198929
0
ELLIPSE
5
16F
100
AcDbEntity
8
1
62
256
6
ByLayer
370
18
48
1
60
0
100
AcDbEllipse
10
37.87588
20
12.771771
30
0
11
5.72659051508524
21
4.02568765213296
31
0
210
0
220
0
230
1
40
0.02553
41
-0.961582821111954
42
-0.808573903783162
0
ELLIPSE
5
170
100
AcDbEntity
8
1
62
256
6
ByLayer
370
18
48
1
60
0
100
AcDbEllipse
10
30.540995
20
24.552344
30
0
11
-3.25817272125817
21
1.75811653453645
31
0
210
0
220
0
230
1
40
0.99535
41
-0.251553693641623
42
-0.0829879231476105
0
ELLIPSE
5
171
100
AcDbEntity
8
1
62
256
6
ByLayer
370
18
48
1
60
0
100
AcDbEllipse
10
36.020868
20
25.947978
30
0
11
6.54467487438313
21
4.60078588815195
31
0
210
0
220
0
230
1
40
0.02553
41
1.54834725385763
42
2.15392467698382
0
ELLIPSE
5
172
100
AcDbEntity
8
1
62
256
6
ByLayer
370
18
48
1
60
0
100
AcDbEllipse
10
39.470332
20
21.041072
30
0
11
6.54467487438313
21
4.60078588815195
31
0
210
0
220
0
230
1
40
0.02553
41
1.54834725385763
42
2.15392467698384
0
ELLIPSE
5
173
100
AcDbEntity
8
1
62
256
6
ByLayer
370
18
48
1
60
0
100
AcDbEllipse
10
36.485572
20
16.096108
30
0
11
-3.25817267366197
21
1.75811663112445
31
0
210
0
220
0
230
1
40
0.99535
41
2.29435459152205
42
2.46292036191935
0
ELLIPSE
5
174
100
AcDbEntity
8
1
62
256
6
ByLayer
370
18
48
1
60
0
100
AcDbEllipse
10
35.736029
20
28.978045
30
0
11
-6.57889319532488
21
-1.18416104687662
31
0
210
0
220
0
230
1
40
0.266372
41
-0.525159587474616
42
0.046943952138316
0
POINT
5
6C
100
AcDbEntity
8
2
62
256
6
ByLayer
370
18
48
1
60
0
100
AcDbPoint
10
65
20
45
30
0
39
0
210
0
220
0
230
1
50
360
0
POINT
5
6E
100
AcDbEntity
8
80
62
256
6
ByLayer
370
18
48
1
60
0
100
AcDbPoint
10
0
20
0
30
0
39
0
210
0
220
0
230
1
50
360
0
POINT
5
70
100
AcDbEntity
8
81
62
256
6
ByLayer
370
18
48
1
60
0
100
AcDbPoint
10
65
20
45
30
0
39
0
210
0
220
0
230
1
50
360
0
SPLINE
5
175
100
AcDbEntity
8
1
62
256
6
ByLayer
370
18
48
1
60
0
100
AcDbSpline
70
4
71
3
72
9
73
5
40
0
40
0
40
0
40
0
40
0.343787484788555
40
1
40
1
40
1
40
1
41
1
10
57.4383416848743
20
30.1258362697335
30
0
41
1
10
57.3956470193074
20
30.1523512958686
30
0
41
1
10
57.2726584278356
20
30.2318855276613
30
0
41
1
10
57.1528647029371
20
30.3180035990295
30
0
41
1
10
57.0758127424936
20
30.3776085883447
30
0
0
SPLINE
5
176
100
AcDbEntity
8
1
62
256
6
ByLayer
370
18
48
1
60
0
100
AcDbSpline
70
4
71
3
72
9
73
5
40
0
40
0
40
0
40
0
40
0.875253982035277
40
1
40
1
40
1
40
1
41
1
10
50.8538092231963
20
39.248721712835
30
0
41
1
10
50.8296465723153
20
39.3417865080508
30
0
41
1
10
50.8071851837331
20
39.4486974608966
30
0
41
1
10
50.7904245578031
20
39.5562209912826
30
0
41
1
10
50.7884242991556
20
39.5696442023286
30
0
0
SPLINE
5
177
100
AcDbEntity
8
SK1
62
256
6
ByLayer
370
18
48
1
60
0
100
AcDbSpline
70
4
71
2
72
6
73
3
40
0
40
0
40
0
40
1
40
1
40
1
41
1
10
-36.5
20
-21.1521177089669
30
0
41
1
10
-19.3499999999701
20
-21.5828554470541
30
0
41
1
10
-2.19999999999999
20
-22.0135928951589
30
0
0
SPLINE
5
178
100
AcDbEntity
8
SK1
62
256
6
ByLayer
370
18
48
1
60
0
100
AcDbSpline
70
4
71
2
72
6
73
3
40
0
40
0
40
0
40
1
40
1
40
1
41
1
10
-2.19999999999999
20
22.0135927638551
30
0
41
1
10
-19.3499999999869
20
21.5828539542124
30
0
41
1
10
-36.5
20
21.1521149580209
30
0
0
SPLINE
5
179
100
AcDbEntity
8
SK1
62
256
6
ByLayer
370
18
48
1
60
0
100
AcDbSpline
70
4
71
3
72
13
73
9
40
0
40
0
40
0
40
0
40
0.239456135763718
40
0.368359721933656
40
0.499998984021097
40
0.63163841528373
40
0.760542467778167
40
1
40
1
40
1
40
1
41
1
10
-2.19999999999999
20
-22.0200986606755
30
0
41
1
10
-2.19909198642273
20
-21.9940411845603
30
0
41
1
10
-2.19103284106941
20
-21.9566686002238
30
0
41
1
10
-2.16563592203337
20
-21.9104494263858
30
0
41
1
10
-2.1388637867926
20
-21.8791678725253
30
0
41
1
10
-2.10627712749869
20
-21.8540005023229
30
0
41
1
10
-2.05884064234078
20
-21.8309566998545
30
0
41
1
10
-2.02111030873027
20
-21.8247844448324
30
0
41
1
10
-1.99503997793928
20
-21.825186084775
30
0
0
SPLINE
5
17A
100
AcDbEntity
8
SK1
62
256
6
ByLayer
370
18
48
1
60
0
100
AcDbSpline
70
4
71
3
72
13
73
9
40
0
40
0
40
0
40
0
40
0.239457532152995
40
0.368361584623188
40
0.500001015876169
40
0.631640277971204
40
0.760543864164266
40
1
40
1
40
1
40
1
41
1
10
-1.99503997793928
20
21.8251861015554
30
0
41
1
10
-2.02111030873166
20
21.8247844616134
30
0
41
1
10
-2.05884064234343
20
21.8309567166392
30
0
41
1
10
-2.10627712750076
20
21.854000519123
30
0
41
1
10
-2.13886378679456
20
21.8791678893421
30
0
41
1
10
-2.16563592203485
20
21.9104494432231
30
0
41
1
10
-2.19103284107055
20
21.9566686170919
30
0
41
1
10
-2.19909198642387
20
21.9940412014509
30
0
41
1
10
-2.19999999999999
20
22.0200986775813
30
0
0
SPLINE
5
17B
100
AcDbEntity
8
SK1
62
256
6
ByLayer
370
18
48
1
60
0
100
AcDbSpline
70
4
71
2
72
6
73
3
40
0
40
0
40
0
40
1
40
1
40
1
41
1
10
-1.99503997793928
20
-21.8251812553753
30
0
41
1
10
-1.19500843340728
20
-21.8452807024746
30
0
41
1
10
-0.394976888875277
20
-21.8653801495793
30
0
0
SPLINE
5
17C
100
AcDbEntity
8
SK1
62
256
6
ByLayer
370
18
48
1
60
0
100
AcDbSpline
70
4
71
2
72
6
73
3
40
0
40
0
40
0
40
1
40
1
40
1
41
1
10
-0.394976888875277
20
21.8653802062992
30
0
41
1
10
-1.19500843340728
20
21.8452807593862
30
0
41
1
10
-1.99503997793928
20
21.8251813124779
30
0
0
SPLINE
5
17D
100
AcDbEntity
8
SK1
62
256
6
ByLayer
370
18
48
1
60
0
100
AcDbSpline
70
4
71
2
72
6
73
3
40
0
40
0
40
0
40
1
40
1
40
1
41
1
10
-38
20
-20.289405225553
30
0
41
1
10
-37.2500000000012
20
-20.7223540793632
30
0
41
1
10
-36.5
20
-21.1553029418638
30
0
0
SPLINE
5
17E
100
AcDbEntity
8
SK1
62
256
6
ByLayer
370
18
48
1
60
0
100
AcDbSpline
70
4
71
2
72
6
73
3
40
0
40
0
40
0
40
1
40
1
40
1
41
1
10
-36.5
20
21.155302724897
30
0
41
1
10
-37.2500000000012
20
20.7223538609616
30
0
41
1
10
-38
20
20.2894050057151
30
0
0
SPLINE
5
17F
100
AcDbEntity
8
SK1
62
256
6
ByLayer
370
18
48
1
60
0
100
AcDbSpline
70
4
71
2
72
6
73
3
40
0
40
0
40
0
40
1
40
1
40
1
41
1
10
-0.394976888875277
20
-21.8653849865467
30
0
41
1
10
-0.265172990617003
20
-21.8689012906761
30
0
41
1
10
-0.240502439654279
20
-21.9465691723769
30
0
0
SPLINE
5
180
100
AcDbEntity
8
SK1
62
256
6
ByLayer
370
18
48
1
60
0
100
AcDbSpline
70
4
71
2
72
6
73
3
40
0
40
0
40
0
40
1
40
1
40
1
41
1
10
-0.239684768755779
20
21.9481214799355
30
0
41
1
10
-0.264174311740362
20
21.8692639605625
30
0
41
1
10
-0.394976888875277
20
21.865385003355
30
0
0
SPLINE
5
181
100
AcDbEntity
8
SK1
62
256
6
ByLayer
370
18
48
1
60
0
100
AcDbSpline
70
4
71
3
72
303
73
299
40
0
40
0
40
0
40
0
40
0.0005133415019529
40
0.0040062578894343
40
0.0074991742769157
40
0.0109920906643972
40
0.0144850070518786
40
0.0179779234393601
40
0.0214708398268415
40
0.024963756214323
40
0.0284566726018044
40
0.0319495889892858
40
0.0389354217642487
40
0.0459212545392116
40
0.0529070873141745
40
0.056400003701656
40
0.0598929200891374
40
0.0633858364766188
40
0.0668787528641002
40
0.0738645856390632
40
0.0773575020265446
40
0.0808504184140261
40
0.0843433348015075
40
0.0878362511889889
40
0.0913291675764704
40
0.0948220839639518
40
0.101807916738915
40
0.105300833126396
40
0.108793749513878
40
0.112286665901359
40
0.11577958228884
40
0.119272498676322
40
0.122765415063803
40
0.126258331451285
40
0.129751247838766
40
0.133244164226248
40
0.136737080613729
40
0.14022999700121
40
0.143722913388692
40
0.147215829776173
40
0.150708746163655
40
0.157694578938618
40
0.161187495326099
40
0.164680411713581
40
0.166426869907321
40
0.168173328101062
40
0.171666244488543
40
0.178652077263506
40
0.182144993650988
40
0.185637910038469
40
0.189130826425951
40
0.192623742813432
40
0.199609575588395
40
0.203102491975876
40
0.206595408363358
40
0.208341866557099
40
0.210088324750839
40
0.213581241138321
40
0.220567073913284
40
0.224059990300765
40
0.227552906688246
40
0.231045823075728
40
0.234538739463209
40
0.241524572238172
40
0.245017488625654
40
0.248510405013135
40
0.250256863206876
40
0.252003321400617
40
0.255496237788098
40
0.25898915417558
40
0.262482070563061
40
0.264228528756802
40
0.265974986950542
40
0.269467903338024
40
0.272960819725505
40
0.276453736112987
40
0.279946652500468
40
0.28343956888795
40
0.286932485275431
40
0.290425401662912
40
0.293918318050394
40
0.297411234437875
40
0.300904150825357
40
0.304397067212838
40
0.30788998360032
40
0.311382899987801
40
0.314875816375283
40
0.318368732762764
40
0.325354565537727
40
0.328847481925208
40
0.33234039831269
40
0.335833314700171
40
0.339326231087653
40
0.342819147475134
40
0.346312063862615
40
0.349804980250097
40
0.353297896637578
40
0.360283729412541
40
0.367269562187504
40
0.374255394962467
40
0.377748311349949
40
0.38124122773743
40
0.384734144124911
40
0.388227060512393
40
0.391719976899874
40
0.395212893287356
40
0.398705809674837
40
0.402198726062319
40
0.4056916424498
40
0.409184558837281
40
0.412677475224763
40
0.416170391612244
40
0.419663307999726
40
0.423156224387207
40
0.426649140774689
40
0.43014205716217
40
0.433634973549652
40
0.435381431743392
40
0.437127889937133
40
0.438874348130874
40
0.440620806324614
40
0.444113722712096
40
0.447606639099577
40
0.449353097293318
40
0.451099555487059
40
0.4528460136808
40
0.45459247187454
40
0.458085388262022
40
0.459831846455763
40
0.461578304649503
40
0.463324762843244
40
0.465071221036985
40
0.466817679230725
40
0.468564137424466
40
0.470310595618207
40
0.472057053811948
40
0.473803512005688
40
0.475549970199429
40
0.47729642839317
40
0.47904288658691
40
0.480789344780651
40
0.482535802974392
40
0.484282261168133
40
0.486028719361873
40
0.487775177555614
40
0.489521635749355
40
0.491268093943095
40
0.493014552136836
40
0.494761010330577
40
0.496507468524317
40
0.498253926718058
40
0.500000384911799
40
0.50174684310554
40
0.50349330129928
40
0.505239759493021
40
0.506986217686762
40
0.508732675880503
40
0.510479134074243
40
0.512225592267984
40
0.513972050461725
40
0.515718508655465
40
0.517464966849206
40
0.519211425042947
40
0.520957883236688
40
0.522704341430428
40
0.524450799624169
40
0.52619725781791
40
0.52794371601165
40
0.529690174205391
40
0.531436632399132
40
0.533183090592873
40
0.534929548786613
40
0.536676006980354
40
0.538422465174095
40
0.540168923367836
40
0.541915381561576
40
0.545408297949058
40
0.547154756142798
40
0.548901214336539
40
0.55064767253028
40
0.552394130724021
40
0.555887047111502
40
0.559379963498984
40
0.561126421692724
40
0.562872879886465
40
0.564619338080206
40
0.566365796273946
40
0.569858712661428
40
0.573351629048909
40
0.576844545436391
40
0.580337461823872
40
0.583830378211354
40
0.587323294598835
40
0.590816210986317
40
0.594309127373798
40
0.597802043761279
40
0.601294960148761
40
0.604787876536242
40
0.608280792923724
40
0.611773709311205
40
0.615266625698687
40
0.618759542086168
40
0.62225245847365
40
0.625745374861131
40
0.632731207636094
40
0.639717040411057
40
0.64670287318602
40
0.650195789573501
40
0.653688705960982
40
0.657181622348464
40
0.660674538735945
40
0.664167455123427
40
0.667660371510908
40
0.67115328789839
40
0.674646204285871
40
0.681632037060834
40
0.685124953448315
40
0.688617869835797
40
0.692110786223278
40
0.69560370261076
40
0.699096618998241
40
0.702589535385723
40
0.706082451773204
40
0.709575368160686
40
0.713068284548167
40
0.716561200935648
40
0.72005411732313
40
0.723547033710611
40
0.730532866485574
40
0.734025782873056
40
0.737518699260537
40
0.7445045320355
40
0.747997448422981
40
0.751490364810463
40
0.754983281197944
40
0.758476197585426
40
0.765462030360389
40
0.76895494674787
40
0.772447863135352
40
0.775940779522833
40
0.779433695910315
40
0.786419528685277
40
0.789912445072759
40
0.79340536146024
40
0.796898277847722
40
0.800391194235203
40
0.807377027010166
40
0.810869943397647
40
0.814362859785129
40
0.81785577617261
40
0.821348692560092
40
0.828334525335055
40
0.831827441722536
40
0.835320358110017
40
0.838813274497499
40
0.84230619088498
40
0.849292023659943
40
0.852784940047425
40
0.856277856434906
40
0.859770772822388
40
0.863263689209869
40
0.86675660559735
40
0.870249521984832
40
0.873742438372313
40
0.877235354759795
40
0.880728271147276
40
0.884221187534758
40
0.887714103922239
40
0.891207020309721
40
0.894699936697202
40
0.898192853084683
40
0.905178685859646
40
0.908671602247128
40
0.912164518634609
40
0.915657435022091
40
0.919150351409572
40
0.922643267797054
40
0.926136184184535
40
0.933122016959498
40
0.936614933346979
40
0.940107849734461
40
0.943600766121942
40
0.947093682509424
40
0.954079515284387
40
0.957572431671868
40
0.961065348059349
40
0.964558264446831
40
0.968051180834312
40
0.971544097221794
40
0.975037013609275
40
0.978529929996757
40
0.982022846384238
40
0.98551576277172
40
0.989008679159201
40
0.992501595546682
40
0.995994511934164
40
0.999487428321645
40
1
40
1
40
1
40
1
41
1
10
-36.5
20
21.1555776092775
30
0
41
1
10
-36.5
20
21.1557858222596
30
0
41
1
10
-36.5
20
21.1573191514389
30
0
41
1
10
-36.5
20
21.1588544331657
30
0
41
1
10
-36.5
20
21.1578038223016
30
0
41
1
10
-36.5
20
21.1536126358382
30
0
41
1
10
-36.5
20
21.1463317213717
30
0
41
1
10
-36.5
20
21.1360112678938
30
0
41
1
10
-36.5
20
21.1226986497682
30
0
41
1
10
-36.5
20
21.1064402158535
30
0
41
1
10
-36.5
20
21.0872797426226
30
0
41
1
10
-36.5
20
21.0578537406018
30
0
41
1
10
-36.5
20
21.0141777773224
30
0
41
1
10
-36.5
20
20.950713074722
30
0
41
1
10
-36.5
20
20.8890285612071
30
0
41
1
10
-36.5
20
20.8342802658871
30
0
41
1
10
-36.5
20
20.7907267804185
30
0
41
1
10
-36.5
20
20.7446291690672
30
0
41
1
10
-36.5
20
20.6796864194097
30
0
41
1
10
-36.5
20
20.6101652524536
30
0
41
1
10
-36.5
20
20.5353747251341
30
0
41
1
10
-36.5
20
20.4769783324059
30
0
41
1
10
-36.5
20
20.4161995895793
30
0
41
1
10
-36.5
20
20.3530628196555
30
0
41
1
10
-36.5
20
20.2875896826626
30
0
41
1
10
-36.5
20
20.1970436182683
30
0
41
1
10
-36.5
20
20.1024192722933
30
0
41
1
10
-36.5
20
20.0027815031752
30
0
41
1
10
-36.5
20
19.9259535572617
30
0
41
1
10
-36.5
20
19.8469141355251
30
0
41
1
10
-36.5
20
19.7656833730651
30
0
41
1
10
-36.5
20
19.6822775189499
30
0
41
1
10
-36.5
20
19.5967148149262
30
0
41
1
10
-36.5
20
19.5090135394173
30
0
41
1
10
-36.5
20
19.4191882696517
30
0
41
1
10
-36.5
20
19.3272561697677
30
0
41
1
10
-36.5
20
19.2332338822713
30
0
41
1
10
-36.5
20
19.1371346902893
30
0
41
1
10
-36.5
20
19.0389746878943
30
0
41
1
10
-36.5
20
18.9387689752275
30
0
41
1
10
-36.5
20
18.8022215100789
30
0
41
1
10
-36.5
20
18.6623317385554
30
0
41
1
10
-36.5
20
18.5177544284038
30
0
41
1
10
-36.5
20
18.4260133905722
30
0
41
1
10
-36.5
20
18.3514175898237
30
0
41
1
10
-36.5
20
18.2761667145511
30
0
41
1
10
-36.5
20
18.1428549391526
30
0
41
1
10
-36.5
20
17.987269645424
30
0
41
1
10
-36.5
20
17.8270700659299
30
0
41
1
10
-36.5
20
17.705205542109
30
0
41
1
10
-36.5
20
17.5814423770725
30
0
41
1
10
-36.5
20
17.4136311437529
30
0
41
1
10
-36.5
20
17.2428939764416
30
0
41
1
10
-36.5
20
17.0675963011876
30
0
41
1
10
-36.5
20
16.9568152899196
30
0
41
1
10
-36.5
20
16.867008999151
30
0
41
1
10
-36.5
20
16.7765898513273
30
0
41
1
10
-36.5
20
16.6168596157572
30
0
41
1
10
-36.5
20
16.4314438788638
30
0
41
1
10
-36.5
20
16.2414991337765
30
0
41
1
10
-36.5
20
16.097474719741
30
0
41
1
10
-36.5
20
15.9516616651348
30
0
41
1
10
-36.5
20
15.7545445351489
30
0
41
1
10
-36.5
20
15.5548613446891
30
0
41
1
10
-36.5
20
15.350663385132
30
0
41
1
10
-36.5
20
15.2219600388738
30
0
41
1
10
-36.5
20
15.1178164480938
30
0
41
1
10
-36.5
20
15.0130920883853
30
0
41
1
10
-36.5
20
14.8814910451208
30
0
41
1
10
-36.5
20
14.7216281332594
30
0
41
1
10
-36.5
20
14.5871530954062
30
0
41
1
10
-36.5
20
14.4783873813363
30
0
41
1
10
-36.5
20
14.3690494022437
30
0
41
1
10
-36.5
20
14.2317235183089
30
0
41
1
10
-36.5
20
14.0650028858775
30
0
41
1
10
-36.5
20
13.8965816080865
30
0
41
1
10
-36.5
20
13.7264689694465
30
0
41
1
10
-36.5
20
13.5546710496343
30
0
41
1
10
-36.5
20
13.3811910773122
30
0
41
1
10
-36.5
20
13.2060373742644
30
0
41
1
10
-36.5
20
13.0292149133303
30
0
41
1
10
-36.5
20
12.850728177302
30
0
41
1
10
-36.5
20
12.6705857874604
30
0
41
1
10
-36.5
20
12.4887914218501
30
0
41
1
10
-36.5
20
12.3053503484466
30
0
41
1
10
-36.5
20
12.1202706879328
30
0
41
1
10
-36.5
20
11.9335555855444
30
0
41
1
10
-36.5
20
11.6819759204348
30
0
41
1
10
-36.5
20
11.4285505376587
30
0
41
1
10
-36.5
20
11.1704660874499
30
0
41
1
10
-36.5
20
10.9756651586938
30
0
41
1
10
-36.5
20
10.7792636737398
30
0
41
1
10
-36.5
20
10.5812696725585
30
0
41
1
10
-36.5
20
10.3816871154457
30
0
41
1
10
-36.5
20
10.180523710493
30
0
41
1
10
-36.5
20
9.9777855843503
30
0
41
1
10
-36.5
20
9.70483576808863
30
0
41
1
10
-36.5
20
9.36101276272154
30
0
41
1
10
-36.5
20
8.94153438933262
30
0
41
1
10
-36.5
20
8.58745787193689
30
0
41
1
10
-36.5
20
8.30004464023602
30
0
41
1
10
-36.5
20
8.08346950394392
30
0
41
1
10
-36.5
20
7.86540102208474
30
0
41
1
10
-36.5
20
7.64585131899614
30
0
41
1
10
-36.5
20
7.42483318088833
30
0
41
1
10
-36.5
20
7.20235735193418
30
0
41
1
10
-36.5
20
6.97843755879967
30
0
41
1
10
-36.5
20
6.75308981071325
30
0
41
1
10
-36.5
20
6.52633035082275
30
0
41
1
10
-36.5
20
6.29817753233076
30
0
41
1
10
-36.5
20
6.06865022444896
30
0
41
1
10
-36.5
20
5.83776884649418
30
0
41
1
10
-36.5
20
5.60555660448861
30
0
41
1
10
-36.5
20
5.37203985998678
30
0
41
1
10
-36.5
20
5.13724579696884
30
0
41
1
10
-36.5
20
4.90120595303733
30
0
41
1
10
-36.5
20
4.70396583147405
30
0
41
1
10
-36.5
20
4.54469638576828
30
0
41
1
10
-36.5
20
4.42533999597057
30
0
41
1
10
-36.5
20
4.30569972295402
30
0
41
1
10
-36.5
20
4.14529336499854
30
0
41
1
10
-36.5
20
3.94531865595207
30
0
41
1
10
-36.5
20
3.74444957084984
30
0
41
1
10
-36.5
20
3.58224076117995
30
0
41
1
10
-36.5
20
3.46078958963511
30
0
41
1
10
-36.5
20
3.33910702605107
30
0
41
1
10
-36.5
20
3.17597085922344
30
0
41
1
10
-36.5
20
3.01425651604552
30
0
41
1
10
-36.5
20
2.85023149996007
30
0
41
1
10
-36.5
20
2.72752154931175
30
0
41
1
10
-36.5
20
2.60463052157442
30
0
41
1
10
-36.5
20
2.48157378937663
30
0
41
1
10
-36.5
20
2.35835621123036
30
0
41
1
10
-36.5
20
2.23499061660055
30
0
41
1
10
-36.5
20
2.11148761081347
30
0
41
1
10
-36.5
20
1.9878545152765
30
0
41
1
10
-36.5
20
1.86410632124097
30
0
41
1
10
-36.5
20
1.74024827700825
30
0
41
1
10
-36.5
20
1.61629526151512
30
0
41
1
10
-36.5
20
1.49225310041959
30
0
41
1
10
-36.5
20
1.3681347814894
30
0
41
1
10
-36.5
20
1.2439473222278
30
0
41
1
10
-36.5
20
1.11970117534864
30
0
41
1
10
-36.5
20
0.995403485642782
30
0
41
1
10
-36.5
20
0.8710629170684
30
0
41
1
10
-36.5
20
0.746686102657719
30
0
41
1
10
-36.5
20
0.622280124115576
30
0
41
1
10
-36.5
20
0.497850420758397
30
0
41
1
10
-36.5
20
0.373402935182185
30
0
41
1
10
-36.5
20
0.248942238793177
30
0
41
1
10
-36.5
20
0.124473257200918
30
0
41
1
10
-36.5
20
9.2462358E-09
30
0
41
1
10
-36.5
20
-0.124473254673973
30
0
41
1
10
-36.5
20
-0.248942266430618
30
0
41
1
10
-36.5
20
-0.373402960091397
30
0
41
1
10
-36.5
20
-0.497850400790554
30
0
41
1
10
-36.5
20
-0.622280094010847
30
0
41
1
10
-36.5
20
-0.746686131491799
30
0
41
1
10
-36.5
20
-0.871062970095124
30
0
41
1
10
-36.5
20
-0.995403468230791
30
0
41
1
10
-36.5
20
-1.11970111692671
30
0
41
1
10
-36.5
20
-1.2439473407681
30
0
41
1
10
-36.5
20
-1.36813486147517
30
0
41
1
10
-36.5
20
-1.49225310642996
30
0
41
1
10
-36.5
20
-1.61629518356963
30
0
41
1
10
-36.5
20
-1.74024825464127
30
0
41
1
10
-36.5
20
-1.86410640329151
30
0
41
1
10
-36.5
20
-1.98785458048855
30
0
41
1
10
-36.5
20
-2.11148756075909
30
0
41
1
10
-36.5
20
-2.2349905278607
30
0
41
1
10
-36.5
20
-2.3583562279822
30
0
41
1
10
-36.5
20
-2.48157389743915
30
0
41
1
10
-36.5
20
-2.60463057106841
30
0
41
1
10
-36.5
20
-2.72752148004804
30
0
41
1
10
-36.5
20
-2.8502314065623
30
0
41
1
10
-36.5
20
-3.01425656877106
30
0
41
1
10
-36.5
20
-3.17597095993784
30
0
41
1
10
-36.5
20
-3.33910698167958
30
0
41
1
10
-36.5
20
-3.46078948211164
30
0
41
1
10
-36.5
20
-3.58224072191865
30
0
41
1
10
-36.5
20
-3.74444967050349
30
0
41
1
10
-36.5
20
-3.94531869048151
30
0
41
1
10
-36.5
20
-4.14529326648051
30
0
41
1
10
-36.5
20
-4.30569969171859
30
0
41
1
10
-36.5
20
-4.42534006396792
30
0
41
1
10
-36.5
20
-4.54469650094606
30
0
41
1
10
-36.5
20
-4.70396584910503
30
0
41
1
10
-36.5
20
-4.90120586463618
30
0
41
1
10
-36.5
20
-5.1372458114655
30
0
41
1
10
-36.5
20
-5.37203995090806
30
0
41
1
10
-36.5
20
-5.6055565552935
30
0
41
1
10
-36.5
20
-5.83776875015036
30
0
41
1
10
-36.5
20
-6.06865017711209
30
0
41
1
10
-36.5
20
-6.29817748211653
30
0
41
1
10
-36.5
20
-6.52633051401983
30
0
41
1
10
-36.5
20
-6.75309051279777
30
0
41
1
10
-36.5
20
-6.97843834484934
30
0
41
1
10
-36.5
20
-7.20235684280951
30
0
41
1
10
-36.5
20
-7.42483229470756
30
0
41
1
10
-36.5
20
-7.64585158611578
30
0
41
1
10
-36.5
20
-7.86540128403743
30
0
41
1
10
-36.5
20
-8.08346945831602
30
0
41
1
10
-36.5
20
-8.3000445299389
30
0
41
1
10
-36.5
20
-8.58745782596952
30
0
41
1
10
-36.5
20
-8.94153442741853
30
0
41
1
10
-36.5
20
-9.36101273737586
30
0
41
1
10
-36.5
20
-9.70483575174822
30
0
41
1
10
-36.5
20
-9.97778564072317
30
0
41
1
10
-36.5
20
-10.18052371466
30
0
41
1
10
-36.5
20
-10.3816870614505
30
0
41
1
10
-36.5
20
-10.5812696339219
30
0
41
1
10
-36.5
20
-10.7792636942327
30
0
41
1
10
-36.5
20
-10.9756652058486
30
0
41
1
10
-36.5
20
-11.1704660987636
30
0
41
1
10
-36.5
20
-11.4285504962004
30
0
41
1
10
-36.5
20
-11.6819759007756
30
0
41
1
10
-36.5
20
-11.9335556252714
30
0
41
1
10
-36.5
20
-12.1202707134412
30
0
41
1
10
-36.5
20
-12.3053503320752
30
0
41
1
10
-36.5
20
-12.4887913848281
30
0
41
1
10
-36.5
20
-12.6705857704289
30
0
41
1
10
-36.5
20
-12.8507281979538
30
0
41
1
10
-36.5
20
-13.0292149436136
30
0
41
1
10
-36.5
20
-13.2060373895955
30
0
41
1
10
-36.5
20
-13.3811911431361
30
0
41
1
10
-36.5
20
-13.5546713888901
30
0
41
1
10
-36.5
20
-13.7264696827893
30
0
41
1
10
-36.5
20
-13.9536769173599
30
0
41
1
10
-36.5
20
-14.176348576809
30
0
41
1
10
-36.5
20
-14.3967384349213
30
0
41
1
10
-36.5
20
-14.6148460432235
30
0
41
1
10
-36.5
20
-14.8284315021107
30
0
41
1
10
-36.5
20
-15.0396227184095
30
0
41
1
10
-36.5
20
-15.1960147192182
30
0
41
1
10
-36.5
20
-15.3506631330603
30
0
41
1
10
-36.5
20
-15.5548624364723
30
0
41
1
10
-36.5
20
-15.7545451164335
30
0
41
1
10
-36.5
20
-15.9516609547094
30
0
41
1
10
-36.5
20
-16.0974737380165
30
0
41
1
10
-36.5
20
-16.241498813278
30
0
41
1
10
-36.5
20
-16.4314450331352
30
0
41
1
10
-36.5
20
-16.6168608854212
30
0
41
1
10
-36.5
20
-16.7995343923805
30
0
41
1
10
-36.5
20
-16.9344844206004
30
0
41
1
10
-36.5
20
-17.0675955495037
30
0
41
1
10
-36.5
20
-17.2428947983014
30
0
41
1
10
-36.5
20
-17.4136313821348
30
0
41
1
10
-36.5
20
-17.5814422063202
30
0
41
1
10
-36.5
20
-17.7052052466277
30
0
41
1
10
-36.5
20
-17.827069915531
30
0
41
1
10
-36.5
20
-17.9872703841193
30
0
41
1
10
-36.5
20
-18.1428562465544
30
0
41
1
10
-36.5
20
-18.2953166794047
30
0
41
1
10
-36.5
20
-18.4075180436267
30
0
41
1
10
-36.5
20
-18.5177535555592
30
0
41
1
10
-36.5
20
-18.6623326618876
30
0
41
1
10
-36.5
20
-18.8022222651529
30
0
41
1
10
-36.5
20
-18.9387686023437
30
0
41
1
10
-36.5
20
-19.0389739868785
30
0
41
1
10
-36.5
20
-19.1371342717784
30
0
41
1
10
-36.5
20
-19.2332339353276
30
0
41
1
10
-36.5
20
-19.3272562516113
30
0
41
1
10
-36.5
20
-19.4191882978898
30
0
41
1
10
-36.5
20
-19.5090135437133
30
0
41
1
10
-36.5
20
-19.5967148362678
30
0
41
1
10
-36.5
20
-19.6822775521962
30
0
41
1
10
-36.5
20
-19.7656833992675
30
0
41
1
10
-36.5
20
-19.8469141406672
30
0
41
1
10
-36.5
20
-19.9259535527381
30
0
41
1
10
-36.5
20
-20.0027815100322
30
0
41
1
10
-36.5
20
-20.1024193061391
30
0
41
1
10
-36.5
20
-20.1970436522849
30
0
41
1
10
-36.5
20
-20.287589681624
30
0
41
1
10
-36.5
20
-20.353062816238
30
0
41
1
10
-36.5
20
-20.4161996091986
30
0
41
1
10
-36.5
20
-20.4769783724375
30
0
41
1
10
-36.5
20
-20.5353747607017
30
0
41
1
10
-36.5
20
-20.6101652553123
30
0
41
1
10
-36.5
20
-20.6796864153796
30
0
41
1
10
-36.5
20
-20.7446292080422
30
0
41
1
10
-36.5
20
-20.7907268231738
30
0
41
1
10
-36.5
20
-20.8342802793506
30
0
41
1
10
-36.5
20
-20.8890285523336
30
0
41
1
10
-36.5
20
-20.9382580424269
30
0
41
1
10
-36.5
20
-20.9824409225429
30
0
41
1
10
-36.5
20
-21.0128017234864
30
0
41
1
10
-36.5
20
-21.0404207944711
30
0
41
1
10
-36.5
20
-21.0652596303332
30
0
41
1
10
-36.5
20
-21.0872797892674
30
0
41
1
10
-36.5
20
-21.1064402531507
30
0
41
1
10
-36.5
20
-21.1226986516191
30
0
41
1
10
-36.5
20
-21.1360112646484
30
0
41
1
10
-36.5
20
-21.1463317710584
30
0
41
1
10
-36.5
20
-21.1536128319466
30
0
41
1
10
-36.5
20
-21.1578041644649
30
0
41
1
10
-36.5
20
-21.1588543296933
30
0
41
1
10
-36.5
20
-21.1573189709243
30
0
41
1
10
-36.5
20
-21.1557860277365
30
0
41
1
10
-36.5
20
-21.1555781576959
30
0
0
SPLINE
5
182
100
AcDbEntity
8
SK1
62
256
6
ByLayer
370
18
48
1
60
0
100
AcDbSpline
70
4
71
3
72
22
73
18
40
0
40
0
40
0
40
0
40
0.038427246458711
40
0.038427246458711
40
0.0775026456766427
40
0.0775026456766427
40
0.106475059033524
40
0.106475059033524
40
0.135305917881828
40
0.135305917881828
40
0.182167074412018
40
0.182167074412018
40
0.275660663800869
40
0.275660663800869
40
0.616530102228659
40
0.616530102228659
40
1
40
1
40
1
40
1
41
1
10
-0.394976888875306
20
-6.32694279392757
30
0
41
1
10
-0.414867561016194
20
-6.34445862132063
30
0
41
1
10
-0.436644357284194
20
-6.36058691921457
30
0
41
1
10
-0.484524151203374
20
-6.3868168818706
30
0
41
1
10
-0.511419954277358
20
-6.39702622866628
30
0
41
1
10
-0.560078773491597
20
-6.40490957850619
30
0
41
1
10
-0.58185248496946
20
-6.40512642059926
30
0
41
1
10
-0.623683911276856
20
-6.39912423041605
30
0
41
1
10
-0.644207278837683
20
-6.39293597600829
30
0
41
1
10
-0.694134540330907
20
-6.37121870092642
30
0
41
1
10
-0.722113964046542
20
-6.35215911803172
30
0
41
1
10
-0.796598131612939
20
-6.28903777408343
30
0
41
1
10
-0.836555557792792
20
-6.23798237717094
30
0
41
1
10
-0.997773060879837
20
-5.995390913813
30
0
41
1
10
-1.07178904300878
20
-5.77805690787602
30
0
41
1
10
-1.20827315239353
20
-5.31693201445015
30
0
41
1
10
-1.26212533694985
20
-5.06551762472202
30
0
41
1
10
-1.30710678118655
20
-4.81101321788441
30
0
0
SPLINE
5
183
100
AcDbEntity
8
SK1
62
256
6
ByLayer
370
18
48
1
60
0
100
AcDbSpline
70
4
71
3
72
22
73
18
40
0
40
0
40
0
40
0
40
0.025518692999354
40
0.025518692999354
40
0.0515625307794633
40
0.0515625307794633
40
0.0689220502117165
40
0.0689220502117165
40
0.0862030429090035
40
0.0862030429090035
40
0.113761926258803
40
0.113761926258803
40
0.167639902693809
40
0.167639902693809
40
0.357269752158031
40
0.357269752158031
40
1
40
1
40
1
40
1
41
1
10
-0.394976888875277
20
6.326943090669
30
0
41
1
10
-0.389699799773268
20
6.32229605774103
30
0
41
1
10
-0.38394554029108
20
6.31808234313019
30
0
41
1
10
-0.371336208800898
20
6.31155719556298
30
0
41
1
10
-0.364237316839024
20
6.30923328231674
30
0
41
1
10
-0.35209572007625
20
6.30844589498398
30
0
41
1
10
-0.347038791108759
20
6.3089739150856
30
0
41
1
10
-0.337436838154161
20
6.31166640764118
30
0
41
1
10
-0.332782752688161
20
6.31383711710231
30
0
41
1
10
-0.321723955926899
20
6.32078578121266
30
0
41
1
10
-0.315689795621665
20
6.32640446307903
30
0
41
1
10
-0.300083216036057
20
6.3442802085479
30
0
41
1
10
-0.292057158925616
20
6.35806878925098
30
0
41
1
10
-0.261294067338724
20
6.42092251611513
30
0
41
1
10
-0.248999237994838
20
6.47445017323312
30
0
41
1
10
-0.204624309665832
20
6.70435570668306
30
0
41
1
10
-0.200000000000955
20
6.88379158154922
30
0
41
1
10
-0.200000000000955
20
7.05951756777665
30
0
0
SPLINE
5
184
100
AcDbEntity
8
SK1
62
256
6
ByLayer
370
18
48
1
60
0
100
AcDbSpline
70
4
71
3
72
115
73
111
40
0
40
0
40
0
40
0
40
0.0065652141043918
40
0.0151093818780847
40
0.0236535496517776
40
0.0321977174254705
40
0.0407418851991634
40
0.0492860529728563
40
0.0578302207465492
40
0.0663743885202421
40
0.0834627240676279
40
0.100551059615014
40
0.1176393951624
40
0.126183562936092
40
0.134727730709785
40
0.143271898483478
40
0.151816066257171
40
0.168904401804557
40
0.17744856957825
40
0.185992737351943
40
0.194536905125636
40
0.203081072899329
40
0.211625240673021
40
0.220169408446714
40
0.2372577439941
40
0.245801911767793
40
0.254346079541486
40
0.262890247315179
40
0.271434415088872
40
0.279978582862565
40
0.288522750636257
40
0.29706691840995
40
0.305611086183643
40
0.314155253957336
40
0.322699421731029
40
0.331243589504722
40
0.339787757278415
40
0.348331925052108
40
0.356876092825801
40
0.373964428373186
40
0.382508596146879
40
0.391052763920572
40
0.395324847807419
40
0.399596931694265
40
0.408141099467958
40
0.425229435015344
40
0.433773602789037
40
0.44231777056273
40
0.450861938336423
40
0.459406106110116
40
0.476494441657501
40
0.485038609431194
40
0.493582777204887
40
0.497854861091733
40
0.50212694497858
40
0.510671112752273
40
0.527759448299659
40
0.536303616073352
40
0.544847783847044
40
0.553391951620737
40
0.56193611939443
40
0.579024454941816
40
0.587568622715509
40
0.596112790489202
40
0.600384874376048
40
0.604656958262895
40
0.613201126036588
40
0.62174529381028
40
0.630289461583973
40
0.63456154547082
40
0.638833629357666
40
0.647377797131359
40
0.655921964905052
40
0.664466132678745
40
0.673010300452438
40
0.681554468226131
40
0.690098635999824
40
0.698642803773517
40
0.707186971547209
40
0.715731139320902
40
0.724275307094595
40
0.732819474868288
40
0.741363642641981
40
0.749907810415674
40
0.758451978189367
40
0.76699614596306
40
0.784084481510446
40
0.792628649284138
40
0.801172817057831
40
0.809716984831524
40
0.818261152605217
40
0.82680532037891
40
0.835349488152603
40
0.843893655926296
40
0.852437823699989
40
0.869526159247375
40
0.88661449479476
40
0.903702830342146
40
0.912246998115839
40
0.920791165889532
40
0.929335333663225
40
0.937879501436918
40
0.946423669210611
40
0.954967836984304
40
0.963512004757996
40
0.972056172531689
40
0.980600340305382
40
0.989144508079075
40
0.997688675852768
40
1
40
1
40
1
40
1
41
1
10
-0.394976888875277
20
21.8653790905946
30
0
41
1
10
-0.394976888875277
20
21.8653285666001
30
0
41
1
10
-0.394976888875306
20
21.8644673812594
30
0
41
1
10
-0.394976888875277
20
21.8604737650697
30
0
41
1
10
-0.394976888875277
20
21.8529598769268
30
0
41
1
10
-0.394976888875277
20
21.8423149188875
30
0
41
1
10
-0.394976888875277
20
21.8285907137819
30
0
41
1
10
-0.394976888875277
20
21.8118377229246
30
0
41
1
10
-0.394976888875277
20
21.7921034347989
30
0
41
1
10
-0.394976888875277
20
21.7618666429643
30
0
41
1
10
-0.394976888875277
20
21.7168668922192
30
0
41
1
10
-0.394976888875277
20
21.651618462036
30
0
41
1
10
-0.394976888875277
20
21.5881524120742
30
0
41
1
10
-0.394976888875277
20
21.5320229149808
30
0
41
1
10
-0.394976888875277
20
21.4873092663299
30
0
41
1
10
-0.394976888875277
20
21.4399968711307
30
0
41
1
10
-0.394976888875277
20
21.3734709387681
30
0
41
1
10
-0.394976888875277
20
21.3019320664004
30
0
41
1
10
-0.394976888875277
20
21.2253664719936
30
0
41
1
10
-0.394976888875277
20
21.1655031445011
30
0
41
1
10
-0.394976888875277
20
21.1032108723211
30
0
41
1
10
-0.394976888875277
20
21.038514297088
30
0
41
1
10
-0.394976888875277
20
20.9714364994015
30
0
41
1
10
-0.394976888875277
20
20.8788308563806
30
0
41
1
10
-0.394976888875277
20
20.7816354627076
30
0
41
1
10
-0.394976888875277
20
20.6797749496461
30
0
41
1
10
-0.394976888875277
20
20.6011280536546
30
0
41
1
10
-0.394976888875277
20
20.5202292190253
30
0
41
1
10
-0.394976888875277
20
20.4370981008412
30
0
41
1
10
-0.394976888875277
20
20.3517517634561
30
0
41
1
10
-0.394976888875277
20
20.2642094206366
30
0
41
1
10
-0.394976888875277
20
20.1744885542463
30
0
41
1
10
-0.394976888875277
20
20.082604770276
30
0
41
1
10
-0.394976888875277
20
19.9885758834751
30
0
41
1
10
-0.394976888875277
20
19.8924175863555
30
0
41
1
10
-0.394976888875277
20
19.79414426657
30
0
41
1
10
-0.394976888875277
20
19.6937723311917
30
0
41
1
10
-0.394976888875277
20
19.5913158900225
30
0
41
1
10
-0.394976888875277
20
19.4519091739392
30
0
41
1
10
-0.394976888875277
20
19.308501644014
30
0
41
1
10
-0.394976888875277
20
19.160920630363
30
0
41
1
10
-0.394976888875277
20
19.0670441229991
30
0
41
1
10
-0.394976888875277
20
18.9909051568102
30
0
41
1
10
-0.394976888875277
20
18.9140993494365
30
0
41
1
10
-0.394976888875277
20
18.777958735224
30
0
41
1
10
-0.394976888875277
20
18.6185131846482
30
0
41
1
10
-0.394976888875277
20
18.4550236113311
30
0
41
1
10
-0.394976888875277
20
18.330489335967
30
0
41
1
10
-0.394976888875277
20
18.2040166079408
30
0
41
1
10
-0.394976888875277
20
18.0327705937831
30
0
41
1
10
-0.394976888875277
20
17.8578219077773
30
0
41
1
10
-0.394976888875277
20
17.6789387292296
30
0
41
1
10
-0.394976888875277
20
17.5656125946474
30
0
41
1
10
-0.394976888875277
20
17.4739690253912
30
0
41
1
10
-0.394976888875277
20
17.3816993239948
30
0
41
1
10
-0.394976888875277
20
17.2186048360495
30
0
41
1
10
-0.394976888875277
20
17.0286078387926
30
0
41
1
10
-0.394976888875277
20
16.8347647509306
30
0
41
1
10
-0.394976888875277
20
16.6875786248762
30
0
41
1
10
-0.394976888875277
20
16.5385587049943
30
0
41
1
10
-0.394976888875277
20
16.3373774066279
30
0
41
1
10
-0.394976888875277
20
16.1327150774874
30
0
41
1
10
-0.394976888875277
20
15.9242804112408
30
0
41
1
10
-0.394976888875277
20
15.7925696820839
30
0
41
1
10
-0.394976888875277
20
15.6862549949744
30
0
41
1
10
-0.394976888875277
20
15.5793432837569
30
0
41
1
10
-0.394976888875277
20
15.4446487492657
30
0
41
1
10
-0.394976888875277
20
15.2812010193763
30
0
41
1
10
-0.394976888875277
20
15.1435436982815
30
0
41
1
10
-0.394976888875277
20
15.0324801920763
30
0
41
1
10
-0.394976888875277
20
14.9208273816877
30
0
41
1
10
-0.394976888875277
20
14.7802248596231
30
0
41
1
10
-0.394976888875277
20
14.6097059483473
30
0
41
1
10
-0.394976888875277
20
14.4374320816019
30
0
41
1
10
-0.394976888875277
20
14.2634095816694
30
0
41
1
10
-0.394976888875277
20
14.0876420714538
30
0
41
1
10
-0.394976888875277
20
13.9101338497815
30
0
41
1
10
-0.394976888875277
20
13.7308904366346
30
0
41
1
10
-0.394976888875277
20
13.549915145406
30
0
41
1
10
-0.394976888875277
20
13.3672125481811
30
0
41
1
10
-0.394976888875277
20
13.182787463215
30
0
41
1
10
-0.394976888875277
20
12.9966426140257
30
0
41
1
10
-0.394976888875277
20
12.8087826212334
30
0
41
1
10
-0.394976888875277
20
12.6192114742801
30
0
41
1
10
-0.394976888875277
20
12.4279318017785
30
0
41
1
10
-0.394976888875277
20
12.1705475891153
30
0
41
1
10
-0.394976888875277
20
11.9099848332047
30
0
41
1
10
-0.394976888875277
20
11.6458042855523
30
0
41
1
10
-0.394976888875277
20
11.4460361066677
30
0
41
1
10
-0.394976888875277
20
11.2445799083311
30
0
41
1
10
-0.394976888875277
20
11.0414389105764
30
0
41
1
10
-0.394976888875277
20
10.8366153761928
30
0
41
1
10
-0.394976888875277
20
10.630113157504
30
0
41
1
10
-0.394976888875277
20
10.4219344610486
30
0
41
1
10
-0.394976888875277
20
10.1420454829465
30
0
41
1
10
-0.394976888875277
20
9.78821091215369
30
0
41
1
10
-0.394976888875277
20
9.3568391135907
30
0
41
1
10
-0.394976888875277
20
8.99192950801697
30
0
41
1
10
-0.394976888875277
20
8.69651812098675
30
0
41
1
10
-0.394976888875277
20
8.47338949471808
30
0
41
1
10
-0.394976888875277
20
8.24861627222975
30
0
41
1
10
-0.394976888875277
20
8.0222029406992
30
0
41
1
10
-0.394976888875277
20
7.79415362199521
30
0
41
1
10
-0.394976888875277
20
7.56447255210355
30
0
41
1
10
-0.394976888875277
20
7.33316516004027
30
0
41
1
10
-0.394976888875277
20
7.10023725398264
30
0
41
1
10
-0.394976888875277
20
6.86569504295815
30
0
41
1
10
-0.394976888875277
20
6.62954558311137
30
0
41
1
10
-0.394976888875277
20
6.44960786563362
30
0
41
1
10
-0.394976888875277
20
6.34849183540922
30
0
41
1
10
-0.394976888875277
20
6.32694309067119
30
0
0
SPLINE
5
185
100
AcDbEntity
8
SK1
62
256
6
ByLayer
370
18
48
1
60
0
100
AcDbSpline
70
4
71
3
72
299
73
295
40
0
40
0
40
0
40
0
40
0.0029478127915962
40
0.0064728864292889
40
0.0099979600669815
40
0.0135230337046742
40
0.0170481073423668
40
0.0205731809800594
40
0.024098254617752
40
0.0276233282554447
40
0.0346734755308299
40
0.0417236228062152
40
0.0487737700816004
40
0.052298843719293
40
0.0558239173569857
40
0.0593489909946783
40
0.0628740646323709
40
0.0699242119077562
40
0.0734492855454488
40
0.0769743591831414
40
0.080499432820834
40
0.0840245064585267
40
0.0875495800962193
40
0.091074653733912
40
0.0981248010092972
40
0.10164987464699
40
0.105174948284682
40
0.108700021922375
40
0.112225095560068
40
0.11575016919776
40
0.119275242835453
40
0.122800316473146
40
0.126325390110838
40
0.129850463748531
40
0.133375537386223
40
0.136900611023916
40
0.140425684661609
40
0.143950758299301
40
0.147475831936994
40
0.154525979212379
40
0.158051052850072
40
0.161576126487764
40
0.163338663306611
40
0.165101200125457
40
0.16862627376315
40
0.175676421038535
40
0.179201494676228
40
0.18272656831392
40
0.186251641951613
40
0.189776715589306
40
0.196826862864691
40
0.200351936502383
40
0.203877010140076
40
0.205639546958922
40
0.207402083777769
40
0.210927157415461
40
0.217977304690847
40
0.221502378328539
40
0.225027451966232
40
0.228552525603924
40
0.232077599241617
40
0.239127746517002
40
0.242652820154695
40
0.246177893792388
40
0.247940430611234
40
0.24970296743008
40
0.253228041067773
40
0.256753114705466
40
0.260278188343158
40
0.262040725162004
40
0.263803261980851
40
0.267328335618543
40
0.270853409256236
40
0.274378482893929
40
0.277903556531621
40
0.281428630169314
40
0.284953703807007
40
0.288478777444699
40
0.292003851082392
40
0.295528924720084
40
0.299053998357777
40
0.30257907199547
40
0.306104145633162
40
0.309629219270855
40
0.313154292908548
40
0.31667936654624
40
0.323729513821625
40
0.327254587459318
40
0.330779661097011
40
0.334304734734703
40
0.337829808372396
40
0.341354882010089
40
0.344879955647781
40
0.348405029285474
40
0.351930102923166
40
0.358980250198552
40
0.366030397473937
40
0.373080544749322
40
0.376605618387015
40
0.380130692024707
40
0.3836557656624
40
0.387180839300093
40
0.390705912937785
40
0.394230986575478
40
0.39775606021317
40
0.401281133850863
40
0.404806207488556
40
0.408331281126249
40
0.411856354763941
40
0.415381428401634
40
0.418906502039326
40
0.422431575677019
40
0.425956649314712
40
0.429481722952404
40
0.433006796590097
40
0.434769333408943
40
0.43653187022779
40
0.438294407046636
40
0.440056943865482
40
0.443582017503175
40
0.447107091140867
40
0.448869627959714
40
0.45063216477856
40
0.452394701597406
40
0.454157238416253
40
0.457682312053945
40
0.459444848872792
40
0.461207385691638
40
0.462969922510484
40
0.46473245932933
40
0.466494996148177
40
0.468257532967023
40
0.470020069785869
40
0.471782606604716
40
0.473545143423562
40
0.475307680242408
40
0.477070217061255
40
0.478832753880101
40
0.480595290698947
40
0.482357827517794
40
0.48412036433664
40
0.485882901155486
40
0.487645437974333
40
0.489407974793179
40
0.491170511612025
40
0.492933048430872
40
0.494695585249718
40
0.496458122068564
40
0.498220658887411
40
0.499983195706257
40
0.501745732525103
40
0.503508269343949
40
0.505270806162796
40
0.507033342981642
40
0.508795879800488
40
0.510558416619335
40
0.512320953438181
40
0.514083490257027
40
0.515846027075874
40
0.51760856389472
40
0.519371100713566
40
0.521133637532412
40
0.522896174351259
40
0.524658711170105
40
0.526421247988952
40
0.528183784807798
40
0.529946321626644
40
0.531708858445491
40
0.533471395264337
40
0.535233932083183
40
0.536996468902029
40
0.538759005720876
40
0.540521542539722
40
0.542284079358568
40
0.545809152996261
40
0.547571689815107
40
0.549334226633954
40
0.5510967634528
40
0.552859300271646
40
0.556384373909339
40
0.559909447547031
40
0.561671984365878
40
0.563434521184724
40
0.56519705800357
40
0.566959594822417
40
0.570484668460109
40
0.574009742097802
40
0.577534815735495
40
0.581059889373187
40
0.58458496301088
40
0.588110036648572
40
0.591635110286265
40
0.595160183923958
40
0.59868525756165
40
0.602210331199343
40
0.605735404837036
40
0.609260478474728
40
0.612785552112421
40
0.616310625750113
40
0.619835699387806
40
0.623360773025499
40
0.626885846663191
40
0.633935993938576
40
0.640986141213962
40
0.648036288489347
40
0.65156136212704
40
0.655086435764732
40
0.658611509402425
40
0.662136583040118
40
0.66566165667781
40
0.669186730315503
40
0.672711803953195
40
0.676236877590888
40
0.683287024866273
40
0.686812098503966
40
0.690337172141659
40
0.693862245779351
40
0.697387319417044
40
0.700912393054737
40
0.704437466692429
40
0.707962540330122
40
0.711487613967814
40
0.715012687605507
40
0.718537761243199
40
0.722062834880892
40
0.725587908518585
40
0.73263805579397
40
0.736163129431663
40
0.739688203069356
40
0.746738350344741
40
0.750263423982433
40
0.753788497620126
40
0.757313571257819
40
0.760838644895511
40
0.767888792170897
40
0.771413865808589
40
0.774938939446282
40
0.778464013083974
40
0.781989086721667
40
0.789039233997052
40
0.792564307634745
40
0.796089381272437
40
0.79961445491013
40
0.803139528547823
40
0.810189675823208
40
0.813714749460901
40
0.817239823098593
40
0.820764896736286
40
0.824289970373978
40
0.831340117649364
40
0.834865191287057
40
0.838390264924749
40
0.841915338562442
40
0.845440412200134
40
0.85249055947552
40
0.856015633113212
40
0.859540706750905
40
0.863065780388597
40
0.86659085402629
40
0.870115927663983
40
0.873641001301675
40
0.877166074939368
40
0.880691148577061
40
0.884216222214753
40
0.887741295852446
40
0.891266369490138
40
0.894791443127831
40
0.898316516765524
40
0.901841590403216
40
0.908891737678602
40
0.912416811316294
40
0.915941884953987
40
0.919466958591679
40
0.922992032229372
40
0.926517105867065
40
0.930042179504757
40
0.937092326780143
40
0.940617400417835
40
0.944142474055528
40
0.94766754769322
40
0.951192621330913
40
0.958242768606298
40
0.961767842243991
40
0.965292915881684
40
0.968817989519376
40
0.972343063157069
40
0.975868136794761
40
0.979393210432454
40
0.982918284070147
40
0.986443357707839
40
0.989968431345532
40
0.993493504983225
40
0.997018578620917
40
1
40
1
40
1
40
1
41
1
10
-38
20
20.2923486466193
30
0
41
1
10
-38
20
20.2923550753914
30
0
41
1
10
-38
20
20.2915870154396
30
0
41
1
10
-38
20
20.2877827415225
30
0
41
1
10
-38
20
20.2807871950942
30
0
41
1
10
-38
20
20.270864225278
30
0
41
1
10
-38
20
20.2580557575388
30
0
41
1
10
-38
20
20.2424031034125
30
0
41
1
10
-38
20
20.2239454925533
30
0
41
1
10
-38
20
20.19551262204
30
0
41
1
10
-38
20
20.153458157969
30
0
41
1
10
-38
20
20.0921783324266
30
0
41
1
10
-38
20
20.0326760120608
30
0
41
1
10
-38
20
19.9796195423852
30
0
41
1
10
-38
20
19.9374871337363
30
0
41
1
10
-38
20
19.8928775037255
30
0
41
1
10
-38
20
19.8298739849263
30
0
41
1
10
-38
20
19.7628242930463
30
0
41
1
10
-38
20
19.6902080345968
30
0
41
1
10
-38
20
19.6336084813315
30
0
41
1
10
-38
20
19.5746836513967
30
0
41
1
10
-38
20
19.5134574775013
30
0
41
1
10
-38
20
19.4499498796239
30
0
41
1
10
-38
20
19.361926580552
30
0
41
1
10
-38
20
19.2704514952516
30
0
41
1
10
-38
20
19.1735363516591
30
0
41
1
10
-38
20
19.0989364266239
30
0
41
1
10
-38
20
19.0221745884206
30
0
41
1
10
-38
20
18.9432715601189
30
0
41
1
10
-38
20
18.8622425921487
30
0
41
1
10
-38
20
18.7791047356355
30
0
41
1
10
-38
20
18.6938772447032
30
0
41
1
10
-38
20
18.6065734364562
30
0
41
1
10
-38
20
18.5172096781029
30
0
41
1
10
-38
20
18.4258037757915
30
0
41
1
10
-38
20
18.3323676597213
30
0
41
1
10
-38
20
18.236917040573
30
0
41
1
10
-38
20
18.1394682315479
30
0
41
1
10
-38
20
18.006423045464
30
0
41
1
10
-38
20
17.870842154793
30
0
41
1
10
-38
20
17.7299440627733
30
0
41
1
10
-38
20
17.6408187485726
30
0
41
1
10
-38
20
17.5681131617785
30
0
41
1
10
-38
20
17.4947669133713
30
0
41
1
10
-38
20
17.3649201654158
30
0
41
1
10
-38
20
17.2140632768009
30
0
41
1
10
-38
20
17.0578935907134
30
0
41
1
10
-38
20
16.9392992293059
30
0
41
1
10
-38
20
16.8188549914818
30
0
41
1
10
-38
20
16.6552510003021
30
0
41
1
10
-38
20
16.489672496603
30
0
41
1
10
-38
20
16.3187666825072
30
0
41
1
10
-38
20
16.2111031772939
30
0
41
1
10
-38
20
16.1235473577608
30
0
41
1
10
-38
20
16.0353949417433
30
0
41
1
10
-38
20
15.8797855584285
30
0
41
1
10
-38
20
15.6999813794666
30
0
41
1
10
-38
20
15.5148116907138
30
0
41
1
10
-38
20
15.3746600384839
30
0
41
1
10
-38
20
15.2327750536327
30
0
41
1
10
-38
20
15.0406360987563
30
0
41
1
10
-38
20
14.8470518249568
30
0
41
1
10
-38
20
14.6480433816337
30
0
41
1
10
-38
20
14.5230237603812
30
0
41
1
10
-38
20
14.4215395322791
30
0
41
1
10
-38
20
14.319494446119
30
0
41
1
10
-38
20
14.1916826014269
30
0
41
1
10
-38
20
14.0362107113462
30
0
41
1
10
-38
20
13.905633632864
30
0
41
1
10
-38
20
13.7996824703933
30
0
41
1
10
-38
20
13.6931799140641
30
0
41
1
10
-38
20
13.5598675642285
30
0
41
1
10
-38
20
13.3977994204325
30
0
41
1
10
-38
20
13.2340971553998
30
0
41
1
10
-38
20
13.0687736820565
30
0
41
1
10
-38
20
12.9018380893652
30
0
41
1
10
-38
20
12.7332922951509
30
0
41
1
10
-38
20
12.5631480531082
30
0
41
1
10
-38
20
12.3914123687224
30
0
41
1
10
-38
20
12.2180896154105
30
0
41
1
10
-38
20
12.0431930727568
30
0
41
1
10
-38
20
11.8667275879997
30
0
41
1
10
-38
20
11.6886992220563
30
0
41
1
10
-38
20
11.5091211559413
30
0
41
1
10
-38
20
11.3279971676986
30
0
41
1
10
-38
20
11.0835274575533
30
0
41
1
10
-38
20
10.8388445996823
30
0
41
1
10
-38
20
10.5882272221232
30
0
41
1
10
-38
20
10.3995106478125
30
0
41
1
10
-38
20
10.2093006505112
30
0
41
1
10
-38
20
10.0176111741013
30
0
41
1
10
-38
20
9.82444825814403
30
0
41
1
10
-38
20
9.62982433363783
30
0
41
1
10
-38
20
9.43375032895256
30
0
41
1
10
-38
20
9.16930024978848
30
0
41
1
10
-38
20
8.83774034996793
30
0
41
1
10
-38
20
8.43283016067576
30
0
41
1
10
-38
20
8.09202302704495
30
0
41
1
10
-38
20
7.81440668711983
30
0
41
1
10
-38
20
7.60585888080689
30
0
41
1
10
-38
20
7.39600299493051
30
0
41
1
10
-38
20
7.18486050853949
30
0
41
1
10
-38
20
6.972454820743
30
0
41
1
10
-38
20
6.75880464755275
30
0
41
1
10
-38
20
6.54393387937549
30
0
41
1
10
-38
20
6.32787102064523
30
0
41
1
10
-38
20
6.11064460524281
30
0
41
1
10
-38
20
5.89228682406826
30
0
41
1
10
-38
20
5.67283049766701
30
0
41
1
10
-38
20
5.45231041402207
30
0
41
1
10
-38
20
5.2307661198837
30
0
41
1
10
-38
20
5.00824236668089
30
0
41
1
10
-38
20
4.78478453894905
30
0
41
1
10
-38
20
4.56044477194348
30
0
41
1
10
-38
20
4.3737593142329
30
0
41
1
10
-38
20
4.22222174308931
30
0
41
1
10
-38
20
4.10916467830541
30
0
41
1
10
-38
20
3.99593123757288
30
0
41
1
10
-38
20
3.84368490764803
30
0
41
1
10
-38
20
3.65544484289478
30
0
41
1
10
-38
20
3.46668355973628
30
0
41
1
10
-38
20
3.31336520651504
30
0
41
1
10
-38
20
3.19916977025284
30
0
41
1
10
-38
20
3.0848771849204
30
0
41
1
10
-38
20
2.93116533478539
30
0
41
1
10
-38
20
2.7810630459212
30
0
41
1
10
-38
20
2.62697343511894
30
0
41
1
10
-38
20
2.51237687493429
30
0
41
1
10
-38
20
2.39774974487253
30
0
41
1
10
-38
20
2.28311555219403
30
0
41
1
10
-38
20
2.16847618976473
30
0
41
1
10
-38
20
2.05384840107453
30
0
41
1
10
-38
20
1.93924458170406
30
0
41
1
10
-38
20
1.82466899171223
30
0
41
1
10
-38
20
1.71014121398446
30
0
41
1
10
-38
20
1.59566009898879
30
0
41
1
10
-38
20
1.48124309885608
30
0
41
1
10
-38
20
1.36688883878045
30
0
41
1
10
-38
20
1.25260906632701
30
0
41
1
10
-38
20
1.13840321986405
30
0
41
1
10
-38
20
1.02427614220741
30
0
41
1
10
-38
20
0.910225811803912
30
0
41
1
10
-38
20
0.796251800903974
30
0
41
1
10
-38
20
0.682349388495624
30
0
41
1
10
-38
20
0.568513483413511
30
0
41
1
10
-38
20
0.454735475948979
30
0
41
1
10
-38
20
0.341006791030111
30
0
41
1
10
-38
20
0.227315919379521
30
0
41
1
10
-38
20
0.113651444289076
30
0
41
1
10
-38
20
2.39307099E-08
30
0
41
1
10
-38
20
-0.113651428861147
30
0
41
1
10
-38
20
-0.227315965161807
30
0
41
1
10
-38
20
-0.341006831114754
30
0
41
1
10
-38
20
-0.454735424962735
30
0
41
1
10
-38
20
-0.568513412391525
30
0
41
1
10
-38
20
-0.682349437337052
30
0
41
1
10
-38
20
-0.796251898049235
30
0
41
1
10
-38
20
-0.910225765592202
30
0
41
1
10
-38
20
-1.02427601417025
30
0
41
1
10
-38
20
-1.13840324907633
30
0
41
1
10
-38
20
-1.25260921865757
30
0
41
1
10
-38
20
-1.36688883944314
30
0
41
1
10
-38
20
-1.48124293103632
30
0
41
1
10
-38
20
-1.59566004663384
30
0
41
1
10
-38
20
-1.71014137238996
30
0
41
1
10
-38
20
-1.82466911261432
30
0
41
1
10
-38
20
-1.93924446866484
30
0
41
1
10
-38
20
-2.05384821372689
30
0
41
1
10
-38
20
-2.16847621903287
30
0
41
1
10
-38
20
-2.28311576323418
30
0
41
1
10
-38
20
-2.39774983280105
30
0
41
1
10
-38
20
-2.51237672316307
30
0
41
1
10
-38
20
-2.62697323991799
30
0
41
1
10
-38
20
-2.78106315146928
30
0
41
1
10
-38
20
-2.93116552693385
30
0
41
1
10
-38
20
-3.08487708212581
30
0
41
1
10
-38
20
-3.19916954549007
30
0
41
1
10
-38
20
-3.31336512600546
30
0
41
1
10
-38
20
-3.46668375918677
30
0
41
1
10
-38
20
-3.65544489425085
30
0
41
1
10
-38
20
-3.84368470208372
30
0
41
1
10
-38
20
-3.99593117493791
30
0
41
1
10
-38
20
-4.10916481607396
30
0
41
1
10
-38
20
-4.22222196867938
30
0
41
1
10
-38
20
-4.37375933349006
30
0
41
1
10
-38
20
-4.56044458630845
30
0
41
1
10
-38
20
-4.78478457648492
30
0
41
1
10
-38
20
-5.00824253816086
30
0
41
1
10
-38
20
-5.23076600439052
30
0
41
1
10
-38
20
-5.45231022599046
30
0
41
1
10
-38
20
-5.67283041504652
30
0
41
1
10
-38
20
-5.89228674128222
30
0
41
1
10
-38
20
-6.11064496108523
30
0
41
1
10
-38
20
-6.32787239667013
30
0
41
1
10
-38
20
-6.54393525610644
30
0
41
1
10
-38
20
-6.75880334040127
30
0
41
1
10
-38
20
-6.97245311766207
30
0
41
1
10
-38
20
-7.18486111103374
30
0
41
1
10
-38
20
-7.39600347561742
30
0
41
1
10
-38
20
-7.60585874971361
30
0
41
1
10
-38
20
-7.8144064520111
30
0
41
1
10
-38
20
-8.09202295752311
30
0
41
1
10
-38
20
-8.43283023540656
30
0
41
1
10
-38
20
-8.83774029355055
30
0
41
1
10
-38
20
-9.16930023887323
30
0
41
1
10
-38
20
-9.43375044009511
30
0
41
1
10
-38
20
-9.62982432960192
30
0
41
1
10
-38
20
-9.82444814962994
30
0
41
1
10
-38
20
-10.0176111126089
30
0
41
1
10
-38
20
-10.2093007057547
30
0
41
1
10
-38
20
-10.3995107409486
30
0
41
1
10
-38
20
-10.5882272324294
30
0
41
1
10
-38
20
-10.8388445170812
30
0
41
1
10
-38
20
-11.0835274377931
30
0
41
1
10
-38
20
-11.327997250045
30
0
41
1
10
-38
20
-11.5091211965041
30
0
41
1
10
-38
20
-11.6886991809046
30
0
41
1
10
-38
20
-11.8667275177687
30
0
41
1
10
-38
20
-12.0431930522803
30
0
41
1
10
-38
20
-12.2180896645831
30
0
41
1
10
-38
20
-12.3914124247035
30
0
41
1
10
-38
20
-12.5631480735019
30
0
41
1
10
-38
20
-12.7332924196477
30
0
41
1
10
-38
20
-12.9018387248249
30
0
41
1
10
-38
20
-13.068774902876
30
0
41
1
10
-38
20
-13.2899980003418
30
0
41
1
10
-38
20
-13.5056406071554
30
0
41
1
10
-38
20
-13.7202970548285
30
0
41
1
10
-38
20
-13.9327572918622
30
0
41
1
10
-38
20
-14.1397069500695
30
0
41
1
10
-38
20
-14.3454836148157
30
0
41
1
10
-38
20
-14.4976048095277
30
0
41
1
10
-38
20
-14.6480433741443
30
0
41
1
10
-38
20
-14.8470538575164
30
0
41
1
10
-38
20
-15.0406366439893
30
0
41
1
10
-38
20
-15.2327734637881
30
0
41
1
10
-38
20
-15.3746583733236
30
0
41
1
10
-38
20
-15.5148115582755
30
0
41
1
10
-38
20
-15.6999837411247
30
0
41
1
10
-38
20
-15.8797870255403
30
0
41
1
10
-38
20
-16.0578801048401
30
0
41
1
10
-38
20
-16.189216581434
30
0
41
1
10
-38
20
-16.3187661779867
30
0
41
1
10
-38
20
-16.4896741385663
30
0
41
1
10
-38
20
-16.6552512602625
30
0
41
1
10
-38
20
-16.8188545807649
30
0
41
1
10
-38
20
-16.9392987318018
30
0
41
1
10
-38
20
-17.0578934672827
30
0
41
1
10
-38
20
-17.2140648101705
30
0
41
1
10
-38
20
-17.3649216616153
30
0
41
1
10
-38
20
-17.513530035822
30
0
41
1
10
-38
20
-17.6226956365842
30
0
41
1
10
-38
20
-17.7299433731025
30
0
41
1
10
-38
20
-17.8708440004863
30
0
41
1
10
-38
20
-18.0064238716364
30
0
41
1
10
-38
20
-18.1394672902698
30
0
41
1
10
-38
20
-18.236915915677
30
0
41
1
10
-38
20
-18.3323672965474
30
0
41
1
10
-38
20
-18.4258040962282
30
0
41
1
10
-38
20
-18.517209887002
30
0
41
1
10
-38
20
-18.6065734896479
30
0
41
1
10
-38
20
-18.6938772522127
30
0
41
1
10
-38
20
-18.7791047692188
30
0
41
1
10
-38
20
-18.8622426359768
30
0
41
1
10
-38
20
-18.9432715834756
30
0
41
1
10
-38
20
-19.0221745805325
30
0
41
1
10
-38
20
-19.0989364136873
30
0
41
1
10
-38
20
-19.1735363647814
30
0
41
1
10
-38
20
-19.2704515417461
30
0
41
1
10
-38
20
-19.3619266112172
30
0
41
1
10
-38
20
-19.4499498647732
30
0
41
1
10
-38
20
-19.5134574724377
30
0
41
1
10
-38
20
-19.5746836830748
30
0
41
1
10
-38
20
-19.6336085328263
30
0
41
1
10
-38
20
-19.6902080668946
30
0
41
1
10
-38
20
-19.7628242842049
30
0
41
1
10
-38
20
-19.829873984374
30
0
41
1
10
-38
20
-19.8928775551026
30
0
41
1
10
-38
20
-19.9374871757691
30
0
41
1
10
-38
20
-19.9796195436673
30
0
41
1
10
-38
20
-20.0326760063813
30
0
41
1
10
-38
20
-20.0800381474625
30
0
41
1
10
-38
20
-20.1228090027496
30
0
41
1
10
-38
20
-20.1521177658612
30
0
41
1
10
-38
20
-20.1787668505585
30
0
41
1
10
-38
20
-20.2027210424566
30
0
41
1
10
-38
20
-20.2239455432986
30
0
41
1
10
-38
20
-20.2424031363825
30
0
41
1
10
-38
20
-20.2580557552655
30
0
41
1
10
-38
20
-20.2708642249464
30
0
41
1
10
-38
20
-20.2807872561095
30
0
41
1
10
-38
20
-20.2877829489451
30
0
41
1
10
-38
20
-20.2916001286576
30
0
41
1
10
-38
20
-20.2923630917501
30
0
41
1
10
-38
20
-20.2923482654141
30
0
0
SPLINE
5
186
100
AcDbEntity
8
SK1
62
256
6
ByLayer
370
18
48
1
60
0
100
AcDbSpline
70
4
71
3
72
22
73
18
40
0
40
0
40
0
40
0
40
0.366862607601256
40
0.366862607601256
40
0.737339621375052
40
0.737339621375052
40
0.838459586400285
40
0.838459586400285
40
0.872990642836393
40
0.872990642836393
40
0.908114554314301
40
0.908114554314301
40
0.93841147631739
40
0.93841147631739
40
0.978567405872927
40
0.978567405872927
40
1
40
1
40
1
40
1
41
1
10
-1.30710678118655
20
4.81101329740289
30
0
41
1
10
-1.26411319574365
20
5.05427021725674
30
0
41
1
10
-1.21291926611929
20
5.29463858107241
30
0
41
1
10
-1.07751639291712
20
5.76447191425098
30
0
41
1
10
-0.99999394263088
20
6.0024064332149
30
0
41
1
10
-0.818580317119483
20
6.26150782359156
30
0
41
1
10
-0.772786229091963
20
6.31609141287933
30
0
41
1
10
-0.693958175551444
20
6.37002132562083
30
0
41
1
10
-0.67174289599555
20
6.38213989760789
30
0
41
1
10
-0.624176343099663
20
6.39933264200099
30
0
41
1
10
-0.598041368844491
20
6.40433410743103
30
0
41
1
10
-0.550095873812666
20
6.4042038836908
30
0
41
1
10
-0.52764508925199
20
6.40038614973912
30
0
41
1
10
-0.479150674129698
20
6.38487542657816
30
0
41
1
10
-0.453444961156862
20
6.37100758594852
30
0
41
1
10
-0.417985764291785
20
6.34622757774423
30
0
41
1
10
-0.406197231050186
20
6.33682378409867
30
0
41
1
10
-0.394976888874737
20
6.32694309068151
30
0
0
SPLINE
5
187
100
AcDbEntity
8
SK1
62
256
6
ByLayer
370
18
48
1
60
0
100
AcDbSpline
70
4
71
3
72
295
73
291
40
0
40
0
40
0
40
0
40
0.0029463204005422
40
0.0065222452830545
40
0.0100981701655667
40
0.0136740950480789
40
0.0172500199305911
40
0.0208259448131034
40
0.0279777945781278
40
0.0351296443431523
40
0.0422814941081767
40
0.0458574189906889
40
0.0494333438732012
40
0.0530092687557134
40
0.0565851936382256
40
0.0637370434032501
40
0.0673129682857623
40
0.0708888931682745
40
0.0744648180507868
40
0.078040742933299
40
0.0816166678158112
40
0.0851925926983234
40
0.0923444424633479
40
0.0959203673458601
40
0.0994962922283723
40
0.103072217110885
40
0.106648141993397
40
0.110224066875909
40
0.113799991758421
40
0.117375916640933
40
0.120951841523446
40
0.124527766405958
40
0.12810369128847
40
0.131679616170982
40
0.135255541053495
40
0.138831465936007
40
0.142407390818519
40
0.149559240583544
40
0.153135165466056
40
0.156711090348568
40
0.158499052789824
40
0.16028701523108
40
0.163862940113592
40
0.171014789878617
40
0.174590714761129
40
0.178166639643641
40
0.181742564526154
40
0.185318489408666
40
0.19247033917369
40
0.196046264056202
40
0.199622188938715
40
0.201410151379971
40
0.203198113821227
40
0.206774038703739
40
0.213925888468764
40
0.217501813351276
40
0.221077738233788
40
0.2246536631163
40
0.228229587998812
40
0.235381437763837
40
0.238957362646349
40
0.242533287528861
40
0.244321249970117
40
0.246109212411374
40
0.249685137293886
40
0.253261062176398
40
0.25683698705891
40
0.258624949500166
40
0.260412911941423
40
0.263988836823935
40
0.267564761706447
40
0.271140686588959
40
0.274716611471471
40
0.278292536353984
40
0.281868461236496
40
0.285444386119008
40
0.28902031100152
40
0.292596235884033
40
0.296172160766545
40
0.299748085649057
40
0.303324010531569
40
0.306899935414081
40
0.310475860296594
40
0.314051785179106
40
0.32120363494413
40
0.324779559826643
40
0.328355484709155
40
0.331931409591667
40
0.335507334474179
40
0.339083259356691
40
0.342659184239204
40
0.346235109121716
40
0.349811034004228
40
0.356962883769253
40
0.364114733534277
40
0.371266583299302
40
0.374842508181814
40
0.378418433064326
40
0.381994357946838
40
0.38557028282935
40
0.389146207711863
40
0.392722132594375
40
0.396298057476887
40
0.399873982359399
40
0.403449907241911
40
0.407025832124424
40
0.410601757006936
40
0.414177681889448
40
0.41775360677196
40
0.421329531654473
40
0.424905456536985
40
0.428481381419497
40
0.432057306302009
40
0.433845268743265
40
0.435633231184522
40
0.437421193625778
40
0.439209156067034
40
0.442785080949546
40
0.446361005832058
40
0.448148968273314
40
0.44993693071457
40
0.451724893155826
40
0.453512855597083
40
0.457088780479595
40
0.458876742920851
40
0.460664705362107
40
0.462452667803363
40
0.464240630244619
40
0.466028592685875
40
0.467816555127132
40
0.469604517568388
40
0.471392480009644
40
0.4731804424509
40
0.474968404892156
40
0.476756367333412
40
0.478544329774668
40
0.480332292215924
40
0.48212025465718
40
0.483908217098437
40
0.485696179539693
40
0.487484141980949
40
0.489272104422205
40
0.491060066863461
40
0.492848029304717
40
0.494635991745973
40
0.496423954187229
40
0.498211916628486
40
0.499999879069742
40
0.501787841510998
40
0.503575803952254
40
0.50536376639351
40
0.507151728834766
40
0.508939691276022
40
0.510727653717278
40
0.512515616158534
40
0.51430357859979
40
0.516091541041046
40
0.517879503482303
40
0.519667465923559
40
0.521455428364815
40
0.523243390806071
40
0.525031353247327
40
0.526819315688583
40
0.528607278129839
40
0.530395240571095
40
0.532183203012352
40
0.533971165453608
40
0.535759127894864
40
0.53754709033612
40
0.539335052777376
40
0.541123015218632
40
0.542910977659888
40
0.546486902542401
40
0.548274864983657
40
0.550062827424913
40
0.551850789866169
40
0.553638752307425
40
0.557214677189937
40
0.560790602072449
40
0.562578564513706
40
0.564366526954962
40
0.566154489396218
40
0.567942451837474
40
0.571518376719986
40
0.575094301602498
40
0.578670226485011
40
0.582246151367523
40
0.585822076250035
40
0.589398001132547
40
0.592973926015059
40
0.596549850897572
40
0.600125775780084
40
0.603701700662596
40
0.607277625545108
40
0.610853550427621
40
0.614429475310133
40
0.618005400192645
40
0.621581325075157
40
0.625157249957669
40
0.628733174840182
40
0.635885024605206
40
0.64303687437023
40
0.650188724135255
40
0.653764649017767
40
0.657340573900279
40
0.660916498782792
40
0.664492423665304
40
0.668068348547816
40
0.671644273430328
40
0.675220198312841
40
0.678796123195353
40
0.685947972960377
40
0.68952389784289
40
0.693099822725402
40
0.696675747607914
40
0.700251672490426
40
0.703827597372938
40
0.707403522255451
40
0.710979447137963
40
0.714555372020475
40
0.718131296902987
40
0.7217072217855
40
0.725283146668012
40
0.728859071550524
40
0.736010921315548
40
0.739586846198061
40
0.743162771080573
40
0.750314620845597
40
0.75389054572811
40
0.757466470610622
40
0.761042395493134
40
0.764618320375646
40
0.771770170140671
40
0.775346095023183
40
0.778922019905695
40
0.782497944788207
40
0.78607386967072
40
0.793225719435744
40
0.796801644318256
40
0.800377569200768
40
0.803953494083281
40
0.807529418965793
40
0.814681268730817
40
0.81825719361333
40
0.821833118495842
40
0.825409043378354
40
0.828984968260866
40
0.836136818025891
40
0.839712742908403
40
0.843288667790915
40
0.846864592673428
40
0.85044051755594
40
0.857592367320964
40
0.861168292203476
40
0.864744217085989
40
0.868320141968501
40
0.871896066851013
40
0.875471991733525
40
0.879047916616037
40
0.88262384149855
40
0.886199766381062
40
0.889775691263574
40
0.893351616146086
40
0.896927541028599
40
0.900503465911111
40
0.904079390793623
40
0.907655315676135
40
0.91480716544116
40
0.918383090323672
40
0.921959015206184
40
0.925534940088696
40
0.929110864971209
40
0.932686789853721
40
0.936262714736233
40
0.943414564501257
40
0.94699048938377
40
0.950566414266282
40
0.954142339148794
40
0.957718264031306
40
0.964870113796331
40
0.968446038678843
40
0.972021963561355
40
0.975597888443867
40
0.97917381332638
40
0.982749738208892
40
0.986325663091404
40
0.989901587973916
40
0.993477512856429
40
0.997053437738941
40
1
40
1
40
1
40
1
41
1
10
-2.19999999999996
20
22.0135196987393
30
0
41
1
10
-2.19999999999996
20
22.011727627447
30
0
41
1
10
-2.19999999999996
20
22.006959702695
30
0
41
1
10
-2.19999999999999
20
21.9968726461305
30
0
41
1
10
-2.19999999999999
20
21.9830583750197
30
0
41
1
10
-2.19999999999999
20
21.9661971621578
30
0
41
1
10
-2.19999999999999
20
21.9463373083127
30
0
41
1
10
-2.19999999999999
20
21.9159230944434
30
0
41
1
10
-2.19999999999999
20
21.870633664349
30
0
41
1
10
-2.19999999999999
20
21.8049949078793
30
0
41
1
10
-2.19999999999999
20
21.7411390111089
30
0
41
1
10
-2.19999999999999
20
21.6847072709128
30
0
41
1
10
-2.19999999999999
20
21.6397397481888
30
0
41
1
10
-2.19999999999999
20
21.5921615264853
30
0
41
1
10
-2.19999999999999
20
21.5252891523049
30
0
41
1
10
-2.19999999999999
20
21.453308753177
30
0
41
1
10
-2.19999999999999
20
21.3763547276269
30
0
41
1
10
-2.19999999999999
20
21.3161703964091
30
0
41
1
10
-2.19999999999999
20
21.2535469243879
30
0
41
1
10
-2.19999999999999
20
21.1885090229233
30
0
41
1
10
-2.19999999999999
20
21.121080083473
30
0
41
1
10
-2.19999999999999
20
21.0280237507364
30
0
41
1
10
-2.19999999999999
20
20.9302657445266
30
0
41
1
10
-2.19999999999999
20
20.8279188369072
30
0
41
1
10
-2.19999999999999
20
20.7488739070252
30
0
41
1
10
-2.19999999999999
20
20.6675681841826
30
0
41
1
10
-2.19999999999999
20
20.5840212184218
30
0
41
1
10
-2.19999999999999
20
20.4982502525025
30
0
41
1
10
-2.19999999999999
20
20.4102747128949
30
0
41
1
10
-2.19999999999999
20
20.3201119071544
30
0
41
1
10
-2.19999999999999
20
20.2277776663919
30
0
41
1
10
-2.19999999999999
20
20.1332899477274
30
0
41
1
10
-2.19999999999999
20
20.0366642357894
30
0
41
1
10
-2.19999999999999
20
19.9379151599299
30
0
41
1
10
-2.19999999999999
20
19.8370591957147
30
0
41
1
10
-2.19999999999999
20
19.7341102362335
30
0
41
1
10
-2.19999999999999
20
19.5940778412012
30
0
41
1
10
-2.19999999999999
20
19.4499005336558
30
0
41
1
10
-2.19999999999999
20
19.3016622310533
30
0
41
1
10
-2.19999999999999
20
19.2073184270571
30
0
41
1
10
-2.19999999999999
20
19.1308417758755
30
0
41
1
10
-2.19999999999999
20
19.0536957086557
30
0
41
1
10
-2.19999999999999
20
18.9169360704622
30
0
41
1
10
-2.19999999999999
20
18.756645794641
30
0
41
1
10
-2.19999999999999
20
18.5924362845557
30
0
41
1
10
-2.19999999999999
20
18.4673177976698
30
0
41
1
10
-2.19999999999999
20
18.3402521463352
30
0
41
1
10
-2.19999999999999
20
18.1682545122203
30
0
41
1
10
-2.19999999999999
20
17.9923842356821
30
0
41
1
10
-2.19999999999999
20
17.8127164551587
30
0
41
1
10
-2.19999999999999
20
17.6988333809735
30
0
41
1
10
-2.19999999999999
20
17.606787767091
30
0
41
1
10
-2.19999999999999
20
17.5141131161323
30
0
41
1
10
-2.19999999999999
20
17.3502824417036
30
0
41
1
10
-2.19999999999999
20
17.1592829447589
30
0
41
1
10
-2.19999999999999
20
16.9645867974536
30
0
41
1
10
-2.19999999999999
20
16.8167088060477
30
0
41
1
10
-2.19999999999999
20
16.6669871400996
30
0
41
1
10
-2.19999999999999
20
16.4649164953067
30
0
41
1
10
-2.19999999999999
20
16.2591646002876
30
0
41
1
10
-2.19999999999999
20
16.049802831716
30
0
41
1
10
-2.19999999999999
20
15.9174340084588
30
0
41
1
10
-2.19999999999999
20
15.8106442286412
30
0
41
1
10
-2.19999999999999
20
15.7032538676567
30
0
41
1
10
-2.19999999999999
20
15.567882396309
30
0
41
1
10
-2.19999999999999
20
15.4036502143979
30
0
41
1
10
-2.19999999999999
20
15.2652965264295
30
0
41
1
10
-2.19999999999999
20
15.1537302031574
30
0
41
1
10
-2.19999999999999
20
15.0415708470876
30
0
41
1
10
-2.19999999999999
20
14.90025131083
30
0
41
1
10
-2.19999999999999
20
14.7289012367181
30
0
41
1
10
-2.19999999999999
20
14.5557843226631
30
0
41
1
10
-2.19999999999999
20
14.3809062427341
30
0
41
1
10
-2.19999999999999
20
14.2042700822291
30
0
41
1
10
-2.19999999999999
20
14.0258803741545
30
0
41
1
10
-2.19999999999999
20
13.8457420253844
30
0
41
1
10
-2.19999999999999
20
13.6638579861817
30
0
41
1
10
-2.19999999999999
20
13.4802328481714
30
0
41
1
10
-2.19999999999999
20
13.2948705974071
30
0
41
1
10
-2.19999999999999
20
13.1077737485311
30
0
41
1
10
-2.19999999999999
20
12.9189467805057
30
0
41
1
10
-2.19999999999999
20
12.728392778749
30
0
41
1
10
-2.19999999999999
20
12.5361142588231
30
0
41
1
10
-2.19999999999999
20
12.2774598592137
30
0
41
1
10
-2.19999999999999
20
12.0153352592314
30
0
41
1
10
-2.19999999999999
20
11.7498207258852
30
0
41
1
10
-2.19999999999999
20
11.5489655826483
30
0
41
1
10
-2.19999999999999
20
11.3464032807099
30
0
41
1
10
-2.19999999999999
20
11.1421359853758
30
0
41
1
10
-2.19999999999999
20
10.9361655879759
30
0
41
1
10
-2.19999999999999
20
10.7284950970913
30
0
41
1
10
-2.19999999999999
20
10.5191258614377
30
0
41
1
10
-2.19999999999999
20
10.2377184130835
30
0
41
1
10
-2.19999999999999
20
9.88169304970987
30
0
41
1
10
-2.19999999999999
20
9.44771865839311
30
0
41
1
10
-2.19999999999999
20
9.08043848955603
30
0
41
1
10
-2.19999999999999
20
8.78327689677775
30
0
41
1
10
-2.19999999999999
20
8.55871419535617
30
0
41
1
10
-2.19999999999999
20
8.33247380011301
30
0
41
1
10
-2.19999999999999
20
8.10455852701506
30
0
41
1
10
-2.19999999999999
20
7.87497060194644
30
0
41
1
10
-2.19999999999999
20
7.6437128367312
30
0
41
1
10
-2.19999999999999
20
7.41078884464241
30
0
41
1
10
-2.19999999999999
20
7.17620220160032
30
0
41
1
10
-2.19999999999999
20
6.93995692090419
30
0
41
1
10
-2.19999999999999
20
6.70205758660663
30
0
41
1
10
-2.19999999999999
20
6.46250918569618
30
0
41
1
10
-2.19999999999999
20
6.2213178400012
30
0
41
1
10
-2.19999999999999
20
5.97849049576266
30
0
41
1
10
-2.19999999999999
20
5.73403521575827
30
0
41
1
10
-2.19999999999999
20
5.48796107357256
30
0
41
1
10
-2.19999999999999
20
5.24027911118978
30
0
41
1
10
-2.19999999999999
20
5.03253661023487
30
0
41
1
10
-2.19999999999999
20
4.86557359122418
30
0
41
1
10
-2.19999999999999
20
4.73994908127321
30
0
41
1
10
-2.19999999999999
20
4.61393371339017
30
0
41
1
10
-2.19999999999999
20
4.44540774959788
30
0
41
1
10
-2.19999999999999
20
4.23375652596863
30
0
41
1
10
-2.19999999999999
20
4.02083961713782
30
0
41
1
10
-2.19999999999999
20
3.84978439152417
30
0
41
1
10
-2.19999999999999
20
3.72111342731068
30
0
41
1
10
-2.19999999999999
20
3.59207749308624
30
0
41
1
10
-2.19999999999999
20
3.41956369464535
30
0
41
1
10
-2.19999999999999
20
3.24629481959221
30
0
41
1
10
-2.19999999999999
20
3.0723836150739
30
0
41
1
10
-2.19999999999999
20
2.94160046512798
30
0
41
1
10
-2.19999999999999
20
2.81048647644627
30
0
41
1
10
-2.19999999999999
20
2.67904892732182
30
0
41
1
10
-2.19999999999999
20
2.54729562722176
30
0
41
1
10
-2.19999999999999
20
2.41523551097489
30
0
41
1
10
-2.19999999999999
20
2.28287740252156
30
0
41
1
10
-2.19999999999999
20
2.15023166945255
30
0
41
1
10
-2.19999999999999
20
2.01730873413072
30
0
41
1
10
-2.19999999999999
20
1.88412021099791
30
0
41
1
10
-2.19999999999999
20
1.75067841854351
30
0
41
1
10
-2.19999999999999
20
1.61699634722072
30
0
41
1
10
-2.19999999999999
20
1.48308821885627
30
0
41
1
10
-2.19999999999999
20
1.34896859254377
30
0
41
1
10
-2.19999999999999
20
1.21465350310541
30
0
41
1
10
-2.19999999999999
20
1.0801592162689
30
0
41
1
10
-2.19999999999999
20
0.945503442662783
30
0
41
1
10
-2.19999999999999
20
0.810704113119073
30
0
41
1
10
-2.19999999999999
20
0.675780421912322
30
0
41
1
10
-2.19999999999999
20
0.540751787789588
30
0
41
1
10
-2.19999999999999
20
0.405638599098921
30
0
41
1
10
-2.19999999999999
20
0.270461428271432
30
0
41
1
10
-2.19999999999999
20
0.135241462279822
30
0
41
1
10
-2.19999999999999
20
-5.3654787E-09
30
0
41
1
10
-2.19999999999999
20
-0.135241472589996
30
0
41
1
10
-2.19999999999999
20
-0.270461437853925
30
0
41
1
10
-2.19999999999999
20
-0.405638608907907
30
0
41
1
10
-2.19999999999999
20
-0.540751798686529
30
0
41
1
10
-2.19999999999999
20
-0.675780432522174
30
0
41
1
10
-2.19999999999999
20
-0.810704122044939
30
0
41
1
10
-2.19999999999999
20
-0.945503451789534
30
0
41
1
10
-2.19999999999999
20
-1.08015922751395
30
0
41
1
10
-2.19999999999999
20
-1.21465351395383
30
0
41
1
10
-2.19999999999999
20
-1.34896860046499
30
0
41
1
10
-2.19999999999999
20
-1.48308822685564
30
0
41
1
10
-2.19999999999999
20
-1.61699635855226
30
0
41
1
10
-2.19999999999999
20
-1.75067843002711
30
0
41
1
10
-2.19999999999999
20
-1.88412021847037
30
0
41
1
10
-2.19999999999999
20
-2.01730874020455
30
0
41
1
10
-2.19999999999999
20
-2.15023167925048
30
0
41
1
10
-2.19999999999999
20
-2.28287741514001
30
0
41
1
10
-2.19999999999999
20
-2.41523552035437
30
0
41
1
10
-2.19999999999999
20
-2.54729563151926
30
0
41
1
10
-2.19999999999999
20
-2.67904893291683
30
0
41
1
10
-2.19999999999999
20
-2.81048648769612
30
0
41
1
10
-2.19999999999999
20
-2.94160047796311
30
0
41
1
10
-2.19999999999999
20
-3.072383622975
30
0
41
1
10
-2.19999999999999
20
-3.24629481975686
30
0
41
1
10
-2.19999999999999
20
-3.41956370437865
30
0
41
1
10
-2.19999999999999
20
-3.59207750684843
30
0
41
1
10
-2.19999999999999
20
-3.72111343644576
30
0
41
1
10
-2.19999999999999
20
-3.84978439330678
30
0
41
1
10
-2.19999999999999
20
-4.020839617489
30
0
41
1
10
-2.19999999999999
20
-4.23375654375474
30
0
41
1
10
-2.19999999999999
20
-4.44540775759583
30
0
41
1
10
-2.19999999999999
20
-4.61393371339872
30
0
41
1
10
-2.19999999999999
20
-4.73994907984499
30
0
41
1
10
-2.19999999999999
20
-4.86557359653659
30
0
41
1
10
-2.19999999999999
20
-5.03253662624778
30
0
41
1
10
-2.19999999999999
20
-5.24027911954084
30
0
41
1
10
-2.19999999999999
20
-5.48796106514416
30
0
41
1
10
-2.19999999999999
20
-5.73403522651989
30
0
41
1
10
-2.19999999999999
20
-5.97849051253721
30
0
41
1
10
-2.19999999999999
20
-6.22131783489101
30
0
41
1
10
-2.19999999999999
20
-6.46250917346816
30
0
41
1
10
-2.19999999999999
20
-6.70205756880287
30
0
41
1
10
-2.19999999999999
20
-6.93995689241024
30
0
41
1
10
-2.19999999999999
20
-7.17620223308296
30
0
41
1
10
-2.19999999999999
20
-7.41078904293681
30
0
41
1
10
-2.19999999999999
20
-7.64371312168015
30
0
41
1
10
-2.19999999999999
20
-7.87497052861914
30
0
41
1
10
-2.19999999999999
20
-8.10455846042146
30
0
41
1
10
-2.19999999999999
20
-8.33247384441506
30
0
41
1
10
-2.19999999999999
20
-8.55871423477029
30
0
41
1
10
-2.19999999999999
20
-8.78327691067398
30
0
41
1
10
-2.19999999999999
20
-9.08043846702645
30
0
41
1
10
-2.19999999999999
20
-9.44771866001565
30
0
41
1
10
-2.19999999999999
20
-9.88169305528194
30
0
41
1
10
-2.19999999999999
20
-10.2377183913447
30
0
41
1
10
-2.19999999999999
20
-10.5191258633122
30
0
41
1
10
-2.19999999999999
20
-10.7284951094206
30
0
41
1
10
-2.19999999999999
20
-10.9361655882296
30
0
41
1
10
-2.19999999999999
20
-11.1421359694817
30
0
41
1
10
-2.19999999999999
20
-11.3464032666245
30
0
41
1
10
-2.19999999999999
20
-11.5489655840494
30
0
41
1
10
-2.19999999999999
20
-11.7498207382014
30
0
41
1
10
-2.19999999999999
20
-12.015335258712
30
0
41
1
10
-2.19999999999999
20
-12.277459839655
30
0
41
1
10
-2.19999999999999
20
-12.5361142561418
30
0
41
1
10
-2.19999999999999
20
-12.7283927892775
30
0
41
1
10
-2.19999999999999
20
-12.9189467887917
30
0
41
1
10
-2.19999999999999
20
-13.1077737445537
30
0
41
1
10
-2.19999999999999
20
-13.2948705838035
30
0
41
1
10
-2.19999999999999
20
-13.4802328404438
30
0
41
1
10
-2.19999999999999
20
-13.6638579908945
30
0
41
1
10
-2.19999999999999
20
-13.845742035678
30
0
41
1
10
-2.19999999999999
20
-14.0258803815961
30
0
41
1
10
-2.19999999999999
20
-14.2042701267483
30
0
41
1
10
-2.19999999999999
20
-14.3809064511142
30
0
41
1
10
-2.19999999999999
20
-14.61406817927
30
0
41
1
10
-2.19999999999999
20
-14.8437340716545
30
0
41
1
10
-2.19999999999999
20
-15.069828938707
30
0
41
1
10
-2.19999999999999
20
-15.2935559429894
30
0
41
1
10
-2.19999999999999
20
-15.513744330902
30
0
41
1
10
-2.19999999999999
20
-15.7303232767805
30
0
41
1
10
-2.19999999999999
20
-15.8909649274654
30
0
41
1
10
-2.19999999999999
20
-16.0498023362736
30
0
41
1
10
-2.19999999999999
20
-16.2591647559547
30
0
41
1
10
-2.19999999999999
20
-16.4649171124643
30
0
41
1
10
-2.19999999999999
20
-16.666987304737
30
0
41
1
10
-2.19999999999999
20
-16.8167085043733
30
0
41
1
10
-2.19999999999999
20
-16.9645862898264
30
0
41
1
10
-2.19999999999999
20
-17.1592828976246
30
0
41
1
10
-2.19999999999999
20
-17.3502835148979
30
0
41
1
10
-2.19999999999999
20
-17.5375147595292
30
0
41
1
10
-2.19999999999999
20
-17.676060438985
30
0
41
1
10
-2.19999999999999
20
-17.8127154575359
30
0
41
1
10
-2.19999999999999
20
-17.9923842415009
30
0
41
1
10
-2.19999999999999
20
-18.1682547291306
30
0
41
1
10
-2.19999999999999
20
-18.3402522143585
30
0
41
1
10
-2.19999999999999
20
-18.4673177032107
30
0
41
1
10
-2.19999999999999
20
-18.5924361073221
30
0
41
1
10
-2.19999999999999
20
-18.7566457425986
30
0
41
1
10
-2.19999999999999
20
-18.9169371900015
30
0
41
1
10
-2.19999999999999
20
-19.0732305996174
30
0
41
1
10
-2.19999999999999
20
-19.1884526890887
30
0
41
1
10
-2.19999999999999
20
-19.3016611759423
30
0
41
1
10
-2.19999999999999
20
-19.4499005391959
30
0
41
1
10
-2.19999999999999
20
-19.5940785255289
30
0
41
1
10
-2.19999999999999
20
-19.7341104289282
30
0
41
1
10
-2.19999999999999
20
-19.8370589164793
30
0
41
1
10
-2.19999999999999
20
-19.9379146863563
30
0
41
1
10
-2.19999999999999
20
-20.0366640227898
30
0
41
1
10
-2.19999999999999
20
-20.133289903145
30
0
41
1
10
-2.19999999999999
20
-20.2277776697998
30
0
41
1
10
-2.19999999999999
20
-20.3201119082527
30
0
41
1
10
-2.19999999999999
20
-20.4102747220553
30
0
41
1
10
-2.19999999999999
20
-20.4982502752196
30
0
41
1
10
-2.19999999999999
20
-20.5840212474559
30
0
41
1
10
-2.19999999999999
20
-20.6675682022903
30
0
41
1
10
-2.19999999999999
20
-20.7488739108727
30
0
41
1
10
-2.19999999999999
20
-20.82791883753
30
0
41
1
10
-2.19999999999999
20
-20.9302657657864
30
0
41
1
10
-2.19999999999999
20
-21.0280237880878
30
0
41
1
10
-2.19999999999999
20
-21.1210800961781
30
0
41
1
10
-2.19999999999999
20
-21.1885090211437
30
0
41
1
10
-2.19999999999999
20
-21.2535469320083
30
0
41
1
10
-2.19999999999999
20
-21.3161704250344
30
0
41
1
10
-2.19999999999999
20
-21.3763547664481
30
0
41
1
10
-2.19999999999999
20
-21.4533087676779
30
0
41
1
10
-2.19999999999999
20
-21.5252891448141
30
0
41
1
10
-2.19999999999999
20
-21.5921615531195
30
0
41
1
10
-2.19999999999999
20
-21.6397397916631
30
0
41
1
10
-2.19999999999999
20
-21.6847072964973
30
0
41
1
10
-2.19999999999999
20
-21.7411389990572
30
0
41
1
10
-2.19999999999999
20
-21.7922265879071
30
0
41
1
10
-2.19999999999999
20
-21.8378144981283
30
0
41
1
10
-2.19999999999999
20
-21.8692221254414
30
0
41
1
10
-2.19999999999999
20
-21.8978063777089
30
0
41
1
10
-2.19999999999999
20
-21.9235254752891
30
0
41
1
10
-2.19999999999999
20
-21.9463373508774
30
0
41
1
10
-2.19999999999999
20
-21.9661972037607
30
0
41
1
10
-2.19999999999999
20
-21.9830583809744
30
0
41
1
10
-2.19999999999999
20
-21.9968726399857
30
0
41
1
10
-2.19999999999996
20
-22.0069599800892
30
0
41
1
10
-2.19999999999996
20
-22.0117281004391
30
0
41
1
10
-2.19999999999996
20
-22.0135203012473
30
0
0
SPLINE
5
188
100
AcDbEntity
8
SK1
62
256
6
ByLayer
370
18
48
1
60
0
100
AcDbSpline
70
4
71
3
72
111
73
107
40
0
40
0
40
0
40
0
40
0.0023113641787433
40
0.0108556433259696
40
0.0193999224731959
40
0.0279442016204222
40
0.0364884807676485
40
0.0450327599148748
40
0.0535770390621012
40
0.0621213182093275
40
0.0706655973565538
40
0.0792098765037801
40
0.0877541556510064
40
0.0962984347982328
40
0.113386993092685
40
0.130475551387138
40
0.147564109681591
40
0.156108388828817
40
0.164652667976043
40
0.17319694712327
40
0.181741226270496
40
0.190285505417722
40
0.198829784564949
40
0.207374063712175
40
0.215918342859401
40
0.233006901153854
40
0.24155118030108
40
0.250095459448307
40
0.258639738595533
40
0.267184017742759
40
0.275728296889986
40
0.284272576037212
40
0.292816855184438
40
0.301361134331664
40
0.309905413478891
40
0.318449692626117
40
0.326993971773343
40
0.33553825092057
40
0.352626809215022
40
0.361171088362249
40
0.369715367509475
40
0.386803925803928
40
0.395348204951154
40
0.40389248409838
40
0.412436763245607
40
0.420981042392833
40
0.438069600687286
40
0.446613879834512
40
0.455158158981738
40
0.463702438128964
40
0.472246717276191
40
0.489335275570643
40
0.49787955471787
40
0.506423833865096
40
0.514968113012322
40
0.523512392159549
40
0.540600950454001
40
0.549145229601228
40
0.557689508748454
40
0.56623378789568
40
0.574778067042907
40
0.591866625337359
40
0.600410904484586
40
0.608955183631812
40
0.617499462779038
40
0.626043741926265
40
0.643132300220717
40
0.651676579367943
40
0.66022085851517
40
0.668765137662396
40
0.677309416809622
40
0.685853695956849
40
0.694397975104075
40
0.702942254251301
40
0.711486533398528
40
0.720030812545754
40
0.72857509169298
40
0.737119370840207
40
0.745663649987433
40
0.754207929134659
40
0.762752208281886
40
0.779840766576338
40
0.788385045723565
40
0.796929324870791
40
0.805473604018017
40
0.814017883165243
40
0.82256216231247
40
0.831106441459696
40
0.848194999754149
40
0.856739278901375
40
0.865283558048601
40
0.873827837195828
40
0.882372116343054
40
0.899460674637507
40
0.908004953784733
40
0.916549232931959
40
0.925093512079186
40
0.933637791226412
40
0.942182070373638
40
0.950726349520865
40
0.959270628668091
40
0.967814907815317
40
0.976359186962543
40
0.98490346610977
40
0.993447745256996
40
1
40
1
40
1
40
1
41
1
10
-0.394976888875277
20
-6.32694279392976
30
0
41
1
10
-0.394976888875277
20
-6.3484916311391
30
0
41
1
10
-0.394976888875277
20
-6.44960775400912
30
0
41
1
10
-0.394976888875277
20
-6.62954555948869
30
0
41
1
10
-0.394976888875277
20
-6.8656950488801
30
0
41
1
10
-0.394976888875277
20
-7.10023740586411
30
0
41
1
10
-0.394976888875277
20
-7.33316546385933
30
0
41
1
10
-0.394976888875277
20
-7.56447269448574
30
0
41
1
10
-0.394976888875277
20
-7.79415340272945
30
0
41
1
10
-0.394976888875277
20
-8.02220293401996
30
0
41
1
10
-0.394976888875277
20
-8.24861635560848
30
0
41
1
10
-0.394976888875277
20
-8.47338951886385
30
0
41
1
10
-0.394976888875277
20
-8.69651811258549
30
0
41
1
10
-0.394976888875277
20
-8.99192948127941
30
0
41
1
10
-0.394976888875277
20
-9.35683912175983
30
0
41
1
10
-0.394976888875277
20
-9.78821091217483
30
0
41
1
10
-0.394976888875277
20
-10.142045462177
30
0
41
1
10
-0.394976888875277
20
-10.4219344727077
30
0
41
1
10
-0.394976888875277
20
-10.6301131683678
30
0
41
1
10
-0.394976888875277
20
-10.8366153667066
30
0
41
1
10
-0.394976888875277
20
-11.0414388905992
30
0
41
1
10
-0.394976888875277
20
-11.2445799004538
30
0
41
1
10
-0.394976888875277
20
-11.4460361162834
30
0
41
1
10
-0.394976888875277
20
-11.6458042976885
30
0
41
1
10
-0.394976888875277
20
-11.9099848253352
30
0
41
1
10
-0.394976888875277
20
-12.1705475695385
30
0
41
1
10
-0.394976888875277
20
-12.4279318067111
30
0
41
1
10
-0.394976888875277
20
-12.6192114874981
30
0
41
1
10
-0.394976888875277
20
-12.8087826250924
30
0
41
1
10
-0.394976888875277
20
-12.9966426041155
30
0
41
1
10
-0.394976888875277
20
-13.182787448996
30
0
41
1
10
-0.394976888875277
20
-13.3672125455487
30
0
41
1
10
-0.394976888875277
20
-13.5499151547097
30
0
41
1
10
-0.394976888875277
20
-13.7308904478326
30
0
41
1
10
-0.394976888875277
20
-13.910133867705
30
0
41
1
10
-0.394976888875277
20
-14.0876421688895
30
0
41
1
10
-0.394976888875277
20
-14.2634098807097
30
0
41
1
10
-0.394976888875277
20
-14.4955025482493
30
0
41
1
10
-0.394976888875277
20
-14.7239127068147
30
0
41
1
10
-0.394976888875277
20
-14.9489833053404
30
0
41
1
10
-0.394976888875277
20
-15.171701411915
30
0
41
1
10
-0.394976888875277
20
-15.3907043201103
30
0
41
1
10
-0.394976888875277
20
-15.6063159613101
30
0
41
1
10
-0.394976888875277
20
-15.7661946363952
30
0
41
1
10
-0.394976888875277
20
-15.9242799594928
30
0
41
1
10
-0.394976888875277
20
-16.1327154012234
30
0
41
1
10
-0.394976888875277
20
-16.3373780173449
30
0
41
1
10
-0.394976888875277
20
-16.5385587125243
30
0
41
1
10
-0.394976888875277
20
-16.6875782011067
30
0
41
1
10
-0.394976888875277
20
-16.8347642769002
30
0
41
1
10
-0.394976888875277
20
-17.0286080073569
30
0
41
1
10
-0.394976888875277
20
-17.2186059445175
30
0
41
1
10
-0.394976888875277
20
-17.4050188999402
30
0
41
1
10
-0.394976888875277
20
-17.5429190217058
30
0
41
1
10
-0.394976888875277
20
-17.6789377757623
30
0
41
1
10
-0.394976888875277
20
-17.8578220601067
30
0
41
1
10
-0.394976888875277
20
-18.0327708145484
30
0
41
1
10
-0.394976888875277
20
-18.2040166330947
30
0
41
1
10
-0.394976888875277
20
-18.3304892054167
30
0
41
1
10
-0.394976888875277
20
-18.4550234389153
30
0
41
1
10
-0.394976888875277
20
-18.6185132745736
30
0
41
1
10
-0.394976888875277
20
-18.7779598884918
30
0
41
1
10
-0.394976888875277
20
-18.933565131357
30
0
41
1
10
-0.394976888875277
20
-19.048244884465
30
0
41
1
10
-0.394976888875277
20
-19.1609196079758
30
0
41
1
10
-0.394976888875277
20
-19.3085018143331
30
0
41
1
10
-0.394976888875277
20
-19.4519098709686
30
0
41
1
10
-0.394976888875277
20
-19.5913159811741
30
0
41
1
10
-0.394976888875277
20
-19.6937719762305
30
0
41
1
10
-0.394976888875277
20
-19.7941438028822
30
0
41
1
10
-0.394976888875277
20
-19.8924174211231
30
0
41
1
10
-0.394976888875277
20
-19.988575861591
30
0
41
1
10
-0.394976888875277
20
-20.082604778142
30
0
41
1
10
-0.394976888875277
20
-20.1744885559187
30
0
41
1
10
-0.394976888875277
20
-20.264209431984
30
0
41
1
10
-0.394976888875277
20
-20.3517517880635
30
0
41
1
10
-0.394976888875277
20
-20.437098129367
30
0
41
1
10
-0.394976888875277
20
-20.5202292348052
30
0
41
1
10
-0.394976888875277
20
-20.6011280559991
30
0
41
1
10
-0.394976888875277
20
-20.6797749513881
30
0
41
1
10
-0.394976888875277
20
-20.781635486227
30
0
41
1
10
-0.394976888875277
20
-20.8788308931333
30
0
41
1
10
-0.394976888875277
20
-20.9714365096391
30
0
41
1
10
-0.394976888875277
20
-21.0385142950144
30
0
41
1
10
-0.394976888875277
20
-21.1032108820957
30
0
41
1
10
-0.394976888875277
20
-21.1655031751743
30
0
41
1
10
-0.394976888875277
20
-21.2253665102307
30
0
41
1
10
-0.394976888875277
20
-21.301932078811
30
0
41
1
10
-0.394976888875277
20
-21.3734709318986
30
0
41
1
10
-0.394976888875277
20
-21.4399968999807
30
0
41
1
10
-0.394976888875277
20
-21.4873093096751
30
0
41
1
10
-0.394976888875277
20
-21.5320229383892
30
0
41
1
10
-0.394976888875277
20
-21.5881524005931
30
0
41
1
10
-0.394976888875277
20
-21.6389063892513
30
0
41
1
10
-0.394976888875277
20
-21.6842420425293
30
0
41
1
10
-0.394976888875277
20
-21.7154617242468
30
0
41
1
10
-0.394976888875277
20
-21.7438726893518
30
0
41
1
10
-0.394976888875277
20
-21.7694337460976
30
0
41
1
10
-0.394976888875277
20
-21.7921034780961
30
0
41
1
10
-0.394976888875277
20
-21.8118377637545
30
0
41
1
10
-0.394976888875277
20
-21.8285907189997
30
0
41
1
10
-0.394976888875277
20
-21.8423149132633
30
0
41
1
10
-0.394976888875277
20
-21.8529599173647
30
0
41
1
10
-0.394976888875277
20
-21.8604739519412
30
0
41
1
10
-0.394976888875306
20
-21.864465517042
30
0
41
1
10
-0.394976888875249
20
-21.8653271896986
30
0
41
1
10
-0.394976888875249
20
-21.865378793666
30
0
0
SPLINE
5
189
100
AcDbEntity
8
SK1
62
256
6
ByLayer
370
18
48
1
60
0
100
AcDbSpline
70
4
71
3
72
10
73
6
40
0
40
0
40
0
40
0
40
0.5
40
0.5
40
1
40
1
40
1
40
1
41
1
10
-1.30710678118655
20
4.81101329740289
30
0
41
1
10
-1.57713284158248
20
3.28321078789992
30
0
41
1
10
-1.79449339715788
20
1.64680798700616
30
0
41
1
10
-1.79438545511854
20
-1.6481258022005
30
0
41
1
10
-1.57704898370505
20
-3.28368386467716
30
0
41
1
10
-1.30710678118663
20
-4.81101321788435
30
0
0
SPLINE
5
18A
100
AcDbEntity
8
SK1
62
256
6
ByLayer
370
18
48
1
60
0
100
AcDbSpline
70
4
71
3
72
299
73
295
40
0
40
0
40
0
40
0
40
0.0032950148390363
40
0.0068177418917841
40
0.0103404689445319
40
0.0138631959972797
40
0.0173859230500275
40
0.0209086501027753
40
0.0244313771555231
40
0.0279541042082709
40
0.0349995583137665
40
0.0420450124192621
40
0.0490904665247578
40
0.0526131935775056
40
0.0561359206302534
40
0.0596586476830012
40
0.063181374735749
40
0.0702268288412446
40
0.0737495558939924
40
0.0772722829467402
40
0.080795009999488
40
0.0843177370522358
40
0.0878404641049836
40
0.0913631911577314
40
0.0984086452632271
40
0.101931372315975
40
0.105454099368723
40
0.10897682642147
40
0.112499553474218
40
0.116022280526966
40
0.119545007579714
40
0.123067734632462
40
0.126590461685209
40
0.130113188737957
40
0.133635915790705
40
0.137158642843453
40
0.140681369896201
40
0.144204096948949
40
0.147726824001696
40
0.154772278107192
40
0.15829500515994
40
0.161817732212688
40
0.163579095739061
40
0.165340459265435
40
0.168863186318183
40
0.175908640423679
40
0.179431367476427
40
0.182954094529174
40
0.186476821581922
40
0.18999954863467
40
0.197045002740166
40
0.200567729792914
40
0.204090456845661
40
0.205851820372035
40
0.207613183898409
40
0.211135910951157
40
0.218181365056653
40
0.2217040921094
40
0.225226819162148
40
0.228749546214896
40
0.232272273267644
40
0.239317727373139
40
0.242840454425887
40
0.246363181478635
40
0.248124545005009
40
0.249885908531383
40
0.253408635584131
40
0.256931362636878
40
0.260454089689626
40
0.262215453216
40
0.263976816742374
40
0.267499543795122
40
0.27102227084787
40
0.274544997900617
40
0.278067724953365
40
0.281590452006113
40
0.285113179058861
40
0.288635906111609
40
0.292158633164356
40
0.295681360217104
40
0.299204087269852
40
0.3027268143226
40
0.306249541375348
40
0.309772268428096
40
0.313294995480843
40
0.316817722533591
40
0.323863176639087
40
0.327385903691835
40
0.330908630744582
40
0.33443135779733
40
0.337954084850078
40
0.341476811902826
40
0.344999538955574
40
0.348522266008321
40
0.352044993061069
40
0.359090447166565
40
0.366135901272061
40
0.373181355377556
40
0.376704082430304
40
0.380226809483052
40
0.3837495365358
40
0.387272263588547
40
0.390794990641295
40
0.394317717694043
40
0.397840444746791
40
0.401363171799539
40
0.404885898852286
40
0.408408625905034
40
0.411931352957782
40
0.41545408001053
40
0.418976807063278
40
0.422499534116025
40
0.426022261168773
40
0.429544988221521
40
0.433067715274269
40
0.434829078800643
40
0.436590442327017
40
0.438351805853391
40
0.440113169379764
40
0.443635896432512
40
0.44715862348526
40
0.448919987011634
40
0.450681350538008
40
0.452442714064382
40
0.454204077590756
40
0.457726804643503
40
0.459488168169877
40
0.461249531696251
40
0.463010895222625
40
0.464772258748999
40
0.466533622275373
40
0.468294985801747
40
0.470056349328121
40
0.471817712854495
40
0.473579076380869
40
0.475340439907243
40
0.477101803433616
40
0.47886316695999
40
0.480624530486364
40
0.482385894012738
40
0.484147257539112
40
0.485908621065486
40
0.48766998459186
40
0.489431348118234
40
0.491192711644608
40
0.492954075170982
40
0.494715438697355
40
0.496476802223729
40
0.498238165750103
40
0.499999529276477
40
0.501760892802851
40
0.503522256329225
40
0.505283619855599
40
0.507044983381973
40
0.508806346908347
40
0.51056771043472
40
0.512329073961095
40
0.514090437487468
40
0.515851801013842
40
0.517613164540216
40
0.51937452806659
40
0.521135891592964
40
0.522897255119338
40
0.524658618645712
40
0.526419982172086
40
0.52818134569846
40
0.529942709224833
40
0.531704072751207
40
0.533465436277581
40
0.535226799803955
40
0.536988163330329
40
0.538749526856703
40
0.540510890383077
40
0.542272253909451
40
0.545794980962199
40
0.547556344488572
40
0.549317708014946
40
0.55107907154132
40
0.552840435067694
40
0.556363162120442
40
0.55988588917319
40
0.561647252699564
40
0.563408616225938
40
0.565169979752312
40
0.566931343278685
40
0.570454070331433
40
0.573976797384181
40
0.577499524436929
40
0.581022251489677
40
0.584544978542424
40
0.588067705595172
40
0.59159043264792
40
0.595113159700668
40
0.598635886753416
40
0.602158613806164
40
0.605681340858911
40
0.609204067911659
40
0.612726794964407
40
0.616249522017155
40
0.619772249069903
40
0.62329497612265
40
0.626817703175398
40
0.633863157280894
40
0.640908611386389
40
0.647954065491885
40
0.651476792544633
40
0.654999519597381
40
0.658522246650128
40
0.662044973702876
40
0.665567700755624
40
0.669090427808372
40
0.67261315486112
40
0.676135881913868
40
0.683181336019363
40
0.686704063072111
40
0.690226790124859
40
0.693749517177607
40
0.697272244230354
40
0.700794971283102
40
0.70431769833585
40
0.707840425388598
40
0.711363152441346
40
0.714885879494093
40
0.718408606546841
40
0.721931333599589
40
0.725454060652337
40
0.732499514757832
40
0.73602224181058
40
0.739544968863328
40
0.746590422968824
40
0.750113150021571
40
0.753635877074319
40
0.757158604127067
40
0.760681331179815
40
0.767726785285311
40
0.771249512338058
40
0.774772239390806
40
0.778294966443554
40
0.781817693496302
40
0.788863147601797
40
0.792385874654545
40
0.795908601707293
40
0.799431328760041
40
0.802954055812789
40
0.809999509918284
40
0.813522236971032
40
0.81704496402378
40
0.820567691076528
40
0.824090418129276
40
0.831135872234771
40
0.834658599287519
40
0.838181326340267
40
0.841704053393014
40
0.845226780445762
40
0.852272234551258
40
0.855794961604006
40
0.859317688656754
40
0.862840415709501
40
0.866363142762249
40
0.869885869814997
40
0.873408596867745
40
0.876931323920493
40
0.88045405097324
40
0.883976778025988
40
0.887499505078736
40
0.891022232131484
40
0.894544959184232
40
0.898067686236979
40
0.901590413289727
40
0.908635867395223
40
0.912158594447971
40
0.915681321500718
40
0.919204048553466
40
0.922726775606214
40
0.926249502658962
40
0.92977222971171
40
0.936817683817205
40
0.940340410869953
40
0.943863137922701
40
0.947385864975449
40
0.950908592028197
40
0.957954046133692
40
0.96147677318644
40
0.964999500239188
40
0.968522227291935
40
0.972044954344683
40
0.975567681397431
40
0.979090408450179
40
0.982613135502927
40
0.986135862555675
40
0.989658589608422
40
0.99318131666117
40
0.996704043713918
40
1
40
1
40
1
40
1
41
1
10
-1.99503997793931
20
21.8251672639473
30
0
41
1
10
-1.99503997793931
20
21.8252770540748
30
0
41
1
10
-1.99503997793928
20
21.8245105783955
30
0
41
1
10
-1.99503997793928
20
21.8202836860757
30
0
41
1
10
-1.99503997793928
20
21.812783044142
30
0
41
1
10
-1.99503997793928
20
21.8021565364934
30
0
41
1
10
-1.99503997793928
20
21.7884557330328
30
0
41
1
10
-1.99503997793928
20
21.7717308612526
30
0
41
1
10
-1.99503997793928
20
21.7520291985819
30
0
41
1
10
-1.99503997793928
20
21.7218385059106
30
0
41
1
10
-1.99503997793928
20
21.6769140218914
30
0
41
1
10
-1.99503997793928
20
21.6117670092986
30
0
41
1
10
-1.99503997793928
20
21.5484022523455
30
0
41
1
10
-1.99503997793928
20
21.4923512863894
30
0
41
1
10
-1.99503997793928
20
21.4477036012609
30
0
41
1
10
-1.99503997793928
20
21.4004602751572
30
0
41
1
10
-1.99503997793928
20
21.3340243579833
30
0
41
1
10
-1.99503997793928
20
21.2626002065085
30
0
41
1
10
-1.99503997793928
20
21.1861355372814
30
0
41
1
10
-1.99503997793928
20
21.126355615456
30
0
41
1
10
-1.99503997793928
20
21.0641493981766
30
0
41
1
10
-1.99503997793928
20
20.9995415089612
30
0
41
1
10
-1.99503997793928
20
20.9325549476398
30
0
41
1
10
-1.99503997793928
20
20.8400664063016
30
0
41
1
10
-1.99503997793928
20
20.7430171949632
30
0
41
1
10
-1.99503997793928
20
20.6412830606924
30
0
41
1
10
-1.99503997793928
20
20.5627395849404
30
0
41
1
10
-1.99503997793928
20
20.4819464711493
30
0
41
1
10
-1.99503997793928
20
20.3989234016943
30
0
41
1
10
-1.99503997793928
20
20.3136873945745
30
0
41
1
10
-1.99503997793928
20
20.2262576082901
30
0
41
1
10
-1.99503997793928
20
20.136651569995
30
0
41
1
10
-1.99503997793928
20
20.0448848271876
30
0
41
1
10
-1.99503997793928
20
19.9509751576252
30
0
41
1
10
-1.99503997793928
20
19.8549383078336
30
0
41
1
10
-1.99503997793928
20
19.7567886026657
30
0
41
1
10
-1.99503997793928
20
19.6565424313982
30
0
41
1
10
-1.99503997793928
20
19.5542139601407
30
0
41
1
10
-1.99503997793928
20
19.4149698127943
30
0
41
1
10
-1.99503997793928
20
19.2717622924356
30
0
41
1
10
-1.99503997793928
20
19.1243520606764
30
0
41
1
10
-1.99503997793928
20
19.0305969699326
30
0
41
1
10
-1.99503997793928
20
18.9545457436666
30
0
41
1
10
-1.99503997793928
20
18.877828345234
30
0
41
1
10
-1.99503997793928
20
18.7418485706132
30
0
41
1
10
-1.99503997793928
20
18.5826225030747
30
0
41
1
10
-1.99503997793928
20
18.4193199892891
30
0
41
1
10
-1.99503997793928
20
18.2949375082747
30
0
41
1
10
-1.99503997793928
20
18.1686188381619
30
0
41
1
10
-1.99503997793928
20
17.9975681157064
30
0
41
1
10
-1.99503997793928
20
17.8228588844704
30
0
41
1
10
-1.99503997793928
20
17.6441795672679
30
0
41
1
10
-1.99503997793928
20
17.5309981410348
30
0
41
1
10
-1.99503997793928
20
17.4394590341184
30
0
41
1
10
-1.99503997793928
20
17.3472945498449
30
0
41
1
10
-1.99503997793928
20
17.1843913435575
30
0
41
1
10
-1.99503997793928
20
16.9946548235122
30
0
41
1
10
-1.99503997793928
20
16.8010333841432
30
0
41
1
10
-1.99503997793928
20
16.654027023888
30
0
41
1
10
-1.99503997793928
20
16.5051894370887
30
0
41
1
10
-1.99503997793928
20
16.3042392155796
30
0
41
1
10
-1.99503997793928
20
16.0998599858609
30
0
41
1
10
-1.99503997793928
20
15.8916662065006
30
0
41
1
10
-1.99503997793928
20
15.7601264684356
30
0
41
1
10
-1.99503997793928
20
15.6539352235828
30
0
41
1
10
-1.99503997793928
20
15.5471478788444
30
0
41
1
10
-1.99503997793928
20
15.4126292313156
30
0
41
1
10
-1.99503997793928
20
15.2493853238091
30
0
41
1
10
-1.99503997793928
20
15.1119089381336
30
0
41
1
10
-1.99503997793928
20
15.0009760777421
30
0
41
1
10
-1.99503997793928
20
14.8894548819647
30
0
41
1
10
-1.99503997793928
20
14.7490386600655
30
0
41
1
10
-1.99503997793928
20
14.578735707937
30
0
41
1
10
-1.99503997793928
20
14.4066808882548
30
0
41
1
10
-1.99503997793928
20
14.2328806917249
30
0
41
1
10
-1.99503997793928
20
14.0573388809364
30
0
41
1
10
-1.99503997793928
20
13.8800596938692
30
0
41
1
10
-1.99503997793928
20
13.7010488098078
30
0
41
1
10
-1.99503997793928
20
13.5203096364964
30
0
41
1
10
-1.99503997793928
20
13.3378467409434
30
0
41
1
10
-1.99503997793928
20
13.1536651576331
30
0
41
1
10
-1.99503997793928
20
12.967767664355
30
0
41
1
10
-1.99503997793928
20
12.7801589185361
30
0
41
1
10
-1.99503997793928
20
12.5908431445087
30
0
41
1
10
-1.99503997793928
20
12.3998230002593
30
0
41
1
10
-1.99503997793928
20
12.1427688173785
30
0
41
1
10
-1.99503997793928
20
11.8826118718573
30
0
41
1
10
-1.99503997793928
20
11.6187779306707
30
0
41
1
10
-1.99503997793928
20
11.4192921752591
30
0
41
1
10
-1.99503997793928
20
11.2181233733031
30
0
41
1
10
-1.99503997793928
20
11.0152750188843
30
0
41
1
10
-1.99503997793928
20
10.8107494713072
30
0
41
1
10
-1.99503997793928
20
10.6045508021232
30
0
41
1
10
-1.99503997793928
20
10.3966814407573
30
0
41
1
10
-1.99503997793928
20
10.1171870033238
30
0
41
1
10
-1.99503997793928
20
9.76392166117952
30
0
41
1
10
-1.99503997793928
20
9.33322608836653
30
0
41
1
10
-1.99503997793928
20
8.96893242084855
30
0
41
1
10
-1.99503997793928
20
8.67397578579323
30
0
41
1
10
-1.99503997793928
20
8.45121977200662
30
0
41
1
10
-1.99503997793928
20
8.22682776167494
30
0
41
1
10
-1.99503997793928
20
8.00080467620245
30
0
41
1
10
-1.99503997793928
20
7.77315513008728
30
0
41
1
10
-1.99503997793928
20
7.54388372935193
30
0
41
1
10
-1.99503997793928
20
7.31299637479285
30
0
41
1
10
-1.99503997793928
20
7.08049945458953
30
0
41
1
10
-1.99503997793928
20
6.8463997482805
30
0
41
1
10
-1.99503997793928
20
6.61070495432838
30
0
41
1
10
-1.99503997793928
20
6.37342319970753
30
0
41
1
10
-1.99503997793928
20
6.13456384015993
30
0
41
1
10
-1.99503997793928
20
5.89413749968628
30
0
41
1
10
-1.99503997793928
20
5.65215638001948
30
0
41
1
10
-1.99503997793928
20
5.4086336510897
30
0
41
1
10
-1.99503997793928
20
5.16358499073451
30
0
41
1
10
-1.99503997793928
20
4.95821799704331
30
0
41
1
10
-1.99503997793928
20
4.79299516838267
30
0
41
1
10
-1.99503997793928
20
4.66878842905288
30
0
41
1
10
-1.99503997793928
20
4.5442150281373
30
0
41
1
10
-1.99503997793928
20
4.37752561794156
30
0
41
1
10
-1.99503997793928
20
4.16851547631595
30
0
41
1
10
-1.99503997793928
20
3.95832363498766
30
0
41
1
10
-1.99503997793928
20
3.78926935835412
30
0
41
1
10
-1.99503997793928
20
3.66223142121836
30
0
41
1
10
-1.99503997793928
20
3.53485872774326
30
0
41
1
10
-1.99503997793928
20
3.36446603264318
30
0
41
1
10
-1.99503997793928
20
3.19381064862623
30
0
41
1
10
-1.99503997793928
20
3.02213557666008
30
0
41
1
10
-1.99503997793928
20
2.8931784837302
30
0
41
1
10
-1.99503997793928
20
2.76392442628162
30
0
41
1
10
-1.99503997793928
20
2.63438251344519
30
0
41
1
10
-1.99503997793928
20
2.50455988721876
30
0
41
1
10
-1.99503997793928
20
2.37446636334928
30
0
41
1
10
-1.99503997793928
20
2.24411116870439
30
0
41
1
10
-1.99503997793928
20
2.11350398186613
30
0
41
1
10
-1.99503997793928
20
1.98265625862297
30
0
41
1
10
-1.99503997793928
20
1.85157817347522
30
0
41
1
10
-1.99503997793928
20
1.72028262405345
30
0
41
1
10
-1.99503997793928
20
1.58878098022359
30
0
41
1
10
-1.99503997793928
20
1.45708718468359
30
0
41
1
10
-1.99503997793928
20
1.32521409071333
30
0
41
1
10
-1.99503997793928
20
1.19317647053177
30
0
41
1
10
-1.99503997793928
20
1.06098852682439
30
0
41
1
10
-1.99503997793928
20
0.928665923975672
30
0
41
1
10
-1.99503997793928
20
0.796224037396229
30
0
41
1
10
-1.99503997793928
20
0.663679321648374
30
0
41
1
10
-1.99503997793928
20
0.531048033506266
30
0
41
1
10
-1.99503997793928
20
0.398347293868937
30
0
41
1
10
-1.99503997793928
20
0.265594055935196
30
0
41
1
10
-1.99503997793928
20
0.132805828560237
30
0
41
1
10
-1.99503997793928
20
-2.0604887E-09
30
0
41
1
10
-1.99503997793928
20
-0.132805835966792
30
0
41
1
10
-1.99503997793928
20
-0.265594069601519
30
0
41
1
10
-1.99503997793928
20
-0.398347307093388
30
0
41
1
10
-1.99503997793928
20
-0.531048037421954
30
0
41
1
10
-1.99503997793928
20
-0.663679323049081
30
0
41
1
10
-1.99503997793928
20
-0.796224050825089
30
0
41
1
10
-1.99503997793928
20
-0.92866594303203
30
0
41
1
10
-1.99503997793928
20
-1.06098853158755
30
0
41
1
10
-1.99503997793928
20
-1.1931764657121
30
0
41
1
10
-1.99503997793928
20
-1.32521410103647
30
0
41
1
10
-1.99503997793928
20
-1.45708720896539
30
0
41
1
10
-1.99503997793928
20
-1.58878099035152
30
0
41
1
10
-1.99503997793928
20
-1.72028261530932
30
0
41
1
10
-1.99503997793928
20
-1.85157817419835
30
0
41
1
10
-1.99503997793928
20
-1.98265628188182
30
0
41
1
10
-1.99503997793928
20
-2.11350400419804
30
0
41
1
10
-1.99503997793928
20
-2.24411116714702
30
0
41
1
10
-1.99503997793928
20
-2.37446635053539
30
0
41
1
10
-1.99503997793928
20
-2.50455989433328
30
0
41
1
10
-1.99503997793928
20
-2.63438254221708
30
0
41
1
10
-1.99503997793928
20
-2.76392444618182
30
0
41
1
10
-1.99503997793928
20
-2.89317847799558
30
0
41
1
10
-1.99503997793928
20
-3.02213556164864
30
0
41
1
10
-1.99503997793928
20
-3.19381066067948
30
0
41
1
10
-1.99503997793928
20
-3.36446606295527
30
0
41
1
10
-1.99503997793928
20
-3.53485872835634
30
0
41
1
10
-1.99503997793928
20
-3.66223140396673
30
0
41
1
10
-1.99503997793928
20
-3.78926935085312
30
0
41
1
10
-1.99503997793928
20
-3.95832365779984
30
0
41
1
10
-1.99503997793928
20
-4.16851549788919
30
0
41
1
10
-1.99503997793928
20
-4.37752560184694
30
0
41
1
10
-1.99503997793928
20
-4.54421502107886
30
0
41
1
10
-1.99503997793928
20
-4.66878844332788
30
0
41
1
10
-1.99503997793928
20
-4.79299519854527
30
0
41
1
10
-1.99503997793928
20
-4.95821801342223
30
0
41
1
10
-1.99503997793928
20
-5.16358497720142
30
0
41
1
10
-1.99503997793928
20
-5.40863364784667
30
0
41
1
10
-1.99503997793928
20
-5.65215640891225
30
0
41
1
10
-1.99503997793928
20
-5.89413750153935
30
0
41
1
10
-1.99503997793928
20
-6.13456381441384
30
0
41
1
10
-1.99503997793928
20
-6.37342317953835
30
0
41
1
10
-1.99503997793928
20
-6.61070492919379
30
0
41
1
10
-1.99503997793928
20
-6.84639976314463
30
0
41
1
10
-1.99503997793928
20
-7.08049963775395
30
0
41
1
10
-1.99503997793928
20
-7.31299670603016
30
0
41
1
10
-1.99503997793928
20
-7.54388383469134
30
0
41
1
10
-1.99503997793928
20
-7.77315487290267
30
0
41
1
10
-1.99503997793928
20
-8.00080468509063
30
0
41
1
10
-1.99503997793928
20
-8.22682785520686
30
0
41
1
10
-1.99503997793928
20
-8.4512197921853
30
0
41
1
10
-1.99503997793928
20
-8.67397577159846
30
0
41
1
10
-1.99503997793928
20
-8.96893239301764
30
0
41
1
10
-1.99503997793928
20
-9.33322609823665
30
0
41
1
10
-1.99503997793928
20
-9.76392165975841
30
0
41
1
10
-1.99503997793928
20
-10.1171869828061
30
0
41
1
10
-1.99503997793928
20
-10.3966814549587
30
0
41
1
10
-1.99503997793928
20
-10.6045508126063
30
0
41
1
10
-1.99503997793928
20
-10.8107494592904
30
0
41
1
10
-1.99503997793928
20
-11.0152749978462
30
0
41
1
10
-1.99503997793928
20
-11.2181233670389
30
0
41
1
10
-1.99503997793928
20
-11.4192921870092
30
0
41
1
10
-1.99503997793928
20
-11.6187779427602
30
0
41
1
10
-1.99503997793928
20
-11.8826118620781
30
0
41
1
10
-1.99503997793928
20
-12.1427687977971
30
0
41
1
10
-1.99503997793928
20
-12.3998230071702
30
0
41
1
10
-1.99503997793928
20
-12.5908431584255
30
0
41
1
10
-1.99503997793928
20
-12.7801589212449
30
0
41
1
10
-1.99503997793928
20
-12.9677676529033
30
0
41
1
10
-1.99503997793928
20
-13.1536651432542
30
0
41
1
10
-1.99503997793928
20
-13.3378467396349
30
0
41
1
10
-1.99503997793928
20
-13.520309646993
30
0
41
1
10
-1.99503997793928
20
-13.7010488212408
30
0
41
1
10
-1.99503997793928
20
-13.8800597145162
30
0
41
1
10
-1.99503997793928
20
-14.0573389921213
30
0
41
1
10
-1.99503997793928
20
-14.2328810143213
30
0
41
1
10
-1.99503997793928
20
-14.4646959102749
30
0
41
1
10
-1.99503997793928
20
-14.6927797943809
30
0
41
1
10
-1.99503997793928
20
-14.9175842595472
30
0
41
1
10
-1.99503997793928
20
-15.1400402265273
30
0
41
1
10
-1.99503997793928
20
-15.3587351142266
30
0
41
1
10
-1.99503997793928
20
-15.574095422854
30
0
41
1
10
-1.99503997793928
20
-15.733775855726
30
0
41
1
10
-1.99503997793928
20
-15.8916657661057
30
0
41
1
10
-1.99503997793928
20
-16.0998603532658
30
0
41
1
10
-1.99503997793928
20
-16.3042398246232
30
0
41
1
10
-1.99503997793928
20
-16.5051894037979
30
0
41
1
10
-1.99503997793928
20
-16.6540265683948
30
0
41
1
10
-1.99503997793928
20
-16.8010329188422
30
0
41
1
10
-1.99503997793928
20
-16.9946550481209
30
0
41
1
10
-1.99503997793928
20
-17.1843924611907
30
0
41
1
10
-1.99503997793928
20
-17.3705928023913
30
0
41
1
10
-1.99503997793928
20
-17.5083251903719
30
0
41
1
10
-1.99503997793928
20
-17.6441786252734
30
0
41
1
10
-1.99503997793928
20
-17.8228590748674
30
0
41
1
10
-1.99503997793928
20
-17.9975683374733
30
0
41
1
10
-1.99503997793928
20
-18.1686188521771
30
0
41
1
10
-1.99503997793928
20
-18.2949373683468
30
0
41
1
10
-1.99503997793928
20
-18.4193198181252
30
0
41
1
10
-1.99503997793928
20
-18.5826226298873
30
0
41
1
10
-1.99503997793928
20
-18.7418497326446
30
0
41
1
10
-1.99503997793928
20
-18.8972761707097
30
0
41
1
10
-1.99503997793928
20
-19.0118150097952
30
0
41
1
10
-1.99503997793928
20
-19.1243510467918
30
0
41
1
10
-1.99503997793928
20
-19.2717625055688
30
0
41
1
10
-1.99503997793928
20
-19.414970513124
30
0
41
1
10
-1.99503997793928
20
-19.5542140249085
30
0
41
1
10
-1.99503997793928
20
-19.6565420567613
30
0
41
1
10
-1.99503997793928
20
-19.7567881415466
30
0
41
1
10
-1.99503997793928
20
-19.8549381550126
30
0
41
1
10
-1.99503997793928
20
-19.9509751416388
30
0
41
1
10
-1.99503997793928
20
-20.0448848362119
30
0
41
1
10
-1.99503997793928
20
-20.1366515718167
30
0
41
1
10
-1.99503997793928
20
-20.2262576202058
30
0
41
1
10
-1.99503997793928
20
-20.3136874196731
30
0
41
1
10
-1.99503997793928
20
-20.398923430088
30
0
41
1
10
-1.99503997793928
20
-20.4819464863244
30
0
41
1
10
-1.99503997793928
20
-20.5627395868944
30
0
41
1
10
-1.99503997793928
20
-20.6412830627252
30
0
41
1
10
-1.99503997793928
20
-20.7430172190698
30
0
41
1
10
-1.99503997793928
20
-20.8400664428987
30
0
41
1
10
-1.99503997793928
20
-20.9325549572362
30
0
41
1
10
-1.99503997793928
20
-20.9995415068112
30
0
41
1
10
-1.99503997793928
20
-21.064149408511
30
0
41
1
10
-1.99503997793928
20
-21.1263556466612
30
0
41
1
10
-1.99503997793928
20
-21.1861355753666
30
0
41
1
10
-1.99503997793928
20
-21.262600218376
30
0
41
1
10
-1.99503997793928
20
-21.3340243512753
30
0
41
1
10
-1.99503997793928
20
-21.4004603045828
30
0
41
1
10
-1.99503997793928
20
-21.4477036445725
30
0
41
1
10
-1.99503997793928
20
-21.4923513092323
30
0
41
1
10
-1.99503997793928
20
-21.5484022410126
30
0
41
1
10
-1.99503997793928
20
-21.5990695510926
30
0
41
1
10
-1.99503997793928
20
-21.6443396610233
30
0
41
1
10
-1.99503997793928
20
-21.6755105092645
30
0
41
1
10
-1.99503997793928
20
-21.7038764495607
30
0
41
1
10
-1.99503997793928
20
-21.7293964429163
30
0
41
1
10
-1.99503997793928
20
-21.7520292420694
30
0
41
1
10
-1.99503997793928
20
-21.7717309018817
30
0
41
1
10
-1.99503997793928
20
-21.7884557380592
30
0
41
1
10
-1.99503997793928
20
-21.8021565310045
30
0
41
1
10
-1.99503997793928
20
-21.8127830851058
30
0
41
1
10
-1.99503997793928
20
-21.8202838734724
30
0
41
1
10
-1.99503997793926
20
-21.8245113102197
30
0
41
1
10
-1.99503997793926
20
-21.8252773307308
30
0
41
1
10
-1.99503997793926
20
-21.8251671095679
30
0
0
SPLINE
5
18B
100
AcDbEntity
8
SK1
62
256
6
ByLayer
370
18
48
1
60
0
100
AcDbSpline
70
4
71
3
72
26
73
22
40
0
40
0
40
0
40
0
40
0.462420532187944
40
0.462420532187944
40
0.662465761698283
40
0.662465761698283
40
0.830433309169693
40
0.830433309169693
40
0.87601894963741
40
0.87601894963741
40
0.905535493032455
40
0.905535493032455
40
0.92577818311669
40
0.92577818311669
40
0.946307111163799
40
0.946307111163799
40
0.963675313617857
40
0.963675313617857
40
0.991859972782862
40
0.991859972782862
40
1
40
1
40
1
40
1
41
1
10
-0.199999999999989
20
-7.05951749342083
30
0
41
1
10
-0.199999999999989
20
-6.93273416480454
30
0
41
1
10
-0.203968014086513
20
-6.80463429773329
30
0
41
1
10
-0.223222206303944
20
-6.62063667774228
30
0
41
1
10
-0.230822389897867
20
-6.56482953243432
30
0
41
1
10
-0.252035566714568
20
-6.46316921019911
30
0
41
1
10
-0.263798801619998
20
-6.41617607028249
30
0
41
1
10
-0.290531391619595
20
-6.36108887379029
30
0
41
1
10
-0.29710300077241
20
-6.34947181616241
30
0
41
1
10
-0.310313928765424
20
-6.33213067856883
30
0
41
1
10
-0.316208846631128
20
-6.32567949173321
30
0
41
1
10
-0.327595492701022
20
-6.31681373578161
30
0
41
1
10
-0.332739264568545
20
-6.31372817209197
30
0
41
1
10
-0.343644708736434
20
-6.30958040401461
30
0
41
1
10
-0.349575964479982
20
-6.30853210514005
30
0
41
1
10
-0.360183897281416
20
-6.30881607347521
30
0
41
1
10
-0.365032052617437
20
-6.30978620719449
30
0
41
1
10
-0.376922909163994
20
-6.31387292952667
30
0
41
1
10
-0.383695246431131
20
-6.3179475897727
30
0
41
1
10
-0.39156461480826
20
-6.32402624429125
30
0
41
1
10
-0.393293161608796
20
-6.32546009510432
30
0
41
1
10
-0.394976888875277
20
-6.32694279392757
30
0
0
SPLINE
5
18C
100
AcDbEntity
8
1
62
256
6
ByLayer
370
18
48
1
60
0
100
AcDbSpline
70
4
71
2
72
6
73
3
40
0
40
0
40
0
40
1
40
1
40
1
41
1
10
35.5628590824079
20
12.0374188327376
30
0
41
1
10
35.5253317076358
20
12.0129150712903
30
0
41
1
10
35.4878043328636
20
11.988411309843
30
0
0
SPLINE
5
18D
100
AcDbEntity
8
1
62
256
6
ByLayer
370
18
48
1
60
0
100
AcDbSpline
70
4
71
3
72
8
73
4
40
0
40
0
40
0
40
0
40
1
40
1
40
1
40
1
41
1
10
19.9115068236138
20
28.1821198447845
30
0
41
1
10
19.9174179697513
20
28.1523556667701
30
0
41
1
10
19.9250456421063
20
28.1198558110404
30
0
41
1
10
19.9340875486334
20
28.0847311956738
30
0
0
SPLINE
5
18E
100
AcDbEntity
8
1
62
256
6
ByLayer
370
18
48
1
60
0
100
AcDbSpline
70
4
71
3
72
15
73
11
40
0
40
0
40
0
40
0
40
0.28103962914102
40
0.28103962914102
40
0.562712048900373
40
0.562712048900373
40
0.835250831097508
40
0.835250831097508
40
0.835250831097508
40
1
40
1
40
1
40
1
41
1
10
19.9115068236138
20
-29.9850116132027
30
0
41
1
10
19.9505361776874
20
-30.1286017607468
30
0
41
1
10
20.0674973665296
20
-30.2617723075542
30
0
41
1
10
20.4463314652044
20
-30.489895050164
30
0
41
1
10
20.7141452574929
20
-30.5880850478212
30
0
41
1
10
21.3538238361363
20
-30.741378992888
30
0
41
1
10
21.7310620960588
20
-30.8001569918553
30
0
41
1
10
22.1388781334302
20
-30.8415901871074
30
0
41
1
10
22.3877509516846
20
-30.8668751075782
30
0
41
1
10
22.6513106929054
20
-30.88619079412
30
0
41
1
10
22.92079238
20
-30.8996141556632
30
0
0
SPLINE
5
18F
100
AcDbEntity
8
1
62
256
6
ByLayer
370
18
48
1
60
0
100
AcDbSpline
70
4
71
3
72
10
73
6
40
0
40
0
40
0
40
0
40
0.690272108908799
40
0.690272108908799
40
1
40
1
40
1
40
1
41
1
10
13.8943375672974
20
24.7520548830776
30
0
41
1
10
13.8395431206921
20
24.5485075382183
30
0
41
1
10
13.7572550106766
20
24.3530769032313
30
0
41
1
10
13.5891377804999
20
24.1179667125787
30
0
41
1
10
13.5287708184857
20
24.0507408934402
30
0
41
1
10
13.4613248654052
20
23.9979013266023
30
0
0
SPLINE
5
190
100
AcDbEntity
8
1
62
256
6
ByLayer
370
18
48
1
60
0
100
AcDbSpline
70
4
71
3
72
8
73
4
40
0
40
0
40
0
40
0
40
1
40
1
40
1
40
1
41
1.02613459695995
10
25.8067407018457
20
31.9336312377888
30
0
41
1.02613459695995
10
25.5688476226512
20
31.6123069749894
30
0
41
1.02613459695995
10
25.3719173928491
20
31.2486555164573
30
0
41
1.02613459695995
10
25.2232537901042
20
30.8490301484144
30
0
0
SPLINE
5
191
100
AcDbEntity
8
1
62
256
6
ByLayer
370
18
48
1
60
0
100
AcDbSpline
70
4
71
3
72
8
73
4
40
0
40
0
40
0
40
0
40
1
40
1
40
1
40
1
41
1.02613459695995
10
25.4688621983168
20
26.3559988823574
30
0
41
1.02613459695995
10
25.6627533458441
20
25.9059664900299
30
0
41
1.02613459695995
10
25.9096646415878
20
25.457592402473
30
0
41
1.02613459695995
10
26.2141771043095
20
25.0244869981883
30
0
0
SPLINE
5
192
100
AcDbEntity
8
1
62
256
6
ByLayer
370
18
48
1
60
0
100
AcDbSpline
70
4
71
3
72
12
73
8
40
0
40
0
40
0
40
0
40
0.45150534291289
40
0.45150534291289
40
0.920730471123023
40
0.920730471123023
40
1
40
1
40
1
40
1
41
1
10
13.4613248654052
20
25.997099587303
30
0
41
1
10
13.547661047609
20
25.929460740764
30
0
41
1
10
13.6282992629309
20
25.8729427445377
30
0
41
1
10
13.7673195883123
20
25.7763694015603
30
0
41
1
10
13.8267012384145
20
25.7351243777348
30
0
41
1
10
13.8799694443486
20
25.7002149875781
30
0
41
1
10
13.8873502204194
20
25.6954884708364
30
0
41
1
10
13.8943375672974
20
25.6912337669114
30
0
0
SPLINE
5
193
100
AcDbEntity
8
1
62
256
6
ByLayer
370
18
48
1
60
0
100
AcDbSpline
70
4
71
3
72
12
73
8
40
0
40
0
40
0
40
0
40
0.290768162287771
40
0.290768162287771
40
0.581536297163925
40
0.581536297163925
40
1
40
1
40
1
40
1
41
1
10
41.2202093253612
20
9.20083922069784
30
0
41
1
10
41.2438457192649
20
9.20898366417484
30
0
41
1
10
41.2674479976851
20
9.21722779289914
30
0
41
1
10
41.3145820431734
20
9.23391389247689
30
0
41
1
10
41.3381142255624
20
9.24235601218817
30
0
41
1
10
41.3954250793167
20
9.26318743992957
30
0
41
1
10
41.4291662579881
20
9.27568243849143
30
0
41
1
10
41.4628306358128
20
9.28837921641392
30
0
0
SPLINE
5
194
100
AcDbEntity
8
1
62
256
6
ByLayer
370
18
48
1
60
0
100
AcDbSpline
70
4
71
3
72
11
73
7
40
0
40
0
40
0
40
0
40
0.226877868314768
40
0.381502294651815
40
0.690751147325907
40
1
40
1
40
1
40
1
41
1
10
41.7013352907115
20
9.38222382198239
30
0
41
1
10
41.2846446116686
20
9.25850091546067
30
0
41
1
10
40.533510660083
20
9.15858072277211
30
0
41
1
10
39.0750042084332
20
9.34044551152627
30
0
41
1
10
37.3665911982205
20
10.069862180666
30
0
41
1
10
36.0970923421262
20
11.2773472376533
30
0
41
1
10
35.5628590824079
20
12.0374188327376
30
0
0
SPLINE
5
195
100
AcDbEntity
8
1
62
256
6
ByLayer
370
18
48
1
60
0
100
AcDbSpline
70
4
71
3
72
8
73
4
40
0
40
0
40
0
40
0
40
1
40
1
40
1
40
1
41
1
10
23.8962856159808
20
-31.0760760071151
30
0
41
1
10
23.5776018829067
20
-31.0760760071151
30
0
41
1
10
23.2659394678548
20
-31.0688931604307
30
0
41
1
10
22.9609847588647
20
-31.0544615075761
30
0
0
SPLINE
5
196
100
AcDbEntity
8
1
62
256
6
ByLayer
370
18
48
1
60
0
100
AcDbSpline
70
4
71
3
72
12
73
8
40
0
40
0
40
0
40
0
40
0.348659528467882
40
0.348659528467882
40
0.674323771489841
40
0.674323771489841
40
1
40
1
40
1
40
1
41
1
10
25.8067407018449
20
31.9336312377877
30
0
41
1
10
25.824202637695
20
31.9511405867193
30
0
41
1
10
25.8417224726632
20
31.968592375006
30
0
41
1
10
25.8757172144931
20
32.002232903256
30
0
41
1
10
25.8921849873151
20
32.0184291891394
30
0
41
1
10
25.925220009559
20
32.0507209555788
30
0
41
1
10
25.9417874145365
20
32.0668165809022
30
0
41
1
10
25.9584038228723
20
32.0828613425215
30
0
0
SPLINE
5
197
100
AcDbEntity
8
1
62
256
6
ByLayer
370
18
48
1
60
0
100
AcDbSpline
70
4
71
3
72
8
73
4
40
0
40
0
40
0
40
0
40
1
40
1
40
1
40
1
41
1
10
24.078325231456
20
35.4011561406791
30
0
41
1
10
23.7545313398447
20
34.1529547766159
30
0
41
1
10
23.4351052065542
20
32.9102917796717
30
0
41
1
10
23.1219141666924
20
31.6731305178926
30
0
0
SPLINE
5
198
100
AcDbEntity
8
1
62
256
6
ByLayer
370
18
48
1
60
0
100
AcDbSpline
70
4
71
2
72
6
73
3
40
0
40
0
40
0
40
1
40
1
40
1
41
1
10
35.5628590824079
20
12.0374188327377
30
0
41
1
10
35.8367262178712
20
12.2162422915164
30
0
41
1
10
36.0131248037595
20
12.502775656288
30
0
0
SPLINE
5
199
100
AcDbEntity
8
1
62
256
6
ByLayer
370
18
48
1
60
0
100
AcDbSpline
70
4
71
3
72
14
73
10
40
0
40
0
40
0
40
0
40
0.264682281129105
40
0.264682281129105
40
0.529206797196864
40
0.529206797196864
40
0.796215005013496
40
0.796215005013496
40
1
40
1
40
1
40
1
41
1
10
22.92079238
20
30.8996141556632
30
0
41
1
10
22.4918347090298
20
30.8782470120691
30
0
41
1
10
22.0760939855286
20
30.8416690423415
30
0
41
1
10
21.3399746287024
20
30.7377355602684
30
0
41
1
10
21.0095242838747
20
30.6687823920308
30
0
41
1
10
20.4724242383792
20
30.4990243000185
30
0
41
1
10
20.2597267854547
20
30.3955004707743
30
0
41
1
10
20.0093210835962
20
30.1888506958789
30
0
41
1
10
19.9399854717531
20
30.0897854016817
30
0
41
1
10
19.9115068236138
20
29.9850116132027
30
0
0
SPLINE
5
19A
100
AcDbEntity
8
1
62
256
6
ByLayer
370
18
48
1
60
0
100
AcDbSpline
70
4
71
3
72
10
73
6
40
0
40
0
40
0
40
0
40
0.94346466449175
40
0.94346466449175
40
1
40
1
40
1
40
1
41
1
10
33.1756981374355
20
11.8612335235064
30
0
41
1
10
33.1613722558566
20
11.9229676025113
30
0
41
1
10
33.1480661426853
20
11.9877020421098
30
0
41
1
10
33.1348806351507
20
12.0583561506738
30
0
41
1
10
33.1341322679775
20
12.0623422402649
30
0
41
1
10
33.1333988293106
20
12.0663317678434
30
0
0
SPLINE
5
19B
100
AcDbEntity
8
1
62
256
6
ByLayer
370
18
48
1
60
0
100
AcDbSpline
70
4
71
3
72
8
73
4
40
0
40
0
40
0
40
0
40
1
40
1
40
1
40
1
41
1
10
41.7013352907098
20
9.38222382198191
30
0
41
1
10
42.3429001618513
20
9.64521192078956
30
0
41
1
10
42.9165825949951
20
10.0315679210499
30
0
41
1
10
43.3989268281242
20
10.5300250633812
30
0
0
SPLINE
5
19C
100
AcDbEntity
8
1
62
256
6
ByLayer
370
18
48
1
60
0
100
AcDbSpline
70
4
71
3
72
8
73
4
40
0
40
0
40
0
40
0
40
1
40
1
40
1
40
1
41
1
10
25.5868137757096
20
41.1829325693247
30
0
41
1
10
25.0816564173627
20
39.256306236042
30
0
41
1
10
24.5784611903679
20
37.3291430555162
30
0
41
1
10
24.078325231456
20
35.4011561406791
30
0
0
SPLINE
5
19D
100
AcDbEntity
8
1
62
256
6
ByLayer
370
18
48
1
60
0
100
AcDbSpline
70
4
71
3
72
8
73
4
40
0
40
0
40
0
40
0
40
1
40
1
40
1
40
1
41
1
10
24.312005086031
20
25.519556725957
30
0
41
1
10
24.4584738973925
20
24.7560108134373
30
0
41
1
10
24.6945024281777
20
24.0063776189968
30
0
41
1
10
25.0053692534571
20
23.2941870454512
30
0
0
SPLINE
5
19E
100
AcDbEntity
8
1
62
256
6
ByLayer
370
18
48
1
60
0
100
AcDbSpline
70
4
71
3
72
8
73
4
40
0
40
0
40
0
40
0
40
1
40
1
40
1
40
1
41
1
10
22.9609847588646
20
-31.0544615075761
30
0
41
1
10
22.9475806244986
20
-31.0028429217618
30
0
41
1
10
22.9341831017393
20
-30.9512270468484
30
0
41
1
10
22.92079238
20
-30.8996141556632
30
0
0
SPLINE
5
19F
100
AcDbEntity
8
1
62
256
6
ByLayer
370
18
48
1
60
0
100
AcDbSpline
70
4
71
3
72
10
73
6
40
0
40
0
40
0
40
0
40
0.5
40
0.5
40
1
40
1
40
1
40
1
41
1
10
42.5984743873343
20
14.5510953997364
30
0
41
1
10
43.0812833362627
20
13.8642936936808
30
0
41
1
10
43.4263134040956
20
13.0901074214175
30
0
41
1
10
43.7116244598929
20
11.6568481459422
30
0
41
1
10
43.6511711066251
20
11.001464103816
30
0
41
1
10
43.3989267964747
20
10.5300250042291
30
0
0
SPLINE
5
1A0
100
AcDbEntity
8
1
62
256
6
ByLayer
370
18
48
1
60
0
100
AcDbSpline
70
4
71
3
72
11
73
7
40
0
40
0
40
0
40
0
40
0.178398369361444
40
0.342718695489155
40
0.671359347744578
40
1
40
1
40
1
40
1
41
1.02613459695995
10
41.2202093231299
20
9.20083922023339
30
0
41
1.02613459695995
10
40.9008814010337
20
9.13437014716587
30
0
41
1.02613459695995
10
40.2588110508657
20
9.07610112698637
30
0
41
1.02613459695995
10
38.9248947093444
20
9.24243046573703
30
0
41
1.02613459695995
10
37.2164816991318
20
9.97184713487678
30
0
41
1.02613459695995
10
35.9469828430375
20
11.1793321918641
30
0
41
1.02613459695995
10
35.4127495833192
20
11.9394037869484
30
0
0
SPLINE
5
1A1
100
AcDbEntity
8
1
62
256
6
ByLayer
370
18
48
1
60
0
100
AcDbSpline
70
4
71
3
72
8
73
4
40
0
40
0
40
0
40
0
40
1
40
1
40
1
40
1
41
1
10
25.958403822873
20
32.0828613425216
30
0
41
1
10
25.6755925963654
20
31.724453144452
30
0
41
1
10
25.4457090220541
20
31.3094243912118
30
0
41
1
10
25.2797900770635
20
30.847375741242
30
0
0
SPLINE
5
1A2
100
AcDbEntity
8
1
62
256
6
ByLayer
370
18
48
1
60
0
100
AcDbSpline
70
4
71
3
72
8
73
4
40
0
40
0
40
0
40
0
40
1
40
1
40
1
40
1
41
1
10
25.5453069464402
20
26.4017822735947
30
0
41
1
10
25.7389877191116
20
25.9528325802372
30
0
41
1
10
25.9854465957986
20
25.5055656285503
30
0
41
1
10
26.2892318538539
20
25.0734945210829
30
0
0
SPLINE
5
1A3
100
AcDbEntity
8
1
62
256
6
ByLayer
370
18
48
1
60
0
100
AcDbSpline
70
4
71
3
72
16
73
12
40
0
40
0
40
0
40
0
40
0.463423600832241
40
0.463423600832241
40
0.646243952932837
40
0.646243952932837
40
0.831657283224505
40
0.831657283224505
40
0.947504344290848
40
0.947504344290848
40
1
40
1
40
1
40
1
41
1
10
10.1056624327026
20
9.86941261896621
30
0
41
1
10
10.1343390747265
20
9.76458357826289
30
0
41
1
10
10.1736499876091
20
9.66039292789938
30
0
41
1
10
10.2546180633468
20
9.52957658281042
30
0
41
1
10
10.2809130191141
20
9.49380155568073
30
0
41
1
10
10.3420137796675
20
9.42941539787637
30
0
41
1
10
10.3777400094532
20
9.40014891155712
30
0
41
1
10
10.4433516536449
20
9.36662118733787
30
0
41
1
10
10.4710402024013
20
9.35698328824239
30
0
41
1
10
10.5123223625249
20
9.35029954873107
30
0
41
1
10
10.5255210031399
20
9.34922131452504
30
0
41
1
10
10.5386751345948
20
9.34922131452504
30
0
0
SPLINE
5
1A4
100
AcDbEntity
8
1
62
256
6
ByLayer
370
18
48
1
60
0
100
AcDbSpline
70
4
71
3
72
10
73
6
40
0
40
0
40
0
40
0
40
0.5
40
0.5
40
1
40
1
40
1
40
1
41
1
10
33.175698137439
20
11.8612335235095
30
0
41
1
10
34.1473231542836
20
10.7158906863945
30
0
41
1
10
35.4461692830092
20
9.87645419104962
30
0
41
1
10
38.2350173462498
20
8.86115797390548
30
0
41
1
10
39.7879733983864
20
8.70733058550303
30
0
41
1
10
41.2202093254758
20
9.20083922261011
30
0
0
SPLINE
5
1A5
100
AcDbEntity
8
1
62
256
6
ByLayer
370
18
48
1
60
0
100
AcDbSpline
70
4
71
3
72
12
73
8
40
0
40
0
40
0
40
0
40
0.0182968219912156
40
0.0182968219912156
40
0.805534938804045
40
0.805534938804045
40
1
40
1
40
1
40
1
41
1
10
25.4913378604705
20
22.9372580897467
30
0
41
1
10
25.48776535123
20
22.9393938263657
30
0
41
1
10
25.4842010990526
20
22.9415424908158
30
0
41
1
10
25.3275886858105
20
23.035755899794
30
0
41
1
10
25.1849327437212
20
23.1309300083702
30
0
41
1
10
25.0514428169297
20
23.247666166475
30
0
41
1
10
25.0269016147821
20
23.2710526737257
30
0
41
1
10
25.0053692534634
20
23.2941870454445
30
0
0
SPLINE
5
1A6
100
AcDbEntity
8
1
62
256
6
ByLayer
370
18
48
1
60
0
100
AcDbSpline
70
4
71
3
72
16
73
12
40
0
40
0
40
0
40
0
40
0.463423600832262
40
0.463423600832262
40
0.646243952932856
40
0.646243952932856
40
0.831657283224518
40
0.831657283224518
40
0.94750434429086
40
0.94750434429086
40
1
40
1
40
1
40
1
41
1
10
10.1056624327026
20
-29.9139548464691
30
0
41
1
10
10.1343390747265
20
-29.9485407466772
30
0
41
1
10
10.1736499876091
20
-29.982269090612
30
0
41
1
10
10.2546180633468
20
-30.0239686896252
30
0
41
1
10
10.2809130191141
20
-30.0352936109065
30
0
41
1
10
10.3420137796675
20
-30.0555697561518
30
0
41
1
10
10.3777400094532
20
-30.0647246060481
30
0
41
1
10
10.4433516536449
20
-30.0751823136668
30
0
41
1
10
10.4710402024013
20
-30.0781795790239
30
0
41
1
10
10.5123223625249
20
-30.0802576981002
30
0
41
1
10
10.5255210031399
20
-30.0805927603169
30
0
41
1
10
10.5386751345948
20
-30.0805927603169
30
0
0
SPLINE
5
1A7
100
AcDbEntity
8
1
62
256
6
ByLayer
370
18
48
1
60
0
100
AcDbSpline
70
4
71
3
72
16
73
12
40
0
40
0
40
0
40
0
40
0.113316224833592
40
0.113316224833592
40
0.252990411571568
40
0.252990411571568
40
0.473309013928318
40
0.473309013928318
40
0.896716357718825
40
0.896716357718825
40
1
40
1
40
1
40
1
41
1
10
13.4613248654052
20
9.3492213145251
30
0
41
1
10
13.4894125595718
20
9.3492213145251
30
0
41
1
10
13.517849357763
20
9.35431657338981
30
0
41
1
10
13.5767970345725
20
9.37467777536565
30
0
41
1
10
13.6072473721288
20
9.39213979793414
30
0
41
1
10
13.6769143636602
20
9.44503542604383
30
0
41
1
10
13.7128266507651
20
9.4856938043188
30
0
41
1
10
13.8014637450836
20
9.61105923366807
30
0
41
1
10
13.842370839753
20
9.70465429390066
30
0
41
1
10
13.8809034737598
20
9.82244573862474
30
0
41
1
10
13.8878971837969
20
9.84586944318031
30
0
41
1
10
13.8943375672975
20
9.86941261896621
30
0
0
SPLINE
5
1A8
100
AcDbEntity
8
1
62
256
6
ByLayer
370
18
48
1
60
0
100
AcDbSpline
70
4
71
3
72
9
73
5
40
0
40
0
40
0
40
0
40
0.899125204683422
40
1
40
1
40
1
40
1
41
1.02613459695995
10
42.5984743873342
20
14.5510953997364
30
0
41
1.02613459695995
10
41.8987011442779
20
14.0381055594488
30
0
41
1.02613459695995
10
40.9286225543974
20
13.7346570913389
30
0
41
1.02613459695995
10
39.8590575875975
20
13.7976329101018
30
0
41
1.02613459695995
10
39.7503006871334
20
13.8077959459045
30
0
0
SPLINE
5
1A9
100
AcDbEntity
8
1
62
256
6
ByLayer
370
18
48
1
60
0
100
AcDbSpline
70
4
71
2
72
6
73
3
40
0
40
0
40
0
40
1
40
1
40
1
41
1
10
26.2141771043096
20
25.0244869981883
30
0
41
1
10
25.2828796703937
20
24.4163898345657
30
0
41
1
10
25.4864958784413
20
22.9414368019919
30
0
0
SPLINE
5
1AA
100
AcDbEntity
8
1
62
256
6
ByLayer
370
18
48
1
60
0
100
AcDbSpline
70
4
71
3
72
12
73
8
40
0
40
0
40
0
40
0
40
0.349686636732721
40
0.349686636732721
40
0.674837480218284
40
0.674837480218284
40
1
40
1
40
1
40
1
41
1
10
25.9584038228725
20
32.0828613425209
30
0
41
1
10
25.9761928536695
20
32.1000383854058
30
0
41
1
10
25.994038228516
20
32.1171573064897
30
0
41
1
10
26.0285842309588
20
32.1500811113191
30
0
41
1
10
26.0452774813106
20
32.1658940649851
30
0
41
1
10
26.07875996623
20
32.1974190628282
30
0
41
1
10
26.0955493544717
20
32.2131312448264
30
0
41
1
10
26.1123860295245
20
32.2287925192463
30
0
0
SPLINE
5
1AB
100
AcDbEntity
8
1
62
256
6
ByLayer
370
18
48
1
60
0
100
AcDbSpline
70
4
71
3
72
8
73
4
40
0
40
0
40
0
40
0
40
1
40
1
40
1
40
1
41
1
10
26.1123860295246
20
32.2287925192459
30
0
41
1
10
26.5153513270615
20
32.6036260351651
30
0
41
1
10
26.9706256135682
20
32.8981344052179
30
0
41
1
10
27.4794636827083
20
33.1103907811497
30
0
0
SPLINE
5
1AC
100
AcDbEntity
8
1
62
256
6
ByLayer
370
18
48
1
60
0
100
AcDbSpline
70
4
71
2
72
7
73
4
40
0
40
0
40
0
40
0.422013723493268
40
1
40
1
40
1
41
1
10
33.1334019658717
20
12.0657159072615
30
0
41
1
10
33.67758972013
20
11.7805865605679
30
0
41
1
10
34.9116535878269
20
11.6122096570556
30
0
41
1
10
35.4127495833192
20
11.9394037869484
30
0
0
SPLINE
5
1AD
100
AcDbEntity
8
1
62
256
6
ByLayer
370
18
48
1
60
0
100
AcDbSpline
70
4
71
1
72
4
73
2
40
0
40
0
40
1
40
1
41
1
10
26.3642866033983
20
25.1225020439775
30
0
41
1
10
26.2892318538539
20
25.0734945210829
30
0
0
SPLINE
5
1AE
100
AcDbEntity
8
1
62
256
6
ByLayer
370
18
48
1
60
0
100
AcDbSpline
70
4
71
3
72
8
73
4
40
0
40
0
40
0
40
0
40
1
40
1
40
1
40
1
41
1
10
25.3945038415677
20
40.713776155025
30
0
41
1
10
25.4327994903934
20
40.8676013441123
30
0
41
1
10
25.4965450300751
20
41.0239513223442
30
0
41
1
10
25.5868137757096
20
41.1829325693247
30
0
0
SPLINE
5
1AF
100
AcDbEntity
8
1
62
256
6
ByLayer
370
18
48
1
60
0
100
AcDbSpline
70
4
71
3
72
12
73
8
40
0
40
0
40
0
40
0
40
0.292615166674947
40
0.292615166674947
40
0.585230309866326
40
0.585230309866326
40
1
40
1
40
1
40
1
41
1
10
41.4628306363492
20
9.28837921493812
30
0
41
1
10
41.4862224336821
20
9.29720161046413
30
0
41
1
10
41.50957764699
20
9.30612161757199
30
0
41
1
10
41.5562126878966
20
9.32415536980957
30
0
41
1
10
41.5794929180787
20
9.33326927225806
30
0
41
1
10
41.6356788048109
20
9.35553442180196
30
0
41
1
10
41.6685466867688
20
9.368783228518
30
0
41
1
10
41.7013352907102
20
9.38222382198094
30
0
0
SPLINE
5
1B0
100
AcDbEntity
8
1
62
256
6
ByLayer
370
18
48
1
60
0
100
AcDbSpline
70
4
71
2
72
6
73
3
40
0
40
0
40
0
40
1
40
1
40
1
41
1
10
35.4878043328636
20
11.988411309843
30
0
41
1
10
35.4502769580914
20
11.9639075483957
30
0
41
1
10
35.4127495833192
20
11.9394037869484
30
0
0
SPLINE
5
1B1
100
AcDbEntity
8
1
62
256
6
ByLayer
370
18
48
1
60
0
100
AcDbSpline
70
4
71
3
72
8
73
4
40
0
40
0
40
0
40
0
40
1
40
1
40
1
40
1
41
1
10
26.1123860295249
20
32.2287925192463
30
0
41
1
10
25.7782856888053
20
31.8311998124895
30
0
41
1
10
25.5119671318707
20
31.3585394838568
30
0
41
1
10
25.3298945966724
20
30.8251331653753
30
0
0
SPLINE
5
1B2
100
AcDbEntity
8
1
62
256
6
ByLayer
370
18
48
1
60
0
100
AcDbSpline
70
4
71
3
72
8
73
4
40
0
40
0
40
0
40
0
40
1
40
1
40
1
40
1
41
1
10
25.6217754527732
20
26.4475149254346
30
0
41
1
10
25.8152413508509
20
25.9996651088441
30
0
41
1
10
26.0612400076691
20
25.5535225584986
30
0
41
1
10
26.3642866033983
20
25.1225020439775
30
0
0
SPLINE
5
1B3
100
AcDbEntity
8
1
62
256
6
ByLayer
370
18
48
1
60
0
100
AcDbSpline
70
4
71
3
72
10
73
6
40
0
40
0
40
0
40
0
40
0.5
40
0.5
40
1
40
1
40
1
40
1
41
1
10
27.4794635003818
20
33.1103907599315
30
0
41
1
10
28.0288524685866
20
33.1743255350242
30
0
41
1
10
28.6902151456942
20
32.9921644227717
30
0
41
1
10
29.983110845945
20
32.2055490060908
30
0
41
1
10
30.6111405421062
20
31.6032261736854
30
0
41
1
10
31.1002587885722
20
30.9074494137862
30
0
0
SPLINE
5
1B4
100
AcDbEntity
8
1
62
256
6
ByLayer
370
18
48
1
60
0
100
AcDbSpline
70
4
71
3
72
8
73
4
40
0
40
0
40
0
40
0
40
1
40
1
40
1
40
1
41
1
10
24.9682850646229
20
30.8120873177012
30
0
41
1
10
25.1950981682859
20
31.2209367949861
30
0
41
1
10
25.4733777367757
20
31.5993631173238
30
0
41
1
10
25.8067407018464
20
31.93363123779
30
0
0
SPLINE
5
1B5
100
AcDbEntity
8
1
62
256
6
ByLayer
370
18
48
1
60
0
100
AcDbSpline
70
4
71
3
72
9
73
5
40
0
40
0
40
0
40
0
40
0.976189677951097
40
1
40
1
40
1
40
1
41
1.02613459695995
10
31.1002587885722
20
30.9074494137862
30
0
41
1.02613459695995
10
30.3996353944644
20
30.3956689238925
30
0
41
1.02613459695995
10
29.8536717959075
20
29.6218060128658
30
0
41
1.02613459695995
10
29.5692382560036
20
28.6667090162791
30
0
41
1.02613459695995
10
29.5626153373847
20
28.6438662982686
30
0
0
SPLINE
5
1B6
100
AcDbEntity
8
1
62
256
6
ByLayer
370
18
48
1
60
0
100
AcDbSpline
70
4
71
2
72
6
73
3
40
0
40
0
40
0
40
1
40
1
40
1
41
1
10
26.9786135546205
20
25.3528103062943
30
0
41
1
10
26.6377285056453
20
25.3010478437579
30
0
41
1
10
26.3642866033983
20
25.1225020439775
30
0
0
SPLINE
5
1B7
100
AcDbEntity
8
1
62
256
6
ByLayer
370
18
48
1
60
0
100
AcDbSpline
70
4
71
1
72
4
73
2
40
0
40
0
40
1
40
1
41
1
10
26.2892318538539
20
25.0734945210829
30
0
41
1
10
26.2141771043096
20
25.0244869981883
30
0
0
SPLINE
5
1B8
100
AcDbEntity
8
1
62
256
6
ByLayer
370
18
48
1
60
0
100
AcDbSpline
70
4
71
3
72
10
73
6
40
0
40
0
40
0
40
0
40
0.380409167241274
40
0.380409167241274
40
1
40
1
40
1
40
1
41
1
10
10.5386751345948
20
23.9979013266023
30
0
41
1
10
10.4562351620401
20
24.0624877434437
30
0
41
1
10
10.3844110470353
20
24.1483900669021
30
0
41
1
10
10.2264153584242
20
24.3932272932951
30
0
41
1
10
10.1549704016743
20
24.5688883983991
30
0
41
1
10
10.1056624327026
20
24.7520548830776
30
0
0
SPLINE
5
1B9
100
AcDbEntity
8
1
62
256
6
ByLayer
370
18
48
1
60
0
100
AcDbSpline
70
4
71
3
72
10
73
6
40
0
40
0
40
0
40
0
40
0.546460146737551
40
0.546460146737551
40
1
40
1
40
1
40
1
41
1
10
10.1056624327026
20
25.6912337669117
30
0
41
1
10
10.1532894702054
20
25.7202346089961
30
0
41
1
10
10.2200330642683
20
25.76759902668
30
0
41
1
10
10.3706988494232
20
25.8722342073356
30
0
41
1
10
10.4518011249023
20
25.9290393875139
30
0
41
1
10
10.5386751345948
20
25.997099587303
30
0
0
SPLINE
5
1BA
100
AcDbEntity
8
1
62
256
6
ByLayer
370
18
48
1
60
0
100
AcDbSpline
70
4
71
3
72
8
73
4
40
0
40
0
40
0
40
0
40
1
40
1
40
1
40
1
41
1
10
23.1219141666924
20
31.6731305178926
30
0
41
1
10
23.3668720439318
20
31.2771209759303
30
0
41
1
10
23.629119747669
20
30.8870110354033
30
0
41
1
10
23.8962856159808
20
30.500632379144
30
0
0
SPLINE
5
1BB
100
AcDbEntity
8
1
62
256
6
ByLayer
370
18
48
1
60
0
100
AcDbSpline
70
4
71
3
72
11
73
7
40
0
40
0
40
0
40
0
40
0.203463824197694
40
0.362771059358155
40
0.681385529679078
40
1
40
1
40
1
40
1
41
1
10
41.4628306341233
20
9.28837921437702
30
0
41
1
10
41.0935168601987
20
9.19528515982279
30
0
41
1
10
40.3963893517254
20
9.11731243311468
30
0
41
1
10
38.9999494588888
20
9.29143798863166
30
0
41
1
10
37.2915364486762
20
10.0208546577714
30
0
41
1
10
36.0220375925818
20
11.2283397147587
30
0
41
1
10
35.4878043328636
20
11.988411309843
30
0
0
SPLINE
5
1BC
100
AcDbEntity
8
1
62
256
6
ByLayer
370
18
48
1
60
0
100
AcDbSpline
70
4
71
3
72
16
73
12
40
0
40
0
40
0
40
0
40
0.463423600832209
40
0.463423600832209
40
0.646243952932815
40
0.646243952932815
40
0.831657283224495
40
0.831657283224495
40
0.947504344290837
40
0.947504344290837
40
1
40
1
40
1
40
1
41
1
10
13.8943375672974
20
-9.86941261896621
30
0
41
1
10
13.8656609252734
20
-9.76458357826289
30
0
41
1
10
13.8263500123909
20
-9.66039292789941
30
0
41
1
10
13.7453819366532
20
-9.52957658281042
30
0
41
1
10
13.7190869808859
20
-9.49380155568073
30
0
41
1
10
13.6579862203325
20
-9.42941539787637
30
0
41
1
10
13.6222599905468
20
-9.40014891155712
30
0
41
1
10
13.556648346355
20
-9.36662118733784
30
0
41
1
10
13.5289597975987
20
-9.35698328824239
30
0
41
1
10
13.4876776374751
20
-9.35029954873104
30
0
41
1
10
13.4744789968601
20
-9.34922131452501
30
0
41
1
10
13.4613248654052
20
-9.34922131452501
30
0
0
SPLINE
5
1BD
100
AcDbEntity
8
1
62
256
6
ByLayer
370
18
48
1
60
0
100
AcDbSpline
70
4
71
3
72
16
73
12
40
0
40
0
40
0
40
0
40
0.463423600832241
40
0.463423600832241
40
0.646243952932834
40
0.646243952932834
40
0.831657283224497
40
0.831657283224497
40
0.947504344290847
40
0.947504344290847
40
1
40
1
40
1
40
1
41
1
10
13.8943375672974
20
29.9139548464691
30
0
41
1
10
13.8656609252734
20
29.9485407466772
30
0
41
1
10
13.8263500123909
20
29.982269090612
30
0
41
1
10
13.7453819366532
20
30.0239686896252
30
0
41
1
10
13.7190869808859
20
30.0352936109065
30
0
41
1
10
13.6579862203325
20
30.0555697561518
30
0
41
1
10
13.6222599905467
20
30.0647246060481
30
0
41
1
10
13.556648346355
20
30.0751823136668
30
0
41
1
10
13.5289597975987
20
30.0781795790239
30
0
41
1
10
13.4876776374751
20
30.0802576981002
30
0
41
1
10
13.47447899686
20
30.0805927603169
30
0
41
1
10
13.4613248654052
20
30.0805927603169
30
0
0
SPLINE
5
1BE
100
AcDbEntity
8
1
62
256
6
ByLayer
370
18
48
1
60
0
100
AcDbSpline
70
4
71
3
72
8
73
4
40
0
40
0
40
0
40
0
40
1
40
1
40
1
40
1
41
1
10
22.92079238
20
30.8996141556632
30
0
41
1
10
22.9876698376536
20
31.1573850967534
30
0
41
1
10
23.0547179127685
20
31.4152349486452
30
0
41
1
10
23.1219141666923
20
31.6731305178926
30
0
0
SPLINE
5
1BF
100
AcDbEntity
8
1
62
256
6
ByLayer
370
18
48
1
60
0
100
AcDbSpline
70
4
71
3
72
16
73
12
40
0
40
0
40
0
40
0
40
0.113316224833593
40
0.113316224833593
40
0.252990411571579
40
0.252990411571579
40
0.473309013928354
40
0.473309013928354
40
0.896716357718913
40
0.896716357718913
40
1
40
1
40
1
40
1
41
1
10
10.5386751345948
20
-9.34922131452512
30
0
41
1
10
10.5105874404281
20
-9.34922131452512
30
0
41
1
10
10.482150642237
20
-9.35431657338984
30
0
41
1
10
10.4232029654275
20
-9.37467777536568
30
0
41
1
10
10.3927526278712
20
-9.39213979793414
30
0
41
1
10
10.3230856363398
20
-9.44503542604386
30
0
41
1
10
10.2871733492349
20
-9.48569380431883
30
0
41
1
10
10.1985362549164
20
-9.6110592336681
30
0
41
1
10
10.1576291602469
20
-9.70465429390072
30
0
41
1
10
10.1190965262402
20
-9.82244573862477
30
0
41
1
10
10.112102816203
20
-9.84586944318031
30
0
41
1
10
10.1056624327025
20
-9.86941261896618
30
0
0
SPLINE
5
1C0
100
AcDbEntity
8
1
62
256
6
ByLayer
370
18
48
1
60
0
100
AcDbSpline
70
4
71
3
72
16
73
12
40
0
40
0
40
0
40
0
40
0.113316224833594
40
0.113316224833594
40
0.252990411571577
40
0.252990411571577
40
0.473309013928351
40
0.473309013928351
40
0.896716357718897
40
0.896716357718897
40
1
40
1
40
1
40
1
41
1
10
10.5386751345948
20
30.0805927603169
30
0
41
1
10
10.5105874404281
20
30.0805927603169
30
0
41
1
10
10.482150642237
20
30.0790101689566
30
0
41
1
10
10.4232029654275
20
30.0726712338969
30
0
41
1
10
10.3927526278712
20
30.0672275748685
30
0
41
1
10
10.3230856363398
20
30.0506647867052
30
0
41
1
10
10.2871733492349
20
30.0378702684275
30
0
41
1
10
10.1985362549164
20
29.9980833386355
30
0
41
1
10
10.1576291602469
20
29.967975934908
30
0
41
1
10
10.1190965262402
20
29.9294196064672
30
0
41
1
10
10.112102816203
20
29.9217223689309
30
0
41
1
10
10.1056624327025
20
29.9139548464691
30
0
0
SPLINE
5
1C1
100
AcDbEntity
8
1
62
256
6
ByLayer
370
18
48
1
60
0
100
AcDbSpline
70
4
71
3
72
16
73
12
40
0
40
0
40
0
40
0
40
0.113316224833596
40
0.113316224833596
40
0.252990411571581
40
0.252990411571581
40
0.473309013928343
40
0.473309013928343
40
0.896716357718895
40
0.896716357718895
40
1
40
1
40
1
40
1
41
1
10
13.4613248654052
20
-30.0805927603169
30
0
41
1
10
13.4894125595718
20
-30.0805927603169
30
0
41
1
10
13.517849357763
20
-30.0790101689567
30
0
41
1
10
13.5767970345725
20
-30.0726712338969
30
0
41
1
10
13.6072473721288
20
-30.0672275748685
30
0
41
1
10
13.6769143636602
20
-30.0506647867052
30
0
41
1
10
13.7128266507651
20
-30.0378702684275
30
0
41
1
10
13.8014637450836
20
-29.9980833386355
30
0
41
1
10
13.842370839753
20
-29.967975934908
30
0
41
1
10
13.8809034737598
20
-29.9294196064672
30
0
41
1
10
13.8878971837969
20
-29.9217223689309
30
0
41
1
10
13.8943375672975
20
-29.9139548464691
30
0
0
SPLINE
5
1C2
100
AcDbEntity
8
1
62
256
6
ByLayer
370
18
48
1
60
0
100
AcDbSpline
70
4
71
3
72
10
73
6
40
0
40
0
40
0
40
0
40
0.276054056491996
40
0.276054056491996
40
1
40
1
40
1
40
1
41
1
10
42.5129965795665
20
26.4046590124259
30
0
41
1
10
42.507601241201
20
26.4060848970983
30
0
41
1
10
42.5023002497218
20
26.4074094404147
30
0
41
1
10
42.4835207821637
20
26.4118467527528
30
0
41
1
10
42.4705691978878
20
26.4144182314791
30
0
41
1
10
42.4582255527473
20
26.4164654462857
30
0
0
SPLINE
5
1C3
100
AcDbEntity
8
1
62
256
6
ByLayer
370
18
48
1
60
0
100
AcDbSpline
70
4
71
3
72
10
73
6
40
0
40
0
40
0
40
0
40
0.355593196477884
40
0.355593196477884
40
1
40
1
40
1
40
1
41
1
10
44.5945512063296
20
27.9063650003816
30
0
41
1
10
44.5920732715263
20
27.8993828751025
30
0
41
1
10
44.5897024836558
20
27.8922486518251
30
0
41
1
10
44.5834083222318
20
27.8718015589868
30
0
41
1
10
44.579758871433
20
27.8580967396987
30
0
41
1
10
44.5766673992494
20
27.8438881996311
30
0
0
SPLINE
5
1C4
100
AcDbEntity
8
1
62
256
6
ByLayer
370
18
48
1
60
0
100
AcDbSpline
70
4
71
3
72
10
73
6
40
0
40
0
40
0
40
0
40
0.537616842494904
40
0.537616842494904
40
1
40
1
40
1
40
1
41
1
10
44.600255214382
20
27.590003192884
30
0
41
1
10
44.6048675369982
20
27.5800202991342
30
0
41
1
10
44.6097869764536
20
27.5705683547252
30
0
41
1
10
44.6193354975562
20
27.5539290033479
30
0
41
1
10
44.6239192459435
20
27.5465918658133
30
0
41
1
10
44.6286276356851
20
27.5395868801134
30
0
0
SPLINE
5
1C5
100
AcDbEntity
8
1
62
256
6
ByLayer
370
18
48
1
60
0
100
AcDbSpline
70
4
71
3
72
10
73
6
40
0
40
0
40
0
40
0
40
0.230438518716759
40
0.230438518716759
40
1
40
1
40
1
40
1
41
1
10
43.9054095234789
20
26.3910165528348
30
0
41
1
10
43.9025930056092
20
26.3876159541261
30
0
41
1
10
43.8998862454623
20
26.3842318410923
30
0
41
1
10
43.8886148587362
20
26.3696590510503
30
0
41
1
10
43.8810862843949
20
26.3586472175615
30
0
41
1
10
43.8745092468524
20
26.347905002819
30
0
0
SPLINE
5
1C6
100
AcDbEntity
8
1
62
256
6
ByLayer
370
18
48
1
60
0
100
AcDbSpline
70
4
71
3
72
10
73
6
40
0
40
0
40
0
40
0
40
0.276054056492371
40
0.276054056492371
40
1
40
1
40
1
40
1
41
1
10
43.9026879613724
20
28.8026322925223
30
0
41
1
10
43.9088102311997
20
28.8019333393116
30
0
41
1
10
43.9148730105485
20
28.8013705838647
30
0
41
1
10
43.9365069658629
20
28.7997877592831
30
0
41
1
10
43.9517253228819
20
28.7994830532999
30
0
41
1
10
43.9664623303985
20
28.7998292008693
30
0
0
SPLINE
5
1C7
100
AcDbEntity
8
1
62
256
6
ByLayer
370
18
48
1
60
0
100
AcDbSpline
70
4
71
3
72
10
73
6
40
0
40
0
40
0
40
0
40
0.230438518716718
40
0.230438518716718
40
1
40
1
40
1
40
1
41
1
10
42.5102750174602
20
28.8162747521134
30
0
41
1
10
42.5136969968243
20
28.8202808123166
30
0
41
1
10
42.517033373205
20
28.8242945415844
30
0
41
1
10
42.531122888155
20
28.84168545985
30
0
41
1
10
42.541055289081
20
28.8551011199237
30
0
41
1
10
42.550178636292
20
28.8683896443346
30
0
0
SPLINE
5
1C8
100
AcDbEntity
8
1
62
256
6
ByLayer
370
18
48
1
60
0
100
AcDbSpline
70
4
71
3
72
10
73
6
40
0
40
0
40
0
40
0
40
0.769561481283258
40
0.769561481283258
40
1
40
1
40
1
40
1
41
1
10
42.2498811800298
20
28.6589585375059
30
0
41
1
10
42.2626287670444
20
28.6609230692455
30
0
41
1
10
42.2759358472489
20
28.6637149066175
30
0
41
1
10
42.2939417690255
20
28.6687077371902
30
0
41
1
10
42.2981501322314
20
28.6699558012857
30
0
41
1
10
42.3024081423761
20
28.6713058593903
30
0
0
SPLINE
5
1C9
100
AcDbEntity
8
1
62
256
6
ByLayer
370
18
48
1
60
0
100
AcDbSpline
70
4
71
3
72
10
73
6
40
0
40
0
40
0
40
0
40
0.769561481283321
40
0.769561481283321
40
1
40
1
40
1
40
1
41
1
10
44.1748067031145
20
26.5573361096478
30
0
41
1
10
44.1595128064316
20
26.5528252682397
30
0
41
1
10
44.1438018996422
20
26.5476296042829
30
0
41
1
10
44.1229778496419
20
26.5398186454864
30
0
41
1
10
44.1181398702021
20
26.537940965157
30
0
41
1
10
44.1132763985629
20
26.5359854455579
30
0
0
SPLINE
5
1CA
100
AcDbEntity
8
1
62
256
6
ByLayer
370
18
48
1
60
0
100
AcDbSpline
70
4
71
3
72
10
73
6
40
0
40
0
40
0
40
0
40
0.537616842495244
40
0.537616842495244
40
1
40
1
40
1
40
1
41
1
10
41.8154293265573
20
27.6172881120645
30
0
41
1
10
41.8122274052708
20
27.628681407144
30
0
41
1
10
41.808850058567
20
27.6396754443046
30
0
41
1
10
41.8023427164803
20
27.6593559746979
30
0
41
1
10
41.7992371949993
20
27.6681713391388
30
0
41
1
10
41.7960602474607
20
27.6767077670416
30
0
0
SPLINE
5
1CB
100
AcDbEntity
8
1
62
256
6
ByLayer
370
18
48
1
60
0
100
AcDbSpline
70
4
71
3
72
10
73
6
40
0
40
0
40
0
40
0
40
0.20115753023175
40
0.20115753023175
40
1
40
1
40
1
40
1
41
1
10
42.792599438353
20
26.2591184328492
30
0
41
1
10
42.7896541672858
20
26.2615548295045
30
0
41
1
10
42.7866533419662
20
26.2639981246991
30
0
41
1
10
42.7715107454414
20
26.2761251857029
30
0
41
1
10
42.7584796086601
20
26.2859366231486
30
0
41
1
10
42.744451269783
20
26.2957428984005
30
0
0
SPLINE
5
1CC
100
AcDbEntity
8
1
62
256
6
ByLayer
370
18
48
1
60
0
100
AcDbSpline
70
4
71
3
72
10
73
6
40
0
40
0
40
0
40
0
40
0.355593196477755
40
0.355593196477755
40
1
40
1
40
1
40
1
41
1
10
41.8301366768138
20
27.3099296467711
30
0
41
1
10
41.8314345351864
20
27.3157316956196
30
0
41
1
10
41.8326571109134
20
27.3217177067533
30
0
41
1
10
41.8358421583846
20
27.3390556856388
30
0
41
1
10
41.8376142267554
20
27.350883122499
30
0
41
1
10
41.8390171416899
20
27.3634031053173
30
0
0
SPLINE
5
1CD
100
AcDbEntity
8
1
62
256
6
ByLayer
370
18
48
1
60
0
100
AcDbSpline
70
4
71
3
72
10
73
6
40
0
40
0
40
0
40
0
40
0.201157530231528
40
0.201157530231528
40
1
40
1
40
1
40
1
41
1
10
43.6320884447919
20
28.957176214305
30
0
41
1
10
43.6343653219599
20
28.9540714237505
30
0
41
1
10
43.6367080793304
20
28.9509700606067
30
0
41
1
10
43.648650227751
20
28.9356425514987
30
0
41
1
10
43.6592981417526
20
28.9234478912733
30
0
41
1
10
43.6712332711562
20
28.911548406548
30
0
0
SPLINE
5
1CE
100
AcDbEntity
8
1
62
256
6
ByLayer
370
18
48
1
60
0
100
AcDbSpline
70
4
71
2
72
6
73
3
40
0
40
0
40
0
40
1
40
1
40
1
41
1.03601283770101
10
48.3161603937466
20
20.8745068182101
30
0
41
1.03601283770101
10
48.3341612050036
20
20.4822284196751
30
0
41
1.03601283770101
10
48.3521620162607
20
20.0899500211401
30
0
0
SPLINE
5
1CF
100
AcDbEntity
8
1
62
256
6
ByLayer
370
18
48
1
60
0
100
AcDbSpline
70
4
71
3
72
8
73
4
40
0
40
0
40
0
40
0
40
1
40
1
40
1
40
1
41
1
10
46.946862473718
20
23.8657117575523
30
0
41
1
10
46.9391124874476
20
23.8602410328768
30
0
41
1
10
46.9313470213281
20
23.8547923701765
30
0
41
1
10
46.9235660405687
20
23.8493658193394
30
0
0
SPLINE
5
1D0
100
AcDbEntity
8
1
62
256
6
ByLayer
370
18
48
1
60
0
100
AcDbSpline
70
4
71
3
72
8
73
4
40
0
40
0
40
0
40
0
40
1
40
1
40
1
40
1
41
1
10
36.416831566414
20
26.5087471817565
30
0
41
1
10
36.3171257183102
20
26.4164544928416
30
0
41
1
10
36.2093391897851
20
26.3298588433853
30
0
41
1
10
36.0967215255006
20
26.2508475913158
30
0
0
SPLINE
5
1D1
100
AcDbEntity
8
1
62
256
6
ByLayer
370
18
48
1
60
0
100
AcDbSpline
70
4
71
3
72
8
73
4
40
0
40
0
40
0
40
0
40
1
40
1
40
1
40
1
41
1
10
41.0253733539982
20
32.2891033264936
30
0
41
1
10
42.572653030907
20
33.3524059720148
30
0
41
1
10
44.743281704897
20
33.5715144464407
30
0
41
1
10
46.4154632449207
20
32.658736406959
30
0
0
SPLINE
5
1D2
100
AcDbEntity
8
1
62
256
6
ByLayer
370
18
48
1
60
0
100
AcDbSpline
70
4
71
3
72
8
73
4
40
0
40
0
40
0
40
0
40
1
40
1
40
1
40
1
41
1
10
48.3521620162607
20
20.0899500211401
30
0
41
1
10
49.7663524265288
20
21.0578815863016
30
0
41
1
10
51.2013921271733
20
22.0420534337257
30
0
41
1
10
52.5450197335264
20
22.9550210249518
30
0
0
SPLINE
5
1D3
100
AcDbEntity
8
1
62
256
6
ByLayer
370
18
48
1
60
0
100
AcDbSpline
70
4
71
3
72
18
73
14
40
0
40
0
40
0
40
0
40
0.190892373757245
40
0.190892373757245
40
0.38185694115076
40
0.38185694115076
40
0.572464326369235
40
0.572464326369235
40
0.771960347999089
40
0.771960347999089
40
0.987183877459785
40
0.987183877459785
40
1
40
1
40
1
40
1
41
1
10
50.4396090426226
20
39.8312735635971
30
0
41
1
10
50.4697172289556
20
39.8376595850899
30
0
41
1
10
50.5013908107676
20
39.8390115025493
30
0
41
1
10
50.5626748865366
20
39.8311382755435
30
0
41
1
10
50.5931044730688
20
39.8218024653162
30
0
41
1
10
50.6485333650691
20
39.7941272862172
30
0
41
1
10
50.6742670708469
20
39.7754672402477
30
0
41
1
10
50.7193100075736
20
39.7307895750534
30
0
41
1
10
50.7388582333425
20
39.7039227928238
30
0
41
1
10
50.7700038466609
20
39.6441921488855
30
0
41
1
10
50.7812822930625
20
39.6102646548604
30
0
41
1
10
50.7875652195115
20
39.5738736541026
30
0
41
1
10
50.7878995528589
20
39.5718262262678
30
0
41
1
10
50.788215507733
20
39.5697748873754
30
0
0
SPLINE
5
1D4
100
AcDbEntity
8
1
62
256
6
ByLayer
370
18
48
1
60
0
100
AcDbSpline
70
4
71
3
72
10
73
6
40
0
40
0
40
0
40
0
40
0.467786649874097
40
0.467786649874097
40
1
40
1
40
1
40
1
41
1
10
57.9829385325244
20
40.2325516480045
30
0
41
1
10
58.216399596747
20
40.2102061344266
30
0
41
1
10
58.4324138360894
20
40.1693658888547
30
0
41
1
10
58.8408636202133
20
40.0665972876445
30
0
41
1
10
59.0329868373037
20
40.0011656564184
30
0
41
1
10
59.2049126366963
20
39.9318230147272
30
0
0
SPLINE
5
1D5
100
AcDbEntity
8
1
62
256
6
ByLayer
370
18
48
1
60
0
100
AcDbSpline
70
4
71
3
72
8
73
4
40
0
40
0
40
0
40
0
40
1
40
1
40
1
40
1
41
1
10
39.499811237046
20
21.3113927914556
30
0
41
1
10
39.51527043265
20
21.3222470855612
30
0
41
1
10
39.5307295217197
20
21.3330971566084
30
0
41
1
10
39.5461862051293
20
21.343941387101
30
0
0
SPLINE
5
1D6
100
AcDbEntity
8
1
62
256
6
ByLayer
370
18
48
1
60
0
100
AcDbSpline
70
4
71
3
72
9
73
5
40
0
40
0
40
0
40
0
40
0.787466588235935
40
1
40
1
40
1
40
1
41
1.03601283770102
10
48.3161603937466
20
20.8745068182101
30
0
41
1.03551243927663
10
49.2095141498846
20
21.6960447335829
30
0
41
1.03306158416575
10
50.8951923645149
20
23.6385076658061
30
0
41
1.03000516837039
10
52.7231654362147
20
26.3281612922635
30
0
41
1.02936223451679
10
53.103610453352
20
26.9001869324659
30
0
0
SPLINE
5
1D7
100
AcDbEntity
8
1
62
256
6
ByLayer
370
18
48
1
60
0
100
AcDbSpline
70
4
71
3
72
12
73
8
40
0
40
0
40
0
40
0
40
0.479554796525138
40
0.479554796525138
40
0.736751319052547
40
0.736751319052547
40
1
40
1
40
1
40
1
41
1
10
59.5819813322988
20
39.6832911739602
30
0
41
1
10
59.7541451712002
20
39.5293673324918
30
0
41
1
10
59.9131257444415
20
39.3527664525808
30
0
41
1
10
60.1229976498297
20
39.0604219346503
30
0
41
1
10
60.1906395853669
20
38.9533261626554
30
0
41
1
10
60.3132307896661
20
38.7310863748812
30
0
41
1
10
60.3682006143466
20
38.6151710704322
30
0
41
1
10
60.4153642077605
20
38.4977937180101
30
0
0
SPLINE
5
1D8
100
AcDbEntity
8
1
62
256
6
ByLayer
370
18
48
1
60
0
100
AcDbSpline
70
4
71
3
72
8
73
4
40
0
40
0
40
0
40
0
40
1
40
1
40
1
40
1
41
1
10
37.331162419288
20
12.5016401925959
30
0
41
1
10
36.8663332787817
20
12.3945568878642
30
0
41
1
10
36.4095446180707
20
12.4088246001343
30
0
41
1
10
35.9950728182717
20
12.5123111363604
30
0
0
SPLINE
5
1D9
100
AcDbEntity
8
1
62
256
6
ByLayer
370
18
48
1
60
0
100
AcDbSpline
70
4
71
3
72
10
73
6
40
0
40
0
40
0
40
0
40
0.301254402690727
40
0.301254402690727
40
1
40
1
40
1
40
1
41
1
10
34.9245668318304
20
13.0385692981114
30
0
41
1
10
34.8197085377404
20
13.1196748711905
30
0
41
1
10
34.7194551993207
20
13.2074403236303
30
0
41
1
10
34.3979879390346
20
13.5202510643743
30
0
41
1
10
34.1942015581365
20
13.776657587072
30
0
41
1
10
33.9835715512301
20
14.0698755687705
30
0
0
SPLINE
5
1DA
100
AcDbEntity
8
1
62
256
6
ByLayer
370
18
48
1
60
0
100
AcDbSpline
70
4
71
3
72
18
73
14
40
0
40
0
40
0
40
0
40
0.191215801348466
40
0.191215801348466
40
0.381963811899617
40
0.381963811899617
40
0.578044702903761
40
0.578044702903761
40
0.777202980318988
40
0.777202980318988
40
0.976898938598163
40
0.976898938598163
40
1
40
1
40
1
40
1
41
1
10
29.4374471604493
20
25.2946611935913
30
0
41
1
10
29.3917395905709
20
25.4722932402732
30
0
41
1
10
29.3466809633501
20
25.6643425050499
30
0
41
1
10
29.2746155651293
20
26.0450627635333
30
0
41
1
10
29.2465757300796
20
26.239027909472
30
0
41
1
10
29.2101980876051
20
26.6093332038702
30
0
41
1
10
29.2018573709306
20
26.790090753201
30
0
41
1
10
29.1979156503249
20
27.1097899674096
30
0
41
1
10
29.2021503227424
20
27.2521622871634
30
0
41
1
10
29.2074815164722
20
27.4768531170323
30
0
41
1
10
29.2081402703868
20
27.5617279449583
30
0
41
1
10
29.2001984287045
20
27.624100734898
30
0
41
1
10
29.1992660243073
20
27.6302647437817
30
0
41
1
10
29.1982293068934
20
27.636064782471
30
0
0
SPLINE
5
1DB
100
AcDbEntity
8
1
62
256
6
ByLayer
370
18
48
1
60
0
100
AcDbSpline
70
4
71
3
72
10
73
6
40
0
40
0
40
0
40
0
40
0.552683943112536
40
0.552683943112536
40
1
40
1
40
1
40
1
41
1
10
27.4390924082803
20
26.5732322272094
30
0
41
1
10
27.2966185504291
20
26.3549140466585
30
0
41
1
10
27.1829767137447
20
26.1213942343485
30
0
41
1
10
27.0425753986205
20
25.7061044058915
30
0
41
1
10
27.0014758624881
20
25.5191505815649
30
0
41
1
10
26.9798449541221
20
25.3356584265781
30
0
0
SPLINE
5
1DC
100
AcDbEntity
8
1
62
256
6
ByLayer
370
18
48
1
60
0
100
AcDbSpline
70
4
71
3
72
12
73
8
40
0
40
0
40
0
40
0
40
0.185616577167524
40
0.185616577167524
40
0.84655700424557
40
0.84655700424557
40
1
40
1
40
1
40
1
41
1
10
27.0916667883143
20
24.1830799350839
30
0
41
1
10
27.11524356526
20
24.1070948412728
30
0
41
1
10
27.1417531490085
20
24.0320380391514
30
0
41
1
10
27.2755092599301
20
23.6929935999335
30
0
41
1
10
27.4166544030242
20
23.4374469320484
30
0
41
1
10
27.6334898691843
20
23.1067976124664
30
0
41
1
10
27.6768093850644
20
23.0427451378966
30
0
41
1
10
27.7216640891818
20
22.9775164433694
30
0
0
SPLINE
5
1DD
100
AcDbEntity
8
1
62
256
6
ByLayer
370
18
48
1
60
0
100
AcDbSpline
70
4
71
3
72
10
73
6
40
0
40
0
40
0
40
0
40
0.5
40
0.5
40
1
40
1
40
1
40
1
41
1
10
39.8983683673252
20
21.5562179880413
30
0
41
1
10
39.7866677198097
20
20.1077649450473
30
0
41
1
10
39.6400834728166
20
18.6609122495146
30
0
41
1
10
39.2363040832794
20
16.0904054409099
30
0
41
1
10
38.9773964024411
20
14.9448557077818
30
0
41
1
10
38.6240972445659
20
14.2276509678214
30
0
0
SPLINE
5
1DE
100
AcDbEntity
8
1
62
256
6
ByLayer
370
18
48
1
60
0
100
AcDbSpline
70
4
71
3
72
10
73
6
40
0
40
0
40
0
40
0
40
0.5
40
0.5
40
1
40
1
40
1
40
1
41
1
10
45.3425162619919
20
38.7501674588334
30
0
41
1
10
45.6200062082692
20
38.4695454726353
30
0
41
1
10
45.8765305151449
20
38.1836570583068
30
0
41
1
10
46.2232248235884
20
37.5764181080845
30
0
41
1
10
46.334508883905
20
37.2615534713831
30
0
41
1
10
46.0803226637144
20
36.890900743611
30
0
0
SPLINE
5
1DF
100
AcDbEntity
8
1
62
256
6
ByLayer
370
18
48
1
60
0
100
AcDbSpline
70
4
71
3
72
10
73
6
40
0
40
0
40
0
40
0
40
0.5
40
0.5
40
1
40
1
40
1
40
1
41
1
10
29.1982293068934
20
27.636064782471
30
0
41
1
10
29.9528980627666
20
27.776552444321
30
0
41
1
10
31.0771969005574
20
27.6755497473573
30
0
41
1
10
33.6227303853031
20
27.2325648333178
30
0
41
1
10
35.0197384928483
20
26.8935120363287
30
0
41
1
10
36.4168315664139
20
26.5087471817564
30
0
0
SPLINE
5
1E0
100
AcDbEntity
8
1
62
256
6
ByLayer
370
18
48
1
60
0
100
AcDbSpline
70
4
71
3
72
8
73
4
40
0
40
0
40
0
40
0
40
1
40
1
40
1
40
1
41
1
10
38.7006589387738
20
14.1685388839685
30
0
41
1
10
38.6802292357309
20
14.187777105254
30
0
41
1
10
38.6543383695303
20
14.2072731195588
30
0
41
1
10
38.6240972445664
20
14.2276509678216
30
0
0
SPLINE
5
1E1
100
AcDbEntity
8
1
62
256
6
ByLayer
370
18
48
1
60
0
100
AcDbSpline
70
4
71
3
72
10
73
6
40
0
40
0
40
0
40
0
40
0.8697786025611
40
0.8697786025611
40
1
40
1
40
1
40
1
41
1
10
55.5144469428569
20
39.1350022883126
30
0
41
1
10
55.7951398738953
20
39.4839114571216
30
0
41
1
10
56.0818867979044
20
39.8333324061392
30
0
41
1
10
56.372983663309
20
40.2321924779112
30
0
41
1
10
56.4101199529516
20
40.2840787265074
30
0
41
1
10
56.4463254975096
20
40.3358891209473
30
0
0
SPLINE
5
1E2
100
AcDbEntity
8
1
62
256
6
ByLayer
370
18
48
1
60
0
100
AcDbSpline
70
4
71
3
72
8
73
4
40
0
40
0
40
0
40
0
40
1
40
1
40
1
40
1
41
1
10
56.4463254975059
20
40.3358891209425
30
0
41
1
10
56.5305667010455
20
40.3422024825283
30
0
41
1
10
56.6148268606714
20
40.3483154956835
30
0
41
1
10
56.6991043491451
20
40.3542453588247
30
0
0
SPLINE
5
1E3
100
AcDbEntity
8
1
62
256
6
ByLayer
370
18
48
1
60
0
100
AcDbSpline
70
4
71
3
72
12
73
8
40
0
40
0
40
0
40
0
40
0.369430042092646
40
0.369430042092646
40
0.741170068808715
40
0.741170068808715
40
1
40
1
40
1
40
1
41
1
10
60.4153642077605
20
38.4977937180101
30
0
41
1
10
60.4374739655203
20
38.4427563238418
30
0
41
1
10
60.4575586283144
20
38.3839490978082
30
0
41
1
10
60.4904747946282
20
38.2679472448462
30
0
41
1
10
60.5037995049586
20
38.2087803822669
30
0
41
1
10
60.5190195850178
20
38.1182421454631
30
0
41
1
10
60.5233112132267
20
38.0829325813243
30
0
41
1
10
60.525377744935
20
38.0534450535532
30
0
0
SPLINE
5
1E4
100
AcDbEntity
8
1
62
256
6
ByLayer
370
18
48
1
60
0
100
AcDbSpline
70
4
71
3
72
8
73
4
40
0
40
0
40
0
40
0
40
1
40
1
40
1
40
1
41
1
10
36.0967215255006
20
26.2508475913159
30
0
41
1
10
36.0812648420911
20
26.2400033608234
30
0
41
1
10
36.0658057530214
20
26.2291532897761
30
0
41
1
10
36.0503465574174
20
26.2182989956705
30
0
0
SPLINE
5
1E5
100
AcDbEntity
8
1
62
256
6
ByLayer
370
18
48
1
60
0
100
AcDbSpline
70
4
71
3
72
8
73
4
40
0
40
0
40
0
40
0
40
1
40
1
40
1
40
1
41
1
10
37.2704226707015
20
28.0304938430975
30
0
41
1
10
37.4974632924463
20
29.2418689649202
30
0
41
1
10
38.1899174503086
20
30.3117179413665
30
0
41
1
10
39.2210767206567
20
31.0308609870445
30
0
0
SPLINE
5
1E6
100
AcDbEntity
8
1
62
256
6
ByLayer
370
18
48
1
60
0
100
AcDbSpline
70
4
71
3
72
22
73
18
40
0
40
0
40
0
40
0
40
0.0624999999999996
40
0.0624999999999996
40
0.124999999999999
40
0.124999999999999
40
0.25
40
0.25
40
0.5
40
0.5
40
0.749999999999999
40
0.749999999999999
40
0.874999999999999
40
0.874999999999999
40
0.9375
40
0.9375
40
1
40
1
40
1
40
1
41
1
10
46.0803226637144
20
36.890900743611
30
0
41
1
10
45.8659545534625
20
36.817423956376
30
0
41
1
10
45.6198736235309
20
36.732074046283
30
0
41
1
10
45.5347772887118
20
36.5646490704972
30
0
41
1
10
45.8446657137062
20
36.5660087432521
30
0
41
1
10
46.5670284091964
20
36.6193730152904
30
0
41
1
10
47.0756182533723
20
36.7056201694609
30
0
41
1
10
48.5533005973206
20
36.9747162936956
30
0
41
1
10
49.5290257747579
20
37.1944044826466
30
0
41
1
10
51.423021638516
20
37.6579732194284
30
0
41
1
10
52.3416697202516
20
37.9183872622982
30
0
41
1
10
53.6417924575074
20
38.349573233464
30
0
41
1
10
54.0648782943687
20
38.4975954202978
30
0
41
1
10
54.6732103216178
20
38.7269939544292
30
0
41
1
10
54.8719236917771
20
38.8046822011132
30
0
41
1
10
55.2467333271418
20
38.964941887671
30
0
41
1
10
55.4904295036465
20
39.0529302407796
30
0
41
1
10
55.5144469428569
20
39.1350022883126
30
0
0
SPLINE
5
1E7
100
AcDbEntity
8
1
62
256
6
ByLayer
370
18
48
1
60
0
100
AcDbSpline
70
4
71
3
72
8
73
4
40
0
40
0
40
0
40
0
40
1
40
1
40
1
40
1
41
1
10
56.6991043491439
20
40.3542453588235
30
0
41
1
10
57.1254828228455
20
40.3144599644595
30
0
41
1
10
57.5540361391834
20
40.2736036507696
30
0
41
1
10
57.9829385325244
20
40.2325516480045
30
0
0
SPLINE
5
1E8
100
AcDbEntity
8
1
62
256
6
ByLayer
370
18
48
1
60
0
100
AcDbSpline
70
4
71
3
72
8
73
4
40
0
40
0
40
0
40
0
40
1
40
1
40
1
40
1
41
1.02317326254116
10
58.4691824621181
20
34.9318544378482
30
0
41
1.02296676433018
10
59.1903973295488
20
36.0376130383445
30
0
41
1.0224839940336
10
59.8231695314547
20
37.069485056996
30
0
41
1.02237757420358
10
60.5253777449351
20
38.0534450535532
30
0
0
SPLINE
5
1E9
100
AcDbEntity
8
1
62
256
6
ByLayer
370
18
48
1
60
0
100
AcDbSpline
70
4
71
3
72
8
73
4
40
0
40
0
40
0
40
0
40
1
40
1
40
1
40
1
41
1
10
38.6257896453149
20
13.0812983305513
30
0
41
1
10
38.4063798236591
20
12.9269323187674
30
0
41
1
10
38.1685455463131
20
12.7940270062387
30
0
41
1
10
37.9232133387283
20
12.6917393184919
30
0
0
SPLINE
5
1EA
100
AcDbEntity
8
1
62
256
6
ByLayer
370
18
48
1
60
0
100
AcDbSpline
70
4
71
3
72
12
73
8
40
0
40
0
40
0
40
0
40
0.452180793000029
40
0.452180793000029
40
0.96426507937344
40
0.96426507937344
40
1
40
1
40
1
40
1
41
1
10
37.2704226707015
20
28.0304938430975
30
0
41
1
10
37.2222098585597
20
27.773254408441
30
0
41
1
10
37.1328359974929
20
27.5174954029356
30
0
41
1
10
36.869468044951
20
27.0137972019801
30
0
41
1
10
36.6824923052187
20
26.7647935383595
30
0
41
1
10
36.4482082210468
20
26.538114224453
30
0
41
1
10
36.4326016629191
20
26.5233447669392
30
0
41
1
10
36.416831566414
20
26.5087471817565
30
0
0
SPLINE
5
1EB
100
AcDbEntity
8
1
62
256
6
ByLayer
370
18
48
1
60
0
100
AcDbSpline
70
4
71
3
72
8
73
4
40
0
40
0
40
0
40
0
40
1
40
1
40
1
40
1
41
1
10
60.1136552403081
20
35.4970044511542
30
0
41
1
10
60.0792345220482
20
35.4201527543145
30
0
41
1
10
60.0446469314461
20
35.3433798978689
30
0
41
1
10
60.0098767982661
20
35.2666932853665
30
0
0
SPLINE
5
1EC
100
AcDbEntity
8
1
62
256
6
ByLayer
370
18
48
1
60
0
100
AcDbSpline
70
4
71
3
72
12
73
8
40
0
40
0
40
0
40
0
40
0.0373317696744967
40
0.280652676023793
40
0.523973582373088
40
0.686187519939285
40
1
40
1
40
1
40
1
41
1.03205634404025
10
46.4154632449206
20
32.658736406959
30
0
41
1.0318026041187
10
46.6206514293732
20
32.792843857183
30
0
41
1.02984558575382
10
48.2010331630891
20
33.8154212183171
30
0
41
1.02566722369869
10
51.6174939899528
20
35.8511197454749
30
0
41
1.02325876009371
10
53.6232314346097
20
37.0002361739147
30
0
41
1.02334794718885
10
56.6902039330311
20
38.4226805052631
30
0
41
1.02245227377491
10
58.3929128047893
20
39.1762143782941
30
0
41
1.02236689899618
10
59.5819813301173
20
39.68329117303
30
0
0
SPLINE
5
1ED
100
AcDbEntity
8
1
62
256
6
ByLayer
370
18
48
1
60
0
100
AcDbSpline
70
4
71
3
72
8
73
4
40
0
40
0
40
0
40
0
40
1
40
1
40
1
40
1
41
1
10
41.0253733448604
20
32.2891033201957
30
0
41
1
10
41.017564007855
20
32.2837210392095
30
0
41
1
10
41.0097678789025
20
32.2783160061745
30
0
41
1
10
41.0019850072063
20
32.2728881365751
30
0
0
SPLINE
5
1EE
100
AcDbEntity
8
1
62
256
6
ByLayer
370
18
48
1
60
0
100
AcDbSpline
70
4
71
3
72
12
73
8
40
0
40
0
40
0
40
0
40
0.444122598433033
40
0.444122598433033
40
0.992850705219397
40
0.992850705219397
40
1
40
1
40
1
40
1
41
1
10
39.8983683673252
20
21.5562179880413
30
0
41
1
10
40.1342882211297
20
21.6762259227403
30
0
41
1
10
40.3887972900584
20
21.764474628429
30
0
41
1
10
40.9666869438695
20
21.8777768139015
30
0
41
1
10
41.3011812343874
20
21.8839377137029
30
0
41
1
10
41.6215051680131
20
21.830553068977
30
0
41
1
10
41.625688223062
20
21.8298454369097
30
0
41
1
10
41.6298688302321
20
21.8291277199792
30
0
0
SPLINE
5
1EF
100
AcDbEntity
8
1
62
256
6
ByLayer
370
18
48
1
60
0
100
AcDbSpline
70
4
71
2
72
6
73
3
40
0
40
0
40
0
40
1
40
1
40
1
41
1.03601283770101
10
38.7946873078068
20
34.418920139669
30
0
41
0.884495469108186
10
39.4165219020474
20
34.2452795511805
30
0
41
0.929126213251345
10
41.0253733539982
20
32.2891033264936
30
0
0
SPLINE
5
1F0
100
AcDbEntity
8
1
62
256
6
ByLayer
370
18
48
1
60
0
100
AcDbSpline
70
4
71
3
72
8
73
4
40
0
40
0
40
0
40
0
40
1
40
1
40
1
40
1
41
1
10
36.4639603269538
20
15.299359240121
30
0
41
1
10
37.4629186942647
20
16.7755381758676
30
0
41
1
10
38.5106727506026
20
19.0583699323602
30
0
41
1
10
39.499811237046
20
21.3113927914556
30
0
0
SPLINE
5
1F1
100
AcDbEntity
8
1
62
256
6
ByLayer
370
18
48
1
60
0
100
AcDbSpline
70
4
71
3
72
12
73
8
40
0
40
0
40
0
40
0
40
0.0373317696752047
40
0.280652676024339
40
0.523973582373472
40
0.686187519939561
40
1
40
1
40
1
40
1
41
1.03205634404027
10
49.1268016495849
20
28.8018239654018
30
0
41
1.03180260411871
10
49.3243668293547
20
28.9467752341518
30
0
41
1.02984558575383
10
50.8369994918509
20
30.0657264876936
30
0
41
1.02566722369869
10
53.9537985679066
20
32.5276975645471
30
0
41
1.02325876009371
10
55.7482996683993
20
33.977300307295
30
0
41
1.02334794718885
10
58.18133702451
20
36.3015252253285
30
0
41
1.02245227377491
10
59.5061414903926
20
37.5926327935014
30
0
41
1.02236689899618
10
60.4153642060925
20
38.4977937163495
30
0
0
SPLINE
5
1F2
100
AcDbEntity
8
1
62
256
6
ByLayer
370
18
48
1
60
0
100
AcDbSpline
70
4
71
3
72
12
73
8
40
0
40
0
40
0
40
0
40
0.369019602467679
40
0.369019602467679
40
0.742037538486018
40
0.742037538486018
40
1
40
1
40
1
40
1
41
1
10
50.5726270096961
20
39.2566133012239
30
0
41
1
10
50.5891189991078
20
39.2634931953119
30
0
41
1
10
50.6075912318911
20
39.268612261436
30
0
41
1
10
50.6470351979941
20
39.2730356903138
30
0
41
1
10
50.6685688878763
20
39.2722442736353
30
0
41
1
10
50.7043705184906
20
39.265165495767
30
0
41
1
10
50.7191159473451
20
39.2606025896097
30
0
41
1
10
50.7332935086088
20
39.2547012908083
30
0
0
SPLINE
5
1F3
100
AcDbEntity
8
1
62
256
6
ByLayer
370
18
48
1
60
0
100
AcDbSpline
70
4
71
3
72
8
73
4
40
0
40
0
40
0
40
0
40
1
40
1
40
1
40
1
41
1
10
38.1532447801588
20
34.5980360316023
30
0
41
1
10
39.5674351901048
20
35.5659675965376
30
0
41
1
10
41.0024748904079
20
36.5501394437202
30
0
41
1
10
42.3461024965089
20
37.4631070347756
30
0
0
SPLINE
5
1F4
100
AcDbEntity
8
1
62
256
6
ByLayer
370
18
48
1
60
0
100
AcDbSpline
70
4
71
3
72
18
73
14
40
0
40
0
40
0
40
0
40
0.0424288322684281
40
0.0424288322684281
40
0.296168298763108
40
0.296168298763108
40
0.533717034669518
40
0.533717034669518
40
0.749910157754717
40
0.749910157754717
40
0.951220132387619
40
0.951220132387619
40
1
40
1
40
1
40
1
41
1
10
57.4379896805524
20
30.1253926775949
30
0
41
1
10
57.4435999199155
20
30.1218876163738
30
0
41
1
10
57.4491020656153
20
30.1182276627807
30
0
41
1
10
57.4866143083326
20
30.0916645955706
30
0
41
1
10
57.5153162785553
20
30.0628491450099
30
0
41
1
10
57.5581600626711
20
29.9997949539709
30
0
41
1
10
57.5737178000228
20
29.9650251978428
30
0
41
1
10
57.5896244667549
20
29.8965737779179
30
0
41
1
10
57.5914033524664
20
29.8620756494357
30
0
41
1
10
57.5828169291954
20
29.7981208534206
30
0
41
1
10
57.5731570946503
20
29.7676133309808
30
0
41
1
10
57.5553732474758
20
29.7332632445803
30
0
41
1
10
57.5515809715475
20
29.7266312471383
30
0
41
1
10
57.5475261080284
20
29.720173556325
30
0
0
SPLINE
5
1F5
100
AcDbEntity
8
1
62
256
6
ByLayer
370
18
48
1
60
0
100
AcDbSpline
70
4
71
3
72
8
73
4
40
0
40
0
40
0
40
0
40
1
40
1
40
1
40
1
41
1.02801048500209
10
45.3424117506636
20
38.7501272114771
30
0
41
1.0290603306383
10
44.3496923643236
20
38.3678292902293
30
0
41
1.03019983813558
10
43.2938462348495
20
37.9250329062912
30
0
41
1.03126079838601
10
42.3461061775048
20
37.4631088288761
30
0
0
SPLINE
5
1F6
100
AcDbEntity
8
1
62
256
6
ByLayer
370
18
48
1
60
0
100
AcDbSpline
70
4
71
3
72
16
73
12
40
0
40
0
40
0
40
0
40
0.0053487653169912
40
0.0053487653169912
40
0.333118422310144
40
0.333118422310144
40
0.661356115041354
40
0.661356115041354
40
0.848268785798703
40
0.848268785798703
40
1
40
1
40
1
40
1
41
1
10
56.9973881936889
20
30.1173109913543
30
0
41
1
10
56.997852907426
20
30.1184454186448
30
0
41
1
10
56.9983199590811
20
30.1195805300879
30
0
41
1
10
57.026961905565
20
30.1898104360452
30
0
41
1
10
57.0444467450659
20
30.2550842420703
30
0
41
1
10
57.0749805530787
20
30.3793093993198
30
0
41
1
10
57.0906520071778
20
30.4427748389761
30
0
41
1
10
57.1292943540885
20
30.5496587738711
30
0
41
1
10
57.1464261104175
20
30.5904639296413
30
0
41
1
10
57.1829599924959
20
30.6628341230113
30
0
41
1
10
57.2017616327678
20
30.6954591743095
30
0
41
1
10
57.2216115514149
20
30.7250666361873
30
0
0
SPLINE
5
1F7
100
AcDbEntity
8
1
62
256
6
ByLayer
370
18
48
1
60
0
100
AcDbSpline
70
4
71
3
72
8
73
4
40
0
40
0
40
0
40
0
40
1
40
1
40
1
40
1
41
1
10
39.5461862051293
20
21.343941387101
30
0
41
1
10
39.6588038694157
20
21.4229526391718
30
0
41
1
10
39.7771347813609
20
21.4945487726992
30
0
41
1
10
39.8983683673252
20
21.5562179880413
30
0
0
SPLINE
5
1F8
100
AcDbEntity
8
1
62
256
6
ByLayer
370
18
48
1
60
0
100
AcDbSpline
70
4
71
3
72
8
73
4
40
0
40
0
40
0
40
0
40
1
40
1
40
1
40
1
41
1.03126080250991
10
52.5450197335271
20
22.9550210249525
30
0
41
1.0301998466492
10
53.3049751586813
20
23.6840635636748
30
0
41
1.02906034394352
10
54.0838615851065
20
24.5208303530329
30
0
41
1.02801050150975
10
54.7840811881655
20
25.3192073231263
30
0
0
SPLINE
5
1F9
100
AcDbEntity
8
1
62
256
6
ByLayer
370
18
48
1
60
0
100
AcDbSpline
70
4
71
3
72
10
73
6
40
0
40
0
40
0
40
0
40
0.580179116579152
40
0.580179116579152
40
1
40
1
40
1
40
1
41
1
10
60.525377744935
20
38.0534450535532
30
0
41
1
10
60.5397278489223
20
37.8423444833729
30
0
41
1
10
60.5413389385483
20
37.6105430525217
30
0
41
1
10
60.5020049768826
20
37.1714305063417
30
0
41
1
10
60.471859423476
20
36.9706266738031
30
0
41
1
10
60.4216246691694
20
36.7634904325812
30
0
0
SPLINE
5
1FA
100
AcDbEntity
8
1
62
256
6
ByLayer
370
18
48
1
60
0
100
AcDbSpline
70
4
71
3
72
8
73
4
40
0
40
0
40
0
40
0
40
1
40
1
40
1
40
1
41
1
10
50.5726270096961
20
39.2566133012239
30
0
41
1
10
50.5129420203935
20
39.4453975452791
30
0
41
1
10
50.4680547098895
20
39.6369718029236
30
0
41
1
10
50.4396090426226
20
39.8312735635971
30
0
0
SPLINE
5
1FB
100
AcDbEntity
8
1
62
256
6
ByLayer
370
18
48
1
60
0
100
AcDbSpline
70
4
71
3
72
10
73
6
40
0
40
0
40
0
40
0
40
0.5
40
0.5
40
1
40
1
40
1
40
1
41
1
10
53.1036104516215
20
26.900186929864
30
0
41
1
10
53.5633050325631
20
26.9705733696895
30
0
41
1
10
53.8589580948963
20
26.715252825465
30
0
41
1
10
54.3726757977205
20
26.0975177430988
30
0
41
1
10
54.5844883858005
20
25.717302499779
30
0
41
1
10
54.7841659265607
20
25.3193039404709
30
0
0
SPLINE
5
1FC
100
AcDbEntity
8
1
62
256
6
ByLayer
370
18
48
1
60
0
100
AcDbSpline
70
4
71
3
72
8
73
4
40
0
40
0
40
0
40
0
40
1
40
1
40
1
40
1
41
1
10
57.5475261080284
20
29.720173556325
30
0
41
1
10
57.3561729094603
20
29.8385384029679
30
0
41
1
10
57.172949220912
20
29.9714548650295
30
0
41
1
10
56.9973881936888
20
30.1173109913543
30
0
0
SPLINE
5
1FD
100
AcDbEntity
8
1
62
256
6
ByLayer
370
18
48
1
60
0
100
AcDbSpline
70
4
71
3
72
9
73
5
40
0
40
0
40
0
40
0
40
0.787466588412847
40
1
40
1
40
1
40
1
41
1.03601283770101
10
38.7946873078068
20
34.418920139669
30
0
41
1.03551243927663
10
39.8722343273599
20
34.9784408577838
30
0
41
1.0330615841663
10
42.261643727788
20
35.9198374663111
30
0
41
1.03000516837176
10
45.4126313322795
20
36.7274865422597
30
0
41
1.02936223451883
10
46.0803226637732
20
36.8909007436255
30
0
0
SPLINE
5
1FE
100
AcDbEntity
8
1
62
256
6
ByLayer
370
18
48
1
60
0
100
AcDbSpline
70
4
71
3
72
14
73
10
40
0
40
0
40
0
40
0
40
0.250129257644724
40
0.250129257644724
40
0.566277192435744
40
0.566277192435744
40
0.886777176233725
40
0.886777176233725
40
1
40
1
40
1
40
1
41
1
10
59.2049126366963
20
39.9318230147272
30
0
41
1
10
59.2301020598776
20
39.9215847990901
30
0
41
1
10
59.2598098468184
20
39.9073836793072
30
0
41
1
10
59.3300872009904
20
39.8693286517078
30
0
41
1
10
59.3725724113725
20
39.8433277146104
30
0
41
1
10
59.4566807087353
20
39.7858066659869
30
0
41
1
10
59.4993767646684
20
39.7534844328584
30
0
41
1
10
59.5540316913088
20
39.7078533570596
30
0
41
1
10
59.5681710820908
20
39.695636235408
30
0
41
1
10
59.5819813322988
20
39.6832911739602
30
0
0
SPLINE
5
1FF
100
AcDbEntity
8
1
62
256
6
ByLayer
370
18
48
1
60
0
100
AcDbSpline
70
4
71
3
72
22
73
18
40
0
40
0
40
0
40
0
40
0.0624999999999996
40
0.0624999999999996
40
0.124999999999999
40
0.124999999999999
40
0.249999999999999
40
0.249999999999999
40
0.5
40
0.5
40
0.750000000000001
40
0.750000000000001
40
0.875000000000001
40
0.875000000000001
40
0.9375
40
0.9375
40
1
40
1
40
1
40
1
41
1
10
58.4691824621262
20
34.9318544378608
30
0
41
1
10
58.3762138119208
20
34.9472436123823
30
0
41
1
10
58.2063094089413
20
34.7529390156347
30
0
41
1
10
57.9213035405101
20
34.4686854928051
30
0
41
1
10
57.7778494486669
20
34.3148408521314
30
0
41
1
10
57.3463111711067
20
33.8388190582714
30
0
41
1
10
57.0580025275149
20
33.502299841599
30
0
41
1
10
56.2026152835734
20
32.465365304081
30
0
41
1
10
55.642864488904
20
31.7137913407642
30
0
41
1
10
54.5432514621636
20
30.0965361024855
30
0
41
1
10
54.0023485609279
20
29.262435417634
30
0
41
1
10
53.2420098201317
20
27.95945366769
30
0
41
1
10
52.9866024939104
20
27.5074234477863
30
0
41
1
10
52.6943713733605
20
26.8318024858496
30
0
41
1
10
52.5898169041925
20
26.534386050653
30
0
41
1
10
52.7847821066988
20
26.5247305893457
30
0
41
1
10
52.9566926959907
20
26.7260933019126
30
0
41
1
10
53.1036104516215
20
26.900186929864
30
0
0
SPLINE
5
200
100
AcDbEntity
8
1
62
256
6
ByLayer
370
18
48
1
60
0
100
AcDbSpline
70
4
71
1
72
4
73
2
40
0
40
0
40
1
40
1
41
1
10
38.7946873078068
20
34.418920139669
30
0
41
1
10
38.1532447801588
20
34.5980360316023
30
0
0
SPLINE
5
201
100
AcDbEntity
8
1
62
256
6
ByLayer
370
18
48
1
60
0
100
AcDbSpline
70
4
71
3
72
8
73
4
40
0
40
0
40
0
40
0
40
1
40
1
40
1
40
1
41
1
10
28.1373483607854
20
27.365098231048
30
0
41
1
10
28.0255677543874
20
27.2698924706631
30
0
41
1
10
27.9194277833331
20
27.1685903426603
30
0
41
1
10
27.8209430157663
20
27.0623438987179
30
0
0
SPLINE
5
202
100
AcDbEntity
8
1
62
256
6
ByLayer
370
18
48
1
60
0
100
AcDbSpline
70
4
71
3
72
8
73
4
40
0
40
0
40
0
40
0
40
1
40
1
40
1
40
1
41
1
10
29.8350647511044
20
24.4183741139555
30
0
41
1
10
29.6435842723049
20
24.6907574651914
30
0
41
1
10
29.5146330430219
20
24.9946958632793
30
0
41
1
10
29.4374471604493
20
25.2946611935913
30
0
0
SPLINE
5
203
100
AcDbEntity
8
1
62
256
6
ByLayer
370
18
48
1
60
0
100
AcDbSpline
70
4
71
3
72
8
73
4
40
0
40
0
40
0
40
0
40
1
40
1
40
1
40
1
41
1
10
46.4154632449184
20
32.6587364069585
30
0
41
1
10
47.8549005756994
20
31.8730409506391
30
0
41
1
10
48.8804454006573
20
30.4142206691893
30
0
41
1
10
49.1268016495849
20
28.8018239654018
30
0
0
SPLINE
5
204
100
AcDbEntity
8
1
62
256
6
ByLayer
370
18
48
1
60
0
100
AcDbSpline
70
4
71
3
72
8
73
4
40
0
40
0
40
0
40
0
40
1
40
1
40
1
40
1
41
1
10
35.7796422156644
20
15.9621390886917
30
0
41
1
10
35.9711226944638
20
15.6897557374558
30
0
41
1
10
36.2111686684584
20
15.4687910464372
30
0
41
1
10
36.4639603269538
20
15.299359240121
30
0
0
SPLINE
5
205
100
AcDbEntity
8
1
62
256
6
ByLayer
370
18
48
1
60
0
100
AcDbSpline
70
4
71
3
72
8
73
4
40
0
40
0
40
0
40
0
40
1
40
1
40
1
40
1
41
1
10
49.1268016495836
20
28.8018239653999
30
0
41
1
10
49.412748365534
20
26.9305337729428
30
0
41
1
10
48.4807024717373
20
24.9456717962765
30
0
41
1
10
46.9468624737179
20
23.8657117575524
30
0
0
SPLINE
5
206
100
AcDbEntity
8
1
62
256
6
ByLayer
370
18
48
1
60
0
100
AcDbSpline
70
4
71
3
72
16
73
12
40
0
40
0
40
0
40
0
40
0.151731214193994
40
0.151731214193994
40
0.338643884906091
40
0.338643884906091
40
0.666881577663751
40
0.666881577663751
40
0.994651234683088
40
0.994651234683088
40
1
40
1
40
1
40
1
41
1
10
51.2121662287996
20
39.2735769924686
30
0
41
1
10
51.177359965623
20
39.2652451158142
30
0
41
1
10
51.1402622518098
20
39.2586464555974
30
0
41
1
10
51.0600859135768
20
39.2483581963274
30
0
41
1
10
51.0162973270067
20
39.2454727115466
30
0
41
1
10
50.9041472150223
20
39.2431544823414
30
0
41
1
10
50.8405292561329
20
39.2478935392201
30
0
41
1
10
50.7160632142973
20
39.2572881472574
30
0
41
1
10
50.6500735891083
20
39.2610129992627
30
0
41
1
10
50.5750538614217
20
39.256756061105
30
0
41
1
10
50.5738396491591
20
39.2566837948673
30
0
41
1
10
50.5726270096707
20
39.2566133012124
30
0
0
SPLINE
5
207
100
AcDbEntity
8
1
62
256
6
ByLayer
370
18
48
1
60
0
100
AcDbSpline
70
4
71
3
72
8
73
4
40
0
40
0
40
0
40
0
40
1
40
1
40
1
40
1
41
1.02317326254112
10
55.5144469428428
20
39.1350022883096
30
0
41
1.0229667643301
10
56.8161885661786
20
39.414954392584
30
0
41
1.0224839940336
10
58.0185686167974
20
39.6365521956011
30
0
41
1.02237757420358
10
59.2049126366964
20
39.9318230147273
30
0
0
SPLINE
5
208
100
AcDbEntity
8
1
62
256
6
ByLayer
370
18
48
1
60
0
100
AcDbSpline
70
4
71
3
72
16
73
12
40
0
40
0
40
0
40
0
40
0.211789832675875
40
0.211789832675875
40
0.424635425352729
40
0.424635425352729
40
0.625049629967193
40
0.625049629967193
40
0.824219103175402
40
0.824219103175402
40
1
40
1
40
1
40
1
41
1
10
38.6240972445664
20
14.2276509678216
30
0
41
1
10
38.5717807207371
20
14.2629042259429
30
0
41
1
10
38.4864492411884
20
14.3001639203168
30
0
41
1
10
38.2556378588091
20
14.3887974336819
30
0
41
1
10
38.1069398911301
20
14.442051820971
30
0
41
1
10
37.7860311614073
20
14.5698105168975
30
0
41
1
10
37.6116368930058
20
14.6448961076025
30
0
41
1
10
37.2603861154568
20
14.8162614761214
30
0
41
1
10
37.0786238469762
20
14.9149263325814
30
0
41
1
10
36.752306600702
20
15.1096371973554
30
0
41
1
10
36.601968902053
20
15.2068599768725
30
0
41
1
10
36.4639603269538
20
15.299359240121
30
0
0
SPLINE
5
209
100
AcDbEntity
8
1
62
256
6
ByLayer
370
18
48
1
60
0
100
AcDbSpline
70
4
71
2
72
6
73
3
40
0
40
0
40
0
40
1
40
1
40
1
41
0.929126212970776
10
46.9468624817037
20
23.8657117442031
30
0
41
0.884495469584439
10
48.2812592868186
20
21.6350808910852
30
0
41
1.03601283770102
10
48.3161603937466
20
20.8745068182101
30
0
0
SPLINE
5
20A
100
AcDbEntity
8
1
62
256
6
ByLayer
370
18
48
1
60
0
100
AcDbSpline
70
4
71
3
72
8
73
4
40
0
40
0
40
0
40
0
40
1
40
1
40
1
40
1
41
1
10
45.1426577540192
20
22.6073386698088
30
0
41
1
10
44.1113739708733
20
21.8881087873878
30
0
41
1
10
42.845050623445
20
21.6205081316932
30
0
41
1
10
41.6298688302321
20
21.8291277199792
30
0
0
SPLINE
5
20B
100
AcDbEntity
8
1
62
256
6
ByLayer
370
18
48
1
60
0
100
AcDbSpline
70
4
71
3
72
8
73
4
40
0
40
0
40
0
40
0
40
1
40
1
40
1
40
1
41
1
10
29.1982293068934
20
27.636064782471
30
0
41
1
10
29.1928070637514
20
27.6664001656582
30
0
41
1
10
29.1867803479581
20
27.6923173233766
30
0
41
1
10
29.179185852834
20
27.7129522054274
30
0
0
SPLINE
5
20C
100
AcDbEntity
8
1
62
256
6
ByLayer
370
18
48
1
60
0
100
AcDbSpline
70
4
71
3
72
10
73
6
40
0
40
0
40
0
40
0
40
0.24410334135241
40
0.24410334135241
40
1
40
1
40
1
40
1
41
1
10
60.0098767982672
20
35.2666932853597
30
0
41
1
10
59.887712404358
20
35.2468325968456
30
0
41
1
10
59.7642164227003
20
35.2239509984571
30
0
41
1
10
59.2546174951083
20
35.121637892938
30
0
41
1
10
58.8610185006461
20
35.0247238091377
30
0
41
1
10
58.4691824621262
20
34.9318544378608
30
0
0
SPLINE
5
20D
100
AcDbEntity
8
1
62
256
6
ByLayer
370
18
48
1
60
0
100
AcDbSpline
70
4
71
3
72
8
73
4
40
0
40
0
40
0
40
0
40
1
40
1
40
1
40
1
41
1
10
60.1136552403065
20
35.4970044511535
30
0
41
1
10
60.2163739057947
20
35.9176291401315
30
0
41
1
10
60.3190138658304
20
36.3403886098339
30
0
41
1
10
60.4216246691694
20
36.7634904325812
30
0
0
SPLINE
5
20E
100
AcDbEntity
8
1
62
256
6
ByLayer
370
18
48
1
60
0
100
AcDbSpline
70
4
71
3
72
14
73
10
40
0
40
0
40
0
40
0
40
0.264702745620998
40
0.264702745620998
40
0.594442017794338
40
0.594442017794338
40
0.899060432893745
40
0.899060432893745
40
1
40
1
40
1
40
1
41
1
10
57.0503710616277
20
30.284049510256
30
0
41
1
10
57.0524318619762
20
30.2668884882538
30
0
41
1
10
57.0527120412162
20
30.2494602430948
30
0
41
1
10
57.0488178348618
20
30.2118846802006
30
0
41
1
10
57.0434389890686
20
30.1915835770887
30
0
41
1
10
57.0283669677521
20
30.1571383635629
30
0
41
1
10
57.0189157981346
20
30.142223223882
30
0
41
1
10
57.004827969512
20
30.1252024149105
30
0
41
1
10
57.0011601364575
20
30.1211509366349
30
0
41
1
10
56.9973881936888
20
30.1173109913543
30
0
0
SPLINE
5
20F
100
AcDbEntity
8
1
62
256
6
ByLayer
370
18
48
1
60
0
100
AcDbSpline
70
4
71
3
72
10
73
6
40
0
40
0
40
0
40
0
40
0.258575330737303
40
0.258575330737303
40
1
40
1
40
1
40
1
41
1
10
56.315278534295
20
40.3834188018951
30
0
41
1
10
56.2376858101057
20
40.3681982217108
30
0
41
1
10
56.1604234386126
20
40.3521317637806
30
0
41
1
10
55.8649183123939
20
40.2872179424944
30
0
41
1
10
55.6499953092976
20
40.232502769455
30
0
41
1
10
55.4442433854457
20
40.1735248291323
30
0
0
SPLINE
5
210
100
AcDbEntity
8
1
62
256
6
ByLayer
370
18
48
1
60
0
100
AcDbSpline
70
4
71
3
72
10
73
6
40
0
40
0
40
0
40
0
40
0.5
40
0.5
40
1
40
1
40
1
40
1
41
1
10
36.0503465574174
20
26.2182989956705
30
0
41
1
10
34.8223439303124
20
26.1352762759964
30
0
41
1
10
33.6257325819648
20
26.0309251684849
30
0
41
1
10
31.3286478812604
20
25.7352199998455
30
0
41
1
10
30.2749164713643
20
25.5506898203685
30
0
41
1
10
29.4374471604493
20
25.2946611935913
30
0
0
INSERT
5
222
100
AcDbEntity
8
2
62
256
6
ByLayer
370
25
48
1
60
0
100
AcDbBlockReference
2
DimnDraft3D11
10
0
20
0
30
0
41
1
42
1
43
1
50
0
210
0
220
0
230
1
0
LINE
5
72
100
AcDbEntity
8
1
62
256
6
ByLayer
370
18
48
1
60
0
100
AcDbLine
10
49.40481
20
43.54418
30
0
11
48.951256
21
43.090627
31
0
39
0
210
0
220
0
230
1
0
LINE
5
74
100
AcDbEntity
8
1
62
256
6
ByLayer
370
18
48
1
60
0
100
AcDbLine
10
63.099974
20
28.960603
30
0
11
63.54418
21
29.40481
31
0
39
0
210
0
220
0
230
1
0
LINE
5
75
100
AcDbEntity
8
1
62
256
6
ByLayer
370
18
48
1
60
0
100
AcDbLine
10
0.3
20
31.5
30
0
11
0
21
31.2
31
0
39
0
210
0
220
0
230
1
0
LINE
5
76
100
AcDbEntity
8
1
62
256
6
ByLayer
370
18
48
1
60
0
100
AcDbLine
10
0
20
-31.2
30
0
11
0.3
21
-31.5
31
0
39
0
210
0
220
0
230
1
0
LINE
5
77
100
AcDbEntity
8
1
62
256
6
ByLayer
370
18
48
1
60
0
100
AcDbLine
10
0.3
20
-31.5
30
0
11
22.920792
21
-31.5
31
0
39
0
210
0
220
0
230
1
0
LINE
5
78
100
AcDbEntity
8
1
62
256
6
ByLayer
370
18
48
1
60
0
100
AcDbLine
10
22.920792
20
31.5
30
0
11
0.3
21
31.5
31
0
39
0
210
0
220
0
230
1
0
LINE
5
79
100
AcDbEntity
8
1
62
256
6
ByLayer
370
18
48
1
60
0
100
AcDbLine
10
22.960985
20
-31.65
30
0
11
23.531509
21
-31.65
31
0
39
0
210
0
220
0
230
1
0
LINE
5
7A
100
AcDbEntity
8
1
62
256
6
ByLayer
370
18
48
1
60
0
100
AcDbLine
10
22.920792
20
-31.5
30
0
11
22.960985
21
-31.65
31
0
39
0
210
0
220
0
230
1
0
LINE
5
7B
100
AcDbEntity
8
1
62
256
6
ByLayer
370
18
48
1
60
0
100
AcDbLine
10
27.014539
20
27.049607
30
0
11
27.103638
21
27.383903
31
0
39
0
210
0
220
0
230
1
0
LINE
5
7C
100
AcDbEntity
8
1
62
256
6
ByLayer
370
18
48
1
60
0
100
AcDbLine
10
41.683847
20
27.079221
30
0
11
41.706641
21
27.102015
31
0
39
0
210
0
220
0
230
1
0
LINE
5
7D
100
AcDbEntity
8
1
62
256
6
ByLayer
370
18
48
1
60
0
100
AcDbLine
10
46.352824
20
23.677559
30
0
11
46.577446
21
23.902182
31
0
39
0
210
0
220
0
230
1
0
LINE
5
7E
100
AcDbEntity
8
1
62
256
6
ByLayer
370
18
48
1
60
0
100
AcDbLine
10
25.391318
20
40.720127
30
0
11
22.920792
21
31.5
31
0
39
0
210
0
220
0
230
1
0
LINE
5
7F
100
AcDbEntity
8
1
62
256
6
ByLayer
370
18
48
1
60
0
100
AcDbLine
10
24.821602
20
30.836784
30
0
11
19.716657
21
27.953889
31
0
39
0
210
0
220
0
230
1
0
LINE
5
80
100
AcDbEntity
8
1
62
256
6
ByLayer
370
18
48
1
60
0
100
AcDbLine
10
12.411064
20
23.828231
30
0
11
11.892762
21
23.535533
31
0
39
0
210
0
220
0
230
1
0
LINE
5
81
100
AcDbEntity
8
1
62
256
6
ByLayer
370
18
48
1
60
0
100
AcDbLine
10
25.206793
20
30.74278
30
0
11
24.874508
21
30.839109
31
0
39
0
210
0
220
0
230
1
0
LINE
5
82
100
AcDbEntity
8
1
62
256
6
ByLayer
370
18
48
1
60
0
100
AcDbLine
10
44.718047
20
28.11428
30
0
11
44.447747
21
27.84398
31
0
39
0
210
0
220
0
230
1
0
LINE
5
83
100
AcDbEntity
8
1
62
256
6
ByLayer
370
18
48
1
60
0
100
AcDbLine
10
39.506379
20
30.97325
30
0
11
39.284413
21
30.751284
31
0
39
0
210
0
220
0
230
1
0
LINE
5
84
100
AcDbEntity
8
1
62
256
6
ByLayer
370
18
48
1
60
0
100
AcDbLine
10
35.903878
20
26.068496
30
0
11
36.325115
21
26.427352
31
0
39
0
210
0
220
0
230
1
0
LINE
5
85
100
AcDbEntity
8
1
62
256
6
ByLayer
370
18
48
1
60
0
100
AcDbLine
10
29.621719
20
28.629812
30
0
11
28.137419
21
27.365323
31
0
39
0
210
0
220
0
230
1
0
LINE
5
86
100
AcDbEntity
8
80
62
256
6
ByLayer
370
18
48
1
60
0
100
AcDbLine
10
0
20
0
30
0
11
-5
21
0
31
0
39
0
210
0
220
0
230
1
0
LINE
5
87
100
AcDbEntity
8
4
62
256
6
ByLayer
370
18
48
0.05
60
0
100
AcDbLine
10
0
20
0
30
0
11
65
21
0
31
0
39
0
210
0
220
0
230
1
0
LINE
5
89
100
AcDbEntity
8
81
62
256
6
ByLayer
370
18
48
1
60
0
100
AcDbLine
10
65
20
45
30
0
11
75
21
45
31
0
39
0
210
0
220
0
230
1
0
LINE
5
8A
100
AcDbEntity
8
SK4
62
256
6
ByLayer
370
18
48
0.05
60
0
100
AcDbLine
10
-43
20
0
30
0
11
65
21
0
31
0
39
0
210
0
220
0
230
1
0
LINE
5
8C
100
AcDbEntity
8
1
62
256
6
ByLayer
370
18
48
1
60
0
100
AcDbLine
10
48.793225
20
39.481986
30
0
11
49.066495
21
42.811932
31
0
39
0
210
0
220
0
230
1
0
LINE
5
8D
100
AcDbEntity
8
1
62
256
6
ByLayer
370
18
48
1
60
0
100
AcDbLine
10
62.811932
20
29.066495
30
0
11
56.828587
21
28.575474
31
0
39
0
210
0
220
0
230
1
0
LINE
5
8E
100
AcDbEntity
8
1
62
256
6
ByLayer
370
18
48
1
60
0
100
AcDbLine
10
64.99604
20
43.706176
30
0
11
63.882495
21
30.137058
31
0
39
0
210
0
220
0
230
1
0
LINE
5
8F
100
AcDbEntity
8
1
62
256
6
ByLayer
370
18
48
1
60
0
100
AcDbLine
10
50.137058
20
43.882495
30
0
11
63.706176
21
44.99604
31
0
39
0
210
0
220
0
230
1
0
LINE
5
90
100
AcDbEntity
8
SK1
62
256
6
ByLayer
370
18
48
1
60
0
100
AcDbLine
10
-0.2
20
-22.533485
30
0
11
-0.2
21
-7.059517
31
0
39
0
210
0
220
0
230
1
0
LINE
5
92
100
AcDbEntity
8
SK1
62
256
6
ByLayer
370
18
48
1
60
0
100
AcDbLine
10
-0.2
20
7.059518
30
0
11
-0.2
21
22.533485
31
0
39
0
210
0
220
0
230
1
0
LINE
5
93
100
AcDbEntity
8
SK1
62
256
6
ByLayer
370
18
48
1
60
0
100
AcDbLine
10
-1.307107
20
-4.811013
30
0
11
-1.307107
21
4.811013
31
0
39
0
210
0
220
0
230
1
0
LINE
5
94
100
AcDbEntity
8
1
62
256
6
ByLayer
370
18
48
1
60
0
100
AcDbLine
10
48.932508
20
43.098789
30
0
11
25.586814
21
41.182933
31
0
39
0
210
0
220
0
230
1
0
LINE
5
95
100
AcDbEntity
8
1
62
256
6
ByLayer
370
18
48
1
60
0
100
AcDbLine
10
43.60613
20
10.750293
30
0
11
49.917734
21
4.438689
31
0
39
0
210
0
220
0
230
1
0
LINE
5
96
100
AcDbEntity
8
1
62
256
6
ByLayer
370
18
48
1
60
0
100
AcDbLine
10
49.043139
20
43.05061
30
0
11
48.749531
21
39.47285
31
0
39
0
210
0
220
0
230
1
0
LINE
5
97
100
AcDbEntity
8
1
62
256
6
ByLayer
370
18
48
1
60
0
100
AcDbLine
10
10.538675
20
25.9971
30
0
11
10.538675
21
30.080593
31
0
39
0
210
0
220
0
230
1
0
LINE
5
98
100
AcDbEntity
8
1
62
256
6
ByLayer
370
18
48
1
60
0
100
AcDbLine
10
62.523138
20
21.917907
30
0
11
49.917734
21
4.438689
31
0
39
0
210
0
220
0
230
1
0
LINE
5
99
100
AcDbEntity
8
1
62
256
6
ByLayer
370
18
48
1
60
0
100
AcDbLine
10
48.632911
20
39.448045
30
0
11
48.932508
21
43.098789
31
0
39
0
210
0
220
0
230
1
0
LINE
5
9A
100
AcDbEntity
8
1
62
256
6
ByLayer
370
18
48
1
60
0
100
AcDbLine
10
19.911507
20
23.023701
30
0
11
19.911507
21
-29.985012
31
0
39
0
210
0
220
0
230
1
0
LINE
5
9B
100
AcDbEntity
8
1
62
256
6
ByLayer
370
18
48
1
60
0
100
AcDbLine
10
10.105662
20
25.691234
30
0
11
10.105662
21
29.913955
31
0
39
0
210
0
220
0
230
1
0
LINE
5
9C
100
AcDbEntity
8
1
62
256
6
ByLayer
370
18
48
1
60
0
100
AcDbLine
10
0
20
-31.2
30
0
11
0
21
31.2
31
0
39
0
210
0
220
0
230
1
0
LINE
5
9D
100
AcDbEntity
8
1
62
256
6
ByLayer
370
18
48
1
60
0
100
AcDbLine
10
44.436041
20
15.895774
30
0
11
43.777786
21
16.83215
31
0
39
0
210
0
220
0
230
1
0
LINE
5
9E
100
AcDbEntity
8
1
62
256
6
ByLayer
370
18
48
1
60
0
100
AcDbLine
10
56.799268
20
28.528467
30
0
11
57.175936
21
28.561036
31
0
39
0
210
0
220
0
230
1
0
LINE
5
9F
100
AcDbEntity
8
1
62
256
6
ByLayer
370
18
48
1
60
0
100
AcDbLine
10
63.006318
20
29.065173
30
0
11
63.052748
21
29.069188
31
0
39
0
210
0
220
0
230
1
0
LINE
5
A0
100
AcDbEntity
8
1
62
256
6
ByLayer
370
18
48
1
60
0
100
AcDbLine
10
48.932508
20
43.098789
30
0
11
49.043139
21
43.05061
31
0
39
0
210
0
220
0
230
1
0
LINE
5
A1
100
AcDbEntity
8
1
62
256
6
ByLayer
370
18
48
1
60
0
100
AcDbLine
10
22.920792
20
31.5
30
0
11
22.920792
21
30.899614
31
0
39
0
210
0
220
0
230
1
0
LINE
5
A2
100
AcDbEntity
8
1
62
256
6
ByLayer
370
18
48
1
60
0
100
AcDbLine
10
22.920792
20
-30.899614
30
0
11
22.920792
21
-31.5
31
0
39
0
210
0
220
0
230
1
0
LINE
5
A3
100
AcDbEntity
8
1
62
256
6
ByLayer
370
18
48
1
60
0
100
AcDbLine
10
10.538675
20
9.349221
30
0
11
10.538675
21
23.997901
31
0
39
0
210
0
220
0
230
1
0
LINE
5
A4
100
AcDbEntity
8
1
62
256
6
ByLayer
370
18
48
1
60
0
100
AcDbLine
10
24.078325
20
30.417061
30
0
11
24.078325
21
35.401156
31
0
39
0
210
0
220
0
230
1
0
LINE
5
A5
100
AcDbEntity
8
1
62
256
6
ByLayer
370
18
48
1
60
0
100
AcDbLine
10
23.896286
20
30.500632
30
0
11
23.896286
21
30.313978
31
0
39
0
210
0
220
0
230
1
0
LINE
5
A6
100
AcDbEntity
8
1
62
256
6
ByLayer
370
18
48
1
60
0
100
AcDbLine
10
23.896286
20
25.274309
30
0
11
23.896286
21
-31.076076
31
0
39
0
210
0
220
0
230
1
0
LINE
5
A7
100
AcDbEntity
8
1
62
256
6
ByLayer
370
18
48
1
60
0
100
AcDbLine
10
33.134082
20
12.06536
30
0
11
25.486032
21
22.944806
31
0
39
0
210
0
220
0
230
1
0
LINE
5
A8
100
AcDbEntity
8
1
62
256
6
ByLayer
370
18
48
1
60
0
100
AcDbLine
10
22.960985
20
-31.65
30
0
11
22.960985
21
-31.054462
31
0
39
0
210
0
220
0
230
1
0
LINE
5
A9
100
AcDbEntity
8
1
62
256
6
ByLayer
370
18
48
1
60
0
100
AcDbLine
10
13.461325
20
9.349221
30
0
11
13.461325
21
23.997901
31
0
39
0
210
0
220
0
230
1
0
LINE
5
AA
100
AcDbEntity
8
1
62
256
6
ByLayer
370
18
48
1
60
0
100
AcDbLine
10
56.722945
20
28.406936
30
0
11
63.100916
21
28.958422
31
0
39
0
210
0
220
0
230
1
0
LINE
5
AB
100
AcDbEntity
8
1
62
256
6
ByLayer
370
18
48
1
60
0
100
AcDbLine
10
44.436041
20
15.895774
30
0
11
42.598474
21
14.551095
31
0
39
0
210
0
220
0
230
1
0
LINE
5
AC
100
AcDbEntity
8
1
62
256
6
ByLayer
370
18
48
1
60
0
100
AcDbLine
10
13.894338
20
25.691234
30
0
11
13.894338
21
29.913955
31
0
39
0
210
0
220
0
230
1
0
LINE
5
AD
100
AcDbEntity
8
1
62
256
6
ByLayer
370
18
48
1
60
0
100
AcDbLine
10
10.105662
20
-29.913955
30
0
11
10.105662
21
-9.869413
31
0
39
0
210
0
220
0
230
1
0
LINE
5
AE
100
AcDbEntity
8
1
62
256
6
ByLayer
370
18
48
1
60
0
100
AcDbLine
10
13.461325
20
-9.349221
30
0
11
10.538675
21
-9.349221
31
0
39
0
210
0
220
0
230
1
0
LINE
5
AF
100
AcDbEntity
8
1
62
256
6
ByLayer
370
18
48
1
60
0
100
AcDbLine
10
13.461325
20
25.9971
30
0
11
13.461325
21
30.080593
31
0
39
0
210
0
220
0
230
1
0
LINE
5
B0
100
AcDbEntity
8
1
62
256
6
ByLayer
370
18
48
1
60
0
100
AcDbLine
10
10.538675
20
-30.080593
30
0
11
10.538675
21
-9.349221
31
0
39
0
210
0
220
0
230
1
0
LINE
5
B1
100
AcDbEntity
8
1
62
256
6
ByLayer
370
18
48
1
60
0
100
AcDbLine
10
62.523138
20
21.917907
30
0
11
63.100916
21
28.958422
31
0
39
0
210
0
220
0
230
1
0
LINE
5
B2
100
AcDbEntity
8
1
62
256
6
ByLayer
370
18
48
1
60
0
100
AcDbLine
10
10.105662
20
9.869413
30
0
11
10.105662
21
24.752055
31
0
39
0
210
0
220
0
230
1
0
LINE
5
B3
100
AcDbEntity
8
1
62
256
6
ByLayer
370
18
48
1
60
0
100
AcDbLine
10
13.461325
20
30.080593
30
0
11
10.538675
21
30.080593
31
0
39
0
210
0
220
0
230
1
0
LINE
5
B4
100
AcDbEntity
8
1
62
256
6
ByLayer
370
18
48
1
60
0
100
AcDbLine
10
13.894338
20
9.869413
30
0
11
13.894338
21
24.752055
31
0
39
0
210
0
220
0
230
1
0
LINE
5
B5
100
AcDbEntity
8
1
62
256
6
ByLayer
370
18
48
1
60
0
100
AcDbLine
10
24.120948
20
-31.076076
30
0
11
23.896286
21
-31.076076
31
0
39
0
210
0
220
0
230
1
0
LINE
5
B6
100
AcDbEntity
8
1
62
256
6
ByLayer
370
18
48
1
60
0
100
AcDbLine
10
33.547033
20
31.385522
30
0
11
32.937825
21
32.252128
31
0
39
0
210
0
220
0
230
1
0
LINE
5
B7
100
AcDbEntity
8
1
62
256
6
ByLayer
370
18
48
1
60
0
100
AcDbLine
10
10.538675
20
9.349221
30
0
11
13.461325
21
9.349221
31
0
39
0
210
0
220
0
230
1
0
LINE
5
B8
100
AcDbEntity
8
1
62
256
6
ByLayer
370
18
48
1
60
0
100
AcDbLine
10
19.911507
20
29.985012
30
0
11
19.911507
21
28.18212
31
0
39
0
210
0
220
0
230
1
0
LINE
5
B9
100
AcDbEntity
8
1
62
256
6
ByLayer
370
18
48
1
60
0
100
AcDbLine
10
13.894338
20
-29.913955
30
0
11
13.894338
21
-9.869413
31
0
39
0
210
0
220
0
230
1
0
LINE
5
BA
100
AcDbEntity
8
1
62
256
6
ByLayer
370
18
48
1
60
0
100
AcDbLine
10
13.461325
20
-30.080593
30
0
11
13.461325
21
-9.349221
31
0
39
0
210
0
220
0
230
1
0
LINE
5
BB
100
AcDbEntity
8
1
62
256
6
ByLayer
370
18
48
1
60
0
100
AcDbLine
10
0.3
20
-31.5
30
0
11
0.3
21
31.5
31
0
39
0
210
0
220
0
230
1
0
LINE
5
BC
100
AcDbEntity
8
1
62
256
6
ByLayer
370
18
48
1
60
0
100
AcDbLine
10
24.120948
20
-31.076076
30
0
11
49.917734
21
4.438689
31
0
39
0
210
0
220
0
230
1
0
LINE
5
BD
100
AcDbEntity
8
1
62
256
6
ByLayer
370
18
48
1
60
0
100
AcDbLine
10
63.100916
20
28.958422
30
0
11
63.052748
21
29.069188
31
0
39
0
210
0
220
0
230
1
0
LINE
5
BE
100
AcDbEntity
8
1
62
256
6
ByLayer
370
18
48
1
60
0
100
AcDbLine
10
32.937825
20
32.252128
30
0
11
31.100259
21
30.907449
31
0
39
0
210
0
220
0
230
1
0
LINE
5
BF
100
AcDbEntity
8
1
62
256
6
ByLayer
370
18
48
1
60
0
100
AcDbLine
10
10.538675
20
-30.080593
30
0
11
13.461325
21
-30.080593
31
0
39
0
210
0
220
0
230
1
0
LINE
5
C0
100
AcDbEntity
8
1
62
256
6
ByLayer
370
18
48
1
60
0
100
AcDbLine
10
19.682579
20
22.895022
30
0
11
27.008272
21
27.03203
31
0
39
0
210
0
220
0
230
1
0
LINE
5
C1
100
AcDbEntity
8
1
62
256
6
ByLayer
370
18
48
1
60
0
100
AcDbLine
10
44.526663
20
27.078877
30
0
11
44.796963
21
27.349177
31
0
39
0
210
0
220
0
230
1
0
LINE
5
C2
100
AcDbEntity
8
1
62
256
6
ByLayer
370
18
48
1
60
0
100
AcDbLine
10
43.943646
20
28.578314
30
0
11
44.213947
21
28.848614
31
0
39
0
210
0
220
0
230
1
0
LINE
5
C3
100
AcDbEntity
8
1
62
256
6
ByLayer
370
18
48
1
60
0
100
AcDbLine
10
41.686669
20
27.082189
30
0
11
41.699462
21
27.094982
31
0
39
0
210
0
220
0
230
1
0
LINE
5
C4
100
AcDbEntity
8
1
62
256
6
ByLayer
370
18
48
1
60
0
100
AcDbLine
10
43.239728
20
28.909559
30
0
11
43.510028
21
29.179859
31
0
39
0
210
0
220
0
230
1
0
LINE
5
C5
100
AcDbEntity
8
1
62
256
6
ByLayer
370
18
48
1
60
0
100
AcDbLine
10
43.671233
20
28.911548
30
0
11
43.405435
21
28.64575
31
0
39
0
210
0
220
0
230
1
0
LINE
5
C6
100
AcDbEntity
8
1
62
256
6
ByLayer
370
18
48
1
60
0
100
AcDbLine
10
43.639611
20
26.125218
30
0
11
43.90541
21
26.391017
31
0
39
0
210
0
220
0
230
1
0
LINE
5
C7
100
AcDbEntity
8
1
62
256
6
ByLayer
370
18
48
1
60
0
100
AcDbLine
10
44.334457
20
27.324205
30
0
11
44.600255
21
27.590003
31
0
39
0
210
0
220
0
230
1
0
LINE
5
C8
100
AcDbEntity
8
1
62
256
6
ByLayer
370
18
48
1
60
0
100
AcDbLine
10
43.636889
20
28.536834
30
0
11
43.902688
21
28.802632
31
0
39
0
210
0
220
0
230
1
0
LINE
5
C9
100
AcDbEntity
8
1
62
256
6
ByLayer
370
18
48
1
60
0
100
AcDbLine
10
41.726845
20
28.396393
30
0
11
41.997146
21
28.666693
31
0
39
0
210
0
220
0
230
1
0
LINE
5
CA
100
AcDbEntity
8
1
62
256
6
ByLayer
370
18
48
1
60
0
100
AcDbLine
10
42.244476
20
28.550476
30
0
11
42.510275
21
28.816275
31
0
39
0
210
0
220
0
230
1
0
LINE
5
CB
100
AcDbEntity
8
1
62
256
6
ByLayer
370
18
48
1
60
0
100
AcDbLine
10
42.302408
20
28.671306
30
0
11
42.03661
21
28.405507
31
0
39
0
210
0
220
0
230
1
0
LINE
5
CC
100
AcDbEntity
8
1
62
256
6
ByLayer
370
18
48
1
60
0
100
AcDbLine
10
44.576667
20
27.843888
30
0
11
44.310869
21
27.57809
31
0
39
0
210
0
220
0
230
1
0
LINE
5
CD
100
AcDbEntity
8
1
62
256
6
ByLayer
370
18
48
1
60
0
100
AcDbLine
10
43.52506
20
25.83841
30
0
11
43.795361
21
26.10871
31
0
39
0
210
0
220
0
230
1
0
LINE
5
CE
100
AcDbEntity
8
1
62
256
6
ByLayer
370
18
48
1
60
0
100
AcDbLine
10
56.912636
20
41.795538
30
0
11
56.290782
21
42.446355
31
0
39
0
210
0
220
0
230
1
0
LINE
5
CF
100
AcDbEntity
8
1
62
256
6
ByLayer
370
18
48
1
60
0
100
AcDbLine
10
53.917396
20
41.283267
30
0
11
53.057224
21
41.893324
31
0
39
0
210
0
220
0
230
1
0
LINE
5
D0
100
AcDbEntity
8
1
62
256
6
ByLayer
370
18
48
1
60
0
100
AcDbLine
10
61.447753
20
37.655787
30
0
11
61.457401
21
35.889742
31
0
39
0
210
0
220
0
230
1
0
LINE
5
D1
100
AcDbEntity
8
1
62
256
6
ByLayer
370
18
48
1
60
0
100
AcDbLine
10
59.783105
20
32.939223
30
0
11
58.682736
21
32.171812
31
0
39
0
210
0
220
0
230
1
0
LINE
5
D2
100
AcDbEntity
8
1
62
256
6
ByLayer
370
18
48
1
60
0
100
AcDbLine
10
52.817027
20
40.515856
30
0
11
52.614344
21
40.403141
31
0
39
0
210
0
220
0
230
1
0
LINE
5
D3
100
AcDbEntity
8
1
62
256
6
ByLayer
370
18
48
1
60
0
100
AcDbLine
10
51.865445
20
39.638103
30
0
11
50.817145
21
39.733552
31
0
39
0
210
0
220
0
230
1
0
LINE
5
D4
100
AcDbEntity
8
1
62
256
6
ByLayer
370
18
48
1
60
0
100
AcDbLine
10
61.290891
20
35.567416
30
0
11
59.783105
21
32.939223
31
0
39
0
210
0
220
0
230
1
0
LINE
5
D5
100
AcDbEntity
8
1
62
256
6
ByLayer
370
18
48
1
60
0
100
AcDbLine
10
58.93652
20
41.228047
30
0
11
57.273681
21
41.841136
31
0
39
0
210
0
220
0
230
1
0
LINE
5
D6
100
AcDbEntity
8
1
62
256
6
ByLayer
370
18
48
1
60
0
100
AcDbLine
10
52.614344
20
40.403141
30
0
11
51.388563
21
40.72958
31
0
39
0
210
0
220
0
230
1
0
LINE
5
D7
100
AcDbEntity
8
1
62
256
6
ByLayer
370
18
48
1
60
0
100
AcDbLine
10
60.186117
20
31.752385
30
0
11
58.517457
21
30.58864
31
0
39
0
210
0
220
0
230
1
0
LINE
5
D8
100
AcDbEntity
8
1
62
256
6
ByLayer
370
18
48
1
60
0
100
AcDbLine
10
53.057224
20
41.893324
30
0
11
51.388563
21
40.72958
31
0
39
0
210
0
220
0
230
1
0
LINE
5
D9
100
AcDbEntity
8
1
62
256
6
ByLayer
370
18
48
1
60
0
100
AcDbLine
10
52.817027
20
40.515856
30
0
11
55.660199
21
41.183784
31
0
39
0
210
0
220
0
230
1
0
LINE
5
DA
100
AcDbEntity
8
1
62
256
6
ByLayer
370
18
48
1
60
0
100
AcDbLine
10
55.694826
20
40.490906
30
0
11
51.806582
21
39.577465
31
0
39
0
210
0
220
0
230
1
0
LINE
5
DB
100
AcDbEntity
8
1
62
256
6
ByLayer
370
18
48
1
60
0
100
AcDbLine
10
61.290891
20
35.567416
30
0
11
61.813871
21
34.589693
31
0
39
0
210
0
220
0
230
1
0
LINE
5
DC
100
AcDbEntity
8
1
62
256
6
ByLayer
370
18
48
1
60
0
100
AcDbLine
10
58.517457
20
30.58864
30
0
11
58.509952
21
32.016566
31
0
39
0
210
0
220
0
230
1
0
LINE
5
DD
100
AcDbEntity
8
1
62
256
6
ByLayer
370
18
48
1
60
0
100
AcDbLine
10
58.509952
20
32.016566
30
0
11
58.682736
21
32.171812
31
0
39
0
210
0
220
0
230
1
0
LINE
5
DE
100
AcDbEntity
8
1
62
256
6
ByLayer
370
18
48
1
60
0
100
AcDbLine
10
56.290782
20
42.446355
30
0
11
53.057224
21
41.893324
31
0
39
0
210
0
220
0
230
1
0
LINE
5
DF
100
AcDbEntity
8
1
62
256
6
ByLayer
370
18
48
1
60
0
100
AcDbLine
10
61.447753
20
37.655787
30
0
11
62.50568
21
37.221436
31
0
39
0
210
0
220
0
230
1
0
LINE
5
E0
100
AcDbEntity
8
1
62
256
6
ByLayer
370
18
48
1
60
0
100
AcDbLine
10
59.783105
20
32.939223
30
0
11
60.186117
21
31.752385
31
0
39
0
210
0
220
0
230
1
0
LINE
5
E1
100
AcDbEntity
8
1
62
256
6
ByLayer
370
18
48
1
60
0
100
AcDbLine
10
58.93652
20
41.228047
30
0
11
59.010274
21
42.193694
31
0
39
0
210
0
220
0
230
1
0
LINE
5
E2
100
AcDbEntity
8
1
62
256
6
ByLayer
370
18
48
1
60
0
100
AcDbLine
10
58.682736
20
32.171812
30
0
11
60.28536
21
34.604436
31
0
39
0
210
0
220
0
230
1
0
LINE
5
E3
100
AcDbEntity
8
1
62
256
6
ByLayer
370
18
48
1
60
0
100
AcDbLine
10
53.917396
20
41.283267
30
0
11
52.817027
21
40.515856
31
0
39
0
210
0
220
0
230
1
0
LINE
5
E4
100
AcDbEntity
8
1
62
256
6
ByLayer
370
18
48
1
60
0
100
AcDbLine
10
55.660199
20
41.183784
30
0
11
55.694826
21
40.490906
31
0
39
0
210
0
220
0
230
1
0
LINE
5
E5
100
AcDbEntity
8
1
62
256
6
ByLayer
370
18
48
1
60
0
100
AcDbLine
10
56.912636
20
41.795538
30
0
11
53.917396
21
41.283267
31
0
39
0
210
0
220
0
230
1
0
LINE
5
E6
100
AcDbEntity
8
1
62
256
6
ByLayer
370
18
48
1
60
0
100
AcDbLine
10
50.817145
20
39.733552
30
0
11
51.388563
21
40.72958
31
0
39
0
210
0
220
0
230
1
0
LINE
5
E7
100
AcDbEntity
8
1
62
256
6
ByLayer
370
18
48
1
60
0
100
AcDbLine
10
57.692773
20
31.607624
30
0
11
58.509952
21
32.016566
31
0
39
0
210
0
220
0
230
1
0
LINE
5
E8
100
AcDbEntity
8
1
62
256
6
ByLayer
370
18
48
1
60
0
100
AcDbLine
10
57.500408
20
31.16418
30
0
11
57.382326
21
30.394501
31
0
39
0
210
0
220
0
230
1
0
LINE
5
E9
100
AcDbEntity
8
1
62
256
6
ByLayer
370
18
48
1
60
0
100
AcDbLine
10
52.614344
20
40.403141
30
0
11
51.865445
21
39.638103
31
0
39
0
210
0
220
0
230
1
0
LINE
5
EA
100
AcDbEntity
8
1
62
256
6
ByLayer
370
18
48
1
60
0
100
AcDbLine
10
60.28536
20
34.604436
30
0
11
59.738595
21
34.806094
31
0
39
0
210
0
220
0
230
1
0
LINE
5
EB
100
AcDbEntity
8
1
62
256
6
ByLayer
370
18
48
1
60
0
100
AcDbLine
10
61.813871
20
34.589693
30
0
11
60.186117
21
31.752385
31
0
39
0
210
0
220
0
230
1
0
LINE
5
EC
100
AcDbEntity
8
1
62
256
6
ByLayer
370
18
48
1
60
0
100
AcDbLine
10
57.382326
20
30.394501
30
0
11
58.517457
21
30.58864
31
0
39
0
210
0
220
0
230
1
0
LINE
5
ED
100
AcDbEntity
8
1
62
256
6
ByLayer
370
18
48
1
60
0
100
AcDbLine
10
39.221077
20
31.030861
30
0
11
41.001985
21
32.272888
31
0
39
0
210
0
220
0
230
1
0
LINE
5
EE
100
AcDbEntity
8
1
62
256
6
ByLayer
370
18
48
1
60
0
100
AcDbLine
10
29.835065
20
24.418374
30
0
11
35.779642
21
15.962139
31
0
39
0
210
0
220
0
230
1
0
LINE
5
EF
100
AcDbEntity
8
1
62
256
6
ByLayer
370
18
48
1
60
0
100
AcDbLine
10
38.909171
20
30.765145
30
0
11
40.682297
21
32.000543
31
0
39
0
210
0
220
0
230
1
0
LINE
5
F0
100
AcDbEntity
8
1
62
256
6
ByLayer
370
18
48
1
60
0
100
AcDbLine
10
38.153245
20
34.598036
30
0
11
29.885542
21
28.832039
31
0
39
0
210
0
220
0
230
1
0
LINE
5
F1
100
AcDbEntity
8
1
62
256
6
ByLayer
370
18
48
1
60
0
100
AcDbLine
10
51.384601
20
39.312464
30
0
11
55.444243
21
40.173525
31
0
39
0
210
0
220
0
230
1
0
LINE
5
F2
100
AcDbEntity
8
1
62
256
6
ByLayer
370
18
48
1
60
0
100
AcDbLine
10
40.084459
20
14.323953
30
0
11
48.352162
21
20.08995
31
0
39
0
210
0
220
0
230
1
0
LINE
5
F3
100
AcDbEntity
8
1
62
256
6
ByLayer
370
18
48
1
60
0
100
AcDbLine
10
35.779642
20
15.962139
30
0
11
33.816479
21
14.289701
31
0
39
0
210
0
220
0
230
1
0
LINE
5
F4
100
AcDbEntity
8
1
62
256
6
ByLayer
370
18
48
1
60
0
100
AcDbLine
10
32.319072
20
23.554087
30
0
11
35.768536
21
18.64718
31
0
39
0
210
0
220
0
230
1
0
LINE
5
F5
100
AcDbEntity
8
1
62
256
6
ByLayer
370
18
48
1
60
0
100
AcDbLine
10
36.096722
20
26.250848
30
0
11
35.679494
21
25.895407
31
0
39
0
210
0
220
0
230
1
0
LINE
5
F6
100
AcDbEntity
8
1
62
256
6
ByLayer
370
18
48
1
60
0
100
AcDbLine
10
38.700659
20
14.168539
30
0
11
48.31616
21
20.874507
31
0
39
0
210
0
220
0
230
1
0
LINE
5
F7
100
AcDbEntity
8
1
62
256
6
ByLayer
370
18
48
1
60
0
100
AcDbLine
10
56.699104
20
40.354245
30
0
11
56.600615
21
40.368614
31
0
39
0
210
0
220
0
230
1
0
LINE
5
F8
100
AcDbEntity
8
1
62
256
6
ByLayer
370
18
48
1
60
0
100
AcDbLine
10
41.237224
20
14.955579
30
0
11
41.237053
21
14.95546
31
0
39
0
210
0
220
0
230
1
0
LINE
5
F9
100
AcDbEntity
8
1
62
256
6
ByLayer
370
18
48
1
60
0
100
AcDbLine
10
46.923566
20
23.849366
30
0
11
45.142658
21
22.607339
31
0
39
0
210
0
220
0
230
1
0
LINE
5
FA
100
AcDbEntity
8
1
62
256
6
ByLayer
370
18
48
1
60
0
100
AcDbLine
10
52.545019
20
22.95502
30
0
11
43.978228
21
16.980436
31
0
39
0
210
0
220
0
230
1
0
LINE
5
FB
100
AcDbEntity
8
1
62
256
6
ByLayer
370
18
48
1
60
0
100
AcDbLine
10
60.113655
20
35.497004
30
0
11
60.10277
21
35.444504
31
0
39
0
210
0
220
0
230
1
0
LINE
5
FC
100
AcDbEntity
8
1
62
256
6
ByLayer
370
18
48
1
60
0
100
AcDbLine
10
43.978228
20
16.980436
30
0
11
41.904606
21
15.445883
31
0
39
0
210
0
220
0
230
1
0
LINE
5
FD
100
AcDbEntity
8
1
62
256
6
ByLayer
370
18
48
1
60
0
100
AcDbLine
10
33.816479
20
14.289701
30
0
11
27.871901
21
22.745936
31
0
39
0
210
0
220
0
230
1
0
LINE
5
FE
100
AcDbEntity
8
1
62
256
6
ByLayer
370
18
48
1
60
0
100
AcDbLine
10
40.084459
20
14.323953
30
0
11
38.62579
21
13.081298
31
0
39
0
210
0
220
0
230
1
0
LINE
5
FF
100
AcDbEntity
8
1
62
256
6
ByLayer
370
18
48
1
60
0
100
AcDbLine
10
50.439609
20
39.831274
30
0
11
45.342294
21
38.75012
31
0
39
0
210
0
220
0
230
1
0
LINE
5
100
100
AcDbEntity
8
1
62
256
6
ByLayer
370
18
48
1
60
0
100
AcDbLine
10
57.740506
20
31.546561
30
0
11
57.317484
21
30.872864
31
0
39
0
210
0
220
0
230
1
0
LINE
5
101
100
AcDbEntity
8
1
62
256
6
ByLayer
370
18
48
1
60
0
100
AcDbLine
10
56.315279
20
40.383419
30
0
11
56.600615
21
40.368614
31
0
39
0
210
0
220
0
230
1
0
LINE
5
102
100
AcDbEntity
8
1
62
256
6
ByLayer
370
18
48
1
60
0
100
AcDbLine
10
35.679494
20
25.895407
30
0
11
32.319072
21
23.554087
31
0
39
0
210
0
220
0
230
1
0
LINE
5
103
100
AcDbEntity
8
1
62
256
6
ByLayer
370
18
48
1
60
0
100
AcDbLine
10
29.179186
20
27.712952
30
0
11
38.794687
21
34.41892
31
0
39
0
210
0
220
0
230
1
0
LINE
5
104
100
AcDbEntity
8
1
62
256
6
ByLayer
370
18
48
1
60
0
100
AcDbLine
10
60.009877
20
35.266693
30
0
11
60.064209
21
35.353222
31
0
39
0
210
0
220
0
230
1
0
LINE
5
105
100
AcDbEntity
8
1
62
256
6
ByLayer
370
18
48
1
60
0
100
AcDbLine
10
54.784027
20
25.319083
30
0
11
57.547526
21
29.720174
31
0
39
0
210
0
220
0
230
1
0
LINE
5
106
100
AcDbEntity
8
1
62
256
6
ByLayer
370
18
48
1
60
0
100
AcDbLine
10
29.835065
20
24.418374
30
0
11
27.871901
21
22.745936
31
0
39
0
210
0
220
0
230
1
0
LINE
5
107
100
AcDbEntity
8
1
62
256
6
ByLayer
370
18
48
1
60
0
100
AcDbLine
10
56.600615
20
40.368614
30
0
11
56.446325
21
40.335889
31
0
39
0
210
0
220
0
230
1
0
LINE
5
108
100
AcDbEntity
8
1
62
256
6
ByLayer
370
18
48
1
60
0
100
AcDbLine
10
41.001985
20
32.272888
30
0
11
40.682297
21
32.000543
31
0
39
0
210
0
220
0
230
1
0
LINE
5
109
100
AcDbEntity
8
1
62
256
6
ByLayer
370
18
48
1
60
0
100
AcDbLine
10
49.019707
20
42.765144
30
0
11
49.066495
21
42.811932
31
0
39
0
210
0
220
0
230
1
0
LINE
5
10A
100
AcDbEntity
8
1
62
256
6
ByLayer
370
18
48
1
60
0
100
AcDbLine
10
62.774077
20
29.02864
30
0
11
62.811932
21
29.066495
31
0
39
0
210
0
220
0
230
1
0
MTEXT
5
211
100
AcDbEntity
8
SK6
62
256
6
ByLayer
370
18
48
1
60
0
100
AcDbMText
10
-8.125
20
-42.45
30
0
210
0
220
0
230
1
1
\W0.7292;C6-CCLNR-45065-16-4
40
3.5
41
0
44
1.084337
50
0
71
7
72
5
7
iso_b_vert
0
DIMENSION
5
230
100
AcDbEntity
8
2
62
256
6
ByLayer
370
13
48
1
60
0
100
AcDbDimension
2
DimnDraft3D2
10
62.715345
20
44.914221
30
0
11
52.571687
21
56.551878
31
0
70
34
71
5
72
1
41
1
210
0
220
0
230
1
3
Standard
100
AcDb2LineAngularDimension
13
65
23
45
33
0
14
65
24
42.61875
34
0
15
63.711994
25
44.996011
35
0
16
55.881237
26
53.502799
36
0
40
0
0
DIMENSION
5
246
100
AcDbEntity
8
SK2
62
256
6
ByLayer
370
13
48
1
60
0
100
AcDbDimension
2
DimnDraft3D3
10
-45.75
20
31.5
30
0
11
-45.75
21
-2.688158
31
0
70
32
71
5
72
1
41
1
210
0
220
0
230
1
3
Standard
100
AcDbAlignedDimension
13
-2
23
-31.5
33
0
14
-2
24
31.5
34
0
50
90
100
AcDbRotatedDimension
1001
ACAD
1000
DSTYLE
1002
{
1070
    74
1070
     0
1070
   279
1070
     0
1070
   172
1070
     1
1070
   173
1070
     1
1070
   340
1005
212
1070
    77
1070
     1
1070
    73
1070
     0
1070
   171
1070
     3
1070
   274
1070
     4
1070
   177
1070
     2
1070
   176
1070
     2
1070
   178
1070
     7
1070
    78
1070
     8
1070
    41
1041
3.175
1070
   147
1041
2.25
1070
    42
1041
2.0
1070
    44
1041
2.0
1070
   140
1041
4.5
1070
   343
1005
231
1070
   344
1005
231
1002
}
0
DIMENSION
5
254
100
AcDbEntity
8
2
62
256
6
ByLayer
370
13
48
1
60
0
100
AcDbDimension
2
DimnDraft3D4
10
87.25
20
45
30
0
11
87.25
21
16.981579
31
0
70
32
71
5
72
1
41
1
210
0
220
0
230
1
3
Standard
100
AcDbAlignedDimension
13
67
23
0
33
0
14
67
24
45
34
0
50
90
100
AcDbRotatedDimension
1001
ACAD
1000
DSTYLE
1002
{
1070
    74
1070
     0
1070
   279
1070
     0
1070
   172
1070
     1
1070
   173
1070
     1
1070
   340
1005
212
1070
    77
1070
     1
1070
    73
1070
     0
1070
   171
1070
     3
1070
   274
1070
     4
1070
   177
1070
     2
1070
   176
1070
     2
1070
   178
1070
     7
1070
    78
1070
     8
1070
    41
1041
3.175
1070
   147
1041
2.25
1070
    42
1041
2.0
1070
    44
1041
2.0
1070
   140
1041
4.5
1070
   343
1005
231
1070
   344
1005
231
1002
}
0
ENDSEC
0
SECTION
2
OBJECTS
0
DICTIONARY
5
2bf
330
0
100
AcDbDictionary
280
0
281
1
3
ACAD_GROUP
350
2c0
3
ACAD_MLINESTYLE
350
2c1
0
DICTIONARY
5
2c0
330
0
100
AcDbDictionary
280
0
281
1
0
DICTIONARY
5
2c1
330
0
100
AcDbDictionary
280
0
281
1
3
Standard
350
18
0
MLINESTYLE
5
18
330
2c1
100
AcDbMlineStyle
2
Standard
70
0
3

62
256
51
90
52
90
71
2
49
-0.5
62
256
6
ByLayer
49
0.5
62
256
6
ByLayer
0
RASTERVARIABLES
5
2ad
330

100
AcDbRasterVariables
90
0
70
1
71
1
72
1
0
ENDSEC
0
EOF
