0
SECTION
2
HEADER
9
$ACADVER
1
AC1015
9
$DWGCODEPAGE
3
ANSI_1252
9
$HANDSEED
5
2ac
9
$ANGBASE
50
0
9
$ANGDIR
70
0
9
$ATTMODE
70
1
9
$AUNITS
70
0
9
$AUPREC
70
0
9
$CECOLOR
62
256
9
$CELTSCALE
40
1
9
$CELTYPE
6
ByLayer
9
$CELWEIGHT
370
18
9
$CLAYER
8
0
9
$CMLJUST
70
0
9
$CMLSCALE
40
1
9
$CMLSTYLE
2
Standard
9
$DIMSTYLE
2
Standard
9
$TEXTSIZE
40
0.2
9
$TEXTSTYLE
7
Standard
9
$LUNITS
70
2
9
$LUPREC
70
4
9
$EXTNAMES
290
1
9
$INSUNITS
70
4
9
$LTSCALE
40
1
9
$LWDISPLAY
290
1
9
$PDMODE
70
0
9
$PDSIZE
40
0
9
$PLINEGEN
70
0
0
ENDSEC
0
SECTION
2
CLASSES
0
CLASS
1
RASTERVARIABLES
2
AcDbRasterVariables
3
ISM
90
0
280
0
281
0
0
ENDSEC
0
SECTION
2
TABLES
0
TABLE
2
VPORT
5
2a2
100
AcDbSymbolTable
0
VPORT
5
1
100
AcDbSymbolTableRecord
100
AcDbViewportTableRecord
2
*Active
70
0
10
0
20
0
11
1
21
1
12
-1
22
1
13
0
23
0
14
0.5
24
0.5
15
10
25
10
16
0
26
0
36
1
17
0
27
0
37
0
0
ENDTAB
0
TABLE
2
LTYPE
5
2a3
100
AcDbSymbolTable
0
LTYPE
5
14
100
AcDbSymbolTableRecord
100
AcDbLinetypeTableRecord
70
0
2
ByBlock
3

72
65
73
0
40
0
0
LTYPE
5
15
100
AcDbSymbolTableRecord
100
AcDbLinetypeTableRecord
70
0
2
ByLayer
3

72
65
73
0
40
0
0
LTYPE
5
16
100
AcDbSymbolTableRecord
100
AcDbLinetypeTableRecord
70
0
2
CONTINUOUS
3
Solid line
72
65
73
0
40
0
0
LTYPE
5
6A
100
AcDbSymbolTableRecord
100
AcDbLinetypeTableRecord
70
0
2
CENTER
3
____ _ ____ _ ____ _ ____
72
65
73
4
40
47.5
49
22
74
0
49
-8.5
74
0
49
8.5
74
0
49
-8.5
74
0
0
LTYPE
5
6B
100
AcDbSymbolTableRecord
100
AcDbLinetypeTableRecord
70
0
2
DASHED
3
__ __ __ __ __ __ __ __ __
72
65
73
2
40
25.72
49
12.86
74
0
49
-12.86
74
0
0
ENDTAB
0
TABLE
2
LAYER
5
2a4
100
AcDbSymbolTable
0
LAYER
5
10
100
AcDbSymbolTableRecord
100
AcDbLayerTableRecord
2
0
70
0
62
7
6
CONTINUOUS
290
1
370
-3
390
0
0
LAYER
5
6D
100
AcDbSymbolTableRecord
100
AcDbLayerTableRecord
2
2
70
0
62
7
6
CONTINUOUS
290
1
370
-3
390
0
0
LAYER
5
6F
100
AcDbSymbolTableRecord
100
AcDbLayerTableRecord
2
80
70
0
62
-6
6
CONTINUOUS
290
1
370
-3
390
0
0
LAYER
5
71
100
AcDbSymbolTableRecord
100
AcDbLayerTableRecord
2
81
70
0
62
-3
6
CONTINUOUS
290
1
370
-3
390
0
0
LAYER
5
73
100
AcDbSymbolTableRecord
100
AcDbLayerTableRecord
2
1
70
0
62
4
6
CONTINUOUS
290
1
370
-3
390
0
0
LAYER
5
8C
100
AcDbSymbolTableRecord
100
AcDbLayerTableRecord
2
4
70
0
62
-2
6
CENTER
290
1
370
-3
390
0
0
LAYER
5
28e
100
AcDbSymbolTableRecord
100
AcDbLayerTableRecord
2
SK4
70
0
62
2
6
CENTER
290
1
370
-3
390
0
0
LAYER
5
28f
100
AcDbSymbolTableRecord
100
AcDbLayerTableRecord
2
SK1
70
0
62
4
6
CONTINUOUS
290
1
370
-3
390
0
0
LAYER
5
290
100
AcDbSymbolTableRecord
100
AcDbLayerTableRecord
2
SK6
70
0
62
5
6
CONTINUOUS
290
1
370
-3
390
0
0
LAYER
5
291
100
AcDbSymbolTableRecord
100
AcDbLayerTableRecord
2
SK2
70
0
62
7
6
CONTINUOUS
290
1
370
-3
390
0
0
ENDTAB
0
TABLE
2
STYLE
5
2a5
100
AcDbSymbolTable
0
STYLE
5
11
100
AcDbSymbolTableRecord
100
AcDbTextStyleTableRecord
2
Standard
3
txt
70
0
71
0
40
0
41
1
42
0
50
0
0
STYLE
5
1F2
100
AcDbSymbolTableRecord
100
AcDbTextStyleTableRecord
2
iso_b_vert
3
simplex.shx
70
0
71
0
40
0
41
1
42
0
50
0
0
STYLE
5
1F3
100
AcDbSymbolTableRecord
100
AcDbTextStyleTableRecord
2
DWGDirectTextStyle
3
simplex
70
0
71
0
40
0
41
1
42
0
50
0
0
ENDTAB
0
TABLE
2
DIMSTYLE
5
2a6
100
AcDbSymbolTable
100
AcDbDimStyleTable
0
DIMSTYLE
105
27
100
AcDbSymbolTableRecord
100
AcDbDimStyleTableRecord
2
Standard
70
0
3
<>
41
0.18
42
0.0625
44
0.18
140
0.18
147
0.09
73
0
74
0
77
1
271
2
275
0
278
52
280
0
340
11
0
ENDTAB
0
TABLE
2
VIEW
5
2a7
100
AcDbSymbolTable
0
ENDTAB
0
TABLE
2
UCS
5
2a8
100
AcDbSymbolTable
0
ENDTAB
0
TABLE
2
APPID
5
2a9
100
AcDbSymbolTable
0
APPID
5
12
100
AcDbSymbolTableRecord
100
AcDbRegAppTableRecord
2
ACAD
70
0
0
ENDTAB
0
TABLE
2
BLOCK_RECORD
5
2aa
100
AcDbSymbolTable
0
BLOCK_RECORD
5
1F
100
AcDbSymbolTableRecord
100
AcDbBlockTableRecord
2
*Model_Space
340
0
70
0
0
BLOCK_RECORD
5
1B
100
AcDbSymbolTableRecord
100
AcDbBlockTableRecord
2
*Paper_Space
340
0
70
0
0
BLOCK_RECORD
5
23
100
AcDbSymbolTableRecord
100
AcDbBlockTableRecord
2
*Paper_Space0
340
0
70
0
0
BLOCK_RECORD
5
1F5
100
AcDbSymbolTableRecord
100
AcDbBlockTableRecord
2
DimnDraft3D1
340
0
70
0
0
BLOCK_RECORD
5
203
100
AcDbSymbolTableRecord
100
AcDbBlockTableRecord
2
_CLOSED
340
0
70
0
0
BLOCK_RECORD
5
20A
100
AcDbSymbolTableRecord
100
AcDbBlockTableRecord
2
DimnDraft3D2
340
0
70
0
0
BLOCK_RECORD
5
218
100
AcDbSymbolTableRecord
100
AcDbBlockTableRecord
2
DimnDraft3D3
340
0
70
0
0
BLOCK_RECORD
5
227
100
AcDbSymbolTableRecord
100
AcDbBlockTableRecord
2
DimnDraft3D4
340
0
70
0
0
ENDTAB
0
ENDSEC
0
SECTION
2
BLOCKS
0
BLOCK
5
20
100
AcDbEntity
8
0
100
AcDbBlockBegin
2
*Model_Space
70
0
10
0
20
0
30
0
3
*Model_Space
0
ENDBLK
5
21
100
AcDbEntity
8
0
100
AcDbBlockEnd
0
BLOCK
5
1C
100
AcDbEntity
8
0
100
AcDbBlockBegin
2
*Paper_Space
70
0
10
0
20
0
30
0
3
*Paper_Space
0
ENDBLK
5
1D
100
AcDbEntity
8
0
100
AcDbBlockEnd
0
BLOCK
5
24
100
AcDbEntity
8
0
100
AcDbBlockBegin
2
*Paper_Space0
70
0
10
0
20
0
30
0
3
*Paper_Space0
0
ENDBLK
5
25
100
AcDbEntity
8
0
100
AcDbBlockEnd
0
BLOCK
5
200
100
AcDbEntity
8
0
100
AcDbBlockBegin
2
DimnDraft3D1
70
0
10
0
20
0
30
0
3
DimnDraft3D1
0
MTEXT
5
1F6
100
AcDbEntity
8
2
62
256
6
ByLayer
370
18
48
1
60
0
100
AcDbMText
10
48.094067
20
-56.674116
30
0
210
0
220
0
230
1
1
\W0.7399;95%%d
40
4.5
41
0
44
1.084337
50
312.65427684
71
7
72
5
7
iso_b_vert
0
LINE
5
1F7
100
AcDbEntity
8
2
62
256
6
ByLayer
370
13
48
1
60
0
100
AcDbLine
10
50.188235
20
-43.852285
30
0
11
41.655791
21
-43.152072
31
0
39
0
210
0
220
0
230
1
0
LINE
5
1F8
100
AcDbEntity
8
2
62
256
6
ByLayer
370
13
48
1
60
0
100
AcDbLine
10
65
20
-47
30
0
11
65
21
-68.490491
31
0
39
0
210
0
220
0
230
1
0
ARC
5
1F9
100
AcDbEntity
8
2
62
256
6
ByLayer
370
13
48
1
60
0
100
AcDbCircle
39
0
10
65
20
-45.067807
30
0
40
21.4226837810116
210
0
220
0
230
1
100
AcDbArc
50
175.308554
51
270
0
LINE
5
1FA
100
AcDbEntity
8
2
62
256
6
ByLayer
370
13
48
1
60
0
100
AcDbLine
10
43.649091
20
-43.315652
30
0
11
43.924166
21
-46.506211
31
0
39
0
210
0
220
0
230
1
0
LINE
5
1FB
100
AcDbEntity
8
2
62
256
6
ByLayer
370
13
48
1
60
0
100
AcDbLine
10
43.649091
20
-43.315652
30
0
11
43.089015
21
-46.468693
31
0
39
0
210
0
220
0
230
1
0
LINE
5
1FC
100
AcDbEntity
8
2
62
256
6
ByLayer
370
13
48
1
60
0
100
AcDbLine
10
43.924166
20
-46.506211
30
0
11
43.089015
21
-46.468693
31
0
39
0
210
0
220
0
230
1
0
LINE
5
1FD
100
AcDbEntity
8
2
62
256
6
ByLayer
370
13
48
1
60
0
100
AcDbLine
10
65
20
-66.490491
30
0
11
61.811717
21
-66.790804
31
0
39
0
210
0
220
0
230
1
0
LINE
5
1FE
100
AcDbEntity
8
2
62
256
6
ByLayer
370
13
48
1
60
0
100
AcDbLine
10
65
20
-66.490491
30
0
11
61.842625
21
-65.955382
31
0
39
0
210
0
220
0
230
1
0
LINE
5
1FF
100
AcDbEntity
8
2
62
256
6
ByLayer
370
13
48
1
60
0
100
AcDbLine
10
61.811717
20
-66.790804
30
0
11
61.842625
21
-65.955382
31
0
39
0
210
0
220
0
230
1
0
ENDBLK
5
201
100
AcDbEntity
8
0
100
AcDbBlockEnd
0
BLOCK
5
204
100
AcDbEntity
8
0
100
AcDbBlockBegin
2
_CLOSED
70
0
10
0
20
0
30
0
3
_CLOSED
0
LINE
5
206
100
AcDbEntity
8
0
62
256
6
ByLayer
370
-2
48
1
60
0
100
AcDbLine
10
-1
20
0.166667
30
0
11
0
21
0
31
0
39
0
210
0
220
0
230
1
0
LINE
5
207
100
AcDbEntity
8
0
62
256
6
ByLayer
370
-2
48
1
60
0
100
AcDbLine
10
0
20
0
30
0
11
-1
21
-0.166667
31
0
39
0
210
0
220
0
230
1
0
LINE
5
208
100
AcDbEntity
8
0
62
256
6
ByLayer
370
-2
48
1
60
0
100
AcDbLine
10
-1
20
0.166667
30
0
11
-1
21
-0.166667
31
0
39
0
210
0
220
0
230
1
0
LINE
5
209
100
AcDbEntity
8
0
62
256
6
ByLayer
370
-2
48
1
60
0
100
AcDbLine
10
0
20
0
30
0
11
-1
21
0
31
0
39
0
210
0
220
0
230
1
0
ENDBLK
5
205
100
AcDbEntity
8
0
100
AcDbBlockEnd
0
BLOCK
5
215
100
AcDbEntity
8
0
100
AcDbBlockBegin
2
DimnDraft3D2
70
0
10
0
20
0
30
0
3
DimnDraft3D2
0
MTEXT
5
20B
100
AcDbEntity
8
2
62
256
6
ByLayer
370
18
48
1
60
0
100
AcDbMText
10
28.343421
20
-71.125
30
0
210
0
220
0
230
1
1
\W0.7346;65.0
40
4.5
41
0
44
1.084337
50
0
71
7
72
5
7
iso_b_vert
0
LINE
5
20C
100
AcDbEntity
8
2
62
256
6
ByLayer
370
13
48
1
60
0
100
AcDbLine
10
0
20
-33.5
30
0
11
0
21
-74.25
31
0
39
0
210
0
220
0
230
1
0
LINE
5
20D
100
AcDbEntity
8
2
62
256
6
ByLayer
370
13
48
1
60
0
100
AcDbLine
10
65
20
-47
30
0
11
65
21
-74.25
31
0
39
0
210
0
220
0
230
1
0
LINE
5
20E
100
AcDbEntity
8
2
62
256
6
ByLayer
370
13
48
1
60
0
100
AcDbLine
10
0
20
-72.25
30
0
11
65
21
-72.25
31
0
39
0
210
0
220
0
230
1
0
LINE
5
20F
100
AcDbEntity
8
2
62
256
6
ByLayer
370
13
48
1
60
0
100
AcDbLine
10
0
20
-72.25
30
0
11
3.174998
21
-71.832003
31
0
39
0
210
0
220
0
230
1
0
LINE
5
210
100
AcDbEntity
8
2
62
256
6
ByLayer
370
13
48
1
60
0
100
AcDbLine
10
0
20
-72.25
30
0
11
3.175002
21
-72.667997
31
0
39
0
210
0
220
0
230
1
0
LINE
5
211
100
AcDbEntity
8
2
62
256
6
ByLayer
370
13
48
1
60
0
100
AcDbLine
10
3.174998
20
-71.832003
30
0
11
3.175002
21
-72.667997
31
0
39
0
210
0
220
0
230
1
0
LINE
5
212
100
AcDbEntity
8
2
62
256
6
ByLayer
370
13
48
1
60
0
100
AcDbLine
10
65
20
-72.25
30
0
11
61.825002
21
-72.667997
31
0
39
0
210
0
220
0
230
1
0
LINE
5
213
100
AcDbEntity
8
2
62
256
6
ByLayer
370
13
48
1
60
0
100
AcDbLine
10
65
20
-72.25
30
0
11
61.824998
21
-71.832003
31
0
39
0
210
0
220
0
230
1
0
LINE
5
214
100
AcDbEntity
8
2
62
256
6
ByLayer
370
13
48
1
60
0
100
AcDbLine
10
61.825002
20
-72.667997
30
0
11
61.824998
21
-71.832003
31
0
39
0
210
0
220
0
230
1
0
ENDBLK
5
216
100
AcDbEntity
8
0
100
AcDbBlockEnd
0
BLOCK
5
224
100
AcDbEntity
8
0
100
AcDbBlockBegin
2
DimnDraft3D3
70
0
10
0
20
0
30
0
3
DimnDraft3D3
0
MTEXT
5
219
100
AcDbEntity
8
SK2
62
256
6
ByLayer
370
18
48
1
60
0
100
AcDbMText
10
-46.875
20
-1.563158
30
0
210
0
220
0
230
1
1
\W0.6740;63
40
4.5
41
0
44
1.084337
50
90
71
7
72
5
7
iso_b_vert
0
LINE
5
21B
100
AcDbEntity
8
SK2
62
256
6
ByLayer
370
13
48
1
60
0
100
AcDbLine
10
-2
20
-31.5
30
0
11
-47.75
21
-31.5
31
0
39
0
210
0
220
0
230
1
0
LINE
5
21C
100
AcDbEntity
8
SK2
62
256
6
ByLayer
370
13
48
1
60
0
100
AcDbLine
10
-2
20
31.5
30
0
11
-47.75
21
31.5
31
0
39
0
210
0
220
0
230
1
0
LINE
5
21D
100
AcDbEntity
8
SK2
62
256
6
ByLayer
370
13
48
1
60
0
100
AcDbLine
10
-45.75
20
-31.5
30
0
11
-45.75
21
31.5
31
0
39
0
210
0
220
0
230
1
0
LINE
5
21E
100
AcDbEntity
8
SK2
62
256
6
ByLayer
370
13
48
1
60
0
100
AcDbLine
10
-45.75
20
-31.5
30
0
11
-46.167997
21
-28.325002
31
0
39
0
210
0
220
0
230
1
0
LINE
5
21F
100
AcDbEntity
8
SK2
62
256
6
ByLayer
370
13
48
1
60
0
100
AcDbLine
10
-45.75
20
-31.5
30
0
11
-45.332003
21
-28.324998
31
0
39
0
210
0
220
0
230
1
0
LINE
5
220
100
AcDbEntity
8
SK2
62
256
6
ByLayer
370
13
48
1
60
0
100
AcDbLine
10
-46.167997
20
-28.325002
30
0
11
-45.332003
21
-28.324998
31
0
39
0
210
0
220
0
230
1
0
LINE
5
221
100
AcDbEntity
8
SK2
62
256
6
ByLayer
370
13
48
1
60
0
100
AcDbLine
10
-45.75
20
31.5
30
0
11
-45.332003
21
28.325002
31
0
39
0
210
0
220
0
230
1
0
LINE
5
222
100
AcDbEntity
8
SK2
62
256
6
ByLayer
370
13
48
1
60
0
100
AcDbLine
10
-45.75
20
31.5
30
0
11
-46.167997
21
28.324998
31
0
39
0
210
0
220
0
230
1
0
LINE
5
223
100
AcDbEntity
8
SK2
62
256
6
ByLayer
370
13
48
1
60
0
100
AcDbLine
10
-45.332003
20
28.325002
30
0
11
-46.167997
21
28.324998
31
0
39
0
210
0
220
0
230
1
0
ENDBLK
5
225
100
AcDbEntity
8
0
100
AcDbBlockEnd
0
BLOCK
5
232
100
AcDbEntity
8
0
100
AcDbBlockBegin
2
DimnDraft3D4
70
0
10
0
20
0
30
0
3
DimnDraft3D4
0
MTEXT
5
228
100
AcDbEntity
8
2
62
256
6
ByLayer
370
18
48
1
60
0
100
AcDbMText
10
86.125
20
-26.893421
30
0
210
0
220
0
230
1
1
\W0.7640;45.0
40
4.5
41
0
44
1.084337
50
90
71
7
72
5
7
iso_b_vert
0
LINE
5
229
100
AcDbEntity
8
2
62
256
6
ByLayer
370
13
48
1
60
0
100
AcDbLine
10
67
20
0
30
0
11
89.25
21
0
31
0
39
0
210
0
220
0
230
1
0
LINE
5
22A
100
AcDbEntity
8
2
62
256
6
ByLayer
370
13
48
1
60
0
100
AcDbLine
10
67
20
-45
30
0
11
89.25
21
-45
31
0
39
0
210
0
220
0
230
1
0
LINE
5
22B
100
AcDbEntity
8
2
62
256
6
ByLayer
370
13
48
1
60
0
100
AcDbLine
10
87.25
20
0
30
0
11
87.25
21
-45
31
0
39
0
210
0
220
0
230
1
0
LINE
5
22C
100
AcDbEntity
8
2
62
256
6
ByLayer
370
13
48
1
60
0
100
AcDbLine
10
87.25
20
0
30
0
11
87.667997
21
-3.174998
31
0
39
0
210
0
220
0
230
1
0
LINE
5
22D
100
AcDbEntity
8
2
62
256
6
ByLayer
370
13
48
1
60
0
100
AcDbLine
10
87.25
20
0
30
0
11
86.832003
21
-3.175002
31
0
39
0
210
0
220
0
230
1
0
LINE
5
22E
100
AcDbEntity
8
2
62
256
6
ByLayer
370
13
48
1
60
0
100
AcDbLine
10
87.667997
20
-3.174998
30
0
11
86.832003
21
-3.175002
31
0
39
0
210
0
220
0
230
1
0
LINE
5
22F
100
AcDbEntity
8
2
62
256
6
ByLayer
370
13
48
1
60
0
100
AcDbLine
10
87.25
20
-45
30
0
11
86.832003
21
-41.825002
31
0
39
0
210
0
220
0
230
1
0
LINE
5
230
100
AcDbEntity
8
2
62
256
6
ByLayer
370
13
48
1
60
0
100
AcDbLine
10
87.25
20
-45
30
0
11
87.667997
21
-41.824998
31
0
39
0
210
0
220
0
230
1
0
LINE
5
231
100
AcDbEntity
8
2
62
256
6
ByLayer
370
13
48
1
60
0
100
AcDbLine
10
86.832003
20
-41.825002
30
0
11
87.667997
21
-41.824998
31
0
39
0
210
0
220
0
230
1
0
ENDBLK
5
233
100
AcDbEntity
8
0
100
AcDbBlockEnd
0
ENDSEC
0
SECTION
2
ENTITIES
0
ARC
5
115
100
AcDbEntity
8
SK1
62
256
6
ByLayer
370
18
48
1
60
0
100
AcDbCircle
39
0
10
0.6
20
-23.45
30
0
40
0.999999999999999
210
0
220
0
230
-1
100
AcDbArc
50
113.578178
51
126.869898
0
ARC
5
116
100
AcDbEntity
8
SK1
62
256
6
ByLayer
370
18
48
1
60
0
100
AcDbCircle
39
0
10
0.6
20
23.45
30
0
40
0.999999999999999
210
0
220
0
230
-1
100
AcDbArc
50
233.130102
51
246.421822
0
ELLIPSE
5
117
100
AcDbEntity
8
1
62
256
6
ByLayer
370
18
48
1
60
0
100
AcDbEllipse
10
39.223965
20
-31.981292
30
0
11
2.0817652655485
21
2.16015123988016
31
0
210
0
220
0
230
1
40
0.986455
41
0.0604884076533339
42
0.156280282981021
0
ELLIPSE
5
118
100
AcDbEntity
8
1
62
256
6
ByLayer
370
18
48
1
60
0
100
AcDbEllipse
10
38.419128
20
-29.583461
30
0
11
-1.86177536637338
21
-2.35297642300868
31
0
210
0
220
0
230
1
40
0.877989
41
-1.50628975689396
42
0.0317898717378037
0
ELLIPSE
5
119
100
AcDbEntity
8
1
62
256
6
ByLayer
370
18
48
1
60
0
100
AcDbEllipse
10
47.702528
20
-31.065681
30
0
11
2.87977528400875
21
2.98820921516756
31
0
210
0
220
0
230
1
40
0.986455
41
-2.98531237060877
42
-0.0138074336181784
0
ELLIPSE
5
11A
100
AcDbEntity
8
1
62
256
6
ByLayer
370
18
48
1
60
0
100
AcDbEllipse
10
19.807168
20
-25.478434
30
0
11
-0.0284771279158398
21
2.88431306858131
31
0
210
0
220
0
230
1
40
0.077437
41
-0.549437019819681
42
-2.78657914346139
0
ELLIPSE
5
11B
100
AcDbEntity
8
1
62
256
6
ByLayer
370
18
48
1
60
0
100
AcDbEllipse
10
12
20
-24.018926
30
0
11
1.99999999999999
21
0
31
0
210
0
220
0
230
1
40
0.5
41
-2.67889477961568
42
-0.446694843671294
0
ELLIPSE
5
11C
100
AcDbEntity
8
1
62
256
6
ByLayer
370
18
48
1
60
0
100
AcDbEllipse
10
12
20
-24.018926
30
0
11
1.64999999999998
21
0
31
0
210
0
220
0
230
1
40
0.5
41
-2.97390961237247
42
-0.160809303990439
0
ELLIPSE
5
11D
100
AcDbEntity
8
1
62
256
6
ByLayer
370
18
48
1
60
0
100
AcDbEllipse
10
47.055395
20
-30.548645
30
0
11
0.813172798366394
21
0.813172798362665
31
0
210
0
220
0
230
1
40
0.989133
41
-3.08671874739813
42
-0.118404155601883
0
ELLIPSE
5
11E
100
AcDbEntity
8
1
62
256
6
ByLayer
370
18
48
1
60
0
100
AcDbEllipse
10
45.149267
20
0
30
0
11
-21.680049705701
21
31.6462175344701
31
0
210
0
220
0
230
1
40
0.022569
41
-0.206188083061296
42
-0.0154463141839477
0
ELLIPSE
5
11F
100
AcDbEntity
8
1
62
256
6
ByLayer
370
18
48
1
60
0
100
AcDbEllipse
10
24.494172
20
-68.337981
30
0
11
-2.34311535993462E-15
21
38.2672415935296
31
0
210
0
220
0
230
-1
40
0.104528
41
-0.150033790339317
42
-0.125133828642989
0
ELLIPSE
5
120
100
AcDbEntity
8
1
62
256
6
ByLayer
370
18
48
1
60
0
100
AcDbEllipse
10
58.518218
20
-38.518218
30
0
11
2.37173880783046
21
2.37173880781958
31
0
210
0
220
0
230
1
40
0.989133
41
-2.59181393921158
42
-1.70086719047659
0
ELLIPSE
5
121
100
AcDbEntity
8
1
62
256
6
ByLayer
370
18
48
1
60
0
100
AcDbEllipse
10
58.518218
20
-38.518218
30
0
11
2.37173880783046
21
2.37173880781958
31
0
210
0
220
0
230
1
40
0.989133
41
-1.68166364135479
42
-1.54290498204423
0
ELLIPSE
5
122
100
AcDbEntity
8
1
62
256
6
ByLayer
370
18
48
1
60
0
100
AcDbEllipse
10
58.518218
20
-38.518218
30
0
11
2.37173880783046
21
2.37173880781958
31
0
210
0
220
0
230
1
40
0.989133
41
-1.23157622516253
42
-0.200712863979348
0
ELLIPSE
5
123
100
AcDbEntity
8
1
62
256
6
ByLayer
370
18
48
1
60
0
100
AcDbEllipse
10
58.164749
20
-38.164749
30
0
11
-3.88908729653492
21
-3.8890872965171
31
0
210
0
220
0
230
1
40
0.989133
41
-2.53072741539178
42
-2.33726583878244
0
ELLIPSE
5
124
100
AcDbEntity
8
1
62
256
6
ByLayer
370
18
48
1
60
0
100
AcDbEllipse
10
58.445445
20
-38.445445
30
0
11
3.37752183088369
21
3.3775218308682
31
0
210
0
220
0
230
1
40
0.989133
41
0.704393121263897
42
0.721861308332415
0
ELLIPSE
5
125
100
AcDbEntity
8
1
62
256
6
ByLayer
370
18
48
1
60
0
100
AcDbEllipse
10
58.445445
20
-38.445445
30
0
11
3.37752183088369
21
3.3775218308682
31
0
210
0
220
0
230
1
40
0.989133
41
2.77078139220238
42
2.78626538272476
0
ELLIPSE
5
126
100
AcDbEntity
8
1
62
256
6
ByLayer
370
18
48
1
60
0
100
AcDbEllipse
10
58.164749
20
-38.164749
30
0
11
-3.88908729653492
21
-3.8890872965171
31
0
210
0
220
0
230
1
40
0.989133
41
-0.766101400253943
42
-0.261799387799151
0
ELLIPSE
5
127
100
AcDbEntity
8
1
62
256
6
ByLayer
370
18
48
1
60
0
100
AcDbEllipse
10
47.143762
20
-30.637013
30
0
11
0.813172798366394
21
0.813172798362665
31
0
210
0
220
0
230
1
40
0.989133
41
1.50864578969161
42
2.10741347849626
0
ELLIPSE
5
128
100
AcDbEntity
8
1
62
256
6
ByLayer
370
18
48
1
60
0
100
AcDbEllipse
10
47.143762
20
-30.637013
30
0
11
0.813172798366394
21
0.813172798362665
31
0
210
0
220
0
230
1
40
0.989133
41
2.72944968966501
42
-0.0517435354044247
0
ELLIPSE
5
129
100
AcDbEntity
8
1
62
256
6
ByLayer
370
18
48
1
60
0
100
AcDbEllipse
10
47.143762
20
-30.637013
30
0
11
0.813172798366394
21
0.813172798362665
31
0
210
0
220
0
230
1
40
0.989133
41
0.118491029831416
42
0.790860751325611
0
ELLIPSE
5
12A
100
AcDbEntity
8
1
62
256
6
ByLayer
370
18
48
1
60
0
100
AcDbEllipse
10
25.903414
20
-28.921143
30
0
11
1.08181243135435
21
1.91564137128201
31
0
210
0
220
0
230
1
40
0.145707
41
-3.14154536805357
42
-0.103478557493298
0
ELLIPSE
5
12B
100
AcDbEntity
8
1
62
256
6
ByLayer
370
18
48
1
60
0
100
AcDbEllipse
10
26.118778
20
-29.042764
30
0
11
-0.958879200518625
21
-1.69795485181814
31
0
210
0
220
0
230
1
40
0.145707
41
0.147820689347499
42
2.99376060472542
0
ELLIPSE
5
12C
100
AcDbEntity
8
1
62
256
6
ByLayer
370
18
48
1
60
0
100
AcDbEllipse
10
47.259342
20
-29.392987
30
0
11
-0.268700576851503
21
-0.268700576850273
31
0
210
0
220
0
230
1
40
0.989133
41
2.42225340979502
42
2.68594738862234
0
ELLIPSE
5
12D
100
AcDbEntity
8
1
62
256
6
ByLayer
370
18
48
1
60
0
100
AcDbEllipse
10
46.009644
20
-31.170697
30
0
11
-0.268700576851503
21
-0.268700576850273
31
0
210
0
220
0
230
1
40
0.989133
41
0.455613680093743
42
1.06840509419362
0
ELLIPSE
5
12E
100
AcDbEntity
8
1
62
256
6
ByLayer
370
18
48
1
60
0
100
AcDbEllipse
10
48.05851
20
-29.335773
30
0
11
0.300520382004972
21
0.300520382003594
31
0
210
0
220
0
230
1
40
0.989133
41
2.42225340979507
42
-3.14158919864634
0
ELLIPSE
5
12F
100
AcDbEntity
8
1
62
256
6
ByLayer
370
18
48
1
60
0
100
AcDbEllipse
10
46.229015
20
-31.938253
30
0
11
0.300520382004972
21
0.300520382003594
31
0
210
0
220
0
230
1
40
0.989133
41
3.51676189843901E-06
42
1.06840509419363
0
ELLIPSE
5
130
100
AcDbEntity
8
1
62
256
6
ByLayer
370
18
48
1
60
0
100
AcDbEllipse
10
48.27788
20
-30.103329
30
0
11
-0.268700576851503
21
-0.268700576850273
31
0
210
0
220
0
230
1
40
0.989133
41
1.37505585859845
42
2.68595059009183
0
ELLIPSE
5
131
100
AcDbEntity
8
1
62
256
6
ByLayer
370
18
48
1
60
0
100
AcDbEllipse
10
47.028183
20
-31.881038
30
0
11
-0.268700576851503
21
-0.268700576850273
31
0
210
0
220
0
230
1
40
0.989133
41
0.455656467956203
42
2.1156026453902
0
ELLIPSE
5
132
100
AcDbEntity
8
1
62
256
6
ByLayer
370
18
48
1
60
0
100
AcDbEllipse
10
48.719454
20
-30.766322
30
0
11
0.300520382004972
21
0.300520382003594
31
0
210
0
220
0
230
1
40
0.989133
41
1.37505585859843
42
3.14157045834449
0
ELLIPSE
5
133
100
AcDbEntity
8
1
62
256
6
ByLayer
370
18
48
1
60
0
100
AcDbEllipse
10
48.162301
20
-31.347354
30
0
11
-0.268700576851503
21
-0.268700576850273
31
0
210
0
220
0
230
1
40
0.989133
41
0.327858307401863
42
3.11070847430905
0
ELLIPSE
5
134
100
AcDbEntity
8
1
62
256
6
ByLayer
370
18
48
1
60
0
100
AcDbEllipse
10
47.034603
20
-30.527853
30
0
11
2.82842712475267
21
2.8284271247397
31
0
210
0
220
0
230
1
40
0.989133
41
0.790861385157301
42
3.14158710851733
0
ELLIPSE
5
135
100
AcDbEntity
8
1
62
256
6
ByLayer
370
18
48
1
60
0
100
AcDbEllipse
10
47.034603
20
-30.527853
30
0
11
2.82842712475267
21
2.8284271247397
31
0
210
0
220
0
230
1
40
0.989133
41
9.25359672357842E-05
42
0.790861385157299
0
ELLIPSE
5
136
100
AcDbEntity
8
1
62
256
6
ByLayer
370
18
48
1
60
0
100
AcDbEllipse
10
47.377676
20
-30.870927
30
0
11
0.830850467896099
21
0.830850467892289
31
0
210
0
220
0
230
1
40
0.989133
41
-3.03030358008905
42
-2.90381587669165
0
ELLIPSE
5
137
100
AcDbEntity
8
1
62
256
6
ByLayer
370
18
48
1
60
0
100
AcDbEllipse
10
48.953368
20
-31.000235
30
0
11
0.300520382004972
21
0.300520382003594
31
0
210
0
220
0
230
1
40
0.989133
41
1.37505585859843
42
2.09329230904421
0
ELLIPSE
5
138
100
AcDbEntity
8
1
62
256
6
ByLayer
370
18
48
1
60
0
100
AcDbEllipse
10
47.377676
20
-30.870927
30
0
11
0.830850467896099
21
0.830850467892289
31
0
210
0
220
0
230
1
40
0.989133
41
0.111289073500737
42
0.237776776898134
0
ELLIPSE
5
139
100
AcDbEntity
8
1
62
256
6
ByLayer
370
18
48
1
60
0
100
AcDbEllipse
10
46.716732
20
-29.440378
30
0
11
0.300520382004972
21
0.300520382003594
31
0
210
0
220
0
230
1
40
0.989133
41
-2.81373434618795
42
-2.09549789574221
0
ELLIPSE
5
13A
100
AcDbEntity
8
1
62
256
6
ByLayer
370
18
48
1
60
0
100
AcDbEllipse
10
46.359137
20
-30.160585
30
0
11
-0.268700576851503
21
-0.268700576850273
31
0
210
0
220
0
230
1
40
0.989133
41
-2.81373434618797
42
0.021207542997025
0
ELLIPSE
5
13B
100
AcDbEntity
8
1
62
256
6
ByLayer
370
18
48
1
60
0
100
AcDbEllipse
10
48.511794
20
-30.337242
30
0
11
-0.268700576851503
21
-0.268700576850273
31
0
210
0
220
0
230
1
40
0.989133
41
1.37505585859845
42
-2.07318755939617
0
ELLIPSE
5
13C
100
AcDbEntity
8
1
62
256
6
ByLayer
370
18
48
1
60
0
100
AcDbEllipse
10
47.287563
20
-30.780814
30
0
11
-2.82842712475267
21
-2.82842712473971
31
0
210
0
220
0
230
1
40
0.989133
41
0
42
6.28318530717959
0
ELLIPSE
5
13D
100
AcDbEntity
8
1
62
256
6
ByLayer
370
18
48
1
60
0
100
AcDbEllipse
10
47.377676
20
-30.870927
30
0
11
0.830850467896099
21
0.830850467892289
31
0
210
0
220
0
230
1
40
0.989133
41
-1.98310602889245
42
-1.85661832549506
0
ELLIPSE
5
13E
100
AcDbEntity
8
1
62
256
6
ByLayer
370
18
48
1
60
0
100
AcDbEllipse
10
45.801984
20
-30.741618
30
0
11
0.300520382004972
21
0.300520382003594
31
0
210
0
220
0
230
1
40
0.989133
41
-1.76653679499135
42
-1.0483003445456
0
ELLIPSE
5
13F
100
AcDbEntity
8
1
62
256
6
ByLayer
370
18
48
1
60
0
100
AcDbEllipse
10
48.292424
20
-29.569687
30
0
11
0.300520382004972
21
0.300520382003594
31
0
210
0
220
0
230
1
40
0.989133
41
2.42225340979506
42
3.14048986024078
0
ELLIPSE
5
140
100
AcDbEntity
8
1
62
256
6
ByLayer
370
18
48
1
60
0
100
AcDbEllipse
10
46.462928
20
-32.172167
30
0
11
0.300520382004972
21
0.300520382003594
31
0
210
0
220
0
230
1
40
0.989133
41
0.350168643747922
42
1.06840509419363
0
ELLIPSE
5
141
100
AcDbEntity
8
1
62
256
6
ByLayer
370
18
48
1
60
0
100
AcDbEllipse
10
47.377676
20
-30.870927
30
0
11
0.830850467896099
21
0.830850467892289
31
0
210
0
220
0
230
1
40
0.989133
41
1.15848662469733
42
1.28497432809474
0
ELLIPSE
5
142
100
AcDbEntity
8
1
62
256
6
ByLayer
370
18
48
1
60
0
100
AcDbEllipse
10
47.493255
20
-29.626901
30
0
11
-0.268700576851503
21
-0.268700576850273
31
0
210
0
220
0
230
1
40
0.989133
41
2.42225340979502
42
-1.02599000819955
0
ELLIPSE
5
143
100
AcDbEntity
8
1
62
256
6
ByLayer
370
18
48
1
60
0
100
AcDbEllipse
10
45.801984
20
-30.741618
30
0
11
0.300520382004972
21
0.300520382003594
31
0
210
0
220
0
230
1
40
0.989133
41
-0.697028907448701
42
0.0212075429970151
0
ELLIPSE
5
144
100
AcDbEntity
8
1
62
256
6
ByLayer
370
18
48
1
60
0
100
AcDbEllipse
10
48.953368
20
-31.000235
30
0
11
0.300520382004972
21
0.300520382003594
31
0
210
0
220
0
230
1
40
0.989133
41
2.44456374614107
42
-3.12038511059276
0
ELLIPSE
5
145
100
AcDbEntity
8
1
62
256
6
ByLayer
370
18
48
1
60
0
100
AcDbEllipse
10
47.377676
20
-30.870927
30
0
11
-1.62634559673278
21
-1.62634559672533
31
0
210
0
220
0
230
1
40
0.989133
41
0
42
6.28318530717959
0
ELLIPSE
5
146
100
AcDbEntity
8
1
62
256
6
ByLayer
370
18
48
1
60
0
100
AcDbEllipse
10
47.377676
20
-30.870927
30
0
11
0.830850467896099
21
0.830850467892289
31
0
210
0
220
0
230
1
40
0.989133
41
2.20568417589392
42
2.33217187929133
0
ELLIPSE
5
147
100
AcDbEntity
8
1
62
256
6
ByLayer
370
18
48
1
60
0
100
AcDbEllipse
10
48.03862
20
-32.301475
30
0
11
0.300520382004972
21
0.300520382003594
31
0
210
0
220
0
230
1
40
0.989133
41
1.39736619494447
42
2.11560264539023
0
ELLIPSE
5
148
100
AcDbEntity
8
1
62
256
6
ByLayer
370
18
48
1
60
0
100
AcDbEllipse
10
47.262097
20
-32.114952
30
0
11
-0.268700576851503
21
-0.268700576850273
31
0
210
0
220
0
230
1
40
0.989133
41
-0.719339243794776
42
2.11560264539025
0
ELLIPSE
5
149
100
AcDbEntity
8
1
62
256
6
ByLayer
370
18
48
1
60
0
100
AcDbEllipse
10
46.243558
20
-31.404611
30
0
11
-0.268700576851503
21
-0.268700576850273
31
0
210
0
220
0
230
1
40
0.989133
41
-1.76653679499138
42
1.06840509419362
0
ELLIPSE
5
14A
100
AcDbEntity
8
1
62
256
6
ByLayer
370
18
48
1
60
0
100
AcDbEllipse
10
48.292424
20
-29.569687
30
0
11
0.300520382004972
21
0.300520382003594
31
0
210
0
220
0
230
1
40
0.989133
41
-2.79142400984191
42
-2.07318755939612
0
ELLIPSE
5
14B
100
AcDbEntity
8
1
62
256
6
ByLayer
370
18
48
1
60
0
100
AcDbEllipse
10
46.462928
20
-32.172167
30
0
11
0.300520382004972
21
0.300520382003594
31
0
210
0
220
0
230
1
40
0.989133
41
-0.71933924379475
42
-0.00110279334900554
0
ELLIPSE
5
14C
100
AcDbEntity
8
1
62
256
6
ByLayer
370
18
48
1
60
0
100
AcDbEllipse
10
47.804707
20
-32.067562
30
0
11
0.300520382004972
21
0.300520382003594
31
0
210
0
220
0
230
1
40
0.989133
41
0.327858307401824
42
2.11560264539023
0
ELLIPSE
5
14D
100
AcDbEntity
8
1
62
256
6
ByLayer
370
18
48
1
60
0
100
AcDbEllipse
10
46.716732
20
-29.440378
30
0
11
0.300520382004972
21
0.300520382003594
31
0
210
0
220
0
230
1
40
0.989133
41
-1.74422645864527
42
-1.02599000819954
0
ELLIPSE
5
14E
100
AcDbEntity
8
1
62
256
6
ByLayer
370
18
48
1
60
0
100
AcDbEllipse
10
47.377676
20
-30.870927
30
0
11
0.830850467896099
21
0.830850467892289
31
0
210
0
220
0
230
1
40
0.989133
41
-0.935908477695848
42
-0.809420774298469
0
ELLIPSE
5
14F
100
AcDbEntity
8
1
62
256
6
ByLayer
370
18
48
1
60
0
100
AcDbEllipse
10
48.03862
20
-32.301475
30
0
11
0.300520382004972
21
0.300520382003594
31
0
210
0
220
0
230
1
40
0.989133
41
0.327858307401853
42
1.0460947578476
0
ELLIPSE
5
150
100
AcDbEntity
8
1
62
256
6
ByLayer
370
18
48
1
60
0
100
AcDbEllipse
10
48.396215
20
-31.581268
30
0
11
-0.268700576851503
21
-0.268700576850273
31
0
210
0
220
0
230
1
40
0.989133
41
0.327858307401881
42
-3.12038511059281
0
ELLIPSE
5
151
100
AcDbEntity
8
1
62
256
6
ByLayer
370
18
48
1
60
0
100
AcDbEllipse
10
59.005169
20
-38.857824
30
0
11
-2.53778696600816
21
-2.53778696599653
31
0
210
0
220
0
230
1
40
0.989133
41
2.78602876623268
42
2.87979326579064
0
ELLIPSE
5
152
100
AcDbEntity
8
1
62
256
6
ByLayer
370
18
48
1
60
0
100
AcDbEllipse
10
59.005169
20
-38.857824
30
0
11
2.30693672462581
21
2.30693672461524
31
0
210
0
220
0
230
1
40
0.989133
41
-2.00712863979349
42
-0.785398163397451
0
ELLIPSE
5
153
100
AcDbEntity
8
1
62
256
6
ByLayer
370
18
48
1
60
0
100
AcDbEllipse
10
58.6517
20
-38.504354
30
0
11
-3.18198051534675
21
-3.18198051533218
31
0
210
0
220
0
230
1
40
0.989133
41
2.35619449019235
42
2.87979326579065
0
ELLIPSE
5
154
100
AcDbEntity
8
1
62
256
6
ByLayer
370
18
48
1
60
0
100
AcDbEllipse
10
58.6517
20
-38.504354
30
0
11
-3.18198051534675
21
-3.18198051533218
31
0
210
0
220
0
230
1
40
0.989133
41
0.610865238198006
42
1.13446401379631
0
ELLIPSE
5
155
100
AcDbEntity
8
1
62
256
6
ByLayer
370
18
48
1
60
0
100
AcDbEllipse
10
60.03135
20
-41.024429
30
0
11
-1.15902115055695
21
-1.55495811739277
31
0
210
0
220
0
230
1
40
0.75312
41
-0.162904209625322
42
0.858053350821066
0
ELLIPSE
5
156
100
AcDbEntity
8
1
62
256
6
ByLayer
370
18
48
1
60
0
100
AcDbEllipse
10
54.233913
20
-39.271633
30
0
11
-8.77928479422908
21
-0.377180977123925
31
0
210
0
220
0
230
1
40
0.731858
41
-2.21990583440094
42
-2.15633517464419
0
ELLIPSE
5
157
100
AcDbEntity
8
1
62
256
6
ByLayer
370
18
48
1
60
0
100
AcDbEllipse
10
58.6517
20
-38.504354
30
0
11
-3.18198051534675
21
-3.18198051533218
31
0
210
0
220
0
230
1
40
0.989133
41
1.13446401379631
42
2.35619449019235
0
ELLIPSE
5
158
100
AcDbEntity
8
1
62
256
6
ByLayer
370
18
48
1
60
0
100
AcDbEllipse
10
59.005169
20
-38.857824
30
0
11
-2.53778696600816
21
-2.53778696599653
31
0
210
0
220
0
230
1
40
0.989133
41
0.610865238198007
42
0.704629737755968
0
ELLIPSE
5
159
100
AcDbEntity
8
1
62
256
6
ByLayer
370
18
48
1
60
0
100
AcDbEllipse
10
58.122884
20
-33.739524
30
0
11
-1.49844313747124
21
9.06767815354882
31
0
210
0
220
0
230
1
40
0.721982
41
2.2774232045338
42
2.34099386399037
0
ELLIPSE
5
15A
100
AcDbEntity
8
1
62
256
6
ByLayer
370
18
48
1
60
0
100
AcDbEllipse
10
61.289769
20
-39.234314
30
0
11
-1.49847459157516
21
-1.63003079786624
31
0
210
0
220
0
230
1
40
0.652432
41
2.5191920312366
42
-2.74303571549633
0
ELLIPSE
5
15B
100
AcDbEntity
8
1
62
256
6
ByLayer
370
18
48
1
60
0
100
AcDbEllipse
10
12
20
-22.2799
30
0
11
-1.8891449414941
21
-3.41434906402344
31
0
210
0
220
0
230
1
40
0.192308
41
-0.66101237959722
42
-0.00800044654536787
0
ELLIPSE
5
15C
100
AcDbEntity
8
1
62
256
6
ByLayer
370
18
48
1
60
0
100
AcDbEllipse
10
20.755893
20
0
30
0
11
1.92875500727024E-15
21
31.5
31
0
210
0
220
0
230
1
40
0.087489
41
0.311401384074102
42
2.8301912695157
0
ELLIPSE
5
15D
100
AcDbEntity
8
1
62
256
6
ByLayer
370
18
48
1
60
0
100
AcDbEllipse
10
33.411941
20
-31.875465
30
0
11
-4.60348651607739
21
3.18394601549387
31
0
210
0
220
0
230
1
40
0.714389
41
2.4464552628493
42
3.13614006881334
0
ELLIPSE
5
15E
100
AcDbEntity
8
1
62
256
6
ByLayer
370
18
48
1
60
0
100
AcDbEllipse
10
12
20
-22.2799
30
0
11
-1.88914494149214
21
3.4143490640205
31
0
210
0
220
0
230
1
40
0.192308
41
-3.13359220704445
42
-2.48058027399219
0
ELLIPSE
5
15F
100
AcDbEntity
8
1
62
256
6
ByLayer
370
18
48
1
60
0
100
AcDbEllipse
10
-2.347154
20
0
30
0
11
-14.7536831606548
21
-31.0932549155792
31
0
210
0
220
0
230
1
40
0.341999
41
2.05035306783692
42
2.98378646694436
0
ELLIPSE
5
160
100
AcDbEntity
8
1
62
256
6
ByLayer
370
18
48
1
60
0
100
AcDbEllipse
10
26.347154
20
0
30
0
11
-14.7536831606553
21
31.09325491558
31
0
210
0
220
0
230
1
40
0.341999
41
0.157806186645436
42
1.09123958575285
0
ELLIPSE
5
161
100
AcDbEntity
8
1
62
256
6
ByLayer
370
18
48
1
60
0
100
AcDbEllipse
10
12
20
-24.9975
30
0
11
-2.00000000000002
21
2.02127811016475E-15
31
0
210
0
220
0
230
1
40
0.732051
41
0.751504621492317
42
2.39008803209746
0
ELLIPSE
5
162
100
AcDbEntity
8
1
62
256
6
ByLayer
370
18
48
1
60
0
100
AcDbEllipse
10
-2.347154
20
0
30
0
11
-14.7536831606537
21
31.0932549155779
31
0
210
0
220
0
230
1
40
0.341999
41
-2.98378646694435
42
-2.05035306783689
0
ELLIPSE
5
163
100
AcDbEntity
8
1
62
256
6
ByLayer
370
18
48
1
60
0
100
AcDbEllipse
10
26.347154
20
0
30
0
11
-14.7536831606555
21
-31.0932549155802
31
0
210
0
220
0
230
1
40
0.341999
41
-1.09123958575285
42
-0.157806186645435
0
ELLIPSE
5
164
100
AcDbEntity
8
1
62
256
6
ByLayer
370
18
48
1
60
0
100
AcDbEllipse
10
12
20
-24.9975
30
0
11
-1.99999999999996
21
2.02127811016469E-15
31
0
210
0
220
0
230
1
40
0.732051
41
-2.3900880320975
42
-0.751504621492287
0
ELLIPSE
5
165
100
AcDbEntity
8
1
62
256
6
ByLayer
370
18
48
1
60
0
100
AcDbEllipse
10
43.760335
20
-17.154746
30
0
11
-4.60348651607402
21
3.1839460154887
31
0
210
0
220
0
230
1
40
0.714389
41
3.13614006881303
42
-2.45736043240214
0
ELLIPSE
5
166
100
AcDbEntity
8
1
62
256
6
ByLayer
370
18
48
1
60
0
100
AcDbEllipse
10
63.293514
20
-33.035984
30
0
11
-0.561266007568108
21
-0.561266007565537
31
0
210
0
220
0
230
1
40
0.989133
41
2.44346095279204
42
-2.44346095279204
0
ELLIPSE
5
167
100
AcDbEntity
8
1
62
256
6
ByLayer
370
18
48
1
60
0
100
AcDbEllipse
10
53.035984
20
-43.293514
30
0
11
-0.561266007568108
21
-0.561266007565537
31
0
210
0
220
0
230
1
40
0.989133
41
-0.698131700797726
42
0.698131700797714
0
ELLIPSE
5
168
100
AcDbEntity
8
1
62
256
6
ByLayer
370
18
48
1
60
0
100
AcDbEllipse
10
64.210551
20
-44.210551
30
0
11
-0.561266007568108
21
-0.561266007565537
31
0
210
0
220
0
230
1
40
0.989133
41
0.698131700797721
42
2.44346095279206
0
ELLIPSE
5
169
100
AcDbEntity
8
1
62
256
6
ByLayer
370
18
48
1
60
0
100
AcDbEllipse
10
37.018232
20
-28.392261
30
0
11
-2.65117034842282
21
-1.40419544811985
31
0
210
0
220
0
230
1
40
0.995633
41
0.121588611853093
42
0.127700930534759
0
ELLIPSE
5
16A
100
AcDbEntity
8
1
62
256
6
ByLayer
370
18
48
1
60
0
100
AcDbEllipse
10
57.844425
20
-41.073697
30
0
11
-6.09125942541903
21
-1.37050089923283
31
0
210
0
220
0
230
1
40
0.534007
41
-0.689694576855331
42
-0.609956307817227
0
ELLIPSE
5
16B
100
AcDbEntity
8
1
62
256
6
ByLayer
370
18
48
1
60
0
100
AcDbEllipse
10
42.387393
20
-30.456054
30
0
11
-4.09042179648945
21
2.87549118009498
31
0
210
0
220
0
230
1
40
0.02553
41
0.907011211182686
42
1.348042316539
0
ELLIPSE
5
16C
100
AcDbEntity
8
1
62
256
6
ByLayer
370
18
48
1
60
0
100
AcDbEllipse
10
43.225382
20
-22.746505
30
0
11
-1.86177536637387
21
-2.35297642300834
31
0
210
0
220
0
230
1
40
0.877989
41
-3.07708608368865
42
-1.50628975689372
0
ELLIPSE
5
16D
100
AcDbEntity
8
1
62
256
6
ByLayer
370
18
48
1
60
0
100
AcDbEllipse
10
54.818811
20
-40.400454
30
0
11
-1.05474550221207
21
0.233843842376107
31
0
210
0
220
0
230
1
40
0.175059
41
0.829086299720068
42
1.35268507533096
0
ELLIPSE
5
16E
100
AcDbEntity
8
1
62
256
6
ByLayer
370
18
48
1
60
0
100
AcDbEllipse
10
59.019724
20
-34.424602
30
0
11
-0.571116453346867
21
0.918981791341711
31
0
210
0
220
0
230
1
40
0.218147
41
-1.33296183504056
42
-0.809363059448728
0
ELLIPSE
5
16F
100
AcDbEntity
8
1
62
256
6
ByLayer
370
18
48
1
60
0
100
AcDbEllipse
10
45.376929
20
-26.203402
30
0
11
-4.09042179648945
21
2.87549118009498
31
0
210
0
220
0
230
1
40
0.02553
41
0.90701121118272
42
1.348042316539
0
ELLIPSE
5
170
100
AcDbEntity
8
1
62
256
6
ByLayer
370
18
48
1
60
0
100
AcDbEllipse
10
41.536876
20
-17.90088
30
0
11
5.72659051508523
21
-4.02568765213298
31
0
210
0
220
0
230
1
40
0.02553
41
0.808573903783163
42
1.21583528734088
0
ELLIPSE
5
171
100
AcDbEntity
8
1
62
256
6
ByLayer
370
18
48
1
60
0
100
AcDbEllipse
10
44.888255
20
-26.898547
30
0
11
-1.22346796598697
21
6.93824243213144
31
0
210
0
220
0
230
1
40
0.060067
41
-1.46303974563447
42
-0.99897621731188
0
ELLIPSE
5
172
100
AcDbEntity
8
1
62
256
6
ByLayer
370
18
48
1
60
0
100
AcDbEllipse
10
50.79443
20
-28.301866
30
0
11
-6.10979165037856
21
7.86297520616586
31
0
210
0
220
0
230
1
40
0.131287
41
-0.399813170216032
42
0.319387729728934
0
ELLIPSE
5
173
100
AcDbEntity
8
1
62
256
6
ByLayer
370
18
48
1
60
0
100
AcDbEllipse
10
45.988176
20
-35.138822
30
0
11
-9.2842197418765
21
3.35239987202858
31
0
210
0
220
0
230
1
40
0.116247
41
-0.310845503056399
42
0.408355396888871
0
ELLIPSE
5
174
100
AcDbEntity
8
1
62
256
6
ByLayer
370
18
48
1
60
0
100
AcDbEllipse
10
42.876067
20
-29.760909
30
0
11
-6.95114826966941
21
-1.22574374100281
31
0
210
0
220
0
230
1
40
0.085467
41
0.973171014436302
42
1.43723454276104
0
ELLIPSE
5
175
100
AcDbEntity
8
1
62
256
6
ByLayer
370
18
48
1
60
0
100
AcDbEllipse
10
41.825754
20
-21.554936
30
0
11
-2.62509464023887
21
-1.45697615385096
31
0
210
0
220
0
230
1
40
0.995355
41
-2.34319033177574
42
-2.33708048097974
0
ELLIPSE
5
176
100
AcDbEntity
8
1
62
256
6
ByLayer
370
18
48
1
60
0
100
AcDbEllipse
10
60.671706
20
-37.051855
30
0
11
-0.347448838311273
21
-6.87818800486749
31
0
210
0
220
0
230
1
40
0.548566
41
-2.34732958046467
42
-2.26759131347188
0
POINT
5
6C
100
AcDbEntity
8
2
62
256
6
ByLayer
370
18
48
1
60
0
100
AcDbPoint
10
65
20
45
30
0
39
0
210
0
220
0
230
1
50
360
0
POINT
5
6E
100
AcDbEntity
8
80
62
256
6
ByLayer
370
18
48
1
60
0
100
AcDbPoint
10
0
20
0
30
0
39
0
210
0
220
0
230
1
50
360
0
POINT
5
70
100
AcDbEntity
8
81
62
256
6
ByLayer
370
18
48
1
60
0
100
AcDbPoint
10
65
20
-45
30
0
39
0
210
0
220
0
230
1
50
360
0
SPLINE
5
177
100
AcDbEntity
8
SK1
62
256
6
ByLayer
370
18
48
1
60
0
100
AcDbSpline
70
4
71
2
72
6
73
3
40
0
40
0
40
0
40
1
40
1
40
1
41
1
10
-36.5
20
-21.1521149580209
30
0
41
1
10
-19.3499999999869
20
-21.5828539542124
30
0
41
1
10
-2.19999999999999
20
-22.0135927638551
30
0
0
SPLINE
5
178
100
AcDbEntity
8
SK1
62
256
6
ByLayer
370
18
48
1
60
0
100
AcDbSpline
70
4
71
2
72
6
73
3
40
0
40
0
40
0
40
1
40
1
40
1
41
1
10
-2.19999999999999
20
22.0135928951589
30
0
41
1
10
-19.34999999997
20
21.5828554470541
30
0
41
1
10
-36.5
20
21.1521177089669
30
0
0
SPLINE
5
179
100
AcDbEntity
8
SK1
62
256
6
ByLayer
370
18
48
1
60
0
100
AcDbSpline
70
4
71
3
72
13
73
9
40
0
40
0
40
0
40
0
40
0.239456135835734
40
0.368359722028796
40
0.499998984123831
40
0.631638415376812
40
0.760542467847005
40
1
40
1
40
1
40
1
41
1
10
-2.19999999999999
20
-22.0200986775813
30
0
41
1
10
-2.19909198642387
20
-21.9940412014509
30
0
41
1
10
-2.19103284107055
20
-21.9566686170919
30
0
41
1
10
-2.16563592203485
20
-21.9104494432231
30
0
41
1
10
-2.13886378679456
20
-21.8791678893422
30
0
41
1
10
-2.10627712750076
20
-21.854000519123
30
0
41
1
10
-2.05884064234343
20
-21.8309567166392
30
0
41
1
10
-2.02111030873166
20
-21.8247844616134
30
0
41
1
10
-1.99503997793928
20
-21.8251861015554
30
0
0
SPLINE
5
17A
100
AcDbEntity
8
SK1
62
256
6
ByLayer
370
18
48
1
60
0
100
AcDbSpline
70
4
71
3
72
13
73
9
40
0
40
0
40
0
40
0
40
0.239457532221833
40
0.36836158471627
40
0.500001015978903
40
0.631640278066344
40
0.760543864236282
40
1
40
1
40
1
40
1
41
1
10
-1.99503997793928
20
21.825186084775
30
0
41
1
10
-2.02111030873024
20
21.8247844448324
30
0
41
1
10
-2.05884064234078
20
21.8309566998545
30
0
41
1
10
-2.10627712749869
20
21.8540005023229
30
0
41
1
10
-2.1388637867926
20
21.8791678725253
30
0
41
1
10
-2.16563592203337
20
21.9104494263858
30
0
41
1
10
-2.19103284106941
20
21.9566686002238
30
0
41
1
10
-2.19909198642273
20
21.9940411845603
30
0
41
1
10
-2.19999999999999
20
22.0200986606755
30
0
0
SPLINE
5
17B
100
AcDbEntity
8
SK1
62
256
6
ByLayer
370
18
48
1
60
0
100
AcDbSpline
70
4
71
2
72
6
73
3
40
0
40
0
40
0
40
1
40
1
40
1
41
1
10
-1.99503997793928
20
-21.8251813124779
30
0
41
1
10
-1.19500843340728
20
-21.8452807593862
30
0
41
1
10
-0.394976888875277
20
-21.8653802062992
30
0
0
SPLINE
5
17C
100
AcDbEntity
8
SK1
62
256
6
ByLayer
370
18
48
1
60
0
100
AcDbSpline
70
4
71
2
72
6
73
3
40
0
40
0
40
0
40
1
40
1
40
1
41
1
10
-0.394976888875277
20
21.8653801495793
30
0
41
1
10
-1.19500843340728
20
21.8452807024746
30
0
41
1
10
-1.99503997793928
20
21.8251812553753
30
0
0
SPLINE
5
17D
100
AcDbEntity
8
SK1
62
256
6
ByLayer
370
18
48
1
60
0
100
AcDbSpline
70
4
71
2
72
6
73
3
40
0
40
0
40
0
40
1
40
1
40
1
41
1
10
-36.5
20
21.1553029418638
30
0
41
1
10
-37.2500000000012
20
20.7223540793632
30
0
41
1
10
-38
20
20.289405225553
30
0
0
SPLINE
5
17E
100
AcDbEntity
8
SK1
62
256
6
ByLayer
370
18
48
1
60
0
100
AcDbSpline
70
4
71
2
72
6
73
3
40
0
40
0
40
0
40
1
40
1
40
1
41
1
10
-38
20
-20.2894050057151
30
0
41
1
10
-37.2500000000012
20
-20.7223538609616
30
0
41
1
10
-36.5
20
-21.155302724897
30
0
0
SPLINE
5
17F
100
AcDbEntity
8
SK1
62
256
6
ByLayer
370
18
48
1
60
0
100
AcDbSpline
70
4
71
2
72
6
73
3
40
0
40
0
40
0
40
1
40
1
40
1
41
1
10
-0.240502439654279
20
21.9465691723769
30
0
41
1
10
-0.265172990617003
20
21.8689012906761
30
0
41
1
10
-0.394976888875277
20
21.8653849865467
30
0
0
SPLINE
5
180
100
AcDbEntity
8
SK1
62
256
6
ByLayer
370
18
48
1
60
0
100
AcDbSpline
70
4
71
2
72
6
73
3
40
0
40
0
40
0
40
1
40
1
40
1
41
1
10
-0.394976888875277
20
-21.865385003355
30
0
41
1
10
-0.264174311740362
20
-21.8692639605625
30
0
41
1
10
-0.239684768755779
20
-21.9481214799355
30
0
0
SPLINE
5
181
100
AcDbEntity
8
1
62
256
6
ByLayer
370
18
48
1
60
0
100
AcDbSpline
70
4
71
3
72
8
73
4
40
0
40
0
40
0
40
0
40
1
40
1
40
1
40
1
41
1
10
35.1088642078484
20
-30.704455776438
30
0
41
1
10
35.072969322521
20
-30.6739047900244
30
0
41
1
10
35.0375433355222
20
-30.6426184900653
30
0
41
1
10
35.0026080966546
20
-30.6105758580135
30
0
0
SPLINE
5
182
100
AcDbEntity
8
1
62
256
6
ByLayer
370
18
48
1
60
0
100
AcDbSpline
70
4
71
2
72
6
73
3
40
0
40
0
40
0
40
1
40
1
40
1
41
0.886138772719844
10
34.1175401437314
20
-29.0475660912984
30
0
41
0.915161195607646
10
33.2610599412283
20
-29.2418328208098
30
0
41
1.02613459695995
10
32.6751324191375
20
-28.8592473531643
30
0
0
SPLINE
5
183
100
AcDbEntity
8
SK1
62
256
6
ByLayer
370
18
48
1
60
0
100
AcDbSpline
70
4
71
3
72
295
73
291
40
0
40
0
40
0
40
0
40
0.0029462999135134
40
0.0065222247935907
40
0.0100981496736681
40
0.0136740745537455
40
0.0172499994338228
40
0.0208259243139002
40
0.027977774074055
40
0.0351296238342097
40
0.0422814735943645
40
0.0458573984744418
40
0.0494333233545192
40
0.0530092482345966
40
0.056585173114674
40
0.0637370228748287
40
0.0673129477549061
40
0.0708888726349834
40
0.0744647975150608
40
0.0780407223951382
40
0.0816166472752156
40
0.0851925721552929
40
0.0923444219154477
40
0.0959203467955251
40
0.0994962716756024
40
0.10307219655568
40
0.106648121435757
40
0.110224046315835
40
0.113799971195912
40
0.117375896075989
40
0.120951820956067
40
0.124527745836144
40
0.128103670716221
40
0.131679595596299
40
0.135255520476376
40
0.138831445356454
40
0.142407370236531
40
0.149559219996686
40
0.153135144876763
40
0.15671106975684
40
0.158499032196879
40
0.160286994636918
40
0.163862919516995
40
0.17101476927715
40
0.174590694157227
40
0.178166619037305
40
0.181742543917382
40
0.185318468797459
40
0.192470318557614
40
0.196046243437692
40
0.199622168317769
40
0.201410130757808
40
0.203198093197846
40
0.206774018077924
40
0.213925867838078
40
0.217501792718156
40
0.221077717598233
40
0.22465364247831
40
0.228229567358388
40
0.235381417118543
40
0.23895734199862
40
0.242533266878697
40
0.244321229318736
40
0.246109191758775
40
0.249685116638852
40
0.253261041518929
40
0.256836966399007
40
0.258624928839046
40
0.260412891279084
40
0.263988816159162
40
0.267564741039239
40
0.271140665919316
40
0.274716590799394
40
0.278292515679471
40
0.281868440559549
40
0.285444365439626
40
0.289020290319703
40
0.292596215199781
40
0.296172140079858
40
0.299748064959935
40
0.303323989840013
40
0.30689991472009
40
0.310475839600168
40
0.314051764480245
40
0.3212036142404
40
0.324779539120477
40
0.328355464000554
40
0.331931388880632
40
0.335507313760709
40
0.339083238640786
40
0.342659163520864
40
0.346235088400941
40
0.349811013281019
40
0.356962863041173
40
0.364114712801328
40
0.371266562561483
40
0.37484248744156
40
0.378418412321638
40
0.381994337201715
40
0.385570262081792
40
0.38914618696187
40
0.392722111841947
40
0.396298036722025
40
0.399873961602102
40
0.403449886482179
40
0.407025811362257
40
0.410601736242334
40
0.414177661122411
40
0.417753586002489
40
0.421329510882566
40
0.424905435762643
40
0.428481360642721
40
0.432057285522798
40
0.433845247962837
40
0.435633210402876
40
0.437421172842914
40
0.439209135282953
40
0.44278506016303
40
0.446360985043108
40
0.448148947483146
40
0.449936909923185
40
0.451724872363224
40
0.453512834803262
40
0.45708875968334
40
0.458876722123378
40
0.460664684563417
40
0.462452647003456
40
0.464240609443495
40
0.466028571883533
40
0.467816534323572
40
0.469604496763611
40
0.471392459203649
40
0.473180421643688
40
0.474968384083727
40
0.476756346523765
40
0.478544308963804
40
0.480332271403843
40
0.482120233843881
40
0.48390819628392
40
0.485696158723959
40
0.487484121163997
40
0.489272083604036
40
0.491060046044075
40
0.492848008484114
40
0.494635970924152
40
0.496423933364191
40
0.49821189580423
40
0.499999858244268
40
0.501787820684307
40
0.503575783124346
40
0.505363745564384
40
0.507151708004423
40
0.508939670444462
40
0.5107276328845
40
0.512515595324539
40
0.514303557764578
40
0.516091520204617
40
0.517879482644655
40
0.519667445084694
40
0.521455407524733
40
0.523243369964771
40
0.52503133240481
40
0.526819294844849
40
0.528607257284887
40
0.530395219724926
40
0.532183182164965
40
0.533971144605003
40
0.535759107045042
40
0.537547069485081
40
0.539335031925119
40
0.541122994365158
40
0.542910956805197
40
0.546486881685274
40
0.548274844125313
40
0.550062806565352
40
0.55185076900539
40
0.553638731445429
40
0.557214656325506
40
0.560790581205584
40
0.562578543645622
40
0.564366506085661
40
0.5661544685257
40
0.567942430965738
40
0.571518355845816
40
0.575094280725893
40
0.57867020560597
40
0.582246130486048
40
0.585822055366125
40
0.589397980246203
40
0.59297390512628
40
0.596549830006357
40
0.600125754886435
40
0.603701679766512
40
0.60727760464659
40
0.610853529526667
40
0.614429454406744
40
0.618005379286822
40
0.621581304166899
40
0.625157229046976
40
0.628733153927054
40
0.635885003687209
40
0.643036853447363
40
0.650188703207518
40
0.653764628087595
40
0.657340552967673
40
0.66091647784775
40
0.664492402727828
40
0.668068327607905
40
0.671644252487982
40
0.67522017736806
40
0.678796102248137
40
0.685947952008292
40
0.689523876888369
40
0.693099801768446
40
0.696675726648524
40
0.700251651528601
40
0.703827576408679
40
0.707403501288756
40
0.710979426168833
40
0.714555351048911
40
0.718131275928988
40
0.721707200809065
40
0.725283125689143
40
0.72885905056922
40
0.736010900329375
40
0.739586825209452
40
0.74316275008953
40
0.750314599849685
40
0.753890524729762
40
0.757466449609839
40
0.761042374489917
40
0.764618299369994
40
0.771770149130149
40
0.775346074010226
40
0.778921998890304
40
0.782497923770381
40
0.786073848650458
40
0.793225698410613
40
0.79680162329069
40
0.800377548170768
40
0.803953473050845
40
0.807529397930922
40
0.814681247691077
40
0.818257172571155
40
0.821833097451232
40
0.825409022331309
40
0.828984947211387
40
0.836136796971542
40
0.839712721851619
40
0.843288646731696
40
0.846864571611774
40
0.850440496491851
40
0.857592346252006
40
0.861168271132083
40
0.864744196012161
40
0.868320120892238
40
0.871896045772315
40
0.875471970652393
40
0.87904789553247
40
0.882623820412547
40
0.886199745292625
40
0.889775670172702
40
0.893351595052779
40
0.896927519932857
40
0.900503444812934
40
0.904079369693012
40
0.907655294573089
40
0.914807144333244
40
0.918383069213321
40
0.921958994093398
40
0.925534918973476
40
0.929110843853553
40
0.93268676873363
40
0.936262693613708
40
0.943414543373863
40
0.94699046825394
40
0.950566393134017
40
0.954142318014095
40
0.957718242894172
40
0.964870092654327
40
0.968446017534404
40
0.972021942414482
40
0.975597867294559
40
0.979173792174636
40
0.982749717054714
40
0.986325641934791
40
0.989901566814869
40
0.993477491694946
40
0.997053416575023
40
1
40
1
40
1
40
1
41
1
10
-2.19999999999996
20
-22.0135196613598
30
0
41
1
10
-2.19999999999996
20
-22.0117275974969
30
0
41
1
10
-2.20000000000002
20
-22.0069596822325
30
0
41
1
10
-2.19999999999999
20
-21.9968726461305
30
0
41
1
10
-2.19999999999999
20
-21.9830583750197
30
0
41
1
10
-2.19999999999999
20
-21.9661971621578
30
0
41
1
10
-2.19999999999999
20
-21.9463373083127
30
0
41
1
10
-2.19999999999999
20
-21.9159230944434
30
0
41
1
10
-2.19999999999999
20
-21.870633664349
30
0
41
1
10
-2.19999999999999
20
-21.8049949078793
30
0
41
1
10
-2.19999999999999
20
-21.7411390111089
30
0
41
1
10
-2.19999999999999
20
-21.6847072709128
30
0
41
1
10
-2.19999999999999
20
-21.6397397481888
30
0
41
1
10
-2.19999999999999
20
-21.5921615264853
30
0
41
1
10
-2.19999999999999
20
-21.5252891523049
30
0
41
1
10
-2.19999999999999
20
-21.453308753177
30
0
41
1
10
-2.19999999999999
20
-21.3763547276269
30
0
41
1
10
-2.19999999999999
20
-21.3161703964091
30
0
41
1
10
-2.19999999999999
20
-21.2535469243879
30
0
41
1
10
-2.19999999999999
20
-21.1885090229233
30
0
41
1
10
-2.19999999999999
20
-21.121080083473
30
0
41
1
10
-2.19999999999999
20
-21.0280237507364
30
0
41
1
10
-2.19999999999999
20
-20.9302657445266
30
0
41
1
10
-2.19999999999999
20
-20.8279188369072
30
0
41
1
10
-2.19999999999999
20
-20.7488739070252
30
0
41
1
10
-2.19999999999999
20
-20.6675681841826
30
0
41
1
10
-2.19999999999999
20
-20.5840212184218
30
0
41
1
10
-2.19999999999999
20
-20.4982502525025
30
0
41
1
10
-2.19999999999999
20
-20.4102747128949
30
0
41
1
10
-2.19999999999999
20
-20.3201119071544
30
0
41
1
10
-2.19999999999999
20
-20.2277776663919
30
0
41
1
10
-2.19999999999999
20
-20.1332899477274
30
0
41
1
10
-2.19999999999999
20
-20.0366642357894
30
0
41
1
10
-2.19999999999999
20
-19.9379151599299
30
0
41
1
10
-2.19999999999999
20
-19.8370591957147
30
0
41
1
10
-2.19999999999999
20
-19.7341102362335
30
0
41
1
10
-2.19999999999999
20
-19.5940778412012
30
0
41
1
10
-2.19999999999999
20
-19.4499005336558
30
0
41
1
10
-2.19999999999999
20
-19.3016622310533
30
0
41
1
10
-2.19999999999999
20
-19.2073184270571
30
0
41
1
10
-2.19999999999999
20
-19.1308417758755
30
0
41
1
10
-2.19999999999999
20
-19.0536957086557
30
0
41
1
10
-2.19999999999999
20
-18.9169360704622
30
0
41
1
10
-2.19999999999999
20
-18.756645794641
30
0
41
1
10
-2.19999999999999
20
-18.5924362845557
30
0
41
1
10
-2.19999999999999
20
-18.4673177976698
30
0
41
1
10
-2.19999999999999
20
-18.3402521463352
30
0
41
1
10
-2.19999999999999
20
-18.1682545122203
30
0
41
1
10
-2.19999999999999
20
-17.9923842356821
30
0
41
1
10
-2.19999999999999
20
-17.8127164551587
30
0
41
1
10
-2.19999999999999
20
-17.6988333809735
30
0
41
1
10
-2.19999999999999
20
-17.606787767091
30
0
41
1
10
-2.19999999999999
20
-17.5141131161323
30
0
41
1
10
-2.19999999999999
20
-17.3502824417036
30
0
41
1
10
-2.19999999999999
20
-17.1592829447589
30
0
41
1
10
-2.19999999999999
20
-16.9645867974536
30
0
41
1
10
-2.19999999999999
20
-16.8167088060477
30
0
41
1
10
-2.19999999999999
20
-16.6669871400996
30
0
41
1
10
-2.19999999999999
20
-16.4649164953067
30
0
41
1
10
-2.19999999999999
20
-16.2591646002876
30
0
41
1
10
-2.19999999999999
20
-16.049802831716
30
0
41
1
10
-2.19999999999999
20
-15.9174340084588
30
0
41
1
10
-2.19999999999999
20
-15.8106442286412
30
0
41
1
10
-2.19999999999999
20
-15.7032538676567
30
0
41
1
10
-2.19999999999999
20
-15.567882396309
30
0
41
1
10
-2.19999999999999
20
-15.4036502143979
30
0
41
1
10
-2.19999999999999
20
-15.2652965264295
30
0
41
1
10
-2.19999999999999
20
-15.1537302031574
30
0
41
1
10
-2.19999999999999
20
-15.0415708470876
30
0
41
1
10
-2.19999999999999
20
-14.90025131083
30
0
41
1
10
-2.19999999999999
20
-14.7289012367181
30
0
41
1
10
-2.19999999999999
20
-14.5557843226631
30
0
41
1
10
-2.19999999999999
20
-14.3809062427341
30
0
41
1
10
-2.19999999999999
20
-14.2042700822291
30
0
41
1
10
-2.19999999999999
20
-14.0258803741545
30
0
41
1
10
-2.19999999999999
20
-13.8457420253844
30
0
41
1
10
-2.19999999999999
20
-13.6638579861817
30
0
41
1
10
-2.19999999999999
20
-13.4802328481714
30
0
41
1
10
-2.19999999999999
20
-13.2948705974071
30
0
41
1
10
-2.19999999999999
20
-13.1077737485311
30
0
41
1
10
-2.19999999999999
20
-12.9189467805057
30
0
41
1
10
-2.19999999999999
20
-12.728392778749
30
0
41
1
10
-2.19999999999999
20
-12.5361142588231
30
0
41
1
10
-2.19999999999999
20
-12.2774598592137
30
0
41
1
10
-2.19999999999999
20
-12.0153352592314
30
0
41
1
10
-2.19999999999999
20
-11.7498207258852
30
0
41
1
10
-2.19999999999999
20
-11.5489655826483
30
0
41
1
10
-2.19999999999999
20
-11.3464032807099
30
0
41
1
10
-2.19999999999999
20
-11.1421359853758
30
0
41
1
10
-2.19999999999999
20
-10.9361655879759
30
0
41
1
10
-2.19999999999999
20
-10.7284950970913
30
0
41
1
10
-2.19999999999999
20
-10.5191258614377
30
0
41
1
10
-2.19999999999999
20
-10.2377184130835
30
0
41
1
10
-2.19999999999999
20
-9.88169304970987
30
0
41
1
10
-2.19999999999999
20
-9.44771865839311
30
0
41
1
10
-2.19999999999999
20
-9.08043848955603
30
0
41
1
10
-2.19999999999999
20
-8.78327689677775
30
0
41
1
10
-2.19999999999999
20
-8.55871419535617
30
0
41
1
10
-2.19999999999999
20
-8.33247380011301
30
0
41
1
10
-2.19999999999999
20
-8.10455852701506
30
0
41
1
10
-2.19999999999999
20
-7.87497060194644
30
0
41
1
10
-2.19999999999999
20
-7.6437128367312
30
0
41
1
10
-2.19999999999999
20
-7.41078884464241
30
0
41
1
10
-2.19999999999999
20
-7.17620220160032
30
0
41
1
10
-2.19999999999999
20
-6.93995692090419
30
0
41
1
10
-2.19999999999999
20
-6.70205758660663
30
0
41
1
10
-2.19999999999999
20
-6.46250918569618
30
0
41
1
10
-2.19999999999999
20
-6.2213178400012
30
0
41
1
10
-2.19999999999999
20
-5.97849049576266
30
0
41
1
10
-2.19999999999999
20
-5.73403521575827
30
0
41
1
10
-2.19999999999999
20
-5.48796107357256
30
0
41
1
10
-2.19999999999999
20
-5.24027911118978
30
0
41
1
10
-2.19999999999999
20
-5.03253661023487
30
0
41
1
10
-2.19999999999999
20
-4.86557359122418
30
0
41
1
10
-2.19999999999999
20
-4.73994908127321
30
0
41
1
10
-2.19999999999999
20
-4.61393371339017
30
0
41
1
10
-2.19999999999999
20
-4.44540774959788
30
0
41
1
10
-2.19999999999999
20
-4.23375652596863
30
0
41
1
10
-2.19999999999999
20
-4.02083961713782
30
0
41
1
10
-2.19999999999999
20
-3.84978439152417
30
0
41
1
10
-2.19999999999999
20
-3.72111342731068
30
0
41
1
10
-2.19999999999999
20
-3.59207749308624
30
0
41
1
10
-2.19999999999999
20
-3.41956369464535
30
0
41
1
10
-2.19999999999999
20
-3.24629481959221
30
0
41
1
10
-2.19999999999999
20
-3.0723836150739
30
0
41
1
10
-2.19999999999999
20
-2.94160046512798
30
0
41
1
10
-2.19999999999999
20
-2.81048647644627
30
0
41
1
10
-2.19999999999999
20
-2.67904892732182
30
0
41
1
10
-2.19999999999999
20
-2.54729562722176
30
0
41
1
10
-2.19999999999999
20
-2.41523551097489
30
0
41
1
10
-2.19999999999999
20
-2.28287740252156
30
0
41
1
10
-2.19999999999999
20
-2.15023166945255
30
0
41
1
10
-2.19999999999999
20
-2.01730873413072
30
0
41
1
10
-2.19999999999999
20
-1.88412021099791
30
0
41
1
10
-2.19999999999999
20
-1.75067841854351
30
0
41
1
10
-2.19999999999999
20
-1.61699634722072
30
0
41
1
10
-2.19999999999999
20
-1.48308821885627
30
0
41
1
10
-2.19999999999999
20
-1.34896859254377
30
0
41
1
10
-2.19999999999999
20
-1.21465350310541
30
0
41
1
10
-2.19999999999999
20
-1.0801592162689
30
0
41
1
10
-2.19999999999999
20
-0.945503442662783
30
0
41
1
10
-2.19999999999999
20
-0.810704113119073
30
0
41
1
10
-2.19999999999999
20
-0.675780421912322
30
0
41
1
10
-2.19999999999999
20
-0.540751787789588
30
0
41
1
10
-2.19999999999999
20
-0.405638599098921
30
0
41
1
10
-2.19999999999999
20
-0.270461428271432
30
0
41
1
10
-2.19999999999999
20
-0.135241462279822
30
0
41
1
10
-2.19999999999999
20
5.3654787E-09
30
0
41
1
10
-2.19999999999999
20
0.135241472589996
30
0
41
1
10
-2.19999999999999
20
0.270461437853925
30
0
41
1
10
-2.19999999999999
20
0.405638608907907
30
0
41
1
10
-2.19999999999999
20
0.540751798686529
30
0
41
1
10
-2.19999999999999
20
0.675780432522174
30
0
41
1
10
-2.19999999999999
20
0.810704122044939
30
0
41
1
10
-2.19999999999999
20
0.945503451789534
30
0
41
1
10
-2.19999999999999
20
1.08015922751395
30
0
41
1
10
-2.19999999999999
20
1.21465351395383
30
0
41
1
10
-2.19999999999999
20
1.34896860046499
30
0
41
1
10
-2.19999999999999
20
1.48308822685564
30
0
41
1
10
-2.19999999999999
20
1.61699635855226
30
0
41
1
10
-2.19999999999999
20
1.75067843002711
30
0
41
1
10
-2.19999999999999
20
1.88412021847037
30
0
41
1
10
-2.19999999999999
20
2.01730874020455
30
0
41
1
10
-2.19999999999999
20
2.15023167925048
30
0
41
1
10
-2.19999999999999
20
2.28287741514001
30
0
41
1
10
-2.19999999999999
20
2.41523552035437
30
0
41
1
10
-2.19999999999999
20
2.54729563151926
30
0
41
1
10
-2.19999999999999
20
2.67904893291683
30
0
41
1
10
-2.19999999999999
20
2.81048648769612
30
0
41
1
10
-2.19999999999999
20
2.94160047796311
30
0
41
1
10
-2.19999999999999
20
3.072383622975
30
0
41
1
10
-2.19999999999999
20
3.24629481975686
30
0
41
1
10
-2.19999999999999
20
3.41956370437865
30
0
41
1
10
-2.19999999999999
20
3.59207750684843
30
0
41
1
10
-2.19999999999999
20
3.72111343644576
30
0
41
1
10
-2.19999999999999
20
3.84978439330678
30
0
41
1
10
-2.19999999999999
20
4.020839617489
30
0
41
1
10
-2.19999999999999
20
4.23375654375474
30
0
41
1
10
-2.19999999999999
20
4.44540775759583
30
0
41
1
10
-2.19999999999999
20
4.61393371339872
30
0
41
1
10
-2.19999999999999
20
4.73994907984499
30
0
41
1
10
-2.19999999999999
20
4.86557359653659
30
0
41
1
10
-2.19999999999999
20
5.03253662624778
30
0
41
1
10
-2.19999999999999
20
5.24027911954084
30
0
41
1
10
-2.19999999999999
20
5.48796106514416
30
0
41
1
10
-2.19999999999999
20
5.73403522651989
30
0
41
1
10
-2.19999999999999
20
5.97849051253721
30
0
41
1
10
-2.19999999999999
20
6.22131783489101
30
0
41
1
10
-2.19999999999999
20
6.46250917346816
30
0
41
1
10
-2.19999999999999
20
6.70205756880287
30
0
41
1
10
-2.19999999999999
20
6.93995689241024
30
0
41
1
10
-2.19999999999999
20
7.17620223308296
30
0
41
1
10
-2.19999999999999
20
7.41078904293681
30
0
41
1
10
-2.19999999999999
20
7.64371312168015
30
0
41
1
10
-2.19999999999999
20
7.87497052861914
30
0
41
1
10
-2.19999999999999
20
8.10455846042146
30
0
41
1
10
-2.19999999999999
20
8.33247384441506
30
0
41
1
10
-2.19999999999999
20
8.55871423477029
30
0
41
1
10
-2.19999999999999
20
8.78327691067398
30
0
41
1
10
-2.19999999999999
20
9.08043846702645
30
0
41
1
10
-2.19999999999999
20
9.44771866001565
30
0
41
1
10
-2.19999999999999
20
9.88169305528194
30
0
41
1
10
-2.19999999999999
20
10.2377183913447
30
0
41
1
10
-2.19999999999999
20
10.5191258633122
30
0
41
1
10
-2.19999999999999
20
10.7284951094206
30
0
41
1
10
-2.19999999999999
20
10.9361655882296
30
0
41
1
10
-2.19999999999999
20
11.1421359694817
30
0
41
1
10
-2.19999999999999
20
11.3464032666245
30
0
41
1
10
-2.19999999999999
20
11.5489655840494
30
0
41
1
10
-2.19999999999999
20
11.7498207382014
30
0
41
1
10
-2.19999999999999
20
12.015335258712
30
0
41
1
10
-2.19999999999999
20
12.277459839655
30
0
41
1
10
-2.19999999999999
20
12.5361142561418
30
0
41
1
10
-2.19999999999999
20
12.7283927892775
30
0
41
1
10
-2.19999999999999
20
12.9189467887917
30
0
41
1
10
-2.19999999999999
20
13.1077737445537
30
0
41
1
10
-2.19999999999999
20
13.2948705838035
30
0
41
1
10
-2.19999999999999
20
13.4802328404438
30
0
41
1
10
-2.19999999999999
20
13.6638579908945
30
0
41
1
10
-2.19999999999999
20
13.845742035678
30
0
41
1
10
-2.19999999999999
20
14.0258803815961
30
0
41
1
10
-2.19999999999999
20
14.2042701267483
30
0
41
1
10
-2.19999999999999
20
14.3809064511142
30
0
41
1
10
-2.19999999999999
20
14.61406817927
30
0
41
1
10
-2.19999999999999
20
14.8437340716545
30
0
41
1
10
-2.19999999999999
20
15.069828938707
30
0
41
1
10
-2.19999999999999
20
15.2935559429894
30
0
41
1
10
-2.19999999999999
20
15.513744330902
30
0
41
1
10
-2.19999999999999
20
15.7303232767805
30
0
41
1
10
-2.19999999999999
20
15.8909649274654
30
0
41
1
10
-2.19999999999999
20
16.0498023362736
30
0
41
1
10
-2.19999999999999
20
16.2591647559547
30
0
41
1
10
-2.19999999999999
20
16.4649171124643
30
0
41
1
10
-2.19999999999999
20
16.666987304737
30
0
41
1
10
-2.19999999999999
20
16.8167085043733
30
0
41
1
10
-2.19999999999999
20
16.9645862898264
30
0
41
1
10
-2.19999999999999
20
17.1592828976246
30
0
41
1
10
-2.19999999999999
20
17.3502835148979
30
0
41
1
10
-2.19999999999999
20
17.5375147595292
30
0
41
1
10
-2.19999999999999
20
17.676060438985
30
0
41
1
10
-2.19999999999999
20
17.8127154575359
30
0
41
1
10
-2.19999999999999
20
17.9923842415009
30
0
41
1
10
-2.19999999999999
20
18.1682547291306
30
0
41
1
10
-2.19999999999999
20
18.3402522143585
30
0
41
1
10
-2.19999999999999
20
18.4673177032107
30
0
41
1
10
-2.19999999999999
20
18.5924361073221
30
0
41
1
10
-2.19999999999999
20
18.7566457425986
30
0
41
1
10
-2.19999999999999
20
18.9169371900015
30
0
41
1
10
-2.19999999999999
20
19.0732305996174
30
0
41
1
10
-2.19999999999999
20
19.1884526890887
30
0
41
1
10
-2.19999999999999
20
19.3016611759423
30
0
41
1
10
-2.19999999999999
20
19.4499005391959
30
0
41
1
10
-2.19999999999999
20
19.5940785255289
30
0
41
1
10
-2.19999999999999
20
19.7341104289282
30
0
41
1
10
-2.19999999999999
20
19.8370589164793
30
0
41
1
10
-2.19999999999999
20
19.9379146863563
30
0
41
1
10
-2.19999999999999
20
20.0366640227898
30
0
41
1
10
-2.19999999999999
20
20.133289903145
30
0
41
1
10
-2.19999999999999
20
20.2277776697998
30
0
41
1
10
-2.19999999999999
20
20.3201119082527
30
0
41
1
10
-2.19999999999999
20
20.4102747220553
30
0
41
1
10
-2.19999999999999
20
20.4982502752196
30
0
41
1
10
-2.19999999999999
20
20.5840212474559
30
0
41
1
10
-2.19999999999999
20
20.6675682022903
30
0
41
1
10
-2.19999999999999
20
20.7488739108727
30
0
41
1
10
-2.19999999999999
20
20.82791883753
30
0
41
1
10
-2.19999999999999
20
20.9302657657864
30
0
41
1
10
-2.19999999999999
20
21.0280237880878
30
0
41
1
10
-2.19999999999999
20
21.1210800961781
30
0
41
1
10
-2.19999999999999
20
21.1885090211437
30
0
41
1
10
-2.19999999999999
20
21.2535469320083
30
0
41
1
10
-2.19999999999999
20
21.3161704250344
30
0
41
1
10
-2.19999999999999
20
21.3763547664481
30
0
41
1
10
-2.19999999999999
20
21.4533087676779
30
0
41
1
10
-2.19999999999999
20
21.5252891448141
30
0
41
1
10
-2.19999999999999
20
21.5921615531195
30
0
41
1
10
-2.19999999999999
20
21.6397397916631
30
0
41
1
10
-2.19999999999999
20
21.6847072964973
30
0
41
1
10
-2.19999999999999
20
21.7411389990572
30
0
41
1
10
-2.19999999999999
20
21.7922265879071
30
0
41
1
10
-2.19999999999999
20
21.8378144981283
30
0
41
1
10
-2.19999999999999
20
21.8692221254414
30
0
41
1
10
-2.19999999999999
20
21.8978063777089
30
0
41
1
10
-2.19999999999999
20
21.9235254752891
30
0
41
1
10
-2.19999999999999
20
21.9463373508774
30
0
41
1
10
-2.19999999999999
20
21.9661972037607
30
0
41
1
10
-2.19999999999999
20
21.9830583809744
30
0
41
1
10
-2.19999999999999
20
21.9968726399857
30
0
41
1
10
-2.19999999999999
20
22.006960001232
30
0
41
1
10
-2.19999999999999
20
22.0117281313848
30
0
41
1
10
-2.19999999999999
20
22.0135203398688
30
0
0
SPLINE
5
184
100
AcDbEntity
8
SK1
62
256
6
ByLayer
370
18
48
1
60
0
100
AcDbSpline
70
4
71
3
72
303
73
299
40
0
40
0
40
0
40
0
40
0.0005133324326319
40
0.0040062488036194
40
0.0074991651746069
40
0.0109920815455943
40
0.0144849979165819
40
0.0179779142875694
40
0.0214708306585569
40
0.0249637470295444
40
0.0284566634005319
40
0.0319495797715194
40
0.0389354125134944
40
0.0459212452554694
40
0.0529070779974444
40
0.0563999943684319
40
0.0598929107394194
40
0.0633858271104069
40
0.0668787434813944
40
0.0738645762233694
40
0.0773574925943569
40
0.0808504089653445
40
0.084343325336332
40
0.0878362417073195
40
0.0913291580783069
40
0.0948220744492944
40
0.10180790719127
40
0.105300823562257
40
0.108793739933244
40
0.112286656304232
40
0.115779572675219
40
0.119272489046207
40
0.122765405417194
40
0.126258321788182
40
0.12975123815917
40
0.133244154530157
40
0.136737070901145
40
0.140229987272132
40
0.143722903643119
40
0.147215820014107
40
0.150708736385094
40
0.15769456912707
40
0.161187485498057
40
0.164680401869045
40
0.166426860054538
40
0.168173318240032
40
0.17166623461102
40
0.178652067352994
40
0.182144983723982
40
0.185637900094969
40
0.189130816465957
40
0.192623732836944
40
0.19960956557892
40
0.203102481949907
40
0.206595398320894
40
0.208341856506388
40
0.210088314691882
40
0.213581231062869
40
0.220567063804845
40
0.224059980175832
40
0.22755289654682
40
0.231045812917807
40
0.234538729288795
40
0.24152456203077
40
0.245017478401757
40
0.248510394772745
40
0.250256852958238
40
0.252003311143732
40
0.25549622751472
40
0.258989143885707
40
0.262482060256695
40
0.264228518442188
40
0.265974976627682
40
0.26946789299867
40
0.272960809369657
40
0.276453725740645
40
0.279946642111632
40
0.28343955848262
40
0.286932474853607
40
0.290425391224595
40
0.293918307595582
40
0.29741122396657
40
0.300904140337557
40
0.304397056708545
40
0.307889973079532
40
0.31138288945052
40
0.314875805821507
40
0.318368722192495
40
0.32535455493447
40
0.328847471305457
40
0.332340387676445
40
0.335833304047432
40
0.33932622041842
40
0.342819136789407
40
0.346312053160395
40
0.349804969531382
40
0.35329788590237
40
0.360283718644345
40
0.36726955138632
40
0.374255384128295
40
0.377748300499282
40
0.38124121687027
40
0.384734133241257
40
0.388227049612245
40
0.391719965983232
40
0.39521288235422
40
0.398705798725207
40
0.402198715096195
40
0.405691631467182
40
0.40918454783817
40
0.412677464209157
40
0.416170380580145
40
0.419663296951132
40
0.42315621332212
40
0.426649129693107
40
0.430142046064095
40
0.433634962435082
40
0.435381420620576
40
0.43712787880607
40
0.438874336991563
40
0.440620795177057
40
0.444113711548045
40
0.447606627919032
40
0.449353086104526
40
0.45109954429002
40
0.452846002475513
40
0.454592460661007
40
0.458085377031995
40
0.459831835217489
40
0.461578293402982
40
0.463324751588476
40
0.46507120977397
40
0.466817667959464
40
0.468564126144957
40
0.470310584330451
40
0.472057042515945
40
0.473803500701439
40
0.475549958886932
40
0.477296417072426
40
0.47904287525792
40
0.480789333443414
40
0.482535791628907
40
0.484282249814401
40
0.486028707999895
40
0.487775166185389
40
0.489521624370882
40
0.491268082556376
40
0.49301454074187
40
0.494760998927364
40
0.496507457112857
40
0.498253915298351
40
0.500000373483845
40
0.501746831669339
40
0.503493289854832
40
0.505239748040326
40
0.50698620622582
40
0.508732664411314
40
0.510479122596807
40
0.512225580782301
40
0.513972038967795
40
0.515718497153289
40
0.517464955338782
40
0.519211413524276
40
0.52095787170977
40
0.522704329895264
40
0.524450788080757
40
0.526197246266251
40
0.527943704451745
40
0.529690162637239
40
0.531436620822732
40
0.533183079008226
40
0.53492953719372
40
0.536675995379214
40
0.538422453564707
40
0.540168911750201
40
0.541915369935695
40
0.545408286306682
40
0.547154744492176
40
0.54890120267767
40
0.550647660863164
40
0.552394119048657
40
0.555887035419645
40
0.559379951790633
40
0.561126409976126
40
0.56287286816162
40
0.564619326347114
40
0.566365784532608
40
0.569858700903595
40
0.573351617274583
40
0.57684453364557
40
0.580337450016558
40
0.583830366387545
40
0.587323282758532
40
0.59081619912952
40
0.594309115500508
40
0.597802031871495
40
0.601294948242483
40
0.60478786461347
40
0.608280780984457
40
0.611773697355445
40
0.615266613726433
40
0.61875953009742
40
0.622252446468408
40
0.625745362839395
40
0.63273119558137
40
0.639717028323345
40
0.64670286106532
40
0.650195777436308
40
0.653688693807295
40
0.657181610178283
40
0.66067452654927
40
0.664167442920258
40
0.667660359291245
40
0.671153275662232
40
0.67464619203322
40
0.681632024775195
40
0.685124941146183
40
0.68861785751717
40
0.692110773888158
40
0.695603690259145
40
0.699096606630133
40
0.70258952300112
40
0.706082439372107
40
0.709575355743095
40
0.713068272114083
40
0.71656118848507
40
0.720054104856058
40
0.723547021227045
40
0.73053285396902
40
0.734025770340008
40
0.737518686710995
40
0.74450451945297
40
0.747997435823958
40
0.751490352194945
40
0.754983268565933
40
0.75847618493692
40
0.765462017678895
40
0.768954934049883
40
0.77244785042087
40
0.775940766791858
40
0.779433683162845
40
0.78641951590482
40
0.789912432275808
40
0.793405348646795
40
0.796898265017783
40
0.80039118138877
40
0.807377014130745
40
0.810869930501733
40
0.81436284687272
40
0.817855763243708
40
0.821348679614695
40
0.82833451235667
40
0.831827428727658
40
0.835320345098645
40
0.838813261469633
40
0.84230617784062
40
0.849292010582595
40
0.852784926953583
40
0.85627784332457
40
0.859770759695558
40
0.863263676066545
40
0.866756592437533
40
0.87024950880852
40
0.873742425179508
40
0.877235341550495
40
0.880728257921483
40
0.88422117429247
40
0.887714090663458
40
0.891207007034445
40
0.894699923405433
40
0.89819283977642
40
0.905178672518395
40
0.908671588889383
40
0.91216450526037
40
0.915657421631358
40
0.919150338002345
40
0.922643254373333
40
0.92613617074432
40
0.933122003486296
40
0.936614919857283
40
0.94010783622827
40
0.943600752599258
40
0.947093668970245
40
0.954079501712221
40
0.957572418083208
40
0.961065334454195
40
0.964558250825183
40
0.968051167196171
40
0.971544083567158
40
0.975036999938145
40
0.978529916309133
40
0.98202283268012
40
0.985515749051108
40
0.989008665422096
40
0.992501581793083
40
0.995994498164071
40
0.999487414535058
40
1
40
1
40
1
40
1
41
1
10
-36.5
20
-21.1555776203101
30
0
41
1
10
-36.5
20
-21.1557858291999
30
0
41
1
10
-36.5
20
-21.1573191532951
30
0
41
1
10
-36.5
20
-21.1588544331657
30
0
41
1
10
-36.5
20
-21.1578038223016
30
0
41
1
10
-36.5
20
-21.1536126358382
30
0
41
1
10
-36.5
20
-21.1463317213717
30
0
41
1
10
-36.5
20
-21.1360112678938
30
0
41
1
10
-36.5
20
-21.1226986497682
30
0
41
1
10
-36.5
20
-21.1064402158535
30
0
41
1
10
-36.5
20
-21.0872797426226
30
0
41
1
10
-36.5
20
-21.0578537406018
30
0
41
1
10
-36.5
20
-21.0141777773224
30
0
41
1
10
-36.5
20
-20.950713074722
30
0
41
1
10
-36.5
20
-20.8890285612071
30
0
41
1
10
-36.5
20
-20.8342802658871
30
0
41
1
10
-36.5
20
-20.7907267804185
30
0
41
1
10
-36.5
20
-20.7446291690672
30
0
41
1
10
-36.5
20
-20.6796864194097
30
0
41
1
10
-36.5
20
-20.6101652524536
30
0
41
1
10
-36.5
20
-20.5353747251341
30
0
41
1
10
-36.5
20
-20.4769783324059
30
0
41
1
10
-36.5
20
-20.4161995895792
30
0
41
1
10
-36.5
20
-20.3530628196555
30
0
41
1
10
-36.5
20
-20.2875896826626
30
0
41
1
10
-36.5
20
-20.1970436182683
30
0
41
1
10
-36.5
20
-20.1024192722933
30
0
41
1
10
-36.5
20
-20.0027815031752
30
0
41
1
10
-36.5
20
-19.9259535572617
30
0
41
1
10
-36.5
20
-19.8469141355251
30
0
41
1
10
-36.5
20
-19.7656833730651
30
0
41
1
10
-36.5
20
-19.6822775189499
30
0
41
1
10
-36.5
20
-19.5967148149262
30
0
41
1
10
-36.5
20
-19.5090135394173
30
0
41
1
10
-36.5
20
-19.4191882696517
30
0
41
1
10
-36.5
20
-19.3272561697677
30
0
41
1
10
-36.5
20
-19.2332338822713
30
0
41
1
10
-36.5
20
-19.1371346902892
30
0
41
1
10
-36.5
20
-19.0389746878943
30
0
41
1
10
-36.5
20
-18.9387689752275
30
0
41
1
10
-36.5
20
-18.8022215100789
30
0
41
1
10
-36.5
20
-18.6623317385554
30
0
41
1
10
-36.5
20
-18.5177544284038
30
0
41
1
10
-36.5
20
-18.4260133905722
30
0
41
1
10
-36.5
20
-18.3514175898237
30
0
41
1
10
-36.5
20
-18.2761667145511
30
0
41
1
10
-36.5
20
-18.1428549391526
30
0
41
1
10
-36.5
20
-17.987269645424
30
0
41
1
10
-36.5
20
-17.8270700659299
30
0
41
1
10
-36.5
20
-17.705205542109
30
0
41
1
10
-36.5
20
-17.5814423770725
30
0
41
1
10
-36.5
20
-17.4136311437529
30
0
41
1
10
-36.5
20
-17.2428939764416
30
0
41
1
10
-36.5
20
-17.0675963011875
30
0
41
1
10
-36.5
20
-16.9568152899196
30
0
41
1
10
-36.5
20
-16.867008999151
30
0
41
1
10
-36.5
20
-16.7765898513273
30
0
41
1
10
-36.5
20
-16.6168596157572
30
0
41
1
10
-36.5
20
-16.4314438788638
30
0
41
1
10
-36.5
20
-16.2414991337765
30
0
41
1
10
-36.5
20
-16.097474719741
30
0
41
1
10
-36.5
20
-15.9516616651348
30
0
41
1
10
-36.5
20
-15.7545445351489
30
0
41
1
10
-36.5
20
-15.5548613446891
30
0
41
1
10
-36.5
20
-15.350663385132
30
0
41
1
10
-36.5
20
-15.2219600388738
30
0
41
1
10
-36.5
20
-15.1178164480938
30
0
41
1
10
-36.5
20
-15.0130920883853
30
0
41
1
10
-36.5
20
-14.8814910451208
30
0
41
1
10
-36.5
20
-14.7216281332594
30
0
41
1
10
-36.5
20
-14.5871530954062
30
0
41
1
10
-36.5
20
-14.4783873813363
30
0
41
1
10
-36.5
20
-14.3690494022437
30
0
41
1
10
-36.5
20
-14.2317235183089
30
0
41
1
10
-36.5
20
-14.0650028858775
30
0
41
1
10
-36.5
20
-13.8965816080865
30
0
41
1
10
-36.5
20
-13.7264689694465
30
0
41
1
10
-36.5
20
-13.5546710496343
30
0
41
1
10
-36.5
20
-13.3811910773122
30
0
41
1
10
-36.5
20
-13.2060373742643
30
0
41
1
10
-36.5
20
-13.0292149133303
30
0
41
1
10
-36.5
20
-12.850728177302
30
0
41
1
10
-36.5
20
-12.6705857874604
30
0
41
1
10
-36.5
20
-12.4887914218501
30
0
41
1
10
-36.5
20
-12.3053503484466
30
0
41
1
10
-36.5
20
-12.1202706879328
30
0
41
1
10
-36.5
20
-11.9335555855444
30
0
41
1
10
-36.5
20
-11.6819759204348
30
0
41
1
10
-36.5
20
-11.4285505376587
30
0
41
1
10
-36.5
20
-11.1704660874499
30
0
41
1
10
-36.5
20
-10.9756651586938
30
0
41
1
10
-36.5
20
-10.7792636737398
30
0
41
1
10
-36.5
20
-10.5812696725585
30
0
41
1
10
-36.5
20
-10.3816871154457
30
0
41
1
10
-36.5
20
-10.180523710493
30
0
41
1
10
-36.5
20
-9.97778558435027
30
0
41
1
10
-36.5
20
-9.70483576808863
30
0
41
1
10
-36.5
20
-9.36101276272154
30
0
41
1
10
-36.5
20
-8.94153438933262
30
0
41
1
10
-36.5
20
-8.58745787193689
30
0
41
1
10
-36.5
20
-8.30004464023602
30
0
41
1
10
-36.5
20
-8.08346950394389
30
0
41
1
10
-36.5
20
-7.86540102208471
30
0
41
1
10
-36.5
20
-7.64585131899614
30
0
41
1
10
-36.5
20
-7.42483318088833
30
0
41
1
10
-36.5
20
-7.20235735193418
30
0
41
1
10
-36.5
20
-6.97843755879967
30
0
41
1
10
-36.5
20
-6.75308981071325
30
0
41
1
10
-36.5
20
-6.52633035082275
30
0
41
1
10
-36.5
20
-6.29817753233076
30
0
41
1
10
-36.5
20
-6.06865022444896
30
0
41
1
10
-36.5
20
-5.83776884649416
30
0
41
1
10
-36.5
20
-5.60555660448858
30
0
41
1
10
-36.5
20
-5.37203985998678
30
0
41
1
10
-36.5
20
-5.13724579696881
30
0
41
1
10
-36.5
20
-4.90120595303733
30
0
41
1
10
-36.5
20
-4.70396583147402
30
0
41
1
10
-36.5
20
-4.54469638576828
30
0
41
1
10
-36.5
20
-4.42533999597055
30
0
41
1
10
-36.5
20
-4.30569972295402
30
0
41
1
10
-36.5
20
-4.14529336499854
30
0
41
1
10
-36.5
20
-3.94531865595207
30
0
41
1
10
-36.5
20
-3.74444957084984
30
0
41
1
10
-36.5
20
-3.58224076117995
30
0
41
1
10
-36.5
20
-3.46078958963508
30
0
41
1
10
-36.5
20
-3.33910702605104
30
0
41
1
10
-36.5
20
-3.17597085922341
30
0
41
1
10
-36.5
20
-3.01425651604552
30
0
41
1
10
-36.5
20
-2.85023149996007
30
0
41
1
10
-36.5
20
-2.72752154931175
30
0
41
1
10
-36.5
20
-2.60463052157442
30
0
41
1
10
-36.5
20
-2.48157378937663
30
0
41
1
10
-36.5
20
-2.35835621123036
30
0
41
1
10
-36.5
20
-2.23499061660053
30
0
41
1
10
-36.5
20
-2.11148761081347
30
0
41
1
10
-36.5
20
-1.9878545152765
30
0
41
1
10
-36.5
20
-1.86410632124094
30
0
41
1
10
-36.5
20
-1.74024827700825
30
0
41
1
10
-36.5
20
-1.61629526151512
30
0
41
1
10
-36.5
20
-1.49225310041959
30
0
41
1
10
-36.5
20
-1.3681347814894
30
0
41
1
10
-36.5
20
-1.2439473222278
30
0
41
1
10
-36.5
20
-1.11970117534864
30
0
41
1
10
-36.5
20
-0.995403485642782
30
0
41
1
10
-36.5
20
-0.8710629170684
30
0
41
1
10
-36.5
20
-0.746686102657719
30
0
41
1
10
-36.5
20
-0.622280124115576
30
0
41
1
10
-36.5
20
-0.497850420758397
30
0
41
1
10
-36.5
20
-0.373402935182185
30
0
41
1
10
-36.5
20
-0.248942238793148
30
0
41
1
10
-36.5
20
-0.124473257200918
30
0
41
1
10
-36.5
20
-9.2462358E-09
30
0
41
1
10
-36.5
20
0.124473254673973
30
0
41
1
10
-36.5
20
0.248942266430618
30
0
41
1
10
-36.5
20
0.373402960091425
30
0
41
1
10
-36.5
20
0.497850400790554
30
0
41
1
10
-36.5
20
0.622280094010847
30
0
41
1
10
-36.5
20
0.746686131491799
30
0
41
1
10
-36.5
20
0.871062970095124
30
0
41
1
10
-36.5
20
0.995403468230791
30
0
41
1
10
-36.5
20
1.11970111692671
30
0
41
1
10
-36.5
20
1.24394734076813
30
0
41
1
10
-36.5
20
1.36813486147517
30
0
41
1
10
-36.5
20
1.49225310642996
30
0
41
1
10
-36.5
20
1.61629518356963
30
0
41
1
10
-36.5
20
1.7402482546413
30
0
41
1
10
-36.5
20
1.86410640329151
30
0
41
1
10
-36.5
20
1.98785458048855
30
0
41
1
10
-36.5
20
2.11148756075909
30
0
41
1
10
-36.5
20
2.2349905278607
30
0
41
1
10
-36.5
20
2.3583562279822
30
0
41
1
10
-36.5
20
2.48157389743918
30
0
41
1
10
-36.5
20
2.60463057106841
30
0
41
1
10
-36.5
20
2.72752148004804
30
0
41
1
10
-36.5
20
2.8502314065623
30
0
41
1
10
-36.5
20
3.01425656877106
30
0
41
1
10
-36.5
20
3.17597095993784
30
0
41
1
10
-36.5
20
3.33910698167958
30
0
41
1
10
-36.5
20
3.46078948211164
30
0
41
1
10
-36.5
20
3.58224072191865
30
0
41
1
10
-36.5
20
3.74444967050349
30
0
41
1
10
-36.5
20
3.94531869048151
30
0
41
1
10
-36.5
20
4.14529326648051
30
0
41
1
10
-36.5
20
4.30569969171862
30
0
41
1
10
-36.5
20
4.42534006396792
30
0
41
1
10
-36.5
20
4.54469650094606
30
0
41
1
10
-36.5
20
4.70396584910503
30
0
41
1
10
-36.5
20
4.90120586463618
30
0
41
1
10
-36.5
20
5.1372458114655
30
0
41
1
10
-36.5
20
5.37203995090806
30
0
41
1
10
-36.5
20
5.6055565552935
30
0
41
1
10
-36.5
20
5.83776875015039
30
0
41
1
10
-36.5
20
6.06865017711209
30
0
41
1
10
-36.5
20
6.29817748211653
30
0
41
1
10
-36.5
20
6.52633051401983
30
0
41
1
10
-36.5
20
6.75309051279777
30
0
41
1
10
-36.5
20
6.97843834484934
30
0
41
1
10
-36.5
20
7.20235684280954
30
0
41
1
10
-36.5
20
7.42483229470756
30
0
41
1
10
-36.5
20
7.64585158611581
30
0
41
1
10
-36.5
20
7.86540128403743
30
0
41
1
10
-36.5
20
8.08346945831602
30
0
41
1
10
-36.5
20
8.30004452993893
30
0
41
1
10
-36.5
20
8.58745782596952
30
0
41
1
10
-36.5
20
8.94153442741853
30
0
41
1
10
-36.5
20
9.36101273737586
30
0
41
1
10
-36.5
20
9.70483575174822
30
0
41
1
10
-36.5
20
9.97778564072317
30
0
41
1
10
-36.5
20
10.18052371466
30
0
41
1
10
-36.5
20
10.3816870614505
30
0
41
1
10
-36.5
20
10.5812696339219
30
0
41
1
10
-36.5
20
10.7792636942327
30
0
41
1
10
-36.5
20
10.9756652058486
30
0
41
1
10
-36.5
20
11.1704660987636
30
0
41
1
10
-36.5
20
11.4285504962004
30
0
41
1
10
-36.5
20
11.6819759007756
30
0
41
1
10
-36.5
20
11.9335556252714
30
0
41
1
10
-36.5
20
12.1202707134412
30
0
41
1
10
-36.5
20
12.3053503320752
30
0
41
1
10
-36.5
20
12.4887913848281
30
0
41
1
10
-36.5
20
12.6705857704289
30
0
41
1
10
-36.5
20
12.8507281979538
30
0
41
1
10
-36.5
20
13.0292149436137
30
0
41
1
10
-36.5
20
13.2060373895955
30
0
41
1
10
-36.5
20
13.3811911431361
30
0
41
1
10
-36.5
20
13.5546713888901
30
0
41
1
10
-36.5
20
13.7264696827894
30
0
41
1
10
-36.5
20
13.9536769173599
30
0
41
1
10
-36.5
20
14.176348576809
30
0
41
1
10
-36.5
20
14.3967384349214
30
0
41
1
10
-36.5
20
14.6148460432235
30
0
41
1
10
-36.5
20
14.8284315021107
30
0
41
1
10
-36.5
20
15.0396227184095
30
0
41
1
10
-36.5
20
15.1960147192182
30
0
41
1
10
-36.5
20
15.3506631330604
30
0
41
1
10
-36.5
20
15.5548624364723
30
0
41
1
10
-36.5
20
15.7545451164335
30
0
41
1
10
-36.5
20
15.9516609547094
30
0
41
1
10
-36.5
20
16.0974737380165
30
0
41
1
10
-36.5
20
16.241498813278
30
0
41
1
10
-36.5
20
16.4314450331352
30
0
41
1
10
-36.5
20
16.6168608854212
30
0
41
1
10
-36.5
20
16.7995343923806
30
0
41
1
10
-36.5
20
16.9344844206004
30
0
41
1
10
-36.5
20
17.0675955495038
30
0
41
1
10
-36.5
20
17.2428947983014
30
0
41
1
10
-36.5
20
17.4136313821348
30
0
41
1
10
-36.5
20
17.5814422063202
30
0
41
1
10
-36.5
20
17.7052052466277
30
0
41
1
10
-36.5
20
17.827069915531
30
0
41
1
10
-36.5
20
17.9872703841193
30
0
41
1
10
-36.5
20
18.1428562465544
30
0
41
1
10
-36.5
20
18.2953166794047
30
0
41
1
10
-36.5
20
18.4075180436267
30
0
41
1
10
-36.5
20
18.5177535555592
30
0
41
1
10
-36.5
20
18.6623326618876
30
0
41
1
10
-36.5
20
18.8022222651529
30
0
41
1
10
-36.5
20
18.9387686023437
30
0
41
1
10
-36.5
20
19.0389739868785
30
0
41
1
10
-36.5
20
19.1371342717784
30
0
41
1
10
-36.5
20
19.2332339353276
30
0
41
1
10
-36.5
20
19.3272562516113
30
0
41
1
10
-36.5
20
19.4191882978898
30
0
41
1
10
-36.5
20
19.5090135437133
30
0
41
1
10
-36.5
20
19.5967148362678
30
0
41
1
10
-36.5
20
19.6822775521962
30
0
41
1
10
-36.5
20
19.7656833992675
30
0
41
1
10
-36.5
20
19.8469141406672
30
0
41
1
10
-36.5
20
19.9259535527381
30
0
41
1
10
-36.5
20
20.0027815100322
30
0
41
1
10
-36.5
20
20.1024193061391
30
0
41
1
10
-36.5
20
20.1970436522849
30
0
41
1
10
-36.5
20
20.287589681624
30
0
41
1
10
-36.5
20
20.353062816238
30
0
41
1
10
-36.5
20
20.4161996091987
30
0
41
1
10
-36.5
20
20.4769783724375
30
0
41
1
10
-36.5
20
20.5353747607017
30
0
41
1
10
-36.5
20
20.6101652553123
30
0
41
1
10
-36.5
20
20.6796864153796
30
0
41
1
10
-36.5
20
20.7446292080422
30
0
41
1
10
-36.5
20
20.7907268231739
30
0
41
1
10
-36.5
20
20.8342802793506
30
0
41
1
10
-36.5
20
20.8890285523336
30
0
41
1
10
-36.5
20
20.9382580424269
30
0
41
1
10
-36.5
20
20.9824409225429
30
0
41
1
10
-36.5
20
21.0128017234864
30
0
41
1
10
-36.5
20
21.0404207944711
30
0
41
1
10
-36.5
20
21.0652596303332
30
0
41
1
10
-36.5
20
21.0872797892674
30
0
41
1
10
-36.5
20
21.1064402531507
30
0
41
1
10
-36.5
20
21.1226986516191
30
0
41
1
10
-36.5
20
21.1360112646484
30
0
41
1
10
-36.5
20
21.1463317710584
30
0
41
1
10
-36.5
20
21.1536128319466
30
0
41
1
10
-36.5
20
21.1578041644649
30
0
41
1
10
-36.5
20
21.1588543296933
30
0
41
1
10
-36.5
20
21.1573189681008
30
0
41
1
10
-36.5
20
21.1557860171822
30
0
41
1
10
-36.5
20
21.1555781409198
30
0
0
SPLINE
5
185
100
AcDbEntity
8
SK1
62
256
6
ByLayer
370
18
48
1
60
0
100
AcDbSpline
70
4
71
3
72
299
73
295
40
0
40
0
40
0
40
0
40
0.0032949303075855
40
0.0068176576085524
40
0.0103403849095193
40
0.0138631122104862
40
0.0173858395114531
40
0.02090856681242
40
0.0244312941133869
40
0.0279540214143538
40
0.0349994760162876
40
0.0420449306182214
40
0.0490903852201551
40
0.052613112521122
40
0.0561358398220889
40
0.0596585671230558
40
0.0631812944240227
40
0.0702267490259565
40
0.0737494763269234
40
0.0772722036278903
40
0.0807949309288572
40
0.0843176582298241
40
0.087840385530791
40
0.0913631128317579
40
0.0984085674336917
40
0.101931294734659
40
0.105454022035625
40
0.108976749336592
40
0.112499476637559
40
0.116022203938526
40
0.119544931239493
40
0.12306765854046
40
0.126590385841427
40
0.130113113142394
40
0.133635840443361
40
0.137158567744327
40
0.140681295045294
40
0.144204022346261
40
0.147726749647228
40
0.154772204249162
40
0.158294931550129
40
0.161817658851096
40
0.163579022501579
40
0.165340386152063
40
0.16886311345303
40
0.175908568054963
40
0.17943129535593
40
0.182954022656897
40
0.186476749957864
40
0.189999477258831
40
0.197044931860765
40
0.200567659161732
40
0.204090386462698
40
0.205851750113182
40
0.207613113763665
40
0.211135841064632
40
0.218181295666566
40
0.221704022967533
40
0.2252267502685
40
0.228749477569467
40
0.232272204870434
40
0.239317659472367
40
0.242840386773334
40
0.246363114074301
40
0.248124477724785
40
0.249885841375268
40
0.253408568676235
40
0.256931295977202
40
0.260454023278169
40
0.262215386928652
40
0.263976750579136
40
0.267499477880102
40
0.271022205181069
40
0.274544932482036
40
0.278067659783003
40
0.28159038708397
40
0.285113114384937
40
0.288635841685904
40
0.292158568986871
40
0.295681296287838
40
0.299204023588804
40
0.302726750889771
40
0.306249478190738
40
0.309772205491705
40
0.313294932792672
40
0.316817660093639
40
0.323863114695573
40
0.32738584199654
40
0.330908569297507
40
0.334431296598473
40
0.33795402389944
40
0.341476751200407
40
0.344999478501374
40
0.348522205802341
40
0.352044933103308
40
0.359090387705242
40
0.366135842307176
40
0.373181296909109
40
0.376704024210076
40
0.380226751511043
40
0.38374947881201
40
0.387272206112977
40
0.390794933413944
40
0.394317660714911
40
0.397840388015878
40
0.401363115316844
40
0.404885842617811
40
0.408408569918778
40
0.411931297219745
40
0.415454024520712
40
0.418976751821679
40
0.422499479122646
40
0.426022206423613
40
0.42954493372458
40
0.433067661025547
40
0.43482902467603
40
0.436590388326513
40
0.438351751976997
40
0.44011311562748
40
0.443635842928447
40
0.447158570229414
40
0.448919933879897
40
0.450681297530381
40
0.452442661180864
40
0.454204024831348
40
0.457726752132315
40
0.459488115782798
40
0.461249479433282
40
0.463010843083765
40
0.464772206734249
40
0.466533570384732
40
0.468294934035215
40
0.470056297685699
40
0.471817661336182
40
0.473579024986666
40
0.475340388637149
40
0.477101752287633
40
0.478863115938116
40
0.4806244795886
40
0.482385843239083
40
0.484147206889566
40
0.48590857054005
40
0.487669934190533
40
0.489431297841017
40
0.4911926614915
40
0.492954025141984
40
0.494715388792467
40
0.496476752442951
40
0.498238116093434
40
0.499999479743918
40
0.501760843394401
40
0.503522207044884
40
0.505283570695368
40
0.507044934345851
40
0.508806297996335
40
0.510567661646818
40
0.512329025297302
40
0.514090388947785
40
0.515851752598269
40
0.517613116248752
40
0.519374479899235
40
0.521135843549719
40
0.522897207200202
40
0.524658570850686
40
0.526419934501169
40
0.528181298151653
40
0.529942661802136
40
0.53170402545262
40
0.533465389103103
40
0.535226752753586
40
0.53698811640407
40
0.538749480054553
40
0.540510843705037
40
0.54227220735552
40
0.545794934656487
40
0.547556298306971
40
0.549317661957454
40
0.551079025607937
40
0.552840389258421
40
0.556363116559388
40
0.559885843860355
40
0.561647207510838
40
0.563408571161321
40
0.565169934811805
40
0.566931298462289
40
0.570454025763255
40
0.573976753064222
40
0.577499480365189
40
0.581022207666156
40
0.584544934967123
40
0.58806766226809
40
0.591590389569057
40
0.595113116870024
40
0.59863584417099
40
0.602158571471957
40
0.605681298772924
40
0.609204026073891
40
0.612726753374858
40
0.616249480675825
40
0.619772207976792
40
0.623294935277759
40
0.626817662578726
40
0.633863117180659
40
0.640908571782593
40
0.647954026384527
40
0.651476753685494
40
0.654999480986461
40
0.658522208287428
40
0.662044935588395
40
0.665567662889361
40
0.669090390190328
40
0.672613117491295
40
0.676135844792262
40
0.683181299394196
40
0.686704026695163
40
0.69022675399613
40
0.693749481297097
40
0.697272208598063
40
0.70079493589903
40
0.704317663199997
40
0.707840390500964
40
0.711363117801931
40
0.714885845102898
40
0.718408572403865
40
0.721931299704832
40
0.725454027005799
40
0.732499481607732
40
0.736022208908699
40
0.739544936209666
40
0.7465903908116
40
0.750113118112567
40
0.753635845413534
40
0.757158572714501
40
0.760681300015468
40
0.767726754617401
40
0.771249481918368
40
0.774772209219335
40
0.778294936520302
40
0.781817663821269
40
0.788863118423203
40
0.79238584572417
40
0.795908573025137
40
0.799431300326103
40
0.80295402762707
40
0.809999482229004
40
0.813522209529971
40
0.817044936830938
40
0.820567664131905
40
0.824090391432872
40
0.831135846034806
40
0.834658573335772
40
0.838181300636739
40
0.841704027937706
40
0.845226755238673
40
0.852272209840607
40
0.855794937141574
40
0.859317664442541
40
0.862840391743507
40
0.866363119044474
40
0.869885846345441
40
0.873408573646408
40
0.876931300947375
40
0.880454028248342
40
0.883976755549309
40
0.887499482850276
40
0.891022210151243
40
0.89454493745221
40
0.898067664753176
40
0.901590392054143
40
0.908635846656077
40
0.912158573957044
40
0.915681301258011
40
0.919204028558978
40
0.922726755859945
40
0.926249483160911
40
0.929772210461878
40
0.936817665063812
40
0.940340392364779
40
0.943863119665746
40
0.947385846966713
40
0.95090857426768
40
0.957954028869614
40
0.96147675617058
40
0.964999483471547
40
0.968522210772514
40
0.972044938073481
40
0.975567665374448
40
0.979090392675415
40
0.982613119976382
40
0.986135847277349
40
0.989658574578316
40
0.993181301879282
40
0.996704029180249
40
1
40
1
40
1
40
1
41
1
10
-1.99503997793928
20
-21.8251672724193
30
0
41
1
10
-1.99503997793928
20
-21.8252770350155
30
0
41
1
10
-1.99503997793931
20
-21.8245105437466
30
0
41
1
10
-1.99503997793928
20
-21.8202836860757
30
0
41
1
10
-1.99503997793928
20
-21.812783044142
30
0
41
1
10
-1.99503997793928
20
-21.8021565364934
30
0
41
1
10
-1.99503997793928
20
-21.7884557330328
30
0
41
1
10
-1.99503997793928
20
-21.7717308612526
30
0
41
1
10
-1.99503997793928
20
-21.7520291985819
30
0
41
1
10
-1.99503997793928
20
-21.7218385059106
30
0
41
1
10
-1.99503997793928
20
-21.6769140218914
30
0
41
1
10
-1.99503997793928
20
-21.6117670092986
30
0
41
1
10
-1.99503997793928
20
-21.5484022523455
30
0
41
1
10
-1.99503997793928
20
-21.4923512863894
30
0
41
1
10
-1.99503997793928
20
-21.4477036012609
30
0
41
1
10
-1.99503997793928
20
-21.4004602751572
30
0
41
1
10
-1.99503997793928
20
-21.3340243579833
30
0
41
1
10
-1.99503997793928
20
-21.2626002065085
30
0
41
1
10
-1.99503997793928
20
-21.1861355372814
30
0
41
1
10
-1.99503997793928
20
-21.126355615456
30
0
41
1
10
-1.99503997793928
20
-21.0641493981766
30
0
41
1
10
-1.99503997793928
20
-20.9995415089612
30
0
41
1
10
-1.99503997793928
20
-20.9325549476398
30
0
41
1
10
-1.99503997793928
20
-20.8400664063016
30
0
41
1
10
-1.99503997793928
20
-20.7430171949632
30
0
41
1
10
-1.99503997793928
20
-20.6412830606924
30
0
41
1
10
-1.99503997793928
20
-20.5627395849404
30
0
41
1
10
-1.99503997793928
20
-20.4819464711493
30
0
41
1
10
-1.99503997793928
20
-20.3989234016943
30
0
41
1
10
-1.99503997793928
20
-20.3136873945745
30
0
41
1
10
-1.99503997793928
20
-20.2262576082901
30
0
41
1
10
-1.99503997793928
20
-20.136651569995
30
0
41
1
10
-1.99503997793928
20
-20.0448848271876
30
0
41
1
10
-1.99503997793928
20
-19.9509751576252
30
0
41
1
10
-1.99503997793928
20
-19.8549383078336
30
0
41
1
10
-1.99503997793928
20
-19.7567886026657
30
0
41
1
10
-1.99503997793928
20
-19.6565424313982
30
0
41
1
10
-1.99503997793928
20
-19.5542139601407
30
0
41
1
10
-1.99503997793928
20
-19.4149698127943
30
0
41
1
10
-1.99503997793928
20
-19.2717622924356
30
0
41
1
10
-1.99503997793928
20
-19.1243520606764
30
0
41
1
10
-1.99503997793928
20
-19.0305969699326
30
0
41
1
10
-1.99503997793928
20
-18.9545457436666
30
0
41
1
10
-1.99503997793928
20
-18.877828345234
30
0
41
1
10
-1.99503997793928
20
-18.7418485706132
30
0
41
1
10
-1.99503997793928
20
-18.5826225030747
30
0
41
1
10
-1.99503997793928
20
-18.4193199892891
30
0
41
1
10
-1.99503997793928
20
-18.2949375082747
30
0
41
1
10
-1.99503997793928
20
-18.1686188381619
30
0
41
1
10
-1.99503997793928
20
-17.9975681157064
30
0
41
1
10
-1.99503997793928
20
-17.8228588844704
30
0
41
1
10
-1.99503997793928
20
-17.6441795672679
30
0
41
1
10
-1.99503997793928
20
-17.5309981410348
30
0
41
1
10
-1.99503997793928
20
-17.4394590341184
30
0
41
1
10
-1.99503997793928
20
-17.3472945498449
30
0
41
1
10
-1.99503997793928
20
-17.1843913435575
30
0
41
1
10
-1.99503997793928
20
-16.9946548235122
30
0
41
1
10
-1.99503997793928
20
-16.8010333841432
30
0
41
1
10
-1.99503997793928
20
-16.654027023888
30
0
41
1
10
-1.99503997793928
20
-16.5051894370887
30
0
41
1
10
-1.99503997793928
20
-16.3042392155796
30
0
41
1
10
-1.99503997793928
20
-16.0998599858609
30
0
41
1
10
-1.99503997793928
20
-15.8916662065006
30
0
41
1
10
-1.99503997793928
20
-15.7601264684356
30
0
41
1
10
-1.99503997793928
20
-15.6539352235828
30
0
41
1
10
-1.99503997793928
20
-15.5471478788444
30
0
41
1
10
-1.99503997793928
20
-15.4126292313156
30
0
41
1
10
-1.99503997793928
20
-15.2493853238091
30
0
41
1
10
-1.99503997793928
20
-15.1119089381336
30
0
41
1
10
-1.99503997793928
20
-15.0009760777421
30
0
41
1
10
-1.99503997793928
20
-14.8894548819647
30
0
41
1
10
-1.99503997793928
20
-14.7490386600655
30
0
41
1
10
-1.99503997793928
20
-14.578735707937
30
0
41
1
10
-1.99503997793928
20
-14.4066808882548
30
0
41
1
10
-1.99503997793928
20
-14.2328806917249
30
0
41
1
10
-1.99503997793928
20
-14.0573388809364
30
0
41
1
10
-1.99503997793928
20
-13.8800596938692
30
0
41
1
10
-1.99503997793928
20
-13.7010488098078
30
0
41
1
10
-1.99503997793928
20
-13.5203096364964
30
0
41
1
10
-1.99503997793928
20
-13.3378467409434
30
0
41
1
10
-1.99503997793928
20
-13.1536651576331
30
0
41
1
10
-1.99503997793928
20
-12.967767664355
30
0
41
1
10
-1.99503997793928
20
-12.7801589185361
30
0
41
1
10
-1.99503997793928
20
-12.5908431445087
30
0
41
1
10
-1.99503997793928
20
-12.3998230002593
30
0
41
1
10
-1.99503997793928
20
-12.1427688173785
30
0
41
1
10
-1.99503997793928
20
-11.8826118718573
30
0
41
1
10
-1.99503997793928
20
-11.6187779306707
30
0
41
1
10
-1.99503997793928
20
-11.4192921752591
30
0
41
1
10
-1.99503997793928
20
-11.2181233733031
30
0
41
1
10
-1.99503997793928
20
-11.0152750188843
30
0
41
1
10
-1.99503997793928
20
-10.8107494713072
30
0
41
1
10
-1.99503997793928
20
-10.6045508021232
30
0
41
1
10
-1.99503997793928
20
-10.3966814407573
30
0
41
1
10
-1.99503997793928
20
-10.1171870033238
30
0
41
1
10
-1.99503997793928
20
-9.76392166117952
30
0
41
1
10
-1.99503997793928
20
-9.33322608836653
30
0
41
1
10
-1.99503997793928
20
-8.96893242084855
30
0
41
1
10
-1.99503997793928
20
-8.67397578579323
30
0
41
1
10
-1.99503997793928
20
-8.45121977200662
30
0
41
1
10
-1.99503997793928
20
-8.22682776167494
30
0
41
1
10
-1.99503997793928
20
-8.00080467620245
30
0
41
1
10
-1.99503997793928
20
-7.77315513008728
30
0
41
1
10
-1.99503997793928
20
-7.54388372935193
30
0
41
1
10
-1.99503997793928
20
-7.31299637479285
30
0
41
1
10
-1.99503997793928
20
-7.08049945458953
30
0
41
1
10
-1.99503997793928
20
-6.8463997482805
30
0
41
1
10
-1.99503997793928
20
-6.61070495432838
30
0
41
1
10
-1.99503997793928
20
-6.37342319970753
30
0
41
1
10
-1.99503997793928
20
-6.13456384015993
30
0
41
1
10
-1.99503997793928
20
-5.89413749968628
30
0
41
1
10
-1.99503997793928
20
-5.65215638001948
30
0
41
1
10
-1.99503997793928
20
-5.4086336510897
30
0
41
1
10
-1.99503997793928
20
-5.16358499073451
30
0
41
1
10
-1.99503997793928
20
-4.95821799704331
30
0
41
1
10
-1.99503997793928
20
-4.79299516838267
30
0
41
1
10
-1.99503997793928
20
-4.66878842905288
30
0
41
1
10
-1.99503997793928
20
-4.5442150281373
30
0
41
1
10
-1.99503997793928
20
-4.37752561794156
30
0
41
1
10
-1.99503997793928
20
-4.16851547631595
30
0
41
1
10
-1.99503997793928
20
-3.95832363498766
30
0
41
1
10
-1.99503997793928
20
-3.78926935835412
30
0
41
1
10
-1.99503997793928
20
-3.66223142121836
30
0
41
1
10
-1.99503997793928
20
-3.53485872774326
30
0
41
1
10
-1.99503997793928
20
-3.36446603264318
30
0
41
1
10
-1.99503997793928
20
-3.19381064862623
30
0
41
1
10
-1.99503997793928
20
-3.02213557666008
30
0
41
1
10
-1.99503997793928
20
-2.8931784837302
30
0
41
1
10
-1.99503997793928
20
-2.76392442628162
30
0
41
1
10
-1.99503997793928
20
-2.63438251344519
30
0
41
1
10
-1.99503997793928
20
-2.50455988721876
30
0
41
1
10
-1.99503997793928
20
-2.37446636334928
30
0
41
1
10
-1.99503997793928
20
-2.24411116870439
30
0
41
1
10
-1.99503997793928
20
-2.11350398186613
30
0
41
1
10
-1.99503997793928
20
-1.98265625862297
30
0
41
1
10
-1.99503997793928
20
-1.85157817347522
30
0
41
1
10
-1.99503997793928
20
-1.72028262405345
30
0
41
1
10
-1.99503997793928
20
-1.58878098022359
30
0
41
1
10
-1.99503997793928
20
-1.45708718468359
30
0
41
1
10
-1.99503997793928
20
-1.32521409071333
30
0
41
1
10
-1.99503997793928
20
-1.19317647053177
30
0
41
1
10
-1.99503997793928
20
-1.06098852682439
30
0
41
1
10
-1.99503997793928
20
-0.928665923975672
30
0
41
1
10
-1.99503997793928
20
-0.796224037396229
30
0
41
1
10
-1.99503997793928
20
-0.663679321648374
30
0
41
1
10
-1.99503997793928
20
-0.531048033506266
30
0
41
1
10
-1.99503997793928
20
-0.398347293868937
30
0
41
1
10
-1.99503997793928
20
-0.265594055935196
30
0
41
1
10
-1.99503997793928
20
-0.132805828560237
30
0
41
1
10
-1.99503997793928
20
2.0604887E-09
30
0
41
1
10
-1.99503997793928
20
0.132805835966792
30
0
41
1
10
-1.99503997793928
20
0.265594069601519
30
0
41
1
10
-1.99503997793928
20
0.398347307093388
30
0
41
1
10
-1.99503997793928
20
0.531048037421954
30
0
41
1
10
-1.99503997793928
20
0.663679323049081
30
0
41
1
10
-1.99503997793928
20
0.796224050825089
30
0
41
1
10
-1.99503997793928
20
0.92866594303203
30
0
41
1
10
-1.99503997793928
20
1.06098853158755
30
0
41
1
10
-1.99503997793928
20
1.1931764657121
30
0
41
1
10
-1.99503997793928
20
1.32521410103647
30
0
41
1
10
-1.99503997793928
20
1.45708720896539
30
0
41
1
10
-1.99503997793928
20
1.58878099035152
30
0
41
1
10
-1.99503997793928
20
1.72028261530932
30
0
41
1
10
-1.99503997793928
20
1.85157817419838
30
0
41
1
10
-1.99503997793928
20
1.98265628188182
30
0
41
1
10
-1.99503997793928
20
2.11350400419804
30
0
41
1
10
-1.99503997793928
20
2.24411116714702
30
0
41
1
10
-1.99503997793928
20
2.37446635053539
30
0
41
1
10
-1.99503997793928
20
2.50455989433328
30
0
41
1
10
-1.99503997793928
20
2.63438254221708
30
0
41
1
10
-1.99503997793928
20
2.76392444618182
30
0
41
1
10
-1.99503997793928
20
2.89317847799558
30
0
41
1
10
-1.99503997793928
20
3.02213556164864
30
0
41
1
10
-1.99503997793928
20
3.19381066067948
30
0
41
1
10
-1.99503997793928
20
3.36446606295527
30
0
41
1
10
-1.99503997793928
20
3.53485872835634
30
0
41
1
10
-1.99503997793928
20
3.66223140396673
30
0
41
1
10
-1.99503997793928
20
3.78926935085312
30
0
41
1
10
-1.99503997793928
20
3.95832365779984
30
0
41
1
10
-1.99503997793928
20
4.16851549788919
30
0
41
1
10
-1.99503997793928
20
4.37752560184694
30
0
41
1
10
-1.99503997793928
20
4.54421502107886
30
0
41
1
10
-1.99503997793928
20
4.66878844332788
30
0
41
1
10
-1.99503997793928
20
4.79299519854527
30
0
41
1
10
-1.99503997793928
20
4.95821801342223
30
0
41
1
10
-1.99503997793928
20
5.16358497720142
30
0
41
1
10
-1.99503997793928
20
5.40863364784667
30
0
41
1
10
-1.99503997793928
20
5.65215640891225
30
0
41
1
10
-1.99503997793928
20
5.89413750153935
30
0
41
1
10
-1.99503997793928
20
6.13456381441384
30
0
41
1
10
-1.99503997793928
20
6.37342317953835
30
0
41
1
10
-1.99503997793928
20
6.61070492919379
30
0
41
1
10
-1.99503997793928
20
6.84639976314463
30
0
41
1
10
-1.99503997793928
20
7.08049963775395
30
0
41
1
10
-1.99503997793928
20
7.31299670603016
30
0
41
1
10
-1.99503997793928
20
7.54388383469134
30
0
41
1
10
-1.99503997793928
20
7.77315487290267
30
0
41
1
10
-1.99503997793928
20
8.00080468509063
30
0
41
1
10
-1.99503997793928
20
8.22682785520686
30
0
41
1
10
-1.99503997793928
20
8.4512197921853
30
0
41
1
10
-1.99503997793928
20
8.67397577159846
30
0
41
1
10
-1.99503997793928
20
8.96893239301764
30
0
41
1
10
-1.99503997793928
20
9.33322609823665
30
0
41
1
10
-1.99503997793928
20
9.76392165975841
30
0
41
1
10
-1.99503997793928
20
10.1171869828061
30
0
41
1
10
-1.99503997793928
20
10.3966814549587
30
0
41
1
10
-1.99503997793928
20
10.6045508126063
30
0
41
1
10
-1.99503997793928
20
10.8107494592904
30
0
41
1
10
-1.99503997793928
20
11.0152749978462
30
0
41
1
10
-1.99503997793928
20
11.2181233670389
30
0
41
1
10
-1.99503997793928
20
11.4192921870092
30
0
41
1
10
-1.99503997793928
20
11.6187779427602
30
0
41
1
10
-1.99503997793928
20
11.8826118620781
30
0
41
1
10
-1.99503997793928
20
12.1427687977971
30
0
41
1
10
-1.99503997793928
20
12.3998230071702
30
0
41
1
10
-1.99503997793928
20
12.5908431584255
30
0
41
1
10
-1.99503997793928
20
12.7801589212449
30
0
41
1
10
-1.99503997793928
20
12.9677676529033
30
0
41
1
10
-1.99503997793928
20
13.1536651432542
30
0
41
1
10
-1.99503997793928
20
13.3378467396349
30
0
41
1
10
-1.99503997793928
20
13.520309646993
30
0
41
1
10
-1.99503997793928
20
13.7010488212408
30
0
41
1
10
-1.99503997793928
20
13.8800597145162
30
0
41
1
10
-1.99503997793928
20
14.0573389921213
30
0
41
1
10
-1.99503997793928
20
14.2328810143213
30
0
41
1
10
-1.99503997793928
20
14.4646959102749
30
0
41
1
10
-1.99503997793928
20
14.6927797943809
30
0
41
1
10
-1.99503997793928
20
14.9175842595472
30
0
41
1
10
-1.99503997793928
20
15.1400402265273
30
0
41
1
10
-1.99503997793928
20
15.3587351142266
30
0
41
1
10
-1.99503997793928
20
15.574095422854
30
0
41
1
10
-1.99503997793928
20
15.733775855726
30
0
41
1
10
-1.99503997793928
20
15.8916657661057
30
0
41
1
10
-1.99503997793928
20
16.0998603532658
30
0
41
1
10
-1.99503997793928
20
16.3042398246232
30
0
41
1
10
-1.99503997793928
20
16.5051894037979
30
0
41
1
10
-1.99503997793928
20
16.6540265683948
30
0
41
1
10
-1.99503997793928
20
16.8010329188422
30
0
41
1
10
-1.99503997793928
20
16.9946550481209
30
0
41
1
10
-1.99503997793928
20
17.1843924611907
30
0
41
1
10
-1.99503997793928
20
17.3705928023913
30
0
41
1
10
-1.99503997793928
20
17.5083251903719
30
0
41
1
10
-1.99503997793928
20
17.6441786252734
30
0
41
1
10
-1.99503997793928
20
17.8228590748674
30
0
41
1
10
-1.99503997793928
20
17.9975683374733
30
0
41
1
10
-1.99503997793928
20
18.1686188521771
30
0
41
1
10
-1.99503997793928
20
18.2949373683468
30
0
41
1
10
-1.99503997793928
20
18.4193198181252
30
0
41
1
10
-1.99503997793928
20
18.5826226298873
30
0
41
1
10
-1.99503997793928
20
18.7418497326446
30
0
41
1
10
-1.99503997793928
20
18.8972761707097
30
0
41
1
10
-1.99503997793928
20
19.0118150097952
30
0
41
1
10
-1.99503997793928
20
19.1243510467918
30
0
41
1
10
-1.99503997793928
20
19.2717625055688
30
0
41
1
10
-1.99503997793928
20
19.414970513124
30
0
41
1
10
-1.99503997793928
20
19.5542140249085
30
0
41
1
10
-1.99503997793928
20
19.6565420567613
30
0
41
1
10
-1.99503997793928
20
19.7567881415466
30
0
41
1
10
-1.99503997793928
20
19.8549381550126
30
0
41
1
10
-1.99503997793928
20
19.9509751416388
30
0
41
1
10
-1.99503997793928
20
20.0448848362119
30
0
41
1
10
-1.99503997793928
20
20.1366515718167
30
0
41
1
10
-1.99503997793928
20
20.2262576202058
30
0
41
1
10
-1.99503997793928
20
20.3136874196731
30
0
41
1
10
-1.99503997793928
20
20.398923430088
30
0
41
1
10
-1.99503997793928
20
20.4819464863244
30
0
41
1
10
-1.99503997793928
20
20.5627395868944
30
0
41
1
10
-1.99503997793928
20
20.6412830627252
30
0
41
1
10
-1.99503997793928
20
20.7430172190698
30
0
41
1
10
-1.99503997793928
20
20.8400664428987
30
0
41
1
10
-1.99503997793928
20
20.9325549572362
30
0
41
1
10
-1.99503997793928
20
20.9995415068112
30
0
41
1
10
-1.99503997793928
20
21.064149408511
30
0
41
1
10
-1.99503997793928
20
21.1263556466612
30
0
41
1
10
-1.99503997793928
20
21.1861355753666
30
0
41
1
10
-1.99503997793928
20
21.262600218376
30
0
41
1
10
-1.99503997793928
20
21.3340243512753
30
0
41
1
10
-1.99503997793928
20
21.4004603045828
30
0
41
1
10
-1.99503997793928
20
21.4477036445725
30
0
41
1
10
-1.99503997793928
20
21.4923513092323
30
0
41
1
10
-1.99503997793928
20
21.5484022410126
30
0
41
1
10
-1.99503997793928
20
21.5990695510926
30
0
41
1
10
-1.99503997793928
20
21.6443396610233
30
0
41
1
10
-1.99503997793928
20
21.6755105092645
30
0
41
1
10
-1.99503997793928
20
21.7038764495607
30
0
41
1
10
-1.99503997793928
20
21.7293964429163
30
0
41
1
10
-1.99503997793928
20
21.7520292420694
30
0
41
1
10
-1.99503997793928
20
21.7717309018817
30
0
41
1
10
-1.99503997793928
20
21.7884557380592
30
0
41
1
10
-1.99503997793928
20
21.8021565310045
30
0
41
1
10
-1.99503997793928
20
21.8127830851058
30
0
41
1
10
-1.99503997793928
20
21.8202838734724
30
0
41
1
10
-1.99503997793926
20
21.824511316066
30
0
41
1
10
-1.99503997793926
20
21.8252773339441
30
0
41
1
10
-1.99503997793928
20
21.8251671081331
30
0
0
SPLINE
5
186
100
AcDbEntity
8
SK1
62
256
6
ByLayer
370
18
48
1
60
0
100
AcDbSpline
70
4
71
3
72
115
73
111
40
0
40
0
40
0
40
0
40
0.0065652072539439
40
0.015109375086555
40
0.0236535429191661
40
0.0321977107517771
40
0.0407418785843882
40
0.0492860464169993
40
0.0578302142496104
40
0.0663743820822215
40
0.0834627177474437
40
0.100551053412666
40
0.117639389077888
40
0.126183556910499
40
0.13472772474311
40
0.143271892575721
40
0.151816060408332
40
0.168904396073555
40
0.177448563906166
40
0.185992731738777
40
0.194536899571388
40
0.203081067403999
40
0.21162523523661
40
0.220169403069221
40
0.237257738734443
40
0.245801906567054
40
0.254346074399665
40
0.262890242232277
40
0.271434410064888
40
0.279978577897499
40
0.28852274573011
40
0.297066913562721
40
0.305611081395332
40
0.314155249227943
40
0.322699417060554
40
0.331243584893165
40
0.339787752725776
40
0.348331920558387
40
0.356876088390998
40
0.37396442405622
40
0.382508591888832
40
0.391052759721443
40
0.395324843637748
40
0.399596927554054
40
0.408141095386665
40
0.425229431051887
40
0.433773598884498
40
0.442317766717109
40
0.45086193454972
40
0.459406102382331
40
0.476494438047554
40
0.485038605880165
40
0.493582773712776
40
0.497854857629081
40
0.502126941545387
40
0.510671109377998
40
0.52775944504322
40
0.536303612875831
40
0.544847780708442
40
0.553391948541053
40
0.561936116373664
40
0.579024452038887
40
0.587568619871498
40
0.596112787704109
40
0.600384871620414
40
0.60465695553672
40
0.613201123369331
40
0.621745291201942
40
0.630289459034553
40
0.634561542950859
40
0.638833626867164
40
0.647377794699775
40
0.655921962532386
40
0.664466130364997
40
0.673010298197608
40
0.68155446603022
40
0.690098633862831
40
0.698642801695442
40
0.707186969528053
40
0.715731137360664
40
0.724275305193275
40
0.732819473025886
40
0.741363640858497
40
0.749907808691108
40
0.758451976523719
40
0.76699614435633
40
0.784084480021553
40
0.792628647854164
40
0.801172815686775
40
0.809716983519386
40
0.818261151351997
40
0.826805319184608
40
0.835349487017219
40
0.84389365484983
40
0.852437822682441
40
0.869526158347664
40
0.886614494012886
40
0.903702829678108
40
0.912246997510719
40
0.92079116534333
40
0.929335333175941
40
0.937879501008552
40
0.946423668841163
40
0.954967836673774
40
0.963512004506385
40
0.972056172338996
40
0.980600340171608
40
0.989144508004219
40
0.99768867583683
40
1
40
1
40
1
40
1
41
1
10
-0.394976888875277
20
-21.8653790904354
30
0
41
1
10
-0.394976888875249
20
-21.8653285658141
30
0
41
1
10
-0.394976888875277
20
-21.8644673800952
30
0
41
1
10
-0.394976888875277
20
-21.8604737650697
30
0
41
1
10
-0.394976888875277
20
-21.8529598769268
30
0
41
1
10
-0.394976888875277
20
-21.8423149188875
30
0
41
1
10
-0.394976888875277
20
-21.8285907137819
30
0
41
1
10
-0.394976888875277
20
-21.8118377229246
30
0
41
1
10
-0.394976888875277
20
-21.7921034347989
30
0
41
1
10
-0.394976888875277
20
-21.7618666429643
30
0
41
1
10
-0.394976888875277
20
-21.7168668922192
30
0
41
1
10
-0.394976888875277
20
-21.651618462036
30
0
41
1
10
-0.394976888875277
20
-21.5881524120742
30
0
41
1
10
-0.394976888875277
20
-21.5320229149808
30
0
41
1
10
-0.394976888875277
20
-21.4873092663299
30
0
41
1
10
-0.394976888875277
20
-21.4399968711307
30
0
41
1
10
-0.394976888875277
20
-21.3734709387681
30
0
41
1
10
-0.394976888875277
20
-21.3019320664004
30
0
41
1
10
-0.394976888875277
20
-21.2253664719936
30
0
41
1
10
-0.394976888875277
20
-21.1655031445011
30
0
41
1
10
-0.394976888875277
20
-21.1032108723211
30
0
41
1
10
-0.394976888875277
20
-21.038514297088
30
0
41
1
10
-0.394976888875277
20
-20.9714364994015
30
0
41
1
10
-0.394976888875277
20
-20.8788308563806
30
0
41
1
10
-0.394976888875277
20
-20.7816354627076
30
0
41
1
10
-0.394976888875277
20
-20.6797749496461
30
0
41
1
10
-0.394976888875277
20
-20.6011280536546
30
0
41
1
10
-0.394976888875277
20
-20.5202292190253
30
0
41
1
10
-0.394976888875277
20
-20.4370981008412
30
0
41
1
10
-0.394976888875277
20
-20.3517517634561
30
0
41
1
10
-0.394976888875277
20
-20.2642094206366
30
0
41
1
10
-0.394976888875277
20
-20.1744885542463
30
0
41
1
10
-0.394976888875277
20
-20.082604770276
30
0
41
1
10
-0.394976888875277
20
-19.9885758834751
30
0
41
1
10
-0.394976888875277
20
-19.8924175863555
30
0
41
1
10
-0.394976888875277
20
-19.79414426657
30
0
41
1
10
-0.394976888875277
20
-19.6937723311917
30
0
41
1
10
-0.394976888875277
20
-19.5913158900225
30
0
41
1
10
-0.394976888875277
20
-19.4519091739392
30
0
41
1
10
-0.394976888875277
20
-19.308501644014
30
0
41
1
10
-0.394976888875277
20
-19.160920630363
30
0
41
1
10
-0.394976888875277
20
-19.0670441229991
30
0
41
1
10
-0.394976888875277
20
-18.9909051568102
30
0
41
1
10
-0.394976888875277
20
-18.9140993494365
30
0
41
1
10
-0.394976888875277
20
-18.777958735224
30
0
41
1
10
-0.394976888875277
20
-18.6185131846482
30
0
41
1
10
-0.394976888875277
20
-18.4550236113311
30
0
41
1
10
-0.394976888875277
20
-18.330489335967
30
0
41
1
10
-0.394976888875277
20
-18.2040166079408
30
0
41
1
10
-0.394976888875277
20
-18.0327705937831
30
0
41
1
10
-0.394976888875277
20
-17.8578219077773
30
0
41
1
10
-0.394976888875277
20
-17.6789387292296
30
0
41
1
10
-0.394976888875277
20
-17.5656125946474
30
0
41
1
10
-0.394976888875277
20
-17.4739690253912
30
0
41
1
10
-0.394976888875277
20
-17.3816993239948
30
0
41
1
10
-0.394976888875277
20
-17.2186048360495
30
0
41
1
10
-0.394976888875277
20
-17.0286078387926
30
0
41
1
10
-0.394976888875277
20
-16.8347647509306
30
0
41
1
10
-0.394976888875277
20
-16.6875786248762
30
0
41
1
10
-0.394976888875277
20
-16.5385587049943
30
0
41
1
10
-0.394976888875277
20
-16.3373774066279
30
0
41
1
10
-0.394976888875277
20
-16.1327150774874
30
0
41
1
10
-0.394976888875277
20
-15.9242804112408
30
0
41
1
10
-0.394976888875277
20
-15.7925696820839
30
0
41
1
10
-0.394976888875277
20
-15.6862549949744
30
0
41
1
10
-0.394976888875277
20
-15.5793432837569
30
0
41
1
10
-0.394976888875277
20
-15.4446487492657
30
0
41
1
10
-0.394976888875277
20
-15.2812010193763
30
0
41
1
10
-0.394976888875277
20
-15.1435436982815
30
0
41
1
10
-0.394976888875277
20
-15.0324801920763
30
0
41
1
10
-0.394976888875277
20
-14.9208273816877
30
0
41
1
10
-0.394976888875277
20
-14.7802248596231
30
0
41
1
10
-0.394976888875277
20
-14.6097059483473
30
0
41
1
10
-0.394976888875277
20
-14.4374320816019
30
0
41
1
10
-0.394976888875277
20
-14.2634095816694
30
0
41
1
10
-0.394976888875277
20
-14.0876420714538
30
0
41
1
10
-0.394976888875277
20
-13.9101338497815
30
0
41
1
10
-0.394976888875277
20
-13.7308904366346
30
0
41
1
10
-0.394976888875277
20
-13.549915145406
30
0
41
1
10
-0.394976888875277
20
-13.3672125481811
30
0
41
1
10
-0.394976888875277
20
-13.182787463215
30
0
41
1
10
-0.394976888875277
20
-12.9966426140257
30
0
41
1
10
-0.394976888875277
20
-12.8087826212334
30
0
41
1
10
-0.394976888875277
20
-12.6192114742801
30
0
41
1
10
-0.394976888875277
20
-12.4279318017785
30
0
41
1
10
-0.394976888875277
20
-12.1705475891153
30
0
41
1
10
-0.394976888875277
20
-11.9099848332047
30
0
41
1
10
-0.394976888875277
20
-11.6458042855523
30
0
41
1
10
-0.394976888875277
20
-11.4460361066677
30
0
41
1
10
-0.394976888875277
20
-11.2445799083311
30
0
41
1
10
-0.394976888875277
20
-11.0414389105764
30
0
41
1
10
-0.394976888875277
20
-10.8366153761928
30
0
41
1
10
-0.394976888875277
20
-10.630113157504
30
0
41
1
10
-0.394976888875277
20
-10.4219344610486
30
0
41
1
10
-0.394976888875277
20
-10.1420454829465
30
0
41
1
10
-0.394976888875277
20
-9.78821091215369
30
0
41
1
10
-0.394976888875277
20
-9.3568391135907
30
0
41
1
10
-0.394976888875277
20
-8.99192950801697
30
0
41
1
10
-0.394976888875277
20
-8.69651812098675
30
0
41
1
10
-0.394976888875277
20
-8.47338949471808
30
0
41
1
10
-0.394976888875277
20
-8.24861627222975
30
0
41
1
10
-0.394976888875277
20
-8.0222029406992
30
0
41
1
10
-0.394976888875277
20
-7.79415362199521
30
0
41
1
10
-0.394976888875277
20
-7.56447255210355
30
0
41
1
10
-0.394976888875277
20
-7.33316516004027
30
0
41
1
10
-0.394976888875277
20
-7.10023725398264
30
0
41
1
10
-0.394976888875277
20
-6.86569504295815
30
0
41
1
10
-0.394976888875277
20
-6.62954558311137
30
0
41
1
10
-0.394976888875277
20
-6.44960786563362
30
0
41
1
10
-0.394976888875277
20
-6.34849183540922
30
0
41
1
10
-0.394976888875277
20
-6.32694309067119
30
0
0
SPLINE
5
187
100
AcDbEntity
8
SK1
62
256
6
ByLayer
370
18
48
1
60
0
100
AcDbSpline
70
4
71
3
72
111
73
107
40
0
40
0
40
0
40
0
40
0.0023113641962975
40
0.0108556434084154
40
0.0193999226205334
40
0.0279442018326513
40
0.0364884810447692
40
0.0450327602568872
40
0.0535770394690051
40
0.0621213186811231
40
0.070665597893241
40
0.079209877105359
40
0.0877541563174769
40
0.0962984355295948
40
0.113386993953831
40
0.130475552378067
40
0.147564110802303
40
0.15610839001442
40
0.164652669226538
40
0.173196948438656
40
0.181741227650774
40
0.190285506862892
40
0.19882978607501
40
0.207374065287128
40
0.215918344499246
40
0.233006902923482
40
0.2415511821356
40
0.250095461347718
40
0.258639740559836
40
0.267184019771954
40
0.275728298984072
40
0.28427257819619
40
0.292816857408307
40
0.301361136620425
40
0.309905415832543
40
0.318449695044661
40
0.326993974256779
40
0.335538253468897
40
0.352626811893133
40
0.361171091105251
40
0.369715370317369
40
0.386803928741605
40
0.395348207953723
40
0.403892487165841
40
0.412436766377959
40
0.420981045590077
40
0.438069604014312
40
0.44661388322643
40
0.455158162438548
40
0.463702441650666
40
0.472246720862784
40
0.48933527928702
40
0.497879558499138
40
0.506423837711256
40
0.514968116923374
40
0.523512396135492
40
0.540600954559728
40
0.549145233771846
40
0.557689512983964
40
0.566233792196082
40
0.574778071408199
40
0.591866629832435
40
0.600410909044553
40
0.608955188256671
40
0.617499467468789
40
0.626043746680907
40
0.643132305105143
40
0.651676584317261
40
0.660220863529379
40
0.668765142741497
40
0.677309421953615
40
0.685853701165733
40
0.694397980377851
40
0.702942259589969
40
0.711486538802087
40
0.720030818014204
40
0.728575097226322
40
0.73711937643844
40
0.745663655650558
40
0.754207934862676
40
0.762752214074794
40
0.77984077249903
40
0.788385051711148
40
0.796929330923266
40
0.805473610135384
40
0.814017889347502
40
0.82256216855962
40
0.831106447771738
40
0.848195006195974
40
0.856739285408092
40
0.86528356462021
40
0.873827843832328
40
0.882372123044445
40
0.899460681468681
40
0.908004960680799
40
0.916549239892917
40
0.925093519105035
40
0.933637798317153
40
0.942182077529271
40
0.950726356741389
40
0.959270635953507
40
0.967814915165625
40
0.976359194377743
40
0.984903473589861
40
0.993447752801979
40
1
40
1
40
1
40
1
41
1
10
-0.394976888875277
20
6.32694279392976
30
0
41
1
10
-0.394976888875277
20
6.3484916311391
30
0
41
1
10
-0.394976888875277
20
6.44960775400912
30
0
41
1
10
-0.394976888875277
20
6.62954555948869
30
0
41
1
10
-0.394976888875277
20
6.8656950488801
30
0
41
1
10
-0.394976888875277
20
7.10023740586411
30
0
41
1
10
-0.394976888875277
20
7.33316546385933
30
0
41
1
10
-0.394976888875277
20
7.56447269448574
30
0
41
1
10
-0.394976888875277
20
7.79415340272945
30
0
41
1
10
-0.394976888875277
20
8.02220293401996
30
0
41
1
10
-0.394976888875277
20
8.24861635560848
30
0
41
1
10
-0.394976888875277
20
8.47338951886385
30
0
41
1
10
-0.394976888875277
20
8.69651811258549
30
0
41
1
10
-0.394976888875277
20
8.99192948127941
30
0
41
1
10
-0.394976888875277
20
9.35683912175983
30
0
41
1
10
-0.394976888875277
20
9.78821091217483
30
0
41
1
10
-0.394976888875277
20
10.142045462177
30
0
41
1
10
-0.394976888875277
20
10.4219344727077
30
0
41
1
10
-0.394976888875277
20
10.6301131683678
30
0
41
1
10
-0.394976888875277
20
10.8366153667066
30
0
41
1
10
-0.394976888875277
20
11.0414388905992
30
0
41
1
10
-0.394976888875277
20
11.2445799004538
30
0
41
1
10
-0.394976888875277
20
11.4460361162834
30
0
41
1
10
-0.394976888875277
20
11.6458042976885
30
0
41
1
10
-0.394976888875277
20
11.9099848253352
30
0
41
1
10
-0.394976888875277
20
12.1705475695385
30
0
41
1
10
-0.394976888875277
20
12.4279318067111
30
0
41
1
10
-0.394976888875277
20
12.6192114874981
30
0
41
1
10
-0.394976888875277
20
12.8087826250924
30
0
41
1
10
-0.394976888875277
20
12.9966426041155
30
0
41
1
10
-0.394976888875277
20
13.182787448996
30
0
41
1
10
-0.394976888875277
20
13.3672125455487
30
0
41
1
10
-0.394976888875277
20
13.5499151547097
30
0
41
1
10
-0.394976888875277
20
13.7308904478326
30
0
41
1
10
-0.394976888875277
20
13.910133867705
30
0
41
1
10
-0.394976888875277
20
14.0876421688895
30
0
41
1
10
-0.394976888875277
20
14.2634098807097
30
0
41
1
10
-0.394976888875277
20
14.4955025482493
30
0
41
1
10
-0.394976888875277
20
14.7239127068147
30
0
41
1
10
-0.394976888875277
20
14.9489833053404
30
0
41
1
10
-0.394976888875277
20
15.171701411915
30
0
41
1
10
-0.394976888875277
20
15.3907043201103
30
0
41
1
10
-0.394976888875277
20
15.6063159613101
30
0
41
1
10
-0.394976888875277
20
15.7661946363952
30
0
41
1
10
-0.394976888875277
20
15.9242799594928
30
0
41
1
10
-0.394976888875277
20
16.1327154012234
30
0
41
1
10
-0.394976888875277
20
16.3373780173449
30
0
41
1
10
-0.394976888875277
20
16.5385587125243
30
0
41
1
10
-0.394976888875277
20
16.6875782011067
30
0
41
1
10
-0.394976888875277
20
16.8347642769002
30
0
41
1
10
-0.394976888875277
20
17.0286080073569
30
0
41
1
10
-0.394976888875277
20
17.2186059445175
30
0
41
1
10
-0.394976888875277
20
17.4050188999402
30
0
41
1
10
-0.394976888875277
20
17.5429190217058
30
0
41
1
10
-0.394976888875277
20
17.6789377757623
30
0
41
1
10
-0.394976888875277
20
17.8578220601067
30
0
41
1
10
-0.394976888875277
20
18.0327708145484
30
0
41
1
10
-0.394976888875277
20
18.2040166330947
30
0
41
1
10
-0.394976888875277
20
18.3304892054167
30
0
41
1
10
-0.394976888875277
20
18.4550234389153
30
0
41
1
10
-0.394976888875277
20
18.6185132745736
30
0
41
1
10
-0.394976888875277
20
18.7779598884918
30
0
41
1
10
-0.394976888875277
20
18.933565131357
30
0
41
1
10
-0.394976888875277
20
19.048244884465
30
0
41
1
10
-0.394976888875277
20
19.1609196079758
30
0
41
1
10
-0.394976888875277
20
19.3085018143331
30
0
41
1
10
-0.394976888875277
20
19.4519098709686
30
0
41
1
10
-0.394976888875277
20
19.5913159811741
30
0
41
1
10
-0.394976888875277
20
19.6937719762305
30
0
41
1
10
-0.394976888875277
20
19.7941438028822
30
0
41
1
10
-0.394976888875277
20
19.8924174211231
30
0
41
1
10
-0.394976888875277
20
19.988575861591
30
0
41
1
10
-0.394976888875277
20
20.082604778142
30
0
41
1
10
-0.394976888875277
20
20.1744885559187
30
0
41
1
10
-0.394976888875277
20
20.264209431984
30
0
41
1
10
-0.394976888875277
20
20.3517517880635
30
0
41
1
10
-0.394976888875277
20
20.437098129367
30
0
41
1
10
-0.394976888875277
20
20.5202292348052
30
0
41
1
10
-0.394976888875277
20
20.6011280559991
30
0
41
1
10
-0.394976888875277
20
20.6797749513881
30
0
41
1
10
-0.394976888875277
20
20.781635486227
30
0
41
1
10
-0.394976888875277
20
20.8788308931333
30
0
41
1
10
-0.394976888875277
20
20.9714365096391
30
0
41
1
10
-0.394976888875277
20
21.0385142950144
30
0
41
1
10
-0.394976888875277
20
21.1032108820957
30
0
41
1
10
-0.394976888875277
20
21.1655031751743
30
0
41
1
10
-0.394976888875277
20
21.2253665102307
30
0
41
1
10
-0.394976888875277
20
21.301932078811
30
0
41
1
10
-0.394976888875277
20
21.3734709318986
30
0
41
1
10
-0.394976888875277
20
21.4399968999807
30
0
41
1
10
-0.394976888875277
20
21.4873093096751
30
0
41
1
10
-0.394976888875277
20
21.5320229383892
30
0
41
1
10
-0.394976888875277
20
21.5881524005931
30
0
41
1
10
-0.394976888875277
20
21.6389063892513
30
0
41
1
10
-0.394976888875277
20
21.6842420425293
30
0
41
1
10
-0.394976888875277
20
21.7154617242468
30
0
41
1
10
-0.394976888875277
20
21.7438726893518
30
0
41
1
10
-0.394976888875277
20
21.7694337460976
30
0
41
1
10
-0.394976888875277
20
21.7921034780961
30
0
41
1
10
-0.394976888875277
20
21.8118377637545
30
0
41
1
10
-0.394976888875277
20
21.8285907189997
30
0
41
1
10
-0.394976888875277
20
21.8423149132633
30
0
41
1
10
-0.394976888875277
20
21.8529599173647
30
0
41
1
10
-0.394976888875277
20
21.8604739519412
30
0
41
1
10
-0.394976888875277
20
21.8644655157597
30
0
41
1
10
-0.394976888875306
20
21.8653271888316
30
0
41
1
10
-0.394976888875277
20
21.8653787934865
30
0
0
SPLINE
5
188
100
AcDbEntity
8
SK1
62
256
6
ByLayer
370
18
48
1
60
0
100
AcDbSpline
70
4
71
3
72
299
73
295
40
0
40
0
40
0
40
0
40
0.002948286352418
40
0.0064733561872768
40
0.0099984260221356
40
0.0135234958569943
40
0.0170485656918531
40
0.0205736355267119
40
0.0240987053615706
40
0.0276237751964294
40
0.0346739148661469
40
0.0417240545358644
40
0.0487741942055819
40
0.0522992640404407
40
0.0558243338752995
40
0.0593494037101582
40
0.062874473545017
40
0.0699246132147345
40
0.0734496830495933
40
0.076974752884452
40
0.0804998227193108
40
0.0840248925541696
40
0.0875499623890284
40
0.0910750322238871
40
0.0981251718936046
40
0.101650241728463
40
0.105175311563322
40
0.108700381398181
40
0.11222545123304
40
0.115750521067898
40
0.119275590902757
40
0.122800660737616
40
0.126325730572475
40
0.129850800407333
40
0.133375870242192
40
0.136900940077051
40
0.14042600991191
40
0.143951079746768
40
0.147476149581627
40
0.154526289251345
40
0.158051359086204
40
0.161576428921062
40
0.163338963838492
40
0.165101498755921
40
0.16862656859078
40
0.175676708260497
40
0.179201778095356
40
0.182726847930215
40
0.186251917765074
40
0.189776987599933
40
0.19682712726965
40
0.200352197104509
40
0.203877266939368
40
0.205639801856797
40
0.207402336774226
40
0.210927406609085
40
0.217977546278803
40
0.221502616113662
40
0.22502768594852
40
0.228552755783379
40
0.232077825618238
40
0.239127965287955
40
0.242653035122814
40
0.246178104957673
40
0.247940639875102
40
0.249703174792532
40
0.25322824462739
40
0.256753314462249
40
0.260278384297108
40
0.262040919214537
40
0.263803454131967
40
0.267328523966825
40
0.270853593801684
40
0.274378663636543
40
0.277903733471402
40
0.28142880330626
40
0.284953873141119
40
0.288478942975978
40
0.292004012810837
40
0.295529082645695
40
0.299054152480554
40
0.302579222315413
40
0.306104292150272
40
0.309629361985131
40
0.313154431819989
40
0.316679501654848
40
0.323729641324566
40
0.327254711159424
40
0.330779780994283
40
0.334304850829142
40
0.337829920664001
40
0.341354990498859
40
0.344880060333718
40
0.348405130168577
40
0.351930200003436
40
0.358980339673153
40
0.366030479342871
40
0.373080619012588
40
0.376605688847447
40
0.380130758682306
40
0.383655828517165
40
0.387180898352023
40
0.390705968186882
40
0.394231038021741
40
0.3977561078566
40
0.401281177691458
40
0.404806247526317
40
0.408331317361176
40
0.411856387196035
40
0.415381457030894
40
0.418906526865752
40
0.422431596700611
40
0.42595666653547
40
0.429481736370328
40
0.433006806205187
40
0.434769341122617
40
0.436531876040046
40
0.438294410957476
40
0.440056945874905
40
0.443582015709764
40
0.447107085544622
40
0.448869620462052
40
0.450632155379481
40
0.45239469029691
40
0.45415722521434
40
0.457682295049199
40
0.459444829966628
40
0.461207364884057
40
0.462969899801487
40
0.464732434718916
40
0.466494969636346
40
0.468257504553775
40
0.470020039471204
40
0.471782574388634
40
0.473545109306063
40
0.475307644223492
40
0.477070179140922
40
0.478832714058351
40
0.480595248975781
40
0.48235778389321
40
0.484120318810639
40
0.485882853728069
40
0.487645388645498
40
0.489407923562928
40
0.491170458480357
40
0.492932993397786
40
0.494695528315216
40
0.496458063232645
40
0.498220598150075
40
0.499983133067504
40
0.501745667984933
40
0.503508202902363
40
0.505270737819792
40
0.507033272737221
40
0.508795807654651
40
0.51055834257208
40
0.51232087748951
40
0.514083412406939
40
0.515845947324368
40
0.517608482241798
40
0.519371017159227
40
0.521133552076656
40
0.522896086994086
40
0.524658621911515
40
0.526421156828945
40
0.528183691746374
40
0.529946226663803
40
0.531708761581233
40
0.533471296498662
40
0.535233831416091
40
0.536996366333521
40
0.53875890125095
40
0.54052143616838
40
0.542283971085809
40
0.545809040920668
40
0.547571575838097
40
0.549334110755527
40
0.551096645672956
40
0.552859180590385
40
0.556384250425244
40
0.559909320260103
40
0.561671855177532
40
0.563434390094962
40
0.565196925012391
40
0.56695945992982
40
0.570484529764679
40
0.574009599599538
40
0.577534669434397
40
0.581059739269255
40
0.584584809104114
40
0.588109878938973
40
0.591634948773832
40
0.595160018608691
40
0.598685088443549
40
0.602210158278408
40
0.605735228113267
40
0.609260297948125
40
0.612785367782984
40
0.616310437617843
40
0.619835507452702
40
0.623360577287561
40
0.626885647122419
40
0.633935786792137
40
0.640985926461854
40
0.648036066131572
40
0.651561135966431
40
0.655086205801289
40
0.658611275636148
40
0.662136345471007
40
0.665661415305866
40
0.669186485140724
40
0.672711554975583
40
0.676236624810442
40
0.68328676448016
40
0.686811834315018
40
0.690336904149877
40
0.693861973984736
40
0.697387043819595
40
0.700912113654453
40
0.704437183489312
40
0.707962253324171
40
0.71148732315903
40
0.715012392993888
40
0.718537462828747
40
0.722062532663606
40
0.725587602498465
40
0.732637742168182
40
0.736162812003041
40
0.7396878818379
40
0.746738021507617
40
0.750263091342476
40
0.753788161177335
40
0.757313231012194
40
0.760838300847052
40
0.76788844051677
40
0.771413510351629
40
0.774938580186488
40
0.778463650021346
40
0.781988719856205
40
0.789038859525922
40
0.792563929360781
40
0.79608899919564
40
0.799614069030499
40
0.803139138865358
40
0.810189278535075
40
0.813714348369934
40
0.817239418204793
40
0.820764488039652
40
0.82428955787451
40
0.831339697544228
40
0.834864767379087
40
0.838389837213945
40
0.841914907048804
40
0.845439976883663
40
0.85249011655338
40
0.856015186388239
40
0.859540256223098
40
0.863065326057957
40
0.866590395892815
40
0.870115465727674
40
0.873640535562533
40
0.877165605397392
40
0.880690675232251
40
0.884215745067109
40
0.887740814901968
40
0.891265884736827
40
0.894790954571685
40
0.898316024406544
40
0.901841094241403
40
0.908891233911121
40
0.912416303745979
40
0.915941373580838
40
0.919466443415697
40
0.922991513250556
40
0.926516583085414
40
0.930041652920273
40
0.937091792589991
40
0.940616862424849
40
0.944141932259708
40
0.947667002094567
40
0.951192071929426
40
0.958242211599143
40
0.961767281434002
40
0.965292351268861
40
0.96881742110372
40
0.972342490938578
40
0.975867560773437
40
0.979392630608296
40
0.982917700443154
40
0.986442770278013
40
0.989967840112872
40
0.993492909947731
40
0.99701797978259
40
1
40
1
40
1
40
1
41
1
10
-38
20
-20.2923486434722
30
0
41
1
10
-38
20
-20.2923551885206
30
0
41
1
10
-38
20
-20.2915871968421
30
0
41
1
10
-38
20
-20.2877827415225
30
0
41
1
10
-38
20
-20.2807871950941
30
0
41
1
10
-38
20
-20.270864225278
30
0
41
1
10
-38
20
-20.2580557575388
30
0
41
1
10
-38
20
-20.2424031034125
30
0
41
1
10
-38
20
-20.2239454925533
30
0
41
1
10
-38
20
-20.19551262204
30
0
41
1
10
-38
20
-20.153458157969
30
0
41
1
10
-38
20
-20.0921783324266
30
0
41
1
10
-38
20
-20.0326760120608
30
0
41
1
10
-38
20
-19.9796195423852
30
0
41
1
10
-38
20
-19.9374871337362
30
0
41
1
10
-38
20
-19.8928775037255
30
0
41
1
10
-38
20
-19.8298739849262
30
0
41
1
10
-38
20
-19.7628242930463
30
0
41
1
10
-38
20
-19.6902080345968
30
0
41
1
10
-38
20
-19.6336084813315
30
0
41
1
10
-38
20
-19.5746836513967
30
0
41
1
10
-38
20
-19.5134574775013
30
0
41
1
10
-38
20
-19.4499498796239
30
0
41
1
10
-38
20
-19.361926580552
30
0
41
1
10
-38
20
-19.2704514952516
30
0
41
1
10
-38
20
-19.1735363516591
30
0
41
1
10
-38
20
-19.0989364266239
30
0
41
1
10
-38
20
-19.0221745884206
30
0
41
1
10
-38
20
-18.9432715601189
30
0
41
1
10
-38
20
-18.8622425921487
30
0
41
1
10
-38
20
-18.7791047356355
30
0
41
1
10
-38
20
-18.6938772447032
30
0
41
1
10
-38
20
-18.6065734364562
30
0
41
1
10
-38
20
-18.5172096781029
30
0
41
1
10
-38
20
-18.4258037757915
30
0
41
1
10
-38
20
-18.3323676597213
30
0
41
1
10
-38
20
-18.236917040573
30
0
41
1
10
-38
20
-18.1394682315479
30
0
41
1
10
-38
20
-18.006423045464
30
0
41
1
10
-38
20
-17.870842154793
30
0
41
1
10
-38
20
-17.7299440627733
30
0
41
1
10
-38
20
-17.6408187485726
30
0
41
1
10
-38
20
-17.5681131617785
30
0
41
1
10
-38
20
-17.4947669133713
30
0
41
1
10
-38
20
-17.3649201654158
30
0
41
1
10
-38
20
-17.2140632768009
30
0
41
1
10
-38
20
-17.0578935907134
30
0
41
1
10
-38
20
-16.9392992293059
30
0
41
1
10
-38
20
-16.8188549914818
30
0
41
1
10
-38
20
-16.6552510003021
30
0
41
1
10
-38
20
-16.489672496603
30
0
41
1
10
-38
20
-16.3187666825072
30
0
41
1
10
-38
20
-16.2111031772939
30
0
41
1
10
-38
20
-16.1235473577608
30
0
41
1
10
-38
20
-16.0353949417433
30
0
41
1
10
-38
20
-15.8797855584285
30
0
41
1
10
-38
20
-15.6999813794666
30
0
41
1
10
-38
20
-15.5148116907138
30
0
41
1
10
-38
20
-15.3746600384839
30
0
41
1
10
-38
20
-15.2327750536327
30
0
41
1
10
-38
20
-15.0406360987563
30
0
41
1
10
-38
20
-14.8470518249568
30
0
41
1
10
-38
20
-14.6480433816337
30
0
41
1
10
-38
20
-14.5230237603812
30
0
41
1
10
-38
20
-14.4215395322791
30
0
41
1
10
-38
20
-14.319494446119
30
0
41
1
10
-38
20
-14.1916826014269
30
0
41
1
10
-38
20
-14.0362107113462
30
0
41
1
10
-38
20
-13.905633632864
30
0
41
1
10
-38
20
-13.7996824703933
30
0
41
1
10
-38
20
-13.6931799140641
30
0
41
1
10
-38
20
-13.5598675642285
30
0
41
1
10
-38
20
-13.3977994204325
30
0
41
1
10
-38
20
-13.2340971553998
30
0
41
1
10
-38
20
-13.0687736820565
30
0
41
1
10
-38
20
-12.9018380893652
30
0
41
1
10
-38
20
-12.7332922951509
30
0
41
1
10
-38
20
-12.5631480531082
30
0
41
1
10
-38
20
-12.3914123687224
30
0
41
1
10
-38
20
-12.2180896154105
30
0
41
1
10
-38
20
-12.0431930727568
30
0
41
1
10
-38
20
-11.8667275879997
30
0
41
1
10
-38
20
-11.6886992220563
30
0
41
1
10
-38
20
-11.5091211559413
30
0
41
1
10
-38
20
-11.3279971676986
30
0
41
1
10
-38
20
-11.0835274575533
30
0
41
1
10
-38
20
-10.8388445996823
30
0
41
1
10
-38
20
-10.5882272221232
30
0
41
1
10
-38
20
-10.3995106478125
30
0
41
1
10
-38
20
-10.2093006505112
30
0
41
1
10
-38
20
-10.0176111741013
30
0
41
1
10
-38
20
-9.82444825814403
30
0
41
1
10
-38
20
-9.62982433363783
30
0
41
1
10
-38
20
-9.43375032895256
30
0
41
1
10
-38
20
-9.16930024978845
30
0
41
1
10
-38
20
-8.83774034996793
30
0
41
1
10
-38
20
-8.43283016067576
30
0
41
1
10
-38
20
-8.09202302704495
30
0
41
1
10
-38
20
-7.81440668711983
30
0
41
1
10
-38
20
-7.60585888080686
30
0
41
1
10
-38
20
-7.39600299493051
30
0
41
1
10
-38
20
-7.18486050853949
30
0
41
1
10
-38
20
-6.972454820743
30
0
41
1
10
-38
20
-6.75880464755275
30
0
41
1
10
-38
20
-6.54393387937549
30
0
41
1
10
-38
20
-6.3278710206452
30
0
41
1
10
-38
20
-6.11064460524278
30
0
41
1
10
-38
20
-5.89228682406826
30
0
41
1
10
-38
20
-5.67283049766698
30
0
41
1
10
-38
20
-5.45231041402207
30
0
41
1
10
-38
20
-5.2307661198837
30
0
41
1
10
-38
20
-5.00824236668089
30
0
41
1
10
-38
20
-4.78478453894905
30
0
41
1
10
-38
20
-4.56044477194348
30
0
41
1
10
-38
20
-4.3737593142329
30
0
41
1
10
-38
20
-4.22222174308928
30
0
41
1
10
-38
20
-4.10916467830538
30
0
41
1
10
-38
20
-3.99593123757285
30
0
41
1
10
-38
20
-3.84368490764803
30
0
41
1
10
-38
20
-3.65544484289478
30
0
41
1
10
-38
20
-3.46668355973628
30
0
41
1
10
-38
20
-3.31336520651502
30
0
41
1
10
-38
20
-3.19916977025284
30
0
41
1
10
-38
20
-3.0848771849204
30
0
41
1
10
-38
20
-2.93116533478539
30
0
41
1
10
-38
20
-2.7810630459212
30
0
41
1
10
-38
20
-2.62697343511894
30
0
41
1
10
-38
20
-2.51237687493429
30
0
41
1
10
-38
20
-2.39774974487253
30
0
41
1
10
-38
20
-2.28311555219403
30
0
41
1
10
-38
20
-2.16847618976473
30
0
41
1
10
-38
20
-2.05384840107453
30
0
41
1
10
-38
20
-1.93924458170406
30
0
41
1
10
-38
20
-1.82466899171223
30
0
41
1
10
-38
20
-1.71014121398446
30
0
41
1
10
-38
20
-1.59566009898879
30
0
41
1
10
-38
20
-1.48124309885608
30
0
41
1
10
-38
20
-1.36688883878045
30
0
41
1
10
-38
20
-1.25260906632701
30
0
41
1
10
-38
20
-1.13840321986402
30
0
41
1
10
-38
20
-1.02427614220741
30
0
41
1
10
-38
20
-0.910225811803912
30
0
41
1
10
-38
20
-0.796251800903974
30
0
41
1
10
-38
20
-0.682349388495624
30
0
41
1
10
-38
20
-0.568513483413511
30
0
41
1
10
-38
20
-0.454735475948979
30
0
41
1
10
-38
20
-0.341006791030083
30
0
41
1
10
-38
20
-0.227315919379521
30
0
41
1
10
-38
20
-0.113651444289076
30
0
41
1
10
-38
20
-2.39306814E-08
30
0
41
1
10
-38
20
0.113651428861147
30
0
41
1
10
-38
20
0.227315965161836
30
0
41
1
10
-38
20
0.341006831114754
30
0
41
1
10
-38
20
0.454735424962735
30
0
41
1
10
-38
20
0.568513412391525
30
0
41
1
10
-38
20
0.682349437337052
30
0
41
1
10
-38
20
0.796251898049235
30
0
41
1
10
-38
20
0.910225765592202
30
0
41
1
10
-38
20
1.02427601417025
30
0
41
1
10
-38
20
1.13840324907633
30
0
41
1
10
-38
20
1.25260921865757
30
0
41
1
10
-38
20
1.36688883944316
30
0
41
1
10
-38
20
1.48124293103632
30
0
41
1
10
-38
20
1.59566004663384
30
0
41
1
10
-38
20
1.71014137238998
30
0
41
1
10
-38
20
1.82466911261432
30
0
41
1
10
-38
20
1.93924446866484
30
0
41
1
10
-38
20
2.05384821372689
30
0
41
1
10
-38
20
2.1684762190329
30
0
41
1
10
-38
20
2.28311576323421
30
0
41
1
10
-38
20
2.39774983280105
30
0
41
1
10
-38
20
2.51237672316307
30
0
41
1
10
-38
20
2.62697323991799
30
0
41
1
10
-38
20
2.78106315146928
30
0
41
1
10
-38
20
2.93116552693385
30
0
41
1
10
-38
20
3.08487708212581
30
0
41
1
10
-38
20
3.19916954549007
30
0
41
1
10
-38
20
3.31336512600546
30
0
41
1
10
-38
20
3.46668375918677
30
0
41
1
10
-38
20
3.65544489425088
30
0
41
1
10
-38
20
3.84368470208372
30
0
41
1
10
-38
20
3.99593117493794
30
0
41
1
10
-38
20
4.10916481607396
30
0
41
1
10
-38
20
4.22222196867938
30
0
41
1
10
-38
20
4.37375933349006
30
0
41
1
10
-38
20
4.56044458630845
30
0
41
1
10
-38
20
4.78478457648492
30
0
41
1
10
-38
20
5.00824253816086
30
0
41
1
10
-38
20
5.23076600439055
30
0
41
1
10
-38
20
5.45231022599046
30
0
41
1
10
-38
20
5.67283041504652
30
0
41
1
10
-38
20
5.89228674128222
30
0
41
1
10
-38
20
6.11064496108523
30
0
41
1
10
-38
20
6.32787239667013
30
0
41
1
10
-38
20
6.54393525610644
30
0
41
1
10
-38
20
6.75880334040127
30
0
41
1
10
-38
20
6.97245311766207
30
0
41
1
10
-38
20
7.18486111103374
30
0
41
1
10
-38
20
7.39600347561742
30
0
41
1
10
-38
20
7.60585874971361
30
0
41
1
10
-38
20
7.8144064520111
30
0
41
1
10
-38
20
8.09202295752311
30
0
41
1
10
-38
20
8.43283023540656
30
0
41
1
10
-38
20
8.83774029355055
30
0
41
1
10
-38
20
9.16930023887323
30
0
41
1
10
-38
20
9.43375044009511
30
0
41
1
10
-38
20
9.62982432960192
30
0
41
1
10
-38
20
9.82444814962994
30
0
41
1
10
-38
20
10.0176111126089
30
0
41
1
10
-38
20
10.2093007057547
30
0
41
1
10
-38
20
10.3995107409486
30
0
41
1
10
-38
20
10.5882272324294
30
0
41
1
10
-38
20
10.8388445170812
30
0
41
1
10
-38
20
11.0835274377931
30
0
41
1
10
-38
20
11.327997250045
30
0
41
1
10
-38
20
11.5091211965041
30
0
41
1
10
-38
20
11.6886991809046
30
0
41
1
10
-38
20
11.8667275177687
30
0
41
1
10
-38
20
12.0431930522803
30
0
41
1
10
-38
20
12.2180896645831
30
0
41
1
10
-38
20
12.3914124247035
30
0
41
1
10
-38
20
12.5631480735019
30
0
41
1
10
-38
20
12.7332924196477
30
0
41
1
10
-38
20
12.9018387248249
30
0
41
1
10
-38
20
13.068774902876
30
0
41
1
10
-38
20
13.2899980003418
30
0
41
1
10
-38
20
13.5056406071554
30
0
41
1
10
-38
20
13.7202970548285
30
0
41
1
10
-38
20
13.9327572918622
30
0
41
1
10
-38
20
14.1397069500695
30
0
41
1
10
-38
20
14.3454836148157
30
0
41
1
10
-38
20
14.4976048095277
30
0
41
1
10
-38
20
14.6480433741443
30
0
41
1
10
-38
20
14.8470538575164
30
0
41
1
10
-38
20
15.0406366439893
30
0
41
1
10
-38
20
15.2327734637881
30
0
41
1
10
-38
20
15.3746583733236
30
0
41
1
10
-38
20
15.5148115582755
30
0
41
1
10
-38
20
15.6999837411247
30
0
41
1
10
-38
20
15.8797870255403
30
0
41
1
10
-38
20
16.0578801048401
30
0
41
1
10
-38
20
16.189216581434
30
0
41
1
10
-38
20
16.3187661779867
30
0
41
1
10
-38
20
16.4896741385663
30
0
41
1
10
-38
20
16.6552512602625
30
0
41
1
10
-38
20
16.8188545807649
30
0
41
1
10
-38
20
16.9392987318018
30
0
41
1
10
-38
20
17.0578934672827
30
0
41
1
10
-38
20
17.2140648101705
30
0
41
1
10
-38
20
17.3649216616153
30
0
41
1
10
-38
20
17.513530035822
30
0
41
1
10
-38
20
17.6226956365842
30
0
41
1
10
-38
20
17.7299433731025
30
0
41
1
10
-38
20
17.8708440004863
30
0
41
1
10
-38
20
18.0064238716364
30
0
41
1
10
-38
20
18.1394672902699
30
0
41
1
10
-38
20
18.236915915677
30
0
41
1
10
-38
20
18.3323672965474
30
0
41
1
10
-38
20
18.4258040962282
30
0
41
1
10
-38
20
18.517209887002
30
0
41
1
10
-38
20
18.6065734896479
30
0
41
1
10
-38
20
18.6938772522127
30
0
41
1
10
-38
20
18.7791047692188
30
0
41
1
10
-38
20
18.8622426359768
30
0
41
1
10
-38
20
18.9432715834756
30
0
41
1
10
-38
20
19.0221745805325
30
0
41
1
10
-38
20
19.0989364136873
30
0
41
1
10
-38
20
19.1735363647814
30
0
41
1
10
-38
20
19.2704515417461
30
0
41
1
10
-38
20
19.3619266112172
30
0
41
1
10
-38
20
19.4499498647732
30
0
41
1
10
-38
20
19.5134574724377
30
0
41
1
10
-38
20
19.5746836830748
30
0
41
1
10
-38
20
19.6336085328263
30
0
41
1
10
-38
20
19.6902080668946
30
0
41
1
10
-38
20
19.7628242842049
30
0
41
1
10
-38
20
19.829873984374
30
0
41
1
10
-38
20
19.8928775551026
30
0
41
1
10
-38
20
19.9374871757691
30
0
41
1
10
-38
20
19.9796195436674
30
0
41
1
10
-38
20
20.0326760063813
30
0
41
1
10
-38
20
20.0800381474625
30
0
41
1
10
-38
20
20.1228090027496
30
0
41
1
10
-38
20
20.1521177658612
30
0
41
1
10
-38
20
20.1787668505585
30
0
41
1
10
-38
20
20.2027210424566
30
0
41
1
10
-38
20
20.2239455432986
30
0
41
1
10
-38
20
20.2424031363825
30
0
41
1
10
-38
20
20.2580557552655
30
0
41
1
10
-38
20
20.2708642249464
30
0
41
1
10
-38
20
20.2807872561095
30
0
41
1
10
-38
20
20.2877829489452
30
0
41
1
10
-38
20
20.2916003577498
30
0
41
1
10
-38
20
20.2923632329315
30
0
41
1
10
-38
20
20.2923482563876
30
0
0
SPLINE
5
189
100
AcDbEntity
8
1
62
256
6
ByLayer
370
18
48
1
60
0
100
AcDbSpline
70
4
71
3
72
8
73
4
40
0
40
0
40
0
40
0
40
1
40
1
40
1
40
1
41
1
10
19.9115068236138
20
-28.1821198447845
30
0
41
1
10
19.9174179697513
20
-28.1523556667701
30
0
41
1
10
19.9250456421063
20
-28.1198558110405
30
0
41
1
10
19.9340875486335
20
-28.0847311956739
30
0
0
SPLINE
5
18A
100
AcDbEntity
8
1
62
256
6
ByLayer
370
18
48
1
60
0
100
AcDbSpline
70
4
71
2
72
8
73
5
40
0
40
0
40
0
40
0.515963188852843
40
0.773944783279264
40
1
40
1
40
1
41
1.02613459695995
10
47.7594986431973
20
-19.9234761103282
30
0
41
1.02613459695995
10
46.970736892121
20
-19.3479840063937
30
0
41
1.02613459695995
10
45.4644323782269
20
-19.1298804030213
30
0
41
1.02613459695995
10
44.4465798945082
20
-19.2244798782432
30
0
41
1.02613459695995
10
43.9676335660884
20
-19.3605593779938
30
0
0
SPLINE
5
18B
100
AcDbEntity
8
1
62
256
6
ByLayer
370
18
48
1
60
0
100
AcDbSpline
70
4
71
2
72
8
73
5
40
0
40
0
40
0
40
0.525956182120814
40
0.788934273181221
40
1
40
1
40
1
41
1.02613459695995
10
37.4111046043114
20
-34.644194722973
30
0
41
1.02613459695995
10
36.6239222698686
20
-34.0664558793274
30
0
41
1.02613459695995
10
35.9384632401596
20
-32.6806894142838
30
0
41
1.02613459695995
10
35.7092907717921
20
-31.7065025775303
30
0
41
1.02613459695995
10
35.6778665604532
20
-31.2451201378673
30
0
0
SPLINE
5
18C
100
AcDbEntity
8
1
62
256
6
ByLayer
370
18
48
1
60
0
100
AcDbSpline
70
4
71
3
72
8
73
4
40
0
40
0
40
0
40
0
40
1
40
1
40
1
40
1
41
1
10
25.3848372427062
20
-40.678550638645
30
0
41
1
10
25.4233153442893
20
-40.8325106320916
30
0
41
1
10
25.4872564484382
20
-40.9889968714105
30
0
41
1
10
25.5776838368165
20
-41.1481108788425
30
0
0
SPLINE
5
18D
100
AcDbEntity
8
1
62
256
6
ByLayer
370
18
48
1
60
0
100
AcDbSpline
70
4
71
2
72
6
73
3
40
0
40
0
40
0
40
1
40
1
40
1
41
1.02613459695995
10
40.723883338271
20
-17.4097995433294
30
0
41
0.915076176688031
10
41.3103142307503
20
-17.7927136901856
30
0
41
0.886094351514703
10
41.440385182265
20
-18.6323487206399
30
0
0
SPLINE
5
18E
100
AcDbEntity
8
1
62
256
6
ByLayer
370
18
48
1
60
0
100
AcDbSpline
70
4
71
3
72
14
73
10
40
0
40
0
40
0
40
0
40
0.0829586012802525
40
0.0829586012802525
40
0.459195015075158
40
0.459195015075158
40
0.835474799669106
40
0.835474799669106
40
1
40
1
40
1
40
1
41
1
10
48.5321228226904
20
-31.039839719552
30
0
41
1
10
48.5316308830106
20
-31.0357740527951
30
0
41
1
10
48.5312004464013
20
-31.0316690094035
30
0
41
1
10
48.5292004900502
20
-31.0089216829405
30
0
41
1
10
48.5289536984884
20
-30.9893515536099
30
0
41
1
10
48.5317834706045
20
-30.9512411288496
30
0
41
1
10
48.5349002551536
20
-30.932276831746
30
0
41
1
10
48.5412317264521
20
-30.9072024087576
30
0
41
1
10
48.5434169264281
20
-30.8997689007442
30
0
41
1
10
48.5458011455353
20
-30.8926145073677
30
0
0
SPLINE
5
18F
100
AcDbEntity
8
1
62
256
6
ByLayer
370
18
48
1
60
0
100
AcDbSpline
70
4
71
3
72
14
73
10
40
0
40
0
40
0
40
0
40
0.164525200330973
40
0.164525200330973
40
0.540804984924847
40
0.540804984924847
40
0.917041398719691
40
0.917041398719691
40
1
40
1
40
1
40
1
41
1
10
47.7976832798602
20
-31.9568214314868
30
0
41
1
10
47.8037121151588
20
-31.9520081508344
30
0
41
1
10
47.8100601388464
20
-31.9473030425621
30
0
41
1
10
47.831771503086
20
-31.9324861848836
30
0
41
1
10
47.8486720895802
20
-31.9229755239033
30
0
41
1
10
47.8836193275266
20
-31.9073476842461
30
0
41
1
10
47.9020523100534
20
-31.9010477318206
30
0
41
1
10
47.9239700273144
20
-31.8954617968473
30
0
41
1
10
47.9279453349183
20
-31.8945242173708
30
0
41
1
10
47.9319013903138
20
-31.8936621366433
30
0
0
SPLINE
5
190
100
AcDbEntity
8
1
62
256
6
ByLayer
370
18
48
1
60
0
100
AcDbSpline
70
4
71
3
72
14
73
10
40
0
40
0
40
0
40
0
40
0.0829586012803273
40
0.0829586012803273
40
0.45919501507516
40
0.45919501507516
40
0.83547479966902
40
0.83547479966902
40
1
40
1
40
1
40
1
41
1
10
46.2232293445526
20
-30.7020134220478
30
0
41
1
10
46.2233858442817
20
-30.7057436488541
30
0
41
1
10
46.2235028373593
20
-30.7095352487138
30
0
41
1
10
46.2239134555903
20
-30.7306932370569
30
0
41
1
10
46.2233582494219
20
-30.7494613686571
30
0
41
1
10
46.2202526139144
20
-30.7872959300261
30
0
41
1
10
46.2176624711609
20
-30.8067868689253
30
0
41
1
10
46.2128795074495
20
-30.8334097995008
30
0
41
1
10
46.2112720051129
20
-30.8414210051536
30
0
41
1
10
46.2095510217075
20
-30.8492386342319
30
0
0
SPLINE
5
191
100
AcDbEntity
8
1
62
256
6
ByLayer
370
18
48
1
60
0
100
AcDbSpline
70
4
71
3
72
12
73
8
40
0
40
0
40
0
40
0
40
0.392678099452574
40
0.392678099452574
40
0.791279335968779
40
0.791279335968779
40
1
40
1
40
1
40
1
41
1
10
46.6432365407924
20
-31.7879082827363
30
0
41
1
10
46.6590727016754
20
-31.7947789296278
30
0
41
1
10
46.6757882327923
20
-31.8035696560083
30
0
41
1
10
46.7087666387289
20
-31.824559786352
30
0
41
1
10
46.7254174364355
20
-31.8370904205337
30
0
41
1
10
46.7486655202531
20
-31.8573279680465
30
0
41
1
10
46.7564216548174
20
-31.8646040522845
30
0
41
1
10
46.7637763283985
20
-31.8719742000753
30
0
0
SPLINE
5
192
100
AcDbEntity
8
1
62
256
6
ByLayer
370
18
48
1
60
0
100
AcDbSpline
70
4
71
3
72
12
73
8
40
0
40
0
40
0
40
0
40
0.392678099449944
40
0.392678099449944
40
0.79127933596611
40
0.79127933596611
40
1
40
1
40
1
40
1
41
1
10
48.1121156264509
20
-29.9539448588638
30
0
41
1
10
48.0947047599496
20
-29.9454995063538
30
0
41
1
10
48.0768998218578
20
-29.9356193729985
30
0
41
1
10
48.0431581007946
20
-29.9138659275282
30
0
41
1
10
48.0268571998316
20
-29.9016851900901
30
0
41
1
10
48.0051344372263
20
-29.8829729637897
30
0
41
1
10
47.9980850313121
20
-29.8764036082018
30
0
41
1
10
47.9915758388448
20
-29.8698789415249
30
0
0
SPLINE
5
193
100
AcDbEntity
8
1
62
256
6
ByLayer
370
18
48
1
60
0
100
AcDbSpline
70
4
71
3
72
14
73
10
40
0
40
0
40
0
40
0
40
0.164525200330966
40
0.164525200330966
40
0.54080498492486
40
0.54080498492486
40
0.917041398719709
40
0.917041398719709
40
1
40
1
40
1
40
1
41
1
10
46.9576688873826
20
-29.7850317101128
30
0
41
1
10
46.9509768163822
20
-29.7891817550634
30
0
41
1
10
46.9440510950552
20
-29.7933091656963
30
0
41
1
10
46.9207912232285
20
-29.8065775157876
30
0
41
1
10
46.9033639949387
20
-29.8155615349724
30
0
41
1
10
46.8686926203836
20
-29.8314652380209
30
0
41
1
10
46.8510616355871
20
-29.8385671881767
30
0
41
1
10
46.8307332564461
20
-29.84574246127
30
0
41
1
10
46.827071392374
20
-29.8469934842784
30
0
41
1
10
46.8234507769292
20
-29.8481910049565
30
0
0
SPLINE
5
194
100
AcDbEntity
8
1
62
256
6
ByLayer
370
18
48
1
60
0
100
AcDbSpline
70
4
71
3
72
8
73
4
40
0
40
0
40
0
40
0
40
1
40
1
40
1
40
1
41
1
10
22.9609847588647
20
31.0544615075762
30
0
41
1
10
22.9475806244986
20
31.0028429217618
30
0
41
1
10
22.9341831017393
20
30.9512270468484
30
0
41
1
10
22.92079238
20
30.8996141556632
30
0
0
SPLINE
5
195
100
AcDbEntity
8
1
62
256
6
ByLayer
370
18
48
1
60
0
100
AcDbSpline
70
4
71
3
72
8
73
4
40
0
40
0
40
0
40
0
40
1
40
1
40
1
40
1
41
1
10
22.92079238
20
-30.8996141556632
30
0
41
1
10
22.9876698367429
20
-31.1573850932431
30
0
41
1
10
23.0547179109423
20
-31.4152349416224
30
0
41
1
10
23.121914163947
20
-31.6731305073564
30
0
0
SPLINE
5
196
100
AcDbEntity
8
1
62
256
6
ByLayer
370
18
48
1
60
0
100
AcDbSpline
70
4
71
1
72
4
73
2
40
0
40
0
40
1
40
1
41
1
10
40.723883338271
20
-17.4097995433294
30
0
41
1
10
40.6488285887266
20
-17.3607920204348
30
0
0
SPLINE
5
197
100
AcDbEntity
8
1
62
256
6
ByLayer
370
18
48
1
60
0
100
AcDbSpline
70
4
71
2
72
6
73
3
40
0
40
0
40
0
40
1
40
1
40
1
41
1
10
32.6751324191375
20
-28.8592473531643
30
0
41
1
10
32.6376050443654
20
-28.834743591717
30
0
41
1
10
32.6000776695932
20
-28.8102398302696
30
0
0
SPLINE
5
198
100
AcDbEntity
8
1
62
256
6
ByLayer
370
18
48
1
60
0
100
AcDbSpline
70
4
71
3
72
8
73
4
40
0
40
0
40
0
40
0
40
1
40
1
40
1
40
1
41
1
10
23.1219141639471
20
-31.6731305073564
30
0
41
1
10
23.366872042097
20
-31.2771209679198
30
0
41
1
10
23.6291197467588
20
-30.887011030072
30
0
41
1
10
23.8962856159808
20
-30.5006323764651
30
0
0
SPLINE
5
199
100
AcDbEntity
8
1
62
256
6
ByLayer
370
18
48
1
60
0
100
AcDbSpline
70
4
71
3
72
16
73
12
40
0
40
0
40
0
40
0
40
0.463423600832262
40
0.463423600832262
40
0.646243952932856
40
0.646243952932856
40
0.831657283224518
40
0.831657283224518
40
0.94750434429086
40
0.94750434429086
40
1
40
1
40
1
40
1
41
1
10
10.1056624327026
20
29.9139548464691
30
0
41
1
10
10.1343390747265
20
29.9485407466772
30
0
41
1
10
10.1736499876091
20
29.982269090612
30
0
41
1
10
10.2546180633468
20
30.0239686896252
30
0
41
1
10
10.2809130191141
20
30.0352936109065
30
0
41
1
10
10.3420137796675
20
30.0555697561518
30
0
41
1
10
10.3777400094532
20
30.0647246060481
30
0
41
1
10
10.443351653645
20
30.0751823136668
30
0
41
1
10
10.4710402024013
20
30.0781795790239
30
0
41
1
10
10.5123223625249
20
30.0802576981002
30
0
41
1
10
10.5255210031399
20
30.0805927603169
30
0
41
1
10
10.5386751345948
20
30.0805927603169
30
0
0
SPLINE
5
19A
100
AcDbEntity
8
1
62
256
6
ByLayer
370
18
48
1
60
0
100
AcDbSpline
70
4
71
3
72
16
73
12
40
0
40
0
40
0
40
0
40
0.113316224833596
40
0.113316224833596
40
0.252990411571581
40
0.252990411571581
40
0.473309013928343
40
0.473309013928343
40
0.896716357718895
40
0.896716357718895
40
1
40
1
40
1
40
1
41
1
10
13.4613248654052
20
30.0805927603169
30
0
41
1
10
13.4894125595718
20
30.0805927603169
30
0
41
1
10
13.517849357763
20
30.0790101689567
30
0
41
1
10
13.5767970345725
20
30.0726712338969
30
0
41
1
10
13.6072473721288
20
30.0672275748685
30
0
41
1
10
13.6769143636602
20
30.0506647867052
30
0
41
1
10
13.7128266507651
20
30.0378702684275
30
0
41
1
10
13.8014637450836
20
29.9980833386355
30
0
41
1
10
13.8423708397531
20
29.967975934908
30
0
41
1
10
13.8809034737598
20
29.9294196064672
30
0
41
1
10
13.8878971837969
20
29.9217223689309
30
0
41
1
10
13.8943375672975
20
29.9139548464691
30
0
0
SPLINE
5
19B
100
AcDbEntity
8
1
62
256
6
ByLayer
370
18
48
1
60
0
100
AcDbSpline
70
4
71
3
72
8
73
4
40
0
40
0
40
0
40
0
40
1
40
1
40
1
40
1
41
1
10
23.8962856159808
20
31.0760760071151
30
0
41
1
10
23.5776018829067
20
31.0760760071151
30
0
41
1
10
23.2659394678548
20
31.0688931604307
30
0
41
1
10
22.9609847588647
20
31.0544615075762
30
0
0
SPLINE
5
19C
100
AcDbEntity
8
1
62
256
6
ByLayer
370
18
48
1
60
0
100
AcDbSpline
70
4
71
2
72
11
73
8
40
0
40
0
40
0
40
0.0353878362392797
40
0.324771485367496
40
0.51769391811964
40
0.710616350871784
40
0.807077567247856
40
1
40
1
40
1
41
1
10
45.3427272594344
20
-14.5388000101173
30
0
41
1
10
45.2445764066614
20
-14.5439058814797
30
0
41
1
10
44.3313250332941
20
-14.6287837022329
30
0
41
1
10
42.9575646906466
20
-15.2036743028787
30
0
41
1
10
41.7210534589771
20
-16.118511073883
30
0
41
1
10
41.3336071354935
20
-16.5204794429158
30
0
41
1
10
40.9032858510959
20
-16.9988967469496
30
0
41
1
10
40.6488285887266
20
-17.3607920204348
30
0
0
SPLINE
5
19D
100
AcDbEntity
8
1
62
256
6
ByLayer
370
18
48
1
60
0
100
AcDbSpline
70
4
71
3
72
10
73
6
40
0
40
0
40
0
40
0
40
0.5
40
0.5
40
1
40
1
40
1
40
1
41
1
10
31.7760502351665
20
-27.1118147738645
30
0
41
1
10
31.0732310782034
20
-28.1119371833093
30
0
41
1
10
30.7799427107029
20
-29.3263472458712
30
0
41
1
10
30.5669576765031
20
-31.7341506613794
30
0
41
1
10
30.7805389465477
20
-32.982882956717
30
0
41
1
10
31.370415277869
20
-34.0496139856425
30
0
0
SPLINE
5
19E
100
AcDbEntity
8
1
62
256
6
ByLayer
370
18
48
1
60
0
100
AcDbSpline
70
4
71
3
72
14
73
10
40
0
40
0
40
0
40
0
40
0.264682281129105
40
0.264682281129105
40
0.529206797196864
40
0.529206797196864
40
0.796215005013495
40
0.796215005013495
40
1
40
1
40
1
40
1
41
1
10
22.92079238
20
-30.8996141556632
30
0
41
1
10
22.4918347090297
20
-30.8782470120691
30
0
41
1
10
22.0760939855286
20
-30.8416690423415
30
0
41
1
10
21.3399746287024
20
-30.7377355602684
30
0
41
1
10
21.0095242838746
20
-30.6687823920308
30
0
41
1
10
20.4724242383792
20
-30.4990243000185
30
0
41
1
10
20.2597267854547
20
-30.3955004707743
30
0
41
1
10
20.0093210835962
20
-30.1888506958789
30
0
41
1
10
19.9399854717531
20
-30.0897854016817
30
0
41
1
10
19.9115068236138
20
-29.9850116132027
30
0
0
SPLINE
5
19F
100
AcDbEntity
8
1
62
256
6
ByLayer
370
18
48
1
60
0
100
AcDbSpline
70
4
71
2
72
11
73
8
40
0
40
0
40
0
40
0.0610623745695792
40
0.342743662198705
40
0.53053118728479
40
0.718318712370874
40
0.812212474913916
40
1
40
1
40
1
41
1
10
31.6036219161934
20
-34.447820199341
30
0
41
1
10
31.5515656021975
20
-34.2803898726593
30
0
41
1
10
31.3195238061361
20
-33.2940058409738
30
0
41
1
10
31.4127653524471
20
-31.7820680960399
30
0
41
1
10
31.865614063948
20
-30.2937694370019
30
0
41
1
10
32.114565341051
20
-29.7904543418764
30
0
41
1
10
32.4207432368444
20
-29.2211924457081
30
0
41
1
10
32.6751324191375
20
-28.8592473531643
30
0
0
SPLINE
5
1A0
100
AcDbEntity
8
1
62
256
6
ByLayer
370
18
48
1
60
0
100
AcDbSpline
70
4
71
3
72
8
73
4
40
0
40
0
40
0
40
0
40
1
40
1
40
1
40
1
41
1
10
24.078325225452
20
-35.401156117534
30
0
41
1
10
23.7545313349606
20
-34.1529547577217
30
0
41
1
10
23.4351052027629
20
-32.9102917649814
30
0
41
1
10
23.1219141639471
20
-31.6731305073564
30
0
0
SPLINE
5
1A1
100
AcDbEntity
8
1
62
256
6
ByLayer
370
18
48
1
60
0
100
AcDbSpline
70
4
71
3
72
16
73
12
40
0
40
0
40
0
40
0
40
0.113316224833592
40
0.113316224833592
40
0.252990411571568
40
0.252990411571568
40
0.473309013928318
40
0.473309013928318
40
0.896716357718825
40
0.896716357718825
40
1
40
1
40
1
40
1
41
1
10
13.4613248654052
20
-9.3492213145251
30
0
41
1
10
13.4894125595718
20
-9.3492213145251
30
0
41
1
10
13.517849357763
20
-9.35431657338981
30
0
41
1
10
13.5767970345725
20
-9.37467777536565
30
0
41
1
10
13.6072473721288
20
-9.39213979793414
30
0
41
1
10
13.6769143636602
20
-9.44503542604383
30
0
41
1
10
13.7128266507651
20
-9.4856938043188
30
0
41
1
10
13.8014637450836
20
-9.61105923366807
30
0
41
1
10
13.842370839753
20
-9.70465429390066
30
0
41
1
10
13.8809034737598
20
-9.82244573862474
30
0
41
1
10
13.8878971837969
20
-9.84586944318031
30
0
41
1
10
13.8943375672975
20
-9.86941261896621
30
0
0
SPLINE
5
1A2
100
AcDbEntity
8
1
62
256
6
ByLayer
370
18
48
1
60
0
100
AcDbSpline
70
4
71
3
72
12
73
8
40
0
40
0
40
0
40
0
40
0.319932024559148
40
0.319932024559148
40
0.65995413188549
40
0.65995413188549
40
1
40
1
40
1
40
1
41
1
10
31.3704152775707
20
-34.0496139842636
30
0
41
1
10
31.3823917297869
20
-34.0712721734853
30
0
41
1
10
31.3944541741194
20
-34.09288238284
30
0
41
1
10
31.4195125385601
20
-34.1373588508062
30
0
41
1
10
31.4325197315633
20
-34.1602191605634
30
0
41
1
10
31.4587266174013
20
-34.2058293666309
30
0
41
1
10
31.4719265524371
20
-34.2285796533774
30
0
41
1
10
31.4852216782177
20
-34.2512732264337
30
0
0
SPLINE
5
1A3
100
AcDbEntity
8
1
62
256
6
ByLayer
370
18
48
1
60
0
100
AcDbSpline
70
4
71
3
72
10
73
6
40
0
40
0
40
0
40
0
40
0.5
40
0.5
40
1
40
1
40
1
40
1
41
1
10
45.1132074776488
20
-14.5003219732959
30
0
41
1
10
43.9095345096297
20
-14.3137827221674
30
0
41
1
10
42.6805416915809
20
-14.5322695517066
30
0
41
1
10
40.4721418359058
20
-15.5510517216859
30
0
41
1
10
39.41639370449
20
-16.2436884017819
30
0
41
1
10
38.7066246016709
20
-17.252986950924
30
0
0
SPLINE
5
1A4
100
AcDbEntity
8
1
62
256
6
ByLayer
370
18
48
1
60
0
100
AcDbSpline
70
4
71
3
72
10
73
6
40
0
40
0
40
0
40
0
40
0.380409167241273
40
0.380409167241273
40
1
40
1
40
1
40
1
41
1
10
10.5386751345948
20
-23.9979013266023
30
0
41
1
10
10.4562351620401
20
-24.0624877434437
30
0
41
1
10
10.3844110470353
20
-24.1483900669021
30
0
41
1
10
10.2264153584242
20
-24.3932272932951
30
0
41
1
10
10.1549704016743
20
-24.5688883983991
30
0
41
1
10
10.1056624327026
20
-24.7520548830776
30
0
0
SPLINE
5
1A5
100
AcDbEntity
8
1
62
256
6
ByLayer
370
18
48
1
60
0
100
AcDbSpline
70
4
71
3
72
16
73
12
40
0
40
0
40
0
40
0
40
0.113316224833593
40
0.113316224833593
40
0.252990411571579
40
0.252990411571579
40
0.473309013928354
40
0.473309013928354
40
0.896716357718913
40
0.896716357718913
40
1
40
1
40
1
40
1
41
1
10
10.5386751345948
20
9.34922131452512
30
0
41
1
10
10.5105874404281
20
9.34922131452512
30
0
41
1
10
10.482150642237
20
9.35431657338984
30
0
41
1
10
10.4232029654275
20
9.37467777536568
30
0
41
1
10
10.3927526278712
20
9.39213979793414
30
0
41
1
10
10.3230856363398
20
9.44503542604386
30
0
41
1
10
10.2871733492349
20
9.48569380431883
30
0
41
1
10
10.1985362549164
20
9.6110592336681
30
0
41
1
10
10.1576291602469
20
9.70465429390072
30
0
41
1
10
10.1190965262402
20
9.82244573862477
30
0
41
1
10
10.112102816203
20
9.84586944318031
30
0
41
1
10
10.1056624327025
20
9.86941261896618
30
0
0
SPLINE
5
1A6
100
AcDbEntity
8
1
62
256
6
ByLayer
370
18
48
1
60
0
100
AcDbSpline
70
4
71
3
72
12
73
8
40
0
40
0
40
0
40
0
40
0.45150534291289
40
0.45150534291289
40
0.920730471123023
40
0.920730471123023
40
1
40
1
40
1
40
1
41
1
10
13.4613248654052
20
-25.997099587303
30
0
41
1
10
13.547661047609
20
-25.929460740764
30
0
41
1
10
13.6282992629309
20
-25.8729427445377
30
0
41
1
10
13.7673195883123
20
-25.7763694015603
30
0
41
1
10
13.8267012384145
20
-25.7351243777348
30
0
41
1
10
13.8799694443486
20
-25.7002149875781
30
0
41
1
10
13.8873502204194
20
-25.6954884708364
30
0
41
1
10
13.8943375672974
20
-25.6912337669114
30
0
0
SPLINE
5
1A7
100
AcDbEntity
8
1
62
256
6
ByLayer
370
18
48
1
60
0
100
AcDbSpline
70
4
71
3
72
12
73
8
40
0
40
0
40
0
40
0
40
0.31993200000789
40
0.31993200000789
40
0.659954096648702
40
0.659954096648702
40
1
40
1
40
1
40
1
41
1
10
45.3427272589024
20
-14.5388000102887
30
0
41
1
10
45.3183053532249
20
-14.5343953971366
30
0
41
1
10
45.2938649182134
20
-14.530086822492
30
0
41
1
10
45.2434133952493
20
-14.5213979441475
30
0
41
1
10
45.2173996100015
20
-14.5170300488241
30
0
41
1
10
45.1653326461168
20
-14.50851231117
30
0
41
1
10
45.1392790090177
20
-14.504362409579
30
0
41
1
10
45.113207476384
20
-14.5003219730998
30
0
0
SPLINE
5
1A8
100
AcDbEntity
8
1
62
256
6
ByLayer
370
18
48
1
60
0
100
AcDbSpline
70
4
71
3
72
12
73
8
40
0
40
0
40
0
40
0
40
0.323508446938341
40
0.323508446938341
40
0.66174290517764
40
0.66174290517764
40
1
40
1
40
1
40
1
41
1
10
31.4852216790223
20
-34.2512732257493
30
0
41
1
10
31.4977304043991
20
-34.2726244846963
30
0
41
1
10
31.5103235902931
20
-34.2939258810279
30
0
41
1
10
31.5362544795371
20
-34.3373944567008
30
0
41
1
10
31.5496001967519
20
-34.3595572750073
30
0
41
1
10
31.5764743345205
20
-34.403772135692
30
0
41
1
10
31.5900029919365
20
-34.4258245402861
30
0
41
1
10
31.6036219145061
20
-34.4478201966182
30
0
0
SPLINE
5
1A9
100
AcDbEntity
8
1
62
256
6
ByLayer
370
18
48
1
60
0
100
AcDbSpline
70
4
71
3
72
8
73
4
40
0
40
0
40
0
40
0
40
1
40
1
40
1
40
1
41
1
10
31.6036219161947
20
-34.4478201993454
30
0
41
1
10
32.4173232517136
20
-35.7620133616782
30
0
41
1
10
33.940709230515
20
-36.5867845058198
30
0
41
1
10
35.4904148842672
20
-36.4269959511668
30
0
0
SPLINE
5
1AA
100
AcDbEntity
8
1
62
256
6
ByLayer
370
18
48
1
60
0
100
AcDbSpline
70
4
71
2
72
11
73
8
40
0
40
0
40
0
40
0.0353878362392742
40
0.324771485367492
40
0.517693918119637
40
0.710616350871782
40
0.807077567247855
40
1
40
1
40
1
41
1
10
31.4852216790677
20
-34.2512732262701
30
0
41
1
10
31.4584911884151
20
-34.1547827484757
30
0
41
1
10
31.2444690565918
20
-33.2449983180792
30
0
41
1
10
31.3377106029027
20
-31.7330605731452
30
0
41
1
10
31.7905593144036
20
-30.2447619141073
30
0
41
1
10
32.0395105915066
20
-29.7414468189818
30
0
41
1
10
32.3456884873
20
-29.1721849228135
30
0
41
1
10
32.6000776695932
20
-28.8102398302696
30
0
0
SPLINE
5
1AB
100
AcDbEntity
8
1
62
256
6
ByLayer
370
18
48
1
60
0
100
AcDbSpline
70
4
71
3
72
16
73
12
40
0
40
0
40
0
40
0
40
0.463423600832209
40
0.463423600832209
40
0.646243952932815
40
0.646243952932815
40
0.831657283224495
40
0.831657283224495
40
0.947504344290837
40
0.947504344290837
40
1
40
1
40
1
40
1
41
1
10
13.8943375672974
20
9.86941261896621
30
0
41
1
10
13.8656609252734
20
9.76458357826289
30
0
41
1
10
13.8263500123909
20
9.66039292789941
30
0
41
1
10
13.7453819366532
20
9.52957658281042
30
0
41
1
10
13.7190869808859
20
9.49380155568073
30
0
41
1
10
13.6579862203325
20
9.42941539787637
30
0
41
1
10
13.6222599905468
20
9.40014891155712
30
0
41
1
10
13.556648346355
20
9.36662118733784
30
0
41
1
10
13.5289597975987
20
9.35698328824239
30
0
41
1
10
13.4876776374751
20
9.35029954873104
30
0
41
1
10
13.4744789968601
20
9.34922131452501
30
0
41
1
10
13.4613248654052
20
9.34922131452501
30
0
0
SPLINE
5
1AC
100
AcDbEntity
8
1
62
256
6
ByLayer
370
18
48
1
60
0
100
AcDbSpline
70
4
71
3
72
15
73
11
40
0
40
0
40
0
40
0
40
0.287801217906049
40
0.287801217906049
40
0.580633313242725
40
0.580633313242725
40
0.87107153239474
40
0.87107153239474
40
0.87107153239474
40
1
40
1
40
1
40
1
41
1
10
48.7653074305205
20
-17.5432969876193
30
0
41
1
10
48.6578408672349
20
-17.1168707976617
30
0
41
1
10
48.4768707834916
20
-16.7035534130225
30
0
41
1
10
47.9909775006234
20
-15.9641369391289
30
0
41
1
10
47.6766923414218
20
-15.6300801468646
30
0
41
1
10
46.9672270035285
20
-15.0943247288843
30
0
41
1
10
46.5648452655464
20
-14.8835518860551
30
0
41
1
10
46.1450384881725
20
-14.739308728546
30
0
41
1
10
45.9568332910282
20
-14.6746425217127
30
0
41
1
10
45.7638154318809
20
-14.6225086693238
30
0
41
1
10
45.5686532132205
20
-14.5823903202928
30
0
0
SPLINE
5
1AD
100
AcDbEntity
8
1
62
256
6
ByLayer
370
18
48
1
60
0
100
AcDbSpline
70
4
71
3
72
10
73
6
40
0
40
0
40
0
40
0
40
0.546460146737551
40
0.546460146737551
40
1
40
1
40
1
40
1
41
1
10
10.1056624327026
20
-25.6912337669117
30
0
41
1
10
10.1532894702054
20
-25.7202346089961
30
0
41
1
10
10.2200330642683
20
-25.76759902668
30
0
41
1
10
10.3706988494232
20
-25.8722342073356
30
0
41
1
10
10.4518011249023
20
-25.9290393875139
30
0
41
1
10
10.5386751345948
20
-25.997099587303
30
0
0
SPLINE
5
1AE
100
AcDbEntity
8
1
62
256
6
ByLayer
370
18
48
1
60
0
100
AcDbSpline
70
4
71
3
72
8
73
4
40
0
40
0
40
0
40
0
40
1
40
1
40
1
40
1
41
1
10
25.5776838368165
20
-41.1481108788425
30
0
41
1
10
25.0755939806554
20
-39.2330851708562
30
0
41
1
10
24.5754480545561
20
-37.3175276412209
30
0
41
1
10
24.078325225452
20
-35.401156117534
30
0
0
SPLINE
5
1AF
100
AcDbEntity
8
1
62
256
6
ByLayer
370
18
48
1
60
0
100
AcDbSpline
70
4
71
3
72
16
73
12
40
0
40
0
40
0
40
0
40
0.463423600832241
40
0.463423600832241
40
0.646243952932837
40
0.646243952932837
40
0.831657283224505
40
0.831657283224505
40
0.947504344290848
40
0.947504344290848
40
1
40
1
40
1
40
1
41
1
10
10.1056624327026
20
-9.86941261896621
30
0
41
1
10
10.1343390747265
20
-9.76458357826289
30
0
41
1
10
10.1736499876091
20
-9.66039292789938
30
0
41
1
10
10.2546180633468
20
-9.52957658281042
30
0
41
1
10
10.2809130191141
20
-9.49380155568073
30
0
41
1
10
10.3420137796675
20
-9.42941539787637
30
0
41
1
10
10.3777400094532
20
-9.40014891155712
30
0
41
1
10
10.4433516536449
20
-9.36662118733787
30
0
41
1
10
10.4710402024013
20
-9.35698328824239
30
0
41
1
10
10.5123223625249
20
-9.35029954873107
30
0
41
1
10
10.5255210031399
20
-9.34922131452504
30
0
41
1
10
10.5386751345948
20
-9.34922131452504
30
0
0
SPLINE
5
1B0
100
AcDbEntity
8
1
62
256
6
ByLayer
370
18
48
1
60
0
100
AcDbSpline
70
4
71
2
72
6
73
3
40
0
40
0
40
0
40
1
40
1
40
1
41
1
10
32.6000776695932
20
-28.8102398302696
30
0
41
1
10
32.562550294821
20
-28.7857360688223
30
0
41
1
10
32.5250229200488
20
-28.761232307375
30
0
0
SPLINE
5
1B1
100
AcDbEntity
8
1
62
256
6
ByLayer
370
18
48
1
60
0
100
AcDbSpline
70
4
71
2
72
6
73
3
40
0
40
0
40
0
40
1
40
1
40
1
41
1.02613459695995
10
47.7594986431973
20
-19.9234761103282
30
0
41
0.893236016722495
10
48.5855180365642
20
-18.7484532988031
30
0
41
0.877869681319409
10
48.7653074305205
20
-17.5432969876193
30
0
0
SPLINE
5
1B2
100
AcDbEntity
8
1
62
256
6
ByLayer
370
18
48
1
60
0
100
AcDbSpline
70
4
71
3
72
15
73
11
40
0
40
0
40
0
40
0
40
0.281039629141019
40
0.281039629141019
40
0.562712048900373
40
0.562712048900373
40
0.835250831097508
40
0.835250831097508
40
0.835250831097508
40
1
40
1
40
1
40
1
41
1
10
19.9115068236138
20
29.9850116132027
30
0
41
1
10
19.9505361776874
20
30.1286017607468
30
0
41
1
10
20.0674973665296
20
30.2617723075542
30
0
41
1
10
20.4463314652044
20
30.489895050164
30
0
41
1
10
20.7141452574929
20
30.5880850478213
30
0
41
1
10
21.3538238361363
20
30.741378992888
30
0
41
1
10
21.7310620960588
20
30.8001569918553
30
0
41
1
10
22.1388781334302
20
30.8415901871074
30
0
41
1
10
22.3877509516846
20
30.8668751075782
30
0
41
1
10
22.6513106929054
20
30.88619079412
30
0
41
1
10
22.92079238
20
30.8996141556632
30
0
0
SPLINE
5
1B3
100
AcDbEntity
8
1
62
256
6
ByLayer
370
18
48
1
60
0
100
AcDbSpline
70
4
71
2
72
11
73
8
40
0
40
0
40
0
40
0.0610623745695851
40
0.34274366219871
40
0.530531187284793
40
0.718318712370876
40
0.812212474913917
40
1
40
1
40
1
41
1
10
45.568653213216
20
-14.5823903202929
30
0
41
1
10
45.3965226579059
20
-14.5857670881584
30
0
41
1
10
44.4063797828385
20
-14.6777912251275
30
0
41
1
10
43.032619440191
20
-15.2526818257733
30
0
41
1
10
41.7961082085215
20
-16.1675185967777
30
0
41
1
10
41.4086618850379
20
-16.5694869658104
30
0
41
1
10
40.9783406006403
20
-17.0479042698442
30
0
41
1
10
40.723883338271
20
-17.4097995433294
30
0
0
SPLINE
5
1B4
100
AcDbEntity
8
1
62
256
6
ByLayer
370
18
48
1
60
0
100
AcDbSpline
70
4
71
2
72
6
73
3
40
0
40
0
40
0
40
1
40
1
40
1
41
0.877033727687691
10
38.706722867928
20
-17.2529495449386
30
0
41
0.889137743459745
10
39.8292747959213
20
-16.8256586476888
30
0
41
1.02613459695995
10
40.5737738391823
20
-17.3117844975402
30
0
0
SPLINE
5
1B5
100
AcDbEntity
8
1
62
256
6
ByLayer
370
18
48
1
60
0
100
AcDbSpline
70
4
71
3
72
16
73
12
40
0
40
0
40
0
40
0
40
0.463423600832241
40
0.463423600832241
40
0.646243952932834
40
0.646243952932834
40
0.831657283224497
40
0.831657283224497
40
0.947504344290847
40
0.947504344290847
40
1
40
1
40
1
40
1
41
1
10
13.8943375672974
20
-29.9139548464691
30
0
41
1
10
13.8656609252734
20
-29.9485407466772
30
0
41
1
10
13.8263500123909
20
-29.982269090612
30
0
41
1
10
13.7453819366532
20
-30.0239686896252
30
0
41
1
10
13.7190869808859
20
-30.0352936109065
30
0
41
1
10
13.6579862203325
20
-30.0555697561518
30
0
41
1
10
13.6222599905467
20
-30.0647246060481
30
0
41
1
10
13.556648346355
20
-30.0751823136668
30
0
41
1
10
13.5289597975987
20
-30.0781795790239
30
0
41
1
10
13.4876776374751
20
-30.0802576981002
30
0
41
1
10
13.47447899686
20
-30.0805927603169
30
0
41
1
10
13.4613248654052
20
-30.0805927603169
30
0
0
SPLINE
5
1B6
100
AcDbEntity
8
1
62
256
6
ByLayer
370
18
48
1
60
0
100
AcDbSpline
70
4
71
2
72
6
73
3
40
0
40
0
40
0
40
1
40
1
40
1
41
0.877869679988385
10
35.4904147877876
20
-36.4269960047338
30
0
41
0.893236010966691
10
36.5850851698472
20
-35.8192175929597
30
0
41
1.02613459695995
10
37.4111046043114
20
-34.644194722973
30
0
0
SPLINE
5
1B7
100
AcDbEntity
8
1
62
256
6
ByLayer
370
18
48
1
60
0
100
AcDbSpline
70
4
71
2
72
11
73
8
40
0
40
0
40
0
40
0.0079111861631853
40
0.30553783031423
40
0.503955593081593
40
0.702373355848956
40
0.801582237232637
40
1
40
1
40
1
41
1.02613459695995
10
45.1132074776488
20
-14.5003219732959
30
0
41
1.02613459695995
10
45.0916417056055
20
-14.5021365415843
30
0
41
1.02613459695995
10
44.2562702837497
20
-14.5797761793382
30
0
41
1.02613459695995
10
42.8825099411023
20
-15.1546667799841
30
0
41
1.02613459695995
10
41.6459987094327
20
-16.0695035509884
30
0
41
1.02613459695995
10
41.2585523859491
20
-16.4714719200212
30
0
41
1.02613459695995
10
40.8282311015515
20
-16.9498892240549
30
0
41
1.02613459695995
10
40.5737738391823
20
-17.3117844975402
30
0
0
SPLINE
5
1B8
100
AcDbEntity
8
1
62
256
6
ByLayer
370
18
48
1
60
0
100
AcDbSpline
70
4
71
3
72
16
73
12
40
0
40
0
40
0
40
0
40
0.113316224833594
40
0.113316224833594
40
0.252990411571577
40
0.252990411571577
40
0.473309013928351
40
0.473309013928351
40
0.896716357718897
40
0.896716357718897
40
1
40
1
40
1
40
1
41
1
10
10.5386751345948
20
-30.0805927603169
30
0
41
1
10
10.5105874404281
20
-30.0805927603169
30
0
41
1
10
10.482150642237
20
-30.0790101689566
30
0
41
1
10
10.4232029654275
20
-30.0726712338969
30
0
41
1
10
10.3927526278712
20
-30.0672275748685
30
0
41
1
10
10.3230856363398
20
-30.0506647867052
30
0
41
1
10
10.2871733492349
20
-30.0378702684275
30
0
41
1
10
10.1985362549164
20
-29.9980833386355
30
0
41
1
10
10.1576291602469
20
-29.967975934908
30
0
41
1
10
10.1190965262402
20
-29.9294196064672
30
0
41
1
10
10.112102816203
20
-29.9217223689309
30
0
41
1
10
10.1056624327025
20
-29.9139548464691
30
0
0
SPLINE
5
1B9
100
AcDbEntity
8
1
62
256
6
ByLayer
370
18
48
1
60
0
100
AcDbSpline
70
4
71
1
72
4
73
2
40
0
40
0
40
1
40
1
41
1
10
40.6488285887266
20
-17.3607920204348
30
0
41
1
10
40.5737738391823
20
-17.3117844975401
30
0
0
SPLINE
5
1BA
100
AcDbEntity
8
1
62
256
6
ByLayer
370
18
48
1
60
0
100
AcDbSpline
70
4
71
3
72
10
73
6
40
0
40
0
40
0
40
0
40
0.6902721089088
40
0.6902721089088
40
1
40
1
40
1
40
1
41
1
10
13.8943375672974
20
-24.7520548830776
30
0
41
1
10
13.8395431206921
20
-24.5485075382183
30
0
41
1
10
13.7572550106766
20
-24.3530769032313
30
0
41
1
10
13.5891377804999
20
-24.1179667125787
30
0
41
1
10
13.5287708184857
20
-24.0507408934402
30
0
41
1
10
13.4613248654052
20
-23.9979013266023
30
0
0
SPLINE
5
1BB
100
AcDbEntity
8
1
62
256
6
ByLayer
370
18
48
1
60
0
100
AcDbSpline
70
4
71
2
72
11
73
8
40
0
40
0
40
0
40
0.0079111859457834
40
0.305537830162048
40
0.503955592972892
40
0.702373355783735
40
0.801582237189157
40
1
40
1
40
1
41
1.02613459695995
10
31.3704152775793
20
-34.0496139844557
30
0
41
1.02613459695995
10
31.3651851294688
20
-34.0281909262998
30
0
41
1.02613459695995
10
31.1694143070474
20
-33.1959907951846
30
0
41
1.02613459695995
10
31.2626558533584
20
-31.6840530502506
30
0
41
1.02613459695995
10
31.7155045648593
20
-30.1957543912127
30
0
41
1.02613459695995
10
31.9644558419622
20
-29.6924392960872
30
0
41
1.02613459695995
10
32.2706337377556
20
-29.1231773999188
30
0
41
1.02613459695995
10
32.5250229200488
20
-28.761232307375
30
0
0
SPLINE
5
1BC
100
AcDbEntity
8
1
62
256
6
ByLayer
370
18
48
1
60
0
100
AcDbSpline
70
4
71
3
72
12
73
8
40
0
40
0
40
0
40
0
40
0.323508413868236
40
0.323508413868236
40
0.661742854657612
40
0.661742854657612
40
1
40
1
40
1
40
1
41
1
10
45.5686532097312
20
-14.5823903204978
30
0
41
1
10
45.5443515191498
20
-14.5773947649589
30
0
41
1
10
45.5200291070667
20
-14.572494242065
30
0
41
1
10
45.4702369563253
20
-14.5626653868936
30
0
41
1
10
45.4447649720519
20
-14.5577458597504
30
0
41
1
10
45.393777977755
20
-14.5481159120519
30
0
41
1
10
45.3682625370018
20
-14.5434054247526
30
0
41
1
10
45.3427272592514
20
-14.5388000093602
30
0
0
SPLINE
5
1BD
100
AcDbEntity
8
1
62
256
6
ByLayer
370
18
48
1
60
0
100
AcDbSpline
70
4
71
2
72
6
73
3
40
0
40
0
40
0
40
1
40
1
40
1
41
1.02613459695995
10
32.5250229200488
20
-28.761232307375
30
0
41
0.889137202354598
10
31.7805204831088
20
-28.2751042415973
30
0
41
0.877033632073645
10
31.7760505893193
20
-27.1119072826479
30
0
0
SPLINE
5
1BE
100
AcDbEntity
8
SK1
62
256
6
ByLayer
370
18
48
1
60
0
100
AcDbSpline
70
4
71
3
72
26
73
22
40
0
40
0
40
0
40
0
40
0.462420532187944
40
0.462420532187944
40
0.662465761698283
40
0.662465761698283
40
0.830433309169693
40
0.830433309169693
40
0.87601894963741
40
0.87601894963741
40
0.905535493032455
40
0.905535493032455
40
0.92577818311669
40
0.92577818311669
40
0.946307111163799
40
0.946307111163799
40
0.963675313617857
40
0.963675313617857
40
0.991859972782862
40
0.991859972782862
40
1
40
1
40
1
40
1
41
1
10
-0.199999999999989
20
7.05951749342083
30
0
41
1
10
-0.199999999999989
20
6.93273416480454
30
0
41
1
10
-0.203968014086513
20
6.80463429773329
30
0
41
1
10
-0.223222206303944
20
6.62063667774228
30
0
41
1
10
-0.230822389897867
20
6.56482953243432
30
0
41
1
10
-0.252035566714568
20
6.46316921019911
30
0
41
1
10
-0.263798801619998
20
6.41617607028249
30
0
41
1
10
-0.290531391619595
20
6.36108887379029
30
0
41
1
10
-0.29710300077241
20
6.34947181616241
30
0
41
1
10
-0.310313928765424
20
6.33213067856883
30
0
41
1
10
-0.316208846631128
20
6.32567949173321
30
0
41
1
10
-0.327595492701022
20
6.31681373578161
30
0
41
1
10
-0.332739264568545
20
6.31372817209197
30
0
41
1
10
-0.343644708736434
20
6.30958040401461
30
0
41
1
10
-0.349575964479982
20
6.30853210514005
30
0
41
1
10
-0.360183897281416
20
6.30881607347521
30
0
41
1
10
-0.365032052617437
20
6.30978620719449
30
0
41
1
10
-0.376922909163994
20
6.31387292952667
30
0
41
1
10
-0.383695246431131
20
6.3179475897727
30
0
41
1
10
-0.39156461480826
20
6.32402624429125
30
0
41
1
10
-0.393293161608796
20
6.32546009510432
30
0
41
1
10
-0.394976888875277
20
6.32694279392757
30
0
0
SPLINE
5
1BF
100
AcDbEntity
8
SK1
62
256
6
ByLayer
370
18
48
1
60
0
100
AcDbSpline
70
4
71
3
72
22
73
18
40
0
40
0
40
0
40
0
40
0.366862607601256
40
0.366862607601256
40
0.737339621375052
40
0.737339621375052
40
0.838459586400285
40
0.838459586400285
40
0.872990642836393
40
0.872990642836393
40
0.908114554314301
40
0.908114554314301
40
0.93841147631739
40
0.93841147631739
40
0.978567405872927
40
0.978567405872927
40
1
40
1
40
1
40
1
41
1
10
-1.30710678118655
20
-4.81101329740289
30
0
41
1
10
-1.26411319574365
20
-5.05427021725674
30
0
41
1
10
-1.21291926611929
20
-5.29463858107241
30
0
41
1
10
-1.07751639291712
20
-5.76447191425098
30
0
41
1
10
-0.99999394263088
20
-6.0024064332149
30
0
41
1
10
-0.818580317119483
20
-6.26150782359156
30
0
41
1
10
-0.772786229091963
20
-6.31609141287933
30
0
41
1
10
-0.693958175551444
20
-6.37002132562083
30
0
41
1
10
-0.67174289599555
20
-6.38213989760789
30
0
41
1
10
-0.624176343099663
20
-6.39933264200099
30
0
41
1
10
-0.598041368844491
20
-6.40433410743103
30
0
41
1
10
-0.550095873812666
20
-6.4042038836908
30
0
41
1
10
-0.52764508925199
20
-6.40038614973912
30
0
41
1
10
-0.479150674129698
20
-6.38487542657816
30
0
41
1
10
-0.453444961156862
20
-6.37100758594852
30
0
41
1
10
-0.417985764291785
20
-6.34622757774423
30
0
41
1
10
-0.406197231050186
20
-6.33682378409867
30
0
41
1
10
-0.394976888874737
20
-6.32694309068151
30
0
0
SPLINE
5
1C0
100
AcDbEntity
8
SK1
62
256
6
ByLayer
370
18
48
1
60
0
100
AcDbSpline
70
4
71
3
72
10
73
6
40
0
40
0
40
0
40
0
40
0.5
40
0.5
40
1
40
1
40
1
40
1
41
1
10
-1.30710678118655
20
-4.81101329740289
30
0
41
1
10
-1.57713284158248
20
-3.28321078789992
30
0
41
1
10
-1.79449339715788
20
-1.64680798700616
30
0
41
1
10
-1.79438545511854
20
1.6481258022005
30
0
41
1
10
-1.57704898370505
20
3.28368386467716
30
0
41
1
10
-1.30710678118663
20
4.81101321788435
30
0
0
SPLINE
5
1C1
100
AcDbEntity
8
SK1
62
256
6
ByLayer
370
18
48
1
60
0
100
AcDbSpline
70
4
71
3
72
22
73
18
40
0
40
0
40
0
40
0
40
0.025518692999354
40
0.025518692999354
40
0.0515625307794633
40
0.0515625307794633
40
0.0689220502117165
40
0.0689220502117165
40
0.0862030429090035
40
0.0862030429090035
40
0.113761926258803
40
0.113761926258803
40
0.167639902693809
40
0.167639902693809
40
0.357269752158031
40
0.357269752158031
40
1
40
1
40
1
40
1
41
1
10
-0.394976888875277
20
-6.326943090669
30
0
41
1
10
-0.389699799773268
20
-6.32229605774103
30
0
41
1
10
-0.38394554029108
20
-6.31808234313019
30
0
41
1
10
-0.371336208800898
20
-6.31155719556298
30
0
41
1
10
-0.364237316839024
20
-6.30923328231674
30
0
41
1
10
-0.35209572007625
20
-6.30844589498398
30
0
41
1
10
-0.347038791108759
20
-6.3089739150856
30
0
41
1
10
-0.337436838154161
20
-6.31166640764118
30
0
41
1
10
-0.332782752688161
20
-6.31383711710231
30
0
41
1
10
-0.321723955926899
20
-6.32078578121266
30
0
41
1
10
-0.315689795621665
20
-6.32640446307903
30
0
41
1
10
-0.300083216036057
20
-6.3442802085479
30
0
41
1
10
-0.292057158925616
20
-6.35806878925098
30
0
41
1
10
-0.261294067338724
20
-6.42092251611513
30
0
41
1
10
-0.248999237994838
20
-6.47445017323312
30
0
41
1
10
-0.204624309665832
20
-6.70435570668306
30
0
41
1
10
-0.200000000000955
20
-6.88379158154922
30
0
41
1
10
-0.200000000000955
20
-7.05951756777665
30
0
0
SPLINE
5
1C2
100
AcDbEntity
8
SK1
62
256
6
ByLayer
370
18
48
1
60
0
100
AcDbSpline
70
4
71
3
72
22
73
18
40
0
40
0
40
0
40
0
40
0.038427246458711
40
0.038427246458711
40
0.0775026456766427
40
0.0775026456766427
40
0.106475059033524
40
0.106475059033524
40
0.135305917881828
40
0.135305917881828
40
0.182167074412018
40
0.182167074412018
40
0.275660663800869
40
0.275660663800869
40
0.616530102228659
40
0.616530102228659
40
1
40
1
40
1
40
1
41
1
10
-0.394976888875306
20
6.32694279392757
30
0
41
1
10
-0.414867561016194
20
6.34445862132063
30
0
41
1
10
-0.436644357284194
20
6.36058691921457
30
0
41
1
10
-0.484524151203374
20
6.3868168818706
30
0
41
1
10
-0.511419954277358
20
6.39702622866628
30
0
41
1
10
-0.560078773491597
20
6.40490957850619
30
0
41
1
10
-0.58185248496946
20
6.40512642059926
30
0
41
1
10
-0.623683911276828
20
6.39912423041605
30
0
41
1
10
-0.644207278837683
20
6.39293597600829
30
0
41
1
10
-0.694134540330907
20
6.37121870092642
30
0
41
1
10
-0.722113964046542
20
6.35215911803172
30
0
41
1
10
-0.796598131612939
20
6.28903777408343
30
0
41
1
10
-0.836555557792792
20
6.23798237717094
30
0
41
1
10
-0.997773060879837
20
5.995390913813
30
0
41
1
10
-1.07178904300878
20
5.77805690787602
30
0
41
1
10
-1.20827315239353
20
5.31693201445015
30
0
41
1
10
-1.26212533694985
20
5.06551762472202
30
0
41
1
10
-1.30710678118655
20
4.81101321788441
30
0
0
SPLINE
5
1C3
100
AcDbEntity
8
1
62
256
6
ByLayer
370
18
48
1
60
0
100
AcDbSpline
70
4
71
3
72
8
73
4
40
0
40
0
40
0
40
0
40
1
40
1
40
1
40
1
41
1
10
40.4655683975655
20
-19.2532850688308
30
0
41
1
10
40.720260850572
20
-19.0190936828587
30
0
41
1
10
40.9933092304283
20
-18.8387151052337
30
0
41
1
10
41.2972797027613
20
-18.7193305788789
30
0
0
SPLINE
5
1C4
100
AcDbEntity
8
1
62
256
6
ByLayer
370
18
48
1
60
0
100
AcDbSpline
70
4
71
3
72
12
73
8
40
0
40
0
40
0
40
0
40
0.418782075282768
40
0.418782075282768
40
0.706182120811176
40
0.706182120811176
40
1
40
1
40
1
40
1
41
1
10
60.5221689077827
20
-41.1320702159459
30
0
41
1
10
60.5587721956733
20
-41.1139631026853
30
0
41
1
10
60.595909659424
20
-41.0934195813814
30
0
41
1
10
60.656592079025
20
-41.0562536051155
30
0
41
1
10
60.6809923947275
20
-41.0402759553249
30
0
41
1
10
60.7288371591085
20
-41.006877440317
30
0
41
1
10
60.7523832666214
20
-40.9893379029677
30
0
41
1
10
60.7749377567886
20
-40.9714565697287
30
0
0
SPLINE
5
1C5
100
AcDbEntity
8
1
62
256
6
ByLayer
370
18
48
1
60
0
100
AcDbSpline
70
4
71
1
72
4
73
2
40
0
40
0
40
1
40
1
41
1
10
52.4937702758855
20
-26.5451427828035
30
0
41
1
10
52.7130137934912
20
-25.7295851537552
30
0
0
SPLINE
5
1C6
100
AcDbEntity
8
1
62
256
6
ByLayer
370
18
48
1
60
0
100
AcDbSpline
70
4
71
3
72
16
73
12
40
0
40
0
40
0
40
0
40
0.25
40
0.25
40
0.499999999999999
40
0.499999999999999
40
0.749999999999999
40
0.749999999999999
40
0.875
40
0.875
40
1
40
1
40
1
40
1
41
1
10
59.1779703676958
20
-41.5218763442366
30
0
41
1
10
58.1556765600684
20
-41.1309551264098
30
0
41
1
10
57.0749576133237
20
-40.7449017727504
30
0
41
1
10
54.673850723718
20
-39.9927638003947
30
0
41
1
10
53.4631519533378
20
-39.6157700781541
30
0
41
1
10
50.989881542815
20
-38.8812939317039
30
0
41
1
10
49.6588442553187
20
-38.5218569715474
30
0
41
1
10
47.7044689668168
20
-38.1154995526796
30
0
41
1
10
47.0603506973088
20
-38.0033289580022
30
0
41
1
10
45.9049368719265
20
-37.8612857350786
30
0
41
1
10
45.4054931318767
20
-37.8332845324282
30
0
41
1
10
44.9841342534154
20
-37.8364007520124
30
0
0
SPLINE
5
1C7
100
AcDbEntity
8
1
62
256
6
ByLayer
370
18
48
1
60
0
100
AcDbSpline
70
4
71
3
72
12
73
8
40
0
40
0
40
0
40
0
40
0.5
40
0.5
40
0.75
40
0.75
40
1
40
1
40
1
40
1
41
1
10
44.5766194853749
20
-23.0820241155131
30
0
41
1
10
44.4267291150858
20
-23.096551426601
30
0
41
1
10
44.2790965126614
20
-23.1131780586617
30
0
41
1
10
44.0609355994138
20
-23.141721989481
30
0
41
1
10
43.9887763517999
20
-23.151756649903
30
0
41
1
10
43.8456219341666
20
-23.1743095312172
30
0
41
1
10
43.7552690428627
20
-23.1537336407988
30
0
41
1
10
43.707343516659
20
-23.2219082950474
30
0
0
SPLINE
5
1C8
100
AcDbEntity
8
1
62
256
6
ByLayer
370
18
48
1
60
0
100
AcDbSpline
70
4
71
3
72
11
73
7
40
0
40
0
40
0
40
0
40
0.268536746003808
40
0.487975722202666
40
0.707414698401523
40
1
40
1
40
1
40
1
41
1.0249090909279
10
50.3275142353353
20
-35.0508290990111
30
0
41
1.0229768070834
10
51.4474483654804
20
-35.7886400336496
30
0
41
1.0191099966158
10
53.4222154567948
20
-37.0411936731743
30
0
41
1.01332460673153
10
56.7678974288288
20
-38.8376340342155
30
0
41
1.01203732298747
10
58.4969711482424
20
-39.9033838809043
30
0
41
1.00929221524307
10
60.0716197215879
20
-40.6799675957947
30
0
41
1.0087712828333
10
60.7876751719819
20
-40.9767431630133
30
0
0
SPLINE
5
1C9
100
AcDbEntity
8
1
62
256
6
ByLayer
370
18
48
1
60
0
100
AcDbSpline
70
4
71
3
72
10
73
6
40
0
40
0
40
0
40
0
40
0.465995854460557
40
0.465995854460557
40
1
40
1
40
1
40
1
41
1
10
42.5763610715147
20
-31.5305070975561
30
0
41
1
10
42.532150808424
20
-31.3610114584576
30
0
41
1
10
42.4691718697093
20
-31.193079215633
30
0
41
1
10
42.2989112153388
20
-30.8493436476304
30
0
41
1
10
42.1854042332834
20
-30.6736851973703
30
0
41
1
10
42.0542440174718
20
-30.5129344611395
30
0
0
SPLINE
5
1CA
100
AcDbEntity
8
1
62
256
6
ByLayer
370
18
48
1
60
0
100
AcDbSpline
70
4
71
3
72
18
73
14
40
0
40
0
40
0
40
0
40
0.0384430513828797
40
0.0384430513828797
40
0.294505767099365
40
0.294505767099365
40
0.507931675708715
40
0.507931675708715
40
0.723079147095956
40
0.723079147095956
40
0.912685296049716
40
0.912685296049716
40
1
40
1
40
1
40
1
41
1
10
53.0196110666804
20
-40.0978044764538
30
0
41
1
10
53.0139511610178
20
-40.0963172436305
30
0
41
1
10
53.0082681222289
20
-40.0948488451541
30
0
41
1
10
52.964942659691
20
-40.0838478151014
30
0
41
1
10
52.9259814929982
20
-40.0750861662056
30
0
41
1
10
52.8577304690775
20
-40.0621780904425
30
0
41
1
10
52.8271663956177
20
-40.0573805163864
30
0
41
1
10
52.7723843139573
20
-40.0511419072027
30
0
41
1
10
52.7474290892418
20
-40.0496578884687
30
0
41
1
10
52.7107496450107
20
-40.0505535374703
30
0
41
1
10
52.6973226079886
20
-40.0525106022432
30
0
41
1
10
52.684744684833
20
-40.0573198669325
30
0
41
1
10
52.681727304893
20
-40.0591419242418
30
0
41
1
10
52.6796998168835
20
-40.0612123205926
30
0
0
SPLINE
5
1CB
100
AcDbEntity
8
1
62
256
6
ByLayer
370
18
48
1
60
0
100
AcDbSpline
70
4
71
3
72
10
73
6
40
0
40
0
40
0
40
0
40
0.704506512922701
40
0.704506512922701
40
1
40
1
40
1
40
1
41
1
10
52.7783788368897
20
-38.2966710888884
30
0
41
1
10
52.7457459213019
20
-38.3004017821362
30
0
41
1
10
52.711954564969
20
-38.3023480862428
30
0
41
1
10
52.6662712993254
20
-38.302588922514
30
0
41
1
10
52.6529037687569
20
-38.3023559248737
30
0
41
1
10
52.6399157393412
20
-38.301846330916
30
0
0
SPLINE
5
1CC
100
AcDbEntity
8
1
62
256
6
ByLayer
370
18
48
1
60
0
100
AcDbSpline
70
4
71
3
72
8
73
4
40
0
40
0
40
0
40
0
40
1
40
1
40
1
40
1
41
1
10
42.5763610715147
20
-31.530507097556
30
0
41
1
10
42.7998255168233
20
-32.3872368775995
30
0
41
1
10
43.3193741100629
20
-33.1331021494846
30
0
41
1
10
44.0793749896477
20
-33.6631360278378
30
0
0
SPLINE
5
1CD
100
AcDbEntity
8
1
62
256
6
ByLayer
370
18
48
1
60
0
100
AcDbSpline
70
4
71
3
72
13
73
9
40
0
40
0
40
0
40
0
40
0.250661764437225
40
0.250661764437225
40
0.250661764437225
40
0.653096502165465
40
0.653096502165465
40
1
40
1
40
1
40
1
41
1
10
52.2835899195742
20
-32.2682873160786
30
0
41
1
10
52.2252742411854
20
-32.5536081774002
30
0
41
1
10
52.1362670194744
20
-32.8349977112799
30
0
41
1
10
52.0197439447579
20
-33.1032553842971
30
0
41
1
10
51.8342853108863
20
-33.5302154665328
30
0
41
1
10
51.5737851856526
20
-33.9331153079469
30
0
41
1
10
50.9884080458388
20
-34.5776581814893
30
0
41
1
10
50.6711446898838
20
-34.8406577813136
30
0
41
1
10
50.3275142786661
20
-35.0508291275574
30
0
0
SPLINE
5
1CE
100
AcDbEntity
8
1
62
256
6
ByLayer
370
18
48
1
60
0
100
AcDbSpline
70
4
71
3
72
11
73
7
40
0
40
0
40
0
40
0
40
0.268536746558077
40
0.487975722590654
40
0.707414698623231
40
1
40
1
40
1
40
1
41
1.02490909094425
10
52.2835898685254
20
-32.268287278813
30
0
41
1.02297680709541
10
53.3664801560581
20
-33.058793545224
30
0
41
1.019109996622
10
55.2355043969391
20
-34.4617677039605
30
0
41
1.01332460673153
10
58.1158734902737
20
-36.9201214015741
30
0
41
1.01203732298747
10
59.7449372779179
20
-38.1281366141292
30
0
41
1.00929221524307
10
61.0490763458828
20
-39.2895234487812
30
0
41
1.0087712828333
10
61.5925502638952
20
-39.8317983820298
30
0
0
SPLINE
5
1CF
100
AcDbEntity
8
1
62
256
6
ByLayer
370
18
48
1
60
0
100
AcDbSpline
70
4
71
3
72
8
73
4
40
0
40
0
40
0
40
0
40
1
40
1
40
1
40
1
41
1
10
44.6694948794468
20
-21.0883977380552
30
0
41
1
10
44.8207923609893
20
-21.6093014109029
30
0
41
1
10
44.6836695384277
20
-22.2510270154001
30
0
41
1
10
44.576619485385
20
-23.0820241155121
30
0
0
SPLINE
5
1D0
100
AcDbEntity
8
1
62
256
6
ByLayer
370
18
48
1
60
0
100
AcDbSpline
70
4
71
3
72
14
73
10
40
0
40
0
40
0
40
0
40
0.0151857536690272
40
0.0151857536690272
40
0.0655730315774939
40
0.0655730315774939
40
0.287642754348331
40
0.287642754348331
40
1
40
1
40
1
40
1
41
1
10
34.9744930645979
20
-27.0279314361426
30
0
41
1
10
34.9704128629755
20
-27.0337355734552
30
0
41
1
10
34.9661730270388
20
-27.0394388773026
30
0
41
1
10
34.9479041011484
20
-27.0629217042974
30
0
41
1
10
34.933699316829
20
-27.0787987200023
30
0
41
1
10
34.8599723168255
20
-27.1608295642137
30
0
41
1
10
34.8044118191445
20
-27.2218964008683
30
0
41
1
10
34.583873098241
20
-27.4920608677868
30
0
41
1
10
34.4459954392291
20
-27.7160503813977
30
0
41
1
10
34.3468138322665
20
-27.9572891758582
30
0
0
SPLINE
5
1D1
100
AcDbEntity
8
1
62
256
6
ByLayer
370
18
48
1
60
0
100
AcDbSpline
70
4
71
3
72
13
73
9
40
0
40
0
40
0
40
0
40
0.287856992129662
40
0.287856992129662
40
0.605626331970861
40
0.605626331970861
40
0.605626331970861
40
1
40
1
40
1
40
1
41
1
10
50.3275142786661
20
-35.0508291275574
30
0
41
1
10
50.0281350162192
20
-35.2338794067987
30
0
41
1
10
49.6962961507688
20
-35.3733672435502
30
0
41
1
10
48.9818019255606
20
-35.566253048934
30
0
41
1
10
48.5891230790799
20
-35.6124210576698
30
0
41
1
10
48.2009518258838
20
-35.607011270483
30
0
41
1
10
47.7214580152177
20
-35.6003287574124
30
0
41
1
10
47.2351589954751
20
-35.5143495048791
30
0
41
1
10
46.7827341801244
20
-35.3563994508209
30
0
0
SPLINE
5
1D2
100
AcDbEntity
8
1
62
256
6
ByLayer
370
18
48
1
60
0
100
AcDbSpline
70
4
71
3
72
8
73
4
40
0
40
0
40
0
40
0
40
1
40
1
40
1
40
1
41
1
10
45.0923721028197
20
-37.0737232984305
30
0
41
1
10
45.4647114905647
20
-36.8393690740509
30
0
41
1
10
46.0815642826998
20
-36.2126772997341
30
0
41
1
10
46.782734172745
20
-35.3563994598328
30
0
0
SPLINE
5
1D3
100
AcDbEntity
8
1
62
256
6
ByLayer
370
18
48
1
60
0
100
AcDbSpline
70
4
71
3
72
8
73
4
40
0
40
0
40
0
40
0
40
1
40
1
40
1
40
1
41
1
10
51.3707837426998
20
-28.8298421554952
30
0
41
1
10
51.9554258414553
20
-27.8570365255184
30
0
41
1
10
52.3652299838824
20
-27.0232961025823
30
0
41
1
10
52.4937702758855
20
-26.5451427828035
30
0
0
SPLINE
5
1D4
100
AcDbEntity
8
1
62
256
6
ByLayer
370
18
48
1
60
0
100
AcDbSpline
70
4
71
3
72
8
73
4
40
0
40
0
40
0
40
0
40
1
40
1
40
1
40
1
41
1
10
60.0276707612288
20
-41.3131725110912
30
0
41
1
10
60.200270290408
20
-41.2695233231853
30
0
41
1
10
60.3682605717311
20
-41.2071153843378
30
0
41
1
10
60.5221689077827
20
-41.1320702159459
30
0
0
SPLINE
5
1D5
100
AcDbEntity
8
1
62
256
6
ByLayer
370
18
48
1
60
0
100
AcDbSpline
70
4
71
3
72
12
73
8
40
0
40
0
40
0
40
0
40
0.500000000000003
40
0.500000000000003
40
0.750000000000001
40
0.750000000000001
40
1
40
1
40
1
40
1
41
1
10
39.0513905072184
20
-30.941730728176
30
0
41
1
10
39.0162045576996
20
-30.7930895809075
30
0
41
1
10
38.9838814348648
20
-30.6456870509523
30
0
41
1
10
38.9400762182465
20
-30.4262078451429
30
0
41
1
10
38.9261838836562
20
-30.3533571005613
30
0
41
1
10
38.9011702045488
20
-30.2078533189771
30
0
41
1
10
38.8531638701706
20
-30.1270389271657
30
0
41
1
10
38.9010893963761
20
-30.0588642729186
30
0
0
SPLINE
5
1D6
100
AcDbEntity
8
1
62
256
6
ByLayer
370
18
48
1
60
0
100
AcDbSpline
70
4
71
3
72
10
73
6
40
0
40
0
40
0
40
0
40
0.325288492889664
40
0.325288492889664
40
1
40
1
40
1
40
1
41
1
10
34.3468138322665
20
-27.9572891758584
30
0
41
1
10
34.3054950613194
20
-28.0577885607453
30
0
41
1
10
34.2704523564345
20
-28.1578944726693
30
0
41
1
10
34.182680003346
20
-28.4653714731731
30
0
41
1
10
34.1503950591251
20
-28.6752767677378
30
0
41
1
10
34.1494245078072
20
-28.8872430697893
30
0
0
SPLINE
5
1D7
100
AcDbEntity
8
1
62
256
6
ByLayer
370
18
48
1
60
0
100
AcDbSpline
70
4
71
3
72
8
73
4
40
0
40
0
40
0
40
0
40
1
40
1
40
1
40
1
41
1
10
50.5181947313653
20
-28.0378772656773
30
0
41
1
10
50.8390340182038
20
-28.261634495569
30
0
41
1
10
51.1221402537573
20
-28.5270487379002
30
0
41
1
10
51.3707837337935
20
-28.8298421652453
30
0
0
SPLINE
5
1D8
100
AcDbEntity
8
1
62
256
6
ByLayer
370
18
48
1
60
0
100
AcDbSpline
70
4
71
3
72
12
73
8
40
0
40
0
40
0
40
0
40
0.407174084711917
40
0.407174084711917
40
0.699511272430936
40
0.699511272430936
40
1
40
1
40
1
40
1
41
1
10
61.582876223221
20
-39.8221541005734
30
0
41
1
10
61.5952538353463
20
-39.7849184136718
30
0
41
1
10
61.6064911361728
20
-39.7459074266757
30
0
41
1
10
61.6231029637128
20
-39.6777649242177
30
0
41
1
10
61.6292903295904
20
-39.6487372144543
30
0
41
1
10
61.6400376942264
20
-39.5898954559225
30
0
41
1
10
61.6445868182062
20
-39.5598583143503
30
0
41
1
10
61.6481313823102
20
-39.5303746587768
30
0
0
SPLINE
5
1D9
100
AcDbEntity
8
1
62
256
6
ByLayer
370
18
48
1
60
0
100
AcDbSpline
70
4
71
3
72
12
73
8
40
0
40
0
40
0
40
0
40
0.32296159576427
40
0.32296159576427
40
0.710971356423584
40
0.710971356423584
40
1
40
1
40
1
40
1
41
1
10
51.3707837355526
20
-28.8298421673876
30
0
41
1
10
51.6197356683955
20
-29.1348631932974
30
0
41
1
10
51.8297156214218
20
-29.4783398714379
30
0
41
1
10
52.1803660864624
20
-30.2714968909191
30
0
41
1
10
52.304395512489
20
-30.7408929577015
30
0
41
1
10
52.3723472094999
20
-31.5638360364694
30
0
41
1
10
52.3537935857034
20
-31.924580767261
30
0
41
1
10
52.2835899195742
20
-32.2682873160786
30
0
0
SPLINE
5
1DA
100
AcDbEntity
8
1
62
256
6
ByLayer
370
18
48
1
60
0
100
AcDbSpline
70
4
71
3
72
8
73
4
40
0
40
0
40
0
40
0
40
1
40
1
40
1
40
1
41
1
10
53.2398530533228
20
-26.0925385699222
30
0
41
1
10
53.0636380223652
20
-25.9710648296531
30
0
41
1
10
52.887799420842
20
-25.8499003717461
30
0
41
1
10
52.7130137934912
20
-25.7295851537552
30
0
0
SPLINE
5
1DB
100
AcDbEntity
8
1
62
256
6
ByLayer
370
18
48
1
60
0
100
AcDbSpline
70
4
71
3
72
11
73
7
40
0
40
0
40
0
40
0
40
0.379738014043162
40
0.569607021064743
40
0.759476028086324
40
1
40
1
40
1
40
1
41
1.02830968163241
10
45.0923721028197
20
-37.0737232984305
30
0
41
1.02566133279165
10
47.5158837944972
20
-37.9234247559873
30
0
41
1.02050308371814
10
50.8071647460293
20
-38.7371699049775
30
0
41
1.01332460673153
10
56.3432448659369
20
-39.3825438650667
30
0
41
1.0120630214142
10
57.999738582361
20
-40.4490547111386
30
0
41
1.00944729087556
10
59.7934125201106
20
-40.8784406436981
30
0
41
1.00885690313847
10
60.5221689006619
20
-41.1320702134676
30
0
0
SPLINE
5
1DC
100
AcDbEntity
8
1
62
256
6
ByLayer
370
18
48
1
60
0
100
AcDbSpline
70
4
71
3
72
10
73
6
40
0
40
0
40
0
40
0
40
0.494168352806885
40
0.494168352806885
40
1
40
1
40
1
40
1
41
1
10
43.2257385814741
20
-18.9130709575215
30
0
41
1
10
43.1339613047362
20
-18.8631812602361
30
0
41
1
10
43.0361057668163
20
-18.8159190373526
30
0
41
1
10
42.8328108716774
20
-18.7322175892516
30
0
41
1
10
42.7258303619361
20
-18.6955242825459
30
0
41
1
10
42.6189818552896
20
-18.6667133637639
30
0
0
SPLINE
5
1DD
100
AcDbEntity
8
1
62
256
6
ByLayer
370
18
48
1
60
0
100
AcDbSpline
70
4
71
3
72
8
73
4
40
0
40
0
40
0
40
0
40
1
40
1
40
1
40
1
41
1
10
48.851134463134
20
-26.8752491120072
30
0
41
1
10
48.1061326824252
20
-26.3556757880593
30
0
41
1
10
47.1944532479296
20
-26.1234980722212
30
0
41
1
10
46.3136831766229
20
-26.2141201424998
30
0
0
SPLINE
5
1DE
100
AcDbEntity
8
1
62
256
6
ByLayer
370
18
48
1
60
0
100
AcDbSpline
70
4
71
3
72
11
73
7
40
0
40
0
40
0
40
0
40
0.379738014043156
40
0.569607021064734
40
0.759476028086312
40
1
40
1
40
1
40
1
41
1.02830968163241
10
52.4937702758855
20
-26.5451427828035
30
0
41
1.02566133279165
10
54.1109137692384
20
-28.5419129836652
30
0
41
1.02050308371814
10
55.9857501084805
20
-31.3705681263677
30
0
41
1.01332460673153
10
58.4914956215447
20
-36.3266305741885
30
0
41
1.0120630214142
10
60.1000865343241
20
-37.4612837513908
30
0
41
1.00944729087556
10
61.1423401212407
20
-38.9595744340746
30
0
41
1.00885690313847
10
61.6481313773681
20
-39.5303746531994
30
0
0
SPLINE
5
1DF
100
AcDbEntity
8
1
62
256
6
ByLayer
370
18
48
1
60
0
100
AcDbSpline
70
4
71
3
72
8
73
4
40
0
40
0
40
0
40
0
40
1
40
1
40
1
40
1
41
1
10
39.0513905072207
20
-30.9417307281861
30
0
41
1
10
38.3262937329835
20
-31.2996594681779
30
0
41
1
10
37.7816147866433
20
-31.6166326874545
30
0
41
1
10
37.268096706381
20
-31.6169782536822
30
0
0
SPLINE
5
1E0
100
AcDbEntity
8
1
62
256
6
ByLayer
370
18
48
1
60
0
100
AcDbSpline
70
4
71
3
72
8
73
4
40
0
40
0
40
0
40
0
40
1
40
1
40
1
40
1
41
1
10
44.9841342534189
20
-37.8364007520152
30
0
41
1
10
44.8079192224589
20
-37.7149270117444
30
0
41
1
10
44.6320806209333
20
-37.5937625538356
30
0
41
1
10
44.45729499358
20
-37.473447335843
30
0
0
SPLINE
5
1E1
100
AcDbEntity
8
1
62
256
6
ByLayer
370
18
48
1
60
0
100
AcDbSpline
70
4
71
3
72
8
73
4
40
0
40
0
40
0
40
0
40
1
40
1
40
1
40
1
41
1
10
43.6235452688369
20
-19.1629347463008
30
0
41
1
10
43.4968847994891
20
-19.072091840018
30
0
41
1
10
43.3644333979957
20
-18.988464809434
30
0
41
1
10
43.2257385814741
20
-18.9130709575215
30
0
0
SPLINE
5
1E2
100
AcDbEntity
8
1
62
256
6
ByLayer
370
18
48
1
60
0
100
AcDbSpline
70
4
71
3
72
16
73
12
40
0
40
0
40
0
40
0
40
0.0076436986798983
40
0.0076436986798983
40
0.040911653964276
40
0.040911653964276
40
0.185161591066356
40
0.185161591066356
40
0.76103989734915
40
0.76103989734915
40
1
40
1
40
1
40
1
41
1
10
39.7807471848804
20
-20.1909754582697
30
0
41
1
10
39.7828024431645
20
-20.1880518279208
30
0
41
1
10
39.7848253376385
20
-20.1850933320152
30
0
41
1
10
39.7953325297534
20
-20.1693140325345
30
0
41
1
10
39.8030183179334
20
-20.1562812419166
30
0
41
1
10
39.8406794321548
20
-20.0897179592958
30
0
41
1
10
39.8660398824196
20
-20.0396809231063
30
0
41
1
10
40.0034662621382
20
-19.7936258186901
30
0
41
1
10
40.1290228641128
20
-19.6122736142928
30
0
41
1
10
40.3345980925406
20
-19.380262048541
30
0
41
1
10
40.3984060690456
20
-19.3150412717158
30
0
41
1
10
40.4655683975653
20
-19.2532850688308
30
0
0
SPLINE
5
1E3
100
AcDbEntity
8
1
62
256
6
ByLayer
370
18
48
1
60
0
100
AcDbSpline
70
4
71
3
72
10
73
6
40
0
40
0
40
0
40
0
40
0.474805431212336
40
0.474805431212336
40
1
40
1
40
1
40
1
41
1
10
45.1710160263852
20
-26.079287699084
30
0
41
1
10
45.3462189593723
20
-26.1391906947709
30
0
41
1
10
45.5277645712786
20
-26.1817964738083
30
0
41
1
10
45.9110515309256
20
-26.2314628976873
30
0
41
1
10
46.1154074243745
20
-26.234520653076
30
0
41
1
10
46.3136831766229
20
-26.2141201424998
30
0
0
SPLINE
5
1E4
100
AcDbEntity
8
1
62
256
6
ByLayer
370
18
48
1
60
0
100
AcDbSpline
70
4
71
3
72
18
73
14
40
0
40
0
40
0
40
0
40
0.148865436690722
40
0.148865436690722
40
0.336868556410369
40
0.336868556410369
40
0.51949110802786
40
0.51949110802786
40
0.71156305553481
40
0.71156305553481
40
0.930180979444772
40
0.930180979444772
40
1
40
1
40
1
40
1
41
1
10
58.001055912721
20
-32.4915174065698
30
0
41
1
10
57.9982824235237
20
-32.4968340223501
30
0
41
1
10
57.99714402444
20
-32.5046033484642
30
0
41
1
10
57.9986551909757
20
-32.5271562303309
30
0
41
1
10
58.002442763248
20
-32.5436143349694
30
0
41
1
10
58.0150522355972
20
-32.5808883978966
30
0
41
1
10
58.0238703457606
20
-32.6020174978039
30
0
41
1
10
58.0455359285937
20
-32.6474325535216
30
0
41
1
10
58.0588050304004
20
-32.6723508574119
30
0
41
1
10
58.08945646786
20
-32.7254584345553
30
0
41
1
10
58.1074970482606
20
-32.7542443112262
30
0
41
1
10
58.1319532408585
20
-32.7907808047587
30
0
41
1
10
58.13796711064
20
-32.7995794902368
30
0
41
1
10
58.1440231374735
20
-32.8082648758234
30
0
0
SPLINE
5
1E5
100
AcDbEntity
8
1
62
256
6
ByLayer
370
18
48
1
60
0
100
AcDbSpline
70
4
71
3
72
8
73
4
40
0
40
0
40
0
40
0
40
1
40
1
40
1
40
1
41
1
10
44.4016887276146
20
-25.6700087407747
30
0
41
1
10
44.6360323568514
20
-25.8367811834244
30
0
41
1
10
44.8966241547564
20
-25.9782914853333
30
0
41
1
10
45.1710160263852
20
-26.079287699084
30
0
0
SPLINE
5
1E6
100
AcDbEntity
8
1
62
256
6
ByLayer
370
18
48
1
60
0
100
AcDbSpline
70
4
71
3
72
8
73
4
40
0
40
0
40
0
40
0
40
1
40
1
40
1
40
1
41
1
10
61.5651559078918
20
-38.1260753647513
30
0
41
1
10
61.5957739230828
20
-38.4158625979569
30
0
41
1
10
61.6255478072376
20
-38.7077202517251
30
0
41
1
10
61.6536710757144
20
-39.0001669371182
30
0
0
SPLINE
5
1E7
100
AcDbEntity
8
1
62
256
6
ByLayer
370
18
48
1
60
0
100
AcDbSpline
70
4
71
3
72
8
73
4
40
0
40
0
40
0
40
0
40
1
40
1
40
1
40
1
41
1
10
61.6481313823102
20
-39.5303746587768
30
0
41
1
10
61.6680124784278
20
-39.3582022087441
30
0
41
1
10
61.670748428796
20
-39.1777499697631
30
0
41
1
10
61.6536710757144
20
-39.0001669371182
30
0
0
SPLINE
5
1E8
100
AcDbEntity
8
1
62
256
6
ByLayer
370
18
48
1
60
0
100
AcDbSpline
70
4
71
3
72
8
73
4
40
0
40
0
40
0
40
0
40
1
40
1
40
1
40
1
41
1
10
59.1779703676958
20
-41.5218763442366
30
0
41
1
10
59.4597107162083
20
-41.4544389499037
30
0
41
1
10
59.7434309920499
20
-41.3850547181531
30
0
41
1
10
60.0276707612288
20
-41.3131725110912
30
0
0
SPLINE
5
1E9
100
AcDbEntity
8
1
62
256
6
ByLayer
370
18
48
1
60
0
100
AcDbSpline
70
4
71
3
72
8
73
4
40
0
40
0
40
0
40
0
40
1
40
1
40
1
40
1
41
1
10
41.4121526719365
20
-29.9226607844276
30
0
41
1
10
41.6464963011733
20
-30.0894332270774
30
0
41
1
10
41.8667210554749
20
-30.288366148175
30
0
41
1
10
42.0542440174718
20
-30.5129344611395
30
0
0
SPLINE
5
1EA
100
AcDbEntity
8
1
62
256
6
ByLayer
370
18
48
1
60
0
100
AcDbSpline
70
4
71
3
72
12
73
8
40
0
40
0
40
0
40
0
40
0.252749620142198
40
0.252749620142198
40
0.674711209428766
40
0.674711209428766
40
1
40
1
40
1
40
1
41
1
10
34.1494245077996
20
-28.8872430697678
30
0
41
1
10
34.1489954193331
20
-28.9809550597941
30
0
41
1
10
34.1559928669582
20
-29.0789690330906
30
0
41
1
10
34.1974906117317
20
-29.3470061422439
30
0
41
1
10
34.2483862490654
20
-29.5249043150923
30
0
41
1
10
34.3868005070075
20
-29.8372680094717
30
0
41
1
10
34.4648439567253
20
-29.9753045255049
30
0
41
1
10
34.5562048734747
20
-30.1062441875562
30
0
0
SPLINE
5
1EB
100
AcDbEntity
8
1
62
256
6
ByLayer
370
18
48
1
60
0
100
AcDbSpline
70
4
71
3
72
10
73
6
40
0
40
0
40
0
40
0
40
0.494168352806878
40
0.494168352806878
40
1
40
1
40
1
40
1
41
1
10
35.0026080966546
20
-30.6105758580135
30
0
41
1
10
34.9254858217935
20
-30.5398392391589
30
0
41
1
10
34.848444069454
20
-30.4629691486543
30
0
41
1
10
34.7013015394481
20
-30.2993902660982
30
0
41
1
10
34.6304261897212
20
-30.2113369223626
30
0
41
1
10
34.5666985874551
20
-30.1211859833494
30
0
0
SPLINE
5
1EC
100
AcDbEntity
8
1
62
256
6
ByLayer
370
18
48
1
60
0
100
AcDbSpline
70
4
71
1
72
4
73
2
40
0
40
0
40
1
40
1
41
1
10
61.5925502638952
20
-39.8317983820298
30
0
41
1
10
60.7876751719819
20
-40.9767431630133
30
0
0
SPLINE
5
1ED
100
AcDbEntity
8
1
62
256
6
ByLayer
370
18
48
1
60
0
100
AcDbSpline
70
4
71
1
72
4
73
2
40
0
40
0
40
1
40
1
41
1
10
44.45729499358
20
-37.473447335843
30
0
41
1
10
45.0923721028197
20
-37.0737232984305
30
0
0
SPLINE
5
1EE
100
AcDbEntity
8
1
62
256
6
ByLayer
370
18
48
1
60
0
100
AcDbSpline
70
4
71
3
72
8
73
4
40
0
40
0
40
0
40
0
40
1
40
1
40
1
40
1
41
1
10
45.7464352578791
20
-34.825764181508
30
0
41
1
10
46.0672745448228
20
-35.049521411473
30
0
41
1
10
46.4135825146183
20
-35.2250304047499
30
0
41
1
10
46.7827341778759
20
-35.3563994500208
30
0
0
SPLINE
5
1EF
100
AcDbEntity
8
1
62
256
6
ByLayer
370
18
48
1
60
0
100
AcDbSpline
70
4
71
3
72
16
73
12
40
0
40
0
40
0
40
0
40
0.125
40
0.125
40
0.25
40
0.25
40
0.5
40
0.5
40
0.75
40
0.75
40
1
40
1
40
1
40
1
41
1
10
53.2398530533313
20
-26.092538569928
30
0
41
1
10
53.364304978782
20
-26.5124960947965
30
0
41
1
10
53.5457735776664
20
-26.9914758613859
30
0
41
1
10
54.0558816317773
20
-28.0676293903258
30
0
41
1
10
54.3742884924635
20
-28.6446403812845
30
0
41
1
10
55.4206847468508
20
-30.3722134138046
30
0
41
1
10
56.2084823343937
20
-31.4789835878473
30
0
41
1
10
57.7481927372167
20
-33.5091515944226
30
0
41
1
10
58.5180248016126
20
-34.489615898517
30
0
41
1
10
60.0576843689369
20
-36.4437192260536
30
0
41
1
10
60.8242830297851
20
-37.324144814511
30
0
41
1
10
61.5651559078918
20
-38.1260753647513
30
0
0
SPLINE
5
1F0
100
AcDbEntity
8
1
62
256
6
ByLayer
370
18
48
1
60
0
100
AcDbSpline
70
4
71
3
72
12
73
8
40
0
40
0
40
0
40
0
40
0.252749620142202
40
0.252749620142202
40
0.674711209428766
40
0.674711209428766
40
1
40
1
40
1
40
1
41
1
10
41.2972797027392
20
-18.719330578878
30
0
41
1
10
41.3876905053174
20
-18.6838216994779
30
0
41
1
10
41.4845419177535
20
-18.6540172956192
30
0
41
1
10
41.7563698242237
20
-18.5944068987342
30
0
41
1
10
41.9440736772813
20
-18.5776936913044
30
0
41
1
10
42.2888948439956
20
-18.5964410030525
30
0
41
1
10
42.4465145265404
20
-18.6212793428953
30
0
41
1
10
42.6012960441466
20
-18.6620024152083
30
0
0
LINE
5
72
100
AcDbEntity
8
1
62
256
6
ByLayer
370
18
48
1
60
0
100
AcDbLine
10
63.85478
20
-32.474718
30
0
11
63.31077
21
-31.930707
31
0
39
0
210
0
220
0
230
1
0
LINE
5
74
100
AcDbEntity
8
1
62
256
6
ByLayer
370
18
48
1
60
0
100
AcDbLine
10
51.930707
20
-43.31077
30
0
11
52.474718
21
-43.85478
31
0
39
0
210
0
220
0
230
1
0
LINE
5
75
100
AcDbEntity
8
1
62
256
6
ByLayer
370
18
48
1
60
0
100
AcDbLine
10
36.623992
20
-31.987231
30
0
11
37.208395
21
-32.416157
31
0
39
0
210
0
220
0
230
1
0
LINE
5
76
100
AcDbEntity
8
1
62
256
6
ByLayer
370
18
48
1
60
0
100
AcDbLine
10
35.108339
20
-30.704002
30
0
11
36.492595
21
-31.883263
31
0
39
0
210
0
220
0
230
1
0
LINE
5
77
100
AcDbEntity
8
1
62
256
6
ByLayer
370
18
48
1
60
0
100
AcDbLine
10
40.069886
20
-19.707905
30
0
11
34.625543
21
-27.45255
31
0
39
0
210
0
220
0
230
1
0
LINE
5
78
100
AcDbEntity
8
1
62
256
6
ByLayer
370
18
48
1
60
0
100
AcDbLine
10
0.3
20
31.5
30
0
11
0
21
31.2
31
0
39
0
210
0
220
0
230
1
0
LINE
5
79
100
AcDbEntity
8
1
62
256
6
ByLayer
370
18
48
1
60
0
100
AcDbLine
10
0
20
-31.2
30
0
11
0.3
21
-31.5
31
0
39
0
210
0
220
0
230
1
0
LINE
5
7A
100
AcDbEntity
8
1
62
256
6
ByLayer
370
18
48
1
60
0
100
AcDbLine
10
22.920792
20
31.5
30
0
11
0.3
21
31.5
31
0
39
0
210
0
220
0
230
1
0
LINE
5
7B
100
AcDbEntity
8
1
62
256
6
ByLayer
370
18
48
1
60
0
100
AcDbLine
10
23.48285
20
31.65
30
0
11
22.960985
21
31.65
31
0
39
0
210
0
220
0
230
1
0
LINE
5
7C
100
AcDbEntity
8
1
62
256
6
ByLayer
370
18
48
1
60
0
100
AcDbLine
10
22.960985
20
31.65
30
0
11
22.920792
21
31.5
31
0
39
0
210
0
220
0
230
1
0
LINE
5
7D
100
AcDbEntity
8
1
62
256
6
ByLayer
370
18
48
1
60
0
100
AcDbLine
10
24.874508
20
-30.839109
30
0
11
25.206793
21
-30.74278
31
0
39
0
210
0
220
0
230
1
0
LINE
5
7E
100
AcDbEntity
8
1
62
256
6
ByLayer
370
18
48
1
60
0
100
AcDbLine
10
27.103638
20
-27.383903
30
0
11
27.014539
21
-27.049607
31
0
39
0
210
0
220
0
230
1
0
LINE
5
7F
100
AcDbEntity
8
1
62
256
6
ByLayer
370
18
48
1
60
0
100
AcDbLine
10
46.102505
20
-30.441098
30
0
11
46.082359
21
-30.420952
31
0
39
0
210
0
220
0
230
1
0
LINE
5
80
100
AcDbEntity
8
1
62
256
6
ByLayer
370
18
48
1
60
0
100
AcDbLine
10
47.75799
20
-29.636293
30
0
11
47.991888
21
-29.870191
31
0
39
0
210
0
220
0
230
1
0
LINE
5
81
100
AcDbEntity
8
1
62
256
6
ByLayer
370
18
48
1
60
0
100
AcDbLine
10
46.763433
20
-31.87163
30
0
11
46.529535
21
-31.637733
31
0
39
0
210
0
220
0
230
1
0
LINE
5
82
100
AcDbEntity
8
1
62
256
6
ByLayer
370
18
48
1
60
0
100
AcDbLine
10
48.418934
20
-31.066842
30
0
11
48.652848
21
-31.300756
31
0
39
0
210
0
220
0
230
1
0
LINE
5
83
100
AcDbEntity
8
1
62
256
6
ByLayer
370
18
48
1
60
0
100
AcDbLine
10
22.920792
20
-31.5
30
0
11
25.381839
21
-40.684752
31
0
39
0
210
0
220
0
230
1
0
LINE
5
84
100
AcDbEntity
8
1
62
256
6
ByLayer
370
18
48
1
60
0
100
AcDbLine
10
44.206176
20
-33.35628
30
0
11
44.459136
21
-33.609241
31
0
39
0
210
0
220
0
230
1
0
LINE
5
85
100
AcDbEntity
8
1
62
256
6
ByLayer
370
18
48
1
60
0
100
AcDbLine
10
50.11599
20
-27.952386
30
0
11
49.86303
21
-27.699426
31
0
39
0
210
0
220
0
230
1
0
LINE
5
86
100
AcDbEntity
8
1
62
256
6
ByLayer
370
18
48
1
60
0
100
AcDbLine
10
41.657628
20
-30.113718
30
0
11
41.173101
21
-29.700944
31
0
39
0
210
0
220
0
230
1
0
LINE
5
87
100
AcDbEntity
8
1
62
256
6
ByLayer
370
18
48
1
60
0
100
AcDbLine
10
11.892762
20
-23.535533
30
0
11
12.411064
21
-23.828231
31
0
39
0
210
0
220
0
230
1
0
LINE
5
88
100
AcDbEntity
8
1
62
256
6
ByLayer
370
18
48
1
60
0
100
AcDbLine
10
19.716657
20
-27.953889
30
0
11
24.821602
21
-30.836784
31
0
39
0
210
0
220
0
230
1
0
LINE
5
89
100
AcDbEntity
8
1
62
256
6
ByLayer
370
18
48
1
60
0
100
AcDbLine
10
0.3
20
-31.5
30
0
11
22.920792
21
-31.5
31
0
39
0
210
0
220
0
230
1
0
LINE
5
8A
100
AcDbEntity
8
80
62
256
6
ByLayer
370
18
48
1
60
0
100
AcDbLine
10
0
20
0
30
0
11
-5
21
0
31
0
39
0
210
0
220
0
230
1
0
LINE
5
8B
100
AcDbEntity
8
4
62
256
6
ByLayer
370
18
48
0.05
60
0
100
AcDbLine
10
0
20
0
30
0
11
65
21
0
31
0
39
0
210
0
220
0
230
1
0
LINE
5
8D
100
AcDbEntity
8
81
62
256
6
ByLayer
370
18
48
1
60
0
100
AcDbLine
10
65
20
-45
30
0
11
75
21
-45
31
0
39
0
210
0
220
0
230
1
0
LINE
5
8E
100
AcDbEntity
8
SK4
62
256
6
ByLayer
370
18
48
0.05
60
0
100
AcDbLine
10
-43
20
0
30
0
11
65
21
0
31
0
39
0
210
0
220
0
230
1
0
LINE
5
90
100
AcDbEntity
8
1
62
256
6
ByLayer
370
18
48
1
60
0
100
AcDbLine
10
51.990756
20
-40.217656
30
0
11
52.249175
21
-43.366614
31
0
39
0
210
0
220
0
230
1
0
LINE
5
91
100
AcDbEntity
8
1
62
256
6
ByLayer
370
18
48
1
60
0
100
AcDbLine
10
63.366614
20
-32.249175
30
0
11
58.024996
21
-31.810817
31
0
39
0
210
0
220
0
230
1
0
LINE
5
92
100
AcDbEntity
8
1
62
256
6
ByLayer
370
18
48
1
60
0
100
AcDbLine
10
63.295106
20
-32.177666
30
0
11
63.366614
21
-32.249175
31
0
39
0
210
0
220
0
230
1
0
LINE
5
93
100
AcDbEntity
8
1
62
256
6
ByLayer
370
18
48
1
60
0
100
AcDbLine
10
52.170407
20
-43.287847
30
0
11
52.249175
21
-43.366614
31
0
39
0
210
0
220
0
230
1
0
LINE
5
94
100
AcDbEntity
8
1
62
256
6
ByLayer
370
18
48
1
60
0
100
AcDbLine
10
59.536587
20
-34.741836
30
0
11
59.08
21
-34.087011
31
0
39
0
210
0
220
0
230
1
0
LINE
5
95
100
AcDbEntity
8
1
62
256
6
ByLayer
370
18
48
1
60
0
100
AcDbLine
10
61.565156
20
-38.126075
30
0
11
61.439267
21
-37.583866
31
0
39
0
210
0
220
0
230
1
0
LINE
5
96
100
AcDbEntity
8
1
62
256
6
ByLayer
370
18
48
1
60
0
100
AcDbLine
10
59.17797
20
-41.521876
30
0
11
58.648687
21
-41.5535
31
0
39
0
210
0
220
0
230
1
0
LINE
5
97
100
AcDbEntity
8
1
62
256
6
ByLayer
370
18
48
1
60
0
100
AcDbLine
10
54.550612
20
-40.530121
30
0
11
55.324565
21
-40.73349
31
0
39
0
210
0
220
0
230
1
0
LINE
5
98
100
AcDbEntity
8
1
62
256
6
ByLayer
370
18
48
1
60
0
100
AcDbLine
10
0.3
20
0
30
0
11
0.3
21
-31.5
31
0
39
0
210
0
220
0
230
1
0
LINE
5
99
100
AcDbEntity
8
1
62
256
6
ByLayer
370
18
48
1
60
0
100
AcDbLine
10
0.3
20
31.5
30
0
11
0.3
21
0
31
0
39
0
210
0
220
0
230
1
0
LINE
5
9A
100
AcDbEntity
8
1
62
256
6
ByLayer
370
18
48
1
60
0
100
AcDbLine
10
0
20
0
30
0
11
0
21
-31.2
31
0
39
0
210
0
220
0
230
1
0
LINE
5
9B
100
AcDbEntity
8
1
62
256
6
ByLayer
370
18
48
1
60
0
100
AcDbLine
10
0
20
31.2
30
0
11
0
21
0
31
0
39
0
210
0
220
0
230
1
0
LINE
5
9C
100
AcDbEntity
8
1
62
256
6
ByLayer
370
18
48
1
60
0
100
AcDbLine
10
19.911507
20
-23.023701
30
0
11
19.911507
21
29.985012
31
0
39
0
210
0
220
0
230
1
0
LINE
5
9D
100
AcDbEntity
8
1
62
256
6
ByLayer
370
18
48
1
60
0
100
AcDbLine
10
22.920792
20
-30.899614
30
0
11
22.920792
21
-31.5
31
0
39
0
210
0
220
0
230
1
0
LINE
5
9E
100
AcDbEntity
8
1
62
256
6
ByLayer
370
18
48
1
60
0
100
AcDbLine
10
22.920792
20
31.5
30
0
11
22.920792
21
30.899614
31
0
39
0
210
0
220
0
230
1
0
LINE
5
9F
100
AcDbEntity
8
SK1
62
256
6
ByLayer
370
18
48
1
60
0
100
AcDbLine
10
-0.2
20
22.533485
30
0
11
-0.2
21
7.059517
31
0
39
0
210
0
220
0
230
1
0
LINE
5
A1
100
AcDbEntity
8
SK1
62
256
6
ByLayer
370
18
48
1
60
0
100
AcDbLine
10
-0.2
20
-7.059518
30
0
11
-0.2
21
-22.533485
31
0
39
0
210
0
220
0
230
1
0
LINE
5
A2
100
AcDbEntity
8
1
62
256
6
ByLayer
370
18
48
1
60
0
100
AcDbLine
10
23.896286
20
-30.500632
30
0
11
23.896286
21
-30.313978
31
0
39
0
210
0
220
0
230
1
0
LINE
5
A3
100
AcDbEntity
8
1
62
256
6
ByLayer
370
18
48
1
60
0
100
AcDbLine
10
23.896286
20
-25.274309
30
0
11
23.896286
21
31.076076
31
0
39
0
210
0
220
0
230
1
0
LINE
5
A4
100
AcDbEntity
8
1
62
256
6
ByLayer
370
18
48
1
60
0
100
AcDbLine
10
22.960985
20
31.65
30
0
11
22.960985
21
31.054462
31
0
39
0
210
0
220
0
230
1
0
LINE
5
A5
100
AcDbEntity
8
1
62
256
6
ByLayer
370
18
48
1
60
0
100
AcDbLine
10
48.35135
20
-20.356576
30
0
11
47.297
21
-21.856403
31
0
39
0
210
0
220
0
230
1
0
LINE
5
A6
100
AcDbEntity
8
1
62
256
6
ByLayer
370
18
48
1
60
0
100
AcDbLine
10
38.996025
20
-33.664643
30
0
11
38.002956
21
-35.077295
31
0
39
0
210
0
220
0
230
1
0
LINE
5
A7
100
AcDbEntity
8
1
62
256
6
ByLayer
370
18
48
1
60
0
100
AcDbLine
10
51.82976
20
-40.175396
30
0
11
52.088123
21
-43.323681
31
0
39
0
210
0
220
0
230
1
0
LINE
5
A8
100
AcDbEntity
8
1
62
256
6
ByLayer
370
18
48
1
60
0
100
AcDbLine
10
24.078325
20
-30.417061
30
0
11
24.078325
21
-35.401156
31
0
39
0
210
0
220
0
230
1
0
LINE
5
A9
100
AcDbEntity
8
1
62
256
6
ByLayer
370
18
48
1
60
0
100
AcDbLine
10
27.076227
20
-27.280196
30
0
11
49.008903
21
-5.34752
31
0
39
0
210
0
220
0
230
1
0
LINE
5
AA
100
AcDbEntity
8
1
62
256
6
ByLayer
370
18
48
1
60
0
100
AcDbLine
10
57.905775
20
-31.639589
30
0
11
63.325329
21
-32.108203
31
0
39
0
210
0
220
0
230
1
0
LINE
5
AB
100
AcDbEntity
8
1
62
256
6
ByLayer
370
18
48
1
60
0
100
AcDbLine
10
52.198754
20
-43.275502
30
0
11
51.946878
21
-40.20626
31
0
39
0
210
0
220
0
230
1
0
LINE
5
AC
100
AcDbEntity
8
1
62
256
6
ByLayer
370
18
48
1
60
0
100
AcDbLine
10
57.991022
20
-31.761891
30
0
11
58.716598
21
-31.82463
31
0
39
0
210
0
220
0
230
1
0
LINE
5
AD
100
AcDbEntity
8
1
62
256
6
ByLayer
370
18
48
1
60
0
100
AcDbLine
10
63.325329
20
-32.108203
30
0
11
63.282785
21
-32.206035
31
0
39
0
210
0
220
0
230
1
0
LINE
5
AE
100
AcDbEntity
8
1
62
256
6
ByLayer
370
18
48
1
60
0
100
AcDbLine
10
61.310054
20
-36.661803
30
0
11
60.94607
21
-36.796048
31
0
39
0
210
0
220
0
230
1
0
LINE
5
AF
100
AcDbEntity
8
1
62
256
6
ByLayer
370
18
48
1
60
0
100
AcDbLine
10
59.536598
20
-34.741853
30
0
11
58.855714
21
-33.708339
31
0
39
0
210
0
220
0
230
1
0
LINE
5
B0
100
AcDbEntity
8
1
62
256
6
ByLayer
370
18
48
1
60
0
100
AcDbLine
10
55.324584
20
-40.733494
30
0
11
54.116647
21
-40.449721
31
0
39
0
210
0
220
0
230
1
0
LINE
5
B1
100
AcDbEntity
8
1
62
256
6
ByLayer
370
18
48
1
60
0
100
AcDbLine
10
57.721742
20
-41.766221
30
0
11
57.742376
21
-41.353342
31
0
39
0
210
0
220
0
230
1
0
LINE
5
B2
100
AcDbEntity
8
1
62
256
6
ByLayer
370
18
48
1
60
0
100
AcDbLine
10
47.143762
20
-29.493313
30
0
11
47.141147
21
-29.493344
31
0
39
0
210
0
220
0
230
1
0
LINE
5
B3
100
AcDbEntity
8
1
62
256
6
ByLayer
370
18
48
1
60
0
100
AcDbLine
10
19.682579
20
-22.895022
30
0
11
27.008272
21
-27.03203
31
0
39
0
210
0
220
0
230
1
0
LINE
5
B4
100
AcDbEntity
8
1
62
256
6
ByLayer
370
18
48
1
60
0
100
AcDbLine
10
46.084858
20
-30.423586
30
0
11
46.096133
21
-30.434862
31
0
39
0
210
0
220
0
230
1
0
LINE
5
B5
100
AcDbEntity
8
1
62
256
6
ByLayer
370
18
48
1
60
0
100
AcDbLine
10
48.486325
20
-30.416294
30
0
11
48.720239
21
-30.650208
31
0
39
0
210
0
220
0
230
1
0
LINE
5
B6
100
AcDbEntity
8
1
62
256
6
ByLayer
370
18
48
1
60
0
100
AcDbLine
10
47.993499
20
-31.687328
30
0
11
48.227412
21
-31.921242
31
0
39
0
210
0
220
0
230
1
0
LINE
5
B7
100
AcDbEntity
8
1
62
256
6
ByLayer
370
18
48
1
60
0
100
AcDbLine
10
47.394741
20
-31.969087
30
0
11
47.628654
21
-32.203
31
0
39
0
210
0
220
0
230
1
0
LINE
5
B8
100
AcDbEntity
8
1
62
256
6
ByLayer
370
18
48
1
60
0
100
AcDbLine
10
46.113198
20
-31.533022
30
0
11
46.347112
21
-31.766935
31
0
39
0
210
0
220
0
230
1
0
LINE
5
B9
100
AcDbEntity
8
1
62
256
6
ByLayer
370
18
48
1
60
0
100
AcDbLine
10
47.636589
20
-29.365979
30
0
11
47.870503
21
-29.599893
31
0
39
0
210
0
220
0
230
1
0
LINE
5
BA
100
AcDbEntity
8
1
62
256
6
ByLayer
370
18
48
1
60
0
100
AcDbLine
10
54.685803
20
-41.053008
30
0
11
54.467169
21
-40.829662
31
0
39
0
210
0
220
0
230
1
0
LINE
5
BB
100
AcDbEntity
8
1
62
256
6
ByLayer
370
18
48
1
60
0
100
AcDbLine
10
60.840097
20
-34.849326
30
0
11
59.751962
21
-34.090447
31
0
39
0
210
0
220
0
230
1
0
LINE
5
BC
100
AcDbEntity
8
1
62
256
6
ByLayer
370
18
48
1
60
0
100
AcDbLine
10
59.320889
20
-33.925186
30
0
11
59.144055
21
-32.772547
31
0
39
0
210
0
220
0
230
1
0
LINE
5
BD
100
AcDbEntity
8
1
62
256
6
ByLayer
370
18
48
1
60
0
100
AcDbLine
10
55.851053
20
-41.946303
30
0
11
54.762918
21
-41.187425
31
0
39
0
210
0
220
0
230
1
0
LINE
5
BE
100
AcDbEntity
8
1
62
256
6
ByLayer
370
18
48
1
60
0
100
AcDbLine
10
62.106173
20
-37.0562
30
0
11
60.840097
21
-34.849326
31
0
39
0
210
0
220
0
230
1
0
LINE
5
BF
100
AcDbEntity
8
1
62
256
6
ByLayer
370
18
48
1
60
0
100
AcDbLine
10
59.320889
20
-33.925186
30
0
11
59.598772
21
-34.064248
31
0
39
0
210
0
220
0
230
1
0
LINE
5
C0
100
AcDbEntity
8
1
62
256
6
ByLayer
370
18
48
1
60
0
100
AcDbLine
10
62.25807
20
-37.352626
30
0
11
62.249943
21
-38.840097
31
0
39
0
210
0
220
0
230
1
0
LINE
5
C1
100
AcDbEntity
8
1
62
256
6
ByLayer
370
18
48
1
60
0
100
AcDbLine
10
62.539864
20
-36.245404
30
0
11
61.174302
21
-33.865119
31
0
39
0
210
0
220
0
230
1
0
LINE
5
C2
100
AcDbEntity
8
1
62
256
6
ByLayer
370
18
48
1
60
0
100
AcDbLine
10
60.840097
20
-34.849326
30
0
11
61.174302
21
-33.865119
31
0
39
0
210
0
220
0
230
1
0
LINE
5
C3
100
AcDbEntity
8
1
62
256
6
ByLayer
370
18
48
1
60
0
100
AcDbLine
10
54.762918
20
-41.187425
30
0
11
54.685803
21
-41.053008
31
0
39
0
210
0
220
0
230
1
0
LINE
5
C4
100
AcDbEntity
8
1
62
256
6
ByLayer
370
18
48
1
60
0
100
AcDbLine
10
62.249943
20
-38.840097
30
0
11
63.127249
21
-38.479903
31
0
39
0
210
0
220
0
230
1
0
LINE
5
C5
100
AcDbEntity
8
1
62
256
6
ByLayer
370
18
48
1
60
0
100
AcDbLine
10
62.106173
20
-37.0562
30
0
11
62.539864
21
-36.245404
31
0
39
0
210
0
220
0
230
1
0
LINE
5
C6
100
AcDbEntity
8
1
62
256
6
ByLayer
370
18
48
1
60
0
100
AcDbLine
10
53.412547
20
-40.925687
30
0
11
53.721773
21
-41.464693
31
0
39
0
210
0
220
0
230
1
0
LINE
5
C7
100
AcDbEntity
8
1
62
256
6
ByLayer
370
18
48
1
60
0
100
AcDbLine
10
54.685803
20
-41.053008
30
0
11
57.721742
21
-41.766221
31
0
39
0
210
0
220
0
230
1
0
LINE
5
C8
100
AcDbEntity
8
1
62
256
6
ByLayer
370
18
48
1
60
0
100
AcDbLine
10
55.137739
20
-42.452205
30
0
11
53.721773
21
-41.464693
31
0
39
0
210
0
220
0
230
1
0
LINE
5
C9
100
AcDbEntity
8
1
62
256
6
ByLayer
370
18
48
1
60
0
100
AcDbLine
10
58.697745
20
-42.417233
30
0
11
60.098289
21
-41.900851
31
0
39
0
210
0
220
0
230
1
0
LINE
5
CA
100
AcDbEntity
8
1
62
256
6
ByLayer
370
18
48
1
60
0
100
AcDbLine
10
59.751962
20
-34.090447
30
0
11
59.598772
21
-34.064248
31
0
39
0
210
0
220
0
230
1
0
LINE
5
CB
100
AcDbEntity
8
1
62
256
6
ByLayer
370
18
48
1
60
0
100
AcDbLine
10
59.758336
20
-32.877607
30
0
11
59.751962
21
-34.090447
31
0
39
0
210
0
220
0
230
1
0
LINE
5
CC
100
AcDbEntity
8
1
62
256
6
ByLayer
370
18
48
1
60
0
100
AcDbLine
10
54.467169
20
-40.829662
30
0
11
53.412547
21
-40.925687
31
0
39
0
210
0
220
0
230
1
0
LINE
5
CD
100
AcDbEntity
8
1
62
256
6
ByLayer
370
18
48
1
60
0
100
AcDbLine
10
58.366132
20
-42.376454
30
0
11
57.850449
21
-42.916155
31
0
39
0
210
0
220
0
230
1
0
LINE
5
CE
100
AcDbEntity
8
1
62
256
6
ByLayer
370
18
48
1
60
0
100
AcDbLine
10
55.851053
20
-41.946303
30
0
11
55.137739
21
-42.452205
31
0
39
0
210
0
220
0
230
1
0
LINE
5
CF
100
AcDbEntity
8
1
62
256
6
ByLayer
370
18
48
1
60
0
100
AcDbLine
10
61.174302
20
-33.865119
30
0
11
59.758336
21
-32.877607
31
0
39
0
210
0
220
0
230
1
0
LINE
5
D0
100
AcDbEntity
8
1
62
256
6
ByLayer
370
18
48
1
60
0
100
AcDbLine
10
59.598772
20
-34.064248
30
0
11
61.310054
21
-36.661803
31
0
39
0
210
0
220
0
230
1
0
LINE
5
D1
100
AcDbEntity
8
1
62
256
6
ByLayer
370
18
48
1
60
0
100
AcDbLine
10
57.850449
20
-42.916155
30
0
11
55.137739
21
-42.452205
31
0
39
0
210
0
220
0
230
1
0
LINE
5
D2
100
AcDbEntity
8
1
62
256
6
ByLayer
370
18
48
1
60
0
100
AcDbLine
10
59.144055
20
-32.772547
30
0
11
59.758336
21
-32.877607
31
0
39
0
210
0
220
0
230
1
0
LINE
5
D3
100
AcDbEntity
8
1
62
256
6
ByLayer
370
18
48
1
60
0
100
AcDbLine
10
58.366132
20
-42.376454
30
0
11
55.851053
21
-41.946303
31
0
39
0
210
0
220
0
230
1
0
LINE
5
D4
100
AcDbEntity
8
1
62
256
6
ByLayer
370
18
48
1
60
0
100
AcDbLine
10
60.098289
20
-41.900851
30
0
11
60.159451
21
-42.701632
31
0
39
0
210
0
220
0
230
1
0
LINE
5
D5
100
AcDbEntity
8
1
62
256
6
ByLayer
370
18
48
1
60
0
100
AcDbLine
10
54.762918
20
-41.187425
30
0
11
53.721773
21
-41.464693
31
0
39
0
210
0
220
0
230
1
0
LINE
5
D6
100
AcDbEntity
8
1
62
256
6
ByLayer
370
18
48
1
60
0
100
AcDbLine
10
13.461325
20
-25.9971
30
0
11
13.461325
21
-30.080593
31
0
39
0
210
0
220
0
230
1
0
LINE
5
D7
100
AcDbEntity
8
1
62
256
6
ByLayer
370
18
48
1
60
0
100
AcDbLine
10
10.538675
20
30.080593
30
0
11
10.538675
21
9.349221
31
0
39
0
210
0
220
0
230
1
0
LINE
5
D8
100
AcDbEntity
8
1
62
256
6
ByLayer
370
18
48
1
60
0
100
AcDbLine
10
62.796284
20
-25.661517
30
0
11
63.325329
21
-32.108203
31
0
39
0
210
0
220
0
230
1
0
LINE
5
D9
100
AcDbEntity
8
1
62
256
6
ByLayer
370
18
48
1
60
0
100
AcDbLine
10
10.538675
20
30.080593
30
0
11
13.461325
21
30.080593
31
0
39
0
210
0
220
0
230
1
0
LINE
5
DA
100
AcDbEntity
8
1
62
256
6
ByLayer
370
18
48
1
60
0
100
AcDbLine
10
13.894338
20
29.913955
30
0
11
13.894338
21
9.869413
31
0
39
0
210
0
220
0
230
1
0
LINE
5
DB
100
AcDbEntity
8
1
62
256
6
ByLayer
370
18
48
1
60
0
100
AcDbLine
10
10.105662
20
-9.869413
30
0
11
10.105662
21
-24.752055
31
0
39
0
210
0
220
0
230
1
0
LINE
5
DC
100
AcDbEntity
8
1
62
256
6
ByLayer
370
18
48
1
60
0
100
AcDbLine
10
52.088123
20
-43.323681
30
0
11
25.577684
21
-41.148111
31
0
39
0
210
0
220
0
230
1
0
LINE
5
DD
100
AcDbEntity
8
1
62
256
6
ByLayer
370
18
48
1
60
0
100
AcDbLine
10
10.105662
20
-25.691234
30
0
11
10.105662
21
-29.913955
31
0
39
0
210
0
220
0
230
1
0
LINE
5
DE
100
AcDbEntity
8
1
62
256
6
ByLayer
370
18
48
1
60
0
100
AcDbLine
10
10.105662
20
29.913955
30
0
11
10.105662
21
9.869413
31
0
39
0
210
0
220
0
230
1
0
LINE
5
DF
100
AcDbEntity
8
1
62
256
6
ByLayer
370
18
48
1
60
0
100
AcDbLine
10
24.074659
20
31.076076
30
0
11
49.008903
21
-5.34752
31
0
39
0
210
0
220
0
230
1
0
LINE
5
E0
100
AcDbEntity
8
1
62
256
6
ByLayer
370
18
48
1
60
0
100
AcDbLine
10
52.088123
20
-43.323681
30
0
11
52.198754
21
-43.275502
31
0
39
0
210
0
220
0
230
1
0
LINE
5
E1
100
AcDbEntity
8
1
62
256
6
ByLayer
370
18
48
1
60
0
100
AcDbLine
10
13.461325
20
-30.080593
30
0
11
10.538675
21
-30.080593
31
0
39
0
210
0
220
0
230
1
0
LINE
5
E2
100
AcDbEntity
8
1
62
256
6
ByLayer
370
18
48
1
60
0
100
AcDbLine
10
13.461325
20
30.080593
30
0
11
13.461325
21
9.349221
31
0
39
0
210
0
220
0
230
1
0
LINE
5
E3
100
AcDbEntity
8
1
62
256
6
ByLayer
370
18
48
1
60
0
100
AcDbLine
10
19.911507
20
-29.985012
30
0
11
19.911507
21
-28.18212
31
0
39
0
210
0
220
0
230
1
0
LINE
5
E4
100
AcDbEntity
8
1
62
256
6
ByLayer
370
18
48
1
60
0
100
AcDbLine
10
10.538675
20
-25.9971
30
0
11
10.538675
21
-30.080593
31
0
39
0
210
0
220
0
230
1
0
LINE
5
E5
100
AcDbEntity
8
1
62
256
6
ByLayer
370
18
48
1
60
0
100
AcDbLine
10
38.706854
20
-17.252661
30
0
11
31.775842
21
-27.112111
31
0
39
0
210
0
220
0
230
1
0
LINE
5
E6
100
AcDbEntity
8
1
62
256
6
ByLayer
370
18
48
1
60
0
100
AcDbLine
10
48.35135
20
-20.356576
30
0
11
47.759499
21
-19.923476
31
0
39
0
210
0
220
0
230
1
0
LINE
5
E7
100
AcDbEntity
8
1
62
256
6
ByLayer
370
18
48
1
60
0
100
AcDbLine
10
13.461325
20
-9.349221
30
0
11
13.461325
21
-23.997901
31
0
39
0
210
0
220
0
230
1
0
LINE
5
E8
100
AcDbEntity
8
1
62
256
6
ByLayer
370
18
48
1
60
0
100
AcDbLine
10
10.538675
20
-9.349221
30
0
11
13.461325
21
-9.349221
31
0
39
0
210
0
220
0
230
1
0
LINE
5
E9
100
AcDbEntity
8
1
62
256
6
ByLayer
370
18
48
1
60
0
100
AcDbLine
10
24.074659
20
31.076076
30
0
11
23.896286
21
31.076076
31
0
39
0
210
0
220
0
230
1
0
LINE
5
EA
100
AcDbEntity
8
1
62
256
6
ByLayer
370
18
48
1
60
0
100
AcDbLine
10
62.796284
20
-25.661517
30
0
11
49.008903
21
-5.34752
31
0
39
0
210
0
220
0
230
1
0
LINE
5
EB
100
AcDbEntity
8
1
62
256
6
ByLayer
370
18
48
1
60
0
100
AcDbLine
10
13.894338
20
-9.869413
30
0
11
13.894338
21
-24.752055
31
0
39
0
210
0
220
0
230
1
0
LINE
5
EC
100
AcDbEntity
8
1
62
256
6
ByLayer
370
18
48
1
60
0
100
AcDbLine
10
13.894338
20
-25.691234
30
0
11
13.894338
21
-29.913955
31
0
39
0
210
0
220
0
230
1
0
LINE
5
ED
100
AcDbEntity
8
1
62
256
6
ByLayer
370
18
48
1
60
0
100
AcDbLine
10
10.538675
20
-9.349221
30
0
11
10.538675
21
-23.997901
31
0
39
0
210
0
220
0
230
1
0
LINE
5
EE
100
AcDbEntity
8
1
62
256
6
ByLayer
370
18
48
1
60
0
100
AcDbLine
10
38.002956
20
-35.077295
30
0
11
37.411105
21
-34.644195
31
0
39
0
210
0
220
0
230
1
0
LINE
5
EF
100
AcDbEntity
8
1
62
256
6
ByLayer
370
18
48
1
60
0
100
AcDbLine
10
13.461325
20
9.349221
30
0
11
10.538675
21
9.349221
31
0
39
0
210
0
220
0
230
1
0
LINE
5
F0
100
AcDbEntity
8
SK1
62
256
6
ByLayer
370
18
48
1
60
0
100
AcDbLine
10
-1.307107
20
4.811013
30
0
11
-1.307107
21
-4.811013
31
0
39
0
210
0
220
0
230
1
0
LINE
5
F1
100
AcDbEntity
8
1
62
256
6
ByLayer
370
18
48
1
60
0
100
AcDbLine
10
64.99736
20
-44.137451
30
0
11
64.080323
21
-32.962883
31
0
39
0
210
0
220
0
230
1
0
LINE
5
F2
100
AcDbEntity
8
1
62
256
6
ByLayer
370
18
48
1
60
0
100
AcDbLine
10
52.962883
20
-44.080323
30
0
11
64.137451
21
-44.99736
31
0
39
0
210
0
220
0
230
1
0
LINE
5
F3
100
AcDbEntity
8
1
62
256
6
ByLayer
370
18
48
1
60
0
100
AcDbLine
10
54.052056
20
-40.369096
30
0
11
54.076095
21
-40.37862
31
0
39
0
210
0
220
0
230
1
0
LINE
5
F4
100
AcDbEntity
8
1
62
256
6
ByLayer
370
18
48
1
60
0
100
AcDbLine
10
41.412153
20
-29.922661
30
0
11
40.948698
21
-29.527839
31
0
39
0
210
0
220
0
230
1
0
LINE
5
F5
100
AcDbEntity
8
1
62
256
6
ByLayer
370
18
48
1
60
0
100
AcDbLine
10
47.454714
20
-21.973001
30
0
11
54.678121
21
-27.010694
31
0
39
0
210
0
220
0
230
1
0
LINE
5
F6
100
AcDbEntity
8
1
62
256
6
ByLayer
370
18
48
1
60
0
100
AcDbLine
10
44.079375
20
-33.663136
30
0
11
45.746435
21
-34.825764
31
0
39
0
210
0
220
0
230
1
0
LINE
5
F7
100
AcDbEntity
8
1
62
256
6
ByLayer
370
18
48
1
60
0
100
AcDbLine
10
39.780747
20
-20.190975
30
0
11
34.974493
21
-27.027931
31
0
39
0
210
0
220
0
230
1
0
LINE
5
F8
100
AcDbEntity
8
1
62
256
6
ByLayer
370
18
48
1
60
0
100
AcDbLine
10
39.809448
20
-28.766712
30
0
11
38.901089
21
-30.058864
31
0
39
0
210
0
220
0
230
1
0
LINE
5
F9
100
AcDbEntity
8
1
62
256
6
ByLayer
370
18
48
1
60
0
100
AcDbLine
10
58.770789
20
-33.70036
30
0
11
58.753106
21
-33.681795
31
0
39
0
210
0
220
0
230
1
0
LINE
5
FA
100
AcDbEntity
8
1
62
256
6
ByLayer
370
18
48
1
60
0
100
AcDbLine
10
37.268097
20
-31.616978
30
0
11
45.092372
21
-37.073723
31
0
39
0
210
0
220
0
230
1
0
LINE
5
FB
100
AcDbEntity
8
1
62
256
6
ByLayer
370
18
48
1
60
0
100
AcDbLine
10
34.974493
20
-27.027931
30
0
11
36.237524
21
-28.10392
31
0
39
0
210
0
220
0
230
1
0
LINE
5
FC
100
AcDbEntity
8
1
62
256
6
ByLayer
370
18
48
1
60
0
100
AcDbLine
10
39.780747
20
-20.190975
30
0
11
41.043778
21
-21.266964
31
0
39
0
210
0
220
0
230
1
0
LINE
5
FD
100
AcDbEntity
8
1
62
256
6
ByLayer
370
18
48
1
60
0
100
AcDbLine
10
43.707344
20
-23.221908
30
0
11
42.798984
21
-24.51406
31
0
39
0
210
0
220
0
230
1
0
LINE
5
FE
100
AcDbEntity
8
1
62
256
6
ByLayer
370
18
48
1
60
0
100
AcDbLine
10
53.019611
20
-40.097804
30
0
11
54.052056
21
-40.369096
31
0
39
0
210
0
220
0
230
1
0
LINE
5
FF
100
AcDbEntity
8
1
62
256
6
ByLayer
370
18
48
1
60
0
100
AcDbLine
10
58.753106
20
-33.681795
30
0
11
58.144023
21
-32.808265
31
0
39
0
210
0
220
0
230
1
0
LINE
5
100
100
AcDbEntity
8
1
62
256
6
ByLayer
370
18
48
1
60
0
100
AcDbLine
10
45.565602
20
-20.574992
30
0
11
47.454714
21
-21.973001
31
0
39
0
210
0
220
0
230
1
0
LINE
5
101
100
AcDbEntity
8
1
62
256
6
ByLayer
370
18
48
1
60
0
100
AcDbLine
10
43.656873
20
-33.303202
30
0
11
45.316648
21
-34.459624
31
0
39
0
210
0
220
0
230
1
0
LINE
5
102
100
AcDbEntity
8
1
62
256
6
ByLayer
370
18
48
1
60
0
100
AcDbLine
10
37.312598
20
-32.490648
30
0
11
44.457295
21
-37.473447
31
0
39
0
210
0
220
0
230
1
0
LINE
5
103
100
AcDbEntity
8
1
62
256
6
ByLayer
370
18
48
1
60
0
100
AcDbLine
10
38.932929
20
-28.123384
30
0
11
41.922465
21
-23.870732
31
0
39
0
210
0
220
0
230
1
0
LINE
5
104
100
AcDbEntity
8
1
62
256
6
ByLayer
370
18
48
1
60
0
100
AcDbLine
10
52.713014
20
-25.729585
30
0
11
45.568316
21
-20.746786
31
0
39
0
210
0
220
0
230
1
0
LINE
5
105
100
AcDbEntity
8
1
62
256
6
ByLayer
370
18
48
1
60
0
100
AcDbLine
10
38.932929
20
-28.123384
30
0
11
39.809448
21
-28.766712
31
0
39
0
210
0
220
0
230
1
0
LINE
5
106
100
AcDbEntity
8
1
62
256
6
ByLayer
370
18
48
1
60
0
100
AcDbLine
10
41.922465
20
-23.870732
30
0
11
42.798984
21
-24.51406
31
0
39
0
210
0
220
0
230
1
0
LINE
5
107
100
AcDbEntity
8
1
62
256
6
ByLayer
370
18
48
1
60
0
100
AcDbLine
10
52.432353
20
-40.333769
30
0
11
46.422403
21
-38.754556
31
0
39
0
210
0
220
0
230
1
0
LINE
5
108
100
AcDbEntity
8
1
62
256
6
ByLayer
370
18
48
1
60
0
100
AcDbLine
10
43.707344
20
-23.221908
30
0
11
41.043778
21
-21.266964
31
0
39
0
210
0
220
0
230
1
0
LINE
5
109
100
AcDbEntity
8
1
62
256
6
ByLayer
370
18
48
1
60
0
100
AcDbLine
10
38.901089
20
-30.058864
30
0
11
36.237524
21
-28.10392
31
0
39
0
210
0
220
0
230
1
0
LINE
5
10A
100
AcDbEntity
8
1
62
256
6
ByLayer
370
18
48
1
60
0
100
AcDbLine
10
43.623545
20
-19.162935
30
0
11
44.950114
21
-20.293052
31
0
39
0
210
0
220
0
230
1
0
LINE
5
10B
100
AcDbEntity
8
1
62
256
6
ByLayer
370
18
48
1
60
0
100
AcDbLine
10
45.746435
20
-34.825764
30
0
11
45.316648
21
-34.459624
31
0
39
0
210
0
220
0
230
1
0
LINE
5
10C
100
AcDbEntity
8
1
62
256
6
ByLayer
370
18
48
1
60
0
100
AcDbLine
10
44.669495
20
-21.088398
30
0
11
52.49377
21
-26.545143
31
0
39
0
210
0
220
0
230
1
0
LINE
5
10D
100
AcDbEntity
8
1
62
256
6
ByLayer
370
18
48
1
60
0
100
AcDbLine
10
53.239853
20
-26.092539
30
0
11
54.678121
21
-27.010694
31
0
39
0
210
0
220
0
230
1
0
LINE
5
10E
100
AcDbEntity
8
1
62
256
6
ByLayer
370
18
48
1
60
0
100
AcDbLine
10
50.518195
20
-28.037877
30
0
11
48.851134
21
-26.875249
31
0
39
0
210
0
220
0
230
1
0
LINE
5
10F
100
AcDbEntity
8
1
62
256
6
ByLayer
370
18
48
1
60
0
100
AcDbLine
10
40.948698
20
-29.527839
30
0
11
38.932929
21
-28.123384
31
0
39
0
210
0
220
0
230
1
0
LINE
5
110
100
AcDbEntity
8
1
62
256
6
ByLayer
370
18
48
1
60
0
100
AcDbLine
10
44.984134
20
-37.836401
30
0
11
46.422403
21
-38.754556
31
0
39
0
210
0
220
0
230
1
0
LINE
5
111
100
AcDbEntity
8
1
62
256
6
ByLayer
370
18
48
1
60
0
100
AcDbLine
10
44.079375
20
-33.663136
30
0
11
43.656873
21
-33.303202
31
0
39
0
210
0
220
0
230
1
0
LINE
5
112
100
AcDbEntity
8
1
62
256
6
ByLayer
370
18
48
1
60
0
100
AcDbLine
10
45.568316
20
-20.746786
30
0
11
44.950114
21
-20.293052
31
0
39
0
210
0
220
0
230
1
0
LINE
5
113
100
AcDbEntity
8
1
62
256
6
ByLayer
370
18
48
1
60
0
100
AcDbLine
10
54.678121
20
-27.010694
30
0
11
58.223645
21
-32.095585
31
0
39
0
210
0
220
0
230
1
0
LINE
5
114
100
AcDbEntity
8
1
62
256
6
ByLayer
370
18
48
1
60
0
100
AcDbLine
10
41.043778
20
-21.266964
30
0
11
36.237524
21
-28.10392
31
0
39
0
210
0
220
0
230
1
0
MTEXT
5
1F1
100
AcDbEntity
8
SK6
62
256
6
ByLayer
370
18
48
1
60
0
100
AcDbMText
10
-3.125
20
40.7
30
0
210
0
220
0
230
1
1
\W0.7307;C6-CCLNL-45065-12-4
40
3.5
41
0
44
1.084337
50
0
71
7
72
5
7
iso_b_vert
0
DIMENSION
5
202
100
AcDbEntity
8
2
62
256
6
ByLayer
370
13
48
1
60
0
100
AcDbDimension
2
DimnDraft3D1
10
65
20
-43.4125
30
0
11
52.554118
21
-56.53416
31
0
70
34
71
5
72
1
41
1
210
0
220
0
230
1
3
Standard
100
AcDb2LineAngularDimension
13
52.181534
23
-44.015864
33
0
14
64.141329
24
-44.997341
34
0
15
65
25
-45
35
0
16
49.244568
26
-59.583239
36
0
40
0
0
DIMENSION
5
217
100
AcDbEntity
8
2
62
256
6
ByLayer
370
13
48
1
60
0
100
AcDbDimension
2
DimnDraft3D2
10
65
20
-72.25
30
0
11
27.218421
21
-72.25
31
0
70
32
71
5
72
1
41
1
210
0
220
0
230
1
3
Standard
100
AcDbAlignedDimension
13
0
23
-33.5
33
0
14
65
24
-47
34
0
50
0
100
AcDbRotatedDimension
1001
ACAD
1000
DSTYLE
1002
{
1070
   279
1070
     0
1070
   172
1070
     1
1070
   173
1070
     1
1070
   340
1005
1F2
1070
    77
1070
     1
1070
    73
1070
     0
1070
   171
1070
     3
1070
   274
1070
     4
1070
   177
1070
     2
1070
   176
1070
     2
1070
   178
1070
     7
1070
    78
1070
     8
1070
    41
1041
3.175
1070
   147
1041
2.25
1070
    42
1041
2.0
1070
    44
1041
2.0
1070
   140
1041
4.5
1070
   343
1005
203
1070
   344
1005
203
1002
}
0
DIMENSION
5
226
100
AcDbEntity
8
SK2
62
256
6
ByLayer
370
13
48
1
60
0
100
AcDbDimension
2
DimnDraft3D3
10
-45.75
20
31.5
30
0
11
-45.75
21
-2.688158
31
0
70
32
71
5
72
1
41
1
210
0
220
0
230
1
3
Standard
100
AcDbAlignedDimension
13
-2
23
-31.5
33
0
14
-2
24
31.5
34
0
50
90
100
AcDbRotatedDimension
1001
ACAD
1000
DSTYLE
1002
{
1070
    74
1070
     0
1070
   279
1070
     0
1070
   172
1070
     1
1070
   173
1070
     1
1070
   340
1005
1F2
1070
    77
1070
     1
1070
    73
1070
     0
1070
   171
1070
     3
1070
   274
1070
     4
1070
   177
1070
     2
1070
   176
1070
     2
1070
   178
1070
     7
1070
    78
1070
     8
1070
    41
1041
3.175
1070
   147
1041
2.25
1070
    42
1041
2.0
1070
    44
1041
2.0
1070
   140
1041
4.5
1070
   343
1005
203
1070
   344
1005
203
1002
}
0
DIMENSION
5
234
100
AcDbEntity
8
2
62
256
6
ByLayer
370
13
48
1
60
0
100
AcDbDimension
2
DimnDraft3D4
10
87.25
20
-45
30
0
11
87.25
21
-28.018421
31
0
70
32
71
5
72
1
41
1
210
0
220
0
230
1
3
Standard
100
AcDbAlignedDimension
13
67
23
0
33
0
14
67
24
-45
34
0
50
90
100
AcDbRotatedDimension
1001
ACAD
1000
DSTYLE
1002
{
1070
    74
1070
     0
1070
   279
1070
     0
1070
   172
1070
     1
1070
   173
1070
     1
1070
   340
1005
1F2
1070
    77
1070
     1
1070
    73
1070
     0
1070
   171
1070
     3
1070
   274
1070
     4
1070
   177
1070
     2
1070
   176
1070
     2
1070
   178
1070
     7
1070
    78
1070
     8
1070
    41
1041
3.175
1070
   147
1041
2.25
1070
    42
1041
2.0
1070
    44
1041
2.0
1070
   140
1041
4.5
1070
   343
1005
203
1070
   344
1005
203
1002
}
0
ENDSEC
0
SECTION
2
OBJECTS
0
DICTIONARY
5
29f
330
0
100
AcDbDictionary
280
0
281
1
3
ACAD_GROUP
350
2a0
3
ACAD_MLINESTYLE
350
2a1
0
DICTIONARY
5
2a0
330
0
100
AcDbDictionary
280
0
281
1
0
DICTIONARY
5
2a1
330
0
100
AcDbDictionary
280
0
281
1
3
Standard
350
18
0
MLINESTYLE
5
18
330
2a1
100
AcDbMlineStyle
2
Standard
70
0
3

62
256
51
90
52
90
71
2
49
-0.5
62
256
6
ByLayer
49
0.5
62
256
6
ByLayer
0
RASTERVARIABLES
5
28d
330

100
AcDbRasterVariables
90
0
70
1
71
1
72
1
0
ENDSEC
0
EOF
