0
SECTION
2
HEADER
9
$ACADVER
1
AC1015
9
$DWGCODEPAGE
3
ANSI_1252
9
$HANDSEED
5
1d1
9
$ANGBASE
50
0
9
$ANGDIR
70
0
9
$ATTMODE
70
1
9
$AUNITS
70
0
9
$AUPREC
70
0
9
$CECOLOR
62
256
9
$CELTSCALE
40
1
9
$CELTYPE
6
ByLayer
9
$CELWEIGHT
370
18
9
$CLAYER
8
0
9
$CMLJUST
70
0
9
$CMLSCALE
40
1
9
$CMLSTYLE
2
Standard
9
$DIMSTYLE
2
Standard
9
$TEXTSIZE
40
0.2
9
$TEXTSTYLE
7
Standard
9
$LUNITS
70
2
9
$LUPREC
70
4
9
$EXTNAMES
290
1
9
$INSUNITS
70
4
9
$LTSCALE
40
1
9
$LWDISPLAY
290
1
9
$PDMODE
70
0
9
$PDSIZE
40
0
9
$PLINEGEN
70
0
0
ENDSEC
0
SECTION
2
CLASSES
0
CLASS
1
RASTERVARIABLES
2
AcDbRasterVariables
3
ISM
90
0
280
0
281
0
0
ENDSEC
0
SECTION
2
TABLES
0
TABLE
2
VPORT
5
1c7
100
AcDbSymbolTable
0
VPORT
5
1
100
AcDbSymbolTableRecord
100
AcDbViewportTableRecord
2
*Active
70
0
10
0
20
0
11
1
21
1
12
-1
22
1
13
0
23
0
14
0.5
24
0.5
15
10
25
10
16
0
26
0
36
1
17
0
27
0
37
0
0
ENDTAB
0
TABLE
2
LTYPE
5
1c8
100
AcDbSymbolTable
0
LTYPE
5
14
100
AcDbSymbolTableRecord
100
AcDbLinetypeTableRecord
70
0
2
ByBlock
3

72
65
73
0
40
0
0
LTYPE
5
15
100
AcDbSymbolTableRecord
100
AcDbLinetypeTableRecord
70
0
2
ByLayer
3

72
65
73
0
40
0
0
LTYPE
5
16
100
AcDbSymbolTableRecord
100
AcDbLinetypeTableRecord
70
0
2
CONTINUOUS
3
Solid line
72
65
73
0
40
0
0
LTYPE
5
6A
100
AcDbSymbolTableRecord
100
AcDbLinetypeTableRecord
70
0
2
CENTER
3
____ _ ____ _ ____ _ ____
72
65
73
4
40
47.5
49
22
74
0
49
-8.5
74
0
49
8.5
74
0
49
-8.5
74
0
0
LTYPE
5
6B
100
AcDbSymbolTableRecord
100
AcDbLinetypeTableRecord
70
0
2
DASHED
3
__ __ __ __ __ __ __ __ __
72
65
73
2
40
25.72
49
12.86
74
0
49
-12.86
74
0
0
ENDTAB
0
TABLE
2
LAYER
5
1c9
100
AcDbSymbolTable
0
LAYER
5
10
100
AcDbSymbolTableRecord
100
AcDbLayerTableRecord
2
0
70
0
62
7
6
CONTINUOUS
290
1
370
-3
390
0
0
LAYER
5
6D
100
AcDbSymbolTableRecord
100
AcDbLayerTableRecord
2
81
70
0
62
-3
6
CONTINUOUS
290
1
370
-3
390
0
0
LAYER
5
6F
100
AcDbSymbolTableRecord
100
AcDbLayerTableRecord
2
80
70
0
62
-6
6
CONTINUOUS
290
1
370
-3
390
0
0
LAYER
5
71
100
AcDbSymbolTableRecord
100
AcDbLayerTableRecord
2
1
70
0
62
4
6
CONTINUOUS
290
1
370
-3
390
0
0
LAYER
5
CB
100
AcDbSymbolTableRecord
100
AcDbLayerTableRecord
2
4
70
0
62
-2
6
CENTER
290
1
370
-3
390
0
0
LAYER
5
130
100
AcDbSymbolTableRecord
100
AcDbLayerTableRecord
2
2
70
0
62
7
6
CONTINUOUS
290
1
370
-3
390
0
0
LAYER
5
1b2
100
AcDbSymbolTableRecord
100
AcDbLayerTableRecord
2
SK1
70
0
62
4
6
CONTINUOUS
290
1
370
-3
390
0
0
LAYER
5
1b3
100
AcDbSymbolTableRecord
100
AcDbLayerTableRecord
2
SK3
70
0
62
1
6
DASHED
290
1
370
-3
390
0
0
LAYER
5
1b4
100
AcDbSymbolTableRecord
100
AcDbLayerTableRecord
2
SK4
70
0
62
2
6
CENTER
290
1
370
-3
390
0
0
LAYER
5
1b5
100
AcDbSymbolTableRecord
100
AcDbLayerTableRecord
2
SK6
70
0
62
5
6
CONTINUOUS
290
1
370
-3
390
0
0
LAYER
5
1b6
100
AcDbSymbolTableRecord
100
AcDbLayerTableRecord
2
SK2
70
0
62
7
6
CONTINUOUS
290
1
370
-3
390
0
0
ENDTAB
0
TABLE
2
STYLE
5
1ca
100
AcDbSymbolTable
0
STYLE
5
11
100
AcDbSymbolTableRecord
100
AcDbTextStyleTableRecord
2
Standard
3
txt
70
0
71
0
40
0
41
1
42
0
50
0
0
STYLE
5
107
100
AcDbSymbolTableRecord
100
AcDbTextStyleTableRecord
2
iso_b_vert
3
simplex.shx
70
0
71
0
40
0
41
1
42
0
50
0
0
STYLE
5
108
100
AcDbSymbolTableRecord
100
AcDbTextStyleTableRecord
2
DWGDirectTextStyle
3
simplex
70
0
71
0
40
0
41
1
42
0
50
0
0
ENDTAB
0
TABLE
2
DIMSTYLE
5
1cb
100
AcDbSymbolTable
100
AcDbDimStyleTable
0
DIMSTYLE
105
27
100
AcDbSymbolTableRecord
100
AcDbDimStyleTableRecord
2
Standard
70
0
3
<>
41
0.18
42
0.0625
44
0.18
140
0.18
147
0.09
73
0
74
0
77
1
271
2
275
0
278
52
280
0
340
11
0
ENDTAB
0
TABLE
2
VIEW
5
1cc
100
AcDbSymbolTable
0
ENDTAB
0
TABLE
2
UCS
5
1cd
100
AcDbSymbolTable
0
ENDTAB
0
TABLE
2
APPID
5
1ce
100
AcDbSymbolTable
0
APPID
5
12
100
AcDbSymbolTableRecord
100
AcDbRegAppTableRecord
2
ACAD
70
0
0
ENDTAB
0
TABLE
2
BLOCK_RECORD
5
1cf
100
AcDbSymbolTable
0
BLOCK_RECORD
5
1F
100
AcDbSymbolTableRecord
100
AcDbBlockTableRecord
2
*Model_Space
340
0
70
0
0
BLOCK_RECORD
5
1B
100
AcDbSymbolTableRecord
100
AcDbBlockTableRecord
2
*Paper_Space
340
0
70
0
0
BLOCK_RECORD
5
23
100
AcDbSymbolTableRecord
100
AcDbBlockTableRecord
2
*Paper_Space0
340
0
70
0
0
BLOCK_RECORD
5
10A
100
AcDbSymbolTableRecord
100
AcDbBlockTableRecord
2
DimnDraft3D1
340
0
70
0
0
BLOCK_RECORD
5
119
100
AcDbSymbolTableRecord
100
AcDbBlockTableRecord
2
_CLOSED
340
0
70
0
0
BLOCK_RECORD
5
120
100
AcDbSymbolTableRecord
100
AcDbBlockTableRecord
2
DimnDraft3D2
340
0
70
0
0
BLOCK_RECORD
5
12E
100
AcDbSymbolTableRecord
100
AcDbBlockTableRecord
2
DimnDraft3D3
340
0
70
0
0
BLOCK_RECORD
5
13D
100
AcDbSymbolTableRecord
100
AcDbBlockTableRecord
2
DimnDraft3D4
340
0
70
0
0
BLOCK_RECORD
5
14B
100
AcDbSymbolTableRecord
100
AcDbBlockTableRecord
2
DimnDraft3D5
340
0
70
0
0
ENDTAB
0
ENDSEC
0
SECTION
2
BLOCKS
0
BLOCK
5
20
100
AcDbEntity
8
0
100
AcDbBlockBegin
2
*Model_Space
70
0
10
0
20
0
30
0
3
*Model_Space
0
ENDBLK
5
21
100
AcDbEntity
8
0
100
AcDbBlockEnd
0
BLOCK
5
1C
100
AcDbEntity
8
0
100
AcDbBlockBegin
2
*Paper_Space
70
0
10
0
20
0
30
0
3
*Paper_Space
0
ENDBLK
5
1D
100
AcDbEntity
8
0
100
AcDbBlockEnd
0
BLOCK
5
24
100
AcDbEntity
8
0
100
AcDbBlockBegin
2
*Paper_Space0
70
0
10
0
20
0
30
0
3
*Paper_Space0
0
ENDBLK
5
25
100
AcDbEntity
8
0
100
AcDbBlockEnd
0
BLOCK
5
116
100
AcDbEntity
8
0
100
AcDbBlockBegin
2
DimnDraft3D1
70
0
10
0
20
0
30
0
3
DimnDraft3D1
0
MTEXT
5
10B
100
AcDbEntity
8
SK2
62
256
6
ByLayer
370
18
48
1
60
0
100
AcDbMText
10
-52.763026
20
-4.452632
30
0
210
0
220
0
230
1
1
\W1.2949;%%c63
40
3
41
0
44
1.084337
50
90
71
7
72
5
7
iso_b_vert
0
LINE
5
10D
100
AcDbEntity
8
SK2
62
256
6
ByLayer
370
13
48
1
60
0
100
AcDbLine
10
-1.7
20
-31.5
30
0
11
-53.263026
21
-31.5
31
0
39
0
210
0
220
0
230
1
0
LINE
5
10E
100
AcDbEntity
8
SK2
62
256
6
ByLayer
370
13
48
1
60
0
100
AcDbLine
10
-1.7
20
31.5
30
0
11
-53.263026
21
31.5
31
0
39
0
210
0
220
0
230
1
0
LINE
5
10F
100
AcDbEntity
8
SK2
62
256
6
ByLayer
370
13
48
1
60
0
100
AcDbLine
10
-51.263026
20
-31.5
30
0
11
-51.263026
21
31.5
31
0
39
0
210
0
220
0
230
1
0
LINE
5
110
100
AcDbEntity
8
SK2
62
256
6
ByLayer
370
13
48
1
60
0
100
AcDbLine
10
-51.263026
20
-31.5
30
0
11
-51.681022
21
-28.325002
31
0
39
0
210
0
220
0
230
1
0
LINE
5
111
100
AcDbEntity
8
SK2
62
256
6
ByLayer
370
13
48
1
60
0
100
AcDbLine
10
-51.263026
20
-31.5
30
0
11
-50.845029
21
-28.324998
31
0
39
0
210
0
220
0
230
1
0
LINE
5
112
100
AcDbEntity
8
SK2
62
256
6
ByLayer
370
13
48
1
60
0
100
AcDbLine
10
-51.681022
20
-28.325002
30
0
11
-50.845029
21
-28.324998
31
0
39
0
210
0
220
0
230
1
0
LINE
5
113
100
AcDbEntity
8
SK2
62
256
6
ByLayer
370
13
48
1
60
0
100
AcDbLine
10
-51.263026
20
31.5
30
0
11
-50.845029
21
28.325002
31
0
39
0
210
0
220
0
230
1
0
LINE
5
114
100
AcDbEntity
8
SK2
62
256
6
ByLayer
370
13
48
1
60
0
100
AcDbLine
10
-51.263026
20
31.5
30
0
11
-51.681022
21
28.324998
31
0
39
0
210
0
220
0
230
1
0
LINE
5
115
100
AcDbEntity
8
SK2
62
256
6
ByLayer
370
13
48
1
60
0
100
AcDbLine
10
-50.845029
20
28.325002
30
0
11
-51.681022
21
28.324998
31
0
39
0
210
0
220
0
230
1
0
ENDBLK
5
117
100
AcDbEntity
8
0
100
AcDbBlockEnd
0
BLOCK
5
11A
100
AcDbEntity
8
0
100
AcDbBlockBegin
2
_CLOSED
70
0
10
0
20
0
30
0
3
_CLOSED
0
LINE
5
11C
100
AcDbEntity
8
0
62
256
6
ByLayer
370
-2
48
1
60
0
100
AcDbLine
10
-1
20
0.166667
30
0
11
0
21
0
31
0
39
0
210
0
220
0
230
1
0
LINE
5
11D
100
AcDbEntity
8
0
62
256
6
ByLayer
370
-2
48
1
60
0
100
AcDbLine
10
0
20
0
30
0
11
-1
21
-0.166667
31
0
39
0
210
0
220
0
230
1
0
LINE
5
11E
100
AcDbEntity
8
0
62
256
6
ByLayer
370
-2
48
1
60
0
100
AcDbLine
10
-1
20
0.166667
30
0
11
-1
21
-0.166667
31
0
39
0
210
0
220
0
230
1
0
LINE
5
11F
100
AcDbEntity
8
0
62
256
6
ByLayer
370
-2
48
1
60
0
100
AcDbLine
10
0
20
0
30
0
11
-1
21
0
31
0
39
0
210
0
220
0
230
1
0
ENDBLK
5
11B
100
AcDbEntity
8
0
100
AcDbBlockEnd
0
BLOCK
5
12B
100
AcDbEntity
8
0
100
AcDbBlockBegin
2
DimnDraft3D2
70
0
10
0
20
0
30
0
3
DimnDraft3D2
0
MTEXT
5
121
100
AcDbEntity
8
SK2
62
256
6
ByLayer
370
18
48
1
60
0
100
AcDbMText
10
121.390283
20
8.641905
30
0
210
0
220
0
230
1
1
\W0.8896;45%%d
40
3
41
0
44
1.084337
50
112.5
71
7
72
5
7
iso_b_vert
0
LINE
5
122
100
AcDbEntity
8
SK2
62
256
6
ByLayer
370
13
48
1
60
0
100
AcDbLine
10
95
20
-0.003212
30
0
11
116.524423
21
21.521211
31
0
39
0
210
0
220
0
230
1
0
LINE
5
123
100
AcDbEntity
8
SK2
62
256
6
ByLayer
370
13
48
1
60
0
100
AcDbLine
10
100.944474
20
0
30
0
11
125.438801
21
0
31
0
39
0
210
0
220
0
230
1
0
ARC
5
124
100
AcDbEntity
8
SK2
62
256
6
ByLayer
370
13
48
1
60
0
100
AcDbCircle
39
0
10
95.003212
20
0
30
0
40
28.4355881027406
210
0
220
0
230
1
100
AcDbArc
50
0
51
45
0
LINE
5
125
100
AcDbEntity
8
SK2
62
256
6
ByLayer
370
13
48
1
60
0
100
AcDbLine
10
115.11021
20
20.106997
30
0
11
117.595499
21
18.087424
31
0
39
0
210
0
220
0
230
1
0
LINE
5
126
100
AcDbEntity
8
SK2
62
256
6
ByLayer
370
13
48
1
60
0
100
AcDbLine
10
115.11021
20
20.106997
30
0
11
116.988112
21
17.512997
31
0
39
0
210
0
220
0
230
1
0
LINE
5
127
100
AcDbEntity
8
SK2
62
256
6
ByLayer
370
13
48
1
60
0
100
AcDbLine
10
117.595499
20
18.087424
30
0
11
116.988112
21
17.512997
31
0
39
0
210
0
220
0
230
1
0
LINE
5
128
100
AcDbEntity
8
SK2
62
256
6
ByLayer
370
13
48
1
60
0
100
AcDbLine
10
123.438801
20
0
30
0
11
122.932443
21
3.16211
31
0
39
0
210
0
220
0
230
1
0
LINE
5
129
100
AcDbEntity
8
SK2
62
256
6
ByLayer
370
13
48
1
60
0
100
AcDbLine
10
123.438801
20
0
30
0
11
123.768111
21
3.185422
31
0
39
0
210
0
220
0
230
1
0
LINE
5
12A
100
AcDbEntity
8
SK2
62
256
6
ByLayer
370
13
48
1
60
0
100
AcDbLine
10
122.932443
20
3.16211
30
0
11
123.768111
21
3.185422
31
0
39
0
210
0
220
0
230
1
0
ENDBLK
5
12C
100
AcDbEntity
8
0
100
AcDbBlockEnd
0
BLOCK
5
13A
100
AcDbEntity
8
0
100
AcDbBlockBegin
2
DimnDraft3D3
70
0
10
0
20
0
30
0
3
DimnDraft3D3
0
MTEXT
5
12F
100
AcDbEntity
8
2
62
256
6
ByLayer
370
18
48
1
60
0
100
AcDbMText
10
46.456289
20
52.661066
30
0
210
0
220
0
230
1
1
\W0.6740;95
40
3
41
0
44
1.084337
50
0
71
7
72
5
7
iso_b_vert
0
LINE
5
131
100
AcDbEntity
8
2
62
256
6
ByLayer
370
13
48
1
60
0
100
AcDbLine
10
0
20
33.2
30
0
11
0
21
53.911066
31
0
39
0
210
0
220
0
230
1
0
LINE
5
132
100
AcDbEntity
8
2
62
256
6
ByLayer
370
13
48
1
60
0
100
AcDbLine
10
94.996788
20
2
30
0
11
94.996788
21
53.911066
31
0
39
0
210
0
220
0
230
1
0
LINE
5
133
100
AcDbEntity
8
2
62
256
6
ByLayer
370
13
48
1
60
0
100
AcDbLine
10
0
20
51.911066
30
0
11
94.996788
21
51.911066
31
0
39
0
210
0
220
0
230
1
0
LINE
5
134
100
AcDbEntity
8
2
62
256
6
ByLayer
370
13
48
1
60
0
100
AcDbLine
10
0
20
51.911066
30
0
11
3.174998
21
52.329063
31
0
39
0
210
0
220
0
230
1
0
LINE
5
135
100
AcDbEntity
8
2
62
256
6
ByLayer
370
13
48
1
60
0
100
AcDbLine
10
0
20
51.911066
30
0
11
3.175002
21
51.493069
31
0
39
0
210
0
220
0
230
1
0
LINE
5
136
100
AcDbEntity
8
2
62
256
6
ByLayer
370
13
48
1
60
0
100
AcDbLine
10
3.174998
20
52.329063
30
0
11
3.175002
21
51.493069
31
0
39
0
210
0
220
0
230
1
0
LINE
5
137
100
AcDbEntity
8
2
62
256
6
ByLayer
370
13
48
1
60
0
100
AcDbLine
10
94.996788
20
51.911066
30
0
11
91.821789
21
51.493069
31
0
39
0
210
0
220
0
230
1
0
LINE
5
138
100
AcDbEntity
8
2
62
256
6
ByLayer
370
13
48
1
60
0
100
AcDbLine
10
94.996788
20
51.911066
30
0
11
91.821786
21
52.329063
31
0
39
0
210
0
220
0
230
1
0
LINE
5
139
100
AcDbEntity
8
2
62
256
6
ByLayer
370
13
48
1
60
0
100
AcDbLine
10
91.821789
20
51.493069
30
0
11
91.821786
21
52.329063
31
0
39
0
210
0
220
0
230
1
0
ENDBLK
5
13B
100
AcDbEntity
8
0
100
AcDbBlockEnd
0
BLOCK
5
148
100
AcDbEntity
8
0
100
AcDbBlockBegin
2
DimnDraft3D4
70
0
10
0
20
0
30
0
3
DimnDraft3D4
0
MTEXT
5
13E
100
AcDbEntity
8
SK2
62
256
6
ByLayer
370
18
48
1
60
0
100
AcDbMText
10
131.562985
20
14.956289
30
0
210
0
220
0
230
1
1
\W0.6740;32
40
3
41
0
44
1.084337
50
90
71
7
72
5
7
iso_b_vert
0
LINE
5
13F
100
AcDbEntity
8
SK2
62
256
6
ByLayer
370
13
48
1
60
0
100
AcDbLine
10
55.100505
20
31.996788
30
0
11
134.312985
21
31.996788
31
0
39
0
210
0
220
0
230
1
0
LINE
5
140
100
AcDbEntity
8
SK2
62
256
6
ByLayer
370
13
48
1
60
0
100
AcDbLine
10
100.944474
20
0
30
0
11
134.312985
21
0
31
0
39
0
210
0
220
0
230
1
0
LINE
5
141
100
AcDbEntity
8
SK2
62
256
6
ByLayer
370
13
48
1
60
0
100
AcDbLine
10
132.312985
20
31.996788
30
0
11
132.312985
21
0
31
0
39
0
210
0
220
0
230
1
0
LINE
5
142
100
AcDbEntity
8
SK2
62
256
6
ByLayer
370
13
48
1
60
0
100
AcDbLine
10
132.312985
20
31.996788
30
0
11
132.730981
21
28.821789
31
0
39
0
210
0
220
0
230
1
0
LINE
5
143
100
AcDbEntity
8
SK2
62
256
6
ByLayer
370
13
48
1
60
0
100
AcDbLine
10
132.312985
20
31.996788
30
0
11
131.894988
21
28.821786
31
0
39
0
210
0
220
0
230
1
0
LINE
5
144
100
AcDbEntity
8
SK2
62
256
6
ByLayer
370
13
48
1
60
0
100
AcDbLine
10
132.730981
20
28.821789
30
0
11
131.894988
21
28.821786
31
0
39
0
210
0
220
0
230
1
0
LINE
5
145
100
AcDbEntity
8
SK2
62
256
6
ByLayer
370
13
48
1
60
0
100
AcDbLine
10
132.312985
20
0
30
0
11
131.894988
21
3.174998
31
0
39
0
210
0
220
0
230
1
0
LINE
5
146
100
AcDbEntity
8
SK2
62
256
6
ByLayer
370
13
48
1
60
0
100
AcDbLine
10
132.312985
20
0
30
0
11
132.730981
21
3.175002
31
0
39
0
210
0
220
0
230
1
0
LINE
5
147
100
AcDbEntity
8
SK2
62
256
6
ByLayer
370
13
48
1
60
0
100
AcDbLine
10
131.894988
20
3.174998
30
0
11
132.730981
21
3.175002
31
0
39
0
210
0
220
0
230
1
0
ENDBLK
5
149
100
AcDbEntity
8
0
100
AcDbBlockEnd
0
BLOCK
5
156
100
AcDbEntity
8
0
100
AcDbBlockBegin
2
DimnDraft3D5
70
0
10
0
20
0
30
0
3
DimnDraft3D5
0
MTEXT
5
14C
100
AcDbEntity
8
SK2
62
256
6
ByLayer
370
18
48
1
60
0
100
AcDbMText
10
131.562985
20
-17.043711
30
0
210
0
220
0
230
1
1
\W0.6740;32
40
3
41
0
44
1.084337
50
90
71
7
72
5
7
iso_b_vert
0
LINE
5
14D
100
AcDbEntity
8
SK2
62
256
6
ByLayer
370
13
48
1
60
0
100
AcDbLine
10
100.944474
20
0
30
0
11
134.312985
21
0
31
0
39
0
210
0
220
0
230
1
0
LINE
5
14E
100
AcDbEntity
8
SK2
62
256
6
ByLayer
370
13
48
1
60
0
100
AcDbLine
10
65
20
-32.003212
30
0
11
134.312985
21
-32.003212
31
0
39
0
210
0
220
0
230
1
0
LINE
5
14F
100
AcDbEntity
8
SK2
62
256
6
ByLayer
370
13
48
1
60
0
100
AcDbLine
10
132.312985
20
0
30
0
11
132.312985
21
-32.003212
31
0
39
0
210
0
220
0
230
1
0
LINE
5
150
100
AcDbEntity
8
SK2
62
256
6
ByLayer
370
13
48
1
60
0
100
AcDbLine
10
132.312985
20
0
30
0
11
132.730981
21
-3.174998
31
0
39
0
210
0
220
0
230
1
0
LINE
5
151
100
AcDbEntity
8
SK2
62
256
6
ByLayer
370
13
48
1
60
0
100
AcDbLine
10
132.312985
20
0
30
0
11
131.894988
21
-3.175002
31
0
39
0
210
0
220
0
230
1
0
LINE
5
152
100
AcDbEntity
8
SK2
62
256
6
ByLayer
370
13
48
1
60
0
100
AcDbLine
10
132.730981
20
-3.174998
30
0
11
131.894988
21
-3.175002
31
0
39
0
210
0
220
0
230
1
0
LINE
5
153
100
AcDbEntity
8
SK2
62
256
6
ByLayer
370
13
48
1
60
0
100
AcDbLine
10
132.312985
20
-32.003212
30
0
11
131.894988
21
-28.828214
31
0
39
0
210
0
220
0
230
1
0
LINE
5
154
100
AcDbEntity
8
SK2
62
256
6
ByLayer
370
13
48
1
60
0
100
AcDbLine
10
132.312985
20
-32.003212
30
0
11
132.730981
21
-28.828211
31
0
39
0
210
0
220
0
230
1
0
LINE
5
155
100
AcDbEntity
8
SK2
62
256
6
ByLayer
370
13
48
1
60
0
100
AcDbLine
10
131.894988
20
-28.828214
30
0
11
132.730981
21
-28.828211
31
0
39
0
210
0
220
0
230
1
0
ENDBLK
5
157
100
AcDbEntity
8
0
100
AcDbBlockEnd
0
ENDSEC
0
SECTION
2
ENTITIES
0
ARC
5
D0
100
AcDbEntity
8
1
62
256
6
ByLayer
370
18
48
1
60
0
100
AcDbCircle
39
0
10
-56.109127
20
-24.75195
30
0
40
5.25
210
0
220
0
230
-1
100
AcDbArc
50
114.340301
51
18.525063
0
ARC
5
D1
100
AcDbEntity
8
1
62
256
6
ByLayer
370
18
48
1
60
0
100
AcDbCircle
39
0
10
-56.109127
20
-24.75195
30
0
40
5.2499999999999
210
0
220
0
230
-1
100
AcDbArc
50
18.525063
51
114.340301
0
ARC
5
D5
100
AcDbEntity
8
1
62
256
6
ByLayer
370
18
48
1
60
0
100
AcDbCircle
39
0
10
-73.07969
20
28.988166
30
0
40
12.000000000005
210
0
220
0
230
-1
100
AcDbArc
50
249.624318
51
289.158067
0
CIRCLE
5
CE
100
AcDbEntity
8
1
62
256
6
ByLayer
370
18
48
1
60
0
100
AcDbCircle
10
-77.32233
20
-3.538746
30
0
40
5.25000000000001
39
0
210
0
220
0
230
-1
0
CIRCLE
5
CF
100
AcDbEntity
8
1
62
256
6
ByLayer
370
18
48
1
60
0
100
AcDbCircle
10
-66.715729
20
-14.145348
30
0
40
5.25
39
0
210
0
220
0
230
-1
0
CIRCLE
5
D2
100
AcDbEntity
8
1
62
256
6
ByLayer
370
18
48
1
60
0
100
AcDbCircle
10
56.109127
20
-24.75195
30
0
40
5
39
0
210
0
220
0
230
1
0
CIRCLE
5
D3
100
AcDbEntity
8
1
62
256
6
ByLayer
370
18
48
1
60
0
100
AcDbCircle
10
66.715729
20
-14.145348
30
0
40
5
39
0
210
0
220
0
230
1
0
CIRCLE
5
D4
100
AcDbEntity
8
1
62
256
6
ByLayer
370
18
48
1
60
0
100
AcDbCircle
10
77.32233
20
-3.538746
30
0
40
5
39
0
210
0
220
0
230
1
0
ELLIPSE
5
D6
100
AcDbEntity
8
1
62
256
6
ByLayer
370
18
48
1
60
0
100
AcDbEllipse
10
-2.347154
20
0
30
0
11
14.7536831606562
21
-31.093254915581
31
0
210
0
220
0
230
1
40
0.341999
41
0.157806186645427
42
1.09123958575283
0
ELLIPSE
5
D7
100
AcDbEntity
8
1
62
256
6
ByLayer
370
18
48
1
60
0
100
AcDbEllipse
10
26.347154
20
0
30
0
11
14.7536831606569
21
31.0932549155819
31
0
210
0
220
0
230
1
40
0.341999
41
2.05035306783699
42
2.98378646694437
0
ELLIPSE
5
D8
100
AcDbEntity
8
1
62
256
6
ByLayer
370
18
48
1
60
0
100
AcDbEllipse
10
-2.347154
20
0
30
0
11
14.7536831606571
21
31.0932549155821
31
0
210
0
220
0
230
1
40
0.341999
41
-1.0912395857528
42
-0.157806186645425
0
ELLIPSE
5
D9
100
AcDbEntity
8
1
62
256
6
ByLayer
370
18
48
1
60
0
100
AcDbEllipse
10
26.347154
20
0
30
0
11
14.7536831606552
21
-31.0932549155797
31
0
210
0
220
0
230
1
40
0.341999
41
-2.98378646694436
42
-2.05035306783693
0
ELLIPSE
5
DA
100
AcDbEntity
8
1
62
256
6
ByLayer
370
18
48
1
60
0
100
AcDbEllipse
10
58.442579
20
-5.165092
30
0
11
-2.58965397004034
21
2.58965397004033
31
0
210
0
220
0
230
1
40
0.819152
41
0
42
6.28318530717959
0
ELLIPSE
5
DB
100
AcDbEntity
8
1
62
256
6
ByLayer
370
18
48
1
60
0
100
AcDbEllipse
10
76.598309
20
11.066272
30
0
11
0.972022002003626
21
-2.0845079101843
31
0
210
0
220
0
230
-1
40
0.258819
41
0
42
6.28318530717959
0
ELLIPSE
5
DC
100
AcDbEntity
8
1
62
256
6
ByLayer
370
18
48
1
60
0
100
AcDbEllipse
10
76.423224
20
10.984628
30
0
11
1.05654565435176
21
-2.26576946759161
31
0
210
0
220
0
230
-1
40
0.258819
41
0
42
6.28318530717959
0
ELLIPSE
5
DD
100
AcDbEntity
8
1
62
256
6
ByLayer
370
18
48
1
60
0
100
AcDbEllipse
10
78.840254
20
2.014398
30
0
11
6.16401525910823
21
-6.16401525910817
31
0
210
-1.21448983499673E-16
220
1.21448983499673E-16
230
1
40
0.573576
41
0.64350110880807
42
1.69843740493329
0
POINT
5
6C
100
AcDbEntity
8
81
62
256
6
ByLayer
370
18
48
1
60
0
100
AcDbPoint
10
87.932145
20
7.071068
30
0
39
0
210
0
220
0
230
1
50
360
0
POINT
5
6E
100
AcDbEntity
8
80
62
256
6
ByLayer
370
18
48
1
60
0
100
AcDbPoint
10
0
20
0
30
0
39
0
210
0
220
0
230
1
50
360
0
SPLINE
5
DE
100
AcDbEntity
8
1
62
256
6
ByLayer
370
18
48
1
60
0
100
AcDbSpline
70
4
71
3
72
12
73
8
40
0
40
0
40
0
40
0
40
0.268812720709513
40
0.597605301872775
40
0.761234284787717
40
0.8961435036046
40
1
40
1
40
1
40
1
41
1
10
13.8943375672974
20
-29.9139548464691
30
0
41
1
10
13.8789102783285
20
-29.9344364341763
30
0
41
1
10
13.831605345163
20
-29.9775637976282
30
0
41
1
10
13.7433941200963
20
-30.0291632435093
30
0
41
1
10
13.634722007306
20
-30.0627691562056
30
0
41
1
10
13.5458378558719
20
-30.0777080286645
30
0
41
1
10
13.4878204468283
20
-30.0803887582689
30
0
41
1
10
13.4613248654052
20
-30.0805927603169
30
0
0
SPLINE
5
DF
100
AcDbEntity
8
1
62
256
6
ByLayer
370
18
48
1
60
0
100
AcDbSpline
70
4
71
3
72
13
73
9
40
0
40
0
40
0
40
0
40
0.0049544420437537
40
0.113866519425951
40
0.253452115449277
40
0.473535455387177
40
0.894568595884781
40
1
40
1
40
1
40
1
41
1
10
10.5386751345948
20
-30.0805927603169
30
0
41
1
10
10.537450872409
20
-30.0805926868535
30
0
41
1
10
10.5093477717048
20
-30.0805290593979
30
0
41
1
10
10.4465510164428
20
-30.0768838316285
30
0
41
1
10
10.3457330197466
20
-30.058773313866
30
0
41
1
10
10.2197164028837
20
-30.0138157030739
30
0
41
1
10
10.1481083506258
20
-29.9607825352996
30
0
41
1
10
10.1120558984644
20
-29.9218822348292
30
0
41
1
10
10.1056624327026
20
-29.9139548464691
30
0
0
SPLINE
5
E0
100
AcDbEntity
8
1
62
256
6
ByLayer
370
18
48
1
60
0
100
AcDbSpline
70
4
71
3
72
12
73
8
40
0
40
0
40
0
40
0
40
0.268812720709383
40
0.597605301872752
40
0.761234284787682
40
0.896143503604589
40
1
40
1
40
1
40
1
41
1
10
10.1056624327026
20
-9.86941261896613
30
0
41
1
10
10.1210897216714
20
-9.80723406842817
30
0
41
1
10
10.168394654837
20
-9.6752889522603
30
0
41
1
10
10.2566058799037
20
-9.5134830974826
30
0
41
1
10
10.365277992694
20
-9.40646168968887
30
0
41
1
10
10.454162144128
20
-9.35849990178994
30
0
41
1
10
10.5121795531717
20
-9.34989401091092
30
0
41
1
10
10.5386751345948
20
-9.349221314525
30
0
0
SPLINE
5
E1
100
AcDbEntity
8
1
62
256
6
ByLayer
370
18
48
1
60
0
100
AcDbSpline
70
4
71
3
72
13
73
9
40
0
40
0
40
0
40
0
40
0.0049544420437757
40
0.113866519425986
40
0.253452115449317
40
0.473535455387234
40
0.894568595884855
40
1
40
1
40
1
40
1
41
1
10
13.4613248654052
20
-9.34922131452502
30
0
41
1
10
13.462549127591
20
-9.34922155870898
30
0
41
1
10
13.4906522282952
20
-9.34942610523147
30
0
41
1
10
13.5534489835572
20
-9.36116231186528
30
0
41
1
10
13.6542669802534
20
-9.4192634065396
30
0
41
1
10
13.7802835971163
20
-9.56214647013262
30
0
41
1
10
13.8518916493741
20
-9.72702906428663
30
0
41
1
10
13.8879441015356
20
-9.84537467551148
30
0
41
1
10
13.8943375672974
20
-9.8694126189661
30
0
0
SPLINE
5
E2
100
AcDbEntity
8
1
62
256
6
ByLayer
370
18
48
1
60
0
100
AcDbSpline
70
4
71
3
72
12
73
8
40
0
40
0
40
0
40
0
40
0.268812720709485
40
0.597605301872762
40
0.761234284787701
40
0.896143503604602
40
1
40
1
40
1
40
1
41
1
10
13.8943375672974
20
9.8694126189661
30
0
41
1
10
13.8789102783285
20
9.80723406842811
30
0
41
1
10
13.831605345163
20
9.67528895226025
30
0
41
1
10
13.7433941200963
20
9.51348309748256
30
0
41
1
10
13.634722007306
20
9.40646168968886
30
0
41
1
10
13.5458378558719
20
9.35849990178994
30
0
41
1
10
13.4878204468283
20
9.34989401091093
30
0
41
1
10
13.4613248654052
20
9.34922131452502
30
0
0
SPLINE
5
E3
100
AcDbEntity
8
1
62
256
6
ByLayer
370
18
48
1
60
0
100
AcDbSpline
70
4
71
3
72
13
73
9
40
0
40
0
40
0
40
0
40
0.004954442043804
40
0.113866519425998
40
0.253452115449334
40
0.473535455387286
40
0.894568595884974
40
1
40
1
40
1
40
1
41
1
10
10.5386751345948
20
9.34922131452503
30
0
41
1
10
10.537450872409
20
9.34922155870898
30
0
41
1
10
10.5093477717048
20
9.34942610523131
30
0
41
1
10
10.4465510164428
20
9.36116231186536
30
0
41
1
10
10.3457330197465
20
9.41926340653958
30
0
41
1
10
10.2197164028837
20
9.5621464701327
30
0
41
1
10
10.1481083506258
20
9.72702906428669
30
0
41
1
10
10.1120558984644
20
9.84537467551155
30
0
41
1
10
10.1056624327026
20
9.86941261896613
30
0
0
SPLINE
5
E4
100
AcDbEntity
8
1
62
256
6
ByLayer
370
18
48
1
60
0
100
AcDbSpline
70
4
71
3
72
12
73
8
40
0
40
0
40
0
40
0
40
0.268812720709657
40
0.597605301872842
40
0.761234284787775
40
0.896143503604652
40
1
40
1
40
1
40
1
41
1
10
10.1056624327026
20
29.9139548464691
30
0
41
1
10
10.1210897216715
20
29.9344364341763
30
0
41
1
10
10.168394654837
20
29.9775637976282
30
0
41
1
10
10.2566058799037
20
30.0291632435092
30
0
41
1
10
10.365277992694
20
30.0627691562057
30
0
41
1
10
10.4541621441281
20
30.0777080286646
30
0
41
1
10
10.5121795531717
20
30.0803887582689
30
0
41
1
10
10.5386751345948
20
30.0805927603169
30
0
0
SPLINE
5
E5
100
AcDbEntity
8
1
62
256
6
ByLayer
370
18
48
1
60
0
100
AcDbSpline
70
4
71
3
72
13
73
9
40
0
40
0
40
0
40
0
40
0.0049544420437973
40
0.113866519425997
40
0.253452115449332
40
0.473535455387268
40
0.89456859588492
40
1
40
1
40
1
40
1
41
1
10
13.4613248654052
20
30.080592760317
30
0
41
1
10
13.462549127591
20
30.0805926868535
30
0
41
1
10
13.4906522282952
20
30.0805290593975
30
0
41
1
10
13.5534489835572
20
30.0768838316288
30
0
41
1
10
13.6542669802534
20
30.0587733138659
30
0
41
1
10
13.7802835971163
20
30.013815703074
30
0
41
1
10
13.8518916493742
20
29.9607825352996
30
0
41
1
10
13.8879441015356
20
29.9218822348292
30
0
41
1
10
13.8943375672974
20
29.9139548464691
30
0
0
SPLINE
5
E6
100
AcDbEntity
8
SK1
62
256
6
ByLayer
370
18
48
1
60
0
100
AcDbSpline
70
4
71
1
72
4
73
2
40
0
40
0
40
1
40
1
41
1
10
-0.0214314355587748
20
6.61014562576469
30
0
41
1
10
-2.54E-14
20
6.53762631735267
30
0
0
SPLINE
5
E7
100
AcDbEntity
8
SK1
62
256
6
ByLayer
370
18
48
1
60
0
100
AcDbSpline
70
4
71
3
72
15
73
11
40
0
40
0
40
0
40
0
40
0.0836108230211186
40
0.147309200926625
40
0.196930826874219
40
0.246619311984024
40
0.313026806544703
40
0.43035444278017
40
0.794610576073829
40
1
40
1
40
1
40
1
41
1
10
-0.400000000000018
20
-21.7861777489074
30
0
41
1
10
-0.394244317885623
20
-21.7856203706681
30
0
41
1
10
-0.382886991987794
20
-21.7855999177968
30
0
41
1
10
-0.364728794222036
20
-21.7873615383898
30
0
41
1
10
-0.348034685444471
20
-21.7909625150534
30
0
41
1
10
-0.331557272921129
20
-21.7963186578609
30
0
41
1
10
-0.311911469661482
20
-21.805229043221
30
0
41
1
10
-0.278607968463438
20
-21.8266360793573
30
0
41
1
10
-0.257368649891121
20
-21.8509530725891
30
0
41
1
10
-0.243618916637774
20
-21.8694930798221
30
0
41
1
10
-0.239987680708264
20
-21.8759237371008
30
0
0
SPLINE
5
E8
100
AcDbEntity
8
SK1
62
256
6
ByLayer
370
18
48
1
60
0
100
AcDbSpline
70
4
71
3
72
17
73
13
40
0
40
0
40
0
40
0
40
0.0580225012475266
40
0.118348644798807
40
0.239045605914979
40
0.359733859477783
40
0.420057331683398
40
0.540737207209985
40
0.661413446179411
40
0.7820870831716
40
0.891043037347454
40
1
40
1
40
1
40
1
41
1
10
-2.1999369715594
20
-22.0201008059928
30
0
41
1
10
-2.19994111039233
20
-22.0199534703522
30
0
41
1
10
-2.19994895187915
20
-22.0110355151029
30
0
41
1
10
-2.1999620102708
20
-21.956731982278
30
0
41
1
10
-2.19997487537995
20
-21.8226368757698
30
0
41
1
10
-2.19998362821045
20
-21.608226521278
30
0
41
1
10
-2.19999009566089
20
-21.3379022336922
30
0
41
1
10
-2.19999459150205
20
-21.0133950374225
30
0
41
1
10
-2.19999774058269
20
-20.5423536268455
30
0
41
1
10
-2.19999929850849
20
-20.0115636298903
30
0
41
1
10
-2.19999991154328
20
-19.4324285463744
30
0
41
1
10
-2.20000003133561
20
-19.0211973864701
30
0
41
1
10
-2.20000000000002
20
-18.8057993596818
30
0
0
SPLINE
5
E9
100
AcDbEntity
8
SK1
62
256
6
ByLayer
370
18
48
1
60
0
100
AcDbSpline
70
4
71
2
72
6
73
3
40
0
40
0
40
0
40
1
40
1
40
1
41
1
10
-2.19492488857411
20
-22.0202267269672
30
0
41
1
10
-2.59746244428705
20
-22.0101135822509
30
0
41
1
10
-3
20
-22.0000004375346
30
0
0
SPLINE
5
EA
100
AcDbEntity
8
SK1
62
256
6
ByLayer
370
18
48
1
60
0
100
AcDbSpline
70
4
71
2
72
6
73
3
40
0
40
0
40
0
40
1
40
1
40
1
41
1
10
-3
20
22.0000004290441
30
0
41
1
10
-2.59746244428705
20
22.0101135737565
30
0
41
1
10
-2.19492488857411
20
22.0202267184689
30
0
0
SPLINE
5
EB
100
AcDbEntity
8
SK1
62
256
6
ByLayer
370
18
48
1
60
0
100
AcDbSpline
70
4
71
3
72
17
73
13
40
0
40
0
40
0
40
0
40
0.110799964007611
40
0.221598844946521
40
0.401505990316325
40
0.491413094783591
40
0.581321314484382
40
0.67123094785544
40
0.761142399335357
40
0.851056197893279
40
0.940973209057597
40
1
40
1
40
1
40
1
41
1
10
-2.20000000000002
20
18.8057994981526
30
0
41
1
10
-2.20000003309106
20
19.0248486921952
30
0
41
1
10
-2.19999990898686
20
19.4427097268097
30
0
41
1
10
-2.19999916148124
20
20.1275845560134
30
0
41
1
10
-2.19999718027
20
20.6829077492075
30
0
41
1
10
-2.19999322562031
20
21.119223917934
30
0
41
1
10
-2.19998888046822
20
21.4003821629167
30
0
41
1
10
-2.19998279000431
20
21.6334064627361
30
0
41
1
10
-2.19997446616181
20
21.8158350496213
30
0
41
1
10
-2.19996353755558
20
21.9447098344506
30
0
41
1
10
-2.199951015391
20
22.0085414009269
30
0
41
1
10
-2.19994116247006
20
22.019913752436
30
0
41
1
10
-2.1999369706415
20
22.020100797442
30
0
0
SPLINE
5
EC
100
AcDbEntity
8
SK1
62
256
6
ByLayer
370
18
48
1
60
0
100
AcDbSpline
70
4
71
2
72
6
73
3
40
0
40
0
40
0
40
1
40
1
40
1
41
1
10
-3
20
-22.0000004375346
30
0
41
1
10
-19.7502365839533
20
-21.5791761834949
30
0
41
1
10
-36.5004731679067
20
-21.1583519294552
30
0
0
SPLINE
5
ED
100
AcDbEntity
8
SK1
62
256
6
ByLayer
370
18
48
1
60
0
100
AcDbSpline
70
4
71
2
72
6
73
3
40
0
40
0
40
0
40
1
40
1
40
1
41
1
10
-36.5004731679067
20
21.1583519212896
30
0
41
1
10
-19.7502365839533
20
21.5791761751668
30
0
41
1
10
-3
20
22.0000004290441
30
0
0
SPLINE
5
EE
100
AcDbEntity
8
SK1
62
256
6
ByLayer
370
18
48
1
60
0
100
AcDbSpline
70
4
71
3
72
13
73
9
40
0
40
0
40
0
40
0
40
0.239458034039711
40
0.368362242523283
40
0.500001719408281
40
0.631640907399732
40
0.760544321541723
40
1
40
1
40
1
40
1
41
1
10
-2
20
-21.8251283317571
30
0
41
1
10
-2.02607218220657
20
-21.8253815759776
30
0
41
1
10
-2.06363558166035
20
-21.832499461233
30
0
41
1
10
-2.11047835037542
20
-21.8567272581279
30
0
41
1
10
-2.14242263587786
20
-21.8827049843058
30
0
41
1
10
-2.16840067179331
20
-21.9146489043199
30
0
41
1
10
-2.1926287564505
20
-21.9614911190379
30
0
41
1
10
-2.19974671976325
20
-21.9990541435572
30
0
41
1
10
-2.2
20
-22.0251260837646
30
0
0
SPLINE
5
EF
100
AcDbEntity
8
SK1
62
256
6
ByLayer
370
18
48
1
60
0
100
AcDbSpline
70
4
71
3
72
13
73
9
40
0
40
0
40
0
40
0
40
0.23945567335882
40
0.368359087136603
40
0.499998275767161
40
0.631637753936879
40
0.760541963956581
40
1
40
1
40
1
40
1
41
1
10
-2.2
20
22.0251260775077
30
0
41
1
10
-2.19974671959666
20
21.9990541369823
30
0
41
1
10
-2.19262875626099
20
21.9614911120955
30
0
41
1
10
-2.16840067169749
20
21.9146488976998
30
0
41
1
10
-2.14242263580763
20
21.8827049776713
30
0
41
1
10
-2.11047835033028
20
21.8567272514908
30
0
41
1
10
-2.06363558177699
20
21.8324994546095
30
0
41
1
10
-2.02607218225585
20
21.8253815693237
30
0
41
1
10
-2
20
21.8251283250689
30
0
0
SPLINE
5
F0
100
AcDbEntity
8
SK1
62
256
6
ByLayer
370
18
48
1
60
0
100
AcDbSpline
70
4
71
2
72
6
73
3
40
0
40
0
40
0
40
1
40
1
40
1
41
1
10
-2
20
21.8251283250689
30
0
41
1
10
-1.20000000000001
20
21.8251283250689
30
0
41
1
10
-0.400000000000019
20
21.8251283250689
30
0
0
SPLINE
5
F1
100
AcDbEntity
8
SK1
62
256
6
ByLayer
370
18
48
1
60
0
100
AcDbSpline
70
4
71
2
72
6
73
3
40
0
40
0
40
0
40
1
40
1
40
1
41
1
10
-0.400000000000019
20
-21.8251283317571
30
0
41
1
10
-1.20000000000001
20
-21.8251283317571
30
0
41
1
10
-2
20
-21.8251283317571
30
0
0
SPLINE
5
F2
100
AcDbEntity
8
SK1
62
256
6
ByLayer
370
18
48
1
60
0
100
AcDbSpline
70
4
71
2
72
6
73
3
40
0
40
0
40
0
40
1
40
1
40
1
41
1
10
-36.5004321682704
20
-21.1581061531923
30
0
41
1
10
-37.250216097561
20
-20.6997323883077
30
0
41
1
10
-38
20
-20.2413583528791
30
0
0
SPLINE
5
F3
100
AcDbEntity
8
SK1
62
256
6
ByLayer
370
18
48
1
60
0
100
AcDbSpline
70
4
71
2
72
6
73
3
40
0
40
0
40
0
40
1
40
1
40
1
41
1
10
-38
20
20.2397162883162
30
0
41
1
10
-37.2502068935606
20
20.6982812567361
30
0
41
1
10
-36.500413873027
20
21.1568446673342
30
0
0
SPLINE
5
F4
100
AcDbEntity
8
SK1
62
256
6
ByLayer
370
18
48
1
60
0
100
AcDbSpline
70
4
71
3
72
13
73
9
40
0
40
0
40
0
40
0
40
0.238823327021375
40
0.596404845844071
40
0.776448283473056
40
0.909405333023227
40
0.95453013198393
40
1
40
1
40
1
40
1
41
1
10
-0.207673691453251
20
21.9536729710648
30
0
41
1
10
-0.209805916094851
20
21.9434918386956
30
0
41
1
10
-0.218399451747671
20
21.9167862552717
30
0
41
1
10
-0.235998026070452
20
21.8786349194953
30
0
41
1
10
-0.264946054689456
20
21.8414316913747
30
0
41
1
10
-0.289349651964436
20
21.8195750101022
30
0
41
1
10
-0.312441046537757
20
21.8051377170115
30
0
41
1
10
-0.324681240882653
20
21.799508771038
30
0
41
1
10
-0.331445012233808
20
21.7967071663301
30
0
0
SPLINE
5
F5
100
AcDbEntity
8
SK1
62
256
6
ByLayer
370
18
48
1
60
0
100
AcDbSpline
70
4
71
3
72
27
73
23
40
0
40
0
40
0
40
0
40
0.000107383551092
40
0.000219925376128
40
0.0004766251769625
40
0.0011865726591848
40
0.0035852564586355
40
0.0124904815601982
40
0.0457769427638703
40
0.163318593729011
40
0.327164006106743
40
0.511882470299933
40
0.693351038263895
40
0.849011788933488
40
0.95778039631645
40
0.988249204886994
40
0.996452983923661
40
0.998723915508775
40
0.999437028284241
40
0.999712540875208
40
0.999956947478688
40
1
40
1
40
1
40
1
41
1
10
-0.400000000000019
20
21.8251283250689
30
0
41
1
10
-0.399952929897409
20
21.8251283265248
30
0
41
1
10
-0.399858861975612
20
21.8251283580732
30
0
41
1
10
-0.399662497119465
20
21.8251285665604
30
0
41
1
10
-0.399278470866809
20
21.8251294216709
30
0
41
1
10
-0.398474985723336
20
21.8251332544329
30
0
41
1
10
-0.396921129062514
20
21.8251483751893
30
0
41
1
10
-0.39385912367639
20
21.8252014558234
30
0
41
1
10
-0.388019884834545
20
21.8253193360769
30
0
41
1
10
-0.381306411579103
20
21.8249988048688
30
0
41
1
10
-0.373331587390062
20
21.8229561948257
30
0
41
1
10
-0.365230299618806
20
21.818439183268
30
0
41
1
10
-0.357082354671717
20
21.8117912430151
30
0
41
1
10
-0.348925201623548
20
21.8046799941498
30
0
41
1
10
-0.341981357845585
20
21.7995529811158
30
0
41
1
10
-0.335860908013664
20
21.7977311574547
30
0
41
1
10
-0.332662001765476
20
21.7977847287439
30
0
41
1
10
-0.331028370611044
20
21.7980970784472
30
0
41
1
10
-0.330191886697772
20
21.7983372249294
30
0
41
1
10
-0.329761976287635
20
21.7984803346202
30
0
41
1
10
-0.329535043649912
20
21.7985620151737
30
0
41
1
10
-0.329419214785883
20
21.7986055876106
30
0
41
1
10
-0.329401778560084
20
21.79861218361
30
0
0
SPLINE
5
F6
100
AcDbEntity
8
SK1
62
256
6
ByLayer
370
18
48
1
60
0
100
AcDbSpline
70
4
71
2
72
6
73
3
40
0
40
0
40
0
40
1
40
1
40
1
41
1
10
-0.239987680708264
20
-21.8759237371008
30
0
41
1
10
-0.201803252095452
20
-21.9385996467756
30
0
41
1
10
-0.201982973539681
20
-21.9851190293857
30
0
0
SPLINE
5
F7
100
AcDbEntity
8
SK1
62
256
6
ByLayer
370
18
48
1
60
0
100
AcDbSpline
70
4
71
3
72
10
73
6
40
0
40
0
40
0
40
0
40
0.195192709801973
40
0.724559272775932
40
1
40
1
40
1
40
1
41
1
10
-0.230993204244115
20
-21.9164923240483
30
0
41
1
10
-0.231497618773398
20
-21.9168333061611
30
0
41
1
10
-0.233465149687689
20
-21.9158515106127
30
0
41
1
10
-0.236538654052094
20
-21.9034344468634
30
0
41
1
10
-0.239606216591702
20
-21.8825943799658
30
0
41
1
10
-0.240712915381916
20
-21.8742360134916
30
0
0
SPLINE
5
F8
100
AcDbEntity
8
1
62
256
6
ByLayer
370
18
48
1
60
0
100
AcDbSpline
70
4
71
5
72
28
73
22
40
0
40
0
40
0
40
0
40
0
40
0
40
0.0618213619293083
40
0.139836168620321
40
0.217672588810031
40
0.29580346783585
40
0.374484537924008
40
0.426866151773105
40
0.452666051131615
40
0.483307526216089
40
0.530510550079521
40
0.55624468936915
40
0.582878554198652
40
0.608492790351125
40
0.687062600771634
40
0.765492674996304
40
0.843475966861159
40
0.921489136807114
40
1
40
1
40
1
40
1
40
1
40
1
41
1
10
22.2792076144252
20
-31.4964249104783
30
0
41
1
10
22.2939672671155
20
-31.4964249104783
30
0
41
1
10
22.3273527056971
20
-31.4969389630506
30
0
41
1
10
22.3792841811034
20
-31.4995562025066
30
0
41
1
10
22.4495994044896
20
-31.5069299894933
30
0
41
1
10
22.5377026774326
20
-31.5227926620247
30
0
41
1
10
22.62212302884
20
-31.5448851693828
30
0
41
1
10
22.6929155862151
20
-31.5689306831878
30
0
41
1
10
22.7517053815907
20
-31.5928170675297
30
0
41
1
10
22.8025924716776
20
-31.61631476387
30
0
41
1
10
22.8412633940897
20
-31.6360272220157
30
0
41
1
10
22.8738951774137
20
-31.6540073117995
30
0
41
1
10
22.9058878656081
20
-31.673011433128
30
0
41
1
10
22.9469233759568
20
-31.699148973253
30
0
41
1
10
22.9930502876377
20
-31.7311197569597
30
0
41
1
10
23.0473495503256
20
-31.7730976324009
30
0
41
1
10
23.1080475825783
20
-31.8266485840476
30
0
41
1
10
23.1732064335076
20
-31.8938292196643
30
0
41
1
10
23.2209610426018
20
-31.9514103897318
30
0
41
1
10
23.2541611196996
20
-31.9965413961508
30
0
41
1
10
23.2751183976739
20
-32.0274900074942
30
0
41
1
10
23.285323871754
20
-32.0432124552391
30
0
0
SPLINE
5
F9
100
AcDbEntity
8
1
62
256
6
ByLayer
370
18
48
1
60
0
100
AcDbSpline
70
4
71
3
72
12
73
8
40
0
40
0
40
0
40
0
40
0.5
40
0.5
40
0.75
40
0.75
40
1
40
1
40
1
40
1
41
1
10
23.4383186059721
20
26.1649913938152
30
0
41
1
10
23.4951030035931
20
27.1342728943845
30
0
41
1
10
23.5748192230121
20
28.1052279451395
30
0
41
1
10
23.7264318526267
20
29.5639986566453
30
0
41
1
10
23.7823020731553
20
30.0507003986564
30
0
41
1
10
23.904134169303
20
31.0246123592377
30
0
41
1
10
23.9699870997294
20
31.5109757809233
30
0
41
1
10
24.0404361492066
20
31.9967875447609
30
0
0
SPLINE
5
FA
100
AcDbEntity
8
1
62
256
6
ByLayer
370
18
48
1
60
0
100
AcDbSpline
70
4
71
3
72
17
73
13
40
0
40
0
40
0
40
0
40
0.25
40
0.25
40
0.375
40
0.375
40
0.5
40
0.625
40
0.625
40
0.75
40
0.75
40
1
40
1
40
1
40
1
41
1
10
23.4383186059721
20
19.0834176916456
30
0
41
1
10
23.4037531858963
20
19.6734322668198
30
0
41
1
10
23.3549551677418
20
20.2633994605588
30
0
41
1
10
23.2983063639763
20
21.1484053415011
30
0
41
1
10
23.2821448594529
20
21.4434163616693
30
0
41
1
10
23.2599146870878
20
22.0334720018505
30
0
41
1
10
23.247875929689
20
22.6235615700514
30
0
41
1
10
23.2598819597001
20
23.2137311852353
30
0
41
1
10
23.2820923455691
20
23.8039347715201
30
0
41
1
10
23.2982504697652
20
24.0990533862669
30
0
41
1
10
23.3549086258872
20
24.9844364749646
30
0
41
1
10
23.4037347792556
20
25.574662626414
30
0
41
1
10
23.4383186059721
20
26.1649913938152
30
0
0
SPLINE
5
FB
100
AcDbEntity
8
1
62
256
6
ByLayer
370
18
48
1
60
0
100
AcDbSpline
70
4
71
3
72
10
73
6
40
0
40
0
40
0
40
0
40
0.5
40
0.5
40
1
40
1
40
1
40
1
41
1
10
24.0404361492066
20
13.2516215406999
30
0
41
1
10
23.8999134983936
20
14.2206560040058
30
0
41
1
10
23.7778213873674
20
15.1910355167173
30
0
41
1
10
23.5755732559981
20
17.1348550121266
30
0
41
1
10
23.495445085227
20
18.1082970272689
30
0
41
1
10
23.4383186059721
20
19.0834176916456
30
0
0
SPLINE
5
FC
100
AcDbEntity
8
1
62
256
6
ByLayer
370
18
48
1
60
0
100
AcDbSpline
70
4
71
3
72
26
73
22
40
0
40
0
40
0
40
0
40
0.0624999999999998
40
0.0624999999999998
40
0.125
40
0.125
40
0.187499999999999
40
0.187499999999999
40
0.249999999999999
40
0.249999999999999
40
0.312499999999999
40
0.312499999999999
40
0.374999999999999
40
0.374999999999999
40
0.499999999999998
40
0.499999999999998
40
0.624999999999998
40
0.624999999999998
40
0.749999999999998
40
0.749999999999998
40
1
40
1
40
1
40
1
41
1
10
24.4447529687005
20
-14.180659333997
30
0
41
1
10
24.4256670891698
20
-14.180659333997
30
0
41
1
10
24.4071923249364
20
-14.1773147689745
30
0
41
1
10
24.3712912138121
20
-14.1648877691872
30
0
41
1
10
24.3545869177841
20
-14.1560552039504
30
0
41
1
10
24.3234412832553
20
-14.1349361654056
30
0
41
1
10
24.3089048567583
20
-14.1225436322714
30
0
41
1
10
24.2823366084306
20
-14.0960783411927
30
0
41
1
10
24.2701326696634
20
-14.0818830152579
30
0
41
1
10
24.2473084581356
20
-14.0520809721384
30
0
41
1
10
24.23665943234
20
-14.0364031109846
30
0
41
1
10
24.2169330593311
20
-14.0044542679255
30
0
41
1
10
24.2078142085491
20
-13.9881352317677
30
0
41
1
10
24.1822008437089
20
-13.9383710574818
30
0
41
1
10
24.1674250600688
20
-13.9041301767522
30
0
41
1
10
24.1410911566565
20
-13.8341586923031
30
0
41
1
10
24.1295346405417
20
-13.7983280770381
30
0
41
1
10
24.1091942783259
20
-13.7263054507357
30
0
41
1
10
24.1003773453464
20
-13.690022951266
30
0
41
1
10
24.0772146745134
20
-13.5805165231769
30
0
41
1
10
24.0661123773662
20
-13.5066426200804
30
0
41
1
10
24.0583826381849
20
-13.4320928678475
30
0
0
SPLINE
5
FD
100
AcDbEntity
8
1
62
256
6
ByLayer
370
18
48
1
60
0
100
AcDbSpline
70
4
71
3
72
10
73
6
40
0
40
0
40
0
40
0
40
0.5
40
0.5
40
1
40
1
40
1
40
1
41
1
10
24.0583826381849
20
-13.4320928678475
30
0
41
1
10
23.9135986709982
20
-12.0357186011473
30
0
41
1
10
23.7876958006822
20
-10.6360633743585
30
0
41
1
10
23.579273222876
20
-7.8292142472219
30
0
41
1
10
23.4967849722367
20
-6.42201488063055
30
0
41
1
10
23.4383186059721
20
-5.0106412415155
30
0
0
SPLINE
5
FE
100
AcDbEntity
8
1
62
256
6
ByLayer
370
18
48
1
60
0
100
AcDbSpline
70
4
71
3
72
26
73
22
40
0
40
0
40
0
40
0
40
0.250000000000002
40
0.250000000000002
40
0.375000000000003
40
0.375000000000003
40
0.437500000000003
40
0.437500000000003
40
0.468750000000004
40
0.484375000000004
40
0.492187500000004
40
0.492187500000004
40
0.494140625000004
40
0.494140625000004
40
0.496093750000004
40
0.500000000000004
40
0.625000000000003
40
0.625000000000003
40
0.750000000000002
40
0.750000000000002
40
1
40
1
40
1
40
1
41
1
10
23.4383186059721
20
-5.01064124151552
30
0
41
1
10
23.4032250177347
20
-4.16348468801807
30
0
41
1
10
23.3534674413515
20
-3.31629525246454
30
0
41
1
10
23.296439853519
20
-2.04518161956291
30
0
41
1
10
23.2803256975502
20
-1.62138360079546
30
0
41
1
10
23.264094949348
20
-0.985430191841633
30
0
41
1
10
23.259992099001
20
-0.773403509153365
30
0
41
1
10
23.2560498127524
20
-0.455292064857414
30
0
41
1
10
23.2546291411688
20
-0.296218569195343
30
0
41
1
10
23.2539612122122
20
-0.110600874794517
30
0
41
1
10
23.2538878486381
20
-0.031043560532968
30
0
41
1
10
23.2538868730904
20
0.0021062758895027
30
0
41
1
10
23.2538880910318
20
0.0083709951949338
30
0
41
1
10
23.2538932870117
20
0.0212255005338591
30
0
41
1
10
23.2539052528245
20
0.0405071566127724
30
0
41
1
10
23.2544476442741
20
0.471124086257735
30
0
41
1
10
23.2611827502377
20
0.895162394898779
30
0
41
1
10
23.2839634718116
20
1.71730226652584
30
0
41
1
10
23.3001663262325
20
2.12825934802662
30
0
41
1
10
23.3564256735083
20
3.36091225412958
30
0
41
1
10
23.4042718616049
20
4.18233050902274
30
0
41
1
10
23.4383186059721
20
5.00421633103725
30
0
0
SPLINE
5
FF
100
AcDbEntity
8
1
62
256
6
ByLayer
370
18
48
1
60
0
100
AcDbSpline
70
4
71
3
72
10
73
6
40
0
40
0
40
0
40
0
40
0.5
40
0.5
40
1
40
1
40
1
40
1
41
1
10
23.4383186059721
20
5.00421633103726
30
0
41
1
10
23.4955880213024
20
6.38669566554731
30
0
41
1
10
23.5758935959809
20
7.7649446696663
30
0
41
1
10
23.778233150009
20
10.5137797278533
30
0
41
1
10
23.9002386670537
20
11.884371008702
30
0
41
1
10
24.0404361492066
20
13.2516215406999
30
0
0
SPLINE
5
100
100
AcDbEntity
8
1
62
256
6
ByLayer
370
18
48
1
60
0
100
AcDbSpline
70
4
71
3
72
10
73
6
40
0
40
0
40
0
40
0
40
0.5
40
0.5
40
1
40
1
40
1
40
1
41
1
10
33.323085031475
20
-15.8139720303194
30
0
41
1
10
33.6019512428283
20
-17.1640285146496
30
0
41
1
10
33.9085324689851
20
-18.5094437589961
30
0
41
1
10
34.5679939228149
20
-21.1925208772305
30
0
41
1
10
34.9208634468555
20
-22.530184543581
30
0
41
1
10
35.2928419122037
20
-23.8646481689764
30
0
0
SPLINE
5
101
100
AcDbEntity
8
1
62
256
6
ByLayer
370
18
48
1
60
0
100
AcDbSpline
70
4
71
3
72
9
73
5
40
0
40
0
40
0
40
0
40
0.5
40
1
40
1
40
1
40
1
41
1
10
35.2928419122036
20
-23.8646481689764
30
0
41
1
10
35.163880781245
20
-25.2210755500202
30
0
41
1
10
35.03288814215
20
-27.9339303121078
30
0
41
1
10
35.163880781245
20
-30.6467850741954
30
0
41
1
10
35.2928419122036
20
-32.0032124552391
30
0
0
SPLINE
5
102
100
AcDbEntity
8
1
62
256
6
ByLayer
370
18
48
1
60
0
100
AcDbSpline
70
4
71
3
72
32
73
28
40
0
40
0
40
0
40
0
40
0.031250000000004
40
0.031250000000004
40
0.062500000000008
40
0.062500000000008
40
0.125000000000006
40
0.125000000000006
40
0.156250000000006
40
0.156250000000006
40
0.187500000000006
40
0.187500000000006
40
0.250000000000006
40
0.250000000000006
40
0.312500000000005
40
0.312500000000005
40
0.375000000000005
40
0.375000000000005
40
0.500000000000004
40
0.500000000000004
40
0.625000000000003
40
0.625000000000003
40
0.750000000000002
40
0.750000000000002
40
0.875000000000001
40
0.875000000000001
40
1
40
1
40
1
40
1
41
1
10
32.235515687031
20
-14.180659333997
30
0
41
1
10
32.2572994372831
20
-14.180659333997
30
0
41
1
10
32.2790371323068
20
-14.1821227753292
30
0
41
1
10
32.3224212364502
20
-14.1879503398416
30
0
41
1
10
32.3442219269719
20
-14.1923646927822
30
0
41
1
10
32.4079756473855
20
-14.2094928983804
30
0
41
1
10
32.4484694900764
20
-14.2259787318292
30
0
41
1
10
32.506806004007
20
-14.25677249185
30
0
41
1
10
32.5258676118821
20
-14.2680840569389
30
0
41
1
10
32.5624580340856
20
-14.2919868217179
30
0
41
1
10
32.5801064915764
20
-14.3046363403088
30
0
41
1
10
32.6314125780605
20
-14.3443544183132
30
0
41
1
10
32.6634459756426
20
-14.3731762493411
30
0
41
1
10
32.7242187118928
20
-14.434375673187
30
0
41
1
10
32.7529490743674
20
-14.4667629553295
30
0
41
1
10
32.80773972
20
-14.5344197285423
30
0
41
1
10
32.8337674591014
20
-14.5696812881053
30
0
41
1
10
32.907485551365
20
-14.6775049610832
30
0
41
1
10
32.9513317362953
20
-14.7526147204685
30
0
41
1
10
33.031551144016
20
-14.9073854027754
30
0
41
1
10
33.0677097921443
20
-14.9867781396052
30
0
41
1
10
33.1334277655363
20
-15.1472699757578
30
0
41
1
10
33.163085573264
20
-15.2286093744158
30
0
41
1
10
33.2171489775738
20
-15.3930822578968
30
0
41
1
10
33.2415446515835
20
-15.4762191321398
30
0
41
1
10
33.285719146254
20
-15.644069936934
30
0
41
1
10
33.3055304252567
20
-15.7289860801038
30
0
41
1
10
33.323085031475
20
-15.8139720303194
30
0
0
SPLINE
5
103
100
AcDbEntity
8
1
62
256
6
ByLayer
370
18
48
1
60
0
100
AcDbSpline
70
4
71
3
72
25
73
21
40
0
40
0
40
0
40
0
40
0.031250000000002
40
0.031250000000002
40
0.0625000000000041
40
0.125000000000003
40
0.125000000000003
40
0.250000000000001
40
0.250000000000001
40
0.500000000000003
40
0.500000000000003
40
0.562500000000002
40
0.562500000000002
40
0.625000000000002
40
0.625000000000002
40
0.750000000000001
40
0.750000000000001
40
0.875000000000001
40
0.875000000000001
40
1
40
1
40
1
40
1
41
1
10
64.5944084089784
20
20.5028841991707
30
0
41
1
10
64.6333827227192
20
20.4639098854299
30
0
41
1
10
64.6730696349327
20
20.4247660214057
30
0
41
1
10
64.752560556484
20
20.3474484130063
30
0
41
1
10
64.8725189170587
20
20.2323781046601
30
0
41
1
10
64.994653983995
20
20.1199963512589
30
0
41
1
10
65.2418663386124
20
19.898751920109
30
0
41
1
10
65.4105927965898
20
19.7559435585187
30
0
41
1
10
65.9290043434892
20
19.3412186246505
30
0
41
1
10
66.290803803435
20
19.0829420952375
30
0
41
1
10
66.7662859316662
20
18.782599279976
30
0
41
1
10
66.8625533237432
20
18.7236606567498
30
0
41
1
10
67.0575491749606
20
18.6080562563436
30
0
41
1
10
67.1563217945766
20
18.5513724836308
30
0
41
1
10
67.4546794981344
20
18.385759591581
30
0
41
1
10
67.6568646064122
20
18.2809189113066
30
0
41
1
10
68.0682235426063
20
18.0823244733146
30
0
41
1
10
68.2773922774059
20
17.9885706747298
30
0
41
1
10
68.7034234118341
20
17.81223420658
30
0
41
1
10
68.9202723981549
20
17.7296515521302
30
0
41
1
10
69.1415849481836
20
17.6527639348132
30
0
0
SPLINE
5
104
100
AcDbEntity
8
1
62
256
6
ByLayer
370
18
48
1
60
0
100
AcDbSpline
70
4
71
3
72
20
73
16
40
0
40
0
40
0
40
0
40
0.24999999999996
40
0.24999999999996
40
0.374999999999966
40
0.374999999999966
40
0.499999999999973
40
0.499999999999973
40
0.62499999999998
40
0.62499999999998
40
0.749999999999986
40
0.749999999999986
40
0.874999999999993
40
0.874999999999993
40
1
40
1
40
1
40
1
41
1
10
81.562379135771
20
6.30581697586835
30
0
41
1
10
81.5160981529758
20
6.34575145580446
30
0
41
1
10
81.4649102069924
20
6.37742550724058
30
0
41
1
10
81.3809820355249
20
6.41290651498294
30
0
41
1
10
81.3519087029532
20
6.4225718126327
30
0
41
1
10
81.2933651005127
20
6.43692690335605
30
0
41
1
10
81.2636501005105
20
6.44173197759928
30
0
41
1
10
81.2032650972198
20
6.44622993307503
30
0
41
1
10
81.1724440310307
20
6.44585692413435
30
0
41
1
10
81.1122799257505
20
6.43943633746039
30
0
41
1
10
81.0826422479652
20
6.43344896640597
30
0
41
1
10
81.0243891796426
20
6.41508553892043
30
0
41
1
10
80.9963910251259
20
6.40285478628366
30
0
41
1
10
80.9441264548901
20
6.37220337939799
30
0
41
1
10
80.9195006066007
20
6.35351283870885
30
0
41
1
10
80.8977893376022
20
6.3318015697104
30
0
0
SPLINE
5
105
100
AcDbEntity
8
1
62
256
6
ByLayer
370
18
48
1
60
0
100
AcDbSpline
70
4
71
5
72
28
73
22
40
0
40
0
40
0
40
0
40
0
40
0
40
0.0116210071124861
40
0.0938105265338849
40
0.17581135309637
40
0.258119396707435
40
0.341009329040707
40
0.396195332568417
40
0.42337649848505
40
0.473129483270464
40
0.505383406113043
40
0.532491806088944
40
0.560548571057377
40
0.587530072706681
40
0.670294457061299
40
0.752933172768905
40
0.835095530191387
40
0.917285968383372
40
1
40
1
40
1
40
1
40
1
40
1
41
1
10
22.9718357141478
20
31.9967875445447
30
0
41
1
10
22.9702921048856
20
31.9946537676926
30
0
41
1
10
22.9577840908256
20
31.9774630264459
30
0
41
1
10
22.933630125881
20
31.9457650023529
30
0
41
1
10
22.8962536586777
20
31.9007113709283
30
0
41
1
10
22.8433188751269
20
31.8442745686782
30
0
41
1
10
22.7788634847785
20
31.7854511490184
30
0
41
1
10
22.7201864362078
20
31.7391190541812
30
0
41
1
10
22.6649248357845
20
31.7005004726593
30
0
41
1
10
22.6174082834114
20
31.6707641604718
30
0
41
1
10
22.5797480404028
20
31.6491829552642
30
0
41
1
10
22.5468447864971
20
31.6317097269589
30
0
41
1
10
22.5134364242603
20
31.6153329265811
30
0
41
1
10
22.4727934073721
20
31.5967544404871
30
0
41
1
10
22.4208812969132
20
31.5754280523987
30
0
41
1
10
22.3561239097146
20
31.5526869671179
30
0
41
1
10
22.2781712368802
20
31.5308762517555
30
0
41
1
10
22.186350702867
20
31.5127488437615
30
0
41
1
10
22.1120491390487
20
31.50401702784
30
0
41
1
10
22.0561155375137
20
31.5007307789046
30
0
41
1
10
22.0187447315827
20
31.5
30
0
41
1
10
22
20
31.5
30
0
0
LINE
5
70
100
AcDbEntity
8
1
62
256
6
ByLayer
370
18
48
1
60
0
100
AcDbLine
10
0.3
20
-31.5
30
0
11
0
21
-31.2
31
0
39
0
210
0
220
0
230
1
0
LINE
5
72
100
AcDbEntity
8
1
62
256
6
ByLayer
370
18
48
1
60
0
100
AcDbLine
10
0
20
31.2
30
0
11
0.3
21
31.5
31
0
39
0
210
0
220
0
230
1
0
LINE
5
73
100
AcDbEntity
8
1
62
256
6
ByLayer
370
18
48
1
60
0
100
AcDbLine
10
0.3
20
31.5
30
0
11
22
21
31.5
31
0
39
0
210
0
220
0
230
1
0
LINE
5
74
100
AcDbEntity
8
1
62
256
6
ByLayer
370
18
48
1
60
0
100
AcDbLine
10
10.538675
20
-30.080593
30
0
11
13.461325
21
-30.080593
31
0
39
0
210
0
220
0
230
1
0
LINE
5
75
100
AcDbEntity
8
1
62
256
6
ByLayer
370
18
48
1
60
0
100
AcDbLine
10
13.461325
20
-9.349221
30
0
11
10.538675
21
-9.349221
31
0
39
0
210
0
220
0
230
1
0
LINE
5
76
100
AcDbEntity
8
1
62
256
6
ByLayer
370
18
48
1
60
0
100
AcDbLine
10
10.538675
20
9.349221
30
0
11
13.461325
21
9.349221
31
0
39
0
210
0
220
0
230
1
0
LINE
5
77
100
AcDbEntity
8
1
62
256
6
ByLayer
370
18
48
1
60
0
100
AcDbLine
10
13.461325
20
30.080593
30
0
11
10.538675
21
30.080593
31
0
39
0
210
0
220
0
230
1
0
LINE
5
78
100
AcDbEntity
8
1
62
256
6
ByLayer
370
18
48
1
60
0
100
AcDbLine
10
13.461325
20
-9.349221
30
0
11
13.461325
21
-30.080593
31
0
39
0
210
0
220
0
230
1
0
LINE
5
79
100
AcDbEntity
8
1
62
256
6
ByLayer
370
18
48
1
60
0
100
AcDbLine
10
13.894338
20
-9.869413
30
0
11
13.894338
21
-29.913955
31
0
39
0
210
0
220
0
230
1
0
LINE
5
7A
100
AcDbEntity
8
1
62
256
6
ByLayer
370
18
48
1
60
0
100
AcDbLine
10
10.105662
20
29.913955
30
0
11
10.105662
21
9.869413
31
0
39
0
210
0
220
0
230
1
0
LINE
5
7B
100
AcDbEntity
8
1
62
256
6
ByLayer
370
18
48
1
60
0
100
AcDbLine
10
10.538675
20
30.080593
30
0
11
10.538675
21
9.349221
31
0
39
0
210
0
220
0
230
1
0
LINE
5
7C
100
AcDbEntity
8
1
62
256
6
ByLayer
370
18
48
1
60
0
100
AcDbLine
10
13.461325
20
30.080593
30
0
11
13.461325
21
9.349221
31
0
39
0
210
0
220
0
230
1
0
LINE
5
7D
100
AcDbEntity
8
1
62
256
6
ByLayer
370
18
48
1
60
0
100
AcDbLine
10
13.894338
20
29.913955
30
0
11
13.894338
21
9.869413
31
0
39
0
210
0
220
0
230
1
0
LINE
5
7E
100
AcDbEntity
8
1
62
256
6
ByLayer
370
18
48
1
60
0
100
AcDbLine
10
10.105662
20
-9.869413
30
0
11
10.105662
21
-29.913955
31
0
39
0
210
0
220
0
230
1
0
LINE
5
7F
100
AcDbEntity
8
1
62
256
6
ByLayer
370
18
48
1
60
0
100
AcDbLine
10
10.538675
20
-9.349221
30
0
11
10.538675
21
-30.080593
31
0
39
0
210
0
220
0
230
1
0
LINE
5
80
100
AcDbEntity
8
SK1
62
256
6
ByLayer
370
18
48
1
60
0
100
AcDbLine
10
-0.2
20
22.45
30
0
11
0
21
22.45
31
0
39
0
210
0
220
0
230
1
0
LINE
5
82
100
AcDbEntity
8
SK1
62
256
6
ByLayer
370
18
48
1
60
0
100
AcDbLine
10
0
20
-22.45
30
0
11
-0.2
21
-22.45
31
0
39
0
210
0
220
0
230
1
0
LINE
5
83
100
AcDbEntity
8
SK1
62
256
6
ByLayer
370
18
48
1
60
0
100
AcDbLine
10
-2
20
-21.825128
30
0
11
-2
21
21.825128
31
0
39
0
210
0
220
0
230
1
0
LINE
5
84
100
AcDbEntity
8
SK1
62
256
6
ByLayer
370
18
48
1
60
0
100
AcDbLine
10
-36.500473
20
-21.157872
30
0
11
-36.500473
21
21.157996
31
0
39
0
210
0
220
0
230
1
0
LINE
5
85
100
AcDbEntity
8
SK1
62
256
6
ByLayer
370
18
48
1
60
0
100
AcDbLine
10
-38
20
20.239988
30
0
11
-38
21
-20.247289
31
0
39
0
210
0
220
0
230
1
0
LINE
5
86
100
AcDbEntity
8
1
62
256
6
ByLayer
370
18
48
1
60
0
100
AcDbLine
10
0.3
20
-31.5
30
0
11
0.3
21
31.5
31
0
39
0
210
0
220
0
230
1
0
LINE
5
87
100
AcDbEntity
8
1
62
256
6
ByLayer
370
18
48
1
60
0
100
AcDbLine
10
0
20
31.2
30
0
11
0
21
-31.2
31
0
39
0
210
0
220
0
230
1
0
LINE
5
88
100
AcDbEntity
8
SK1
62
256
6
ByLayer
370
18
48
1
60
0
100
AcDbLine
10
-2.2
20
-18.805799
30
0
11
-2.2
21
18.805799
31
0
39
0
210
0
220
0
230
1
0
LINE
5
89
100
AcDbEntity
8
80
62
256
6
ByLayer
370
13
48
1
60
0
100
AcDbLine
10
0
20
0
30
0
11
-17.348082
21
0
31
0
39
0
210
0
220
0
230
1
0
LINE
5
8A
100
AcDbEntity
8
81
62
256
6
ByLayer
370
13
48
1
60
0
100
AcDbLine
10
87.932145
20
7.071068
30
0
11
95.003212
21
14.142136
31
0
39
0
210
0
220
0
230
1
0
LINE
5
8B
100
AcDbEntity
8
1
62
256
6
ByLayer
370
18
48
1
60
0
100
AcDbLine
10
53.100505
20
31.996788
30
0
11
70.845671
21
14.251622
31
0
39
0
210
0
220
0
230
1
0
LINE
5
8C
100
AcDbEntity
8
1
62
256
6
ByLayer
370
18
48
1
60
0
100
AcDbLine
10
70.431458
20
13.251622
30
0
11
24.040436
21
13.251622
31
0
39
0
210
0
220
0
230
1
0
LINE
5
8D
100
AcDbEntity
8
1
62
256
6
ByLayer
370
18
48
1
60
0
100
AcDbLine
10
24.444753
20
-32.003212
30
0
11
24.444753
21
-14.180659
31
0
39
0
210
0
220
0
230
1
0
LINE
5
8E
100
AcDbEntity
8
1
62
256
6
ByLayer
370
18
48
1
60
0
100
AcDbLine
10
24.444753
20
-14.180659
30
0
11
32.235516
21
-14.180659
31
0
39
0
210
0
220
0
230
1
0
LINE
5
8F
100
AcDbEntity
8
1
62
256
6
ByLayer
370
18
48
1
60
0
100
AcDbLine
10
51.175144
20
-32.003212
30
0
11
35.292842
21
-32.003212
31
0
39
0
210
0
220
0
230
1
0
LINE
5
90
100
AcDbEntity
8
1
62
256
6
ByLayer
370
18
48
1
60
0
100
AcDbLine
10
35.292842
20
-23.864648
30
0
11
47.804041
21
-23.864648
31
0
39
0
210
0
220
0
230
1
0
LINE
5
91
100
AcDbEntity
8
1
62
256
6
ByLayer
370
18
48
1
60
0
100
AcDbLine
10
35.292842
20
-32.003212
30
0
11
33.323085
21
-32.003212
31
0
39
0
210
0
220
0
230
1
0
LINE
5
92
100
AcDbEntity
8
1
62
256
6
ByLayer
370
18
48
1
60
0
100
AcDbLine
10
33.323085
20
-32.003212
30
0
11
32.235516
21
-32.003212
31
0
39
0
210
0
220
0
230
1
0
LINE
5
93
100
AcDbEntity
8
1
62
256
6
ByLayer
370
18
48
1
60
0
100
AcDbLine
10
32.235516
20
-14.180659
30
0
11
32.235516
21
-32.003212
31
0
39
0
210
0
220
0
230
1
0
LINE
5
94
100
AcDbEntity
8
1
62
256
6
ByLayer
370
18
48
1
60
0
100
AcDbLine
10
33.323085
20
-32.003212
30
0
11
33.323085
21
-15.813972
31
0
39
0
210
0
220
0
230
1
0
LINE
5
95
100
AcDbEntity
8
1
62
256
6
ByLayer
370
18
48
1
60
0
100
AcDbLine
10
85.807612
20
-0.710319
30
0
11
85.807612
21
-2.124533
31
0
39
0
210
0
220
0
230
1
0
LINE
5
96
100
AcDbEntity
8
1
62
256
6
ByLayer
370
18
48
1
60
0
100
AcDbLine
10
78.090097
20
7.007195
30
0
11
85.807612
21
-0.710319
31
0
39
0
210
0
220
0
230
1
0
LINE
5
97
100
AcDbEntity
8
1
62
256
6
ByLayer
370
18
48
1
60
0
100
AcDbLine
10
70.845671
20
14.251622
30
0
11
78.090097
21
7.007195
31
0
39
0
210
0
220
0
230
1
0
LINE
5
98
100
AcDbEntity
8
1
62
256
6
ByLayer
370
18
48
1
60
0
100
AcDbLine
10
70.431458
20
13.251622
30
0
11
77.675884
21
6.007195
31
0
39
0
210
0
220
0
230
1
0
LINE
5
99
100
AcDbEntity
8
1
62
256
6
ByLayer
370
18
48
1
60
0
100
AcDbLine
10
70.845671
20
14.251622
30
0
11
70.431458
21
13.251622
31
0
39
0
210
0
220
0
230
1
0
LINE
5
9A
100
AcDbEntity
8
1
62
256
6
ByLayer
370
18
48
1
60
0
100
AcDbLine
10
78.090097
20
7.007195
30
0
11
77.675884
21
6.007195
31
0
39
0
210
0
220
0
230
1
0
LINE
5
9B
100
AcDbEntity
8
1
62
256
6
ByLayer
370
18
48
1
60
0
100
AcDbLine
10
63
20
-32.003212
30
0
11
51.175144
21
-32.003212
31
0
39
0
210
0
220
0
230
1
0
LINE
5
9C
100
AcDbEntity
8
1
62
256
6
ByLayer
370
18
48
1
60
0
100
AcDbLine
10
85.807612
20
-9.195601
30
0
11
63
21
-32.003212
31
0
39
0
210
0
220
0
230
1
0
LINE
5
9D
100
AcDbEntity
8
1
62
256
6
ByLayer
370
18
48
1
60
0
100
AcDbLine
10
85.807612
20
-2.124533
30
0
11
85.807612
21
-9.195601
31
0
39
0
210
0
220
0
230
1
0
LINE
5
9E
100
AcDbEntity
8
1
62
256
6
ByLayer
370
18
48
1
60
0
100
AcDbLine
10
47.804041
20
-23.864648
30
0
11
77.675884
21
6.007195
31
0
39
0
210
0
220
0
230
1
0
LINE
5
9F
100
AcDbEntity
8
1
62
256
6
ByLayer
370
18
48
1
60
0
100
AcDbLine
10
51.175144
20
-32.003212
30
0
11
47.804041
21
-23.864648
31
0
39
0
210
0
220
0
230
1
0
LINE
5
A0
100
AcDbEntity
8
1
62
256
6
ByLayer
370
18
48
1
60
0
100
AcDbLine
10
85.807612
20
-2.124533
30
0
11
77.675884
21
6.007195
31
0
39
0
210
0
220
0
230
1
0
LINE
5
A1
100
AcDbEntity
8
1
62
256
6
ByLayer
370
18
48
1
60
0
100
AcDbLine
10
78.736544
20
16.260244
30
0
11
78.736544
21
12.017603
31
0
39
0
210
0
220
0
230
1
0
LINE
5
A2
100
AcDbEntity
8
1
62
256
6
ByLayer
370
18
48
1
60
0
100
AcDbLine
10
77.25778
20
17.739007
30
0
11
78.736544
21
16.260244
31
0
39
0
210
0
220
0
230
1
0
LINE
5
A3
100
AcDbEntity
8
1
62
256
6
ByLayer
370
18
48
1
60
0
100
AcDbLine
10
75.908117
20
9.189176
30
0
11
64.594408
21
20.502884
31
0
39
0
210
0
220
0
230
1
0
LINE
5
A4
100
AcDbEntity
8
1
62
256
6
ByLayer
370
18
48
1
60
0
100
AcDbLine
10
78.736544
20
13.431816
30
0
11
79.302229
21
12.866131
31
0
39
0
210
0
220
0
230
1
0
LINE
5
A5
100
AcDbEntity
8
1
62
256
6
ByLayer
370
18
48
1
60
0
100
AcDbLine
10
80.716443
20
14.280345
30
0
11
78.736544
21
16.260244
31
0
39
0
210
0
220
0
230
1
0
LINE
5
A6
100
AcDbEntity
8
1
62
256
6
ByLayer
370
18
48
1
60
0
100
AcDbLine
10
78.736544
20
16.260244
30
0
11
78.736544
21
13.431816
31
0
39
0
210
0
220
0
230
1
0
LINE
5
A7
100
AcDbEntity
8
1
62
256
6
ByLayer
370
18
48
1
60
0
100
AcDbLine
10
76.575184
20
-0.750359
30
0
11
74.533943
21
-2.7916
31
0
39
0
210
0
220
0
230
1
0
LINE
5
A8
100
AcDbEntity
8
1
62
256
6
ByLayer
370
18
48
1
60
0
100
AcDbLine
10
79.363572
20
-1.497505
30
0
11
76.575184
21
-0.750359
31
0
39
0
210
0
220
0
230
1
0
LINE
5
A9
100
AcDbEntity
8
1
62
256
6
ByLayer
370
18
48
1
60
0
100
AcDbLine
10
80.110718
20
-4.285893
30
0
11
79.363572
21
-1.497505
31
0
39
0
210
0
220
0
230
1
0
LINE
5
AA
100
AcDbEntity
8
1
62
256
6
ByLayer
370
18
48
1
60
0
100
AcDbLine
10
78.069477
20
-6.327134
30
0
11
80.110718
21
-4.285893
31
0
39
0
210
0
220
0
230
1
0
LINE
5
AB
100
AcDbEntity
8
1
62
256
6
ByLayer
370
18
48
1
60
0
100
AcDbLine
10
75.281089
20
-5.579988
30
0
11
78.069477
21
-6.327134
31
0
39
0
210
0
220
0
230
1
0
LINE
5
AC
100
AcDbEntity
8
1
62
256
6
ByLayer
370
18
48
1
60
0
100
AcDbLine
10
74.533943
20
-2.7916
30
0
11
75.281089
21
-5.579988
31
0
39
0
210
0
220
0
230
1
0
LINE
5
AD
100
AcDbEntity
8
1
62
256
6
ByLayer
370
18
48
1
60
0
100
AcDbLine
10
68.75697
20
-12.104107
30
0
11
65.968583
21
-11.35696
31
0
39
0
210
0
220
0
230
1
0
LINE
5
AE
100
AcDbEntity
8
1
62
256
6
ByLayer
370
18
48
1
60
0
100
AcDbLine
10
65.968583
20
-11.35696
30
0
11
63.927341
21
-13.398202
31
0
39
0
210
0
220
0
230
1
0
LINE
5
AF
100
AcDbEntity
8
1
62
256
6
ByLayer
370
18
48
1
60
0
100
AcDbLine
10
67.462875
20
-16.933736
30
0
11
64.674487
21
-16.18659
31
0
39
0
210
0
220
0
230
1
0
LINE
5
B0
100
AcDbEntity
8
1
62
256
6
ByLayer
370
18
48
1
60
0
100
AcDbLine
10
69.504116
20
-14.892494
30
0
11
67.462875
21
-16.933736
31
0
39
0
210
0
220
0
230
1
0
LINE
5
B1
100
AcDbEntity
8
1
62
256
6
ByLayer
370
18
48
1
60
0
100
AcDbLine
10
68.75697
20
-12.104107
30
0
11
69.504116
21
-14.892494
31
0
39
0
210
0
220
0
230
1
0
LINE
5
B2
100
AcDbEntity
8
1
62
256
6
ByLayer
370
18
48
1
60
0
100
AcDbLine
10
65.968583
20
-11.35696
30
0
11
68.75697
21
-12.104107
31
0
39
0
210
0
220
0
230
1
0
LINE
5
B3
100
AcDbEntity
8
1
62
256
6
ByLayer
370
18
48
1
60
0
100
AcDbLine
10
63.927341
20
-13.398202
30
0
11
65.968583
21
-11.35696
31
0
39
0
210
0
220
0
230
1
0
LINE
5
B4
100
AcDbEntity
8
1
62
256
6
ByLayer
370
18
48
1
60
0
100
AcDbLine
10
64.674487
20
-16.18659
30
0
11
63.927341
21
-13.398202
31
0
39
0
210
0
220
0
230
1
0
LINE
5
B5
100
AcDbEntity
8
1
62
256
6
ByLayer
370
18
48
1
60
0
100
AcDbLine
10
56.856273
20
-27.540337
30
0
11
54.067886
21
-26.793191
31
0
39
0
210
0
220
0
230
1
0
LINE
5
B6
100
AcDbEntity
8
1
62
256
6
ByLayer
370
18
48
1
60
0
100
AcDbLine
10
58.897515
20
-25.499096
30
0
11
56.856273
21
-27.540337
31
0
39
0
210
0
220
0
230
1
0
LINE
5
B7
100
AcDbEntity
8
1
62
256
6
ByLayer
370
18
48
1
60
0
100
AcDbLine
10
58.150368
20
-22.710708
30
0
11
58.897515
21
-25.499096
31
0
39
0
210
0
220
0
230
1
0
LINE
5
B8
100
AcDbEntity
8
1
62
256
6
ByLayer
370
18
48
1
60
0
100
AcDbLine
10
55.361981
20
-21.963562
30
0
11
58.150368
21
-22.710708
31
0
39
0
210
0
220
0
230
1
0
LINE
5
B9
100
AcDbEntity
8
1
62
256
6
ByLayer
370
18
48
1
60
0
100
AcDbLine
10
53.320739
20
-24.004804
30
0
11
55.361981
21
-21.963562
31
0
39
0
210
0
220
0
230
1
0
LINE
5
BA
100
AcDbEntity
8
1
62
256
6
ByLayer
370
18
48
1
60
0
100
AcDbLine
10
54.067886
20
-26.793191
30
0
11
53.320739
21
-24.004804
31
0
39
0
210
0
220
0
230
1
0
LINE
5
BB
100
AcDbEntity
8
1
62
256
6
ByLayer
370
18
48
1
60
0
100
AcDbLine
10
0.3
20
-31.5
30
0
11
22.279208
21
-31.5
31
0
39
0
210
0
220
0
230
1
0
LINE
5
BC
100
AcDbEntity
8
1
62
256
6
ByLayer
370
18
48
1
60
0
100
AcDbLine
10
32.235516
20
-32.003212
30
0
11
23.285324
21
-32.003212
31
0
39
0
210
0
220
0
230
1
0
LINE
5
BD
100
AcDbEntity
8
1
62
256
6
ByLayer
370
18
48
1
60
0
100
AcDbLine
10
22.971836
20
31.996788
30
0
11
53.100505
21
31.996788
31
0
39
0
210
0
220
0
230
1
0
LINE
5
BE
100
AcDbEntity
8
1
62
256
6
ByLayer
370
18
48
1
60
0
100
AcDbLine
10
78.736544
20
12.017603
30
0
11
77.403297
21
10.684355
31
0
39
0
210
0
220
0
230
1
0
LINE
5
BF
100
AcDbEntity
8
SK3
62
256
6
ByLayer
370
13
48
0.05
60
0
100
AcDbLine
10
77.403297
20
10.684355
30
0
11
34.715729
21
-32.003212
31
0
39
0
210
0
220
0
230
1
0
LINE
5
C1
100
AcDbEntity
8
SK1
62
256
6
ByLayer
370
18
48
1
60
0
100
AcDbLine
10
-0.2
20
22.45
30
0
11
-0.2
21
0
31
0
39
0
210
0
220
0
230
1
0
LINE
5
C2
100
AcDbEntity
8
SK1
62
256
6
ByLayer
370
18
48
1
60
0
100
AcDbLine
10
-0.2
20
0
30
0
11
-0.2
21
-22.45
31
0
39
0
210
0
220
0
230
1
0
LINE
5
C3
100
AcDbEntity
8
1
62
256
6
ByLayer
370
18
48
1
60
0
100
AcDbLine
10
93.585786
20
1.411001
30
0
11
80.716443
21
14.280345
31
0
39
0
210
0
220
0
230
1
0
LINE
5
C4
100
AcDbEntity
8
1
62
256
6
ByLayer
370
18
48
1
60
0
100
AcDbLine
10
63
20
-32.003212
30
0
11
93.585786
21
-1.417426
31
0
39
0
210
0
220
0
230
1
0
LINE
5
C5
100
AcDbEntity
8
1
62
256
6
ByLayer
370
18
48
1
60
0
100
AcDbLine
10
93.585786
20
-1.417426
30
0
11
93.585786
21
1.411001
31
0
39
0
210
0
220
0
230
1
0
LINE
5
C6
100
AcDbEntity
8
1
62
256
6
ByLayer
370
18
48
1
60
0
100
AcDbLine
10
93.585786
20
-1.417426
30
0
11
79.302229
21
12.866131
31
0
39
0
210
0
220
0
230
1
0
LINE
5
C7
100
AcDbEntity
8
1
62
256
6
ByLayer
370
18
48
1
60
0
100
AcDbLine
10
72.966238
20
12.131054
30
0
11
75.366678
21
13.250398
31
0
39
0
210
0
220
0
230
1
0
LINE
5
C8
100
AcDbEntity
8
1
62
256
6
ByLayer
370
18
48
1
60
0
100
AcDbLine
10
76.728675
20
8.368618
30
0
11
77.479769
21
8.718859
31
0
39
0
210
0
220
0
230
1
0
LINE
5
C9
100
AcDbEntity
8
1
62
256
6
ByLayer
370
18
48
1
60
0
100
AcDbLine
10
80.897789
20
6.331802
30
0
11
79.83164
21
5.265652
31
0
39
0
210
0
220
0
230
1
0
LINE
5
CA
100
AcDbEntity
8
4
62
256
6
ByLayer
370
13
48
0.05
60
0
100
AcDbLine
10
0
20
0
30
0
11
93.585786
21
0
31
0
39
0
210
0
220
0
230
1
0
LINE
5
CC
100
AcDbEntity
8
SK4
62
256
6
ByLayer
370
18
48
0.05
60
0
100
AcDbLine
10
-40.800973
20
0
30
0
11
98.944474
21
0
31
0
39
0
210
0
220
0
230
1
0
MTEXT
5
106
100
AcDbEntity
8
SK6
62
256
6
ByLayer
370
18
48
1
60
0
100
AcDbMText
10
1.381276
20
-44.687534
30
0
210
0
220
0
230
1
1
\W0.7607;C6-ASHR45-095-20HP
40
3.5
41
0
44
1.084337
50
0
71
7
72
5
7
iso_b_vert
0
DIMENSION
5
118
100
AcDbEntity
8
SK2
62
256
6
ByLayer
370
13
48
1
60
0
100
AcDbDimension
2
DimnDraft3D1
10
31.5
20
51.263026
30
0
11
5.202632
21
51.263026
31
0
70
32
71
5
72
1
41
1
210
0
220
0
230
1
3
Standard
100
AcDbAlignedDimension
13
-31.5
23
1.7
33
0
14
31.5
24
1.7
34
0
50
0
100
AcDbRotatedDimension
1001
ACAD
1000
DSTYLE
1002
{
1070
   279
1070
     0
1070
   172
1070
     1
1070
   173
1070
     1
1070
   340
1005
107
1070
   271
1070
     2
1070
    77
1070
     1
1070
    73
1070
     0
1070
   171
1070
     3
1070
   274
1070
     3
1070
   177
1070
     7
1070
   176
1070
     7
1070
   178
1070
     7
1070
    78
1070
     8
1070
    41
1041
3.175
1070
   147
1041
1.5
1070
    42
1041
2.0
1070
    44
1041
2.0
1070
   140
1041
3.0
1070
   343
1005
119
1070
   344
1005
119
1002
}
0
DIMENSION
5
12D
100
AcDbEntity
8
SK2
62
256
6
ByLayer
370
13
48
1
60
0
100
AcDbDimension
2
DimnDraft3D2
10
98.944474
20
0
30
0
11
9.733778
21
-118.502632
31
0
70
34
71
5
72
1
41
1
210
0
220
0
230
1
3
Standard
100
AcDb2LineAngularDimension
13
63
23
-32.003212
33
0
14
93.585786
24
-1.417426
34
0
15
-40.800973
25
0
35
0
16
10.881828
26
-121.27427
36
0
40
0
0
DIMENSION
5
13C
100
AcDbEntity
8
2
62
256
6
ByLayer
370
13
48
1
60
0
100
AcDbDimension
2
DimnDraft3D3
10
94.996788
20
51.911066
30
0
11
45.706289
21
51.911066
31
0
70
32
71
5
72
1
41
1
210
0
220
0
230
1
3
Standard
100
AcDbAlignedDimension
13
0
23
33.2
33
0
14
94.996788
24
2
34
0
50
0
100
AcDbRotatedDimension
1001
ACAD
1000
DSTYLE
1002
{
1070
   279
1070
     0
1070
   172
1070
     1
1070
   173
1070
     1
1070
   340
1005
107
1070
   271
1070
     1
1070
    77
1070
     1
1070
    73
1070
     0
1070
   171
1070
     3
1070
   274
1070
     3
1070
   177
1070
     7
1070
   176
1070
     7
1070
   178
1070
     7
1070
    78
1070
     8
1070
    41
1041
3.175
1070
   147
1041
1.5
1070
    42
1041
2.0
1070
    44
1041
2.0
1070
   140
1041
3.0
1070
   343
1005
119
1070
   344
1005
119
1002
}
0
DIMENSION
5
14A
100
AcDbEntity
8
SK2
62
256
6
ByLayer
370
13
48
1
60
0
100
AcDbDimension
2
DimnDraft3D4
10
132.312985
20
0
30
0
11
132.312985
21
14.206289
31
0
70
32
71
5
72
1
41
1
210
0
220
0
230
1
3
Standard
100
AcDbAlignedDimension
13
55.100505
23
31.996788
33
0
14
100.944474
24
0
34
0
50
90
100
AcDbRotatedDimension
1001
ACAD
1000
DSTYLE
1002
{
1070
    74
1070
     0
1070
   279
1070
     0
1070
   172
1070
     1
1070
   173
1070
     1
1070
   340
1005
107
1070
   271
1070
     2
1070
    77
1070
     1
1070
    73
1070
     0
1070
   171
1070
     3
1070
   274
1070
     3
1070
   177
1070
     7
1070
   176
1070
     7
1070
   178
1070
     7
1070
    78
1070
     8
1070
    41
1041
3.175
1070
   147
1041
1.5
1070
    42
1041
2.0
1070
    44
1041
2.0
1070
   140
1041
3.0
1070
   343
1005
0
1070
   344
1005
0
1002
}
0
DIMENSION
5
158
100
AcDbEntity
8
SK2
62
256
6
ByLayer
370
13
48
1
60
0
100
AcDbDimension
2
DimnDraft3D5
10
132.312985
20
-32.003212
30
0
11
132.312985
21
7.06991
31
0
70
32
71
5
72
1
41
1
210
0
220
0
230
1
3
Standard
100
AcDbAlignedDimension
13
100.944474
23
0
33
0
14
65
24
-32.003212
34
0
50
90
100
AcDbRotatedDimension
1001
ACAD
1000
DSTYLE
1002
{
1070
    74
1070
     0
1070
   279
1070
     0
1070
   172
1070
     1
1070
   173
1070
     1
1070
   340
1005
107
1070
   271
1070
     2
1070
    77
1070
     1
1070
    73
1070
     0
1070
   171
1070
     3
1070
   274
1070
     3
1070
   177
1070
     7
1070
   176
1070
     7
1070
   178
1070
     7
1070
    78
1070
     8
1070
    41
1041
3.175
1070
   147
1041
1.5
1070
    42
1041
2.0
1070
    44
1041
2.0
1070
   140
1041
3.0
1070
   343
1005
0
1070
   344
1005
0
1002
}
0
ENDSEC
0
SECTION
2
OBJECTS
0
DICTIONARY
5
1c4
330
0
100
AcDbDictionary
280
0
281
1
3
ACAD_GROUP
350
1c5
3
ACAD_MLINESTYLE
350
1c6
0
DICTIONARY
5
1c5
330
0
100
AcDbDictionary
280
0
281
1
0
DICTIONARY
5
1c6
330
0
100
AcDbDictionary
280
0
281
1
3
Standard
350
18
0
MLINESTYLE
5
18
330
1c6
100
AcDbMlineStyle
2
Standard
70
0
3

62
256
51
90
52
90
71
2
49
-0.5
62
256
6
ByLayer
49
0.5
62
256
6
ByLayer
0
RASTERVARIABLES
5
1b1
330

100
AcDbRasterVariables
90
0
70
1
71
1
72
1
0
ENDSEC
0
EOF
