0
SECTION
2
HEADER
9
$ACADVER
1
AC1015
9
$DWGCODEPAGE
3
ANSI_1252
9
$HANDSEED
5
22b
9
$ANGBASE
50
0
9
$ANGDIR
70
0
9
$ATTMODE
70
1
9
$AUNITS
70
0
9
$AUPREC
70
0
9
$CECOLOR
62
256
9
$CELTSCALE
40
1
9
$CELTYPE
6
ByLayer
9
$CELWEIGHT
370
18
9
$CLAYER
8
0
9
$CMLJUST
70
0
9
$CMLSCALE
40
1
9
$CMLSTYLE
2
Standard
9
$DIMSTYLE
2
Standard
9
$TEXTSIZE
40
0.2
9
$TEXTSTYLE
7
Standard
9
$LUNITS
70
2
9
$LUPREC
70
4
9
$EXTNAMES
290
1
9
$INSUNITS
70
4
9
$LTSCALE
40
1
9
$LWDISPLAY
290
1
9
$PDMODE
70
0
9
$PDSIZE
40
0
9
$PLINEGEN
70
0
0
ENDSEC
0
SECTION
2
CLASSES
0
CLASS
1
RASTERVARIABLES
2
AcDbRasterVariables
3
ISM
90
0
280
0
281
0
0
ENDSEC
0
SECTION
2
TABLES
0
TABLE
2
VPORT
5
221
100
AcDbSymbolTable
0
VPORT
5
1
100
AcDbSymbolTableRecord
100
AcDbViewportTableRecord
2
*Active
70
0
10
0
20
0
11
1
21
1
12
-1
22
1
13
0
23
0
14
0.5
24
0.5
15
10
25
10
16
0
26
0
36
1
17
0
27
0
37
0
0
ENDTAB
0
TABLE
2
LTYPE
5
222
100
AcDbSymbolTable
0
LTYPE
5
14
100
AcDbSymbolTableRecord
100
AcDbLinetypeTableRecord
70
0
2
ByBlock
3

72
65
73
0
40
0
0
LTYPE
5
15
100
AcDbSymbolTableRecord
100
AcDbLinetypeTableRecord
70
0
2
ByLayer
3

72
65
73
0
40
0
0
LTYPE
5
16
100
AcDbSymbolTableRecord
100
AcDbLinetypeTableRecord
70
0
2
CONTINUOUS
3
Solid line
72
65
73
0
40
0
0
LTYPE
5
6A
100
AcDbSymbolTableRecord
100
AcDbLinetypeTableRecord
70
0
2
CENTER
3
____ _ ____ _ ____ _ ____
72
65
73
4
40
47.5
49
22
74
0
49
-8.5
74
0
49
8.5
74
0
49
-8.5
74
0
0
LTYPE
5
6B
100
AcDbSymbolTableRecord
100
AcDbLinetypeTableRecord
70
0
2
DASHED
3
__ __ __ __ __ __ __ __ __
72
65
73
2
40
25.72
49
12.86
74
0
49
-12.86
74
0
0
ENDTAB
0
TABLE
2
LAYER
5
223
100
AcDbSymbolTable
0
LAYER
5
10
100
AcDbSymbolTableRecord
100
AcDbLayerTableRecord
2
0
70
0
62
7
6
CONTINUOUS
290
1
370
-3
390
0
0
LAYER
5
6D
100
AcDbSymbolTableRecord
100
AcDbLayerTableRecord
2
80
70
0
62
-6
6
CONTINUOUS
290
1
370
-3
390
0
0
LAYER
5
6F
100
AcDbSymbolTableRecord
100
AcDbLayerTableRecord
2
81
70
0
62
-3
6
CONTINUOUS
290
1
370
-3
390
0
0
LAYER
5
71
100
AcDbSymbolTableRecord
100
AcDbLayerTableRecord
2
1
70
0
62
4
6
CONTINUOUS
290
1
370
-3
390
0
0
LAYER
5
CE
100
AcDbSymbolTableRecord
100
AcDbLayerTableRecord
2
4
70
0
62
-2
6
CENTER
290
1
370
-3
390
0
0
LAYER
5
17C
100
AcDbSymbolTableRecord
100
AcDbLayerTableRecord
2
2
70
0
62
7
6
CONTINUOUS
290
1
370
-3
390
0
0
LAYER
5
20c
100
AcDbSymbolTableRecord
100
AcDbLayerTableRecord
2
SK1
70
0
62
4
6
CONTINUOUS
290
1
370
-3
390
0
0
LAYER
5
20d
100
AcDbSymbolTableRecord
100
AcDbLayerTableRecord
2
SK3
70
0
62
1
6
DASHED
290
1
370
-3
390
0
0
LAYER
5
20e
100
AcDbSymbolTableRecord
100
AcDbLayerTableRecord
2
SK4
70
0
62
2
6
CENTER
290
1
370
-3
390
0
0
LAYER
5
20f
100
AcDbSymbolTableRecord
100
AcDbLayerTableRecord
2
SK6
70
0
62
5
6
CONTINUOUS
290
1
370
-3
390
0
0
LAYER
5
210
100
AcDbSymbolTableRecord
100
AcDbLayerTableRecord
2
SK2
70
0
62
7
6
CONTINUOUS
290
1
370
-3
390
0
0
ENDTAB
0
TABLE
2
STYLE
5
224
100
AcDbSymbolTable
0
STYLE
5
11
100
AcDbSymbolTableRecord
100
AcDbTextStyleTableRecord
2
Standard
3
txt
70
0
71
0
40
0
41
1
42
0
50
0
0
STYLE
5
144
100
AcDbSymbolTableRecord
100
AcDbTextStyleTableRecord
2
iso_b_vert
3
simplex.shx
70
0
71
0
40
0
41
1
42
0
50
0
0
STYLE
5
145
100
AcDbSymbolTableRecord
100
AcDbTextStyleTableRecord
2
DWGDirectTextStyle
3
simplex
70
0
71
0
40
0
41
1
42
0
50
0
0
ENDTAB
0
TABLE
2
DIMSTYLE
5
225
100
AcDbSymbolTable
100
AcDbDimStyleTable
0
DIMSTYLE
105
27
100
AcDbSymbolTableRecord
100
AcDbDimStyleTableRecord
2
Standard
70
0
3
<>
41
0.18
42
0.0625
44
0.18
140
0.18
147
0.09
73
0
74
0
77
1
271
2
275
0
278
52
280
0
340
11
0
ENDTAB
0
TABLE
2
VIEW
5
226
100
AcDbSymbolTable
0
ENDTAB
0
TABLE
2
UCS
5
227
100
AcDbSymbolTable
0
ENDTAB
0
TABLE
2
APPID
5
228
100
AcDbSymbolTable
0
APPID
5
12
100
AcDbSymbolTableRecord
100
AcDbRegAppTableRecord
2
ACAD
70
0
0
ENDTAB
0
TABLE
2
BLOCK_RECORD
5
229
100
AcDbSymbolTable
0
BLOCK_RECORD
5
1F
100
AcDbSymbolTableRecord
100
AcDbBlockTableRecord
2
*Model_Space
340
0
70
0
0
BLOCK_RECORD
5
1B
100
AcDbSymbolTableRecord
100
AcDbBlockTableRecord
2
*Paper_Space
340
0
70
0
0
BLOCK_RECORD
5
23
100
AcDbSymbolTableRecord
100
AcDbBlockTableRecord
2
*Paper_Space0
340
0
70
0
0
BLOCK_RECORD
5
147
100
AcDbSymbolTableRecord
100
AcDbBlockTableRecord
2
DimnDraft3D1
340
0
70
0
0
BLOCK_RECORD
5
157
100
AcDbSymbolTableRecord
100
AcDbBlockTableRecord
2
DimnDraft3D2
340
0
70
0
0
BLOCK_RECORD
5
165
100
AcDbSymbolTableRecord
100
AcDbBlockTableRecord
2
DimnDraft3D3
340
0
70
0
0
BLOCK_RECORD
5
173
100
AcDbSymbolTableRecord
100
AcDbBlockTableRecord
2
_CLOSED
340
0
70
0
0
BLOCK_RECORD
5
17A
100
AcDbSymbolTableRecord
100
AcDbBlockTableRecord
2
DimnDraft3D4
340
0
70
0
0
BLOCK_RECORD
5
189
100
AcDbSymbolTableRecord
100
AcDbBlockTableRecord
2
DimnDraft3D5
340
0
70
0
0
BLOCK_RECORD
5
197
100
AcDbSymbolTableRecord
100
AcDbBlockTableRecord
2
DimnDraft3D6
340
0
70
0
0
BLOCK_RECORD
5
1A5
100
AcDbSymbolTableRecord
100
AcDbBlockTableRecord
2
DimnDraft3D7
340
0
70
0
0
ENDTAB
0
ENDSEC
0
SECTION
2
BLOCKS
0
BLOCK
5
20
100
AcDbEntity
8
0
100
AcDbBlockBegin
2
*Model_Space
70
0
10
0
20
0
30
0
3
*Model_Space
0
ENDBLK
5
21
100
AcDbEntity
8
0
100
AcDbBlockEnd
0
BLOCK
5
1C
100
AcDbEntity
8
0
100
AcDbBlockBegin
2
*Paper_Space
70
0
10
0
20
0
30
0
3
*Paper_Space
0
ENDBLK
5
1D
100
AcDbEntity
8
0
100
AcDbBlockEnd
0
BLOCK
5
24
100
AcDbEntity
8
0
100
AcDbBlockBegin
2
*Paper_Space0
70
0
10
0
20
0
30
0
3
*Paper_Space0
0
ENDBLK
5
25
100
AcDbEntity
8
0
100
AcDbBlockEnd
0
BLOCK
5
154
100
AcDbEntity
8
0
100
AcDbBlockBegin
2
DimnDraft3D1
70
0
10
0
20
0
30
0
3
DimnDraft3D1
0
MTEXT
5
148
100
AcDbEntity
8
SK2
62
256
6
ByLayer
370
18
48
1
60
0
100
AcDbMText
10
-47.475546
20
3.457895
30
0
210
0
220
0
230
1
1
\W0.6740;63
40
3
41
0
44
1.084337
50
90
71
7
72
5
7
iso_b_vert
0
MTEXT
5
14A
100
AcDbEntity
8
SK2
62
256
6
ByLayer
370
18
48
1
60
0
100
AcDbMText
10
-47.475546
20
-4.018668
30
0
210
0
220
0
230
1
1
%%c
40
3
41
0
44
1.084337
50
90
71
7
72
5
7
iso_b_vert
0
LINE
5
14B
100
AcDbEntity
8
SK2
62
256
6
ByLayer
370
13
48
1
60
0
100
AcDbLine
10
-1.7
20
31.5
30
0
11
-47.975546
21
31.5
31
0
39
0
210
0
220
0
230
1
0
LINE
5
14C
100
AcDbEntity
8
SK2
62
256
6
ByLayer
370
13
48
1
60
0
100
AcDbLine
10
-1.7
20
-31.5
30
0
11
-47.975546
21
-31.5
31
0
39
0
210
0
220
0
230
1
0
LINE
5
14D
100
AcDbEntity
8
SK2
62
256
6
ByLayer
370
13
48
1
60
0
100
AcDbLine
10
-45.975546
20
31.5
30
0
11
-45.975546
21
-31.5
31
0
39
0
210
0
220
0
230
1
0
LINE
5
14E
100
AcDbEntity
8
SK2
62
256
6
ByLayer
370
13
48
1
60
0
100
AcDbLine
10
-45.975546
20
31.5
30
0
11
-45.557549
21
28.325002
31
0
39
0
210
0
220
0
230
1
0
LINE
5
14F
100
AcDbEntity
8
SK2
62
256
6
ByLayer
370
13
48
1
60
0
100
AcDbLine
10
-45.975546
20
31.5
30
0
11
-46.393542
21
28.324998
31
0
39
0
210
0
220
0
230
1
0
LINE
5
150
100
AcDbEntity
8
SK2
62
256
6
ByLayer
370
13
48
1
60
0
100
AcDbLine
10
-45.557549
20
28.325002
30
0
11
-46.393542
21
28.324998
31
0
39
0
210
0
220
0
230
1
0
LINE
5
151
100
AcDbEntity
8
SK2
62
256
6
ByLayer
370
13
48
1
60
0
100
AcDbLine
10
-45.975546
20
-31.5
30
0
11
-46.393542
21
-28.325002
31
0
39
0
210
0
220
0
230
1
0
LINE
5
152
100
AcDbEntity
8
SK2
62
256
6
ByLayer
370
13
48
1
60
0
100
AcDbLine
10
-45.975546
20
-31.5
30
0
11
-45.557549
21
-28.324998
31
0
39
0
210
0
220
0
230
1
0
LINE
5
153
100
AcDbEntity
8
SK2
62
256
6
ByLayer
370
13
48
1
60
0
100
AcDbLine
10
-46.393542
20
-28.325002
30
0
11
-45.557549
21
-28.324998
31
0
39
0
210
0
220
0
230
1
0
ENDBLK
5
155
100
AcDbEntity
8
0
100
AcDbBlockEnd
0
BLOCK
5
162
100
AcDbEntity
8
0
100
AcDbBlockBegin
2
DimnDraft3D2
70
0
10
0
20
0
30
0
3
DimnDraft3D2
0
MTEXT
5
158
100
AcDbEntity
8
SK2
62
256
6
ByLayer
370
18
48
1
60
0
100
AcDbMText
10
9.957895
20
47.359547
30
0
210
0
220
0
230
1
1
\W0.6740;22
40
3
41
0
44
1.084337
50
0
71
7
72
5
7
iso_b_vert
0
LINE
5
159
100
AcDbEntity
8
SK2
62
256
6
ByLayer
370
13
48
1
60
0
100
AcDbLine
10
0
20
33.2
30
0
11
0
21
48.609547
31
0
39
0
210
0
220
0
230
1
0
LINE
5
15A
100
AcDbEntity
8
SK2
62
256
6
ByLayer
370
13
48
1
60
0
100
AcDbLine
10
22
20
33.5
30
0
11
22
21
48.609547
31
0
39
0
210
0
220
0
230
1
0
LINE
5
15B
100
AcDbEntity
8
SK2
62
256
6
ByLayer
370
13
48
1
60
0
100
AcDbLine
10
0
20
46.609547
30
0
11
22
21
46.609547
31
0
39
0
210
0
220
0
230
1
0
LINE
5
15C
100
AcDbEntity
8
SK2
62
256
6
ByLayer
370
13
48
1
60
0
100
AcDbLine
10
0
20
46.609547
30
0
11
3.174998
21
47.027543
31
0
39
0
210
0
220
0
230
1
0
LINE
5
15D
100
AcDbEntity
8
SK2
62
256
6
ByLayer
370
13
48
1
60
0
100
AcDbLine
10
0
20
46.609547
30
0
11
3.175002
21
46.19155
31
0
39
0
210
0
220
0
230
1
0
LINE
5
15E
100
AcDbEntity
8
SK2
62
256
6
ByLayer
370
13
48
1
60
0
100
AcDbLine
10
3.174998
20
47.027543
30
0
11
3.175002
21
46.19155
31
0
39
0
210
0
220
0
230
1
0
LINE
5
15F
100
AcDbEntity
8
SK2
62
256
6
ByLayer
370
13
48
1
60
0
100
AcDbLine
10
22
20
46.609547
30
0
11
18.825002
21
46.19155
31
0
39
0
210
0
220
0
230
1
0
LINE
5
160
100
AcDbEntity
8
SK2
62
256
6
ByLayer
370
13
48
1
60
0
100
AcDbLine
10
22
20
46.609547
30
0
11
18.824998
21
47.027543
31
0
39
0
210
0
220
0
230
1
0
LINE
5
161
100
AcDbEntity
8
SK2
62
256
6
ByLayer
370
13
48
1
60
0
100
AcDbLine
10
18.825002
20
46.19155
30
0
11
18.824998
21
47.027543
31
0
39
0
210
0
220
0
230
1
0
ENDBLK
5
163
100
AcDbEntity
8
0
100
AcDbBlockEnd
0
BLOCK
5
170
100
AcDbEntity
8
0
100
AcDbBlockBegin
2
DimnDraft3D3
70
0
10
0
20
0
30
0
3
DimnDraft3D3
0
MTEXT
5
166
100
AcDbEntity
8
SK2
62
256
6
ByLayer
370
18
48
1
60
0
100
AcDbMText
10
12.953295
20
58.332947
30
0
210
0
220
0
230
1
1
\W0.6740;28
40
3
41
0
44
1.084337
50
0
71
7
72
5
7
iso_b_vert
0
LINE
5
167
100
AcDbEntity
8
SK2
62
256
6
ByLayer
370
13
48
1
60
0
100
AcDbLine
10
0
20
33.2
30
0
11
0
21
59.582947
31
0
39
0
210
0
220
0
230
1
0
LINE
5
168
100
AcDbEntity
8
SK2
62
256
6
ByLayer
370
13
48
1
60
0
100
AcDbLine
10
27.9908
20
36.6
30
0
11
27.9908
21
59.582947
31
0
39
0
210
0
220
0
230
1
0
LINE
5
169
100
AcDbEntity
8
SK2
62
256
6
ByLayer
370
13
48
1
60
0
100
AcDbLine
10
0
20
57.582947
30
0
11
27.9908
21
57.582947
31
0
39
0
210
0
220
0
230
1
0
LINE
5
16A
100
AcDbEntity
8
SK2
62
256
6
ByLayer
370
13
48
1
60
0
100
AcDbLine
10
0
20
57.582947
30
0
11
3.174998
21
58.000944
31
0
39
0
210
0
220
0
230
1
0
LINE
5
16B
100
AcDbEntity
8
SK2
62
256
6
ByLayer
370
13
48
1
60
0
100
AcDbLine
10
0
20
57.582947
30
0
11
3.175002
21
57.164951
31
0
39
0
210
0
220
0
230
1
0
LINE
5
16C
100
AcDbEntity
8
SK2
62
256
6
ByLayer
370
13
48
1
60
0
100
AcDbLine
10
3.174998
20
58.000944
30
0
11
3.175002
21
57.164951
31
0
39
0
210
0
220
0
230
1
0
LINE
5
16D
100
AcDbEntity
8
SK2
62
256
6
ByLayer
370
13
48
1
60
0
100
AcDbLine
10
27.9908
20
57.582947
30
0
11
24.815802
21
57.164951
31
0
39
0
210
0
220
0
230
1
0
LINE
5
16E
100
AcDbEntity
8
SK2
62
256
6
ByLayer
370
13
48
1
60
0
100
AcDbLine
10
27.9908
20
57.582947
30
0
11
24.815798
21
58.000944
31
0
39
0
210
0
220
0
230
1
0
LINE
5
16F
100
AcDbEntity
8
SK2
62
256
6
ByLayer
370
13
48
1
60
0
100
AcDbLine
10
24.815802
20
57.164951
30
0
11
24.815798
21
58.000944
31
0
39
0
210
0
220
0
230
1
0
ENDBLK
5
171
100
AcDbEntity
8
0
100
AcDbBlockEnd
0
BLOCK
5
174
100
AcDbEntity
8
0
100
AcDbBlockBegin
2
_CLOSED
70
0
10
0
20
0
30
0
3
_CLOSED
0
LINE
5
176
100
AcDbEntity
8
0
62
256
6
ByLayer
370
-2
48
1
60
0
100
AcDbLine
10
-1
20
0.166667
30
0
11
0
21
0
31
0
39
0
210
0
220
0
230
1
0
LINE
5
177
100
AcDbEntity
8
0
62
256
6
ByLayer
370
-2
48
1
60
0
100
AcDbLine
10
0
20
0
30
0
11
-1
21
-0.166667
31
0
39
0
210
0
220
0
230
1
0
LINE
5
178
100
AcDbEntity
8
0
62
256
6
ByLayer
370
-2
48
1
60
0
100
AcDbLine
10
-1
20
0.166667
30
0
11
-1
21
-0.166667
31
0
39
0
210
0
220
0
230
1
0
LINE
5
179
100
AcDbEntity
8
0
62
256
6
ByLayer
370
-2
48
1
60
0
100
AcDbLine
10
0
20
0
30
0
11
-1
21
0
31
0
39
0
210
0
220
0
230
1
0
ENDBLK
5
175
100
AcDbEntity
8
0
100
AcDbBlockEnd
0
BLOCK
5
186
100
AcDbEntity
8
0
100
AcDbBlockBegin
2
DimnDraft3D4
70
0
10
0
20
0
30
0
3
DimnDraft3D4
0
MTEXT
5
17B
100
AcDbEntity
8
2
62
256
6
ByLayer
370
18
48
1
60
0
100
AcDbMText
10
60.711842
20
69.608307
30
0
210
0
220
0
230
1
1
\W0.6217;125
40
3
41
0
44
1.084337
50
0
71
7
72
5
7
iso_b_vert
0
LINE
5
17D
100
AcDbEntity
8
2
62
256
6
ByLayer
370
13
48
1
60
0
100
AcDbLine
10
0
20
33.2
30
0
11
0
21
70.858307
31
0
39
0
210
0
220
0
230
1
0
LINE
5
17E
100
AcDbEntity
8
2
62
256
6
ByLayer
370
13
48
1
60
0
100
AcDbLine
10
125
20
36.6
30
0
11
125
21
70.858307
31
0
39
0
210
0
220
0
230
1
0
LINE
5
17F
100
AcDbEntity
8
2
62
256
6
ByLayer
370
13
48
1
60
0
100
AcDbLine
10
0
20
68.858307
30
0
11
125
21
68.858307
31
0
39
0
210
0
220
0
230
1
0
LINE
5
180
100
AcDbEntity
8
2
62
256
6
ByLayer
370
13
48
1
60
0
100
AcDbLine
10
0
20
68.858307
30
0
11
3.174998
21
69.276304
31
0
39
0
210
0
220
0
230
1
0
LINE
5
181
100
AcDbEntity
8
2
62
256
6
ByLayer
370
13
48
1
60
0
100
AcDbLine
10
0
20
68.858307
30
0
11
3.175002
21
68.440311
31
0
39
0
210
0
220
0
230
1
0
LINE
5
182
100
AcDbEntity
8
2
62
256
6
ByLayer
370
13
48
1
60
0
100
AcDbLine
10
3.174998
20
69.276304
30
0
11
3.175002
21
68.440311
31
0
39
0
210
0
220
0
230
1
0
LINE
5
183
100
AcDbEntity
8
2
62
256
6
ByLayer
370
13
48
1
60
0
100
AcDbLine
10
125
20
68.858307
30
0
11
121.825002
21
68.440311
31
0
39
0
210
0
220
0
230
1
0
LINE
5
184
100
AcDbEntity
8
2
62
256
6
ByLayer
370
13
48
1
60
0
100
AcDbLine
10
125
20
68.858307
30
0
11
121.824998
21
69.276304
31
0
39
0
210
0
220
0
230
1
0
LINE
5
185
100
AcDbEntity
8
2
62
256
6
ByLayer
370
13
48
1
60
0
100
AcDbLine
10
121.825002
20
68.440311
30
0
11
121.824998
21
69.276304
31
0
39
0
210
0
220
0
230
1
0
ENDBLK
5
187
100
AcDbEntity
8
0
100
AcDbBlockEnd
0
BLOCK
5
194
100
AcDbEntity
8
0
100
AcDbBlockBegin
2
DimnDraft3D5
70
0
10
0
20
0
30
0
3
DimnDraft3D5
0
MTEXT
5
18A
100
AcDbEntity
8
SK2
62
256
6
ByLayer
370
18
48
1
60
0
100
AcDbMText
10
141.739986
20
5.401747
30
0
210
0
220
0
230
1
1
\W0.6562;15.6
40
3
41
0
44
1.084337
50
90
71
7
72
5
7
iso_b_vert
0
LINE
5
18B
100
AcDbEntity
8
SK2
62
256
6
ByLayer
370
13
48
1
60
0
100
AcDbLine
10
131.919982
20
0
30
0
11
144.489986
21
0
31
0
39
0
210
0
220
0
230
1
0
LINE
5
18C
100
AcDbEntity
8
SK2
62
256
6
ByLayer
370
13
48
1
60
0
100
AcDbLine
10
127
20
15.5956
30
0
11
144.489986
21
15.5956
31
0
39
0
210
0
220
0
230
1
0
LINE
5
18D
100
AcDbEntity
8
SK2
62
256
6
ByLayer
370
13
48
1
60
0
100
AcDbLine
10
142.489986
20
-7.5
30
0
11
142.489986
21
23.0956
31
0
39
0
210
0
220
0
230
1
0
LINE
5
18E
100
AcDbEntity
8
SK2
62
256
6
ByLayer
370
13
48
1
60
0
100
AcDbLine
10
142.489986
20
0
30
0
11
142.907983
21
-3.174998
31
0
39
0
210
0
220
0
230
1
0
LINE
5
18F
100
AcDbEntity
8
SK2
62
256
6
ByLayer
370
13
48
1
60
0
100
AcDbLine
10
142.489986
20
0
30
0
11
142.071989
21
-3.175002
31
0
39
0
210
0
220
0
230
1
0
LINE
5
190
100
AcDbEntity
8
SK2
62
256
6
ByLayer
370
13
48
1
60
0
100
AcDbLine
10
142.907983
20
-3.174998
30
0
11
142.071989
21
-3.175002
31
0
39
0
210
0
220
0
230
1
0
LINE
5
191
100
AcDbEntity
8
SK2
62
256
6
ByLayer
370
13
48
1
60
0
100
AcDbLine
10
142.489986
20
15.5956
30
0
11
142.071989
21
18.770598
31
0
39
0
210
0
220
0
230
1
0
LINE
5
192
100
AcDbEntity
8
SK2
62
256
6
ByLayer
370
13
48
1
60
0
100
AcDbLine
10
142.489986
20
15.5956
30
0
11
142.907983
21
18.770602
31
0
39
0
210
0
220
0
230
1
0
LINE
5
193
100
AcDbEntity
8
SK2
62
256
6
ByLayer
370
13
48
1
60
0
100
AcDbLine
10
142.071989
20
18.770598
30
0
11
142.907983
21
18.770602
31
0
39
0
210
0
220
0
230
1
0
ENDBLK
5
195
100
AcDbEntity
8
0
100
AcDbBlockEnd
0
BLOCK
5
1A2
100
AcDbEntity
8
0
100
AcDbBlockBegin
2
DimnDraft3D6
70
0
10
0
20
0
30
0
3
DimnDraft3D6
0
MTEXT
5
198
100
AcDbEntity
8
SK2
62
256
6
ByLayer
370
18
48
1
60
0
100
AcDbMText
10
153.713321
20
14.371053
30
0
210
0
220
0
230
1
1
\W0.7640;34.6
40
3
41
0
44
1.084337
50
90
71
7
72
5
7
iso_b_vert
0
LINE
5
199
100
AcDbEntity
8
SK2
62
256
6
ByLayer
370
13
48
1
60
0
100
AcDbLine
10
131.919982
20
0
30
0
11
156.463321
21
0
31
0
39
0
210
0
220
0
230
1
0
LINE
5
19A
100
AcDbEntity
8
SK2
62
256
6
ByLayer
370
13
48
1
60
0
100
AcDbLine
10
124
20
34.6
30
0
11
156.463321
21
34.6
31
0
39
0
210
0
220
0
230
1
0
LINE
5
19B
100
AcDbEntity
8
SK2
62
256
6
ByLayer
370
13
48
1
60
0
100
AcDbLine
10
154.463321
20
0
30
0
11
154.463321
21
34.6
31
0
39
0
210
0
220
0
230
1
0
LINE
5
19C
100
AcDbEntity
8
SK2
62
256
6
ByLayer
370
13
48
1
60
0
100
AcDbLine
10
154.463321
20
0
30
0
11
154.045324
21
3.174998
31
0
39
0
210
0
220
0
230
1
0
LINE
5
19D
100
AcDbEntity
8
SK2
62
256
6
ByLayer
370
13
48
1
60
0
100
AcDbLine
10
154.463321
20
0
30
0
11
154.881318
21
3.175002
31
0
39
0
210
0
220
0
230
1
0
LINE
5
19E
100
AcDbEntity
8
SK2
62
256
6
ByLayer
370
13
48
1
60
0
100
AcDbLine
10
154.045324
20
3.174998
30
0
11
154.881318
21
3.175002
31
0
39
0
210
0
220
0
230
1
0
LINE
5
19F
100
AcDbEntity
8
SK2
62
256
6
ByLayer
370
13
48
1
60
0
100
AcDbLine
10
154.463321
20
34.6
30
0
11
154.881318
21
31.425002
31
0
39
0
210
0
220
0
230
1
0
LINE
5
1A0
100
AcDbEntity
8
SK2
62
256
6
ByLayer
370
13
48
1
60
0
100
AcDbLine
10
154.463321
20
34.6
30
0
11
154.045324
21
31.424998
31
0
39
0
210
0
220
0
230
1
0
LINE
5
1A1
100
AcDbEntity
8
SK2
62
256
6
ByLayer
370
13
48
1
60
0
100
AcDbLine
10
154.881318
20
31.425002
30
0
11
154.045324
21
31.424998
31
0
39
0
210
0
220
0
230
1
0
ENDBLK
5
1A3
100
AcDbEntity
8
0
100
AcDbBlockEnd
0
BLOCK
5
1B0
100
AcDbEntity
8
0
100
AcDbBlockBegin
2
DimnDraft3D7
70
0
10
0
20
0
30
0
3
DimnDraft3D7
0
MTEXT
5
1A6
100
AcDbEntity
8
SK2
62
256
6
ByLayer
370
18
48
1
60
0
100
AcDbMText
10
153.713321
20
-23.7
30
0
210
0
220
0
230
1
1
\W0.7361;45
40
3
41
0
44
1.084337
50
90
71
7
72
5
7
iso_b_vert
0
LINE
5
1A7
100
AcDbEntity
8
SK2
62
256
6
ByLayer
370
13
48
1
60
0
100
AcDbLine
10
131.919982
20
0
30
0
11
156.463321
21
0
31
0
39
0
210
0
220
0
230
1
0
LINE
5
1A8
100
AcDbEntity
8
SK2
62
256
6
ByLayer
370
13
48
1
60
0
100
AcDbLine
10
124
20
-45
30
0
11
156.463321
21
-45
31
0
39
0
210
0
220
0
230
1
0
LINE
5
1A9
100
AcDbEntity
8
SK2
62
256
6
ByLayer
370
13
48
1
60
0
100
AcDbLine
10
154.463321
20
0
30
0
11
154.463321
21
-45
31
0
39
0
210
0
220
0
230
1
0
LINE
5
1AA
100
AcDbEntity
8
SK2
62
256
6
ByLayer
370
13
48
1
60
0
100
AcDbLine
10
154.463321
20
0
30
0
11
154.881318
21
-3.174998
31
0
39
0
210
0
220
0
230
1
0
LINE
5
1AB
100
AcDbEntity
8
SK2
62
256
6
ByLayer
370
13
48
1
60
0
100
AcDbLine
10
154.463321
20
0
30
0
11
154.045324
21
-3.175002
31
0
39
0
210
0
220
0
230
1
0
LINE
5
1AC
100
AcDbEntity
8
SK2
62
256
6
ByLayer
370
13
48
1
60
0
100
AcDbLine
10
154.881318
20
-3.174998
30
0
11
154.045324
21
-3.175002
31
0
39
0
210
0
220
0
230
1
0
LINE
5
1AD
100
AcDbEntity
8
SK2
62
256
6
ByLayer
370
13
48
1
60
0
100
AcDbLine
10
154.463321
20
-45
30
0
11
154.045324
21
-41.825002
31
0
39
0
210
0
220
0
230
1
0
LINE
5
1AE
100
AcDbEntity
8
SK2
62
256
6
ByLayer
370
13
48
1
60
0
100
AcDbLine
10
154.463321
20
-45
30
0
11
154.881318
21
-41.824998
31
0
39
0
210
0
220
0
230
1
0
LINE
5
1AF
100
AcDbEntity
8
SK2
62
256
6
ByLayer
370
13
48
1
60
0
100
AcDbLine
10
154.045324
20
-41.825002
30
0
11
154.881318
21
-41.824998
31
0
39
0
210
0
220
0
230
1
0
ENDBLK
5
1B1
100
AcDbEntity
8
0
100
AcDbBlockEnd
0
ENDSEC
0
SECTION
2
ENTITIES
0
ARC
5
D5
100
AcDbEntity
8
1
62
256
6
ByLayer
370
18
48
1
60
0
100
AcDbCircle
39
0
10
121.298871
20
12.618682
30
0
40
4.50000000007292
210
0
220
0
230
1
100
AcDbArc
50
26.3878
51
34.666869
0
ARC
5
D6
100
AcDbEntity
8
1
62
256
6
ByLayer
370
18
48
1
60
0
100
AcDbCircle
39
0
10
121.298871
20
12.618682
30
0
40
4.50000000056728
210
0
220
0
230
1
100
AcDbArc
50
325.333131
51
333.6122
0
ARC
5
D7
100
AcDbEntity
8
1
62
256
6
ByLayer
370
18
48
1
60
0
100
AcDbCircle
39
0
10
121.298871
20
-21.916283
30
0
40
4.50000000023543
210
0
220
0
230
1
100
AcDbArc
50
325.333131
51
333.6122
0
ARC
5
D8
100
AcDbEntity
8
1
62
256
6
ByLayer
370
18
48
1
60
0
100
AcDbCircle
39
0
10
121.298871
20
-21.916283
30
0
40
4.50000000043379
210
0
220
0
230
1
100
AcDbArc
50
26.3878
51
34.666869
0
ARC
5
D9
100
AcDbEntity
8
1
62
256
6
ByLayer
370
18
48
1
60
0
100
AcDbCircle
39
0
10
121.298871
20
9.297602
30
0
40
4.50000000014954
210
0
220
0
230
1
100
AcDbArc
50
325.333131
51
333.6122
0
ARC
5
DB
100
AcDbEntity
8
1
62
256
6
ByLayer
370
18
48
1
60
0
100
AcDbCircle
39
0
10
-53
20
25
30
0
40
3.46410161513694
210
0
220
0
230
-1
100
AcDbArc
50
90
51
89.989383
0
ARC
5
DC
100
AcDbEntity
8
1
62
256
6
ByLayer
370
18
48
1
60
0
100
AcDbCircle
39
0
10
-84
20
25
30
0
40
3.46410161513885
210
0
220
0
230
-1
100
AcDbArc
50
90
51
89.989383
0
ARC
5
DD
100
AcDbEntity
8
1
62
256
6
ByLayer
370
18
48
1
60
0
100
AcDbCircle
39
0
10
-115
20
25
30
0
40
3.4641016151377
210
0
220
0
230
-1
100
AcDbArc
50
90
51
89.989383
0
CIRCLE
5
D0
100
AcDbEntity
8
1
62
256
6
ByLayer
370
18
48
1
60
0
100
AcDbCircle
10
53
20
25
30
0
40
5.2896
39
0
210
0
220
0
230
1
0
CIRCLE
5
D1
100
AcDbEntity
8
1
62
256
6
ByLayer
370
18
48
1
60
0
100
AcDbCircle
10
115
20
25
30
0
40
5.2896
39
0
210
0
220
0
230
1
0
CIRCLE
5
D2
100
AcDbEntity
8
1
62
256
6
ByLayer
370
18
48
1
60
0
100
AcDbCircle
10
84
20
25
30
0
40
5.2896
39
0
210
0
220
0
230
1
0
CIRCLE
5
D3
100
AcDbEntity
8
1
62
256
6
ByLayer
370
18
48
1
60
0
100
AcDbCircle
10
115
20
25
30
0
40
5
39
0
210
0
220
0
230
1
0
CIRCLE
5
D4
100
AcDbEntity
8
1
62
256
6
ByLayer
370
18
48
1
60
0
100
AcDbCircle
10
84
20
25
30
0
40
5
39
0
210
0
220
0
230
1
0
CIRCLE
5
DA
100
AcDbEntity
8
1
62
256
6
ByLayer
370
18
48
1
60
0
100
AcDbCircle
10
53
20
25
30
0
40
5
39
0
210
0
220
0
230
1
0
ELLIPSE
5
DE
100
AcDbEntity
8
1
62
256
6
ByLayer
370
18
48
1
60
0
100
AcDbEllipse
10
115
20
-14.058846
30
0
11
4.25
21
-4.81567368447455E-15
31
0
210
0
220
0
230
1
40
0.5
41
3.14159265358979
42
-0.00114871896121237
0
ELLIPSE
5
DF
100
AcDbEntity
8
1
62
256
6
ByLayer
370
18
48
1
60
0
100
AcDbEllipse
10
115
20
-13.322724
30
0
11
3.4
21
-3.85253894757964E-15
31
0
210
0
220
0
230
1
40
0.5
41
0
42
6.28318530717959
0
ELLIPSE
5
E0
100
AcDbEntity
8
1
62
256
6
ByLayer
370
18
48
1
60
0
100
AcDbEllipse
10
31.5
20
-16.866987
30
0
11
5.00000000000021
21
-5.66549845232324E-15
31
0
210
0
220
0
230
1
40
0.866025
41
2.34619382340567
42
3.14159265358979
0
ELLIPSE
5
E1
100
AcDbEntity
8
1
62
256
6
ByLayer
370
18
48
1
60
0
100
AcDbEllipse
10
31.5
20
-3.833305
30
0
11
4.99999999999999
21
-5.66549845232299E-15
31
0
210
0
220
0
230
1
40
0.866025
41
0.775397496610757
42
3.14159265358979
0
ELLIPSE
5
E2
100
AcDbEntity
8
1
62
256
6
ByLayer
370
18
48
1
60
0
100
AcDbEllipse
10
31.5
20
-3.833305
30
0
11
4.99999999999971
21
-5.66549845232267E-15
31
0
210
0
220
0
230
1
40
0.866025
41
3.14159265358979
42
-2.34619382340563
0
ELLIPSE
5
E3
100
AcDbEntity
8
1
62
256
6
ByLayer
370
18
48
1
60
0
100
AcDbEllipse
10
31.5
20
-16.866987
30
0
11
5
21
-5.665498452323E-15
31
0
210
0
220
0
230
1
40
0.866025
41
3.14159265358979
42
-0.512089752934146
0
ELLIPSE
5
E4
100
AcDbEntity
8
1
62
256
6
ByLayer
370
18
48
1
60
0
100
AcDbEllipse
10
31.5
20
-7.366987
30
0
11
4.99999999999998
21
-5.66549845232298E-15
31
0
210
0
220
0
230
1
40
0.866025
41
0
42
2.34619382340565
0
ELLIPSE
5
E5
100
AcDbEntity
8
1
62
256
6
ByLayer
370
18
48
1
60
0
100
AcDbEllipse
10
31.5
20
-7.366987
30
0
11
4.99999999987524
21
-5.66549845218164E-15
31
0
210
0
220
0
230
1
40
0.866025
41
-0.294226837752692
42
-2.05116115521443E-16
0
ELLIPSE
5
E6
100
AcDbEntity
8
1
62
256
6
ByLayer
370
18
48
1
60
0
100
AcDbEllipse
10
31.5
20
-7.066987
30
0
11
4.99999999999998
21
-5.66549845232298E-15
31
0
210
0
220
0
230
1
40
0.866025
41
-2.34619382340565
42
-0.0346479481112347
0
ELLIPSE
5
E7
100
AcDbEntity
8
1
62
256
6
ByLayer
370
18
48
1
60
0
100
AcDbEllipse
10
115
20
-14.18875
30
0
11
5.28960000000003
21
-5.99364412268159E-15
31
0
210
0
220
0
230
1
40
0.5
41
-1.5707963267949
42
-6.71641273215456E-16
0
ELLIPSE
5
E8
100
AcDbEntity
8
1
62
256
6
ByLayer
370
18
48
1
60
0
100
AcDbEllipse
10
84
20
-14.18875
30
0
11
5.28960000000001
21
-5.99364412268156E-15
31
0
210
0
220
0
230
1
40
0.5
41
-1.5707963267949
42
-6.7164127321546E-16
0
ELLIPSE
5
E9
100
AcDbEntity
8
1
62
256
6
ByLayer
370
18
48
1
60
0
100
AcDbEllipse
10
53
20
-14.18875
30
0
11
5.28960000000029
21
-5.99364412268188E-15
31
0
210
0
220
0
230
1
40
0.5
41
-1.5707963267949
42
-6.71641273215424E-16
0
ELLIPSE
5
EA
100
AcDbEntity
8
1
62
256
6
ByLayer
370
18
48
1
60
0
100
AcDbEllipse
10
84
20
-14.18875
30
0
11
5.28960000000001
21
-5.99364412268156E-15
31
0
210
0
220
0
230
1
40
0.5
41
3.14159265358979
42
-1.5707963267949
0
ELLIPSE
5
EB
100
AcDbEntity
8
1
62
256
6
ByLayer
370
18
48
1
60
0
100
AcDbEllipse
10
84
20
-14.18875
30
0
11
5.28960000000033
21
-5.99364412268193E-15
31
0
210
0
220
0
230
1
40
0.5
41
0
42
1.27194304167634
0
ELLIPSE
5
EC
100
AcDbEntity
8
1
62
256
6
ByLayer
370
18
48
1
60
0
100
AcDbEllipse
10
84
20
-14.18875
30
0
11
5.2895999999999
21
-5.99364412268144E-15
31
0
210
0
220
0
230
1
40
0.5
41
1.8678793878049
42
3.14159265358979
0
ELLIPSE
5
ED
100
AcDbEntity
8
1
62
256
6
ByLayer
370
18
48
1
60
0
100
AcDbEllipse
10
115
20
-14.18875
30
0
11
5.28960000000004
21
-5.9936441226816E-15
31
0
210
0
220
0
230
1
40
0.5
41
3.14159265358979
42
-1.5707963267949
0
ELLIPSE
5
EE
100
AcDbEntity
8
1
62
256
6
ByLayer
370
18
48
1
60
0
100
AcDbEllipse
10
115
20
-14.18875
30
0
11
5.28959999999986
21
-5.99364412268139E-15
31
0
210
0
220
0
230
1
40
0.5
41
0
42
1.27194304167641
0
ELLIPSE
5
EF
100
AcDbEntity
8
1
62
256
6
ByLayer
370
18
48
1
60
0
100
AcDbEllipse
10
115
20
-14.18875
30
0
11
5.28960000000001
21
-5.99364412268156E-15
31
0
210
0
220
0
230
1
40
0.5
41
1.8678793878049
42
3.14159265358979
0
ELLIPSE
5
F0
100
AcDbEntity
8
1
62
256
6
ByLayer
370
18
48
1
60
0
100
AcDbEllipse
10
53
20
-14.18875
30
0
11
5.28960000000029
21
-5.99364412268188E-15
31
0
210
0
220
0
230
1
40
0.5
41
3.14159265358979
42
-1.5707963267949
0
ELLIPSE
5
F1
100
AcDbEntity
8
1
62
256
6
ByLayer
370
18
48
1
60
0
100
AcDbEllipse
10
53
20
-14.18875
30
0
11
5.28960000000007
21
-5.99364412268163E-15
31
0
210
0
220
0
230
1
40
0.5
41
0
42
1.27194304167639
0
ELLIPSE
5
F2
100
AcDbEntity
8
1
62
256
6
ByLayer
370
18
48
1
60
0
100
AcDbEllipse
10
53
20
-14.18875
30
0
11
5.28959999999901
21
-5.99364412268043E-15
31
0
210
0
220
0
230
1
40
0.5
41
1.86787938780479
42
3.14159265358979
0
ELLIPSE
5
F3
100
AcDbEntity
8
1
62
256
6
ByLayer
370
18
48
1
60
0
100
AcDbEllipse
10
84
20
-14.058846
30
0
11
4.25
21
-4.81567368447455E-15
31
0
210
0
220
0
230
1
40
0.5
41
3.14159265358979
42
-0.00114871896121906
0
ELLIPSE
5
F4
100
AcDbEntity
8
1
62
256
6
ByLayer
370
18
48
1
60
0
100
AcDbEllipse
10
84
20
-13.322724
30
0
11
3.4
21
-3.85253894757964E-15
31
0
210
0
220
0
230
1
40
0.5
41
0
42
6.28318530717959
0
ELLIPSE
5
F5
100
AcDbEntity
8
1
62
256
6
ByLayer
370
18
48
1
60
0
100
AcDbEllipse
10
53
20
-14.058846
30
0
11
4.25
21
-4.81567368447455E-15
31
0
210
0
220
0
230
1
40
0.5
41
3.14159265358979
42
-0.00114871896121738
0
ELLIPSE
5
F6
100
AcDbEntity
8
1
62
256
6
ByLayer
370
18
48
1
60
0
100
AcDbEllipse
10
53
20
-13.322724
30
0
11
3.40000000000001
21
-3.85253894757965E-15
31
0
210
0
220
0
230
1
40
0.5
41
0
42
6.28318530717959
0
ELLIPSE
5
F7
100
AcDbEntity
8
1
62
256
6
ByLayer
370
18
48
1
60
0
100
AcDbEllipse
10
31.5
20
-6.641987
30
0
11
-1.25463254169314E-15
21
-6.83012701878741
31
0
210
0
220
0
230
1
40
0.732051
41
1.05870657385293
42
1.2765694890429
0
ELLIPSE
5
F8
100
AcDbEntity
8
1
62
256
6
ByLayer
370
18
48
1
60
0
100
AcDbEllipse
10
-2.347154
20
0
30
0
11
14.7536831606576
21
-31.093254915583
31
0
210
0
220
0
230
1
40
0.341999
41
0.157806186645415
42
1.09123958575279
0
ELLIPSE
5
F9
100
AcDbEntity
8
1
62
256
6
ByLayer
370
18
48
1
60
0
100
AcDbEllipse
10
26.347154
20
0
30
0
11
14.7536831606539
21
31.0932549155781
31
0
210
0
220
0
230
1
40
0.341999
41
2.05035306783689
42
2.98378646694436
0
ELLIPSE
5
FA
100
AcDbEntity
8
1
62
256
6
ByLayer
370
18
48
1
60
0
100
AcDbEllipse
10
-2.347154
20
0
30
0
11
14.7536831606634
21
31.09325491559
31
0
210
0
220
0
230
1
40
0.341999
41
-1.09123958575261
42
-0.157806186645394
0
ELLIPSE
5
FB
100
AcDbEntity
8
1
62
256
6
ByLayer
370
18
48
1
60
0
100
AcDbEllipse
10
26.347154
20
0
30
0
11
14.7536831606544
21
-31.0932549155787
31
0
210
0
220
0
230
1
40
0.341999
41
-2.98378646694436
42
-2.05035306783691
0
POINT
5
6C
100
AcDbEntity
8
80
62
256
6
ByLayer
370
18
48
1
60
0
100
AcDbPoint
10
0
20
0
30
0
39
0
210
0
220
0
230
1
50
360
0
POINT
5
6E
100
AcDbEntity
8
81
62
256
6
ByLayer
370
18
48
1
60
0
100
AcDbPoint
10
125
20
25.1
30
0
39
0
210
0
220
0
230
1
50
360
0
SPLINE
5
FC
100
AcDbEntity
8
1
62
256
6
ByLayer
370
18
48
1
60
0
100
AcDbSpline
70
4
71
3
72
38
73
34
40
0
40
0
40
0
40
0
40
0.0215549538184459
40
0.0504463963544235
40
0.0794049994473616
40
0.108941954656885
40
0.139511678900118
40
0.171441364373897
40
0.204811938588447
40
0.239369802971809
40
0.274613159583712
40
0.309995259635351
40
0.345199553385435
40
0.380153961188018
40
0.414875488962223
40
0.449417581165362
40
0.483845280651852
40
0.518226175456379
40
0.552627728935642
40
0.587097776611875
40
0.621709197505805
40
0.656539264203196
40
0.691668578126518
40
0.72717294787349
40
0.763098235716734
40
0.799400261171779
40
0.835730239071249
40
0.867481836549319
40
0.897851503089449
40
0.9269867998709
40
0.955209533463679
40
0.98542722498788
40
1
40
1
40
1
40
1
41
1
10
110.75
20
-14.0588457268121
30
0
41
1
10
110.750089036313
20
-13.9893705939773
30
0
41
1
10
110.759818389113
20
-13.8283499498949
30
0
41
1
10
110.811281024986
20
-13.5780895978074
30
0
41
1
10
110.909813627005
20
-13.3157594301175
30
0
41
1
10
111.048656239549
20
-13.0657928681883
30
0
41
1
10
111.227478396494
20
-12.8283807788206
30
0
41
1
10
111.447005119337
20
-12.603885478952
30
0
41
1
10
111.707704873497
20
-12.393842358743
30
0
41
1
10
112.008242535153
20
-12.200979669818
30
0
41
1
10
112.344547977769
20
-12.028581051018
30
0
41
1
10
112.710583153907
20
-11.8793294399534
30
0
41
1
10
113.100063660099
20
-11.7546988335584
30
0
41
1
10
113.507675206465
20
-11.6551697269418
30
0
41
1
10
113.929004451847
20
-11.5807918030719
30
0
41
1
10
114.35995607751
20
-11.5315359136842
30
0
41
1
10
114.796536044544
20
-11.5073713805517
30
0
41
1
10
115.234764171861
20
-11.5082703510854
30
0
41
1
10
115.670583928708
20
-11.5341937244077
30
0
41
1
10
116.099998808628
20
-11.5850798643902
30
0
41
1
10
116.519136957143
20
-11.6608792502272
30
0
41
1
10
116.92436990566
20
-11.7616478980773
30
0
41
1
10
117.312207212196
20
-11.887634411687
30
0
41
1
10
117.679178994908
20
-12.0393767459645
30
0
41
1
10
118.021528919591
20
-12.217724575417
30
0
41
1
10
118.334331992545
20
-12.423376627643
30
0
41
1
10
118.600983418772
20
-12.6474631970657
30
0
41
1
10
118.818646067647
20
-12.8835468286733
30
0
41
1
10
118.987912196397
20
-13.1240518848868
30
0
41
1
10
119.116078164597
20
-13.3746610126371
30
0
41
1
10
119.205838429725
20
-13.6408057352649
30
0
41
1
10
119.244547245723
20
-13.872652032473
30
0
41
1
10
119.250073606674
20
-14.0158555264161
30
0
41
1
10
119.249995610919
20
-14.0627087392047
30
0
0
SPLINE
5
FD
100
AcDbEntity
8
1
62
256
6
ByLayer
370
18
48
1
60
0
100
AcDbSpline
70
4
71
2
72
6
73
3
40
0
40
0
40
0
40
1
40
1
40
1
41
1
10
122
20
7.61746375536644
30
0
41
1
10
123.565844567735
20
5.50253595615271
30
0
41
1
10
125
20
3.3186808501417
30
0
0
SPLINE
5
FE
100
AcDbEntity
8
1
62
256
6
ByLayer
370
18
48
1
60
0
100
AcDbSpline
70
4
71
1
72
4
73
2
40
0
40
0
40
1
40
1
41
1
10
124
20
34.6
30
0
41
1
10
125
20
33.6
30
0
0
SPLINE
5
FF
100
AcDbEntity
8
1
62
256
6
ByLayer
370
18
48
1
60
0
100
AcDbSpline
70
4
71
1
72
4
73
2
40
0
40
0
40
1
40
1
41
1
10
124
20
34.6
30
0
41
1
10
122
20
34.6
30
0
0
SPLINE
5
100
100
AcDbEntity
8
1
62
256
6
ByLayer
370
18
48
1
60
0
100
AcDbSpline
70
4
71
1
72
4
73
2
40
0
40
0
40
1
40
1
41
1
10
25
20
7.61746375536644
30
0
41
1
10
22
20
8.1599666109951
30
0
0
SPLINE
5
101
100
AcDbEntity
8
1
62
256
6
ByLayer
370
18
48
1
60
0
100
AcDbSpline
70
4
71
1
72
4
73
2
40
0
40
0
40
1
40
1
41
1
10
22
20
-39.7599666109951
30
0
41
1
10
25
20
-42.2174637553664
30
0
0
SPLINE
5
102
100
AcDbEntity
8
1
62
256
6
ByLayer
370
18
48
1
60
0
100
AcDbSpline
70
4
71
3
72
53
73
49
40
0
40
0
40
0
40
0
40
0.0187285687542606
40
0.0421928158524422
40
0.0656874036165548
40
0.0866231290351608
40
0.107635240356527
40
0.128596793474045
40
0.150038265308959
40
0.171530588402186
40
0.192976122700789
40
0.218342078062084
40
0.243787317040914
40
0.26913725200275
40
0.293742859495389
40
0.318443633947403
40
0.343018634953264
40
0.363987729709309
40
0.385041609710452
40
0.405992375946233
40
0.423813990097317
40
0.441701779886896
40
0.459517030389412
40
0.479764385849899
40
0.500010783862824
40
0.523718578383103
40
0.547428475643097
40
0.571106152924918
40
0.594789783200073
40
0.619064569868229
40
0.643348665920313
40
0.66951347896755
40
0.695690838323734
40
0.715204930048803
40
0.73477095558569
40
0.754294830231061
40
0.776648738713089
40
0.799062310952488
40
0.821422596111624
40
0.84652089255035
40
0.87169395244691
40
0.896774535233001
40
0.915131543058937
40
0.933529109704111
40
0.951862784494201
40
0.973090378377596
40
0.994294842671769
40
1
40
1
40
1
40
1
41
1
10
116.2213525108
20
31.6385840391127
30
0
41
1
10
116.492930378876
20
31.5874947184891
30
0
41
1
10
117.085085561043
20
31.4420121706938
30
0
41
1
10
117.944926601426
20
31.0986281499914
30
0
41
1
10
118.739925517645
20
30.6424551279682
30
0
41
1
10
119.417473522923
20
30.1247465670774
30
0
41
1
10
119.989002186256
20
29.5690925304471
30
0
41
1
10
120.485623740689
20
28.9592135482214
30
0
41
1
10
120.90532204213
20
28.3003397107865
30
0
41
1
10
121.245966857229
20
27.5981307484926
30
0
41
1
10
121.519144152182
20
26.8184964991609
30
0
41
1
10
121.702422591138
20
25.9591804292015
30
0
41
1
10
121.771163696017
20
25.0256900678179
30
0
41
1
10
121.710527261575
20
24.0854656742682
30
0
41
1
10
121.514118846387
20
23.152312656202
30
0
41
1
10
121.186030526197
20
22.244148844218
30
0
41
1
10
120.743911193626
20
21.4129658645993
30
0
41
1
10
120.205080026819
20
20.6751462715195
30
0
41
1
10
119.599528762742
20
20.0350009040666
30
0
41
1
10
118.93839349179
20
19.4960692856186
30
0
41
1
10
118.242212024818
20
19.0638200076673
30
0
41
1
10
117.534915937495
20
18.7287158486739
30
0
41
1
10
116.753415085689
20
18.4629719865008
30
0
41
1
10
115.903838737824
20
18.2912493362345
30
0
41
1
10
114.948563074409
20
18.2257794327793
30
0
41
1
10
113.941285976257
20
18.3068990949015
30
0
41
1
10
112.913410435754
20
18.5513330555711
30
0
41
1
10
111.947107115939
20
18.9514387978858
30
0
41
1
10
111.056980974208
20
19.4882876709428
30
0
41
1
10
110.269237039141
20
20.1503240011272
30
0
41
1
10
109.580154808078
20
20.9311133656142
30
0
41
1
10
109.021461516082
20
21.8099282412271
30
0
41
1
10
108.639574242838
20
22.6808143787764
30
0
41
1
10
108.407187912963
20
23.4903042242217
30
0
41
1
10
108.281796559703
20
24.2226949032254
30
0
41
1
10
108.234873175743
20
24.9881637018654
30
0
41
1
10
108.278592232386
20
25.7781635726167
30
0
41
1
10
108.421701346766
20
26.5828726778862
30
0
41
1
10
108.668432014356
20
27.3922337577026
30
0
41
1
10
109.030397967512
20
28.194082973076
30
0
41
1
10
109.518430279062
20
28.9747717952505
30
0
41
1
10
110.065314517524
20
29.630226244327
30
0
41
1
10
110.638785877031
20
30.1678507467995
30
0
41
1
10
111.210883668514
20
30.6016413244827
30
0
41
1
10
111.877016749113
20
31.0025166633931
30
0
41
1
10
112.647316994834
20
31.3472295347631
30
0
41
1
10
113.311846204555
20
31.5454288608625
30
0
41
1
10
113.696406097752
20
31.6234034750391
30
0
41
1
10
113.7786474892
20
31.6385840391127
30
0
0
SPLINE
5
103
100
AcDbEntity
8
1
62
256
6
ByLayer
370
18
48
1
60
0
100
AcDbSpline
70
4
71
3
72
53
73
49
40
0
40
0
40
0
40
0
40
0.0187285687542607
40
0.0421928158524424
40
0.065687403616555
40
0.086623129035161
40
0.107635240356527
40
0.128596793474045
40
0.150038265308959
40
0.171530588402187
40
0.19297612270079
40
0.218342078062085
40
0.243787317040914
40
0.269137252002751
40
0.293742859495389
40
0.318443633947403
40
0.343018634953264
40
0.363987729709309
40
0.385041609710453
40
0.405992375946234
40
0.423813990097317
40
0.441701779886896
40
0.459517030389413
40
0.4797643858499
40
0.500010783862823
40
0.523718578383103
40
0.547428475643097
40
0.571106152924917
40
0.594789783200073
40
0.619064569868228
40
0.643348665920312
40
0.66951347896755
40
0.695690838323734
40
0.715204930048802
40
0.734770955585689
40
0.754294830231061
40
0.776648738713089
40
0.799062310952488
40
0.821422596111624
40
0.84652089255035
40
0.871693952446909
40
0.896774535233001
40
0.915131543058937
40
0.933529109704111
40
0.951862784494201
40
0.973090378377596
40
0.994294842671769
40
1
40
1
40
1
40
1
41
1
10
85.2213525108001
20
31.6385840391127
30
0
41
1
10
85.492930378876
20
31.5874947184891
30
0
41
1
10
86.0850855610427
20
31.4420121706938
30
0
41
1
10
86.9449266014258
20
31.0986281499914
30
0
41
1
10
87.7399255176448
20
30.6424551279682
30
0
41
1
10
88.4174735229225
20
30.1247465670774
30
0
41
1
10
88.9890021862562
20
29.5690925304471
30
0
41
1
10
89.4856237406887
20
28.9592135482213
30
0
41
1
10
89.9053220421299
20
28.3003397107864
30
0
41
1
10
90.2459668572294
20
27.5981307484926
30
0
41
1
10
90.5191441521822
20
26.8184964991609
30
0
41
1
10
90.7024225911379
20
25.9591804292015
30
0
41
1
10
90.7711636960168
20
25.0256900678178
30
0
41
1
10
90.7105272615753
20
24.0854656742682
30
0
41
1
10
90.5141188463871
20
23.1523126562019
30
0
41
1
10
90.186030526197
20
22.2441488442179
30
0
41
1
10
89.7439111936263
20
21.4129658645992
30
0
41
1
10
89.2050800268188
20
20.6751462715194
30
0
41
1
10
88.5995287627418
20
20.0350009040666
30
0
41
1
10
87.9383934917903
20
19.4960692856186
30
0
41
1
10
87.2422120248177
20
19.0638200076673
30
0
41
1
10
86.5349159374946
20
18.7287158486739
30
0
41
1
10
85.7534150856889
20
18.4629719865008
30
0
41
1
10
84.9038387378237
20
18.2912493362345
30
0
41
1
10
83.9485630744093
20
18.2257794327793
30
0
41
1
10
82.9412859762573
20
18.3068990949015
30
0
41
1
10
81.9134104357535
20
18.5513330555711
30
0
41
1
10
80.9471071159388
20
18.9514387978858
30
0
41
1
10
80.056980974208
20
19.4882876709428
30
0
41
1
10
79.2692370391412
20
20.1503240011272
30
0
41
1
10
78.5801548080781
20
20.9311133656142
30
0
41
1
10
78.0214615160823
20
21.8099282412271
30
0
41
1
10
77.6395742428377
20
22.6808143787764
30
0
41
1
10
77.4071879129631
20
23.4903042242217
30
0
41
1
10
77.2817965597026
20
24.2226949032254
30
0
41
1
10
77.2348731757433
20
24.9881637018654
30
0
41
1
10
77.2785922323859
20
25.7781635726167
30
0
41
1
10
77.4217013467657
20
26.5828726778862
30
0
41
1
10
77.6684320143562
20
27.3922337577026
30
0
41
1
10
78.030397967512
20
28.194082973076
30
0
41
1
10
78.5184302790619
20
28.9747717952505
30
0
41
1
10
79.0653145175245
20
29.630226244327
30
0
41
1
10
79.638785877031
20
30.1678507467995
30
0
41
1
10
80.2108836685141
20
30.6016413244827
30
0
41
1
10
80.8770167491132
20
31.0025166633931
30
0
41
1
10
81.6473169948339
20
31.347229534763
30
0
41
1
10
82.3118462045551
20
31.5454288608627
30
0
41
1
10
82.6964060977516
20
31.623403475039
30
0
41
1
10
82.7786474892
20
31.6385840391127
30
0
0
SPLINE
5
104
100
AcDbEntity
8
1
62
256
6
ByLayer
370
18
48
1
60
0
100
AcDbSpline
70
4
71
3
72
53
73
49
40
0
40
0
40
0
40
0
40
0.0187285687542601
40
0.0421928158524415
40
0.0656874036165541
40
0.08662312903516
40
0.107635240356526
40
0.128596793474044
40
0.150038265308958
40
0.171530588402186
40
0.192976122700788
40
0.218342078062084
40
0.243787317040913
40
0.26913725200275
40
0.293742859495388
40
0.318443633947402
40
0.343018634953263
40
0.363987729709308
40
0.385041609710452
40
0.405992375946233
40
0.423813990097316
40
0.441701779886895
40
0.459517030389411
40
0.479764385849899
40
0.500010783862823
40
0.523718578383103
40
0.547428475643097
40
0.571106152924917
40
0.594789783200073
40
0.619064569868228
40
0.643348665920312
40
0.66951347896755
40
0.695690838323733
40
0.715204930048802
40
0.734770955585689
40
0.754294830231061
40
0.776648738713089
40
0.799062310952488
40
0.821422596111624
40
0.84652089255035
40
0.871693952446909
40
0.896774535233001
40
0.915131543058936
40
0.933529109704111
40
0.951862784494201
40
0.973090378377596
40
0.99429484267177
40
1
40
1
40
1
40
1
41
1
10
54.2213525108001
20
31.6385840391127
30
0
41
1
10
54.492930378876
20
31.5874947184891
30
0
41
1
10
55.0850855610427
20
31.4420121706938
30
0
41
1
10
55.9449266014258
20
31.0986281499914
30
0
41
1
10
56.7399255176448
20
30.6424551279682
30
0
41
1
10
57.4174735229225
20
30.1247465670774
30
0
41
1
10
57.9890021862562
20
29.5690925304471
30
0
41
1
10
58.4856237406887
20
28.9592135482214
30
0
41
1
10
58.9053220421298
20
28.3003397107865
30
0
41
1
10
59.2459668572294
20
27.5981307484926
30
0
41
1
10
59.5191441521822
20
26.8184964991609
30
0
41
1
10
59.7024225911379
20
25.9591804292015
30
0
41
1
10
59.7711636960168
20
25.0256900678178
30
0
41
1
10
59.7105272615752
20
24.0854656742682
30
0
41
1
10
59.5141188463871
20
23.152312656202
30
0
41
1
10
59.1860305261971
20
22.244148844218
30
0
41
1
10
58.7439111936263
20
21.4129658645993
30
0
41
1
10
58.2050800268189
20
20.6751462715195
30
0
41
1
10
57.5995287627418
20
20.0350009040666
30
0
41
1
10
56.9383934917903
20
19.4960692856186
30
0
41
1
10
56.2422120248177
20
19.0638200076673
30
0
41
1
10
55.5349159374947
20
18.7287158486739
30
0
41
1
10
54.7534150856889
20
18.4629719865008
30
0
41
1
10
53.9038387378237
20
18.2912493362345
30
0
41
1
10
52.9485630744092
20
18.2257794327793
30
0
41
1
10
51.9412859762573
20
18.3068990949015
30
0
41
1
10
50.9134104357535
20
18.5513330555711
30
0
41
1
10
49.9471071159388
20
18.9514387978858
30
0
41
1
10
49.056980974208
20
19.4882876709428
30
0
41
1
10
48.2692370391412
20
20.1503240011272
30
0
41
1
10
47.5801548080781
20
20.9311133656142
30
0
41
1
10
47.0214615160823
20
21.8099282412271
30
0
41
1
10
46.6395742428377
20
22.6808143787764
30
0
41
1
10
46.4071879129632
20
23.4903042242217
30
0
41
1
10
46.2817965597025
20
24.2226949032254
30
0
41
1
10
46.2348731757433
20
24.9881637018654
30
0
41
1
10
46.2785922323859
20
25.7781635726167
30
0
41
1
10
46.4217013467657
20
26.5828726778862
30
0
41
1
10
46.6684320143562
20
27.3922337577026
30
0
41
1
10
47.030397967512
20
28.194082973076
30
0
41
1
10
47.5184302790619
20
28.9747717952505
30
0
41
1
10
48.0653145175244
20
29.630226244327
30
0
41
1
10
48.638785877031
20
30.1678507467996
30
0
41
1
10
49.2108836685141
20
30.6016413244827
30
0
41
1
10
49.8770167491132
20
31.002516663393
30
0
41
1
10
50.6473169948337
20
31.3472295347632
30
0
41
1
10
51.3118462045556
20
31.5454288608624
30
0
41
1
10
51.6964060977513
20
31.6234034750391
30
0
41
1
10
51.7786474891999
20
31.6385840391127
30
0
0
SPLINE
5
105
100
AcDbEntity
8
1
62
256
6
ByLayer
370
18
48
1
60
0
100
AcDbSpline
70
4
71
1
72
4
73
2
40
0
40
0
40
1
40
1
41
1
10
22
20
31.6
30
0
41
1
10
25
20
34.6
30
0
0
SPLINE
5
106
100
AcDbEntity
8
1
62
256
6
ByLayer
370
18
48
1
60
0
100
AcDbSpline
70
4
71
1
72
4
73
2
40
0
40
0
40
1
40
1
41
1
10
124
20
-39.4106309272259
30
0
41
1
10
122
20
-42.2174637553664
30
0
0
SPLINE
5
107
100
AcDbEntity
8
1
62
256
6
ByLayer
370
18
48
1
60
0
100
AcDbSpline
70
4
71
3
72
12
73
8
40
0
40
0
40
0
40
0
40
0.268812720709443
40
0.597605301872766
40
0.761234284787693
40
0.896143503604594
40
1
40
1
40
1
40
1
41
1
10
13.8943375672974
20
-29.9139548464691
30
0
41
1
10
13.8789102783285
20
-29.9344364341763
30
0
41
1
10
13.831605345163
20
-29.9775637976281
30
0
41
1
10
13.7433941200963
20
-30.0291632435092
30
0
41
1
10
13.6347220073061
20
-30.0627691562057
30
0
41
1
10
13.5458378558719
20
-30.0777080286646
30
0
41
1
10
13.4878204468283
20
-30.0803887582688
30
0
41
1
10
13.4613248654052
20
-30.080592760317
30
0
0
SPLINE
5
108
100
AcDbEntity
8
1
62
256
6
ByLayer
370
18
48
1
60
0
100
AcDbSpline
70
4
71
3
72
13
73
9
40
0
40
0
40
0
40
0
40
0.004954442043761
40
0.113866519425954
40
0.25345211544925
40
0.473535455387135
40
0.894568595884646
40
1
40
1
40
1
40
1
41
1
10
10.5386751345948
20
-30.0805927603169
30
0
41
1
10
10.537450872409
20
-30.0805926868535
30
0
41
1
10
10.5093477717048
20
-30.0805290593977
30
0
41
1
10
10.4465510164429
20
-30.0768838316286
30
0
41
1
10
10.3457330197466
20
-30.0587733138659
30
0
41
1
10
10.2197164028837
20
-30.013815703074
30
0
41
1
10
10.1481083506258
20
-29.9607825352996
30
0
41
1
10
10.1120558984645
20
-29.9218822348292
30
0
41
1
10
10.1056624327026
20
-29.9139548464691
30
0
0
SPLINE
5
109
100
AcDbEntity
8
1
62
256
6
ByLayer
370
18
48
1
60
0
100
AcDbSpline
70
4
71
3
72
12
73
8
40
0
40
0
40
0
40
0
40
0.268812720709594
40
0.597605301872836
40
0.761234284787752
40
0.896143503604642
40
1
40
1
40
1
40
1
41
1
10
10.1056624327026
20
-9.86941261896613
30
0
41
1
10
10.1210897216714
20
-9.80723406842812
30
0
41
1
10
10.168394654837
20
-9.67528895226023
30
0
41
1
10
10.2566058799037
20
-9.51348309748254
30
0
41
1
10
10.3652779926941
20
-9.40646168968883
30
0
41
1
10
10.454162144128
20
-9.35849990178994
30
0
41
1
10
10.5121795531717
20
-9.34989401091091
30
0
41
1
10
10.5386751345948
20
-9.349221314525
30
0
0
SPLINE
5
10A
100
AcDbEntity
8
1
62
256
6
ByLayer
370
18
48
1
60
0
100
AcDbSpline
70
4
71
3
72
13
73
9
40
0
40
0
40
0
40
0
40
0.0049544420437806
40
0.113866519426
40
0.253452115449322
40
0.473535455387249
40
0.89456859588488
40
1
40
1
40
1
40
1
41
1
10
13.4613248654052
20
-9.34922131452502
30
0
41
1
10
13.462549127591
20
-9.34922155870898
30
0
41
1
10
13.4906522282952
20
-9.3494261052315
30
0
41
1
10
13.5534489835572
20
-9.36116231186526
30
0
41
1
10
13.6542669802534
20
-9.41926340653961
30
0
41
1
10
13.7802835971162
20
-9.56214647013263
30
0
41
1
10
13.8518916493741
20
-9.72702906428665
30
0
41
1
10
13.8879441015356
20
-9.84537467551149
30
0
41
1
10
13.8943375672974
20
-9.8694126189661
30
0
0
SPLINE
5
10B
100
AcDbEntity
8
1
62
256
6
ByLayer
370
18
48
1
60
0
100
AcDbSpline
70
4
71
3
72
12
73
8
40
0
40
0
40
0
40
0
40
0.268812720709525
40
0.597605301872774
40
0.76123428478772
40
0.896143503604597
40
1
40
1
40
1
40
1
41
1
10
13.8943375672974
20
9.8694126189661
30
0
41
1
10
13.8789102783285
20
9.80723406842811
30
0
41
1
10
13.831605345163
20
9.67528895226024
30
0
41
1
10
13.7433941200963
20
9.51348309748255
30
0
41
1
10
13.634722007306
20
9.40646168968885
30
0
41
1
10
13.5458378558719
20
9.35849990178995
30
0
41
1
10
13.4878204468283
20
9.34989401091093
30
0
41
1
10
13.4613248654052
20
9.34922131452502
30
0
0
SPLINE
5
10C
100
AcDbEntity
8
1
62
256
6
ByLayer
370
18
48
1
60
0
100
AcDbSpline
70
4
71
3
72
13
73
9
40
0
40
0
40
0
40
0
40
0.0049544420438186
40
0.113866519425992
40
0.253452115449315
40
0.473535455387259
40
0.89456859588493
40
1
40
1
40
1
40
1
41
1
10
10.5386751345948
20
9.34922131452502
30
0
41
1
10
10.537450872409
20
9.34922155870898
30
0
41
1
10
10.5093477717047
20
9.34942610523148
30
0
41
1
10
10.4465510164428
20
9.36116231186526
30
0
41
1
10
10.3457330197466
20
9.41926340653961
30
0
41
1
10
10.2197164028837
20
9.56214647013266
30
0
41
1
10
10.1481083506258
20
9.72702906428668
30
0
41
1
10
10.1120558984644
20
9.84537467551154
30
0
41
1
10
10.1056624327026
20
9.86941261896613
30
0
0
SPLINE
5
10D
100
AcDbEntity
8
1
62
256
6
ByLayer
370
18
48
1
60
0
100
AcDbSpline
70
4
71
3
72
12
73
8
40
0
40
0
40
0
40
0
40
0.268812720709659
40
0.59760530187284
40
0.761234284787771
40
0.896143503604642
40
1
40
1
40
1
40
1
41
1
10
10.1056624327026
20
29.9139548464691
30
0
41
1
10
10.1210897216715
20
29.9344364341763
30
0
41
1
10
10.168394654837
20
29.9775637976282
30
0
41
1
10
10.2566058799037
20
30.0291632435092
30
0
41
1
10
10.365277992694
20
30.0627691562057
30
0
41
1
10
10.4541621441281
20
30.0777080286646
30
0
41
1
10
10.5121795531717
20
30.0803887582689
30
0
41
1
10
10.5386751345948
20
30.0805927603169
30
0
0
SPLINE
5
10E
100
AcDbEntity
8
1
62
256
6
ByLayer
370
18
48
1
60
0
100
AcDbSpline
70
4
71
3
72
13
73
9
40
0
40
0
40
0
40
0
40
0.0049544420437805
40
0.113866519426
40
0.253452115449322
40
0.47353545538725
40
0.894568595884882
40
1
40
1
40
1
40
1
41
1
10
13.4613248654052
20
30.0805927603169
30
0
41
1
10
13.462549127591
20
30.0805926868535
30
0
41
1
10
13.490652228295
20
30.0805290593976
30
0
41
1
10
13.5534489835573
20
30.0768838316287
30
0
41
1
10
13.6542669802533
20
30.0587733138659
30
0
41
1
10
13.7802835971164
20
30.0138157030739
30
0
41
1
10
13.8518916493741
20
29.9607825352996
30
0
41
1
10
13.8879441015356
20
29.9218822348292
30
0
41
1
10
13.8943375672974
20
29.9139548464691
30
0
0
SPLINE
5
10F
100
AcDbEntity
8
1
62
256
6
ByLayer
370
18
48
1
60
0
100
AcDbSpline
70
4
71
1
72
4
73
2
40
0
40
0
40
1
40
1
41
1
10
124
20
-39.4106309272259
30
0
41
1
10
125
20
-38.6238401753678
30
0
0
SPLINE
5
110
100
AcDbEntity
8
SK1
62
256
6
ByLayer
370
18
48
1
60
0
100
AcDbSpline
70
4
71
2
72
6
73
3
40
0
40
0
40
0
40
1
40
1
40
1
41
1
10
-0.200000000000088
20
7.0663563791504
30
0
41
1
10
-0.089965268943601
20
6.84641718940994
30
0
41
1
10
-0.0214324705979436
20
6.61014902062295
30
0
0
SPLINE
5
111
100
AcDbEntity
8
SK1
62
256
6
ByLayer
370
18
48
1
60
0
100
AcDbSpline
70
4
71
1
72
4
73
2
40
0
40
0
40
1
40
1
41
1
10
-0.0214324705979436
20
6.61014902062295
30
0
41
1
10
0
20
6.53763380315523
30
0
0
SPLINE
5
112
100
AcDbEntity
8
SK1
62
256
6
ByLayer
370
18
48
1
60
0
100
AcDbSpline
70
4
71
3
72
17
73
13
40
0
40
0
40
0
40
0
40
0.0298547527790896
40
0.0525781980068949
40
0.0702552594574071
40
0.0879570282206619
40
0.111562258438707
40
0.153224651801902
40
0.282447345849233
40
0.55376794701948
40
0.826225344354151
40
1
40
1
40
1
40
1
41
1
10
-0.40000000000002
20
6.10423156158009
30
0
41
1
10
-0.394253616263327
20
6.09797454756711
30
0
41
1
10
-0.382913537569209
20
6.08923142505263
30
0
41
1
10
-0.364786670968286
20
6.08123431234789
30
0
41
1
10
-0.348123200226283
20
6.08048188623958
30
0
41
1
10
-0.331686692288031
20
6.08578067628331
30
0
41
1
10
-0.312103115453624
20
6.1006382942572
30
0
41
1
10
-0.278950759627406
20
6.14757789301998
30
0
41
1
10
-0.240075114125943
20
6.27084073435061
30
0
41
1
10
-0.210538570778112
20
6.46014710085157
30
0
41
1
10
-0.202207076791481
20
6.66173364401433
30
0
41
1
10
-0.199932550514475
20
6.78606967214952
30
0
41
1
10
-0.20000000000006
20
6.83438537300098
30
0
0
SPLINE
5
113
100
AcDbEntity
8
SK1
62
256
6
ByLayer
370
18
48
1
60
0
100
AcDbSpline
70
4
71
3
72
17
73
13
40
0
40
0
40
0
40
0
40
0.381018898312301
40
0.533406587532337
40
0.685314393402134
40
0.776940313646899
40
0.826439455395078
40
0.863683733136109
40
0.893990912348023
40
0.924297367659275
40
0.967822770240201
40
1
40
1
40
1
40
1
41
1
10
-1.30710678118901
20
4.69591747911661
30
0
41
1
10
-1.26801027582607
20
4.94329991172852
30
0
41
1
10
-1.18690631520151
20
5.27981270933089
30
0
41
1
10
-1.04830581448925
20
5.69927235921803
30
0
41
1
10
-0.93756619085309
20
5.9303016820187
30
0
41
1
10
-0.825101510100794
20
6.08660263394613
30
0
41
1
10
-0.732996132442253
20
6.16410159398339
30
0
41
1
10
-0.658447126217894
20
6.19794512996769
30
0
41
1
10
-0.588823204324584
20
6.20534736395778
30
0
41
1
10
-0.51642927294958
20
6.18985053412157
30
0
41
1
10
-0.453132891096487
20
6.15239431560645
30
0
41
1
10
-0.414932067199544
20
6.11980218297449
30
0
41
1
10
-0.400000000000034
20
6.10423156158013
30
0
0
SPLINE
5
114
100
AcDbEntity
8
SK1
62
256
6
ByLayer
370
18
48
1
60
0
100
AcDbSpline
70
4
71
3
72
17
73
13
40
0
40
0
40
0
40
0
40
0.0428240807901585
40
0.0860264986196293
40
0.116365121965829
40
0.146702344468332
40
0.190290998790325
40
0.271171318915647
40
0.405589755789821
40
0.54065849312887
40
0.770235905397074
40
1
40
1
40
1
40
1
41
1
10
-0.400000000000034
20
-6.10423197315538
30
0
41
1
10
-0.419811939807858
20
-6.1254563471201
30
0
41
1
10
-0.464215810549277
20
-6.16118054942616
30
0
41
1
10
-0.537404296379776
20
-6.19762954520597
30
0
41
1
10
-0.611358310763109
20
-6.20533675022224
30
0
41
1
10
-0.683800317523136
20
-6.18970784507667
30
0
41
1
10
-0.77626342866715
20
-6.13544055421011
30
0
41
1
10
-0.89057077191724
20
-6.00617655880074
30
0
41
1
10
-1.00159332888059
20
-5.80742857092618
30
0
41
1
10
-1.11592044967102
20
-5.50690539843434
30
0
41
1
10
-1.22095392591018
20
-5.13705997601832
30
0
41
1
10
-1.28227297421152
20
-4.84440881640161
30
0
41
1
10
-1.30710678118913
20
-4.69591515672512
30
0
0
SPLINE
5
115
100
AcDbEntity
8
SK1
62
256
6
ByLayer
370
18
48
1
60
0
100
AcDbSpline
70
4
71
3
72
18
73
14
40
0
40
0
40
0
40
0
40
0.457601954979946
40
0.670228390503605
40
0.756258954025563
40
0.840913625537985
40
0.872113365658749
40
0.903550890302637
40
0.922117238676576
40
0.940788516967644
40
0.95798996254858
40
0.987812257341818
40
1
40
1
40
1
40
1
41
1
10
-0.200000000000046
20
-6.83438539664976
30
0
41
1
10
-0.196288555477423
20
-6.70659076258024
30
0
41
1
10
-0.206763221450444
20
-6.51941818197281
30
0
41
1
10
-0.235048025007174
20
-6.3057498964133
30
0
41
1
10
-0.262320806799934
20
-6.19921380029857
30
0
41
1
10
-0.283273616052739
20
-6.14414172095728
30
0
41
1
10
-0.306505140720972
20
-6.1079550454018
30
0
41
1
10
-0.323460845652491
20
-6.09075458849212
30
0
41
1
10
-0.34157160095198
20
-6.08179566830227
30
0
41
1
10
-0.357322427113786
20
-6.08023537590973
30
0
41
1
10
-0.375278755299064
20
-6.08482142558687
30
0
41
1
10
-0.389098606433819
20
-6.09409200313947
30
0
41
1
10
-0.397637448449871
20
-6.10181966298609
30
0
41
1
10
-0.400000000000034
20
-6.10423197315535
30
0
0
SPLINE
5
116
100
AcDbEntity
8
SK1
62
256
6
ByLayer
370
18
48
1
60
0
100
AcDbSpline
70
4
71
2
72
6
73
3
40
0
40
0
40
0
40
1
40
1
40
1
41
1
10
-2.84E-14
20
-6.53762644691741
30
0
41
1
10
-0.0701685688191844
20
-6.81436012170807
30
0
41
1
10
-0.200000000000387
20
-7.0663565904932
30
0
0
SPLINE
5
117
100
AcDbEntity
8
SK1
62
256
6
ByLayer
370
18
48
1
60
0
100
AcDbSpline
70
4
71
3
72
15
73
11
40
0
40
0
40
0
40
0
40
0.0836108229705438
40
0.147309200837472
40
0.196930826754947
40
0.246619311834563
40
0.31302680635507
40
0.430354442519514
40
0.794610575592735
40
1
40
1
40
1
40
1
41
1
10
-0.400000000000006
20
-21.7861777489074
30
0
41
1
10
-0.394244317885608
20
-21.7856203706681
30
0
41
1
10
-0.382886991987775
20
-21.7855999177967
30
0
41
1
10
-0.36472879422206
20
-21.7873615383898
30
0
41
1
10
-0.348034685444404
20
-21.7909625150534
30
0
41
1
10
-0.331557272921103
20
-21.7963186578609
30
0
41
1
10
-0.311911469661467
20
-21.805229043221
30
0
41
1
10
-0.278607968463277
20
-21.8266360793572
30
0
41
1
10
-0.257368649872788
20
-21.8509530726105
30
0
41
1
10
-0.243618916608042
20
-21.8694930798618
30
0
41
1
10
-0.239987680672329
20
-21.8759237371583
30
0
0
SPLINE
5
118
100
AcDbEntity
8
SK1
62
256
6
ByLayer
370
18
48
1
60
0
100
AcDbSpline
70
4
71
3
72
11
73
7
40
0
40
0
40
0
40
0
40
0.5
40
0.75
40
0.875
40
1
40
1
40
1
40
1
41
1
10
-3.00000000000003
20
22.0000004290441
30
0
41
1
10
-3.00104212938066
20
14.6666670253336
30
0
41
1
10
-2.99842247665802
20
3.66666955431822
30
0
41
1
10
-3.00197548649521
20
-9.16667110864414
30
0
41
1
10
-2.99604902700966
20
-16.4999918152996
30
0
41
1
10
-3.00790194598065
20
-20.1666840974692
30
0
41
1
10
-3
20
-22.0000004375344
30
0
0
SPLINE
5
119
100
AcDbEntity
8
SK1
62
256
6
ByLayer
370
18
48
1
60
0
100
AcDbSpline
70
4
71
2
72
6
73
3
40
0
40
0
40
0
40
1
40
1
40
1
41
1
10
-3
20
-22.0000004375346
30
0
41
1
10
-19.7502365839533
20
-21.5791761834949
30
0
41
1
10
-36.5004731679066
20
-21.1583519294552
30
0
0
SPLINE
5
11A
100
AcDbEntity
8
SK1
62
256
6
ByLayer
370
18
48
1
60
0
100
AcDbSpline
70
4
71
2
72
6
73
3
40
0
40
0
40
0
40
1
40
1
40
1
41
1
10
-36.5004731679066
20
21.1583519212896
30
0
41
1
10
-19.7502365839533
20
21.5791761751668
30
0
41
1
10
-3
20
22.0000004290441
30
0
0
SPLINE
5
11B
100
AcDbEntity
8
SK1
62
256
6
ByLayer
370
18
48
1
60
0
100
AcDbSpline
70
4
71
3
72
17
73
13
40
0
40
0
40
0
40
0
40
0.0580225012479568
40
0.118348644799447
40
0.239045605916038
40
0.359733859479262
40
0.420057331685087
40
0.540737207212095
40
0.661413446181941
40
0.78208708317455
40
0.891043037348929
40
1
40
1
40
1
40
1
41
1
10
-2.1999369715594
20
-22.0201008059928
30
0
41
1
10
-2.19994111039232
20
-22.0199534703522
30
0
41
1
10
-2.19994895187919
20
-22.0110355151028
30
0
41
1
10
-2.19996201027075
20
-21.9567319822777
30
0
41
1
10
-2.19997487537999
20
-21.8226368757694
30
0
41
1
10
-2.1999836282104
20
-21.6082265212774
30
0
41
1
10
-2.19999009566095
20
-21.3379022336915
30
0
41
1
10
-2.19999459150208
20
-21.0133950374216
30
0
41
1
10
-2.19999774058272
20
-20.5423536268445
30
0
41
1
10
-2.19999929850849
20
-20.0115636298918
30
0
41
1
10
-2.19999991154329
20
-19.4324285463826
30
0
41
1
10
-2.20000003133568
20
-19.0211973864862
30
0
41
1
10
-2.2
20
-18.805799359702
30
0
0
SPLINE
5
11C
100
AcDbEntity
8
SK1
62
256
6
ByLayer
370
18
48
1
60
0
100
AcDbSpline
70
4
71
2
72
6
73
3
40
0
40
0
40
0
40
1
40
1
40
1
41
1
10
-2.19492341897842
20
-22.0202267638885
30
0
41
1
10
-2.59746170948925
20
-22.0101136007116
30
0
41
1
10
-3
20
-22.0000004375346
30
0
0
SPLINE
5
11D
100
AcDbEntity
8
SK1
62
256
6
ByLayer
370
18
48
1
60
0
100
AcDbSpline
70
4
71
2
72
6
73
3
40
0
40
0
40
0
40
1
40
1
40
1
41
1
10
-3
20
22.0000004290441
30
0
41
1
10
-2.59746170948925
20
22.0101135922172
30
0
41
1
10
-2.19492341897842
20
22.0202267553903
30
0
0
SPLINE
5
11E
100
AcDbEntity
8
SK1
62
256
6
ByLayer
370
18
48
1
60
0
100
AcDbSpline
70
4
71
3
72
16
73
12
40
0
40
0
40
0
40
0
40
0.184646545889678
40
0.369282001002234
40
0.446570578458753
40
0.601218053327681
40
0.678508667543342
40
0.755800290912626
40
0.910480712180171
40
0.987777323109331
40
1
40
1
40
1
40
1
41
1
10
-2.2
20
18.8057994753425
30
0
41
1
10
-2.20000018272162
20
19.1716156324776
30
0
41
1
10
-2.19999974454274
20
19.8452654753845
30
0
41
1
10
-2.19999793915497
20
20.5243306402594
30
0
41
1
10
-2.19999408510635
20
21.0589412393564
30
0
41
1
10
-2.19998945764309
20
21.3894116400501
30
0
41
1
10
-2.19998210572919
20
21.6478613936429
30
0
41
1
10
-2.19997253629165
20
21.8562295107396
30
0
41
1
10
-2.19995900721283
20
21.985900820783
30
0
41
1
10
-2.19994416653216
20
22.0186595225648
30
0
41
1
10
-2.19993796684442
20
22.0200932305392
30
0
41
1
10
-2.19993658405038
20
22.0201031381142
30
0
0
SPLINE
5
11F
100
AcDbEntity
8
SK1
62
256
6
ByLayer
370
18
48
1
60
0
100
AcDbSpline
70
4
71
3
72
32
73
28
40
0
40
0
40
0
40
0
40
0.0716334260949745
40
0.143256529189987
40
0.190050573724377
40
0.213441193233611
40
0.260240138007838
40
0.283631588752894
40
0.30702344732284
40
0.35383553582361
40
0.37722934446279
40
0.424062554554733
40
0.447460003204659
40
0.494326234429853
40
0.517726623753285
40
0.564594278770554
40
0.611439644929098
40
0.634834243232038
40
0.658227890547434
40
0.681620767793085
40
0.728429060974259
40
0.75182044537922
40
0.798619714518877
40
0.845415336969496
40
0.892208389551173
40
0.938999579257363
40
1
40
1
40
1
40
1
41
1
10
-2.20000000000003
20
-13.0172213664192
30
0
41
1
10
-2.20000012546207
20
-12.5163682521981
30
0
41
1
10
-2.19999979855274
20
-11.4787806153271
30
0
41
1
10
-2.19999832423323
20
-10.0061434571944
30
0
41
1
10
-2.19999567121347
20
-8.84940025016625
30
0
41
1
10
-2.19999244201179
20
-7.86699827696304
30
0
41
1
10
-2.19998889087636
20
-7.05834071262694
30
0
41
1
10
-2.19998411097178
20
-6.22762972868352
30
0
41
1
10
-2.19997844788844
20
-5.38216671385247
30
0
41
1
10
-2.19997134280065
20
-4.51445976226715
30
0
41
1
10
-2.19996087692471
20
-3.40444474467739
30
0
41
1
10
-2.19995155028431
20
-2.49604539408687
30
0
41
1
10
-2.19994118537217
20
-1.34163268177012
30
0
41
1
10
-2.19993602981931
20
-0.404861182855139
30
0
41
1
10
-2.19993737251807
20
0.767166940003845
30
0
41
1
10
-2.19994585803009
20
1.93426260184156
30
0
41
1
10
-2.19995759722258
20
3.07716034841922
30
0
41
1
10
-2.199966275069
20
3.97166295154367
30
0
41
1
10
-2.19997225400365
20
4.63218041454773
30
0
41
1
10
-2.19997931359299
20
5.49902983221432
30
0
41
1
10
-2.19998495658032
20
6.34468898110299
30
0
41
1
10
-2.19999038670213
20
7.37364443866719
30
0
41
1
10
-2.19999436945497
20
8.3748439391999
30
0
41
1
10
-2.19999734755102
20
9.53096311125961
30
0
41
1
10
-2.19999902893714
20
10.6415225398892
30
0
41
1
10
-2.19999986677117
20
11.8140230232377
30
0
41
1
10
-2.2000000582606
20
12.5907288729278
30
0
41
1
10
-2.20000000000003
20
13.0172198853364
30
0
0
SPLINE
5
120
100
AcDbEntity
8
SK1
62
256
6
ByLayer
370
18
48
1
60
0
100
AcDbSpline
70
4
71
3
72
13
73
9
40
0
40
0
40
0
40
0
40
0.239458034039822
40
0.368362242523172
40
0.50000171940828
40
0.631640907399673
40
0.760544321541671
40
1
40
1
40
1
40
1
41
1
10
-1.99999999999999
20
-21.8251283317571
30
0
41
1
10
-2.02607218220658
20
-21.8253815759776
30
0
41
1
10
-2.06363558166035
20
-21.832499461233
30
0
41
1
10
-2.11047835037539
20
-21.8567272581279
30
0
41
1
10
-2.14242263587784
20
-21.8827049843058
30
0
41
1
10
-2.16840067179331
20
-21.9146489043199
30
0
41
1
10
-2.19262875645043
20
-21.9614911190379
30
0
41
1
10
-2.1997467197633
20
-21.9990541435572
30
0
41
1
10
-2.2
20
-22.0251260837646
30
0
0
SPLINE
5
121
100
AcDbEntity
8
SK1
62
256
6
ByLayer
370
18
48
1
60
0
100
AcDbSpline
70
4
71
3
72
13
73
9
40
0
40
0
40
0
40
0
40
0.239455673358875
40
0.368359087136623
40
0.499998275767214
40
0.631637753936861
40
0.760541963956492
40
1
40
1
40
1
40
1
41
1
10
-2.2
20
22.0251260775078
30
0
41
1
10
-2.19974671959666
20
21.9990541369823
30
0
41
1
10
-2.1926287562609
20
21.9614911120955
30
0
41
1
10
-2.16840067169751
20
21.9146488976998
30
0
41
1
10
-2.14242263580758
20
21.8827049776713
30
0
41
1
10
-2.11047835033027
20
21.8567272514908
30
0
41
1
10
-2.06363558177694
20
21.8324994546095
30
0
41
1
10
-2.02607218225589
20
21.8253815693237
30
0
41
1
10
-1.99999999999997
20
21.8251283250689
30
0
0
SPLINE
5
122
100
AcDbEntity
8
SK1
62
256
6
ByLayer
370
18
48
1
60
0
100
AcDbSpline
70
4
71
3
72
17
73
13
40
0
40
0
40
0
40
0
40
0.165081191613286
40
0.248797061165695
40
0.332496679566327
40
0.415277825743967
40
0.498046968683792
40
0.583249585425435
40
0.668465384839979
40
0.750712143588994
40
0.832974102657854
40
1
40
1
40
1
40
1
41
1
10
-1.30710678118655
20
4.69591747913027
30
0
41
1
10
-1.39798477932823
20
4.20540076485726
30
0
41
1
10
-1.51864992901824
20
3.45199087458016
30
0
41
1
10
-1.65120335434382
20
2.41585133978335
30
0
41
1
10
-1.7281209501037
20
1.62293542031033
30
0
41
1
10
-1.77718425553138
20
0.822446580427124
30
0
41
1
10
-1.79522923957644
20
0.0111379780861092
30
0
41
1
10
-1.77806664947627
20
-0.808218120760672
30
0
41
1
10
-1.72842463498334
20
-1.61975783719147
30
0
41
1
10
-1.65159875379376
20
-2.41111733942151
30
0
41
1
10
-1.51984228358836
20
-3.44452139763558
30
0
41
1
10
-1.39909887084137
20
-4.19959953418547
30
0
41
1
10
-1.30710678118682
20
-4.69591515673732
30
0
0
SPLINE
5
123
100
AcDbEntity
8
SK1
62
256
6
ByLayer
370
18
48
1
60
0
100
AcDbSpline
70
4
71
2
72
6
73
3
40
0
40
0
40
0
40
1
40
1
40
1
41
1
10
-2
20
21.8251283250689
30
0
41
1
10
-1.19999999999999
20
21.8251283250689
30
0
41
1
10
-0.400000000000006
20
21.8251283250689
30
0
0
SPLINE
5
124
100
AcDbEntity
8
SK1
62
256
6
ByLayer
370
18
48
1
60
0
100
AcDbSpline
70
4
71
2
72
6
73
3
40
0
40
0
40
0
40
1
40
1
40
1
41
1
10
-0.400000000000006
20
-21.8251283317571
30
0
41
1
10
-1.2
20
-21.8251283317571
30
0
41
1
10
-2
20
-21.8251283317571
30
0
0
SPLINE
5
125
100
AcDbEntity
8
SK1
62
256
6
ByLayer
370
18
48
1
60
0
100
AcDbSpline
70
4
71
2
72
6
73
3
40
0
40
0
40
0
40
1
40
1
40
1
41
1
10
-36.5004804793292
20
-21.1581635957923
30
0
41
1
10
-37.2502401090885
20
-20.6998101178916
30
0
41
1
10
-38
20
-20.2414566333231
30
0
0
SPLINE
5
126
100
AcDbEntity
8
SK1
62
256
6
ByLayer
370
18
48
1
60
0
100
AcDbSpline
70
4
71
2
72
6
73
3
40
0
40
0
40
0
40
1
40
1
40
1
41
1
10
-38
20
20.2414566313418
30
0
41
1
10
-37.2502401116071
20
20.6998101158726
30
0
41
1
10
-36.5004804844792
20
21.1581635937518
30
0
0
SPLINE
5
127
100
AcDbEntity
8
SK1
62
256
6
ByLayer
370
18
48
1
60
0
100
AcDbSpline
70
4
71
3
72
14
73
10
40
0
40
0
40
0
40
0
40
0.234992955665853
40
0.586838304583054
40
0.729765152142986
40
0.870720132140521
40
0.922530499224798
40
0.974734916397716
40
1
40
1
40
1
40
1
41
1
10
-0.207673668376856
20
21.9536730667419
30
0
41
1
10
-0.209805894076268
20
21.9434919053698
30
0
41
1
10
-0.218415475994419
20
21.916789457274
30
0
41
1
10
-0.235145935078862
20
21.8803316163394
30
0
41
1
10
-0.262329864883895
20
21.8447819277492
30
0
41
1
10
-0.283319517987408
20
21.8243041219635
30
0
41
1
10
-0.306559269234924
20
21.8085271449433
30
0
41
1
10
-0.3228537073295
20
21.7999053201159
30
0
41
1
10
-0.334874956996544
20
21.7953950999097
30
0
41
1
10
-0.339015866826586
20
21.7939602362279
30
0
0
SPLINE
5
128
100
AcDbEntity
8
SK1
62
256
6
ByLayer
370
18
48
1
60
0
100
AcDbSpline
70
4
71
3
72
18
73
14
40
0
40
0
40
0
40
0
40
0.0001428988243291
40
0.000335105505303
40
0.000835161454893
40
0.0024842032489302
40
0.0088297043226867
40
0.0350744174066885
40
0.150340224157689
40
0.282236682817397
40
0.466797677203067
40
0.713055577248852
40
1
40
1
40
1
40
1
41
1
10
-0.329402523511973
20
21.798611985044
30
0
41
1
10
-0.329319929094581
20
21.7986433876661
30
0
41
1
10
-0.329134157491694
20
21.798715526928
30
0
41
1
10
-0.32871140916248
20
21.7988909825512
30
0
41
1
10
-0.327855123911746
20
21.7992871663363
30
0
41
1
10
-0.32616234525959
20
21.8002463355394
30
0
41
1
10
-0.322746535771714
20
21.8028743470454
30
0
41
1
10
-0.315734726746868
20
21.8112428062948
30
0
41
1
10
-0.30982655648225
20
21.8229925850965
30
0
41
1
10
-0.302814931768793
20
21.8377782718662
30
0
41
1
10
-0.29638232102576
20
21.8512984698933
30
0
41
1
10
-0.290009555977306
20
21.8597835850218
30
0
41
1
10
-0.286096366321615
20
21.8587446635302
30
0
41
1
10
-0.284307241413643
20
21.8559940343058
30
0
0
SPLINE
5
129
100
AcDbEntity
8
SK1
62
256
6
ByLayer
370
18
48
1
60
0
100
AcDbSpline
70
4
71
3
72
27
73
23
40
0
40
0
40
0
40
0
40
0.0001073837273336
40
0.0002199257260335
40
0.000476625864989
40
0.0011865740277676
40
0.0035852595147813
40
0.012490490016848
40
0.0457769705233867
40
0.163318689565461
40
0.327164198681053
40
0.511882774810852
40
0.693351456127395
40
0.849012306677493
40
0.957780984514014
40
0.988249812439568
40
0.99645359653224
40
0.998724529585105
40
0.999437642960609
40
0.999713155873869
40
0.999957562842564
40
1
40
1
40
1
40
1
41
1
10
-0.400000000000034
20
21.8251283250689
30
0
41
1
10
-0.3999529298992
20
21.8251283265248
30
0
41
1
10
-0.399858861981443
20
21.8251283580732
30
0
41
1
10
-0.399662497145769
20
21.8251285665603
30
0
41
1
10
-0.399278470949597
20
21.8251294216707
30
0
41
1
10
-0.398474985793229
20
21.8251332544323
30
0
41
1
10
-0.39692112909259
20
21.8251483751902
30
0
41
1
10
-0.39385912367726
20
21.8252014558424
30
0
41
1
10
-0.388019884764503
20
21.8253193363482
30
0
41
1
10
-0.381306411447483
20
21.824998806945
30
0
41
1
10
-0.373331587240742
20
21.8229562031885
30
0
41
1
10
-0.365230299211589
20
21.8184392040292
30
0
41
1
10
-0.357082354948105
20
21.8117912809213
30
0
41
1
10
-0.348925199791367
20
21.8046800520319
30
0
41
1
10
-0.34198136032073
20
21.7995530521334
30
0
41
1
10
-0.335860905878192
20
21.797731238417
30
0
41
1
10
-0.332662002646615
20
21.7977848107773
30
0
41
1
10
-0.331028369383091
20
21.7980971619746
30
0
41
1
10
-0.330191886946409
20
21.7983373080338
30
0
41
1
10
-0.329761975032412
20
21.7984804183973
30
0
41
1
10
-0.329535293255631
20
21.7985620085396
30
0
41
1
10
-0.329419709730189
20
21.798605484753
30
0
41
1
10
-0.329402523511988
20
21.798611985044
30
0
0
SPLINE
5
12A
100
AcDbEntity
8
SK1
62
256
6
ByLayer
370
18
48
1
60
0
100
AcDbSpline
70
4
71
1
72
4
73
2
40
0
40
0
40
1
40
1
41
1
10
-2.84E-14
20
7.47795498707186
30
0
41
1
10
-0.200000000000003
20
7.45410184860193
30
0
0
SPLINE
5
12B
100
AcDbEntity
8
SK1
62
256
6
ByLayer
370
18
48
1
60
0
100
AcDbSpline
70
4
71
1
72
4
73
2
40
0
40
0
40
1
40
1
41
1
10
-0.20000000000006
20
7.06635637915059
30
0
41
1
10
-0.20000000000006
20
7.4541018486019
30
0
0
SPLINE
5
12C
100
AcDbEntity
8
SK1
62
256
6
ByLayer
370
18
48
1
60
0
100
AcDbSpline
70
4
71
1
72
4
73
2
40
0
40
0
40
1
40
1
41
1
10
-0.20000000000006
20
-7.45410255809308
30
0
41
1
10
-0.20000000000006
20
-7.0663565904932
30
0
0
SPLINE
5
12D
100
AcDbEntity
8
SK1
62
256
6
ByLayer
370
18
48
1
60
0
100
AcDbSpline
70
4
71
1
72
4
73
2
40
0
40
0
40
1
40
1
41
1
10
-0.200000000000003
20
-7.45410255809308
30
0
41
1
10
-2.84E-14
20
-7.47795571927743
30
0
0
SPLINE
5
12E
100
AcDbEntity
8
SK1
62
256
6
ByLayer
370
18
48
1
60
0
100
AcDbSpline
70
4
71
2
72
6
73
3
40
0
40
0
40
0
40
1
40
1
40
1
41
1
10
-0.239987680672314
20
-21.8759237371583
30
0
41
1
10
-0.201803252096226
20
-21.9385996467969
30
0
41
1
10
-0.201982973539657
20
-21.985119029386
30
0
0
SPLINE
5
12F
100
AcDbEntity
8
SK1
62
256
6
ByLayer
370
18
48
1
60
0
100
AcDbSpline
70
4
71
3
72
10
73
6
40
0
40
0
40
0
40
0
40
0.195192716246578
40
0.724559276326008
40
1
40
1
40
1
40
1
41
1
10
-0.230993204183022
20
-21.9164923241347
30
0
41
1
10
-0.231497618730202
20
-21.91683330626
30
0
41
1
10
-0.233465149662663
20
-21.9158515106345
30
0
41
1
10
-0.236538654043869
20
-21.9034344467131
30
0
41
1
10
-0.239606216573748
20
-21.8825943799139
30
0
41
1
10
-0.240712915354493
20
-21.8742360135379
30
0
0
SPLINE
5
130
100
AcDbEntity
8
1
62
256
6
ByLayer
370
18
48
1
60
0
100
AcDbSpline
70
4
71
3
72
12
73
8
40
0
40
0
40
0
40
0
40
0.109646161983808
40
0.399606241128654
40
0.690338005289501
40
0.980443448942484
40
1
40
1
40
1
40
1
41
1
10
108.731950772814
20
-44.9999996576726
30
0
41
1
10
108.696074599519
20
-45.0000328605115
30
0
41
1
10
108.572737703639
20
-44.9987497889751
30
0
41
1
10
108.407147787311
20
-44.987816097172
30
0
41
1
10
108.281813298766
20
-44.9575092169118
30
0
41
1
10
108.250926005445
20
-44.9250305735675
30
0
41
1
10
108.249998243983
20
-44.9049681800424
30
0
41
1
10
108.250000002806
20
-44.9036881866829
30
0
0
SPLINE
5
131
100
AcDbEntity
8
1
62
256
6
ByLayer
370
18
48
1
60
0
100
AcDbSpline
70
4
71
3
72
25
73
21
40
0
40
0
40
0
40
0
40
0.0180737668453327
40
0.0833130245406946
40
0.13897968254416
40
0.194871419946502
40
0.250489421225339
40
0.297800462143407
40
0.345287179535789
40
0.392581326875353
40
0.446331983496743
40
0.500080098381988
40
0.563017182930971
40
0.625959849623292
40
0.688816981936243
40
0.751689917661213
40
0.816132196323421
40
0.880599188608101
40
0.95005892049306
40
1
40
1
40
1
40
1
41
1
10
121.268192645199
20
-44.9999997068816
30
0
41
1
10
121.234647433096
20
-44.9997828924798
30
0
41
1
10
121.072101263106
20
-44.9976522846084
30
0
41
1
10
120.744338939229
20
-44.9860099823758
30
0
41
1
10
120.204972636625
20
-44.9537030598763
30
0
41
1
10
119.599557584257
20
-44.9145210274088
30
0
41
1
10
118.938387056495
20
-44.8728166864501
30
0
41
1
10
118.242213636444
20
-44.8337695798301
30
0
41
1
10
117.534915508743
20
-44.8003010501491
30
0
41
1
10
116.753415218061
20
-44.7716263117875
30
0
41
1
10
115.903838699888
20
-44.7522567487428
30
0
41
1
10
114.948563089544
20
-44.7444901853197
30
0
41
1
10
113.941285958275
20
-44.7541488084509
30
0
41
1
10
112.913410490825
20
-44.7814929557455
30
0
41
1
10
111.947106913908
20
-44.8232800078571
30
0
41
1
10
111.056981735529
20
-44.8727211793703
30
0
41
1
10
110.26923411857
20
-44.9230652236291
30
0
41
1
10
109.58016606014
20
-44.9675762161214
30
0
41
1
10
109.075120891704
20
-44.9942594303954
30
0
41
1
10
108.823677867963
20
-44.9996226226329
30
0
41
1
10
108.731950772814
20
-44.9999996576726
30
0
0
SPLINE
5
132
100
AcDbEntity
8
1
62
256
6
ByLayer
370
18
48
1
60
0
100
AcDbSpline
70
4
71
3
72
12
73
8
40
0
40
0
40
0
40
0
40
0.109646161983802
40
0.399606241128649
40
0.690338005289496
40
0.98044344894248
40
1
40
1
40
1
40
1
41
1
10
77.7319507728139
20
-44.9999996576726
30
0
41
1
10
77.6960745995188
20
-45.0000328605115
30
0
41
1
10
77.5727377036388
20
-44.998749788975
30
0
41
1
10
77.4071477873106
20
-44.987816097172
30
0
41
1
10
77.2818132987657
20
-44.9575092169118
30
0
41
1
10
77.2509260054453
20
-44.9250305735675
30
0
41
1
10
77.2499982439832
20
-44.9049681800424
30
0
41
1
10
77.2500000028058
20
-44.9036881866829
30
0
0
SPLINE
5
133
100
AcDbEntity
8
1
62
256
6
ByLayer
370
18
48
1
60
0
100
AcDbSpline
70
4
71
3
72
25
73
21
40
0
40
0
40
0
40
0
40
0.0180737668453347
40
0.0833130245406963
40
0.138979682544162
40
0.194871419946503
40
0.250489421225341
40
0.297800462143409
40
0.345287179535791
40
0.392581326875354
40
0.446331983496743
40
0.500080098381988
40
0.56301718293097
40
0.625959849623291
40
0.688816981936242
40
0.751689917661212
40
0.816132196323419
40
0.8805991886081
40
0.950058920493059
40
1
40
1
40
1
40
1
41
1
10
90.2681926451991
20
-44.9999997068816
30
0
41
1
10
90.2346474330959
20
-44.9997828924798
30
0
41
1
10
90.0721012631056
20
-44.9976522846084
30
0
41
1
10
89.7443389392293
20
-44.9860099823759
30
0
41
1
10
89.2049726366252
20
-44.9537030598763
30
0
41
1
10
88.5995575842569
20
-44.9145210274088
30
0
41
1
10
87.9383870564951
20
-44.8728166864501
30
0
41
1
10
87.2422136364442
20
-44.8337695798301
30
0
41
1
10
86.5349155087425
20
-44.8003010501491
30
0
41
1
10
85.7534152180612
20
-44.7716263117875
30
0
41
1
10
84.9038386998881
20
-44.7522567487428
30
0
41
1
10
83.9485630895441
20
-44.7444901853197
30
0
41
1
10
82.941285958275
20
-44.7541488084509
30
0
41
1
10
81.9134104908249
20
-44.7814929557455
30
0
41
1
10
80.9471069139085
20
-44.8232800078571
30
0
41
1
10
80.0569817355291
20
-44.8727211793703
30
0
41
1
10
79.2692341185704
20
-44.9230652236291
30
0
41
1
10
78.5801660601404
20
-44.9675762161214
30
0
41
1
10
78.0751208917043
20
-44.9942594303954
30
0
41
1
10
77.8236778679631
20
-44.9996226226329
30
0
41
1
10
77.7319507728139
20
-44.9999996576726
30
0
0
SPLINE
5
134
100
AcDbEntity
8
1
62
256
6
ByLayer
370
18
48
1
60
0
100
AcDbSpline
70
4
71
3
72
12
73
8
40
0
40
0
40
0
40
0
40
0.109646161983811
40
0.399606241128657
40
0.690338005289502
40
0.980443448942485
40
1
40
1
40
1
40
1
41
1
10
46.7319507728139
20
-44.9999996576726
30
0
41
1
10
46.6960745995188
20
-45.0000328605115
30
0
41
1
10
46.5727377036389
20
-44.998749788975
30
0
41
1
10
46.4071477873105
20
-44.987816097172
30
0
41
1
10
46.2818132987658
20
-44.9575092169118
30
0
41
1
10
46.2509260054449
20
-44.9250305735675
30
0
41
1
10
46.2499982439832
20
-44.9049681800424
30
0
41
1
10
46.2500000028058
20
-44.9036881866829
30
0
0
SPLINE
5
135
100
AcDbEntity
8
1
62
256
6
ByLayer
370
18
48
1
60
0
100
AcDbSpline
70
4
71
3
72
25
73
21
40
0
40
0
40
0
40
0
40
0.0180737668453293
40
0.0833130245406911
40
0.138979682544158
40
0.194871419946499
40
0.250489421225336
40
0.297800462143404
40
0.345287179535788
40
0.39258132687535
40
0.446331983496741
40
0.500080098381988
40
0.563017182930971
40
0.625959849623291
40
0.688816981936243
40
0.751689917661212
40
0.816132196323421
40
0.880599188608102
40
0.950058920493061
40
1
40
1
40
1
40
1
41
1
10
59.2681926451991
20
-44.9999997068816
30
0
41
1
10
59.2346474330959
20
-44.9997828924798
30
0
41
1
10
59.0721012631056
20
-44.9976522846084
30
0
41
1
10
58.7443389392293
20
-44.9860099823759
30
0
41
1
10
58.2049726366252
20
-44.9537030598763
30
0
41
1
10
57.5995575842569
20
-44.9145210274088
30
0
41
1
10
56.9383870564952
20
-44.8728166864501
30
0
41
1
10
56.2422136364442
20
-44.8337695798301
30
0
41
1
10
55.5349155087426
20
-44.8003010501491
30
0
41
1
10
54.7534152180612
20
-44.7716263117875
30
0
41
1
10
53.9038386998881
20
-44.7522567487428
30
0
41
1
10
52.9485630895441
20
-44.7444901853197
30
0
41
1
10
51.941285958275
20
-44.7541488084509
30
0
41
1
10
50.9134104908249
20
-44.7814929557455
30
0
41
1
10
49.9471069139084
20
-44.8232800078571
30
0
41
1
10
49.0569817355291
20
-44.8727211793703
30
0
41
1
10
48.2692341185704
20
-44.9230652236291
30
0
41
1
10
47.5801660601403
20
-44.9675762161214
30
0
41
1
10
47.0751208917043
20
-44.9942594303953
30
0
41
1
10
46.8236778679632
20
-44.999622622633
30
0
41
1
10
46.7319507728139
20
-44.9999996576726
30
0
0
SPLINE
5
136
100
AcDbEntity
8
1
62
256
6
ByLayer
370
18
48
1
60
0
100
AcDbSpline
70
4
71
3
72
19
73
15
40
0
40
0
40
0
40
0
40
0.0766410133912577
40
0.17266136068332
40
0.268805867990728
40
0.354479003680711
40
0.440464725616508
40
0.526243553366793
40
0.613986303578496
40
0.701937147212634
40
0.789696521830507
40
0.893499036055449
40
0.997625994549083
40
1
40
1
40
1
40
1
41
1
10
116.2213525108
20
-43.5321049406584
30
0
41
1
10
116.492930378876
20
-43.5506689089552
30
0
41
1
10
117.085085545051
20
-43.6015274814961
30
0
41
1
10
117.944926672713
20
-43.7182746996053
30
0
41
1
10
118.739925266565
20
-43.8632532168591
30
0
41
1
10
119.417474347674
20
-44.0147170480039
30
0
41
1
10
119.988999087154
20
-44.1637084940435
30
0
41
1
10
120.485635389046
20
-44.3116799780316
30
0
41
1
10
120.905277411457
20
-44.4527418601801
30
0
41
1
10
121.246133582407
20
-44.5839358103674
30
0
41
1
10
121.518475571431
20
-44.7072462214937
30
0
41
1
10
121.705434877522
20
-44.819461829608
30
0
41
1
10
121.742228891253
20
-44.8720170041568
30
0
41
1
10
121.749839236741
20
-44.9029742338838
30
0
41
1
10
121.749999980993
20
-44.9036636536614
30
0
0
SPLINE
5
137
100
AcDbEntity
8
1
62
256
6
ByLayer
370
18
48
1
60
0
100
AcDbSpline
70
4
71
3
72
19
73
15
40
0
40
0
40
0
40
0
40
0.076641013391258
40
0.172661360683321
40
0.268805867990729
40
0.354479003680712
40
0.44046472561651
40
0.526243553366796
40
0.613986303578499
40
0.701937147212637
40
0.789696521830511
40
0.893499036055452
40
0.997625994549086
40
1
40
1
40
1
40
1
41
1
10
85.2213525108
20
-43.5321049406584
30
0
41
1
10
85.492930378876
20
-43.5506689089552
30
0
41
1
10
86.0850855450512
20
-43.601527481496
30
0
41
1
10
86.9449266727133
20
-43.7182746996053
30
0
41
1
10
87.7399252665653
20
-43.8632532168592
30
0
41
1
10
88.4174743476737
20
-44.0147170480039
30
0
41
1
10
88.9889990871544
20
-44.1637084940435
30
0
41
1
10
89.4856353890463
20
-44.3116799780317
30
0
41
1
10
89.9052774114568
20
-44.4527418601801
30
0
41
1
10
90.2461335824069
20
-44.5839358103674
30
0
41
1
10
90.5184755714305
20
-44.7072462214937
30
0
41
1
10
90.7054348775224
20
-44.8194618296081
30
0
41
1
10
90.742228891252
20
-44.8720170041566
30
0
41
1
10
90.749839236741
20
-44.9029742338839
30
0
41
1
10
90.7499999809929
20
-44.9036636536614
30
0
0
SPLINE
5
138
100
AcDbEntity
8
1
62
256
6
ByLayer
370
18
48
1
60
0
100
AcDbSpline
70
4
71
3
72
19
73
15
40
0
40
0
40
0
40
0
40
0.0766410133912538
40
0.172661360683316
40
0.268805867990724
40
0.354479003680707
40
0.440464725616503
40
0.526243553366789
40
0.613986303578492
40
0.701937147212631
40
0.789696521830504
40
0.893499036055446
40
0.997625994549079
40
1
40
1
40
1
40
1
41
1
10
54.2213525108
20
-43.5321049406584
30
0
41
1
10
54.4929303788759
20
-43.5506689089552
30
0
41
1
10
55.0850855450511
20
-43.6015274814961
30
0
41
1
10
55.9449266727133
20
-43.7182746996053
30
0
41
1
10
56.7399252665653
20
-43.8632532168591
30
0
41
1
10
57.4174743476737
20
-44.0147170480039
30
0
41
1
10
57.9889990871543
20
-44.1637084940435
30
0
41
1
10
58.4856353890462
20
-44.3116799780316
30
0
41
1
10
58.9052774114568
20
-44.4527418601801
30
0
41
1
10
59.2461335824069
20
-44.5839358103674
30
0
41
1
10
59.5184755714305
20
-44.7072462214936
30
0
41
1
10
59.7054348775223
20
-44.8194618296084
30
0
41
1
10
59.7422288912521
20
-44.8720170041559
30
0
41
1
10
59.749839236741
20
-44.9029742338839
30
0
41
1
10
59.7499999809929
20
-44.9036636536614
30
0
0
SPLINE
5
139
100
AcDbEntity
8
1
62
256
6
ByLayer
370
18
48
1
60
0
100
AcDbSpline
70
4
71
3
72
19
73
15
40
0
40
0
40
0
40
0
40
0.086089354869455
40
0.177801405864661
40
0.269295416318618
40
0.371992845282444
40
0.474996192017171
40
0.577621140102166
40
0.652734505337725
40
0.728013829504716
40
0.803031720420053
40
0.889890974801526
40
0.97665558732745
40
1
40
1
40
1
40
1
41
1
10
46.2500000028058
20
-44.9036881866829
30
0
41
1
10
46.2505149742258
20
-44.8830002241954
30
0
41
1
10
46.28113607496
20
-44.8340439595129
30
0
41
1
10
46.4217719824045
20
-44.7395522365166
30
0
41
1
10
46.6684105134029
20
-44.6197364971333
30
0
41
1
10
47.030404032364
20
-44.4748598727209
30
0
41
1
10
47.5184286418597
20
-44.3087366996869
30
0
41
1
10
48.0653148269449
20
-44.1485429452969
30
0
41
1
10
48.6387858050726
20
-44.0021032340664
30
0
41
1
10
49.2108836876488
20
-43.8748478843028
30
0
41
1
10
49.8770167430703
20
-43.7493307613324
30
0
41
1
10
50.6473169966218
20
-43.634489286122
30
0
41
1
10
51.3118462044284
20
-43.5651695538537
30
0
41
1
10
51.6964060977515
20
-43.5375327763227
30
0
41
1
10
51.7786474892
20
-43.5321049406584
30
0
0
SPLINE
5
13A
100
AcDbEntity
8
1
62
256
6
ByLayer
370
18
48
1
60
0
100
AcDbSpline
70
4
71
3
72
10
73
6
40
0
40
0
40
0
40
0
40
0.368172884866981
40
0.733877309299602
40
1
40
1
40
1
40
1
41
1
10
59.7499999809929
20
-44.9036636536614
30
0
41
1
10
59.7508890558278
20
-44.9278353260784
30
0
41
1
10
59.7086063458278
20
-44.9669895469918
30
0
41
1
10
59.5317032393972
20
-44.9943027311157
30
0
41
1
10
59.3544363531154
20
-44.9998827844694
30
0
41
1
10
59.2681926451991
20
-44.9999997068816
30
0
0
SPLINE
5
13B
100
AcDbEntity
8
1
62
256
6
ByLayer
370
18
48
1
60
0
100
AcDbSpline
70
4
71
3
72
19
73
15
40
0
40
0
40
0
40
0
40
0.0860893548694538
40
0.17780140586466
40
0.269295416318617
40
0.371992845282444
40
0.474996192017171
40
0.577621140102165
40
0.652734505337726
40
0.728013829504717
40
0.803031720420053
40
0.889890974801528
40
0.976655587327452
40
1
40
1
40
1
40
1
41
1
10
77.2500000028058
20
-44.9036881866829
30
0
41
1
10
77.2505149742258
20
-44.8830002241954
30
0
41
1
10
77.28113607496
20
-44.8340439595129
30
0
41
1
10
77.4217719824045
20
-44.7395522365166
30
0
41
1
10
77.6684105134029
20
-44.6197364971334
30
0
41
1
10
78.0304040323641
20
-44.4748598727209
30
0
41
1
10
78.5184286418597
20
-44.3087366996869
30
0
41
1
10
79.0653148269449
20
-44.1485429452969
30
0
41
1
10
79.6387858050727
20
-44.0021032340664
30
0
41
1
10
80.2108836876488
20
-43.8748478843028
30
0
41
1
10
80.8770167430703
20
-43.7493307613324
30
0
41
1
10
81.6473169966218
20
-43.634489286122
30
0
41
1
10
82.3118462044285
20
-43.5651695538538
30
0
41
1
10
82.6964060977515
20
-43.5375327763226
30
0
41
1
10
82.7786474892
20
-43.5321049406584
30
0
0
SPLINE
5
13C
100
AcDbEntity
8
1
62
256
6
ByLayer
370
18
48
1
60
0
100
AcDbSpline
70
4
71
3
72
10
73
6
40
0
40
0
40
0
40
0
40
0.368172884867009
40
0.733877309299631
40
1
40
1
40
1
40
1
41
1
10
90.749999980993
20
-44.9036636536614
30
0
41
1
10
90.7508890558278
20
-44.9278353260784
30
0
41
1
10
90.7086063458278
20
-44.9669895469918
30
0
41
1
10
90.5317032393972
20
-44.9943027311157
30
0
41
1
10
90.3544363531154
20
-44.9998827844694
30
0
41
1
10
90.2681926451991
20
-44.9999997068816
30
0
0
SPLINE
5
13D
100
AcDbEntity
8
1
62
256
6
ByLayer
370
18
48
1
60
0
100
AcDbSpline
70
4
71
3
72
19
73
15
40
0
40
0
40
0
40
0
40
0.0860893548694551
40
0.177801405864661
40
0.269295416318619
40
0.371992845282445
40
0.474996192017172
40
0.577621140102166
40
0.652734505337726
40
0.728013829504717
40
0.803031720420053
40
0.889890974801528
40
0.976655587327452
40
1
40
1
40
1
40
1
41
1
10
108.250000002806
20
-44.9036881866829
30
0
41
1
10
108.250514974226
20
-44.8830002241954
30
0
41
1
10
108.28113607496
20
-44.8340439595129
30
0
41
1
10
108.421771982404
20
-44.7395522365166
30
0
41
1
10
108.668410513403
20
-44.6197364971333
30
0
41
1
10
109.030404032364
20
-44.4748598727209
30
0
41
1
10
109.51842864186
20
-44.3087366996869
30
0
41
1
10
110.065314826945
20
-44.1485429452969
30
0
41
1
10
110.638785805073
20
-44.0021032340664
30
0
41
1
10
111.210883687649
20
-43.8748478843028
30
0
41
1
10
111.87701674307
20
-43.7493307613324
30
0
41
1
10
112.647316996622
20
-43.634489286122
30
0
41
1
10
113.311846204428
20
-43.5651695538537
30
0
41
1
10
113.696406097752
20
-43.5375327763226
30
0
41
1
10
113.7786474892
20
-43.5321049406584
30
0
0
SPLINE
5
13E
100
AcDbEntity
8
1
62
256
6
ByLayer
370
18
48
1
60
0
100
AcDbSpline
70
4
71
3
72
10
73
6
40
0
40
0
40
0
40
0
40
0.368172884866998
40
0.73387730929962
40
1
40
1
40
1
40
1
41
1
10
121.749999980993
20
-44.9036636536614
30
0
41
1
10
121.750889055828
20
-44.9278353260784
30
0
41
1
10
121.708606345828
20
-44.9669895469918
30
0
41
1
10
121.531703239397
20
-44.9943027311157
30
0
41
1
10
121.354436353115
20
-44.9998827844694
30
0
41
1
10
121.268192645199
20
-44.9999997068816
30
0
0
SPLINE
5
13F
100
AcDbEntity
8
1
62
256
6
ByLayer
370
18
48
1
60
0
100
AcDbSpline
70
4
71
3
72
38
73
34
40
0
40
0
40
0
40
0
40
0.0215549538184458
40
0.0504463963544235
40
0.0794049994473617
40
0.108941954656885
40
0.139511678900119
40
0.171441364373897
40
0.204811938588447
40
0.239369802971809
40
0.274613159583712
40
0.309995259635351
40
0.345199553385435
40
0.380153961188018
40
0.414875488962223
40
0.449417581165362
40
0.483845280651852
40
0.51822617545638
40
0.552627728935642
40
0.587097776611876
40
0.621709197505805
40
0.656539264203196
40
0.691668578126518
40
0.727172947873491
40
0.763098235716734
40
0.799400261171779
40
0.835730239071249
40
0.867481836549319
40
0.897851503089449
40
0.9269867998709
40
0.955209533463679
40
0.98542722498788
40
1
40
1
40
1
40
1
41
1
10
79.75
20
-14.0588457268121
30
0
41
1
10
79.750089036313
20
-13.9893705939772
30
0
41
1
10
79.7598183891127
20
-13.8283499498949
30
0
41
1
10
79.8112810249864
20
-13.5780895978074
30
0
41
1
10
79.9098136270053
20
-13.3157594301175
30
0
41
1
10
80.0486562395489
20
-13.0657928681883
30
0
41
1
10
80.2274783964938
20
-12.8283807788206
30
0
41
1
10
80.447005119337
20
-12.603885478952
30
0
41
1
10
80.707704873497
20
-12.3938423587429
30
0
41
1
10
81.0082425351528
20
-12.200979669818
30
0
41
1
10
81.3445479777686
20
-12.028581051018
30
0
41
1
10
81.7105831539069
20
-11.8793294399534
30
0
41
1
10
82.1000636600994
20
-11.7546988335584
30
0
41
1
10
82.5076752064649
20
-11.6551697269418
30
0
41
1
10
82.9290044518467
20
-11.5807918030719
30
0
41
1
10
83.3599560775103
20
-11.5315359136842
30
0
41
1
10
83.7965360445441
20
-11.5073713805516
30
0
41
1
10
84.2347641718609
20
-11.5082703510854
30
0
41
1
10
84.6705839287078
20
-11.5341937244077
30
0
41
1
10
85.0999988086279
20
-11.5850798643902
30
0
41
1
10
85.5191369571432
20
-11.6608792502272
30
0
41
1
10
85.9243699056603
20
-11.7616478980772
30
0
41
1
10
86.312207212196
20
-11.887634411687
30
0
41
1
10
86.6791789949083
20
-12.0393767459645
30
0
41
1
10
87.0215289195912
20
-12.217724575417
30
0
41
1
10
87.3343319925445
20
-12.423376627643
30
0
41
1
10
87.600983418772
20
-12.6474631970657
30
0
41
1
10
87.8186460676473
20
-12.8835468286733
30
0
41
1
10
87.9879121963968
20
-13.1240518848868
30
0
41
1
10
88.1160781645965
20
-13.3746610126371
30
0
41
1
10
88.2058384297249
20
-13.6408057352649
30
0
41
1
10
88.2445472457234
20
-13.872652032473
30
0
41
1
10
88.250073606674
20
-14.0158555264161
30
0
41
1
10
88.2499956109186
20
-14.0627087392047
30
0
0
SPLINE
5
140
100
AcDbEntity
8
1
62
256
6
ByLayer
370
18
48
1
60
0
100
AcDbSpline
70
4
71
3
72
38
73
34
40
0
40
0
40
0
40
0
40
0.0215549538184459
40
0.0504463963544236
40
0.0794049994473613
40
0.108941954656885
40
0.139511678900119
40
0.171441364373897
40
0.204811938588447
40
0.239369802971809
40
0.274613159583712
40
0.309995259635351
40
0.345199553385435
40
0.380153961188018
40
0.414875488962224
40
0.449417581165362
40
0.483845280651853
40
0.518226175456379
40
0.552627728935642
40
0.587097776611875
40
0.621709197505806
40
0.656539264203196
40
0.691668578126517
40
0.72717294787349
40
0.763098235716734
40
0.799400261171779
40
0.835730239071249
40
0.867481836549319
40
0.897851503089449
40
0.926986799870899
40
0.955209533463679
40
0.98542722498788
40
1
40
1
40
1
40
1
41
1
10
48.75
20
-14.0588457268121
30
0
41
1
10
48.750089036313
20
-13.9893705939773
30
0
41
1
10
48.7598183891126
20
-13.8283499498949
30
0
41
1
10
48.8112810249864
20
-13.5780895978074
30
0
41
1
10
48.9098136270052
20
-13.3157594301175
30
0
41
1
10
49.0486562395489
20
-13.0657928681883
30
0
41
1
10
49.2274783964938
20
-12.8283807788206
30
0
41
1
10
49.4470051193369
20
-12.603885478952
30
0
41
1
10
49.7077048734969
20
-12.393842358743
30
0
41
1
10
50.0082425351528
20
-12.200979669818
30
0
41
1
10
50.3445479777686
20
-12.028581051018
30
0
41
1
10
50.7105831539069
20
-11.8793294399534
30
0
41
1
10
51.1000636600993
20
-11.7546988335584
30
0
41
1
10
51.5076752064648
20
-11.6551697269418
30
0
41
1
10
51.9290044518467
20
-11.5807918030719
30
0
41
1
10
52.3599560775103
20
-11.5315359136842
30
0
41
1
10
52.7965360445441
20
-11.5073713805517
30
0
41
1
10
53.234764171861
20
-11.5082703510854
30
0
41
1
10
53.6705839287077
20
-11.5341937244077
30
0
41
1
10
54.0999988086278
20
-11.5850798643902
30
0
41
1
10
54.5191369571432
20
-11.6608792502272
30
0
41
1
10
54.9243699056603
20
-11.7616478980772
30
0
41
1
10
55.3122072121959
20
-11.887634411687
30
0
41
1
10
55.6791789949082
20
-12.0393767459645
30
0
41
1
10
56.0215289195912
20
-12.217724575417
30
0
41
1
10
56.3343319925444
20
-12.423376627643
30
0
41
1
10
56.600983418772
20
-12.6474631970657
30
0
41
1
10
56.8186460676472
20
-12.8835468286733
30
0
41
1
10
56.9879121963967
20
-13.1240518848868
30
0
41
1
10
57.1160781645965
20
-13.3746610126371
30
0
41
1
10
57.2058384297248
20
-13.640805735265
30
0
41
1
10
57.2445472457236
20
-13.8726520324729
30
0
41
1
10
57.2500736066738
20
-14.0158555264162
30
0
41
1
10
57.2499956109186
20
-14.0627087392047
30
0
0
SPLINE
5
141
100
AcDbEntity
8
SK1
62
256
6
ByLayer
370
18
48
1
60
0
100
AcDbSpline
70
4
71
2
72
6
73
3
40
0
40
0
40
0
40
1
40
1
40
1
41
0.500003660046511
10
-0.200000000000036
20
7.06635637915061
30
0
41
0.499996339953489
10
-0.200000000000026
20
6.95057438850069
30
0
41
0.500003660046511
10
-0.200000000000036
20
6.83438537300109
30
0
0
SPLINE
5
142
100
AcDbEntity
8
SK1
62
256
6
ByLayer
370
18
48
1
60
0
100
AcDbSpline
70
4
71
2
72
6
73
3
40
0
40
0
40
0
40
1
40
1
40
1
41
0.500003660052447
10
-0.200000000000035
20
-6.83438539663512
30
0
41
0.499996339947553
10
-0.200000000000027
20
-6.95057450632236
30
0
41
0.500003660052447
10
-0.200000000000035
20
-7.06635659049325
30
0
0
LINE
5
70
100
AcDbEntity
8
1
62
256
6
ByLayer
370
18
48
1
60
0
100
AcDbLine
10
110.75
20
-15.763342
30
0
11
110.75
21
-14.058846
31
0
39
0
210
0
220
0
230
1
0
LINE
5
72
100
AcDbEntity
8
1
62
256
6
ByLayer
370
18
48
1
60
0
100
AcDbLine
10
119.25
20
-14.058846
30
0
11
119.25
21
-15.763342
31
0
39
0
210
0
220
0
230
1
0
LINE
5
73
100
AcDbEntity
8
1
62
256
6
ByLayer
370
18
48
1
60
0
100
AcDbLine
10
122
20
34.6
30
0
11
25
21
34.6
31
0
39
0
210
0
220
0
230
1
0
LINE
5
74
100
AcDbEntity
8
1
62
256
6
ByLayer
370
18
48
1
60
0
100
AcDbLine
10
25
20
7.617464
30
0
11
122
21
7.617464
31
0
39
0
210
0
220
0
230
1
0
LINE
5
75
100
AcDbEntity
8
1
62
256
6
ByLayer
370
18
48
1
60
0
100
AcDbLine
10
113.778647
20
31.638584
30
0
11
116.221353
21
31.638584
31
0
39
0
210
0
220
0
230
1
0
LINE
5
76
100
AcDbEntity
8
1
62
256
6
ByLayer
370
18
48
1
60
0
100
AcDbLine
10
82.778647
20
31.638584
30
0
11
85.221353
21
31.638584
31
0
39
0
210
0
220
0
230
1
0
LINE
5
77
100
AcDbEntity
8
1
62
256
6
ByLayer
370
18
48
1
60
0
100
AcDbLine
10
51.778647
20
31.638584
30
0
11
54.221353
21
31.638584
31
0
39
0
210
0
220
0
230
1
0
LINE
5
78
100
AcDbEntity
8
1
62
256
6
ByLayer
370
18
48
1
60
0
100
AcDbLine
10
125
20
-0.802216
30
0
11
35.070714
21
-0.802216
31
0
39
0
210
0
220
0
230
1
0
LINE
5
79
100
AcDbEntity
8
1
62
256
6
ByLayer
370
18
48
1
60
0
100
AcDbLine
10
122
20
-42.217464
30
0
11
25
21
-42.217464
31
0
39
0
210
0
220
0
230
1
0
LINE
5
7A
100
AcDbEntity
8
1
62
256
6
ByLayer
370
18
48
1
60
0
100
AcDbLine
10
124
20
-18.98875
30
0
11
124
21
-39.410631
31
0
39
0
210
0
220
0
230
1
0
LINE
5
7B
100
AcDbEntity
8
1
62
256
6
ByLayer
370
18
48
1
60
0
100
AcDbLine
10
35.858612
20
-18.98875
30
0
11
124
21
-18.98875
31
0
39
0
210
0
220
0
230
1
0
LINE
5
7C
100
AcDbEntity
8
1
62
256
6
ByLayer
370
18
48
1
60
0
100
AcDbLine
10
35.858612
20
-18.98875
30
0
11
35.858612
21
-9.98875
31
0
39
0
210
0
220
0
230
1
0
LINE
5
7D
100
AcDbEntity
8
1
62
256
6
ByLayer
370
18
48
1
60
0
100
AcDbLine
10
0.3
20
-31.5
30
0
11
0
21
-31.2
31
0
39
0
210
0
220
0
230
1
0
LINE
5
7E
100
AcDbEntity
8
1
62
256
6
ByLayer
370
18
48
1
60
0
100
AcDbLine
10
0
20
31.2
30
0
11
0.3
21
31.5
31
0
39
0
210
0
220
0
230
1
0
LINE
5
7F
100
AcDbEntity
8
1
62
256
6
ByLayer
370
18
48
1
60
0
100
AcDbLine
10
22
20
-31.5
30
0
11
0.3
21
-31.5
31
0
39
0
210
0
220
0
230
1
0
LINE
5
80
100
AcDbEntity
8
1
62
256
6
ByLayer
370
18
48
1
60
0
100
AcDbLine
10
0.3
20
31.5
30
0
11
22
21
31.5
31
0
39
0
210
0
220
0
230
1
0
LINE
5
81
100
AcDbEntity
8
1
62
256
6
ByLayer
370
18
48
1
60
0
100
AcDbLine
10
10.538675
20
-30.080593
30
0
11
13.461325
21
-30.080593
31
0
39
0
210
0
220
0
230
1
0
LINE
5
82
100
AcDbEntity
8
1
62
256
6
ByLayer
370
18
48
1
60
0
100
AcDbLine
10
13.461325
20
-9.349221
30
0
11
10.538675
21
-9.349221
31
0
39
0
210
0
220
0
230
1
0
LINE
5
83
100
AcDbEntity
8
1
62
256
6
ByLayer
370
18
48
1
60
0
100
AcDbLine
10
10.538675
20
9.349221
30
0
11
13.461325
21
9.349221
31
0
39
0
210
0
220
0
230
1
0
LINE
5
84
100
AcDbEntity
8
1
62
256
6
ByLayer
370
18
48
1
60
0
100
AcDbLine
10
13.461325
20
30.080593
30
0
11
10.538675
21
30.080593
31
0
39
0
210
0
220
0
230
1
0
LINE
5
85
100
AcDbEntity
8
1
62
256
6
ByLayer
370
18
48
1
60
0
100
AcDbLine
10
10.105662
20
29.913955
30
0
11
10.105662
21
9.869413
31
0
39
0
210
0
220
0
230
1
0
LINE
5
86
100
AcDbEntity
8
1
62
256
6
ByLayer
370
18
48
1
60
0
100
AcDbLine
10
10.538675
20
30.080593
30
0
11
10.538675
21
9.349221
31
0
39
0
210
0
220
0
230
1
0
LINE
5
87
100
AcDbEntity
8
1
62
256
6
ByLayer
370
18
48
1
60
0
100
AcDbLine
10
13.461325
20
-9.349221
30
0
11
13.461325
21
-30.080593
31
0
39
0
210
0
220
0
230
1
0
LINE
5
88
100
AcDbEntity
8
1
62
256
6
ByLayer
370
18
48
1
60
0
100
AcDbLine
10
13.894338
20
-9.869413
30
0
11
13.894338
21
-29.913955
31
0
39
0
210
0
220
0
230
1
0
LINE
5
89
100
AcDbEntity
8
1
62
256
6
ByLayer
370
18
48
1
60
0
100
AcDbLine
10
13.461325
20
30.080593
30
0
11
13.461325
21
9.349221
31
0
39
0
210
0
220
0
230
1
0
LINE
5
8A
100
AcDbEntity
8
1
62
256
6
ByLayer
370
18
48
1
60
0
100
AcDbLine
10
13.894338
20
29.913955
30
0
11
13.894338
21
9.869413
31
0
39
0
210
0
220
0
230
1
0
LINE
5
8B
100
AcDbEntity
8
1
62
256
6
ByLayer
370
18
48
1
60
0
100
AcDbLine
10
10.105662
20
-9.869413
30
0
11
10.105662
21
-29.913955
31
0
39
0
210
0
220
0
230
1
0
LINE
5
8C
100
AcDbEntity
8
1
62
256
6
ByLayer
370
18
48
1
60
0
100
AcDbLine
10
10.538675
20
-9.349221
30
0
11
10.538675
21
-30.080593
31
0
39
0
210
0
220
0
230
1
0
LINE
5
8D
100
AcDbEntity
8
1
62
256
6
ByLayer
370
18
48
1
60
0
100
AcDbLine
10
125
20
-18.48875
30
0
11
124
21
-18.98875
31
0
39
0
210
0
220
0
230
1
0
LINE
5
8E
100
AcDbEntity
8
1
62
256
6
ByLayer
370
18
48
1
60
0
100
AcDbLine
10
35.858612
20
-9.98875
30
0
11
125
21
-9.98875
31
0
39
0
210
0
220
0
230
1
0
LINE
5
8F
100
AcDbEntity
8
SK1
62
256
6
ByLayer
370
18
48
1
60
0
100
AcDbLine
10
-0.2
20
22.45
30
0
11
0
21
22.45
31
0
39
0
210
0
220
0
230
1
0
LINE
5
91
100
AcDbEntity
8
SK1
62
256
6
ByLayer
370
18
48
1
60
0
100
AcDbLine
10
0
20
-22.45
30
0
11
-0.2
21
-22.45
31
0
39
0
210
0
220
0
230
1
0
LINE
5
92
100
AcDbEntity
8
1
62
256
6
ByLayer
370
18
48
1
60
0
100
AcDbLine
10
125
20
-8.622724
30
0
11
36.285133
21
-8.622724
31
0
39
0
210
0
220
0
230
1
0
LINE
5
93
100
AcDbEntity
8
1
62
256
6
ByLayer
370
18
48
1
60
0
100
AcDbLine
10
125
20
-42
30
0
11
122
21
-45
31
0
39
0
210
0
220
0
230
1
0
LINE
5
94
100
AcDbEntity
8
1
62
256
6
ByLayer
370
18
48
1
60
0
100
AcDbLine
10
46.74803
20
-45
30
0
11
25
21
-45
31
0
39
0
210
0
220
0
230
1
0
LINE
5
95
100
AcDbEntity
8
1
62
256
6
ByLayer
370
18
48
1
60
0
100
AcDbLine
10
77.74803
20
-45
30
0
11
59.253395
21
-45
31
0
39
0
210
0
220
0
230
1
0
LINE
5
96
100
AcDbEntity
8
1
62
256
6
ByLayer
370
18
48
1
60
0
100
AcDbLine
10
108.74803
20
-45
30
0
11
90.253395
21
-45
31
0
39
0
210
0
220
0
230
1
0
LINE
5
97
100
AcDbEntity
8
1
62
256
6
ByLayer
370
18
48
1
60
0
100
AcDbLine
10
122
20
-45
30
0
11
121.253395
21
-45
31
0
39
0
210
0
220
0
230
1
0
LINE
5
98
100
AcDbEntity
8
1
62
256
6
ByLayer
370
18
48
1
60
0
100
AcDbLine
10
113.778647
20
-43.532105
30
0
11
116.221353
21
-43.532105
31
0
39
0
210
0
220
0
230
1
0
LINE
5
99
100
AcDbEntity
8
1
62
256
6
ByLayer
370
18
48
1
60
0
100
AcDbLine
10
82.778647
20
-43.532105
30
0
11
85.221353
21
-43.532105
31
0
39
0
210
0
220
0
230
1
0
LINE
5
9A
100
AcDbEntity
8
1
62
256
6
ByLayer
370
18
48
1
60
0
100
AcDbLine
10
51.778647
20
-43.532105
30
0
11
54.221353
21
-43.532105
31
0
39
0
210
0
220
0
230
1
0
LINE
5
9B
100
AcDbEntity
8
1
62
256
6
ByLayer
370
18
48
1
60
0
100
AcDbLine
10
25
20
-45
30
0
11
22
21
-42
31
0
39
0
210
0
220
0
230
1
0
LINE
5
9C
100
AcDbEntity
8
1
62
256
6
ByLayer
370
18
48
1
60
0
100
AcDbLine
10
125
20
34.6
30
0
11
124
21
34.6
31
0
39
0
210
0
220
0
230
1
0
LINE
5
9D
100
AcDbEntity
8
1
62
256
6
ByLayer
370
18
48
1
60
0
100
AcDbLine
10
79.75
20
-15.763342
30
0
11
79.75
21
-14.058846
31
0
39
0
210
0
220
0
230
1
0
LINE
5
9E
100
AcDbEntity
8
1
62
256
6
ByLayer
370
18
48
1
60
0
100
AcDbLine
10
88.25
20
-14.058846
30
0
11
88.25
21
-15.763342
31
0
39
0
210
0
220
0
230
1
0
LINE
5
9F
100
AcDbEntity
8
1
62
256
6
ByLayer
370
18
48
1
60
0
100
AcDbLine
10
48.75
20
-15.763342
30
0
11
48.75
21
-14.058846
31
0
39
0
210
0
220
0
230
1
0
LINE
5
A0
100
AcDbEntity
8
1
62
256
6
ByLayer
370
18
48
1
60
0
100
AcDbLine
10
57.25
20
-14.058846
30
0
11
57.25
21
-15.763342
31
0
39
0
210
0
220
0
230
1
0
LINE
5
A1
100
AcDbEntity
8
SK1
62
256
6
ByLayer
370
18
48
1
60
0
100
AcDbLine
10
-36.500473
20
-21.158352
30
0
11
-36.500473
21
21.158352
31
0
39
0
210
0
220
0
230
1
0
LINE
5
A2
100
AcDbEntity
8
SK1
62
256
6
ByLayer
370
18
48
1
60
0
100
AcDbLine
10
-2.2
20
18.805799
30
0
11
-2.2
21
13.01722
31
0
39
0
210
0
220
0
230
1
0
LINE
5
A3
100
AcDbEntity
8
SK1
62
256
6
ByLayer
370
18
48
1
60
0
100
AcDbLine
10
-2.2
20
-13.017221
30
0
11
-2.2
21
-18.805799
31
0
39
0
210
0
220
0
230
1
0
LINE
5
A4
100
AcDbEntity
8
SK1
62
256
6
ByLayer
370
18
48
1
60
0
100
AcDbLine
10
-2
20
-21.825128
30
0
11
-2
21
21.825128
31
0
39
0
210
0
220
0
230
1
0
LINE
5
A5
100
AcDbEntity
8
SK1
62
256
6
ByLayer
370
18
48
1
60
0
100
AcDbLine
10
-0.4
20
-21.825128
30
0
11
-0.4
21
-6.104232
31
0
39
0
210
0
220
0
230
1
0
LINE
5
A6
100
AcDbEntity
8
SK1
62
256
6
ByLayer
370
18
48
1
60
0
100
AcDbLine
10
-0.4
20
6.104232
30
0
11
-0.4
21
21.825128
31
0
39
0
210
0
220
0
230
1
0
LINE
5
A7
100
AcDbEntity
8
SK1
62
256
6
ByLayer
370
18
48
1
60
0
100
AcDbLine
10
-38
20
20.24181
30
0
11
-38
21
-20.241807
31
0
39
0
210
0
220
0
230
1
0
LINE
5
A8
100
AcDbEntity
8
1
62
256
6
ByLayer
370
18
48
1
60
0
100
AcDbLine
10
118
20
26.732051
30
0
11
115
21
28.464102
31
0
39
0
210
0
220
0
230
1
0
LINE
5
A9
100
AcDbEntity
8
1
62
256
6
ByLayer
370
18
48
1
60
0
100
AcDbLine
10
115
20
21.535898
30
0
11
112
21
23.267949
31
0
39
0
210
0
220
0
230
1
0
LINE
5
AA
100
AcDbEntity
8
1
62
256
6
ByLayer
370
18
48
1
60
0
100
AcDbLine
10
112
20
26.732051
30
0
11
115
21
28.464102
31
0
39
0
210
0
220
0
230
1
0
LINE
5
AB
100
AcDbEntity
8
1
62
256
6
ByLayer
370
18
48
1
60
0
100
AcDbLine
10
115
20
21.535898
30
0
11
118
21
23.267949
31
0
39
0
210
0
220
0
230
1
0
LINE
5
AC
100
AcDbEntity
8
1
62
256
6
ByLayer
370
18
48
1
60
0
100
AcDbLine
10
112
20
23.267949
30
0
11
112
21
26.732051
31
0
39
0
210
0
220
0
230
1
0
LINE
5
AD
100
AcDbEntity
8
1
62
256
6
ByLayer
370
18
48
1
60
0
100
AcDbLine
10
118
20
23.267949
30
0
11
118
21
26.732051
31
0
39
0
210
0
220
0
230
1
0
LINE
5
AE
100
AcDbEntity
8
1
62
256
6
ByLayer
370
18
48
1
60
0
100
AcDbLine
10
87
20
26.732051
30
0
11
84
21
28.464102
31
0
39
0
210
0
220
0
230
1
0
LINE
5
AF
100
AcDbEntity
8
1
62
256
6
ByLayer
370
18
48
1
60
0
100
AcDbLine
10
84
20
21.535898
30
0
11
81
21
23.267949
31
0
39
0
210
0
220
0
230
1
0
LINE
5
B0
100
AcDbEntity
8
1
62
256
6
ByLayer
370
18
48
1
60
0
100
AcDbLine
10
81
20
26.732051
30
0
11
84
21
28.464102
31
0
39
0
210
0
220
0
230
1
0
LINE
5
B1
100
AcDbEntity
8
1
62
256
6
ByLayer
370
18
48
1
60
0
100
AcDbLine
10
84
20
21.535898
30
0
11
87
21
23.267949
31
0
39
0
210
0
220
0
230
1
0
LINE
5
B2
100
AcDbEntity
8
1
62
256
6
ByLayer
370
18
48
1
60
0
100
AcDbLine
10
81
20
23.267949
30
0
11
81
21
26.732051
31
0
39
0
210
0
220
0
230
1
0
LINE
5
B3
100
AcDbEntity
8
1
62
256
6
ByLayer
370
18
48
1
60
0
100
AcDbLine
10
87
20
23.267949
30
0
11
87
21
26.732051
31
0
39
0
210
0
220
0
230
1
0
LINE
5
B4
100
AcDbEntity
8
1
62
256
6
ByLayer
370
18
48
1
60
0
100
AcDbLine
10
56
20
26.732051
30
0
11
53
21
28.464102
31
0
39
0
210
0
220
0
230
1
0
LINE
5
B5
100
AcDbEntity
8
1
62
256
6
ByLayer
370
18
48
1
60
0
100
AcDbLine
10
53
20
21.535898
30
0
11
50
21
23.267949
31
0
39
0
210
0
220
0
230
1
0
LINE
5
B6
100
AcDbEntity
8
1
62
256
6
ByLayer
370
18
48
1
60
0
100
AcDbLine
10
50
20
26.732051
30
0
11
53
21
28.464102
31
0
39
0
210
0
220
0
230
1
0
LINE
5
B7
100
AcDbEntity
8
1
62
256
6
ByLayer
370
18
48
1
60
0
100
AcDbLine
10
53
20
21.535898
30
0
11
56
21
23.267949
31
0
39
0
210
0
220
0
230
1
0
LINE
5
B8
100
AcDbEntity
8
1
62
256
6
ByLayer
370
18
48
1
60
0
100
AcDbLine
10
50
20
23.267949
30
0
11
50
21
26.732051
31
0
39
0
210
0
220
0
230
1
0
LINE
5
B9
100
AcDbEntity
8
1
62
256
6
ByLayer
370
18
48
1
60
0
100
AcDbLine
10
56
20
23.267949
30
0
11
56
21
26.732051
31
0
39
0
210
0
220
0
230
1
0
LINE
5
BA
100
AcDbEntity
8
1
62
256
6
ByLayer
370
18
48
1
60
0
100
AcDbLine
10
122
20
34.6
30
0
11
122
21
7.617464
31
0
39
0
210
0
220
0
230
1
0
LINE
5
BB
100
AcDbEntity
8
1
62
256
6
ByLayer
370
18
48
1
60
0
100
AcDbLine
10
0.3
20
-31.5
30
0
11
0.3
21
31.5
31
0
39
0
210
0
220
0
230
1
0
LINE
5
BC
100
AcDbEntity
8
1
62
256
6
ByLayer
370
18
48
1
60
0
100
AcDbLine
10
0
20
31.2
30
0
11
0
21
-31.2
31
0
39
0
210
0
220
0
230
1
0
LINE
5
BD
100
AcDbEntity
8
SK1
62
256
6
ByLayer
370
18
48
1
60
0
100
AcDbLine
10
-1.307107
20
-4.695915
30
0
11
-1.307107
21
4.695917
31
0
39
0
210
0
220
0
230
1
0
LINE
5
BE
100
AcDbEntity
8
SK1
62
256
6
ByLayer
370
18
48
1
60
0
100
AcDbLine
10
-0.2
20
22.45
30
0
11
-0.2
21
7.454102
31
0
39
0
210
0
220
0
230
1
0
LINE
5
BF
100
AcDbEntity
8
SK1
62
256
6
ByLayer
370
18
48
1
60
0
100
AcDbLine
10
-0.2
20
-7.454103
30
0
11
-0.2
21
-22.45
31
0
39
0
210
0
220
0
230
1
0
LINE
5
C0
100
AcDbEntity
8
1
62
256
6
ByLayer
370
18
48
1
60
0
100
AcDbLine
10
122
20
-42.217464
30
0
11
122
21
-45
31
0
39
0
210
0
220
0
230
1
0
LINE
5
C1
100
AcDbEntity
8
1
62
256
6
ByLayer
370
18
48
1
60
0
100
AcDbLine
10
28
20
-13.774658
30
0
11
28
21
-0.740976
31
0
39
0
210
0
220
0
230
1
0
LINE
5
C2
100
AcDbEntity
8
1
62
256
6
ByLayer
370
18
48
1
60
0
100
AcDbLine
10
125.33
20
-23.916283
30
0
11
125.33
21
-19.916283
31
0
39
0
210
0
220
0
230
1
0
LINE
5
C3
100
AcDbEntity
8
1
62
256
6
ByLayer
370
18
48
1
60
0
100
AcDbLine
10
125.33
20
7.297602
30
0
11
125.33
21
14.618682
31
0
39
0
210
0
220
0
230
1
0
LINE
5
C4
100
AcDbEntity
8
1
62
256
6
ByLayer
370
18
48
1
60
0
100
AcDbLine
10
22
20
-42
30
0
11
22
21
31.6
31
0
39
0
210
0
220
0
230
1
0
LINE
5
C5
100
AcDbEntity
8
1
62
256
6
ByLayer
370
18
48
1
60
0
100
AcDbLine
10
25
20
-45
30
0
11
25
21
34.6
31
0
39
0
210
0
220
0
230
1
0
LINE
5
C6
100
AcDbEntity
8
1
62
256
6
ByLayer
370
18
48
1
60
0
100
AcDbLine
10
125
20
-42
30
0
11
125
21
34.6
31
0
39
0
210
0
220
0
230
1
0
LINE
5
C7
100
AcDbEntity
8
SK3
62
256
6
ByLayer
370
18
48
0.05
60
0
100
AcDbLine
10
27.9908
20
15.5956
30
0
11
27.9908
21
34.6
31
0
39
0
210
0
220
0
230
1
0
LINE
5
C9
100
AcDbEntity
8
80
62
256
6
ByLayer
370
13
48
1
60
0
100
AcDbLine
10
0
20
0
30
0
11
-18.18078
21
0
31
0
39
0
210
0
220
0
230
1
0
LINE
5
CA
100
AcDbEntity
8
SK4
62
256
6
ByLayer
370
18
48
0.05
60
0
100
AcDbLine
10
-40.557324
20
0
30
0
11
129.919982
21
0
31
0
39
0
210
0
220
0
230
1
0
LINE
5
CC
100
AcDbEntity
8
SK3
62
256
6
ByLayer
370
18
48
0.05
60
0
100
AcDbLine
10
27.9908
20
15.5956
30
0
11
125
21
15.5956
31
0
39
0
210
0
220
0
230
1
0
LINE
5
CD
100
AcDbEntity
8
4
62
256
6
ByLayer
370
13
48
0.05
60
0
100
AcDbLine
10
0
20
0
30
0
11
125.002323
21
0
31
0
39
0
210
0
220
0
230
1
0
LINE
5
CF
100
AcDbEntity
8
81
62
256
6
ByLayer
370
13
48
1
60
0
100
AcDbLine
10
125
20
25.1
30
0
11
135
21
25.1
31
0
39
0
210
0
220
0
230
1
0
MTEXT
5
143
100
AcDbEntity
8
SK6
62
256
6
ByLayer
370
18
48
1
60
0
100
AcDbMText
10
3.746672
20
-57.33381
30
0
210
0
220
0
230
1
1
\W0.7246;C6-ASHR3-36125-12-A
40
3.5
41
0
44
1.084337
50
0
71
7
72
5
7
iso_b_vert
0
DIMENSION
5
156
100
AcDbEntity
8
SK2
62
256
6
ByLayer
370
13
48
1
60
0
100
AcDbDimension
2
DimnDraft3D1
10
-47.975546
20
-31.5
30
0
11
-48.225546
21
2.707895
31
0
70
33
71
5
72
1
41
1
210
0
220
0
230
1
3
Standard
100
AcDbAlignedDimension
13
-1.7
23
31.5
33
0
14
-1.7
24
-31.5
34
0
1001
ACAD
1000
DSTYLE
1002
{
1070
   279
1070
     0
1070
    74
1070
     0
1070
   173
1070
     1
1070
   340
1005
144
1070
    77
1070
     1
1070
    73
1070
     0
1070
   171
1070
     3
1070
   274
1070
     4
1070
   177
1070
     7
1070
   176
1070
     7
1070
   178
1070
     7
1070
    78
1070
     8
1070
    41
1041
3.175
1070
   147
1041
1.5
1070
    42
1041
2.0
1070
    44
1041
2.0
1070
   140
1041
3.0
1070
   343
1005
0
1070
   344
1005
0
1002
}
0
DIMENSION
5
164
100
AcDbEntity
8
SK2
62
256
6
ByLayer
370
13
48
1
60
0
100
AcDbDimension
2
DimnDraft3D2
10
22
20
46.609547
30
0
11
9.207895
21
46.609547
31
0
70
32
71
5
72
1
41
1
210
0
220
0
230
1
3
Standard
100
AcDbAlignedDimension
13
0
23
33.2
33
0
14
22
24
33.5
34
0
50
0
100
AcDbRotatedDimension
1001
ACAD
1000
DSTYLE
1002
{
1070
   279
1070
     0
1070
   172
1070
     1
1070
   173
1070
     1
1070
   340
1005
144
1070
    77
1070
     1
1070
    73
1070
     0
1070
   171
1070
     3
1070
   274
1070
     4
1070
   177
1070
     7
1070
   176
1070
     7
1070
   178
1070
     7
1070
    78
1070
     8
1070
    41
1041
3.175
1070
   147
1041
1.5
1070
    42
1041
2.0
1070
    44
1041
2.0
1070
   140
1041
3.0
1070
   343
1005
0
1070
   344
1005
0
1002
}
0
DIMENSION
5
172
100
AcDbEntity
8
SK2
62
256
6
ByLayer
370
13
48
1
60
0
100
AcDbDimension
2
DimnDraft3D3
10
27.9908
20
57.582947
30
0
11
12.203295
21
57.582947
31
0
70
32
71
5
72
1
41
1
210
0
220
0
230
1
3
Standard
100
AcDbAlignedDimension
13
0
23
33.2
33
0
14
27.9908
24
36.6
34
0
50
0
100
AcDbRotatedDimension
1001
ACAD
1000
DSTYLE
1002
{
1070
   279
1070
     0
1070
   172
1070
     1
1070
   173
1070
     1
1070
   340
1005
144
1070
   271
1070
     0
1070
    77
1070
     1
1070
    73
1070
     0
1070
   171
1070
     3
1070
   274
1070
     4
1070
   177
1070
     7
1070
   176
1070
     7
1070
   178
1070
     7
1070
    78
1070
     8
1070
    41
1041
3.175
1070
   147
1041
1.5
1070
    42
1041
2.0
1070
    44
1041
2.0
1070
   140
1041
3.0
1070
   343
1005
173
1070
   344
1005
173
1002
}
0
DIMENSION
5
188
100
AcDbEntity
8
2
62
256
6
ByLayer
370
13
48
1
60
0
100
AcDbDimension
2
DimnDraft3D4
10
125
20
68.858307
30
0
11
59.961842
21
68.858307
31
0
70
32
71
5
72
1
41
1
210
0
220
0
230
1
3
Standard
100
AcDbAlignedDimension
13
0
23
33.2
33
0
14
125
24
36.6
34
0
50
0
100
AcDbRotatedDimension
1001
ACAD
1000
DSTYLE
1002
{
1070
   279
1070
     0
1070
   172
1070
     1
1070
   173
1070
     1
1070
   340
1005
144
1070
   271
1070
     3
1070
    77
1070
     1
1070
    73
1070
     0
1070
   171
1070
     3
1070
   274
1070
     4
1070
   177
1070
     7
1070
   176
1070
     7
1070
   178
1070
     7
1070
    78
1070
     8
1070
    41
1041
3.175
1070
   147
1041
1.5
1070
    42
1041
2.0
1070
    44
1041
2.0
1070
   140
1041
3.0
1070
   343
1005
173
1070
   344
1005
173
1002
}
0
DIMENSION
5
196
100
AcDbEntity
8
SK2
62
256
6
ByLayer
370
13
48
1
60
0
100
AcDbDimension
2
DimnDraft3D5
10
142.489986
20
15.5956
30
0
11
142.489986
21
4.651747
31
0
70
32
71
5
72
1
41
1
210
0
220
0
230
1
3
Standard
100
AcDbAlignedDimension
13
131.919982
23
0
33
0
14
127
24
15.5956
34
0
50
90
100
AcDbRotatedDimension
1001
ACAD
1000
DSTYLE
1002
{
1070
    74
1070
     0
1070
   279
1070
     0
1070
   172
1070
     1
1070
   173
1070
     1
1070
   340
1005
144
1070
   271
1070
     1
1070
    77
1070
     1
1070
    73
1070
     0
1070
   171
1070
     3
1070
   274
1070
     4
1070
   177
1070
     7
1070
   176
1070
     7
1070
   178
1070
     7
1070
    78
1070
     8
1070
    41
1041
3.175
1070
   147
1041
1.5
1070
    42
1041
2.0
1070
    44
1041
2.0
1070
   140
1041
3.0
1070
   343
1005
173
1070
   344
1005
173
1002
}
0
DIMENSION
5
1A4
100
AcDbEntity
8
SK2
62
256
6
ByLayer
370
13
48
1
60
0
100
AcDbDimension
2
DimnDraft3D6
10
154.463321
20
34.6
30
0
11
154.463321
21
13.621053
31
0
70
32
71
5
72
1
41
1
210
0
220
0
230
1
3
Standard
100
AcDbAlignedDimension
13
131.919982
23
0
33
0
14
124
24
34.6
34
0
50
90
100
AcDbRotatedDimension
1001
ACAD
1000
DSTYLE
1002
{
1070
    74
1070
     0
1070
   279
1070
     0
1070
   172
1070
     1
1070
   173
1070
     1
1070
   340
1005
144
1070
   271
1070
     1
1070
    77
1070
     1
1070
    73
1070
     0
1070
   171
1070
     3
1070
   274
1070
     4
1070
   177
1070
     7
1070
   176
1070
     7
1070
   178
1070
     7
1070
    78
1070
     8
1070
    41
1041
3.175
1070
   147
1041
1.5
1070
    42
1041
2.0
1070
    44
1041
2.0
1070
   140
1041
3.0
1070
   343
1005
0
1070
   344
1005
0
1002
}
0
DIMENSION
5
1B2
100
AcDbEntity
8
SK2
62
256
6
ByLayer
370
13
48
1
60
0
100
AcDbDimension
2
DimnDraft3D7
10
154.463321
20
-45
30
0
11
154.463321
21
3.858452
31
0
70
32
71
5
72
1
41
1
210
0
220
0
230
1
3
Standard
100
AcDbAlignedDimension
13
131.919982
23
0
33
0
14
124
24
-45
34
0
50
90
100
AcDbRotatedDimension
1001
ACAD
1000
DSTYLE
1002
{
1070
    74
1070
     0
1070
   279
1070
     0
1070
   172
1070
     1
1070
   173
1070
     1
1070
   340
1005
144
1070
   271
1070
     1
1070
    77
1070
     1
1070
    73
1070
     0
1070
   171
1070
     3
1070
   274
1070
     4
1070
   177
1070
     7
1070
   176
1070
     7
1070
   178
1070
     7
1070
    78
1070
     8
1070
    41
1041
3.175
1070
   147
1041
1.5
1070
    42
1041
2.0
1070
    44
1041
2.0
1070
   140
1041
3.0
1070
   343
1005
0
1070
   344
1005
0
1002
}
0
ENDSEC
0
SECTION
2
OBJECTS
0
DICTIONARY
5
21e
330
0
100
AcDbDictionary
280
0
281
1
3
ACAD_GROUP
350
21f
3
ACAD_MLINESTYLE
350
220
0
DICTIONARY
5
21f
330
0
100
AcDbDictionary
280
0
281
1
0
DICTIONARY
5
220
330
0
100
AcDbDictionary
280
0
281
1
3
Standard
350
18
0
MLINESTYLE
5
18
330
220
100
AcDbMlineStyle
2
Standard
70
0
3

62
256
51
90
52
90
71
2
49
-0.5
62
256
6
ByLayer
49
0.5
62
256
6
ByLayer
0
RASTERVARIABLES
5
20b
330

100
AcDbRasterVariables
90
0
70
1
71
1
72
1
0
ENDSEC
0
EOF
